  0
SECTION
  2
HEADER
  9
$ACADVER
  1
AC1015
  9
$ACADMAINTVER
 70
     6
  9
$DWGCODEPAGE
  3
ANSI_1252
  9
$INSBASE
 10
0.0
 20
0.0
 30
0.0
  9
$EXTMIN
 10
-852.7523
 20
-603.858075
 30
0.0
  9
$EXTMAX
 10
1247.2477
 20
881.141925
 30
0.0
  9
$LIMMIN
 10
-852.7523
 20
-603.858075
  9
$LIMMAX
 10
1247.2477
 20
881.141925
  9
$ORTHOMODE
 70
     0
  9
$REGENMODE
 70
     1
  9
$FILLMODE
 70
     1
  9
$QTEXTMODE
 70
     0
  9
$MIRRTEXT
 70
     1
  9
$LTSCALE
 40
5.0
  9
$ATTMODE
 70
     1
  9
$TEXTSIZE
 40
2.5
  9
$TRACEWID
 40
1.0
  9
$TEXTSTYLE
  7
Standard
  9
$CLAYER
  8
0
  9
$CELTYPE
  6
ByLayer
  9
$CECOLOR
 62
     7
  9
$CELTSCALE
 40
1.0
  9
$DISPSILH
 70
     0
  9
$DIMSCALE
 40
5.0
  9
$DIMASZ
 40
3.5
  9
$DIMEXO
 40
0.625
  9
$DIMDLI
 40
3.75
  9
$DIMRND
 40
0.0
  9
$DIMDLE
 40
0.0
  9
$DIMEXE
 40
1.25
  9
$DIMTP
 40
0.0
  9
$DIMTM
 40
0.0
  9
$DIMTXT
 40
3.5
  9
$DIMCEN
 40
2.5
  9
$DIMTSZ
 40
0.0
  9
$DIMTOL
 70
     0
  9
$DIMLIM
 70
     0
  9
$DIMTIH
 70
     0
  9
$DIMTOH
 70
     0
  9
$DIMSE1
 70
     0
  9
$DIMSE2
 70
     0
  9
$DIMTAD
 70
     1
  9
$DIMZIN
 70
     8
  9
$DIMBLK
  1

  9
$DIMASO
 70
     1
  9
$DIMSHO
 70
     1
  9
$DIMPOST
  1

  9
$DIMAPOST
  1

  9
$DIMALT
 70
     0
  9
$DIMALTD
 70
     3
  9
$DIMALTF
 40
0.03937
  9
$DIMLFAC
 40
1.0
  9
$DIMTOFL
 70
     1
  9
$DIMTVP
 40
0.0
  9
$DIMTIX
 70
     0
  9
$DIMSOXD
 70
     0
  9
$DIMSAH
 70
     0
  9
$DIMBLK1
  1

  9
$DIMBLK2
  1

  9
$DIMSTYLE
  2
ISO-25
  9
$DIMCLRD
 70
     0
  9
$DIMCLRE
 70
     0
  9
$DIMCLRT
 70
     0
  9
$DIMTFAC
 40
1.0
  9
$DIMGAP
 40
0.625
  9
$DIMJUST
 70
     0
  9
$DIMSD1
 70
     0
  9
$DIMSD2
 70
     0
  9
$DIMTOLJ
 70
     0
  9
$DIMTZIN
 70
     8
  9
$DIMALTZ
 70
     0
  9
$DIMALTTZ
 70
     0
  9
$DIMUPT
 70
     0
  9
$DIMDEC
 70
     2
  9
$DIMTDEC
 70
     2
  9
$DIMALTU
 70
     2
  9
$DIMALTTD
 70
     3
  9
$DIMTXSTY
  7
Standard
  9
$DIMAUNIT
 70
     0
  9
$DIMADEC
 70
     0
  9
$DIMALTRND
 40
0.0
  9
$DIMAZIN
 70
     0
  9
$DIMDSEP
 70
    44
  9
$DIMATFIT
 70
     3
  9
$DIMFRAC
 70
     0
  9
$DIMLDRBLK
  1

  9
$DIMLUNIT
 70
     2
  9
$DIMLWD
 70
    -2
  9
$DIMLWE
 70
    -2
  9
$DIMTMOVE
 70
     0
  9
$LUNITS
 70
     2
  9
$LUPREC
 70
     4
  9
$SKETCHINC
 40
1.0
  9
$FILLETRAD
 40
10.0
  9
$AUNITS
 70
     0
  9
$AUPREC
 70
     0
  9
$MENU
  1
.
  9
$ELEVATION
 40
0.0
  9
$PELEVATION
 40
0.0
  9
$THICKNESS
 40
0.0
  9
$LIMCHECK
 70
     0
  9
$CHAMFERA
 40
10.0
  9
$CHAMFERB
 40
10.0
  9
$CHAMFERC
 40
20.0
  9
$CHAMFERD
 40
0.0
  9
$SKPOLY
 70
     0
  9
$TDCREATE
 40
2456014.412512072
  9
$TDUCREATE
 40
2456014.329178738
  9
$TDUPDATE
 40
2456014.412512084
  9
$TDUUPDATE
 40
2456014.32917875
  9
$TDINDWG
 40
0.0000000116
  9
$TDUSRTIMER
 40
0.0000000116
  9
$USRTIMER
 70
     1
  9
$ANGBASE
 50
0.0
  9
$ANGDIR
 70
     0
  9
$PDMODE
 70
     0
  9
$PDSIZE
 40
0.0
  9
$PLINEWID
 40
0.0
  9
$SPLFRAME
 70
     0
  9
$SPLINETYPE
 70
     6
  9
$SPLINESEGS
 70
     8
  9
$HANDSEED
  5
75F
  9
$SURFTAB1
 70
     6
  9
$SURFTAB2
 70
     6
  9
$SURFTYPE
 70
     6
  9
$SURFU
 70
     6
  9
$SURFV
 70
     6
  9
$UCSBASE
  2

  9
$UCSNAME
  2

  9
$UCSORG
 10
0.0
 20
0.0
 30
0.0
  9
$UCSXDIR
 10
1.0
 20
0.0
 30
0.0
  9
$UCSYDIR
 10
0.0
 20
1.0
 30
0.0
  9
$UCSORTHOREF
  2

  9
$UCSORTHOVIEW
 70
     0
  9
$UCSORGTOP
 10
0.0
 20
0.0
 30
0.0
  9
$UCSORGBOTTOM
 10
0.0
 20
0.0
 30
0.0
  9
$UCSORGLEFT
 10
0.0
 20
0.0
 30
0.0
  9
$UCSORGRIGHT
 10
0.0
 20
0.0
 30
0.0
  9
$UCSORGFRONT
 10
0.0
 20
0.0
 30
0.0
  9
$UCSORGBACK
 10
0.0
 20
0.0
 30
0.0
  9
$PUCSBASE
  2

  9
$PUCSNAME
  2

  9
$PUCSORG
 10
0.0
 20
0.0
 30
0.0
  9
$PUCSXDIR
 10
1.0
 20
0.0
 30
0.0
  9
$PUCSYDIR
 10
0.0
 20
1.0
 30
0.0
  9
$PUCSORTHOREF
  2

  9
$PUCSORTHOVIEW
 70
     0
  9
$PUCSORGTOP
 10
0.0
 20
0.0
 30
0.0
  9
$PUCSORGBOTTOM
 10
0.0
 20
0.0
 30
0.0
  9
$PUCSORGLEFT
 10
0.0
 20
0.0
 30
0.0
  9
$PUCSORGRIGHT
 10
0.0
 20
0.0
 30
0.0
  9
$PUCSORGFRONT
 10
0.0
 20
0.0
 30
0.0
  9
$PUCSORGBACK
 10
0.0
 20
0.0
 30
0.0
  9
$USERI1
 70
     0
  9
$USERI2
 70
     0
  9
$USERI3
 70
     0
  9
$USERI4
 70
     0
  9
$USERI5
 70
     0
  9
$USERR1
 40
0.0
  9
$USERR2
 40
0.0
  9
$USERR3
 40
0.0
  9
$USERR4
 40
0.0
  9
$USERR5
 40
0.0
  9
$WORLDVIEW
 70
     1
  9
$SHADEDGE
 70
     3
  9
$SHADEDIF
 70
    70
  9
$TILEMODE
 70
     1
  9
$MAXACTVP
 70
    64
  9
$PINSBASE
 10
0.0
 20
0.0
 30
0.0
  9
$PLIMCHECK
 70
     0
  9
$PEXTMIN
 10
-852.7523
 20
-603.858075
 30
0.0
  9
$PEXTMAX
 10
1247.2477
 20
881.141925
 30
0.0
  9
$PLIMMIN
 10
-852.7523
 20
-603.858075
  9
$PLIMMAX
 10
1247.2477
 20
881.141925
  9
$UNITMODE
 70
     0
  9
$VISRETAIN
 70
     1
  9
$PLINEGEN
 70
     0
  9
$PSLTSCALE
 70
     1
  9
$TREEDEPTH
 70
  3020
  9
$CMLSTYLE
  2
Standard
  9
$CMLJUST
 70
     0
  9
$CMLSCALE
 40
20.0
  9
$PROXYGRAPHICS
 70
     1
  9
$MEASUREMENT
 70
     1
  9
$CELWEIGHT
370
    -1
  9
$ENDCAPS
280
     0
  9
$JOINSTYLE
280
     0
  9
$LWDISPLAY
290
     0
  9
$INSUNITS
 70
     4
  9
$HYPERLINKBASE
  1

  9
$STYLESHEET
  1

  9
$XEDIT
290
     1
  9
$CEPSNTYPE
380
     0
  9
$PSTYLEMODE
290
     1
  9
$FINGERPRINTGUID
  2
{FAEB1C30-E019-11D5-929B-00C0DF256EC4}
  9
$VERSIONGUID
  2
{FAEB1C32-E019-11D5-929B-00C0DF256EC4}
  9
$EXTNAMES
290
     1
  9
$PSVPSCALE
 40
0.0
  9
$OLESTARTUP
290
     0
  0
ENDSEC
  0
SECTION
  2
CLASSES
  0
CLASS
  1
ACDBDICTIONARYWDFLT
  2
AcDbDictionaryWithDefault
  3
ObjectDBX Classes
 90
        0
280
     0
281
     0
  0
CLASS
  1
ACDBPLACEHOLDER
  2
AcDbPlaceHolder
  3
ObjectDBX Classes
 90
        0
280
     0
281
     0
  0
CLASS
  1
LAYOUT
  2
AcDbLayout
  3
ObjectDBX Classes
 90
        0
280
     0
281
     0
  0
ENDSEC
  0
SECTION
  2
TABLES
  0
TABLE
  2
VPORT
  5
8
330
0
100
AcDbSymbolTable
 70
     2
  0
VPORT
  5
29
330
8
100
AcDbSymbolTableRecord
100
AcDbViewportTableRecord
  2
*ACTIVE
 70
     0
 10
0.0
 20
0.0
 11
1.0
 21
1.0
 12
197.2477
 22
138.641925
 13
0.0
 23
0.0
 14
1.0
 24
1.0
 15
0.0
 25
0.0
 16
0.0
 26
0.0
 36
1.0
 17
0.0
 27
0.0
 37
0.0
 40
1485.0
 41
1.414141
 42
50.0
 43
0.0
 44
0.0
 50
0.0
 51
0.0
 71
    16
 72
   100
 73
     1
 74
     0
 75
     0
 76
     0
 77
     0
 78
     0
281
     0
 65
     0
110
0.0
120
0.0
130
0.0
111
1.0
121
0.0
131
0.0
112
0.0
122
1.0
132
0.0
 79
     0
146
0.0
  0
ENDTAB
  0
TABLE
  2
LTYPE
  5
5
330
0
100
AcDbSymbolTable
 70
     3
  0
LTYPE
  5
14
330
5
100
AcDbSymbolTableRecord
100
AcDbLinetypeTableRecord
  2
ByBlock
 70
     0
  3

 72
    65
 73
     0
 40
0.0
  0
LTYPE
  5
15
330
5
100
AcDbSymbolTableRecord
100
AcDbLinetypeTableRecord
  2
ByLayer
 70
     0
  3

 72
    65
 73
     0
 40
0.0
  0
LTYPE
  5
16
330
5
100
AcDbSymbolTableRecord
100
AcDbLinetypeTableRecord
  2
Continuous
 70
     0
  3
Solid line
 72
    65
 73
     0
 40
0.0
  0
LTYPE
  5
2A
330
5
100
AcDbSymbolTableRecord
100
AcDbLinetypeTableRecord
  2
DASHED
 70
     0
  3
__ __ __ __ __
 72
    65
 73
     2
 40
6.25
 49
5.0
 74
     4
 75
     0
340
0
 46
1.0
 50
0.0
 44
0.0
 45
0.0
 49
-1.25
 74
     4
 75
     0
340
0
 46
1.0
 50
0.0
 44
0.0
 45
0.0
  0
LTYPE
  5
175
330
5
100
AcDbSymbolTableRecord
100
AcDbLinetypeTableRecord
  2
DASHDOT
 70
     0
  3
__ . __ . __ . __ . __
 72
    65
 73
     4
 40
7.5
 49
5.0
 74
     4
 75
     0
340
0
 46
1.0
 50
0.0
 44
0.0
 45
0.0
 49
-1.25
 74
     4
 75
     0
340
0
 46
1.0
 50
0.0
 44
0.0
 45
0.0
 49
0.0
 74
     4
 75
     0
340
0
 46
1.0
 50
0.0
 44
0.0
 45
0.0
 49
-1.25
 74
     4
 75
     0
340
0
 46
1.0
 50
0.0
 44
0.0
 45
0.0
  0
ENDTAB
  0
TABLE
  2
LAYER
  5
2
330
0
100
AcDbSymbolTable
 70
     7
  0
LAYER
  5
10
330
2
100
AcDbSymbolTableRecord
100
AcDbLayerTableRecord
  2
0
 70
     0
 62
     7
  6
Continuous
370
    -3
390
F
  0
LAYER
  5
2B
330
2
100
AcDbSymbolTableRecord
100
AcDbLayerTableRecord
  2
LC-INFO-1-5-mm-A3-0
 70
     1
 62
     7
  6
ByBlock
370
    -3
390
F
  0
LAYER
  5
2C
330
2
100
AcDbSymbolTableRecord
100
AcDbLayerTableRecord
  2
LC-CUT-HIDDEN
 70
     0
 62
     7
  6
DASHED
370
    -3
390
F
  0
LAYER
  5
2D
330
2
100
AcDbSymbolTableRecord
100
AcDbLayerTableRecord
  2
LC-VIEWPORT
 70
     0
 62
     7
  6
ByBlock
370
    -3
390
F
  0
LAYER
  5
2E
330
2
100
AcDbSymbolTableRecord
100
AcDbLayerTableRecord
  2
LC-3D-HIDDEN
 70
     0
 62
     9
  6
DASHED
370
    -3
390
F
  0
LAYER
  5
30
330
2
100
AcDbSymbolTableRecord
100
AcDbLayerTableRecord
  2
LC-001-100-D00-0
 70
     0
 62
     1
  6
ByBlock
370
    -3
390
F
  0
LAYER
  5
168
330
2
100
AcDbSymbolTableRecord
100
AcDbLayerTableRecord
  2
Defpoints
 70
     0
 62
     7
  6
Continuous
290
     0
370
    -3
390
F
  0
ENDTAB
  0
TABLE
  2
STYLE
  5
3
330
0
100
AcDbSymbolTable
 70
     3
  0
STYLE
  5
11
330
3
100
AcDbSymbolTableRecord
100
AcDbTextStyleTableRecord
  2
Standard
 70
     0
 40
0.0
 41
1.0
 50
0.0
 71
     0
 42
2.5
  3
txt
  4

  0
STYLE
  5
2F
330
3
100
AcDbSymbolTableRecord
100
AcDbTextStyleTableRecord
  2
LCTX15-400-0-0-Arial
 70
     0
 40
0.0
 41
0.8
 50
0.0
 71
     0
 42
3.5
  3

  4

1001
ACAD
1000
Arial
1071
 16777218
  0
STYLE
  5
165
330
3
100
AcDbSymbolTableRecord
100
AcDbTextStyleTableRecord
  2
LCTX15-400-0-0pDIN-Schrift
 70
     0
 40
2.5
 41
0.8
 50
15.0
 71
     0
 42
3.5
  3
STANDARD
  4

  0
ENDTAB
  0
TABLE
  2
VIEW
  5
6
330
0
100
AcDbSymbolTable
 70
     0
  0
ENDTAB
  0
TABLE
  2
UCS
  5
7
330
0
100
AcDbSymbolTable
 70
     0
  0
ENDTAB
  0
TABLE
  2
APPID
  5
9
330
0
100
AcDbSymbolTable
 70
     1
  0
APPID
  5
12
330
9
100
AcDbSymbolTableRecord
100
AcDbRegAppTableRecord
  2
ACAD
 70
     0
  0
ENDTAB
  0
TABLE
  2
DIMSTYLE
  5
A
330
0
100
AcDbSymbolTable
 70
     2
100
AcDbDimStyleTable
  0
DIMSTYLE
105
27
330
A
100
AcDbSymbolTableRecord
100
AcDbDimStyleTableRecord
  2
ISO-25
 70
     0
 41
2.5
 42
0.625
 43
3.75
 44
1.25
 73
     0
 74
     0
 77
     1
 78
     8
140
2.5
141
2.5
143
0.03937
147
0.625
171
     3
172
     1
271
     2
272
     2
274
     3
278
    44
283
     0
284
     8
340
11
  0
DIMSTYLE
105
166
102
{ACAD_REACTORS
330
167
330
62E
330
63B
330
648
330
656
330
663
330
670
330
67F
330
68E
330
69C
102
}
330
A
100
AcDbSymbolTableRecord
100
AcDbDimStyleTableRecord
  2
LC-DIM-L-0100-02-02
 70
     0
 40
5.0
 41
10.0
 42
0.0
 43
7.5
 44
1.8
 73
     0
 74
     0
 77
     1
 78
     8
 79
     2
140
10.0
141
0.0
146
0.71
147
1.5
176
     2
177
     2
178
     2
179
     2
271
     2
278
    44
289
     1
340
165
  0
ENDTAB
  0
TABLE
  2
BLOCK_RECORD
  5
1
330
0
100
AcDbSymbolTable
 70
    48
  0
BLOCK_RECORD
  5
1F
330
1
100
AcDbSymbolTableRecord
100
AcDbBlockTableRecord
  2
*Model_Space
340
22
  0
BLOCK_RECORD
  5
1B
330
1
100
AcDbSymbolTableRecord
100
AcDbBlockTableRecord
  2
*Paper_Space
340
1E
  0
BLOCK_RECORD
  5
23
330
1
100
AcDbSymbolTableRecord
100
AcDbBlockTableRecord
  2
*Paper_Space0
340
26
  0
BLOCK_RECORD
  5
4A
330
1
100
AcDbSymbolTableRecord
100
AcDbBlockTableRecord
  2
KLON1
340
0
102
{BLKREFS
331
50
102
}
  0
BLOCK_RECORD
  5
53
330
1
100
AcDbSymbolTableRecord
100
AcDbBlockTableRecord
  2
KLON2
340
0
102
{BLKREFS
331
58
102
}
  0
BLOCK_RECORD
  5
59
330
1
100
AcDbSymbolTableRecord
100
AcDbBlockTableRecord
  2
KLON3
340
0
102
{BLKREFS
331
5E
102
}
  0
BLOCK_RECORD
  5
5F
330
1
100
AcDbSymbolTableRecord
100
AcDbBlockTableRecord
  2
KLON4
340
0
102
{BLKREFS
331
64
102
}
  0
BLOCK_RECORD
  5
65
330
1
100
AcDbSymbolTableRecord
100
AcDbBlockTableRecord
  2
KLON5
340
0
102
{BLKREFS
331
6A
102
}
  0
BLOCK_RECORD
  5
6D
330
1
100
AcDbSymbolTableRecord
100
AcDbBlockTableRecord
  2
KLON6
340
0
102
{BLKREFS
331
73
102
}
  0
BLOCK_RECORD
  5
82
330
1
100
AcDbSymbolTableRecord
100
AcDbBlockTableRecord
  2
KLON7
340
0
102
{BLKREFS
331
87
102
}
  0
BLOCK_RECORD
  5
88
330
1
100
AcDbSymbolTableRecord
100
AcDbBlockTableRecord
  2
KLON8
340
0
102
{BLKREFS
331
8D
102
}
  0
BLOCK_RECORD
  5
8F
330
1
100
AcDbSymbolTableRecord
100
AcDbBlockTableRecord
  2
KLON9
340
0
102
{BLKREFS
331
95
102
}
  0
BLOCK_RECORD
  5
96
330
1
100
AcDbSymbolTableRecord
100
AcDbBlockTableRecord
  2
KLON10
340
0
102
{BLKREFS
331
9B
102
}
  0
BLOCK_RECORD
  5
9C
330
1
100
AcDbSymbolTableRecord
100
AcDbBlockTableRecord
  2
KLON11
340
0
102
{BLKREFS
331
A2
102
}
  0
BLOCK_RECORD
  5
A3
330
1
100
AcDbSymbolTableRecord
100
AcDbBlockTableRecord
  2
KLON12
340
0
102
{BLKREFS
331
A9
102
}
  0
BLOCK_RECORD
  5
AA
330
1
100
AcDbSymbolTableRecord
100
AcDbBlockTableRecord
  2
KLON13
340
0
102
{BLKREFS
331
B0
102
}
  0
BLOCK_RECORD
  5
B1
330
1
100
AcDbSymbolTableRecord
100
AcDbBlockTableRecord
  2
KLON14
340
0
102
{BLKREFS
331
B6
102
}
  0
BLOCK_RECORD
  5
169
330
1
100
AcDbSymbolTableRecord
100
AcDbBlockTableRecord
  2
*D15
340
0
  0
BLOCK_RECORD
  5
417
330
1
100
AcDbSymbolTableRecord
100
AcDbBlockTableRecord
  2
KLON15
340
0
102
{BLKREFS
331
427
102
}
  0
BLOCK_RECORD
  5
428
330
1
100
AcDbSymbolTableRecord
100
AcDbBlockTableRecord
  2
KLON16
340
0
102
{BLKREFS
331
43B
102
}
  0
BLOCK_RECORD
  5
43F
330
1
100
AcDbSymbolTableRecord
100
AcDbBlockTableRecord
  2
KLON17
340
0
102
{BLKREFS
331
444
102
}
  0
BLOCK_RECORD
  5
58A
330
1
100
AcDbSymbolTableRecord
100
AcDbBlockTableRecord
  2
KLON18
340
0
102
{BLKREFS
331
593
102
}
  0
BLOCK_RECORD
  5
594
330
1
100
AcDbSymbolTableRecord
100
AcDbBlockTableRecord
  2
KLON19
340
0
102
{BLKREFS
331
59D
102
}
  0
BLOCK_RECORD
  5
5B4
330
1
100
AcDbSymbolTableRecord
100
AcDbBlockTableRecord
  2
KLON20
340
0
102
{BLKREFS
331
5BC
102
}
  0
BLOCK_RECORD
  5
5BD
330
1
100
AcDbSymbolTableRecord
100
AcDbBlockTableRecord
  2
KLON21
340
0
102
{BLKREFS
331
5C9
102
}
  0
BLOCK_RECORD
  5
5CA
330
1
100
AcDbSymbolTableRecord
100
AcDbBlockTableRecord
  2
KLON22
340
0
102
{BLKREFS
331
5D6
102
}
  0
BLOCK_RECORD
  5
62F
330
1
100
AcDbSymbolTableRecord
100
AcDbBlockTableRecord
  2
*D24
340
0
  0
BLOCK_RECORD
  5
63C
330
1
100
AcDbSymbolTableRecord
100
AcDbBlockTableRecord
  2
*D25
340
0
  0
BLOCK_RECORD
  5
649
330
1
100
AcDbSymbolTableRecord
100
AcDbBlockTableRecord
  2
*D26
340
0
  0
BLOCK_RECORD
  5
657
330
1
100
AcDbSymbolTableRecord
100
AcDbBlockTableRecord
  2
*D27
340
0
  0
BLOCK_RECORD
  5
664
330
1
100
AcDbSymbolTableRecord
100
AcDbBlockTableRecord
  2
*D28
340
0
  0
BLOCK_RECORD
  5
671
330
1
100
AcDbSymbolTableRecord
100
AcDbBlockTableRecord
  2
*D29
340
0
  0
BLOCK_RECORD
  5
680
330
1
100
AcDbSymbolTableRecord
100
AcDbBlockTableRecord
  2
*D30
340
0
  0
BLOCK_RECORD
  5
68F
330
1
100
AcDbSymbolTableRecord
100
AcDbBlockTableRecord
  2
*D31
340
0
  0
BLOCK_RECORD
  5
69D
330
1
100
AcDbSymbolTableRecord
100
AcDbBlockTableRecord
  2
*D32
340
0
  0
BLOCK_RECORD
  5
6AB
330
1
100
AcDbSymbolTableRecord
100
AcDbBlockTableRecord
  2
KLON23
340
0
102
{BLKREFS
331
6B0
102
}
  0
BLOCK_RECORD
  5
6B5
330
1
100
AcDbSymbolTableRecord
100
AcDbBlockTableRecord
  2
KLON24
340
0
102
{BLKREFS
331
6BA
102
}
  0
BLOCK_RECORD
  5
6BB
330
1
100
AcDbSymbolTableRecord
100
AcDbBlockTableRecord
  2
KLON25
340
0
102
{BLKREFS
331
6C0
102
}
  0
BLOCK_RECORD
  5
6C1
330
1
100
AcDbSymbolTableRecord
100
AcDbBlockTableRecord
  2
KLON26
340
0
102
{BLKREFS
331
6CD
102
}
  0
BLOCK_RECORD
  5
6CE
330
1
100
AcDbSymbolTableRecord
100
AcDbBlockTableRecord
  2
KLON27
340
0
102
{BLKREFS
331
6D3
102
}
  0
BLOCK_RECORD
  5
6D4
330
1
100
AcDbSymbolTableRecord
100
AcDbBlockTableRecord
  2
KLON28
340
0
102
{BLKREFS
331
6DF
102
}
  0
BLOCK_RECORD
  5
6E0
330
1
100
AcDbSymbolTableRecord
100
AcDbBlockTableRecord
  2
KLON29
340
0
102
{BLKREFS
331
6E6
102
}
  0
BLOCK_RECORD
  5
6E7
330
1
100
AcDbSymbolTableRecord
100
AcDbBlockTableRecord
  2
KLON30
340
0
102
{BLKREFS
331
6ED
102
}
  0
BLOCK_RECORD
  5
6EF
330
1
100
AcDbSymbolTableRecord
100
AcDbBlockTableRecord
  2
KLON31
340
0
102
{BLKREFS
331
6F4
102
}
  0
BLOCK_RECORD
  5
6FA
330
1
100
AcDbSymbolTableRecord
100
AcDbBlockTableRecord
  2
KLON32
340
0
102
{BLKREFS
331
6FF
102
}
  0
BLOCK_RECORD
  5
702
330
1
100
AcDbSymbolTableRecord
100
AcDbBlockTableRecord
  2
KLON33
340
0
102
{BLKREFS
331
707
102
}
  0
BLOCK_RECORD
  5
70B
330
1
100
AcDbSymbolTableRecord
100
AcDbBlockTableRecord
  2
KLON34
340
0
102
{BLKREFS
331
712
102
}
  0
BLOCK_RECORD
  5
713
330
1
100
AcDbSymbolTableRecord
100
AcDbBlockTableRecord
  2
KLON35
340
0
102
{BLKREFS
331
718
102
}
  0
BLOCK_RECORD
  5
719
330
1
100
AcDbSymbolTableRecord
100
AcDbBlockTableRecord
  2
KLON36
340
0
102
{BLKREFS
331
735
102
}
  0
BLOCK_RECORD
  5
736
330
1
100
AcDbSymbolTableRecord
100
AcDbBlockTableRecord
  2
KLON37
340
0
102
{BLKREFS
331
752
102
}
  0
ENDTAB
  0
ENDSEC
  0
SECTION
  2
BLOCKS
  0
BLOCK
  5
20
330
1F
100
AcDbEntity
  8
0
100
AcDbBlockBegin
  2
*Model_Space
 70
     0
 71
     0
 10
0.0
 20
0.0
 30
0.0
  3
*Model_Space
  1

  0
ENDBLK
  5
21
330
1F
100
AcDbEntity
  8
0
100
AcDbBlockEnd
  0
BLOCK
  5
1C
330
1B
100
AcDbEntity
 67
     1
  8
0
100
AcDbBlockBegin
  2
*Paper_Space
 70
     0
 71
     0
 10
0.0
 20
0.0
 30
0.0
  3
*Paper_Space
  1

  0
ENDBLK
  5
1D
330
1B
100
AcDbEntity
 67
     1
  8
0
100
AcDbBlockEnd
  0
BLOCK
  5
24
330
23
100
AcDbEntity
  8
0
100
AcDbBlockBegin
  2
*Paper_Space0
 70
     0
 71
     0
 10
0.0
 20
0.0
 30
0.0
  3
*Paper_Space0
  1

  0
ENDBLK
  5
25
330
23
100
AcDbEntity
  8
0
100
AcDbBlockEnd
  0
BLOCK
  5
4B
330
4A
100
AcDbEntity
  8
0
100
AcDbBlockBegin
  2
KLON1
 70
     0
 71
     0
 10
0.0
 20
0.0
 30
0.0
  3
KLON1
  1

  4
KLON1
  0
LINE
  5
4D
330
4A
100
AcDbEntity
  8
LC-001-100-D00-0
 62
     7
370
    15
100
AcDbLine
 10
327.177053
 20
72.433197
 30
0.0
 11
327.174848
 21
72.418912
 31
0.0
  0
LINE
  5
4E
330
4A
100
AcDbEntity
  8
LC-001-100-D00-0
 62
     7
370
    15
100
AcDbLine
 10
327.174848
 20
72.418912
 30
0.0
 11
327.163523
 21
72.346604
 31
0.0
  0
LINE
  5
4F
330
4A
100
AcDbEntity
  8
LC-001-100-D00-0
 62
     7
370
    15
100
AcDbLine
 10
327.163523
 20
72.346604
 30
0.0
 11
327.150887
 21
72.265723
 31
0.0
  0
ENDBLK
  5
4C
330
4A
100
AcDbEntity
  8
0
100
AcDbBlockEnd
  0
BLOCK
  5
54
330
53
100
AcDbEntity
  8
0
100
AcDbBlockBegin
  2
KLON2
 70
     0
 71
     0
 10
0.0
 20
0.0
 30
0.0
  3
KLON2
  1

  4
KLON2
  0
LINE
  5
56
330
53
100
AcDbEntity
  8
LC-001-100-D00-0
 62
     7
370
    15
100
AcDbLine
 10
327.150887
 20
108.073753
 30
0.0
 11
327.161437
 21
108.079663
 31
0.0
  0
LINE
  5
57
330
53
100
AcDbEntity
  8
LC-001-100-D00-0
 62
     7
370
    15
100
AcDbLine
 10
327.161437
 20
108.079663
 30
0.0
 11
327.177053
 21
108.088391
 31
0.0
  0
ENDBLK
  5
55
330
53
100
AcDbEntity
  8
0
100
AcDbBlockEnd
  0
BLOCK
  5
5A
330
59
100
AcDbEntity
  8
0
100
AcDbBlockBegin
  2
KLON3
 70
     0
 71
     0
 10
0.0
 20
0.0
 30
0.0
  3
KLON3
  1

  4
KLON3
  0
LINE
  5
5C
330
59
100
AcDbEntity
  8
LC-001-100-D00-0
 62
     7
370
    15
100
AcDbLine
 10
327.150887
 20
61.088393
 30
0.0
 11
327.158278
 21
61.05022
 31
0.0
  0
LINE
  5
5D
330
59
100
AcDbEntity
  8
LC-001-100-D00-0
 62
     7
370
    15
100
AcDbLine
 10
327.158278
 20
61.05022
 30
0.0
 11
327.177053
 21
61.017735
 31
0.0
  0
ENDBLK
  5
5B
330
59
100
AcDbEntity
  8
0
100
AcDbBlockEnd
  0
BLOCK
  5
60
330
5F
100
AcDbEntity
  8
0
100
AcDbBlockBegin
  2
KLON4
 70
     0
 71
     0
 10
0.0
 20
0.0
 30
0.0
  3
KLON4
  1

  4
KLON4
  0
LINE
  5
62
330
5F
100
AcDbEntity
  8
LC-001-100-D00-0
 62
     7
370
    15
100
AcDbLine
 10
-756.796772
 20
61.088393
 30
0.0
 11
-756.804163
 21
61.05022
 31
0.0
  0
LINE
  5
63
330
5F
100
AcDbEntity
  8
LC-001-100-D00-0
 62
     7
370
    15
100
AcDbLine
 10
-756.804163
 20
61.05022
 30
0.0
 11
-756.822938
 21
61.017735
 31
0.0
  0
ENDBLK
  5
61
330
5F
100
AcDbEntity
  8
0
100
AcDbBlockEnd
  0
BLOCK
  5
66
330
65
100
AcDbEntity
  8
0
100
AcDbBlockBegin
  2
KLON5
 70
     0
 71
     0
 10
0.0
 20
0.0
 30
0.0
  3
KLON5
  1

  4
KLON5
  0
LINE
  5
68
330
65
100
AcDbEntity
  8
LC-001-100-D00-0
 62
     7
370
    15
100
AcDbLine
 10
-756.796772
 20
108.073753
 30
0.0
 11
-756.807322
 21
108.079663
 31
0.0
  0
LINE
  5
69
330
65
100
AcDbEntity
  8
LC-001-100-D00-0
 62
     7
370
    15
100
AcDbLine
 10
-756.807322
 20
108.079663
 30
0.0
 11
-756.822938
 21
108.088391
 31
0.0
  0
ENDBLK
  5
67
330
65
100
AcDbEntity
  8
0
100
AcDbBlockEnd
  0
BLOCK
  5
6E
330
6D
100
AcDbEntity
  8
0
100
AcDbBlockBegin
  2
KLON6
 70
     0
 71
     0
 10
0.0
 20
0.0
 30
0.0
  3
KLON6
  1

  4
KLON6
  0
LINE
  5
70
330
6D
100
AcDbEntity
  8
LC-001-100-D00-0
 62
     7
370
    15
100
AcDbLine
 10
-756.822938
 20
72.433197
 30
0.0
 11
-756.820733
 21
72.418912
 31
0.0
  0
LINE
  5
71
330
6D
100
AcDbEntity
  8
LC-001-100-D00-0
 62
     7
370
    15
100
AcDbLine
 10
-756.820733
 20
72.418912
 30
0.0
 11
-756.809408
 21
72.346604
 31
0.0
  0
LINE
  5
72
330
6D
100
AcDbEntity
  8
LC-001-100-D00-0
 62
     7
370
    15
100
AcDbLine
 10
-756.809408
 20
72.346604
 30
0.0
 11
-756.796772
 21
72.265723
 31
0.0
  0
ENDBLK
  5
6F
330
6D
100
AcDbEntity
  8
0
100
AcDbBlockEnd
  0
BLOCK
  5
83
330
82
100
AcDbEntity
  8
0
100
AcDbBlockBegin
  2
KLON7
 70
     0
 71
     0
 10
0.0
 20
0.0
 30
0.0
  3
KLON7
  1

  4
KLON7
  0
LINE
  5
85
330
82
100
AcDbEntity
  8
LC-001-100-D00-0
 62
     7
370
    15
100
AcDbLine
 10
327.122336
 20
72.254983
 30
0.0
 11
327.138489
 21
72.261068
 31
0.0
  0
LINE
  5
86
330
82
100
AcDbEntity
  8
LC-001-100-D00-0
 62
     7
370
    15
100
AcDbLine
 10
327.138489
 20
72.261068
 30
0.0
 11
327.150887
 21
72.265723
 31
0.0
  0
ENDBLK
  5
84
330
82
100
AcDbEntity
  8
0
100
AcDbBlockEnd
  0
BLOCK
  5
89
330
88
100
AcDbEntity
  8
0
100
AcDbBlockBegin
  2
KLON8
 70
     0
 71
     0
 10
0.0
 20
0.0
 30
0.0
  3
KLON8
  1

  4
KLON8
  0
LINE
  5
8B
330
88
100
AcDbEntity
  8
LC-001-100-D00-0
 62
     7
370
    15
100
AcDbLine
 10
-756.768221
 20
72.254983
 30
0.0
 11
-756.784374
 21
72.261068
 31
0.0
  0
LINE
  5
8C
330
88
100
AcDbEntity
  8
LC-001-100-D00-0
 62
     7
370
    15
100
AcDbLine
 10
-756.784374
 20
72.261068
 30
0.0
 11
-756.796772
 21
72.265723
 31
0.0
  0
ENDBLK
  5
8A
330
88
100
AcDbEntity
  8
0
100
AcDbBlockEnd
  0
BLOCK
  5
90
330
8F
100
AcDbEntity
  8
0
100
AcDbBlockBegin
  2
KLON9
 70
     0
 71
     0
 10
0.0
 20
0.0
 30
0.0
  3
KLON9
  1

  4
KLON9
  0
LINE
  5
92
330
8F
100
AcDbEntity
  8
LC-001-100-D00-0
 62
     7
370
    15
100
AcDbLine
 10
190.164005
 20
78.729175
 30
0.0
 11
190.17539
 21
79.142649
 31
0.0
  0
LINE
  5
93
330
8F
100
AcDbEntity
  8
LC-001-100-D00-0
 62
     7
370
    15
100
AcDbLine
 10
190.17539
 20
79.142649
 30
0.0
 11
190.187072
 21
79.565907
 31
0.0
  0
LINE
  5
94
330
8F
100
AcDbEntity
  8
LC-001-100-D00-0
 62
     7
370
    15
100
AcDbLine
 10
190.187072
 20
79.565907
 30
0.0
 11
190.198874
 21
79.994086
 31
0.0
  0
ENDBLK
  5
91
330
8F
100
AcDbEntity
  8
0
100
AcDbBlockEnd
  0
BLOCK
  5
97
330
96
100
AcDbEntity
  8
0
100
AcDbBlockBegin
  2
KLON10
 70
     0
 71
     0
 10
0.0
 20
0.0
 30
0.0
  3
KLON10
  1

  4
KLON10
  0
LINE
  5
99
330
96
100
AcDbEntity
  8
LC-001-100-D00-0
 62
     7
370
    15
100
AcDbLine
 10
327.122336
 20
96.921801
 30
0.0
 11
327.138489
 21
96.915717
 31
0.0
  0
LINE
  5
9A
330
96
100
AcDbEntity
  8
LC-001-100-D00-0
 62
     7
370
    15
100
AcDbLine
 10
327.138489
 20
96.915717
 30
0.0
 11
327.150887
 21
96.911061
 31
0.0
  0
ENDBLK
  5
98
330
96
100
AcDbEntity
  8
0
100
AcDbBlockEnd
  0
BLOCK
  5
9D
330
9C
100
AcDbEntity
  8
0
100
AcDbBlockBegin
  2
KLON11
 70
     0
 71
     0
 10
0.0
 20
0.0
 30
0.0
  3
KLON11
  1

  4
KLON11
  0
LINE
  5
9F
330
9C
100
AcDbEntity
  8
LC-001-100-D00-0
 62
     7
370
    15
100
AcDbLine
 10
190.198874
 20
89.182698
 30
0.0
 11
190.187072
 21
89.610877
 31
0.0
  0
LINE
  5
A0
330
9C
100
AcDbEntity
  8
LC-001-100-D00-0
 62
     7
370
    15
100
AcDbLine
 10
190.187072
 20
89.610877
 30
0.0
 11
190.17539
 21
90.034135
 31
0.0
  0
LINE
  5
A1
330
9C
100
AcDbEntity
  8
LC-001-100-D00-0
 62
     7
370
    15
100
AcDbLine
 10
190.17539
 20
90.034135
 30
0.0
 11
190.164005
 21
90.447609
 31
0.0
  0
ENDBLK
  5
9E
330
9C
100
AcDbEntity
  8
0
100
AcDbBlockEnd
  0
BLOCK
  5
A4
330
A3
100
AcDbEntity
  8
0
100
AcDbBlockBegin
  2
KLON12
 70
     0
 71
     0
 10
0.0
 20
0.0
 30
0.0
  3
KLON12
  1

  4
KLON12
  0
LINE
  5
A6
330
A3
100
AcDbEntity
  8
LC-001-100-D00-0
 62
     7
370
    15
100
AcDbLine
 10
-619.80989
 20
78.729175
 30
0.0
 11
-619.821275
 21
79.142649
 31
0.0
  0
LINE
  5
A7
330
A3
100
AcDbEntity
  8
LC-001-100-D00-0
 62
     7
370
    15
100
AcDbLine
 10
-619.821275
 20
79.142649
 30
0.0
 11
-619.832957
 21
79.565907
 31
0.0
  0
LINE
  5
A8
330
A3
100
AcDbEntity
  8
LC-001-100-D00-0
 62
     7
370
    15
100
AcDbLine
 10
-619.832957
 20
79.565907
 30
0.0
 11
-619.844759
 21
79.994086
 31
0.0
  0
ENDBLK
  5
A5
330
A3
100
AcDbEntity
  8
0
100
AcDbBlockEnd
  0
BLOCK
  5
AB
330
AA
100
AcDbEntity
  8
0
100
AcDbBlockBegin
  2
KLON13
 70
     0
 71
     0
 10
0.0
 20
0.0
 30
0.0
  3
KLON13
  1

  4
KLON13
  0
LINE
  5
AD
330
AA
100
AcDbEntity
  8
LC-001-100-D00-0
 62
     7
370
    15
100
AcDbLine
 10
-619.844759
 20
89.182698
 30
0.0
 11
-619.832957
 21
89.610877
 31
0.0
  0
LINE
  5
AE
330
AA
100
AcDbEntity
  8
LC-001-100-D00-0
 62
     7
370
    15
100
AcDbLine
 10
-619.832957
 20
89.610877
 30
0.0
 11
-619.821275
 21
90.034135
 31
0.0
  0
LINE
  5
AF
330
AA
100
AcDbEntity
  8
LC-001-100-D00-0
 62
     7
370
    15
100
AcDbLine
 10
-619.821275
 20
90.034135
 30
0.0
 11
-619.80989
 21
90.447609
 31
0.0
  0
ENDBLK
  5
AC
330
AA
100
AcDbEntity
  8
0
100
AcDbBlockEnd
  0
BLOCK
  5
B2
330
B1
100
AcDbEntity
  8
0
100
AcDbBlockBegin
  2
KLON14
 70
     0
 71
     0
 10
0.0
 20
0.0
 30
0.0
  3
KLON14
  1

  4
KLON14
  0
LINE
  5
B4
330
B1
100
AcDbEntity
  8
LC-001-100-D00-0
 62
     7
370
    15
100
AcDbLine
 10
-756.768221
 20
96.921801
 30
0.0
 11
-756.784374
 21
96.915717
 31
0.0
  0
LINE
  5
B5
330
B1
100
AcDbEntity
  8
LC-001-100-D00-0
 62
     7
370
    15
100
AcDbLine
 10
-756.784374
 20
96.915717
 30
0.0
 11
-756.796772
 21
96.911061
 31
0.0
  0
ENDBLK
  5
B3
330
B1
100
AcDbEntity
  8
0
100
AcDbBlockEnd
  0
BLOCK
  5
173
330
169
100
AcDbEntity
  8
0
100
AcDbBlockBegin
  2
*D15
 70
     1
 71
     0
 10
0.0
 20
0.0
 30
0.0
  3
*D15
  1

  0
LINE
  5
16A
330
169
100
AcDbEntity
  8
LC-001-100-D00-0
 62
     2
370
    -2
100
AcDbLine
 10
380.177057
 20
162.088392
 30
0.0
 11
480.454056
 21
162.088392
 31
0.0
  0
LINE
  5
16B
330
169
100
AcDbEntity
  8
LC-001-100-D00-0
 62
     2
370
    -2
100
AcDbLine
 10
380.177057
 20
7.088392
 30
0.0
 11
480.454056
 21
7.088392
 31
0.0
  0
LINE
  5
16C
330
169
100
AcDbEntity
  8
LC-001-100-D00-0
 62
     2
370
    -2
100
AcDbLine
 10
471.454056
 20
112.088392
 30
0.0
 11
471.454056
 21
57.088392
 31
0.0
  0
SOLID
  5
16D
330
169
100
AcDbEntity
  8
LC-001-100-D00-0
 62
     2
100
AcDbTrace
 10
479.787389
 20
112.088392
 30
0.0
 11
463.120722
 21
112.088392
 31
0.0
 12
471.454056
 22
162.088392
 32
0.0
 13
471.454056
 23
162.088392
 33
0.0
  0
SOLID
  5
16E
330
169
100
AcDbEntity
  8
LC-001-100-D00-0
 62
     2
100
AcDbTrace
 10
463.120722
 20
57.088392
 30
0.0
 11
479.787389
 21
57.088392
 31
0.0
 12
471.454056
 22
7.088392
 32
0.0
 13
471.454056
 23
7.088392
 33
0.0
  0
MTEXT
  5
16F
330
169
100
AcDbEntity
  8
LC-001-100-D00-0
 62
     2
100
AcDbMText
 10
416.454056
 20
70.331925
 30
0.0
 40
50.0
 41
0.0
 71
     5
 72
     1
  1
\A1;155
  7
LCTX15-400-0-0pDIN-Schrift
 11
6.123031769111886E-17
 21
1.0
 31
0.0
 73
     1
 44
1.0
  0
POINT
  5
170
330
169
100
AcDbEntity
  8
Defpoints
 62
     0
100
AcDbPoint
 10
380.177057
 20
162.088392
 30
0.0
  0
POINT
  5
171
330
169
100
AcDbEntity
  8
Defpoints
 62
     0
100
AcDbPoint
 10
380.177057
 20
7.088392
 30
0.0
  0
POINT
  5
172
330
169
100
AcDbEntity
  8
Defpoints
 62
     0
100
AcDbPoint
 10
471.454056
 20
7.088392
 30
0.0
  0
ENDBLK
  5
174
330
169
100
AcDbEntity
  8
0
100
AcDbBlockEnd
  0
BLOCK
  5
418
330
417
100
AcDbEntity
  8
0
100
AcDbBlockBegin
  2
KLON15
 70
     0
 71
     0
 10
0.0
 20
0.0
 30
0.0
  3
KLON15
  1

  4
KLON15
  0
LINE
  5
41A
330
417
100
AcDbEntity
  8
LC-001-100-D00-0
 62
     7
370
    15
100
AcDbLine
 10
-140.822918
 20
448.001922
 30
0.0
 11
-140.825645
 21
448.00196
 31
0.0
  0
LINE
  5
41B
330
417
100
AcDbEntity
  8
LC-001-100-D00-0
 62
     7
370
    15
100
AcDbLine
 10
-140.825645
 20
448.00196
 30
0.0
 11
-140.830227
 21
448.002153
 31
0.0
  0
LINE
  5
41C
330
417
100
AcDbEntity
  8
LC-001-100-D00-0
 62
     7
370
    15
100
AcDbLine
 10
-140.830227
 20
448.002153
 30
0.0
 11
-140.839101
 21
448.002988
 31
0.0
  0
LINE
  5
41D
330
417
100
AcDbEntity
  8
LC-001-100-D00-0
 62
     7
370
    15
100
AcDbLine
 10
-140.839101
 20
448.002988
 30
0.0
 11
-140.84138
 21
448.003293
 31
0.0
  0
LINE
  5
41E
330
417
100
AcDbEntity
  8
LC-001-100-D00-0
 62
     7
370
    15
100
AcDbLine
 10
-140.84138
 20
448.003293
 30
0.0
 11
-140.841954
 21
448.003375
 31
0.0
  0
LINE
  5
41F
330
417
100
AcDbEntity
  8
LC-001-100-D00-0
 62
     7
370
    15
100
AcDbLine
 10
-140.841954
 20
448.003375
 30
0.0
 11
-140.842096
 21
448.003398
 31
0.0
  0
LINE
  5
420
330
417
100
AcDbEntity
  8
LC-001-100-D00-0
 62
     7
370
    15
100
AcDbLine
 10
-140.842096
 20
448.003398
 30
0.0
 11
-140.961275
 21
448.052668
 31
0.0
  0
LINE
  5
421
330
417
100
AcDbEntity
  8
LC-001-100-D00-0
 62
     7
370
    15
100
AcDbLine
 10
-140.961275
 20
448.052668
 30
0.0
 11
-141.801879
 21
448.865564
 31
0.0
  0
LINE
  5
422
330
417
100
AcDbEntity
  8
LC-001-100-D00-0
 62
     7
370
    15
100
AcDbLine
 10
-141.801879
 20
448.865564
 30
0.0
 11
-142.890558
 21
450.190888
 31
0.0
  0
LINE
  5
423
330
417
100
AcDbEntity
  8
LC-001-100-D00-0
 62
     7
370
    15
100
AcDbLine
 10
-142.890558
 20
450.190888
 30
0.0
 11
-144.316421
 21
452.094049
 31
0.0
  0
LINE
  5
424
330
417
100
AcDbEntity
  8
LC-001-100-D00-0
 62
     7
370
    15
100
AcDbLine
 10
-144.316421
 20
452.094049
 30
0.0
 11
-146.368765
 21
455.059708
 31
0.0
  0
LINE
  5
425
330
417
100
AcDbEntity
  8
LC-001-100-D00-0
 62
     7
370
    15
100
AcDbLine
 10
-146.368765
 20
455.059708
 30
0.0
 11
-148.739435
 21
458.701038
 31
0.0
  0
LINE
  5
426
330
417
100
AcDbEntity
  8
LC-001-100-D00-0
 62
     7
370
    15
100
AcDbLine
 10
-148.739435
 20
458.701038
 30
0.0
 11
-148.847625
 21
458.867417
 31
0.0
  0
ENDBLK
  5
419
330
417
100
AcDbEntity
  8
0
100
AcDbBlockEnd
  0
BLOCK
  5
429
330
428
100
AcDbEntity
  8
0
100
AcDbBlockBegin
  2
KLON16
 70
     0
 71
     0
 10
0.0
 20
0.0
 30
0.0
  3
KLON16
  1

  4
KLON16
  0
LINE
  5
42B
330
428
100
AcDbEntity
  8
LC-001-100-D00-0
 62
     7
370
    15
100
AcDbLine
 10
-148.847625
 20
458.867417
 30
0.0
 11
-149.589234
 21
461.24597
 31
0.0
  0
LINE
  5
42C
330
428
100
AcDbEntity
  8
LC-001-100-D00-0
 62
     7
370
    15
100
AcDbLine
 10
-149.589234
 20
461.24597
 30
0.0
 11
-150.223971
 21
463.826397
 31
0.0
  0
LINE
  5
42D
330
428
100
AcDbEntity
  8
LC-001-100-D00-0
 62
     7
370
    15
100
AcDbLine
 10
-150.223971
 20
463.826397
 30
0.0
 11
-150.74318
 21
466.958576
 31
0.0
  0
LINE
  5
42E
330
428
100
AcDbEntity
  8
LC-001-100-D00-0
 62
     7
370
    15
100
AcDbLine
 10
-150.74318
 20
466.958576
 30
0.0
 11
-150.980019
 21
470.295453
 31
0.0
  0
LINE
  5
42F
330
428
100
AcDbEntity
  8
LC-001-100-D00-0
 62
     7
370
    15
100
AcDbLine
 10
-150.980019
 20
470.295453
 30
0.0
 11
-150.889099
 21
473.565222
 31
0.0
  0
LINE
  5
430
330
428
100
AcDbEntity
  8
LC-001-100-D00-0
 62
     7
370
    15
100
AcDbLine
 10
-150.889099
 20
473.565222
 30
0.0
 11
-150.477283
 21
476.856598
 31
0.0
  0
LINE
  5
431
330
428
100
AcDbEntity
  8
LC-001-100-D00-0
 62
     7
370
    15
100
AcDbLine
 10
-150.477283
 20
476.856598
 30
0.0
 11
-149.833389
 21
479.849384
 31
0.0
  0
LINE
  5
432
330
428
100
AcDbEntity
  8
LC-001-100-D00-0
 62
     7
370
    15
100
AcDbLine
 10
-149.833389
 20
479.849384
 30
0.0
 11
-148.994759
 21
482.699313
 31
0.0
  0
LINE
  5
433
330
428
100
AcDbEntity
  8
LC-001-100-D00-0
 62
     7
370
    15
100
AcDbLine
 10
-148.994759
 20
482.699313
 30
0.0
 11
-147.927099
 21
485.610337
 31
0.0
  0
LINE
  5
434
330
428
100
AcDbEntity
  8
LC-001-100-D00-0
 62
     7
370
    15
100
AcDbLine
 10
-147.927099
 20
485.610337
 30
0.0
 11
-146.803223
 21
488.220443
 31
0.0
  0
LINE
  5
435
330
428
100
AcDbEntity
  8
LC-001-100-D00-0
 62
     7
370
    15
100
AcDbLine
 10
-146.803223
 20
488.220443
 30
0.0
 11
-145.654806
 21
490.597152
 31
0.0
  0
LINE
  5
436
330
428
100
AcDbEntity
  8
LC-001-100-D00-0
 62
     7
370
    15
100
AcDbLine
 10
-145.654806
 20
490.597152
 30
0.0
 11
-144.682989
 21
492.451267
 31
0.0
  0
LINE
  5
437
330
428
100
AcDbEntity
  8
LC-001-100-D00-0
 62
     7
370
    15
100
AcDbLine
 10
-144.682989
 20
492.451267
 30
0.0
 11
-144.140751
 21
493.437537
 31
0.0
  0
LINE
  5
438
330
428
100
AcDbEntity
  8
LC-001-100-D00-0
 62
     7
370
    15
100
AcDbLine
 10
-144.140751
 20
493.437537
 30
0.0
 11
-143.854052
 21
493.947064
 31
0.0
  0
LINE
  5
439
330
428
100
AcDbEntity
  8
LC-001-100-D00-0
 62
     7
370
    15
100
AcDbLine
 10
-143.854052
 20
493.947064
 30
0.0
 11
-143.823192
 21
494.001442
 31
0.0
  0
LINE
  5
43A
330
428
100
AcDbEntity
  8
LC-001-100-D00-0
 62
     7
370
    15
100
AcDbLine
 10
-143.823192
 20
494.001442
 30
0.0
 11
-143.822917
 21
494.001926
 31
0.0
  0
ENDBLK
  5
42A
330
428
100
AcDbEntity
  8
0
100
AcDbBlockEnd
  0
BLOCK
  5
440
330
43F
100
AcDbEntity
  8
0
100
AcDbBlockBegin
  2
KLON17
 70
     0
 71
     0
 10
0.0
 20
0.0
 30
0.0
  3
KLON17
  1

  4
KLON17
  0
LINE
  5
442
330
43F
100
AcDbEntity
  8
LC-001-100-D00-0
 62
     7
370
    15
100
AcDbLine
 10
-149.505467
 20
457.501927
 30
0.0
 11
-149.498687
 21
457.516202
 31
0.0
  0
LINE
  5
443
330
43F
100
AcDbEntity
  8
LC-001-100-D00-0
 62
     7
370
    15
100
AcDbLine
 10
-149.498687
 20
457.516202
 30
0.0
 11
-148.847625
 21
458.867417
 31
0.0
  0
ENDBLK
  5
441
330
43F
100
AcDbEntity
  8
0
100
AcDbBlockEnd
  0
BLOCK
  5
58B
330
58A
100
AcDbEntity
  8
0
100
AcDbBlockBegin
  2
KLON18
 70
     0
 71
     0
 10
0.0
 20
0.0
 30
0.0
  3
KLON18
  1

  4
KLON18
  0
LINE
  5
58D
330
58A
100
AcDbEntity
  8
LC-001-100-D00-0
 62
     7
370
    15
100
AcDbLine
 10
318.084746
 20
526.170089
 30
0.0
 11
320.64107
 21
526.263385
 31
0.0
  0
LINE
  5
58E
330
58A
100
AcDbEntity
  8
LC-001-100-D00-0
 62
     7
370
    15
100
AcDbLine
 10
320.64107
 20
526.263385
 30
0.0
 11
322.786897
 21
526.341698
 31
0.0
  0
LINE
  5
58F
330
58A
100
AcDbEntity
  8
LC-001-100-D00-0
 62
     7
370
    15
100
AcDbLine
 10
322.786897
 20
526.341698
 30
0.0
 11
324.516981
 21
526.404842
 31
0.0
  0
LINE
  5
590
330
58A
100
AcDbEntity
  8
LC-001-100-D00-0
 62
     7
370
    15
100
AcDbLine
 10
324.516981
 20
526.404842
 30
0.0
 11
325.82733
 21
526.452664
 31
0.0
  0
LINE
  5
591
330
58A
100
AcDbEntity
  8
LC-001-100-D00-0
 62
     7
370
    15
100
AcDbLine
 10
325.82733
 20
526.452664
 30
0.0
 11
326.714724
 21
526.485051
 31
0.0
  0
LINE
  5
592
330
58A
100
AcDbEntity
  8
LC-001-100-D00-0
 62
     7
370
    15
100
AcDbLine
 10
326.714724
 20
526.485051
 30
0.0
 11
327.177077
 21
526.501925
 31
0.0
  0
ENDBLK
  5
58C
330
58A
100
AcDbEntity
  8
0
100
AcDbBlockEnd
  0
BLOCK
  5
595
330
594
100
AcDbEntity
  8
0
100
AcDbBlockBegin
  2
KLON19
 70
     0
 71
     0
 10
0.0
 20
0.0
 30
0.0
  3
KLON19
  1

  4
KLON19
  0
LINE
  5
597
330
594
100
AcDbEntity
  8
LC-001-100-D00-0
 62
     7
370
    15
100
AcDbLine
 10
-747.730584
 20
526.170089
 30
0.0
 11
-750.286908
 21
526.263385
 31
0.0
  0
LINE
  5
598
330
594
100
AcDbEntity
  8
LC-001-100-D00-0
 62
     7
370
    15
100
AcDbLine
 10
-750.286908
 20
526.263385
 30
0.0
 11
-752.432734
 21
526.341698
 31
0.0
  0
LINE
  5
599
330
594
100
AcDbEntity
  8
LC-001-100-D00-0
 62
     7
370
    15
100
AcDbLine
 10
-752.432734
 20
526.341698
 30
0.0
 11
-754.162819
 21
526.404842
 31
0.0
  0
LINE
  5
59A
330
594
100
AcDbEntity
  8
LC-001-100-D00-0
 62
     7
370
    15
100
AcDbLine
 10
-754.162819
 20
526.404842
 30
0.0
 11
-755.473167
 21
526.452664
 31
0.0
  0
LINE
  5
59B
330
594
100
AcDbEntity
  8
LC-001-100-D00-0
 62
     7
370
    15
100
AcDbLine
 10
-755.473167
 20
526.452664
 30
0.0
 11
-756.360561
 21
526.485051
 31
0.0
  0
LINE
  5
59C
330
594
100
AcDbEntity
  8
LC-001-100-D00-0
 62
     7
370
    15
100
AcDbLine
 10
-756.360561
 20
526.485051
 30
0.0
 11
-756.822915
 21
526.501925
 31
0.0
  0
ENDBLK
  5
596
330
594
100
AcDbEntity
  8
0
100
AcDbBlockEnd
  0
BLOCK
  5
5B5
330
5B4
100
AcDbEntity
  8
0
100
AcDbBlockBegin
  2
KLON20
 70
     0
 71
     0
 10
0.0
 20
0.0
 30
0.0
  3
KLON20
  1

  4
KLON20
  0
LINE
  5
5B7
330
5B4
100
AcDbEntity
  8
LC-001-100-D00-0
 62
     7
370
    15
100
AcDbLine
 10
-260.942534
 20
514.501923
 30
0.0
 11
-260.929004
 21
514.343218
 31
0.0
  0
LINE
  5
5B8
330
5B4
100
AcDbEntity
  8
LC-001-100-D00-0
 62
     7
370
    15
100
AcDbLine
 10
-260.929004
 20
514.343218
 30
0.0
 11
-260.767081
 21
513.758798
 31
0.0
  0
LINE
  5
5B9
330
5B4
100
AcDbEntity
  8
LC-001-100-D00-0
 62
     7
370
    15
100
AcDbLine
 10
-260.767081
 20
513.758798
 30
0.0
 11
-260.517214
 21
513.312494
 31
0.0
  0
LINE
  5
5BA
330
5B4
100
AcDbEntity
  8
LC-001-100-D00-0
 62
     7
370
    15
100
AcDbLine
 10
-260.517214
 20
513.312494
 30
0.0
 11
-260.205914
 21
513.053743
 31
0.0
  0
LINE
  5
5BB
330
5B4
100
AcDbEntity
  8
LC-001-100-D00-0
 62
     7
370
    15
100
AcDbLine
 10
-260.205914
 20
513.053743
 30
0.0
 11
-260.068421
 21
513.009985
 31
0.0
  0
ENDBLK
  5
5B6
330
5B4
100
AcDbEntity
  8
0
100
AcDbBlockEnd
  0
BLOCK
  5
5BE
330
5BD
100
AcDbEntity
  8
0
100
AcDbBlockBegin
  2
KLON21
 70
     0
 71
     0
 10
0.0
 20
0.0
 30
0.0
  3
KLON21
  1

  4
KLON21
  0
LINE
  5
5C0
330
5BD
100
AcDbEntity
  8
LC-001-100-D00-0
 62
     7
370
    15
100
AcDbLine
 10
327.149718
 20
528.001924
 30
0.0
 11
327.149003
 21
528.039906
 31
0.0
  0
LINE
  5
5C1
330
5BD
100
AcDbEntity
  8
LC-001-100-D00-0
 62
     7
370
    15
100
AcDbLine
 10
327.149003
 20
528.039906
 30
0.0
 11
327.146977
 21
528.152692
 31
0.0
  0
LINE
  5
5C2
330
5BD
100
AcDbEntity
  8
LC-001-100-D00-0
 62
     7
370
    15
100
AcDbLine
 10
327.146977
 20
528.152692
 30
0.0
 11
327.143579
 21
528.336861
 31
0.0
  0
LINE
  5
5C3
330
5BD
100
AcDbEntity
  8
LC-001-100-D00-0
 62
     7
370
    15
100
AcDbLine
 10
327.143579
 20
528.336861
 30
0.0
 11
327.139049
 21
528.586814
 31
0.0
  0
LINE
  5
5C4
330
5BD
100
AcDbEntity
  8
LC-001-100-D00-0
 62
     7
370
    15
100
AcDbLine
 10
327.139049
 20
528.586814
 30
0.0
 11
327.133446
 21
528.894957
 31
0.0
  0
LINE
  5
5C5
330
5BD
100
AcDbEntity
  8
LC-001-100-D00-0
 62
     7
370
    15
100
AcDbLine
 10
327.133446
 20
528.894957
 30
0.0
 11
327.12689
 21
529.251925
 31
0.0
  0
LINE
  5
5C6
330
5BD
100
AcDbEntity
  8
LC-001-100-D00-0
 62
     7
370
    15
100
AcDbLine
 10
327.12689
 20
529.251925
 30
0.0
 11
327.119737
 21
529.646875
 31
0.0
  0
LINE
  5
5C7
330
5BD
100
AcDbEntity
  8
LC-001-100-D00-0
 62
     7
370
    15
100
AcDbLine
 10
327.119737
 20
529.646875
 30
0.0
 11
327.112048
 21
530.067805
 31
0.0
  0
LINE
  5
5C8
330
5BD
100
AcDbEntity
  8
LC-001-100-D00-0
 62
     7
370
    15
100
AcDbLine
 10
327.112048
 20
530.067805
 30
0.0
 11
327.104121
 21
530.501926
 31
0.0
  0
ENDBLK
  5
5BF
330
5BD
100
AcDbEntity
  8
0
100
AcDbBlockEnd
  0
BLOCK
  5
5CB
330
5CA
100
AcDbEntity
  8
0
100
AcDbBlockBegin
  2
KLON22
 70
     0
 71
     0
 10
0.0
 20
0.0
 30
0.0
  3
KLON22
  1

  4
KLON22
  0
LINE
  5
5CD
330
5CA
100
AcDbEntity
  8
LC-001-100-D00-0
 62
     7
370
    15
100
AcDbLine
 10
-756.795556
 20
528.001924
 30
0.0
 11
-756.794841
 21
528.039906
 31
0.0
  0
LINE
  5
5CE
330
5CA
100
AcDbEntity
  8
LC-001-100-D00-0
 62
     7
370
    15
100
AcDbLine
 10
-756.794841
 20
528.039906
 30
0.0
 11
-756.792814
 21
528.152692
 31
0.0
  0
LINE
  5
5CF
330
5CA
100
AcDbEntity
  8
LC-001-100-D00-0
 62
     7
370
    15
100
AcDbLine
 10
-756.792814
 20
528.152692
 30
0.0
 11
-756.789417
 21
528.336861
 31
0.0
  0
LINE
  5
5D0
330
5CA
100
AcDbEntity
  8
LC-001-100-D00-0
 62
     7
370
    15
100
AcDbLine
 10
-756.789417
 20
528.336861
 30
0.0
 11
-756.784887
 21
528.586814
 31
0.0
  0
LINE
  5
5D1
330
5CA
100
AcDbEntity
  8
LC-001-100-D00-0
 62
     7
370
    15
100
AcDbLine
 10
-756.784887
 20
528.586814
 30
0.0
 11
-756.779284
 21
528.894957
 31
0.0
  0
LINE
  5
5D2
330
5CA
100
AcDbEntity
  8
LC-001-100-D00-0
 62
     7
370
    15
100
AcDbLine
 10
-756.779284
 20
528.894957
 30
0.0
 11
-756.772727
 21
529.251925
 31
0.0
  0
LINE
  5
5D3
330
5CA
100
AcDbEntity
  8
LC-001-100-D00-0
 62
     7
370
    15
100
AcDbLine
 10
-756.772727
 20
529.251925
 30
0.0
 11
-756.765575
 21
529.646875
 31
0.0
  0
LINE
  5
5D4
330
5CA
100
AcDbEntity
  8
LC-001-100-D00-0
 62
     7
370
    15
100
AcDbLine
 10
-756.765575
 20
529.646875
 30
0.0
 11
-756.757886
 21
530.067805
 31
0.0
  0
LINE
  5
5D5
330
5CA
100
AcDbEntity
  8
LC-001-100-D00-0
 62
     7
370
    15
100
AcDbLine
 10
-756.757886
 20
530.067805
 30
0.0
 11
-756.749958
 21
530.501926
 31
0.0
  0
ENDBLK
  5
5CC
330
5CA
100
AcDbEntity
  8
0
100
AcDbBlockEnd
  0
BLOCK
  5
639
330
62F
100
AcDbEntity
  8
0
100
AcDbBlockBegin
  2
*D24
 70
     1
 71
     0
 10
0.0
 20
0.0
 30
0.0
  3
*D24
  1

  0
LINE
  5
630
330
62F
100
AcDbEntity
  8
LC-001-100-D00-0
 62
     2
370
    -2
100
AcDbLine
 10
385.177081
 20
548.501925
 30
0.0
 11
385.177081
 21
680.741925
 31
0.0
  0
LINE
  5
631
330
62F
100
AcDbEntity
  8
LC-001-100-D00-0
 62
     2
370
    -2
100
AcDbLine
 10
-814.822919
 20
548.501925
 30
0.0
 11
-814.822919
 21
680.741925
 31
0.0
  0
LINE
  5
632
330
62F
100
AcDbEntity
  8
LC-001-100-D00-0
 62
     2
370
    -2
100
AcDbLine
 10
335.177081
 20
671.741925
 30
0.0
 11
-764.822919
 21
671.741925
 31
0.0
  0
SOLID
  5
633
330
62F
100
AcDbEntity
  8
LC-001-100-D00-0
 62
     2
100
AcDbTrace
 10
335.177081
 20
663.408592
 30
0.0
 11
335.177081
 21
680.075258
 31
0.0
 12
385.177081
 22
671.741925
 32
0.0
 13
385.177081
 23
671.741925
 33
0.0
  0
SOLID
  5
634
330
62F
100
AcDbEntity
  8
LC-001-100-D00-0
 62
     2
100
AcDbTrace
 10
-764.822919
 20
680.075258
 30
0.0
 11
-764.822919
 21
663.408592
 31
0.0
 12
-814.822919
 22
671.741925
 32
0.0
 13
-814.822919
 23
671.741925
 33
0.0
  0
MTEXT
  5
635
330
62F
100
AcDbEntity
  8
LC-001-100-D00-0
 62
     2
100
AcDbMText
 10
-217.406416
 20
726.741925
 30
0.0
 40
50.0
 41
0.0
 71
     5
 72
     1
  1
\A1;1200
  7
LCTX15-400-0-0pDIN-Schrift
 73
     1
 44
1.0
  0
POINT
  5
636
330
62F
100
AcDbEntity
  8
Defpoints
 62
     0
100
AcDbPoint
 10
385.177081
 20
548.501925
 30
0.0
  0
POINT
  5
637
330
62F
100
AcDbEntity
  8
Defpoints
 62
     0
100
AcDbPoint
 10
-814.822919
 20
548.501925
 30
0.0
  0
POINT
  5
638
330
62F
100
AcDbEntity
  8
Defpoints
 62
     0
100
AcDbPoint
 10
-814.822919
 20
671.741925
 30
0.0
  0
ENDBLK
  5
63A
330
62F
100
AcDbEntity
  8
0
100
AcDbBlockEnd
  0
BLOCK
  5
646
330
63C
100
AcDbEntity
  8
0
100
AcDbBlockBegin
  2
*D25
 70
     1
 71
     0
 10
0.0
 20
0.0
 30
0.0
  3
*D25
  1

  0
LINE
  5
63D
330
63C
100
AcDbEntity
  8
LC-001-100-D00-0
 62
     2
370
    -2
100
AcDbLine
 10
-764.822919
 20
545.501925
 30
0.0
 11
-764.822919
 21
593.128227
 31
0.0
  0
LINE
  5
63E
330
63C
100
AcDbEntity
  8
LC-001-100-D00-0
 62
     2
370
    -2
100
AcDbLine
 10
335.177081
 20
545.501925
 30
0.0
 11
335.177081
 21
593.128227
 31
0.0
  0
LINE
  5
63F
330
63C
100
AcDbEntity
  8
LC-001-100-D00-0
 62
     2
370
    -2
100
AcDbLine
 10
-714.822919
 20
584.128227
 30
0.0
 11
285.177081
 21
584.128227
 31
0.0
  0
SOLID
  5
640
330
63C
100
AcDbEntity
  8
LC-001-100-D00-0
 62
     2
100
AcDbTrace
 10
-714.822919
 20
592.46156
 30
0.0
 11
-714.822919
 21
575.794894
 31
0.0
 12
-764.822919
 22
584.128227
 32
0.0
 13
-764.822919
 23
584.128227
 33
0.0
  0
SOLID
  5
641
330
63C
100
AcDbEntity
  8
LC-001-100-D00-0
 62
     2
100
AcDbTrace
 10
285.177081
 20
575.794894
 30
0.0
 11
285.177081
 21
592.46156
 31
0.0
 12
335.177081
 22
584.128227
 32
0.0
 13
335.177081
 23
584.128227
 33
0.0
  0
MTEXT
  5
642
330
63C
100
AcDbEntity
  8
LC-001-100-D00-0
 62
     2
100
AcDbMText
 10
-217.002775
 20
639.128227
 30
0.0
 40
50.0
 41
0.0
 71
     5
 72
     1
  1
\A1;1100
  7
LCTX15-400-0-0pDIN-Schrift
 73
     1
 44
1.0
  0
POINT
  5
643
330
63C
100
AcDbEntity
  8
Defpoints
 62
     0
100
AcDbPoint
 10
-764.822919
 20
545.501925
 30
0.0
  0
POINT
  5
644
330
63C
100
AcDbEntity
  8
Defpoints
 62
     0
100
AcDbPoint
 10
335.177081
 20
545.501925
 30
0.0
  0
POINT
  5
645
330
63C
100
AcDbEntity
  8
Defpoints
 62
     0
100
AcDbPoint
 10
335.177081
 20
584.128227
 30
0.0
  0
ENDBLK
  5
647
330
63C
100
AcDbEntity
  8
0
100
AcDbBlockEnd
  0
BLOCK
  5
654
330
649
100
AcDbEntity
  8
0
100
AcDbBlockBegin
  2
*D26
 70
     1
 71
     0
 10
0.0
 20
0.0
 30
0.0
  3
*D26
  1

  0
LINE
  5
64A
330
649
100
AcDbEntity
  8
LC-001-100-D00-0
 62
     2
370
    -2
100
AcDbLine
 10
-243.822919
 20
456.601925
 30
0.0
 11
-393.559226
 21
456.601925
 31
0.0
  0
LINE
  5
64B
330
649
100
AcDbEntity
  8
LC-001-100-D00-0
 62
     2
370
    -2
100
AcDbLine
 10
-254.315798
 20
507.001925
 30
0.0
 11
-393.559226
 21
507.001925
 31
0.0
  0
LINE
  5
64C
330
649
100
AcDbEntity
  8
LC-001-100-D00-0
 62
     2
370
    -2
100
AcDbLine
 10
-384.559226
 20
557.001925
 30
0.0
 11
-384.559226
 21
607.001925
 31
0.0
  0
LINE
  5
64D
330
649
100
AcDbEntity
  8
LC-001-100-D00-0
 62
     2
370
    -2
100
AcDbLine
 10
-384.559226
 20
406.601925
 30
0.0
 11
-384.559226
 21
343.546521
 31
0.0
  0
SOLID
  5
64E
330
649
100
AcDbEntity
  8
LC-001-100-D00-0
 62
     2
100
AcDbTrace
 10
-376.225893
 20
406.601925
 30
0.0
 11
-392.89256
 21
406.601925
 31
0.0
 12
-384.559226
 22
456.601925
 32
0.0
 13
-384.559226
 23
456.601925
 33
0.0
  0
SOLID
  5
64F
330
649
100
AcDbEntity
  8
LC-001-100-D00-0
 62
     2
100
AcDbTrace
 10
-392.89256
 20
557.001925
 30
0.0
 11
-376.225893
 21
557.001925
 31
0.0
 12
-384.559226
 22
507.001925
 32
0.0
 13
-384.559226
 23
507.001925
 33
0.0
  0
MTEXT
  5
650
330
649
100
AcDbEntity
  8
LC-001-100-D00-0
 62
     2
100
AcDbMText
 10
-439.559226
 20
386.621925
 30
0.0
 40
50.0
 41
0.0
 71
     5
 72
     1
  1
\A1;50
  7
LCTX15-400-0-0pDIN-Schrift
 11
6.123031769111886E-17
 21
1.0
 31
0.0
 73
     1
 44
1.0
  0
POINT
  5
651
330
649
100
AcDbEntity
  8
Defpoints
 62
     0
100
AcDbPoint
 10
-243.822919
 20
456.601925
 30
0.0
  0
POINT
  5
652
330
649
100
AcDbEntity
  8
Defpoints
 62
     0
100
AcDbPoint
 10
-254.315798
 20
507.001925
 30
0.0
  0
POINT
  5
653
330
649
100
AcDbEntity
  8
Defpoints
 62
     0
100
AcDbPoint
 10
-384.559226
 20
507.001925
 30
0.0
  0
ENDBLK
  5
655
330
649
100
AcDbEntity
  8
0
100
AcDbBlockEnd
  0
BLOCK
  5
661
330
657
100
AcDbEntity
  8
0
100
AcDbBlockBegin
  2
*D27
 70
     1
 71
     0
 10
0.0
 20
0.0
 30
0.0
  3
*D27
  1

  0
LINE
  5
658
330
657
100
AcDbEntity
  8
LC-001-100-D00-0
 62
     2
370
    -2
100
AcDbLine
 10
-288.822919
 20
457.501925
 30
0.0
 11
-288.822919
 21
322.379925
 31
0.0
  0
LINE
  5
659
330
657
100
AcDbEntity
  8
LC-001-100-D00-0
 62
     2
370
    -2
100
AcDbLine
 10
-140.822919
 20
497.751925
 30
0.0
 11
-140.822919
 21
322.379925
 31
0.0
  0
LINE
  5
65A
330
657
100
AcDbEntity
  8
LC-001-100-D00-0
 62
     2
370
    -2
100
AcDbLine
 10
-238.822919
 20
331.379925
 30
0.0
 11
-190.822919
 21
331.379925
 31
0.0
  0
SOLID
  5
65B
330
657
100
AcDbEntity
  8
LC-001-100-D00-0
 62
     2
100
AcDbTrace
 10
-238.822919
 20
339.713258
 30
0.0
 11
-238.822919
 21
323.046592
 31
0.0
 12
-288.822919
 22
331.379925
 32
0.0
 13
-288.822919
 23
331.379925
 33
0.0
  0
SOLID
  5
65C
330
657
100
AcDbEntity
  8
LC-001-100-D00-0
 62
     2
100
AcDbTrace
 10
-190.822919
 20
323.046592
 30
0.0
 11
-190.822919
 21
339.713258
 31
0.0
 12
-140.822919
 22
331.379925
 32
0.0
 13
-140.822919
 23
331.379925
 33
0.0
  0
MTEXT
  5
65D
330
657
100
AcDbEntity
  8
LC-001-100-D00-0
 62
     2
100
AcDbMText
 10
-229.788105
 20
386.379925
 30
0.0
 40
50.0
 41
0.0
 71
     5
 72
     1
  1
\A1;148
  7
LCTX15-400-0-0pDIN-Schrift
 73
     1
 44
1.0
  0
POINT
  5
65E
330
657
100
AcDbEntity
  8
Defpoints
 62
     0
100
AcDbPoint
 10
-288.822919
 20
457.501925
 30
0.0
  0
POINT
  5
65F
330
657
100
AcDbEntity
  8
Defpoints
 62
     0
100
AcDbPoint
 10
-140.822919
 20
497.751925
 30
0.0
  0
POINT
  5
660
330
657
100
AcDbEntity
  8
Defpoints
 62
     0
100
AcDbPoint
 10
-140.822919
 20
331.379925
 30
0.0
  0
ENDBLK
  5
662
330
657
100
AcDbEntity
  8
0
100
AcDbBlockEnd
  0
BLOCK
  5
66E
330
664
100
AcDbEntity
  8
0
100
AcDbBlockBegin
  2
*D28
 70
     1
 71
     0
 10
0.0
 20
0.0
 30
0.0
  3
*D28
  1

  0
LINE
  5
665
330
664
100
AcDbEntity
  8
LC-001-100-D00-0
 62
     2
370
    -2
100
AcDbLine
 10
-288.822919
 20
457.501925
 30
0.0
 11
-288.822919
 21
240.407925
 31
0.0
  0
LINE
  5
666
330
664
100
AcDbEntity
  8
LC-001-100-D00-0
 62
     2
370
    -2
100
AcDbLine
 10
-5.323122
 20
446.939747
 30
0.0
 11
-5.323122
 21
240.407925
 31
0.0
  0
LINE
  5
667
330
664
100
AcDbEntity
  8
LC-001-100-D00-0
 62
     2
370
    -2
100
AcDbLine
 10
-238.822919
 20
249.407925
 30
0.0
 11
-55.323122
 21
249.407925
 31
0.0
  0
SOLID
  5
668
330
664
100
AcDbEntity
  8
LC-001-100-D00-0
 62
     2
100
AcDbTrace
 10
-238.822919
 20
257.741258
 30
0.0
 11
-238.822919
 21
241.074592
 31
0.0
 12
-288.822919
 22
249.407925
 32
0.0
 13
-288.822919
 23
249.407925
 33
0.0
  0
SOLID
  5
669
330
664
100
AcDbEntity
  8
LC-001-100-D00-0
 62
     2
100
AcDbTrace
 10
-55.323122
 20
241.074592
 30
0.0
 11
-55.323122
 21
257.741258
 31
0.0
 12
-5.323122
 22
249.407925
 32
0.0
 13
-5.323122
 23
249.407925
 33
0.0
  0
MTEXT
  5
66A
330
664
100
AcDbEntity
  8
LC-001-100-D00-0
 62
     2
100
AcDbMText
 10
-174.070502
 20
304.407925
 30
0.0
 40
50.0
 41
0.0
 71
     5
 72
     1
  1
\A1;284
  7
LCTX15-400-0-0pDIN-Schrift
 73
     1
 44
1.0
  0
POINT
  5
66B
330
664
100
AcDbEntity
  8
Defpoints
 62
     0
100
AcDbPoint
 10
-288.822919
 20
457.501925
 30
0.0
  0
POINT
  5
66C
330
664
100
AcDbEntity
  8
Defpoints
 62
     0
100
AcDbPoint
 10
-5.323122
 20
446.939747
 30
0.0
  0
POINT
  5
66D
330
664
100
AcDbEntity
  8
Defpoints
 62
     0
100
AcDbPoint
 10
-5.323122
 20
249.407925
 30
0.0
  0
ENDBLK
  5
66F
330
664
100
AcDbEntity
  8
0
100
AcDbBlockEnd
  0
BLOCK
  5
67D
330
671
100
AcDbEntity
  8
0
100
AcDbBlockBegin
  2
*D29
 70
     1
 71
     0
 10
0.0
 20
0.0
 30
0.0
  3
*D29
  1

  0
LINE
  5
672
330
671
100
AcDbEntity
  8
LC-001-100-D00-0
 62
     2
370
    -2
100
AcDbLine
 10
-8.823122
 20
496.001925
 30
0.0
 11
104.77642
 21
496.001925
 31
0.0
  0
LINE
  5
673
330
671
100
AcDbEntity
  8
LC-001-100-D00-0
 62
     2
370
    -2
100
AcDbLine
 10
-8.823122
 20
446.001925
 30
0.0
 11
104.77642
 21
446.001925
 31
0.0
  0
LINE
  5
674
330
671
100
AcDbEntity
  8
LC-001-100-D00-0
 62
     2
370
    -2
100
AcDbLine
 10
95.77642
 20
546.001925
 30
0.0
 11
95.77642
 21
596.001925
 31
0.0
  0
LINE
  5
675
330
671
100
AcDbEntity
  8
LC-001-100-D00-0
 62
     2
370
    -2
100
AcDbLine
 10
95.77642
 20
396.001925
 30
0.0
 11
95.77642
 21
346.001925
 31
0.0
  0
LINE
  5
676
330
671
100
AcDbEntity
  8
LC-001-100-D00-0
 62
     2
370
    -2
100
AcDbLine
 10
95.77642
 20
496.001925
 30
0.0
 11
95.77642
 21
446.001925
 31
0.0
  0
SOLID
  5
677
330
671
100
AcDbEntity
  8
LC-001-100-D00-0
 62
     2
100
AcDbTrace
 10
87.443086
 20
546.001925
 30
0.0
 11
104.109753
 21
546.001925
 31
0.0
 12
95.77642
 22
496.001925
 32
0.0
 13
95.77642
 23
496.001925
 33
0.0
  0
SOLID
  5
678
330
671
100
AcDbEntity
  8
LC-001-100-D00-0
 62
     2
100
AcDbTrace
 10
104.109753
 20
396.001925
 30
0.0
 11
87.443086
 21
396.001925
 31
0.0
 12
95.77642
 22
446.001925
 32
0.0
 13
95.77642
 23
446.001925
 33
0.0
  0
MTEXT
  5
679
330
671
100
AcDbEntity
  8
LC-001-100-D00-0
 62
     2
100
AcDbMText
 10
40.77642
 20
469.561207
 30
0.0
 40
50.0
 41
0.0
 71
     5
 72
     1
  1
\A1;DN50
  7
LCTX15-400-0-0pDIN-Schrift
 11
6.123031769111886E-17
 21
1.0
 31
0.0
 73
     1
 44
1.0
  0
POINT
  5
67A
330
671
100
AcDbEntity
  8
Defpoints
 62
     0
100
AcDbPoint
 10
-8.823122
 20
496.001925
 30
0.0
  0
POINT
  5
67B
330
671
100
AcDbEntity
  8
Defpoints
 62
     0
100
AcDbPoint
 10
-8.823122
 20
446.001925
 30
0.0
  0
POINT
  5
67C
330
671
100
AcDbEntity
  8
Defpoints
 62
     0
100
AcDbPoint
 10
95.77642
 20
446.001925
 30
0.0
  0
ENDBLK
  5
67E
330
671
100
AcDbEntity
  8
0
100
AcDbBlockEnd
  0
BLOCK
  5
68C
330
680
100
AcDbEntity
  8
0
100
AcDbBlockBegin
  2
*D30
 70
     1
 71
     0
 10
0.0
 20
0.0
 30
0.0
  3
*D30
  1

  0
LINE
  5
681
330
680
100
AcDbEntity
  8
LC-001-100-D00-0
 62
     2
370
    -2
100
AcDbLine
 10
385.177081
 20
548.501925
 30
0.0
 11
429.735085
 21
548.501925
 31
0.0
  0
LINE
  5
682
330
680
100
AcDbEntity
  8
LC-001-100-D00-0
 62
     2
370
    -2
100
AcDbLine
 10
3.176878
 20
471.001925
 30
0.0
 11
429.735085
 21
471.001925
 31
0.0
  0
LINE
  5
683
330
680
100
AcDbEntity
  8
LC-001-100-D00-0
 62
     2
370
    -2
100
AcDbLine
 10
420.735085
 20
598.501925
 30
0.0
 11
420.735085
 21
648.501925
 31
0.0
  0
LINE
  5
684
330
680
100
AcDbEntity
  8
LC-001-100-D00-0
 62
     2
370
    -2
100
AcDbLine
 10
420.735085
 20
421.001925
 30
0.0
 11
420.735085
 21
371.001925
 31
0.0
  0
LINE
  5
685
330
680
100
AcDbEntity
  8
LC-001-100-D00-0
 62
     2
370
    -2
100
AcDbLine
 10
420.735085
 20
548.501925
 30
0.0
 11
420.735085
 21
471.001925
 31
0.0
  0
SOLID
  5
686
330
680
100
AcDbEntity
  8
LC-001-100-D00-0
 62
     2
100
AcDbTrace
 10
412.401751
 20
598.501925
 30
0.0
 11
429.068418
 21
598.501925
 31
0.0
 12
420.735085
 22
548.501925
 32
0.0
 13
420.735085
 23
548.501925
 33
0.0
  0
SOLID
  5
687
330
680
100
AcDbEntity
  8
LC-001-100-D00-0
 62
     2
100
AcDbTrace
 10
429.068418
 20
421.001925
 30
0.0
 11
412.401751
 21
421.001925
 31
0.0
 12
420.735085
 22
471.001925
 32
0.0
 13
420.735085
 23
471.001925
 33
0.0
  0
MTEXT
  5
688
330
680
100
AcDbEntity
  8
LC-001-100-D00-0
 62
     2
100
AcDbMText
 10
365.735085
 20
509.647972
 30
0.0
 40
50.0
 41
0.0
 71
     5
 72
     1
  1
\A1;77,5
  7
LCTX15-400-0-0pDIN-Schrift
 11
6.123031769111886E-17
 21
1.0
 31
0.0
 73
     1
 44
1.0
  0
POINT
  5
689
330
680
100
AcDbEntity
  8
Defpoints
 62
     0
100
AcDbPoint
 10
385.177081
 20
548.501925
 30
0.0
  0
POINT
  5
68A
330
680
100
AcDbEntity
  8
Defpoints
 62
     0
100
AcDbPoint
 10
3.176878
 20
471.001925
 30
0.0
  0
POINT
  5
68B
330
680
100
AcDbEntity
  8
Defpoints
 62
     0
100
AcDbPoint
 10
420.735085
 20
471.001925
 30
0.0
  0
ENDBLK
  5
68D
330
680
100
AcDbEntity
  8
0
100
AcDbBlockEnd
  0
BLOCK
  5
69A
330
68F
100
AcDbEntity
  8
0
100
AcDbBlockBegin
  2
*D31
 70
     1
 71
     0
 10
0.0
 20
0.0
 30
0.0
  3
*D31
  1

  0
LINE
  5
690
330
68F
100
AcDbEntity
  8
LC-001-100-D00-0
 62
     2
370
    -2
100
AcDbLine
 10
-814.822919
 20
548.501925
 30
0.0
 11
-658.966531
 21
548.501925
 31
0.0
  0
LINE
  5
691
330
68F
100
AcDbEntity
  8
LC-001-100-D00-0
 62
     2
370
    -2
100
AcDbLine
 10
-268.840799
 20
438.501925
 30
0.0
 11
-676.966531
 21
438.501925
 31
0.0
  0
LINE
  5
692
330
68F
100
AcDbEntity
  8
LC-001-100-D00-0
 62
     2
370
    -2
100
AcDbLine
 10
-667.966531
 20
598.501925
 30
0.0
 11
-667.966531
 21
648.501925
 31
0.0
  0
LINE
  5
693
330
68F
100
AcDbEntity
  8
LC-001-100-D00-0
 62
     2
370
    -2
100
AcDbLine
 10
-667.966531
 20
388.501925
 30
0.0
 11
-667.966531
 21
362.042001
 31
0.0
  0
SOLID
  5
694
330
68F
100
AcDbEntity
  8
LC-001-100-D00-0
 62
     2
100
AcDbTrace
 10
-676.299865
 20
598.501925
 30
0.0
 11
-659.633198
 21
598.501925
 31
0.0
 12
-667.966531
 22
548.501925
 32
0.0
 13
-667.966531
 23
548.501925
 33
0.0
  0
SOLID
  5
695
330
68F
100
AcDbEntity
  8
LC-001-100-D00-0
 62
     2
100
AcDbTrace
 10
-659.633198
 20
388.501925
 30
0.0
 11
-676.299865
 21
388.501925
 31
0.0
 12
-667.966531
 22
438.501925
 32
0.0
 13
-667.966531
 23
438.501925
 33
0.0
  0
MTEXT
  5
696
330
68F
100
AcDbEntity
  8
LC-001-100-D00-0
 62
     2
100
AcDbMText
 10
-722.966531
 20
417.821925
 30
0.0
 40
50.0
 41
0.0
 71
     5
 72
     1
  1
\A1;110
  7
LCTX15-400-0-0pDIN-Schrift
 11
6.123031769111886E-17
 21
1.0
 31
0.0
 73
     1
 44
1.0
  0
POINT
  5
697
330
68F
100
AcDbEntity
  8
Defpoints
 62
     0
100
AcDbPoint
 10
-814.822919
 20
548.501925
 30
0.0
  0
POINT
  5
698
330
68F
100
AcDbEntity
  8
Defpoints
 62
     0
100
AcDbPoint
 10
-268.840799
 20
438.501925
 30
0.0
  0
POINT
  5
699
330
68F
100
AcDbEntity
  8
Defpoints
 62
     0
100
AcDbPoint
 10
-667.966531
 20
438.501925
 30
0.0
  0
ENDBLK
  5
69B
330
68F
100
AcDbEntity
  8
0
100
AcDbBlockEnd
  0
BLOCK
  5
6A8
330
69D
100
AcDbEntity
  8
0
100
AcDbBlockBegin
  2
*D32
 70
     1
 71
     0
 10
0.0
 20
0.0
 30
0.0
  3
*D32
  1

  0
LINE
  5
69E
330
69D
100
AcDbEntity
  8
LC-001-100-D00-0
 62
     2
370
    -2
100
AcDbLine
 10
385.177081
 20
548.501925
 30
0.0
 11
584.279763
 21
548.501925
 31
0.0
  0
LINE
  5
69F
330
69D
100
AcDbEntity
  8
LC-001-100-D00-0
 62
     2
370
    -2
100
AcDbLine
 10
144.677081
 20
414.001925
 30
0.0
 11
584.279763
 21
414.001925
 31
0.0
  0
LINE
  5
6A0
330
69D
100
AcDbEntity
  8
LC-001-100-D00-0
 62
     2
370
    -2
100
AcDbLine
 10
575.279763
 20
498.501925
 30
0.0
 11
575.279763
 21
464.001925
 31
0.0
  0
LINE
  5
6A1
330
69D
100
AcDbEntity
  8
LC-001-100-D00-0
 62
     2
370
    -2
100
AcDbLine
 10
575.279763
 20
414.001925
 30
0.0
 11
575.279763
 21
90.862243
 31
0.0
  0
SOLID
  5
6A2
330
69D
100
AcDbEntity
  8
LC-001-100-D00-0
 62
     2
100
AcDbTrace
 10
583.613097
 20
498.501925
 30
0.0
 11
566.94643
 21
498.501925
 31
0.0
 12
575.279763
 22
548.501925
 32
0.0
 13
575.279763
 23
548.501925
 33
0.0
  0
SOLID
  5
6A3
330
69D
100
AcDbEntity
  8
LC-001-100-D00-0
 62
     2
100
AcDbTrace
 10
566.94643
 20
464.001925
 30
0.0
 11
583.613097
 21
464.001925
 31
0.0
 12
575.279763
 22
414.001925
 32
0.0
 13
575.279763
 23
414.001925
 33
0.0
  0
MTEXT
  5
6A4
330
69D
100
AcDbEntity
  8
LC-001-100-D00-0
 62
     2
100
AcDbMText
 10
520.279763
 20
257.441925
 30
0.0
 40
50.0
 41
0.0
 71
     5
 72
     1
  1
\A1;110-129,5
  7
LCTX15-400-0-0pDIN-Schrift
 11
6.123031769111886E-17
 21
1.0
 31
0.0
 73
     1
 44
1.0
  0
POINT
  5
6A5
330
69D
100
AcDbEntity
  8
Defpoints
 62
     0
100
AcDbPoint
 10
385.177081
 20
548.501925
 30
0.0
  0
POINT
  5
6A6
330
69D
100
AcDbEntity
  8
Defpoints
 62
     0
100
AcDbPoint
 10
144.677081
 20
414.001925
 30
0.0
  0
POINT
  5
6A7
330
69D
100
AcDbEntity
  8
Defpoints
 62
     0
100
AcDbPoint
 10
575.279763
 20
414.001925
 30
0.0
  0
ENDBLK
  5
6A9
330
69D
100
AcDbEntity
  8
0
100
AcDbBlockEnd
  0
BLOCK
  5
6AC
330
6AB
100
AcDbEntity
  8
0
100
AcDbBlockBegin
  2
KLON23
 70
     0
 71
     0
 10
0.0
 20
0.0
 30
0.0
  3
KLON23
  1

  4
KLON23
  0
LINE
  5
6AE
330
6AB
100
AcDbEntity
  8
LC-001-100-D00-0
 62
     7
370
    50
100
AcDbLine
 10
138.760414
 20
533.974095
 30
0.0
 11
142.159562
 21
537.373242
 31
0.0
  0
LINE
  5
6AF
330
6AB
100
AcDbEntity
  8
LC-001-100-D00-0
 62
     7
370
    50
100
AcDbLine
 10
142.288244
 20
537.501925
 30
0.0
 11
144.610414
 21
539.824095
 31
0.0
  0
ENDBLK
  5
6AD
330
6AB
100
AcDbEntity
  8
0
100
AcDbBlockEnd
  0
BLOCK
  5
6B6
330
6B5
100
AcDbEntity
  8
0
100
AcDbBlockBegin
  2
KLON24
 70
     0
 71
     0
 10
0.0
 20
0.0
 30
0.0
  3
KLON24
  1

  4
KLON24
  0
LINE
  5
6B8
330
6B5
100
AcDbEntity
  8
LC-001-100-D00-0
 62
     7
370
    50
100
AcDbLine
 10
-150.119428
 20
514.501925
 30
0.0
 11
-146.822919
 21
517.798434
 31
0.0
  0
LINE
  5
6B9
330
6B5
100
AcDbEntity
  8
LC-001-100-D00-0
 62
     7
370
    50
100
AcDbLine
 10
-146.119428
 20
518.501925
 30
0.0
 11
-143.119428
 21
521.501925
 31
0.0
  0
ENDBLK
  5
6B7
330
6B5
100
AcDbEntity
  8
0
100
AcDbBlockEnd
  0
BLOCK
  5
6BC
330
6BB
100
AcDbEntity
  8
0
100
AcDbBlockBegin
  2
KLON25
 70
     0
 71
     0
 10
0.0
 20
0.0
 30
0.0
  3
KLON25
  1

  4
KLON25
  0
LINE
  5
6BE
330
6BB
100
AcDbEntity
  8
LC-001-100-D00-0
 62
     7
370
    50
100
AcDbLine
 10
-288.822919
 20
510.502271
 30
0.0
 11
-285.822919
 21
513.502271
 31
0.0
  0
LINE
  5
6BF
330
6BB
100
AcDbEntity
  8
LC-001-100-D00-0
 62
     7
370
    50
100
AcDbLine
 10
-282.822919
 20
516.502271
 30
0.0
 11
-279.822919
 21
519.502271
 31
0.0
  0
ENDBLK
  5
6BD
330
6BB
100
AcDbEntity
  8
0
100
AcDbBlockEnd
  0
BLOCK
  5
6C2
330
6C1
100
AcDbEntity
  8
0
100
AcDbBlockBegin
  2
KLON26
 70
     0
 71
     0
 10
0.0
 20
0.0
 30
0.0
  3
KLON26
  1

  4
KLON26
  0
LINE
  5
6C4
330
6C1
100
AcDbEntity
  8
LC-001-100-D00-0
 62
     7
370
    50
100
AcDbLine
 10
-115.311888
 20
441.54639
 30
0.0
 11
-108.856353
 21
448.001925
 31
0.0
  0
LINE
  5
6C5
330
6C1
100
AcDbEntity
  8
LC-001-100-D00-0
 62
     7
370
    50
100
AcDbLine
 10
-138.797121
 20
445.001925
 30
0.0
 11
-135.797121
 21
448.001925
 31
0.0
  0
LINE
  5
6C6
330
6C1
100
AcDbEntity
  8
LC-001-100-D00-0
 62
     7
370
    50
100
AcDbLine
 10
-172.237888
 20
438.501925
 30
0.0
 11
-169.237888
 21
441.501925
 31
0.0
  0
LINE
  5
6C7
330
6C1
100
AcDbEntity
  8
LC-001-100-D00-0
 62
     7
370
    50
100
AcDbLine
 10
-199.178655
 20
438.501925
 30
0.0
 11
-196.178655
 21
441.501925
 31
0.0
  0
LINE
  5
6C8
330
6C1
100
AcDbEntity
  8
LC-001-100-D00-0
 62
     7
370
    50
100
AcDbLine
 10
-226.119422
 20
438.501925
 30
0.0
 11
-223.119423
 21
441.501925
 31
0.0
  0
LINE
  5
6C9
330
6C1
100
AcDbEntity
  8
LC-001-100-D00-0
 62
     7
370
    50
100
AcDbLine
 10
-253.06019
 20
438.501925
 30
0.0
 11
-250.06019
 21
441.501925
 31
0.0
  0
LINE
  5
6CA
330
6C1
100
AcDbEntity
  8
LC-001-100-D00-0
 62
     7
370
    50
100
AcDbLine
 10
-275.412344
 20
443.090538
 30
0.0
 11
-272.822919
 21
445.679964
 31
0.0
  0
LINE
  5
6CB
330
6C1
100
AcDbEntity
  8
LC-001-100-D00-0
 62
     7
370
    50
100
AcDbLine
 10
-288.793841
 20
456.64981
 30
0.0
 11
-285.822919
 21
459.620732
 31
0.0
  0
LINE
  5
6CC
330
6C1
100
AcDbEntity
  8
LC-001-100-D00-0
 62
     7
370
    50
100
AcDbLine
 10
-288.822919
 20
483.561501
 30
0.0
 11
-285.822919
 21
486.561501
 31
0.0
  0
ENDBLK
  5
6C3
330
6C1
100
AcDbEntity
  8
0
100
AcDbBlockEnd
  0
BLOCK
  5
6CF
330
6CE
100
AcDbEntity
  8
0
100
AcDbBlockBegin
  2
KLON27
 70
     0
 71
     0
 10
0.0
 20
0.0
 30
0.0
  3
KLON27
  1

  4
KLON27
  0
LINE
  5
6D1
330
6CE
100
AcDbEntity
  8
LC-001-100-D00-0
 62
     7
370
    50
100
AcDbLine
 10
-116.737892
 20
494.001925
 30
0.0
 11
-110.141836
 21
500.597981
 31
0.0
  0
LINE
  5
6D2
330
6CE
100
AcDbEntity
  8
LC-001-100-D00-0
 62
     7
370
    50
100
AcDbLine
 10
-143.678659
 20
494.001925
 30
0.0
 11
-140.678659
 21
497.001925
 31
0.0
  0
ENDBLK
  5
6D0
330
6CE
100
AcDbEntity
  8
0
100
AcDbBlockEnd
  0
BLOCK
  5
6D5
330
6D4
100
AcDbEntity
  8
0
100
AcDbBlockBegin
  2
KLON28
 70
     0
 71
     0
 10
0.0
 20
0.0
 30
0.0
  3
KLON28
  1

  4
KLON28
  0
LINE
  5
6D7
330
6D4
100
AcDbEntity
  8
LC-001-100-D00-0
 62
     7
370
    50
100
AcDbLine
 10
-196.678655
 20
441.001925
 30
0.0
 11
-195.178655
 21
442.501925
 31
0.0
  0
LINE
  5
6D8
330
6D4
100
AcDbEntity
  8
LC-001-100-D00-0
 62
     7
370
    50
100
AcDbLine
 10
-175.322919
 20
462.357663
 30
0.0
 11
-173.822919
 21
463.857663
 31
0.0
  0
LINE
  5
6D9
330
6D4
100
AcDbEntity
  8
LC-001-100-D00-0
 62
     7
370
    50
100
AcDbLine
 10
-223.619422
 20
441.001925
 30
0.0
 11
-222.119423
 21
442.501925
 31
0.0
  0
LINE
  5
6DA
330
6D4
100
AcDbEntity
  8
LC-001-100-D00-0
 62
     7
370
    50
100
AcDbLine
 10
-175.322919
 20
489.298432
 30
0.0
 11
-173.822919
 21
490.798432
 31
0.0
  0
LINE
  5
6DB
330
6D4
100
AcDbEntity
  8
LC-001-100-D00-0
 62
     7
370
    50
100
AcDbLine
 10
-250.56019
 20
441.001925
 30
0.0
 11
-249.06019
 21
442.501925
 31
0.0
  0
LINE
  5
6DC
330
6D4
100
AcDbEntity
  8
LC-001-100-D00-0
 62
     7
370
    50
100
AcDbLine
 10
-255.822919
 20
462.679965
 30
0.0
 11
-254.322919
 21
464.179965
 31
0.0
  0
LINE
  5
6DD
330
6D4
100
AcDbEntity
  8
LC-001-100-D00-0
 62
     7
370
    50
100
AcDbLine
 10
-255.822919
 20
489.620734
 30
0.0
 11
-254.322919
 21
491.120734
 31
0.0
  0
LINE
  5
6DE
330
6D4
100
AcDbEntity
  8
LC-001-100-D00-0
 62
     7
370
    50
100
AcDbLine
 10
-261.331828
 20
511.052594
 30
0.0
 11
-259.901256
 21
512.483166
 31
0.0
  0
ENDBLK
  5
6D6
330
6D4
100
AcDbEntity
  8
0
100
AcDbBlockEnd
  0
BLOCK
  5
6E1
330
6E0
100
AcDbEntity
  8
0
100
AcDbBlockBegin
  2
KLON29
 70
     0
 71
     0
 10
0.0
 20
0.0
 30
0.0
  3
KLON29
  1

  4
KLON29
  0
LINE
  5
6E3
330
6E0
100
AcDbEntity
  8
LC-001-100-D00-0
 62
     7
370
    50
100
AcDbLine
 10
-187.322919
 20
477.298431
 30
0.0
 11
-185.822919
 21
478.798431
 31
0.0
  0
LINE
  5
6E4
330
6E0
100
AcDbEntity
  8
LC-001-100-D00-0
 62
     7
370
    50
100
AcDbLine
 10
-187.322919
 20
504.239201
 30
0.0
 11
-185.822919
 21
505.739201
 31
0.0
  0
LINE
  5
6E5
330
6E0
100
AcDbEntity
  8
LC-001-100-D00-0
 62
     7
370
    50
100
AcDbLine
 10
-175.060195
 20
516.501925
 30
0.0
 11
-169.060196
 21
522.501925
 31
0.0
  0
ENDBLK
  5
6E2
330
6E0
100
AcDbEntity
  8
0
100
AcDbBlockEnd
  0
BLOCK
  5
6E8
330
6E7
100
AcDbEntity
  8
0
100
AcDbBlockBegin
  2
KLON30
 70
     0
 71
     0
 10
0.0
 20
0.0
 30
0.0
  3
KLON30
  1

  4
KLON30
  0
LINE
  5
6EA
330
6E7
100
AcDbEntity
  8
LC-001-100-D00-0
 62
     7
370
    50
100
AcDbLine
 10
-243.822919
 20
474.679966
 30
0.0
 11
-242.322919
 21
476.179966
 31
0.0
  0
LINE
  5
6EB
330
6E7
100
AcDbEntity
  8
LC-001-100-D00-0
 62
     7
370
    50
100
AcDbLine
 10
-243.822919
 20
501.620735
 30
0.0
 11
-242.322919
 21
503.120735
 31
0.0
  0
LINE
  5
6EC
330
6E7
100
AcDbEntity
  8
LC-001-100-D00-0
 62
     7
370
    50
100
AcDbLine
 10
-255.882498
 20
516.501925
 30
0.0
 11
-249.882498
 21
522.501925
 31
0.0
  0
ENDBLK
  5
6E9
330
6E7
100
AcDbEntity
  8
0
100
AcDbBlockEnd
  0
BLOCK
  5
6F0
330
6EF
100
AcDbEntity
  8
0
100
AcDbBlockBegin
  2
KLON31
 70
     0
 71
     0
 10
0.0
 20
0.0
 30
0.0
  3
KLON31
  1

  4
KLON31
  0
LINE
  5
6F2
330
6EF
100
AcDbEntity
  8
LC-001-100-D00-0
 62
     7
370
    50
100
AcDbLine
 10
-481.239586
 20
533.611745
 30
0.0
 11
-477.840438
 21
537.010892
 31
0.0
  0
LINE
  5
6F3
330
6EF
100
AcDbEntity
  8
LC-001-100-D00-0
 62
     7
370
    50
100
AcDbLine
 10
-477.349405
 20
537.501925
 30
0.0
 11
-475.389586
 21
539.461745
 31
0.0
  0
ENDBLK
  5
6F1
330
6EF
100
AcDbEntity
  8
0
100
AcDbBlockEnd
  0
BLOCK
  5
6FB
330
6FA
100
AcDbEntity
  8
0
100
AcDbBlockBegin
  2
KLON32
 70
     0
 71
     0
 10
0.0
 20
0.0
 30
0.0
  3
KLON32
  1

  4
KLON32
  0
LINE
  5
6FD
330
6FA
100
AcDbEntity
  8
LC-001-100-D00-0
 62
     7
370
    50
100
AcDbLine
 10
-323.697065
 20
529.509661
 30
0.0
 11
-320.022919
 21
533.183807
 31
0.0
  0
LINE
  5
6FE
330
6FA
100
AcDbEntity
  8
LC-001-100-D00-0
 62
     7
370
    50
100
AcDbLine
 10
-333.072919
 20
547.074575
 30
0.0
 11
-331.645569
 21
548.501925
 31
0.0
  0
ENDBLK
  5
6FC
330
6FA
100
AcDbEntity
  8
0
100
AcDbBlockEnd
  0
BLOCK
  5
703
330
702
100
AcDbEntity
  8
0
100
AcDbBlockBegin
  2
KLON33
 70
     0
 71
     0
 10
0.0
 20
0.0
 30
0.0
  3
KLON33
  1

  4
KLON33
  0
LINE
  5
705
330
702
100
AcDbEntity
  8
LC-001-100-D00-0
 62
     7
370
    50
100
AcDbLine
 10
296.019625
 20
529.5887
 30
0.0
 11
299.977081
 21
533.546157
 31
0.0
  0
LINE
  5
706
330
702
100
AcDbEntity
  8
LC-001-100-D00-0
 62
     7
370
    50
100
AcDbLine
 10
286.927081
 20
547.436926
 30
0.0
 11
287.99208
 21
548.501925
 31
0.0
  0
ENDBLK
  5
704
330
702
100
AcDbEntity
  8
0
100
AcDbBlockEnd
  0
BLOCK
  5
70C
330
70B
100
AcDbEntity
  8
0
100
AcDbBlockBegin
  2
KLON34
 70
     0
 71
     0
 10
0.0
 20
0.0
 30
0.0
  3
KLON34
  1

  4
KLON34
  0
LINE
  5
70E
330
70B
100
AcDbEntity
  8
LC-001-100-D00-0
 62
     7
370
    50
100
AcDbLine
 10
-110.278365
 20
500.461452
 30
0.0
 11
-107.970639
 21
502.769178
 31
0.0
  0
LINE
  5
70F
330
70B
100
AcDbEntity
  8
LC-001-100-D00-0
 62
     7
370
    50
100
AcDbLine
 10
-90.047124
 20
493.751925
 30
0.0
 11
-87.797124
 21
496.001925
 31
0.0
  0
LINE
  5
710
330
70B
100
AcDbEntity
  8
LC-001-100-D00-0
 62
     7
370
    50
100
AcDbLine
 10
-63.106356
 20
493.751925
 30
0.0
 11
-60.856356
 21
496.001925
 31
0.0
  0
LINE
  5
711
330
70B
100
AcDbEntity
  8
LC-001-100-D00-0
 62
     7
370
    50
100
AcDbLine
 10
-36.165612
 20
493.751925
 30
0.0
 11
-33.915612
 21
496.001925
 31
0.0
  0
ENDBLK
  5
70D
330
70B
100
AcDbEntity
  8
0
100
AcDbBlockEnd
  0
BLOCK
  5
714
330
713
100
AcDbEntity
  8
0
100
AcDbBlockBegin
  2
KLON35
 70
     0
 71
     0
 10
0.0
 20
0.0
 30
0.0
  3
KLON35
  1

  4
KLON35
  0
LINE
  5
716
330
713
100
AcDbEntity
  8
LC-001-100-D00-0
 62
     7
370
    50
100
AcDbLine
 10
-117.856352
 20
439.001925
 30
0.0
 11
-115.166301
 21
441.691975
 31
0.0
  0
LINE
  5
717
330
713
100
AcDbEntity
  8
LC-001-100-D00-0
 62
     7
370
    50
100
AcDbLine
 10
-83.915608
 20
446.001925
 30
0.0
 11
-81.665608
 21
448.251925
 31
0.0
  0
ENDBLK
  5
715
330
713
100
AcDbEntity
  8
0
100
AcDbBlockEnd
  0
BLOCK
  5
71A
330
719
100
AcDbEntity
  8
0
100
AcDbBlockBegin
  2
KLON36
 70
     0
 71
     0
 10
0.0
 20
0.0
 30
0.0
  3
KLON36
  1

  4
KLON36
  0
LINE
  5
71C
330
719
100
AcDbEntity
  8
LC-001-100-D00-0
 62
     7
370
    50
100
AcDbLine
 10
367.314383
 20
547.001925
 30
0.0
 11
368.814382
 21
548.501925
 31
0.0
  0
LINE
  5
71D
330
719
100
AcDbEntity
  8
LC-001-100-D00-0
 62
     7
370
    50
100
AcDbLine
 10
319.873617
 20
526.501925
 30
0.0
 11
321.373617
 21
528.001925
 31
0.0
  0
LINE
  5
71E
330
719
100
AcDbEntity
  8
LC-001-100-D00-0
 62
     7
370
    50
100
AcDbLine
 10
335.177081
 20
541.805391
 30
0.0
 11
336.677081
 21
543.305391
 31
0.0
  0
LINE
  5
71F
330
719
100
AcDbEntity
  8
LC-001-100-D00-0
 62
     7
370
    50
100
AcDbLine
 10
340.373615
 20
547.001925
 30
0.0
 11
341.873615
 21
548.501925
 31
0.0
  0
LINE
  5
720
330
719
100
AcDbEntity
  8
LC-001-100-D00-0
 62
     7
370
    50
100
AcDbLine
 10
292.932849
 20
526.501925
 30
0.0
 11
294.432849
 21
528.001925
 31
0.0
  0
LINE
  5
721
330
719
100
AcDbEntity
  8
LC-001-100-D00-0
 62
     7
370
    50
100
AcDbLine
 10
301.177081
 20
534.746157
 30
0.0
 11
309.177081
 21
542.746158
 31
0.0
  0
LINE
  5
722
330
719
100
AcDbEntity
  8
LC-001-100-D00-0
 62
     7
370
    50
100
AcDbLine
 10
265.992082
 20
526.501925
 30
0.0
 11
267.492082
 21
528.001925
 31
0.0
  0
LINE
  5
723
330
719
100
AcDbEntity
  8
LC-001-100-D00-0
 62
     7
370
    50
100
AcDbLine
 10
239.051315
 20
526.501925
 30
0.0
 11
240.551314
 21
528.001925
 31
0.0
  0
LINE
  5
724
330
719
100
AcDbEntity
  8
LC-001-100-D00-0
 62
     7
370
    50
100
AcDbLine
 10
212.110547
 20
526.501925
 30
0.0
 11
213.610547
 21
528.001925
 31
0.0
  0
LINE
  5
725
330
719
100
AcDbEntity
  8
LC-001-100-D00-0
 62
     7
370
    50
100
AcDbLine
 10
185.16978
 20
526.501925
 30
0.0
 11
186.66978
 21
528.001925
 31
0.0
  0
LINE
  5
726
330
719
100
AcDbEntity
  8
LC-001-100-D00-0
 62
     7
370
    50
100
AcDbLine
 10
158.229012
 20
526.501925
 30
0.0
 11
159.729012
 21
528.001925
 31
0.0
  0
LINE
  5
727
330
719
100
AcDbEntity
  8
LC-001-100-D00-0
 62
     7
370
    50
100
AcDbLine
 10
131.288245
 20
526.501925
 30
0.0
 11
132.788245
 21
528.001925
 31
0.0
  0
LINE
  5
728
330
719
100
AcDbEntity
  8
LC-001-100-D00-0
 62
     7
370
    50
100
AcDbLine
 10
144.510414
 20
539.724095
 30
0.0
 11
152.149329
 21
547.36301
 31
0.0
  0
LINE
  5
729
330
719
100
AcDbEntity
  8
LC-001-100-D00-0
 62
     7
370
    50
100
AcDbLine
 10
104.347478
 20
526.501925
 30
0.0
 11
105.847478
 21
528.001925
 31
0.0
  0
LINE
  5
72A
330
719
100
AcDbEntity
  8
LC-001-100-D00-0
 62
     7
370
    50
100
AcDbLine
 10
77.40671
 20
526.501925
 30
0.0
 11
78.90671
 21
528.001925
 31
0.0
  0
LINE
  5
72B
330
719
100
AcDbEntity
  8
LC-001-100-D00-0
 62
     7
370
    50
100
AcDbLine
 10
50.465943
 20
526.501925
 30
0.0
 11
51.965943
 21
528.001925
 31
0.0
  0
LINE
  5
72C
330
719
100
AcDbEntity
  8
LC-001-100-D00-0
 62
     7
370
    50
100
AcDbLine
 10
23.525176
 20
526.501925
 30
0.0
 11
25.025175
 21
528.001925
 31
0.0
  0
LINE
  5
72D
330
719
100
AcDbEntity
  8
LC-001-100-D00-0
 62
     7
370
    50
100
AcDbLine
 10
37.843748
 20
540.820498
 30
0.0
 11
44.934461
 21
547.911212
 31
0.0
  0
LINE
  5
72E
330
719
100
AcDbEntity
  8
LC-001-100-D00-0
 62
     7
370
    50
100
AcDbLine
 10
-3.415592
 20
526.501925
 30
0.0
 11
-1.915592
 21
528.001925
 31
0.0
  0
LINE
  5
72F
330
719
100
AcDbEntity
  8
LC-001-100-D00-0
 62
     7
370
    50
100
AcDbLine
 10
-30.356359
 20
526.501925
 30
0.0
 11
-28.856359
 21
528.001925
 31
0.0
  0
LINE
  5
730
330
719
100
AcDbEntity
  8
LC-001-100-D00-0
 62
     7
370
    50
100
AcDbLine
 10
-57.297127
 20
526.501925
 30
0.0
 11
-55.797127
 21
528.001925
 31
0.0
  0
LINE
  5
731
330
719
100
AcDbEntity
  8
LC-001-100-D00-0
 62
     7
370
    50
100
AcDbLine
 10
-84.237894
 20
526.501925
 30
0.0
 11
-82.737894
 21
528.001925
 31
0.0
  0
LINE
  5
732
330
719
100
AcDbEntity
  8
LC-001-100-D00-0
 62
     7
370
    50
100
AcDbLine
 10
-111.178661
 20
526.501925
 30
0.0
 11
-109.678661
 21
528.001925
 31
0.0
  0
LINE
  5
733
330
719
100
AcDbEntity
  8
LC-001-100-D00-0
 62
     7
370
    50
100
AcDbLine
 10
-143.119428
 20
521.501925
 30
0.0
 11
-141.619428
 21
523.001925
 31
0.0
  0
LINE
  5
734
330
719
100
AcDbEntity
  8
LC-001-100-D00-0
 62
     7
370
    50
100
AcDbLine
 10
-118.822919
 20
545.798436
 30
0.0
 11
-116.61943
 21
548.001925
 31
0.0
  0
ENDBLK
  5
71B
330
719
100
AcDbEntity
  8
0
100
AcDbBlockEnd
  0
BLOCK
  5
737
330
736
100
AcDbEntity
  8
0
100
AcDbBlockBegin
  2
KLON37
 70
     0
 71
     0
 10
0.0
 20
0.0
 30
0.0
  3
KLON37
  1

  4
KLON37
  0
LINE
  5
739
330
736
100
AcDbEntity
  8
LC-001-100-D00-0
 62
     7
370
    50
100
AcDbLine
 10
-277.823265
 20
521.501925
 30
0.0
 11
-276.323265
 21
523.001925
 31
0.0
  0
LINE
  5
73A
330
736
100
AcDbEntity
  8
LC-001-100-D00-0
 62
     7
370
    50
100
AcDbLine
 10
-301.606604
 20
524.659354
 30
0.0
 11
-300.381859
 21
525.884099
 31
0.0
  0
LINE
  5
73B
330
736
100
AcDbEntity
  8
LC-001-100-D00-0
 62
     7
370
    50
100
AcDbLine
 10
-326.7048
 20
526.501925
 30
0.0
 11
-325.204801
 21
528.001925
 31
0.0
  0
LINE
  5
73C
330
736
100
AcDbEntity
  8
LC-001-100-D00-0
 62
     7
370
    50
100
AcDbLine
 10
-318.822919
 20
534.383807
 30
0.0
 11
-310.822919
 21
542.383808
 31
0.0
  0
LINE
  5
73D
330
736
100
AcDbEntity
  8
LC-001-100-D00-0
 62
     7
370
    50
100
AcDbLine
 10
-353.645568
 20
526.501925
 30
0.0
 11
-352.145568
 21
528.001925
 31
0.0
  0
LINE
  5
73E
330
736
100
AcDbEntity
  8
LC-001-100-D00-0
 62
     7
370
    50
100
AcDbLine
 10
-380.586335
 20
526.501925
 30
0.0
 11
-379.086335
 21
528.001925
 31
0.0
  0
LINE
  5
73F
330
736
100
AcDbEntity
  8
LC-001-100-D00-0
 62
     7
370
    50
100
AcDbLine
 10
-407.527103
 20
526.501925
 30
0.0
 11
-406.027103
 21
528.001925
 31
0.0
  0
LINE
  5
740
330
736
100
AcDbEntity
  8
LC-001-100-D00-0
 62
     7
370
    50
100
AcDbLine
 10
-434.46787
 20
526.501925
 30
0.0
 11
-432.96787
 21
528.001925
 31
0.0
  0
LINE
  5
741
330
736
100
AcDbEntity
  8
LC-001-100-D00-0
 62
     7
370
    50
100
AcDbLine
 10
-461.408637
 20
526.501925
 30
0.0
 11
-459.908637
 21
528.001925
 31
0.0
  0
LINE
  5
742
330
736
100
AcDbEntity
  8
LC-001-100-D00-0
 62
     7
370
    50
100
AcDbLine
 10
-488.349405
 20
526.501925
 30
0.0
 11
-486.849405
 21
528.001925
 31
0.0
  0
LINE
  5
743
330
736
100
AcDbEntity
  8
LC-001-100-D00-0
 62
     7
370
    50
100
AcDbLine
 10
-475.489586
 20
539.361745
 30
0.0
 11
-467.669496
 21
547.181835
 31
0.0
  0
LINE
  5
744
330
736
100
AcDbEntity
  8
LC-001-100-D00-0
 62
     7
370
    50
100
AcDbLine
 10
-515.290172
 20
526.501925
 30
0.0
 11
-513.790172
 21
528.001925
 31
0.0
  0
LINE
  5
745
330
736
100
AcDbEntity
  8
LC-001-100-D00-0
 62
     7
370
    50
100
AcDbLine
 10
-542.230939
 20
526.501925
 30
0.0
 11
-540.73094
 21
528.001925
 31
0.0
  0
LINE
  5
746
330
736
100
AcDbEntity
  8
LC-001-100-D00-0
 62
     7
370
    50
100
AcDbLine
 10
-569.171707
 20
526.501925
 30
0.0
 11
-567.671707
 21
528.001925
 31
0.0
  0
LINE
  5
747
330
736
100
AcDbEntity
  8
LC-001-100-D00-0
 62
     7
370
    50
100
AcDbLine
 10
-596.112474
 20
526.501925
 30
0.0
 11
-594.612474
 21
528.001925
 31
0.0
  0
LINE
  5
748
330
736
100
AcDbEntity
  8
LC-001-100-D00-0
 62
     7
370
    50
100
AcDbLine
 10
-582.156252
 20
540.458148
 30
0.0
 11
-574.884364
 21
547.730037
 31
0.0
  0
LINE
  5
749
330
736
100
AcDbEntity
  8
LC-001-100-D00-0
 62
     7
370
    50
100
AcDbLine
 10
-623.053242
 20
526.501925
 30
0.0
 11
-621.553242
 21
528.001925
 31
0.0
  0
LINE
  5
74A
330
736
100
AcDbEntity
  8
LC-001-100-D00-0
 62
     7
370
    50
100
AcDbLine
 10
-649.994009
 20
526.501925
 30
0.0
 11
-648.494009
 21
528.001925
 31
0.0
  0
LINE
  5
74B
330
736
100
AcDbEntity
  8
LC-001-100-D00-0
 62
     7
370
    50
100
AcDbLine
 10
-676.934776
 20
526.501925
 30
0.0
 11
-675.434776
 21
528.001925
 31
0.0
  0
LINE
  5
74C
330
736
100
AcDbEntity
  8
LC-001-100-D00-0
 62
     7
370
    50
100
AcDbLine
 10
-703.875544
 20
526.501925
 30
0.0
 11
-702.375544
 21
528.001925
 31
0.0
  0
LINE
  5
74D
330
736
100
AcDbEntity
  8
LC-001-100-D00-0
 62
     7
370
    50
100
AcDbLine
 10
-730.816311
 20
526.501925
 30
0.0
 11
-729.316311
 21
528.001925
 31
0.0
  0
LINE
  5
74E
330
736
100
AcDbEntity
  8
LC-001-100-D00-0
 62
     7
370
    50
100
AcDbLine
 10
-757.715092
 20
526.543911
 30
0.0
 11
-756.257079
 21
528.001925
 31
0.0
  0
LINE
  5
74F
330
736
100
AcDbEntity
  8
LC-001-100-D00-0
 62
     7
370
    50
100
AcDbLine
 10
-738.822919
 20
545.436086
 30
0.0
 11
-736.25708
 21
548.001925
 31
0.0
  0
LINE
  5
750
330
736
100
AcDbEntity
  8
LC-001-100-D00-0
 62
     7
370
    50
100
AcDbLine
 10
-766.322919
 20
544.876853
 30
0.0
 11
-764.92435
 21
546.275422
 31
0.0
  0
LINE
  5
751
330
736
100
AcDbEntity
  8
LC-001-100-D00-0
 62
     7
370
    50
100
AcDbLine
 10
-791.138615
 20
547.001925
 30
0.0
 11
-789.638615
 21
548.501925
 31
0.0
  0
ENDBLK
  5
738
330
736
100
AcDbEntity
  8
0
100
AcDbBlockEnd
  0
ENDSEC
  0
SECTION
  2
ENTITIES
  0
ARC
  5
31
330
1F
100
AcDbEntity
  8
LC-001-100-D00-0
 62
     7
370
    50
100
AcDbCircle
 10
332.677057
 20
61.088392
 30
0.0
 40
2.500000000000057
100
AcDbArc
 50
270.0
 51
0.0
  0
LINE
  5
32
330
1F
100
AcDbEntity
  8
LC-001-100-D00-0
 62
     7
370
    50
100
AcDbLine
 10
335.177057
 20
61.088392
 30
0.0
 11
335.177057
 21
108.088392
 31
0.0
  0
ARC
  5
33
330
1F
100
AcDbEntity
  8
LC-001-100-D00-0
 62
     7
370
    50
100
AcDbCircle
 10
332.677057
 20
108.088392
 30
0.0
 40
2.499999999999659
100
AcDbArc
 50
0.0
 51
90.0
  0
LINE
  5
34
330
1F
100
AcDbEntity
  8
LC-001-100-D00-0
 62
     7
370
    50
100
AcDbLine
 10
-762.322943
 20
110.588392
 30
0.0
 11
332.677057
 21
110.588392
 31
0.0
  0
LINE
  5
35
330
1F
100
AcDbEntity
  8
LC-001-100-D00-0
 62
     7
370
    50
100
AcDbLine
 10
332.677057
 20
58.588392
 30
0.0
 11
-762.322943
 21
58.588392
 31
0.0
  0
ARC
  5
36
330
1F
100
AcDbEntity
  8
LC-001-100-D00-0
 62
     7
370
    50
100
AcDbCircle
 10
-762.322943
 20
108.088392
 30
0.0
 40
2.500000000000199
100
AcDbArc
 50
90.0
 51
180.0
  0
ARC
  5
37
330
1F
100
AcDbEntity
  8
LC-001-100-D00-0
 62
     7
370
    50
100
AcDbCircle
 10
-762.322943
 20
61.088392
 30
0.0
 40
2.5
100
AcDbArc
 50
180.0
 51
270.0
  0
LINE
  5
38
330
1F
100
AcDbEntity
  8
LC-001-100-D00-0
 62
     7
370
    50
100
AcDbLine
 10
-764.822943
 20
61.088392
 30
0.0
 11
-764.822943
 21
108.088392
 31
0.0
  0
ARC
  5
39
330
1F
100
AcDbEntity
  8
LC-001-100-D00-0
 62
     7
370
    50
100
AcDbCircle
 10
-809.822943
 20
157.088392
 30
0.0
 40
5.000000000000085
100
AcDbArc
 50
90.0
 51
180.0
  0
LINE
  5
3A
330
1F
100
AcDbEntity
  8
LC-001-100-D00-0
 62
     7
370
    50
100
AcDbLine
 10
380.177057
 20
162.088392
 30
0.0
 11
-809.822943
 21
162.088392
 31
0.0
  0
LINE
  5
3B
330
1F
100
AcDbEntity
  8
LC-001-100-D00-0
 62
     7
370
    50
100
AcDbLine
 10
385.177057
 20
157.088392
 30
0.0
 11
385.177057
 21
12.088392
 31
0.0
  0
LINE
  5
3C
330
1F
100
AcDbEntity
  8
LC-001-100-D00-0
 62
     7
370
    50
100
AcDbLine
 10
-809.822943
 20
7.088392
 30
0.0
 11
380.177057
 21
7.088392
 31
0.0
  0
ARC
  5
3D
330
1F
100
AcDbEntity
  8
LC-001-100-D00-0
 62
     7
370
    50
100
AcDbCircle
 10
-809.822943
 20
12.088392
 30
0.0
 40
4.999999999999886
100
AcDbArc
 50
180.0
 51
270.0
  0
LINE
  5
3E
330
1F
100
AcDbEntity
  8
LC-001-100-D00-0
 62
     7
370
    50
100
AcDbLine
 10
-814.822943
 20
157.088392
 30
0.0
 11
-814.822943
 21
12.088392
 31
0.0
  0
ARC
  5
3F
330
1F
100
AcDbEntity
  8
LC-001-100-D00-0
 62
     7
370
    50
100
AcDbCircle
 10
380.177057
 20
12.088392
 30
0.0
 40
5.000000000000085
100
AcDbArc
 50
270.0
 51
0.0
  0
ARC
  5
40
330
1F
100
AcDbEntity
  8
LC-001-100-D00-0
 62
     7
370
    50
100
AcDbCircle
 10
380.177057
 20
157.088392
 30
0.0
 40
5.000000000000114
100
AcDbArc
 50
0.0
 51
90.0
  0
CIRCLE
  5
41
330
1F
100
AcDbEntity
  8
LC-001-100-D00-0
 62
     7
370
    50
100
AcDbCircle
 10
305.177057
 20
84.588392
 30
0.0
 40
2.999999999999716
  0
CIRCLE
  5
42
330
1F
100
AcDbEntity
  8
LC-001-100-D00-0
 62
     7
370
    50
100
AcDbCircle
 10
148.510391
 20
84.588392
 30
0.0
 40
3.0
  0
CIRCLE
  5
43
330
1F
100
AcDbEntity
  8
LC-001-100-D00-0
 62
     7
370
    50
100
AcDbCircle
 10
41.843724
 20
84.588392
 30
0.0
 40
3.0
  0
CIRCLE
  5
44
330
1F
100
AcDbEntity
  8
LC-001-100-D00-0
 62
     7
370
    50
100
AcDbCircle
 10
-114.822943
 20
84.588392
 30
0.0
 40
2.999999999999716
  0
CIRCLE
  5
45
330
1F
100
AcDbEntity
  8
LC-001-100-D00-0
 62
     7
370
    50
100
AcDbCircle
 10
-314.822943
 20
84.588392
 30
0.0
 40
3.0
  0
CIRCLE
  5
46
330
1F
100
AcDbEntity
  8
LC-001-100-D00-0
 62
     7
370
    50
100
AcDbCircle
 10
-471.489609
 20
84.588392
 30
0.0
 40
3.0
  0
CIRCLE
  5
47
330
1F
100
AcDbEntity
  8
LC-001-100-D00-0
 62
     7
370
    50
100
AcDbCircle
 10
-578.156276
 20
84.588392
 30
0.0
 40
3.0
  0
CIRCLE
  5
48
330
1F
100
AcDbEntity
  8
LC-001-100-D00-0
 62
     7
370
    50
100
AcDbCircle
 10
-734.822943
 20
84.588392
 30
0.0
 40
3.0
  0
LINE
  5
49
330
1F
100
AcDbEntity
  8
LC-001-100-D00-0
 62
     7
370
    50
100
AcDbLine
 10
327.150887
 20
72.265723
 30
0.0
 11
327.150887
 21
61.088393
 31
0.0
  0
INSERT
  5
50
330
1F
100
AcDbEntity
  8
LC-001-100-D00-0
 62
     7
370
    50
100
AcDbBlockReference
  2
KLON1
 10
0.0
 20
0.0
 30
0.0
  0
ARC
  5
51
330
1F
100
AcDbEntity
  8
LC-001-100-D00-0
 62
     7
370
    50
100
AcDbCircle
 10
1938.265371
 20
348.548479
 30
0.0
 40
1630.647500472245
100
AcDbArc
 50
188.877215
 51
188.883171
  0
LINE
  5
52
330
1F
100
AcDbEntity
  8
LC-001-100-D00-0
 62
     7
370
    50
100
AcDbLine
 10
327.150887
 20
108.073753
 30
0.0
 11
327.150887
 21
96.911061
 31
0.0
  0
INSERT
  5
58
330
1F
100
AcDbEntity
  8
LC-001-100-D00-0
 62
     7
370
    50
100
AcDbBlockReference
  2
KLON2
 10
0.0
 20
0.0
 30
0.0
  0
INSERT
  5
5E
330
1F
100
AcDbEntity
  8
LC-001-100-D00-0
 62
     7
370
    50
100
AcDbBlockReference
  2
KLON3
 10
0.0
 20
0.0
 30
0.0
  0
INSERT
  5
64
330
1F
100
AcDbEntity
  8
LC-001-100-D00-0
 62
     7
370
    50
100
AcDbBlockReference
  2
KLON4
 10
0.0
 20
0.0
 30
0.0
  0
INSERT
  5
6A
330
1F
100
AcDbEntity
  8
LC-001-100-D00-0
 62
     7
370
    50
100
AcDbBlockReference
  2
KLON5
 10
0.0
 20
0.0
 30
0.0
  0
LINE
  5
6B
330
1F
100
AcDbEntity
  8
LC-001-100-D00-0
 62
     7
370
    50
100
AcDbLine
 10
-756.796772
 20
108.073753
 30
0.0
 11
-756.796772
 21
96.911061
 31
0.0
  0
ARC
  5
6C
330
1F
100
AcDbEntity
  8
LC-001-100-D00-0
 62
     7
370
    50
100
AcDbCircle
 10
-2367.911605
 20
348.548533
 30
0.0
 40
1630.647853986646
100
AcDbArc
 50
351.116829
 51
351.122785
  0
INSERT
  5
73
330
1F
100
AcDbEntity
  8
LC-001-100-D00-0
 62
     7
370
    50
100
AcDbBlockReference
  2
KLON6
 10
0.0
 20
0.0
 30
0.0
  0
LINE
  5
74
330
1F
100
AcDbEntity
  8
LC-001-100-D00-0
 62
     7
370
    50
100
AcDbLine
 10
-756.796772
 20
72.265723
 30
0.0
 11
-756.796772
 21
61.088393
 31
0.0
  0
ELLIPSE
  5
75
330
1F
100
AcDbEntity
  8
LC-001-100-D00-0
 62
     7
370
    50
100
AcDbEllipse
 10
327.104089
 20
61.088392
 30
0.0
 11
0.0
 21
-2.500000000000114
 31
0.0
210
0.0
220
0.0
230
1.0
 40
0.018242
 41
3.141592653589793
 42
4.71238898037686
  0
ELLIPSE
  5
76
330
1F
100
AcDbEntity
  8
LC-001-100-D00-0
 62
     7
370
    50
100
AcDbEllipse
 10
190.104089
 20
61.088392
 30
0.0
 11
0.0
 21
-2.499999389648477
 31
0.0
210
0.0
220
0.0
230
1.0
 40
0.018242
 41
3.141592653601634
 42
4.712388980380855
  0
ELLIPSE
  5
77
330
1F
100
AcDbEntity
  8
LC-001-100-D00-0
 62
     7
370
    50
100
AcDbEllipse
 10
395.649694
 20
61.088392
 30
0.0
 11
68.49999999591651
 21
0.0
 31
0.0
210
0.0
220
0.0
230
1.0
 40
0.036496
 41
3.141592653597592
 42
3.169858841660767
  0
ELLIPSE
  5
78
330
1F
100
AcDbEntity
  8
LC-001-100-D00-0
 62
     7
370
    50
100
AcDbEllipse
 10
-756.749974
 20
61.088392
 30
0.0
 11
0.0
 21
-2.500000000000114
 31
0.0
210
0.0
220
0.0
230
1.0
 40
0.018242
 41
1.57079632680228
 42
3.141592653594779
  0
ELLIPSE
  5
79
330
1F
100
AcDbEntity
  8
LC-001-100-D00-0
 62
     7
370
    50
100
AcDbEllipse
 10
-619.749974
 20
61.088392
 30
0.0
 11
0.0
 21
-2.500000091552847
 31
0.0
210
0.0
220
0.0
230
1.0
 40
0.018242
 41
1.570796326798719
 42
3.141592653589793
  0
ELLIPSE
  5
7A
330
1F
100
AcDbEntity
  8
LC-001-100-D00-0
 62
     7
370
    50
100
AcDbEllipse
 10
-825.29558
 20
61.088392
 30
0.0
 11
68.49999999591651
 21
0.0
 31
0.0
210
0.0
220
0.0
230
1.0
 40
0.036496
 41
6.254919119109431
 42
6.2831853071797
  0
ELLIPSE
  5
7B
330
1F
100
AcDbEntity
  8
LC-001-100-D00-0
 62
     7
370
    50
100
AcDbEllipse
 10
395.649694
 20
108.088392
 30
0.0
 11
68.49999999347952
 21
0.0
 31
0.0
210
0.0
220
0.0
230
1.0
 40
0.036496
 41
3.141592653589617
 42
3.147448628039448
  0
ELLIPSE
  5
7C
330
1F
100
AcDbEntity
  8
LC-001-100-D00-0
 62
     7
370
    50
100
AcDbEllipse
 10
327.104089
 20
108.088392
 30
0.0
 11
0.0
 21
-2.500000022887615
 31
0.0
210
0.0
220
0.0
230
1.0
 40
0.018242
 41
4.712388980384581
 42
6.283185335570598
  0
ELLIPSE
  5
7D
330
1F
100
AcDbEntity
  8
LC-001-100-D00-0
 62
     7
370
    50
100
AcDbEllipse
 10
-825.29558
 20
108.088392
 30
0.0
 11
68.49999999670763
 21
0.0
 31
0.0
210
0.0
220
0.0
230
1.0
 40
0.036496
 41
6.277329332730746
 42
6.283185307179859
  0
ELLIPSE
  5
7E
330
1F
100
AcDbEntity
  8
LC-001-100-D00-0
 62
     7
370
    50
100
AcDbEllipse
 10
-756.749974
 20
108.088392
 30
0.0
 11
0.0
 21
-2.499999999999432
 31
0.0
210
0.0
220
0.0
230
1.0
 40
0.018242
 41
6.283185278781096
 42
7.853981633974204
  0
ELLIPSE
  5
7F
330
1F
100
AcDbEntity
  8
LC-001-100-D00-0
 62
     7
370
    50
100
AcDbEllipse
 10
190.104089
 20
108.088392
 30
0.0
 11
0.0
 21
-2.500000011443524
 31
0.0
210
0.0
220
0.0
230
1.0
 40
0.018242
 41
4.712388980388635
 42
6.283185319415093
  0
ELLIPSE
  5
80
330
1F
100
AcDbEntity
  8
LC-001-100-D00-0
 62
     7
370
    50
100
AcDbEllipse
 10
-619.749974
 20
108.088392
 30
0.0
 11
0.0
 21
-2.500000061034587
 31
0.0
210
0.0
220
0.0
230
1.0
 40
0.018242
 41
6.28318529494221
 42
7.853981633970555
  0
LINE
  5
81
330
1F
100
AcDbEntity
  8
LC-001-100-D00-0
 62
     7
370
    50
100
AcDbLine
 10
190.1497
 20
61.088393
 30
0.0
 11
190.1497
 21
63.938909
 31
0.0
  0
INSERT
  5
87
330
1F
100
AcDbEntity
  8
LC-001-100-D00-0
 62
     7
370
    50
100
AcDbBlockReference
  2
KLON7
 10
0.0
 20
0.0
 30
0.0
  0
INSERT
  5
8D
330
1F
100
AcDbEntity
  8
LC-001-100-D00-0
 62
     7
370
    50
100
AcDbBlockReference
  2
KLON8
 10
0.0
 20
0.0
 30
0.0
  0
LINE
  5
8E
330
1F
100
AcDbEntity
  8
LC-001-100-D00-0
 62
     7
370
    50
100
AcDbLine
 10
-619.795585
 20
61.088393
 30
0.0
 11
-619.795585
 21
63.938909
 31
0.0
  0
INSERT
  5
95
330
1F
100
AcDbEntity
  8
LC-001-100-D00-0
 62
     7
370
    50
100
AcDbBlockReference
  2
KLON9
 10
0.0
 20
0.0
 30
0.0
  0
INSERT
  5
9B
330
1F
100
AcDbEntity
  8
LC-001-100-D00-0
 62
     7
370
    50
100
AcDbBlockReference
  2
KLON10
 10
0.0
 20
0.0
 30
0.0
  0
INSERT
  5
A2
330
1F
100
AcDbEntity
  8
LC-001-100-D00-0
 62
     7
370
    50
100
AcDbBlockReference
  2
KLON11
 10
0.0
 20
0.0
 30
0.0
  0
INSERT
  5
A9
330
1F
100
AcDbEntity
  8
LC-001-100-D00-0
 62
     7
370
    50
100
AcDbBlockReference
  2
KLON12
 10
0.0
 20
0.0
 30
0.0
  0
INSERT
  5
B0
330
1F
100
AcDbEntity
  8
LC-001-100-D00-0
 62
     7
370
    50
100
AcDbBlockReference
  2
KLON13
 10
0.0
 20
0.0
 30
0.0
  0
INSERT
  5
B6
330
1F
100
AcDbEntity
  8
LC-001-100-D00-0
 62
     7
370
    50
100
AcDbBlockReference
  2
KLON14
 10
0.0
 20
0.0
 30
0.0
  0
LINE
  5
B7
330
1F
100
AcDbEntity
  8
LC-001-100-D00-0
 62
     7
370
    50
100
AcDbLine
 10
190.1497
 20
105.237876
 30
0.0
 11
190.1497
 21
108.088391
 31
0.0
  0
LINE
  5
B8
330
1F
100
AcDbEntity
  8
LC-001-100-D00-0
 62
     7
370
    50
100
AcDbLine
 10
-619.795585
 20
105.237876
 30
0.0
 11
-619.795585
 21
108.088391
 31
0.0
  0
LINE
  5
B9
330
1F
100
AcDbEntity
  8
LC-001-100-D00-0
 62
     7
370
    50
100
AcDbLine
 10
190.163975
 20
64.732714
 30
0.0
 11
190.163975
 21
78.727441
 31
0.0
  0
ELLIPSE
  5
BA
330
1F
100
AcDbEntity
  8
LC-001-100-D00-0
 62
     7
370
    15
100
AcDbEllipse
 10
181.437259
 20
188.952101
 30
0.0
 11
23.87444186289719
 21
1.427912453274673
 31
0.0
210
0.0
220
0.0
230
1.0
 40
0.016531
 41
6.280994665941828
 42
6.282196627519486
  0
ELLIPSE
  5
BB
330
1F
100
AcDbEntity
  8
LC-001-100-D00-0
 62
     7
370
    15
100
AcDbEllipse
 10
181.437259
 20
198.425704
 30
0.0
 11
23.87444177808468
 21
-1.427912448202106
 31
0.0
210
0.0
220
0.0
230
1.0
 40
0.016531
 41
0.0009886796638936
 42
0.0021906412412812
  0
LINE
  5
BC
330
1F
100
AcDbEntity
  8
LC-001-100-D00-0
 62
     7
370
    50
100
AcDbLine
 10
190.163975
 20
90.449343
 30
0.0
 11
190.163975
 21
104.44407
 31
0.0
  0
ELLIPSE
  5
BD
330
1F
100
AcDbEntity
  8
LC-001-100-D00-0
 62
     7
370
    15
100
AcDbEllipse
 10
94.19053
 20
188.952101
 30
0.0
 11
23.87444186802004
 21
-1.427912453581066
 31
0.0
210
0.0
220
0.0
230
1.0
 40
0.016531
 41
3.142581333253323
 42
3.143783294830931
  0
LINE
  5
BE
330
1F
100
AcDbEntity
  8
LC-001-100-D00-0
 62
     7
370
    50
100
AcDbLine
 10
-619.809861
 20
64.732714
 30
0.0
 11
-619.809861
 21
78.727441
 31
0.0
  0
ELLIPSE
  5
BF
330
1F
100
AcDbEntity
  8
LC-001-100-D00-0
 62
     7
370
    15
100
AcDbEllipse
 10
94.19053
 20
198.425704
 30
0.0
 11
23.87444184411326
 21
1.427912452151167
 31
0.0
210
0.0
220
0.0
230
0.9999999999999999
 40
0.016531
 41
3.13940201235133
 42
3.140603973928757
  0
LINE
  5
C0
330
1F
100
AcDbEntity
  8
LC-001-100-D00-0
 62
     7
370
    50
100
AcDbLine
 10
-619.809861
 20
90.449343
 30
0.0
 11
-619.809861
 21
104.44407
 31
0.0
  0
LINE
  5
C1
330
1F
100
AcDbEntity
  8
LC-001-100-D00-0
 62
     7
370
    50
100
AcDbLine
 10
190.1497
 20
63.939281
 30
0.0
 11
190.163856
 21
64.729851
 31
0.0
  0
LINE
  5
C2
330
1F
100
AcDbEntity
  8
LC-001-100-D00-0
 62
     7
370
    50
100
AcDbLine
 10
190.1497
 20
105.237503
 30
0.0
 11
190.163856
 21
104.446933
 31
0.0
  0
LINE
  5
C3
330
1F
100
AcDbEntity
  8
LC-001-100-D00-0
 62
     7
370
    50
100
AcDbLine
 10
-619.795585
 20
105.237503
 30
0.0
 11
-619.809741
 21
104.446933
 31
0.0
  0
LINE
  5
C4
330
1F
100
AcDbEntity
  8
LC-001-100-D00-0
 62
     7
370
    50
100
AcDbLine
 10
-619.795585
 20
63.939281
 30
0.0
 11
-619.809741
 21
64.729851
 31
0.0
  0
ARC
  5
C5
330
1F
100
AcDbEntity
  8
LC-001-100-D00-0
 62
     7
370
    50
100
AcDbCircle
 10
-184.32295
 20
84.588412
 30
0.0
 40
24.80002105913698
100
AcDbArc
 50
270.0
 51
300.592807
  0
ARC
  5
C6
330
1F
100
AcDbEntity
  8
LC-001-100-D00-0
 62
     7
370
    50
100
AcDbCircle
 10
-245.322935
 20
84.588412
 30
0.0
 40
24.80002105913707
100
AcDbArc
 50
239.407193
 51
270.0
  0
ARC
  5
C7
330
1F
100
AcDbEntity
  8
LC-001-100-D00-0
 62
     7
370
    50
100
AcDbCircle
 10
-184.322948
 20
84.588379
 30
0.0
 40
24.80001358063243
100
AcDbArc
 50
59.407188
 51
90.0
  0
ARC
  5
C8
330
1F
100
AcDbEntity
  8
LC-001-100-D00-0
 62
     7
370
    50
100
AcDbCircle
 10
-245.322937
 20
84.588379
 30
0.0
 40
24.80001358063504
100
AcDbArc
 50
90.0
 51
120.592812
  0
LINE
  5
C9
330
1F
100
AcDbEntity
  8
LC-001-100-D00-0
 62
     7
370
    50
100
AcDbLine
 10
-245.322943
 20
109.388393
 30
0.0
 11
-184.322942
 21
109.388393
 31
0.0
  0
LINE
  5
CA
330
1F
100
AcDbEntity
  8
LC-001-100-D00-0
 62
     7
370
    50
100
AcDbLine
 10
-184.322942
 20
59.788391
 30
0.0
 11
-245.322943
 21
59.788391
 31
0.0
  0
LINE
  5
CB
330
1F
100
AcDbEntity
  8
LC-001-100-D00-0
 62
     7
370
    50
100
AcDbLine
 10
-281.655776
 20
88.027295
 30
0.0
 11
-281.647632
 21
87.659403
 31
0.0
  0
LINE
  5
CC
330
1F
100
AcDbEntity
  8
LC-001-100-D00-0
 62
     7
370
    50
100
AcDbLine
 10
-282.767052
 20
88.820264
 30
0.0
 11
-281.655776
 21
88.027295
 31
0.0
  0
LINE
  5
CD
330
1F
100
AcDbEntity
  8
LC-001-100-D00-0
 62
     7
370
    50
100
AcDbLine
 10
-281.655776
 20
89.613233
 30
0.0
 11
-282.767052
 21
88.820264
 31
0.0
  0
LINE
  5
CE
330
1F
100
AcDbEntity
  8
LC-001-100-D00-0
 62
     7
370
    50
100
AcDbLine
 10
-281.655776
 20
89.986931
 30
0.0
 11
-281.655776
 21
89.613233
 31
0.0
  0
LINE
  5
CF
330
1F
100
AcDbEntity
  8
LC-001-100-D00-0
 62
     7
370
    50
100
AcDbLine
 10
-283.029275
 20
89.007463
 30
0.0
 11
-281.655776
 21
89.986931
 31
0.0
  0
LINE
  5
D0
330
1F
100
AcDbEntity
  8
LC-001-100-D00-0
 62
     7
370
    50
100
AcDbLine
 10
-284.213471
 20
89.852315
 30
0.0
 11
-283.029275
 21
89.007463
 31
0.0
  0
LINE
  5
D1
330
1F
100
AcDbEntity
  8
LC-001-100-D00-0
 62
     7
370
    50
100
AcDbLine
 10
-284.213471
 20
89.478617
 30
0.0
 11
-284.213471
 21
89.852315
 31
0.0
  0
LINE
  5
D2
330
1F
100
AcDbEntity
  8
LC-001-100-D00-0
 62
     7
370
    50
100
AcDbLine
 10
-283.290791
 20
88.820264
 30
0.0
 11
-284.213471
 21
89.478617
 31
0.0
  0
LINE
  5
D3
330
1F
100
AcDbEntity
  8
LC-001-100-D00-0
 62
     7
370
    50
100
AcDbLine
 10
-284.213471
 20
88.161911
 30
0.0
 11
-283.290791
 21
88.820264
 31
0.0
  0
LINE
  5
D4
330
1F
100
AcDbEntity
  8
LC-001-100-D00-0
 62
     7
370
    50
100
AcDbLine
 10
-284.213471
 20
87.788213
 30
0.0
 11
-284.213471
 21
88.161911
 31
0.0
  0
LINE
  5
D5
330
1F
100
AcDbEntity
  8
LC-001-100-D00-0
 62
     7
370
    50
100
AcDbLine
 10
-283.029275
 20
88.633765
 30
0.0
 11
-284.213471
 21
87.788213
 31
0.0
  0
LINE
  5
D6
330
1F
100
AcDbEntity
  8
LC-001-100-D00-0
 62
     7
370
    50
100
AcDbLine
 10
-281.647632
 20
87.659403
 30
0.0
 11
-283.029275
 21
88.633765
 31
0.0
  0
LINE
  5
D7
330
1F
100
AcDbEntity
  8
LC-001-100-D00-0
 62
     7
370
    50
100
AcDbLine
 10
-281.655776
 20
83.360628
 30
0.0
 11
-281.647632
 21
82.992737
 31
0.0
  0
LINE
  5
D8
330
1F
100
AcDbEntity
  8
LC-001-100-D00-0
 62
     7
370
    50
100
AcDbLine
 10
-282.767052
 20
84.153597
 30
0.0
 11
-281.655776
 21
83.360628
 31
0.0
  0
LINE
  5
D9
330
1F
100
AcDbEntity
  8
LC-001-100-D00-0
 62
     7
370
    50
100
AcDbLine
 10
-281.655776
 20
84.946566
 30
0.0
 11
-282.767052
 21
84.153597
 31
0.0
  0
LINE
  5
DA
330
1F
100
AcDbEntity
  8
LC-001-100-D00-0
 62
     7
370
    50
100
AcDbLine
 10
-281.655776
 20
85.320264
 30
0.0
 11
-281.655776
 21
84.946566
 31
0.0
  0
LINE
  5
DB
330
1F
100
AcDbEntity
  8
LC-001-100-D00-0
 62
     7
370
    50
100
AcDbLine
 10
-283.029275
 20
84.340797
 30
0.0
 11
-281.655776
 21
85.320264
 31
0.0
  0
LINE
  5
DC
330
1F
100
AcDbEntity
  8
LC-001-100-D00-0
 62
     7
370
    50
100
AcDbLine
 10
-284.213471
 20
85.185648
 30
0.0
 11
-283.029275
 21
84.340797
 31
0.0
  0
LINE
  5
DD
330
1F
100
AcDbEntity
  8
LC-001-100-D00-0
 62
     7
370
    50
100
AcDbLine
 10
-284.213471
 20
84.811951
 30
0.0
 11
-284.213471
 21
85.185648
 31
0.0
  0
LINE
  5
DE
330
1F
100
AcDbEntity
  8
LC-001-100-D00-0
 62
     7
370
    50
100
AcDbLine
 10
-283.290791
 20
84.153597
 30
0.0
 11
-284.213471
 21
84.811951
 31
0.0
  0
LINE
  5
DF
330
1F
100
AcDbEntity
  8
LC-001-100-D00-0
 62
     7
370
    50
100
AcDbLine
 10
-284.213471
 20
83.495244
 30
0.0
 11
-283.290791
 21
84.153597
 31
0.0
  0
LINE
  5
E0
330
1F
100
AcDbEntity
  8
LC-001-100-D00-0
 62
     7
370
    50
100
AcDbLine
 10
-284.213471
 20
83.121546
 30
0.0
 11
-284.213471
 21
83.495244
 31
0.0
  0
LINE
  5
E1
330
1F
100
AcDbEntity
  8
LC-001-100-D00-0
 62
     7
370
    50
100
AcDbLine
 10
-283.029275
 20
83.967099
 30
0.0
 11
-284.213471
 21
83.121546
 31
0.0
  0
LINE
  5
E2
330
1F
100
AcDbEntity
  8
LC-001-100-D00-0
 62
     7
370
    50
100
AcDbLine
 10
-281.647632
 20
82.992737
 30
0.0
 11
-283.029275
 21
83.967099
 31
0.0
  0
LINE
  5
E3
330
1F
100
AcDbEntity
  8
LC-001-100-D00-0
 62
     7
370
    50
100
AcDbLine
 10
-281.655776
 20
78.693962
 30
0.0
 11
-281.647632
 21
78.32607
 31
0.0
  0
LINE
  5
E4
330
1F
100
AcDbEntity
  8
LC-001-100-D00-0
 62
     7
370
    50
100
AcDbLine
 10
-282.767052
 20
79.486931
 30
0.0
 11
-281.655776
 21
78.693962
 31
0.0
  0
LINE
  5
E5
330
1F
100
AcDbEntity
  8
LC-001-100-D00-0
 62
     7
370
    50
100
AcDbLine
 10
-281.655776
 20
80.279899
 30
0.0
 11
-282.767052
 21
79.486931
 31
0.0
  0
LINE
  5
E6
330
1F
100
AcDbEntity
  8
LC-001-100-D00-0
 62
     7
370
    50
100
AcDbLine
 10
-281.655776
 20
80.653597
 30
0.0
 11
-281.655776
 21
80.279899
 31
0.0
  0
LINE
  5
E7
330
1F
100
AcDbEntity
  8
LC-001-100-D00-0
 62
     7
370
    50
100
AcDbLine
 10
-283.029275
 20
79.67413
 30
0.0
 11
-281.655776
 21
80.653597
 31
0.0
  0
LINE
  5
E8
330
1F
100
AcDbEntity
  8
LC-001-100-D00-0
 62
     7
370
    50
100
AcDbLine
 10
-284.213471
 20
80.518982
 30
0.0
 11
-283.029275
 21
79.67413
 31
0.0
  0
LINE
  5
E9
330
1F
100
AcDbEntity
  8
LC-001-100-D00-0
 62
     7
370
    50
100
AcDbLine
 10
-284.213471
 20
80.145284
 30
0.0
 11
-284.213471
 21
80.518982
 31
0.0
  0
LINE
  5
EA
330
1F
100
AcDbEntity
  8
LC-001-100-D00-0
 62
     7
370
    50
100
AcDbLine
 10
-283.290791
 20
79.486931
 30
0.0
 11
-284.213471
 21
80.145284
 31
0.0
  0
LINE
  5
EB
330
1F
100
AcDbEntity
  8
LC-001-100-D00-0
 62
     7
370
    50
100
AcDbLine
 10
-284.213471
 20
78.828577
 30
0.0
 11
-283.290791
 21
79.486931
 31
0.0
  0
LINE
  5
EC
330
1F
100
AcDbEntity
  8
LC-001-100-D00-0
 62
     7
370
    50
100
AcDbLine
 10
-284.213471
 20
78.454879
 30
0.0
 11
-284.213471
 21
78.828577
 31
0.0
  0
LINE
  5
ED
330
1F
100
AcDbEntity
  8
LC-001-100-D00-0
 62
     7
370
    50
100
AcDbLine
 10
-283.029275
 20
79.300432
 30
0.0
 11
-284.213471
 21
78.454879
 31
0.0
  0
LINE
  5
EE
330
1F
100
AcDbEntity
  8
LC-001-100-D00-0
 62
     7
370
    50
100
AcDbLine
 10
-281.647632
 20
78.32607
 30
0.0
 11
-283.029275
 21
79.300432
 31
0.0
  0
LINE
  5
EF
330
1F
100
AcDbEntity
  8
LC-001-100-D00-0
 62
     7
370
    50
100
AcDbLine
 10
-281.655776
 20
76.360628
 30
0.0
 11
-281.655776
 21
75.986931
 31
0.0
  0
LINE
  5
F0
330
1F
100
AcDbEntity
  8
LC-001-100-D00-0
 62
     7
370
    50
100
AcDbLine
 10
-282.767052
 20
77.153597
 30
0.0
 11
-281.655776
 21
76.360628
 31
0.0
  0
LINE
  5
F1
330
1F
100
AcDbEntity
  8
LC-001-100-D00-0
 62
     7
370
    50
100
AcDbLine
 10
-281.655776
 20
77.946566
 30
0.0
 11
-282.767052
 21
77.153597
 31
0.0
  0
LINE
  5
F2
330
1F
100
AcDbEntity
  8
LC-001-100-D00-0
 62
     7
370
    50
100
AcDbLine
 10
-281.655776
 20
78.320264
 30
0.0
 11
-281.655776
 21
77.946566
 31
0.0
  0
LINE
  5
F3
330
1F
100
AcDbEntity
  8
LC-001-100-D00-0
 62
     7
370
    50
100
AcDbLine
 10
-283.029275
 20
77.340797
 30
0.0
 11
-281.655776
 21
78.320264
 31
0.0
  0
LINE
  5
F4
330
1F
100
AcDbEntity
  8
LC-001-100-D00-0
 62
     7
370
    50
100
AcDbLine
 10
-284.213471
 20
78.185649
 30
0.0
 11
-283.029275
 21
77.340797
 31
0.0
  0
LINE
  5
F5
330
1F
100
AcDbEntity
  8
LC-001-100-D00-0
 62
     7
370
    50
100
AcDbLine
 10
-284.213471
 20
77.811951
 30
0.0
 11
-284.213471
 21
78.185649
 31
0.0
  0
LINE
  5
F6
330
1F
100
AcDbEntity
  8
LC-001-100-D00-0
 62
     7
370
    50
100
AcDbLine
 10
-283.290791
 20
77.153597
 30
0.0
 11
-284.213471
 21
77.811951
 31
0.0
  0
LINE
  5
F7
330
1F
100
AcDbEntity
  8
LC-001-100-D00-0
 62
     7
370
    50
100
AcDbLine
 10
-284.213471
 20
76.495244
 30
0.0
 11
-283.290791
 21
77.153597
 31
0.0
  0
LINE
  5
F8
330
1F
100
AcDbEntity
  8
LC-001-100-D00-0
 62
     7
370
    50
100
AcDbLine
 10
-284.213471
 20
76.121546
 30
0.0
 11
-284.213471
 21
76.495244
 31
0.0
  0
LINE
  5
F9
330
1F
100
AcDbEntity
  8
LC-001-100-D00-0
 62
     7
370
    50
100
AcDbLine
 10
-283.029275
 20
76.967099
 30
0.0
 11
-284.213471
 21
76.121546
 31
0.0
  0
LINE
  5
FA
330
1F
100
AcDbEntity
  8
LC-001-100-D00-0
 62
     7
370
    50
100
AcDbLine
 10
-281.655776
 20
75.986931
 30
0.0
 11
-283.029275
 21
76.967099
 31
0.0
  0
LINE
  5
FB
330
1F
100
AcDbEntity
  8
LC-001-100-D00-0
 62
     7
370
    50
100
AcDbLine
 10
-281.655776
 20
81.027295
 30
0.0
 11
-281.647632
 21
80.659403
 31
0.0
  0
LINE
  5
FC
330
1F
100
AcDbEntity
  8
LC-001-100-D00-0
 62
     7
370
    50
100
AcDbLine
 10
-282.767052
 20
81.820264
 30
0.0
 11
-281.655776
 21
81.027295
 31
0.0
  0
LINE
  5
FD
330
1F
100
AcDbEntity
  8
LC-001-100-D00-0
 62
     7
370
    50
100
AcDbLine
 10
-281.655776
 20
82.613233
 30
0.0
 11
-282.767052
 21
81.820264
 31
0.0
  0
LINE
  5
FE
330
1F
100
AcDbEntity
  8
LC-001-100-D00-0
 62
     7
370
    50
100
AcDbLine
 10
-281.655776
 20
82.986931
 30
0.0
 11
-281.655776
 21
82.613233
 31
0.0
  0
LINE
  5
FF
330
1F
100
AcDbEntity
  8
LC-001-100-D00-0
 62
     7
370
    50
100
AcDbLine
 10
-283.029275
 20
82.007464
 30
0.0
 11
-281.655776
 21
82.986931
 31
0.0
  0
LINE
  5
100
330
1F
100
AcDbEntity
  8
LC-001-100-D00-0
 62
     7
370
    50
100
AcDbLine
 10
-284.213471
 20
82.852315
 30
0.0
 11
-283.029275
 21
82.007464
 31
0.0
  0
LINE
  5
101
330
1F
100
AcDbEntity
  8
LC-001-100-D00-0
 62
     7
370
    50
100
AcDbLine
 10
-284.213471
 20
82.478617
 30
0.0
 11
-284.213471
 21
82.852315
 31
0.0
  0
LINE
  5
102
330
1F
100
AcDbEntity
  8
LC-001-100-D00-0
 62
     7
370
    50
100
AcDbLine
 10
-283.290791
 20
81.820264
 30
0.0
 11
-284.213471
 21
82.478617
 31
0.0
  0
LINE
  5
103
330
1F
100
AcDbEntity
  8
LC-001-100-D00-0
 62
     7
370
    50
100
AcDbLine
 10
-284.213471
 20
81.161911
 30
0.0
 11
-283.290791
 21
81.820264
 31
0.0
  0
LINE
  5
104
330
1F
100
AcDbEntity
  8
LC-001-100-D00-0
 62
     7
370
    50
100
AcDbLine
 10
-284.213471
 20
80.788213
 30
0.0
 11
-284.213471
 21
81.161911
 31
0.0
  0
LINE
  5
105
330
1F
100
AcDbEntity
  8
LC-001-100-D00-0
 62
     7
370
    50
100
AcDbLine
 10
-283.029275
 20
81.633765
 30
0.0
 11
-284.213471
 21
80.788213
 31
0.0
  0
LINE
  5
106
330
1F
100
AcDbEntity
  8
LC-001-100-D00-0
 62
     7
370
    50
100
AcDbLine
 10
-281.647632
 20
80.659403
 30
0.0
 11
-283.029275
 21
81.633765
 31
0.0
  0
LINE
  5
107
330
1F
100
AcDbEntity
  8
LC-001-100-D00-0
 62
     7
370
    50
100
AcDbLine
 10
-281.655776
 20
85.693962
 30
0.0
 11
-281.647632
 21
85.32607
 31
0.0
  0
LINE
  5
108
330
1F
100
AcDbEntity
  8
LC-001-100-D00-0
 62
     7
370
    50
100
AcDbLine
 10
-282.767052
 20
86.486931
 30
0.0
 11
-281.655776
 21
85.693962
 31
0.0
  0
LINE
  5
109
330
1F
100
AcDbEntity
  8
LC-001-100-D00-0
 62
     7
370
    50
100
AcDbLine
 10
-281.655776
 20
87.279899
 30
0.0
 11
-282.767052
 21
86.486931
 31
0.0
  0
LINE
  5
10A
330
1F
100
AcDbEntity
  8
LC-001-100-D00-0
 62
     7
370
    50
100
AcDbLine
 10
-281.655776
 20
87.653597
 30
0.0
 11
-281.655776
 21
87.279899
 31
0.0
  0
LINE
  5
10B
330
1F
100
AcDbEntity
  8
LC-001-100-D00-0
 62
     7
370
    50
100
AcDbLine
 10
-283.029275
 20
86.67413
 30
0.0
 11
-281.655776
 21
87.653597
 31
0.0
  0
LINE
  5
10C
330
1F
100
AcDbEntity
  8
LC-001-100-D00-0
 62
     7
370
    50
100
AcDbLine
 10
-284.213471
 20
87.518982
 30
0.0
 11
-283.029275
 21
86.67413
 31
0.0
  0
LINE
  5
10D
330
1F
100
AcDbEntity
  8
LC-001-100-D00-0
 62
     7
370
    50
100
AcDbLine
 10
-284.213471
 20
87.145284
 30
0.0
 11
-284.213471
 21
87.518982
 31
0.0
  0
LINE
  5
10E
330
1F
100
AcDbEntity
  8
LC-001-100-D00-0
 62
     7
370
    50
100
AcDbLine
 10
-283.290791
 20
86.486931
 30
0.0
 11
-284.213471
 21
87.145284
 31
0.0
  0
LINE
  5
10F
330
1F
100
AcDbEntity
  8
LC-001-100-D00-0
 62
     7
370
    50
100
AcDbLine
 10
-284.213471
 20
85.828577
 30
0.0
 11
-283.290791
 21
86.486931
 31
0.0
  0
LINE
  5
110
330
1F
100
AcDbEntity
  8
LC-001-100-D00-0
 62
     7
370
    50
100
AcDbLine
 10
-284.213471
 20
85.454879
 30
0.0
 11
-284.213471
 21
85.828577
 31
0.0
  0
LINE
  5
111
330
1F
100
AcDbEntity
  8
LC-001-100-D00-0
 62
     7
370
    50
100
AcDbLine
 10
-283.029275
 20
86.300432
 30
0.0
 11
-284.213471
 21
85.454879
 31
0.0
  0
LINE
  5
112
330
1F
100
AcDbEntity
  8
LC-001-100-D00-0
 62
     7
370
    50
100
AcDbLine
 10
-281.647632
 20
85.32607
 30
0.0
 11
-283.029275
 21
86.300432
 31
0.0
  0
ARC
  5
113
330
1F
100
AcDbEntity
  8
LC-001-100-D00-0
 62
     7
370
    50
100
AcDbCircle
 10
-184.322943
 20
84.588392
 30
0.0
 40
24.7999999999949
100
AcDbArc
 50
300.592814
 51
59.407186
  0
ARC
  5
114
330
1F
100
AcDbEntity
  8
LC-001-100-D00-0
 62
     7
370
    50
100
AcDbCircle
 10
-245.322943
 20
84.588392
 30
0.0
 40
24.79999999999479
100
AcDbArc
 50
120.592814
 51
239.407186
  0
ARC
  5
115
330
1F
100
AcDbEntity
  8
LC-001-100-D00-0
 62
     7
370
    50
100
AcDbCircle
 10
318.427057
 20
97.838392
 30
0.0
 40
4.99999999999983
100
AcDbArc
 50
0.0
 51
90.0
  0
LINE
  5
116
330
1F
100
AcDbEntity
  8
LC-001-100-D00-0
 62
     7
370
    50
100
AcDbLine
 10
323.427057
 20
97.838392
 30
0.0
 11
323.427057
 21
71.338392
 31
0.0
  0
ARC
  5
117
330
1F
100
AcDbEntity
  8
LC-001-100-D00-0
 62
     7
370
    50
100
AcDbCircle
 10
318.427057
 20
71.338392
 30
0.0
 40
5.000000000000085
100
AcDbArc
 50
270.0
 51
0.0
  0
CIRCLE
  5
118
330
1F
100
AcDbEntity
  8
LC-001-100-D00-0
 62
     7
370
    50
100
AcDbCircle
 10
305.177057
 20
84.588392
 30
0.0
 40
3.900000000000262
  0
LINE
  5
119
330
1F
100
AcDbEntity
  8
LC-001-100-D00-0
 62
     7
370
    50
100
AcDbLine
 10
318.427057
 20
66.338392
 30
0.0
 11
291.927057
 21
66.338392
 31
0.0
  0
LINE
  5
11A
330
1F
100
AcDbEntity
  8
LC-001-100-D00-0
 62
     7
370
    50
100
AcDbLine
 10
291.927057
 20
102.838392
 30
0.0
 11
318.427057
 21
102.838392
 31
0.0
  0
ARC
  5
11B
330
1F
100
AcDbEntity
  8
LC-001-100-D00-0
 62
     7
370
    50
100
AcDbCircle
 10
291.927057
 20
97.838392
 30
0.0
 40
4.999999999999943
100
AcDbArc
 50
90.0
 51
180.0
  0
ARC
  5
11C
330
1F
100
AcDbEntity
  8
LC-001-100-D00-0
 62
     7
370
    50
100
AcDbCircle
 10
291.927057
 20
71.338392
 30
0.0
 40
5.000000000000114
100
AcDbArc
 50
180.0
 51
270.0
  0
LINE
  5
11D
330
1F
100
AcDbEntity
  8
LC-001-100-D00-0
 62
     7
370
    50
100
AcDbLine
 10
286.927057
 20
71.338392
 30
0.0
 11
286.927057
 21
97.838392
 31
0.0
  0
ARC
  5
11E
330
1F
100
AcDbEntity
  8
LC-001-100-D00-0
 62
     7
370
    50
100
AcDbCircle
 10
-721.572943
 20
71.338392
 30
0.0
 40
5.000000000000085
100
AcDbArc
 50
270.0
 51
0.0
  0
LINE
  5
11F
330
1F
100
AcDbEntity
  8
LC-001-100-D00-0
 62
     7
370
    50
100
AcDbLine
 10
-716.572943
 20
97.838392
 30
0.0
 11
-716.572943
 21
71.338392
 31
0.0
  0
ARC
  5
120
330
1F
100
AcDbEntity
  8
LC-001-100-D00-0
 62
     7
370
    50
100
AcDbCircle
 10
-721.572943
 20
97.838392
 30
0.0
 40
4.999999999999886
100
AcDbArc
 50
0.0
 51
90.0
  0
CIRCLE
  5
121
330
1F
100
AcDbEntity
  8
LC-001-100-D00-0
 62
     7
370
    50
100
AcDbCircle
 10
-734.822943
 20
84.588392
 30
0.0
 40
3.900000000000262
  0
LINE
  5
122
330
1F
100
AcDbEntity
  8
LC-001-100-D00-0
 62
     7
370
    50
100
AcDbLine
 10
-721.572943
 20
66.338392
 30
0.0
 11
-748.072943
 21
66.338392
 31
0.0
  0
LINE
  5
123
330
1F
100
AcDbEntity
  8
LC-001-100-D00-0
 62
     7
370
    50
100
AcDbLine
 10
-748.072943
 20
102.838392
 30
0.0
 11
-721.572943
 21
102.838392
 31
0.0
  0
ARC
  5
124
330
1F
100
AcDbEntity
  8
LC-001-100-D00-0
 62
     7
370
    50
100
AcDbCircle
 10
-748.072943
 20
71.338392
 30
0.0
 40
5.000000000000227
100
AcDbArc
 50
180.0
 51
270.0
  0
ARC
  5
125
330
1F
100
AcDbEntity
  8
LC-001-100-D00-0
 62
     7
370
    50
100
AcDbCircle
 10
-748.072943
 20
97.838392
 30
0.0
 40
4.999999999999943
100
AcDbArc
 50
90.0
 51
180.0
  0
LINE
  5
126
330
1F
100
AcDbEntity
  8
LC-001-100-D00-0
 62
     7
370
    50
100
AcDbLine
 10
-753.072943
 20
71.338392
 30
0.0
 11
-753.072943
 21
97.838392
 31
0.0
  0
ARC
  5
127
330
1F
100
AcDbEntity
  8
LC-001-100-D00-0
 62
     7
370
    50
100
AcDbCircle
 10
55.093724
 20
97.838392
 30
0.0
 40
5.000000000000227
100
AcDbArc
 50
0.0
 51
90.0
  0
LINE
  5
128
330
1F
100
AcDbEntity
  8
LC-001-100-D00-0
 62
     7
370
    50
100
AcDbLine
 10
60.093724
 20
97.838392
 30
0.0
 11
60.093724
 21
71.338392
 31
0.0
  0
ARC
  5
129
330
1F
100
AcDbEntity
  8
LC-001-100-D00-0
 62
     7
370
    50
100
AcDbCircle
 10
55.093724
 20
71.338392
 30
0.0
 40
4.999999999999801
100
AcDbArc
 50
270.0
 51
0.0
  0
CIRCLE
  5
12A
330
1F
100
AcDbEntity
  8
LC-001-100-D00-0
 62
     7
370
    50
100
AcDbCircle
 10
41.843724
 20
84.588392
 30
0.0
 40
3.900000000000262
  0
LINE
  5
12B
330
1F
100
AcDbEntity
  8
LC-001-100-D00-0
 62
     7
370
    50
100
AcDbLine
 10
55.093724
 20
66.338392
 30
0.0
 11
28.593724
 21
66.338392
 31
0.0
  0
LINE
  5
12C
330
1F
100
AcDbEntity
  8
LC-001-100-D00-0
 62
     7
370
    50
100
AcDbLine
 10
28.593724
 20
102.838392
 30
0.0
 11
55.093724
 21
102.838392
 31
0.0
  0
ARC
  5
12D
330
1F
100
AcDbEntity
  8
LC-001-100-D00-0
 62
     7
370
    50
100
AcDbCircle
 10
28.593724
 20
97.838392
 30
0.0
 40
5.000000000000227
100
AcDbArc
 50
90.0
 51
180.0
  0
ARC
  5
12E
330
1F
100
AcDbEntity
  8
LC-001-100-D00-0
 62
     7
370
    50
100
AcDbCircle
 10
28.593724
 20
71.338392
 30
0.0
 40
5.000000000000227
100
AcDbArc
 50
180.0
 51
270.0
  0
LINE
  5
12F
330
1F
100
AcDbEntity
  8
LC-001-100-D00-0
 62
     7
370
    50
100
AcDbLine
 10
23.593724
 20
71.338392
 30
0.0
 11
23.593724
 21
97.838392
 31
0.0
  0
ARC
  5
130
330
1F
100
AcDbEntity
  8
LC-001-100-D00-0
 62
     7
370
    50
100
AcDbCircle
 10
-101.572943
 20
97.838392
 30
0.0
 40
5.000000000000227
100
AcDbArc
 50
0.0
 51
90.0
  0
LINE
  5
131
330
1F
100
AcDbEntity
  8
LC-001-100-D00-0
 62
     7
370
    50
100
AcDbLine
 10
-96.572943
 20
97.838392
 30
0.0
 11
-96.572943
 21
71.338392
 31
0.0
  0
ARC
  5
132
330
1F
100
AcDbEntity
  8
LC-001-100-D00-0
 62
     7
370
    50
100
AcDbCircle
 10
-101.572943
 20
71.338392
 30
0.0
 40
4.999999999999801
100
AcDbArc
 50
270.0
 51
0.0
  0
CIRCLE
  5
133
330
1F
100
AcDbEntity
  8
LC-001-100-D00-0
 62
     7
370
    50
100
AcDbCircle
 10
-114.822943
 20
84.588392
 30
0.0
 40
3.900000000000262
  0
LINE
  5
134
330
1F
100
AcDbEntity
  8
LC-001-100-D00-0
 62
     7
370
    50
100
AcDbLine
 10
-101.572943
 20
66.338392
 30
0.0
 11
-128.072943
 21
66.338392
 31
0.0
  0
LINE
  5
135
330
1F
100
AcDbEntity
  8
LC-001-100-D00-0
 62
     7
370
    50
100
AcDbLine
 10
-128.072943
 20
102.838392
 30
0.0
 11
-101.572943
 21
102.838392
 31
0.0
  0
ARC
  5
136
330
1F
100
AcDbEntity
  8
LC-001-100-D00-0
 62
     7
370
    50
100
AcDbCircle
 10
-128.072943
 20
97.838392
 30
0.0
 40
4.999999999999943
100
AcDbArc
 50
90.0
 51
180.0
  0
ARC
  5
137
330
1F
100
AcDbEntity
  8
LC-001-100-D00-0
 62
     7
370
    50
100
AcDbCircle
 10
-128.072943
 20
71.338392
 30
0.0
 40
5.000000000000227
100
AcDbArc
 50
180.0
 51
270.0
  0
LINE
  5
138
330
1F
100
AcDbEntity
  8
LC-001-100-D00-0
 62
     7
370
    50
100
AcDbLine
 10
-133.072943
 20
71.338392
 30
0.0
 11
-133.072943
 21
97.838392
 31
0.0
  0
ARC
  5
139
330
1F
100
AcDbEntity
  8
LC-001-100-D00-0
 62
     7
370
    50
100
AcDbCircle
 10
161.760391
 20
71.338392
 30
0.0
 40
4.999999999999801
100
AcDbArc
 50
270.0
 51
0.0
  0
ARC
  5
13A
330
1F
100
AcDbEntity
  8
LC-001-100-D00-0
 62
     7
370
    50
100
AcDbCircle
 10
161.760391
 20
97.838392
 30
0.0
 40
5.000000000000227
100
AcDbArc
 50
0.0
 51
90.0
  0
LINE
  5
13B
330
1F
100
AcDbEntity
  8
LC-001-100-D00-0
 62
     7
370
    50
100
AcDbLine
 10
166.760391
 20
97.838392
 30
0.0
 11
166.760391
 21
71.338392
 31
0.0
  0
CIRCLE
  5
13C
330
1F
100
AcDbEntity
  8
LC-001-100-D00-0
 62
     7
370
    50
100
AcDbCircle
 10
148.510391
 20
84.588392
 30
0.0
 40
3.900000000000262
  0
LINE
  5
13D
330
1F
100
AcDbEntity
  8
LC-001-100-D00-0
 62
     7
370
    50
100
AcDbLine
 10
161.760391
 20
66.338392
 30
0.0
 11
135.260391
 21
66.338392
 31
0.0
  0
LINE
  5
13E
330
1F
100
AcDbEntity
  8
LC-001-100-D00-0
 62
     7
370
    50
100
AcDbLine
 10
135.260391
 20
102.838392
 30
0.0
 11
161.760391
 21
102.838392
 31
0.0
  0
ARC
  5
13F
330
1F
100
AcDbEntity
  8
LC-001-100-D00-0
 62
     7
370
    50
100
AcDbCircle
 10
135.260391
 20
71.338392
 30
0.0
 40
5.000000000000227
100
AcDbArc
 50
180.0
 51
270.0
  0
ARC
  5
140
330
1F
100
AcDbEntity
  8
LC-001-100-D00-0
 62
     7
370
    50
100
AcDbCircle
 10
135.260391
 20
97.838392
 30
0.0
 40
5.000000000000227
100
AcDbArc
 50
90.0
 51
180.0
  0
LINE
  5
141
330
1F
100
AcDbEntity
  8
LC-001-100-D00-0
 62
     7
370
    50
100
AcDbLine
 10
130.260391
 20
71.338392
 30
0.0
 11
130.260391
 21
97.838392
 31
0.0
  0
ARC
  5
142
330
1F
100
AcDbEntity
  8
LC-001-100-D00-0
 62
     7
370
    50
100
AcDbCircle
 10
-564.906276
 20
71.338392
 30
0.0
 40
4.999999999999801
100
AcDbArc
 50
270.0
 51
0.0
  0
ARC
  5
143
330
1F
100
AcDbEntity
  8
LC-001-100-D00-0
 62
     7
370
    50
100
AcDbCircle
 10
-564.906276
 20
97.838392
 30
0.0
 40
5.000000000000227
100
AcDbArc
 50
0.0
 51
90.0
  0
LINE
  5
144
330
1F
100
AcDbEntity
  8
LC-001-100-D00-0
 62
     7
370
    50
100
AcDbLine
 10
-559.906276
 20
97.838392
 30
0.0
 11
-559.906276
 21
71.338392
 31
0.0
  0
CIRCLE
  5
145
330
1F
100
AcDbEntity
  8
LC-001-100-D00-0
 62
     7
370
    50
100
AcDbCircle
 10
-578.156276
 20
84.588392
 30
0.0
 40
3.900000000000262
  0
LINE
  5
146
330
1F
100
AcDbEntity
  8
LC-001-100-D00-0
 62
     7
370
    50
100
AcDbLine
 10
-591.406276
 20
102.838392
 30
0.0
 11
-564.906276
 21
102.838392
 31
0.0
  0
LINE
  5
147
330
1F
100
AcDbEntity
  8
LC-001-100-D00-0
 62
     7
370
    50
100
AcDbLine
 10
-564.906276
 20
66.338392
 30
0.0
 11
-591.406276
 21
66.338392
 31
0.0
  0
ARC
  5
148
330
1F
100
AcDbEntity
  8
LC-001-100-D00-0
 62
     7
370
    50
100
AcDbCircle
 10
-591.406276
 20
71.338392
 30
0.0
 40
5.000000000000227
100
AcDbArc
 50
180.0
 51
270.0
  0
ARC
  5
149
330
1F
100
AcDbEntity
  8
LC-001-100-D00-0
 62
     7
370
    50
100
AcDbCircle
 10
-591.406276
 20
97.838392
 30
0.0
 40
4.999999999999943
100
AcDbArc
 50
90.0
 51
180.0
  0
LINE
  5
14A
330
1F
100
AcDbEntity
  8
LC-001-100-D00-0
 62
     7
370
    50
100
AcDbLine
 10
-596.406276
 20
71.338392
 30
0.0
 11
-596.406276
 21
97.838392
 31
0.0
  0
LINE
  5
14B
330
1F
100
AcDbEntity
  8
LC-001-100-D00-0
 62
     7
370
    50
100
AcDbLine
 10
-453.239609
 20
97.838392
 30
0.0
 11
-453.239609
 21
71.338392
 31
0.0
  0
ARC
  5
14C
330
1F
100
AcDbEntity
  8
LC-001-100-D00-0
 62
     7
370
    50
100
AcDbCircle
 10
-458.239609
 20
71.338392
 30
0.0
 40
4.999999999999801
100
AcDbArc
 50
270.0
 51
0.0
  0
ARC
  5
14D
330
1F
100
AcDbEntity
  8
LC-001-100-D00-0
 62
     7
370
    50
100
AcDbCircle
 10
-458.239609
 20
97.838392
 30
0.0
 40
5.000000000000227
100
AcDbArc
 50
0.0
 51
90.0
  0
CIRCLE
  5
14E
330
1F
100
AcDbEntity
  8
LC-001-100-D00-0
 62
     7
370
    50
100
AcDbCircle
 10
-471.489609
 20
84.588392
 30
0.0
 40
3.900000000000006
  0
LINE
  5
14F
330
1F
100
AcDbEntity
  8
LC-001-100-D00-0
 62
     7
370
    50
100
AcDbLine
 10
-458.239609
 20
66.338392
 30
0.0
 11
-484.739609
 21
66.338392
 31
0.0
  0
LINE
  5
150
330
1F
100
AcDbEntity
  8
LC-001-100-D00-0
 62
     7
370
    50
100
AcDbLine
 10
-484.739609
 20
102.838392
 30
0.0
 11
-458.239609
 21
102.838392
 31
0.0
  0
ARC
  5
151
330
1F
100
AcDbEntity
  8
LC-001-100-D00-0
 62
     7
370
    50
100
AcDbCircle
 10
-484.739609
 20
97.838392
 30
0.0
 40
5.000000000000227
100
AcDbArc
 50
90.0
 51
180.0
  0
ARC
  5
152
330
1F
100
AcDbEntity
  8
LC-001-100-D00-0
 62
     7
370
    50
100
AcDbCircle
 10
-484.739609
 20
71.338392
 30
0.0
 40
5.000000000000227
100
AcDbArc
 50
180.0
 51
270.0
  0
LINE
  5
153
330
1F
100
AcDbEntity
  8
LC-001-100-D00-0
 62
     7
370
    50
100
AcDbLine
 10
-489.739609
 20
71.338392
 30
0.0
 11
-489.739609
 21
97.838392
 31
0.0
  0
LINE
  5
154
330
1F
100
AcDbEntity
  8
LC-001-100-D00-0
 62
     7
370
    50
100
AcDbLine
 10
-296.572943
 20
97.838392
 30
0.0
 11
-296.572943
 21
71.338392
 31
0.0
  0
ARC
  5
155
330
1F
100
AcDbEntity
  8
LC-001-100-D00-0
 62
     7
370
    50
100
AcDbCircle
 10
-301.572943
 20
71.338392
 30
0.0
 40
4.999999999999801
100
AcDbArc
 50
270.0
 51
0.0
  0
ARC
  5
156
330
1F
100
AcDbEntity
  8
LC-001-100-D00-0
 62
     7
370
    50
100
AcDbCircle
 10
-301.572943
 20
97.838392
 30
0.0
 40
5.000000000000227
100
AcDbArc
 50
0.0
 51
90.0
  0
CIRCLE
  5
157
330
1F
100
AcDbEntity
  8
LC-001-100-D00-0
 62
     7
370
    50
100
AcDbCircle
 10
-314.822943
 20
84.588392
 30
0.0
 40
3.900000000000262
  0
LINE
  5
158
330
1F
100
AcDbEntity
  8
LC-001-100-D00-0
 62
     7
370
    50
100
AcDbLine
 10
-301.572943
 20
66.338392
 30
0.0
 11
-328.072943
 21
66.338392
 31
0.0
  0
LINE
  5
159
330
1F
100
AcDbEntity
  8
LC-001-100-D00-0
 62
     7
370
    50
100
AcDbLine
 10
-328.072943
 20
102.838392
 30
0.0
 11
-301.572943
 21
102.838392
 31
0.0
  0
ARC
  5
15A
330
1F
100
AcDbEntity
  8
LC-001-100-D00-0
 62
     7
370
    50
100
AcDbCircle
 10
-328.072943
 20
97.838392
 30
0.0
 40
4.999999999999943
100
AcDbArc
 50
90.0
 51
180.0
  0
ARC
  5
15B
330
1F
100
AcDbEntity
  8
LC-001-100-D00-0
 62
     7
370
    50
100
AcDbCircle
 10
-328.072943
 20
71.338392
 30
0.0
 40
5.000000000000227
100
AcDbArc
 50
180.0
 51
270.0
  0
LINE
  5
15C
330
1F
100
AcDbEntity
  8
LC-001-100-D00-0
 62
     7
370
    50
100
AcDbLine
 10
-333.072943
 20
71.338392
 30
0.0
 11
-333.072943
 21
97.838392
 31
0.0
  0
LINE
  5
15D
330
1F
100
AcDbEntity
  8
LC-001-100-D00-0
 62
     7
370
    50
100
AcDbLine
 10
-245.322943
 20
60.588392
 30
0.0
 11
-184.322943
 21
60.588392
 31
0.0
  0
ARC
  5
15E
330
1F
100
AcDbEntity
  8
LC-001-100-D00-0
 62
     7
370
    50
100
AcDbCircle
 10
-245.322943
 20
84.588392
 30
0.0
 40
24.0
100
AcDbArc
 50
90.0
 51
270.0
  0
LINE
  5
15F
330
1F
100
AcDbEntity
  8
LC-001-100-D00-0
 62
     7
370
    50
100
AcDbLine
 10
-184.322943
 20
108.588392
 30
0.0
 11
-245.322943
 21
108.588392
 31
0.0
  0
ARC
  5
160
330
1F
100
AcDbEntity
  8
LC-001-100-D00-0
 62
     7
370
    50
100
AcDbCircle
 10
-184.322943
 20
84.588392
 30
0.0
 40
24.0
100
AcDbArc
 50
270.0
 51
90.0
  0
ARC
  5
161
330
1F
100
AcDbEntity
  8
LC-001-100-D00-0
 62
     7
370
    50
100
AcDbCircle
 10
-203.322943
 20
84.588392
 30
0.0
 40
16.00000000000017
100
AcDbArc
 50
270.0
 51
90.0
  0
LINE
  5
162
330
1F
100
AcDbEntity
  8
LC-001-100-D00-0
 62
     7
370
    50
100
AcDbLine
 10
-226.322943
 20
68.588392
 30
0.0
 11
-203.322943
 21
68.588392
 31
0.0
  0
LINE
  5
163
330
1F
100
AcDbEntity
  8
LC-001-100-D00-0
 62
     7
370
    50
100
AcDbLine
 10
-203.322943
 20
100.588392
 30
0.0
 11
-226.322943
 21
100.588392
 31
0.0
  0
ARC
  5
164
330
1F
100
AcDbEntity
  8
LC-001-100-D00-0
 62
     7
370
    50
100
AcDbCircle
 10
-226.322943
 20
84.588392
 30
0.0
 40
16.00000000000006
100
AcDbArc
 50
90.0
 51
270.0
  0
DIMENSION
  5
167
330
1F
100
AcDbEntity
  8
LC-001-100-D00-0
 62
     7
370
    25
100
AcDbDimension
  2
*D15
 10
471.454056
 20
7.088392
 30
0.0
 11
416.454056
 21
70.331925
 31
0.0
 70
   160
  1
155
 71
     5
 42
155.0
 53
90.0
  3
LC-DIM-L-0100-02-02
100
AcDbAlignedDimension
 13
380.177057
 23
162.088392
 33
0.0
 14
380.177057
 24
7.088392
 34
0.0
 50
90.0
100
AcDbRotatedDimension
  0
LINE
  5
176
330
1F
100
AcDbEntity
  8
LC-001-100-D00-0
  6
DASHDOT
 62
     7
370
    25
100
AcDbLine
 10
-821.822943
 20
84.588392
 30
0.0
 11
392.177057
 21
84.588392
 31
0.0
  0
LINE
  5
177
330
1F
100
AcDbEntity
  8
LC-001-100-D00-0
  6
DASHDOT
 62
     7
370
    25
100
AcDbLine
 10
-214.822943
 20
169.088392
 30
0.0
 11
-214.822943
 21
0.088392
 31
0.0
  0
LINE
  5
178
330
1F
100
AcDbEntity
  8
LC-001-100-D00-0
 62
     7
370
    50
100
AcDbLine
 10
-159.572919
 20
516.361939
 30
0.0
 11
-157.772919
 21
516.361939
 31
0.0
  0
LINE
  5
179
330
1F
100
AcDbEntity
  8
LC-001-100-D00-0
 62
     7
370
    50
100
AcDbLine
 10
-271.872919
 20
516.361939
 30
0.0
 11
-270.072919
 21
516.361939
 31
0.0
  0
LINE
  5
17A
330
1F
100
AcDbEntity
  8
LC-001-100-D00-0
 62
     7
370
    50
100
AcDbLine
 10
-101.575123
 20
444.001925
 30
0.0
 11
-101.575123
 21
445.784846
 31
0.0
  0
LINE
  5
17B
330
1F
100
AcDbEntity
  8
LC-001-100-D00-0
 62
     7
370
    50
100
AcDbLine
 10
-101.575123
 20
496.219004
 30
0.0
 11
-101.575123
 21
498.001925
 31
0.0
  0
LINE
  5
17C
330
1F
100
AcDbEntity
  8
LC-001-100-D00-0
 62
     7
370
    50
100
AcDbLine
 10
-105.575123
 20
498.001925
 30
0.0
 11
-105.575123
 21
496.219004
 31
0.0
  0
LINE
  5
17D
330
1F
100
AcDbEntity
  8
LC-001-100-D00-0
 62
     7
370
    50
100
AcDbLine
 10
-105.575123
 20
445.784846
 30
0.0
 11
-105.575123
 21
444.001925
 31
0.0
  0
LINE
  5
17E
330
1F
100
AcDbEntity
  8
LC-001-100-D00-0
 62
     7
370
    50
100
AcDbLine
 10
-175.108504
 20
514.501925
 30
0.0
 11
-175.108504
 21
513.001925
 31
0.0
  0
LINE
  5
17F
330
1F
100
AcDbEntity
  8
LC-001-100-D00-0
 62
     7
370
    50
100
AcDbLine
 10
-254.537334
 20
513.001925
 30
0.0
 11
-254.537334
 21
514.501925
 31
0.0
  0
ARC
  5
180
330
1F
100
AcDbEntity
  8
LC-001-100-D00-0
 62
     7
370
    50
100
AcDbCircle
 10
-573.822919
 20
421.501925
 30
0.0
 40
0.4999999999997726
100
AcDbArc
 50
90.0
 51
180.0
  0
ARC
  5
181
330
1F
100
AcDbEntity
  8
LC-001-100-D00-0
 62
     7
370
    50
100
AcDbCircle
 10
-555.822919
 20
421.501925
 30
0.0
 40
0.4999999999998863
100
AcDbArc
 50
0.0
 51
90.0
  0
LINE
  5
182
330
1F
100
AcDbEntity
  8
LC-001-100-D00-0
 62
     7
370
    50
100
AcDbLine
 10
-574.322919
 20
421.501925
 30
0.0
 11
-574.322919
 21
414.001925
 31
0.0
  0
LINE
  5
183
330
1F
100
AcDbEntity
  8
LC-001-100-D00-0
 62
     7
370
    50
100
AcDbLine
 10
-555.322919
 20
414.001925
 30
0.0
 11
-555.322919
 21
421.501925
 31
0.0
  0
ARC
  5
184
330
1F
100
AcDbEntity
  8
LC-001-100-D00-0
 62
     7
370
    50
100
AcDbCircle
 10
126.177081
 20
421.501925
 30
0.0
 40
0.5000000000000568
100
AcDbArc
 50
90.0
 51
180.0
  0
ARC
  5
185
330
1F
100
AcDbEntity
  8
LC-001-100-D00-0
 62
     7
370
    50
100
AcDbCircle
 10
144.177081
 20
421.501925
 30
0.0
 40
0.4999999999999432
100
AcDbArc
 50
0.0
 51
90.0
  0
LINE
  5
186
330
1F
100
AcDbEntity
  8
LC-001-100-D00-0
 62
     7
370
    50
100
AcDbLine
 10
125.677081
 20
421.501925
 30
0.0
 11
125.677081
 21
414.001925
 31
0.0
  0
LINE
  5
187
330
1F
100
AcDbEntity
  8
LC-001-100-D00-0
 62
     7
370
    50
100
AcDbLine
 10
144.677081
 20
414.001925
 30
0.0
 11
144.677081
 21
421.501925
 31
0.0
  0
LINE
  5
188
330
1F
100
AcDbEntity
  8
LC-001-100-D00-0
 62
     7
370
    50
100
AcDbLine
 10
-552.049416
 20
491.001925
 30
0.0
 11
-552.049429
 21
516.001926
 31
0.0
  0
LINE
  5
189
330
1F
100
AcDbEntity
  8
LC-001-100-D00-0
 62
     7
370
    50
100
AcDbLine
 10
-577.596427
 20
516.001926
 30
0.0
 11
-577.596422
 21
491.001925
 31
0.0
  0
LINE
  5
18A
330
1F
100
AcDbEntity
  8
LC-001-100-D00-0
 62
     7
370
    50
100
AcDbLine
 10
-552.049416
 20
520.001925
 30
0.0
 11
-552.049429
 21
521.501924
 31
0.0
  0
LINE
  5
18B
330
1F
100
AcDbEntity
  8
LC-001-100-D00-0
 62
     7
370
    50
100
AcDbLine
 10
-577.596427
 20
521.501924
 30
0.0
 11
-577.596422
 21
520.001925
 31
0.0
  0
LINE
  5
18C
330
1F
100
AcDbEntity
  8
LC-001-100-D00-0
 62
     7
370
    50
100
AcDbLine
 10
147.950584
 20
491.001925
 30
0.0
 11
147.950589
 21
516.001926
 31
0.0
  0
LINE
  5
18D
330
1F
100
AcDbEntity
  8
LC-001-100-D00-0
 62
     7
370
    50
100
AcDbLine
 10
122.403591
 20
516.001926
 30
0.0
 11
122.403578
 21
491.001925
 31
0.0
  0
LINE
  5
18E
330
1F
100
AcDbEntity
  8
LC-001-100-D00-0
 62
     7
370
    50
100
AcDbLine
 10
147.950584
 20
520.001925
 30
0.0
 11
147.950589
 21
521.501924
 31
0.0
  0
LINE
  5
18F
330
1F
100
AcDbEntity
  8
LC-001-100-D00-0
 62
     7
370
    50
100
AcDbLine
 10
122.403591
 20
521.501924
 30
0.0
 11
122.403578
 21
520.001925
 31
0.0
  0
LINE
  5
190
330
1F
100
AcDbEntity
  8
LC-001-100-D00-0
 62
     7
370
    50
100
AcDbLine
 10
-574.822933
 20
520.001925
 30
0.0
 11
-574.822933
 21
519.901925
 31
0.0
  0
LINE
  5
191
330
1F
100
AcDbEntity
  8
LC-001-100-D00-0
 62
     7
370
    50
100
AcDbLine
 10
-574.822933
 20
491.001924
 30
0.0
 11
-574.822919
 21
437.001925
 31
0.0
  0
LINE
  5
192
330
1F
100
AcDbEntity
  8
LC-001-100-D00-0
 62
     7
370
    50
100
AcDbLine
 10
-554.822919
 20
437.001925
 30
0.0
 11
-554.822922
 21
491.001924
 31
0.0
  0
LINE
  5
193
330
1F
100
AcDbEntity
  8
LC-001-100-D00-0
 62
     7
370
    50
100
AcDbLine
 10
-554.822922
 20
519.901925
 30
0.0
 11
-554.822922
 21
520.001925
 31
0.0
  0
LINE
  5
194
330
1F
100
AcDbEntity
  8
LC-001-100-D00-0
 62
     7
370
    50
100
AcDbLine
 10
-574.822919
 20
433.501925
 30
0.0
 11
-574.822919
 21
423.001925
 31
0.0
  0
LINE
  5
195
330
1F
100
AcDbEntity
  8
LC-001-100-D00-0
 62
     7
370
    50
100
AcDbLine
 10
-554.822919
 20
423.001925
 30
0.0
 11
-554.822919
 21
433.501925
 31
0.0
  0
LINE
  5
196
330
1F
100
AcDbEntity
  8
LC-001-100-D00-0
 62
     7
370
    50
100
AcDbLine
 10
-574.822919
 20
423.001925
 30
0.0
 11
-573.822919
 21
422.001925
 31
0.0
  0
LINE
  5
197
330
1F
100
AcDbEntity
  8
LC-001-100-D00-0
 62
     7
370
    50
100
AcDbLine
 10
-555.822919
 20
422.001925
 30
0.0
 11
-554.822919
 21
423.001925
 31
0.0
  0
LINE
  5
198
330
1F
100
AcDbEntity
  8
LC-001-100-D00-0
 62
     7
370
    50
100
AcDbLine
 10
-572.722913
 20
437.001922
 30
0.0
 11
-572.722913
 21
433.501923
 31
0.0
  0
LINE
  5
199
330
1F
100
AcDbEntity
  8
LC-001-100-D00-0
 62
     7
370
    50
100
AcDbLine
 10
-556.922913
 20
433.501923
 30
0.0
 11
-556.922913
 21
437.001922
 31
0.0
  0
LINE
  5
19A
330
1F
100
AcDbEntity
  8
LC-001-100-D00-0
 62
     7
370
    50
100
AcDbLine
 10
125.177085
 20
520.001925
 30
0.0
 11
125.177085
 21
519.901925
 31
0.0
  0
LINE
  5
19B
330
1F
100
AcDbEntity
  8
LC-001-100-D00-0
 62
     7
370
    50
100
AcDbLine
 10
125.177085
 20
491.001924
 30
0.0
 11
125.177081
 21
437.001925
 31
0.0
  0
LINE
  5
19C
330
1F
100
AcDbEntity
  8
LC-001-100-D00-0
 62
     7
370
    50
100
AcDbLine
 10
145.177081
 20
437.001925
 30
0.0
 11
145.177095
 21
491.001924
 31
0.0
  0
LINE
  5
19D
330
1F
100
AcDbEntity
  8
LC-001-100-D00-0
 62
     7
370
    50
100
AcDbLine
 10
145.177095
 20
519.901925
 30
0.0
 11
145.177095
 21
520.001925
 31
0.0
  0
LINE
  5
19E
330
1F
100
AcDbEntity
  8
LC-001-100-D00-0
 62
     7
370
    50
100
AcDbLine
 10
125.177081
 20
433.501925
 30
0.0
 11
125.177081
 21
423.001925
 31
0.0
  0
LINE
  5
19F
330
1F
100
AcDbEntity
  8
LC-001-100-D00-0
 62
     7
370
    50
100
AcDbLine
 10
145.177081
 20
423.001925
 30
0.0
 11
145.177081
 21
433.501925
 31
0.0
  0
LINE
  5
1A0
330
1F
100
AcDbEntity
  8
LC-001-100-D00-0
 62
     7
370
    50
100
AcDbLine
 10
125.177081
 20
423.001925
 30
0.0
 11
126.177081
 21
422.001925
 31
0.0
  0
LINE
  5
1A1
330
1F
100
AcDbEntity
  8
LC-001-100-D00-0
 62
     7
370
    50
100
AcDbLine
 10
144.177081
 20
422.001925
 30
0.0
 11
145.177081
 21
423.001925
 31
0.0
  0
LINE
  5
1A2
330
1F
100
AcDbEntity
  8
LC-001-100-D00-0
 62
     7
370
    50
100
AcDbLine
 10
127.277076
 20
437.001922
 30
0.0
 11
127.277076
 21
433.501923
 31
0.0
  0
LINE
  5
1A3
330
1F
100
AcDbEntity
  8
LC-001-100-D00-0
 62
     7
370
    50
100
AcDbLine
 10
143.077075
 20
433.501923
 30
0.0
 11
143.077075
 21
437.001922
 31
0.0
  0
LINE
  5
1A4
330
1F
100
AcDbEntity
  8
LC-001-100-D00-0
 62
     7
370
    50
100
AcDbLine
 10
153.710414
 20
532.270691
 30
0.0
 11
153.710414
 21
534.733159
 31
0.0
  0
ARC
  5
1A5
330
1F
100
AcDbEntity
  8
LC-001-100-D00-0
 62
     7
370
    50
100
AcDbCircle
 10
154.310414
 20
532.270691
 30
0.0
 40
0.6000000000000227
100
AcDbArc
 50
180.0
 51
255.0
  0
LINE
  5
1A6
330
1F
100
AcDbEntity
  8
LC-001-100-D00-0
 62
     7
370
    50
100
AcDbLine
 10
154.861271
 20
531.501924
 30
0.0
 11
154.155123
 21
531.691136
 31
0.0
  0
LINE
  5
1A7
330
1F
100
AcDbEntity
  8
LC-001-100-D00-0
 62
     7
370
    50
100
AcDbLine
 10
154.861271
 20
531.501924
 30
0.0
 11
154.861271
 21
529.501926
 31
0.0
  0
LINE
  5
1A8
330
1F
100
AcDbEntity
  8
LC-001-100-D00-0
 62
     7
370
    50
100
AcDbLine
 10
151.910414
 20
530.501925
 30
0.0
 11
152.910414
 21
529.501925
 31
0.0
  0
LINE
  5
1A9
330
1F
100
AcDbEntity
  8
LC-001-100-D00-0
 62
     7
370
    50
100
AcDbLine
 10
151.910414
 20
530.501925
 30
0.0
 11
151.910424
 21
536.501925
 31
0.0
  0
LINE
  5
1AA
330
1F
100
AcDbEntity
  8
LC-001-100-D00-0
 62
     7
370
    50
100
AcDbLine
 10
152.910411
 20
537.501925
 30
0.0
 11
151.910424
 21
536.501925
 31
0.0
  0
LINE
  5
1AB
330
1F
100
AcDbEntity
  8
LC-001-100-D00-0
 62
     7
370
    50
100
AcDbLine
 10
154.861271
 20
537.501925
 30
0.0
 11
154.861271
 21
535.501925
 31
0.0
  0
LINE
  5
1AC
330
1F
100
AcDbEntity
  8
LC-001-100-D00-0
 62
     7
370
    50
100
AcDbLine
 10
154.155123
 20
535.312714
 30
0.0
 11
154.861271
 21
535.501925
 31
0.0
  0
ARC
  5
1AD
330
1F
100
AcDbEntity
  8
LC-001-100-D00-0
 62
     7
370
    50
100
AcDbCircle
 10
154.310414
 20
534.733159
 30
0.0
 40
0.6000000000005645
100
AcDbArc
 50
105.0
 51
180.0
  0
LINE
  5
1AE
330
1F
100
AcDbEntity
  8
LC-001-100-D00-0
 62
     7
370
    50
100
AcDbLine
 10
152.910414
 20
529.501925
 30
0.0
 11
154.861271
 21
529.501926
 31
0.0
  0
LINE
  5
1AF
330
1F
100
AcDbEntity
  8
LC-001-100-D00-0
 62
     7
370
    50
100
AcDbLine
 10
152.910411
 20
537.501925
 30
0.0
 11
154.861271
 21
537.501925
 31
0.0
  0
LINE
  5
1B0
330
1F
100
AcDbEntity
  8
LC-001-100-D00-0
 62
     7
370
    50
100
AcDbLine
 10
143.310414
 20
534.733159
 30
0.0
 11
143.310414
 21
532.270691
 31
0.0
  0
LINE
  5
1B1
330
1F
100
AcDbEntity
  8
LC-001-100-D00-0
 62
     7
370
    50
100
AcDbLine
 10
145.110428
 20
536.501925
 30
0.0
 11
144.110411
 21
537.501925
 31
0.0
  0
LINE
  5
1B2
330
1F
100
AcDbEntity
  8
LC-001-100-D00-0
 62
     7
370
    50
100
AcDbLine
 10
145.110428
 20
536.501925
 30
0.0
 11
145.110414
 21
530.501925
 31
0.0
  0
LINE
  5
1B3
330
1F
100
AcDbEntity
  8
LC-001-100-D00-0
 62
     7
370
    50
100
AcDbLine
 10
144.110414
 20
529.501925
 30
0.0
 11
145.110414
 21
530.501925
 31
0.0
  0
LINE
  5
1B4
330
1F
100
AcDbEntity
  8
LC-001-100-D00-0
 62
     7
370
    50
100
AcDbLine
 10
142.159551
 20
531.501924
 30
0.0
 11
142.159551
 21
529.501926
 31
0.0
  0
LINE
  5
1B5
330
1F
100
AcDbEntity
  8
LC-001-100-D00-0
 62
     7
370
    50
100
AcDbLine
 10
142.865706
 20
531.691136
 30
0.0
 11
142.159551
 21
531.501924
 31
0.0
  0
ARC
  5
1B6
330
1F
100
AcDbEntity
  8
LC-001-100-D00-0
 62
     7
370
    50
100
AcDbCircle
 10
142.710414
 20
532.270691
 30
0.0
 40
0.6000000000002351
100
AcDbArc
 50
285.0
 51
0.0
  0
ARC
  5
1B7
330
1F
100
AcDbEntity
  8
LC-001-100-D00-0
 62
     7
370
    50
100
AcDbCircle
 10
142.710414
 20
534.733159
 30
0.0
 40
0.6000000000006764
100
AcDbArc
 50
0.0
 51
75.0
  0
LINE
  5
1B8
330
1F
100
AcDbEntity
  8
LC-001-100-D00-0
 62
     7
370
    50
100
AcDbLine
 10
142.159551
 20
535.501925
 30
0.0
 11
142.865706
 21
535.312714
 31
0.0
  0
LINE
  5
1B9
330
1F
100
AcDbEntity
  8
LC-001-100-D00-0
 62
     7
370
    50
100
AcDbLine
 10
142.159551
 20
537.501925
 30
0.0
 11
142.159551
 21
535.501925
 31
0.0
  0
LINE
  5
1BA
330
1F
100
AcDbEntity
  8
LC-001-100-D00-0
 62
     7
370
    50
100
AcDbLine
 10
142.159551
 20
529.501926
 30
0.0
 11
144.110414
 21
529.501925
 31
0.0
  0
LINE
  5
1BB
330
1F
100
AcDbEntity
  8
LC-001-100-D00-0
 62
     7
370
    50
100
AcDbLine
 10
142.159551
 20
537.501925
 30
0.0
 11
144.110411
 21
537.501925
 31
0.0
  0
LINE
  5
1BC
330
1F
100
AcDbEntity
  8
LC-001-100-D00-0
 62
     7
370
    50
100
AcDbLine
 10
145.110414
 20
530.501925
 30
0.0
 11
145.268254
 21
530.501925
 31
0.0
  0
LINE
  5
1BD
330
1F
100
AcDbEntity
  8
LC-001-100-D00-0
 62
     7
370
    50
100
AcDbLine
 10
151.752575
 20
530.501925
 30
0.0
 11
151.910414
 21
530.501925
 31
0.0
  0
LINE
  5
1BE
330
1F
100
AcDbEntity
  8
LC-001-100-D00-0
 62
     7
370
    50
100
AcDbLine
 10
152.910414
 20
529.501925
 30
0.0
 11
152.374633
 21
529.501925
 31
0.0
  0
LINE
  5
1BF
330
1F
100
AcDbEntity
  8
LC-001-100-D00-0
 62
     7
370
    50
100
AcDbLine
 10
144.646196
 20
529.501925
 30
0.0
 11
144.110414
 21
529.501925
 31
0.0
  0
LINE
  5
1C0
330
1F
100
AcDbEntity
  8
LC-001-100-D00-0
 62
     7
370
    50
100
AcDbLine
 10
154.861271
 20
537.501925
 30
0.0
 11
152.410417
 21
537.501925
 31
0.0
  0
LINE
  5
1C1
330
1F
100
AcDbEntity
  8
LC-001-100-D00-0
 62
     7
370
    50
100
AcDbLine
 10
152.410417
 20
537.501925
 30
0.0
 11
152.410414
 21
548.501925
 31
0.0
  0
LINE
  5
1C2
330
1F
100
AcDbEntity
  8
LC-001-100-D00-0
 62
     7
370
    50
100
AcDbLine
 10
152.410414
 20
548.501925
 30
0.0
 11
165.760414
 21
548.501925
 31
0.0
  0
LINE
  5
1C3
330
1F
100
AcDbEntity
  8
LC-001-100-D00-0
 62
     7
370
    50
100
AcDbLine
 10
166.760414
 20
547.501925
 30
0.0
 11
166.760414
 21
541.501925
 31
0.0
  0
LINE
  5
1C4
330
1F
100
AcDbEntity
  8
LC-001-100-D00-0
 62
     7
370
    50
100
AcDbLine
 10
163.760414
 20
541.501925
 30
0.0
 11
166.760414
 21
541.501925
 31
0.0
  0
LINE
  5
1C5
330
1F
100
AcDbEntity
  8
LC-001-100-D00-0
 62
     7
370
    50
100
AcDbLine
 10
163.760414
 20
541.501925
 30
0.0
 11
163.760423
 21
545.501925
 31
0.0
  0
LINE
  5
1C6
330
1F
100
AcDbEntity
  8
LC-001-100-D00-0
 62
     7
370
    50
100
AcDbLine
 10
159.260414
 20
545.501925
 30
0.0
 11
163.760423
 21
545.501925
 31
0.0
  0
ARC
  5
1C7
330
1F
100
AcDbEntity
  8
LC-001-100-D00-0
 62
     7
370
    50
100
AcDbCircle
 10
159.260414
 20
544.501925
 30
0.0
 40
0.9999999999996589
100
AcDbArc
 50
90.0
 51
180.0
  0
LINE
  5
1C8
330
1F
100
AcDbEntity
  8
LC-001-100-D00-0
 62
     7
370
    50
100
AcDbLine
 10
158.260414
 20
530.501925
 30
0.0
 11
158.260414
 21
544.501925
 31
0.0
  0
ARC
  5
1C9
330
1F
100
AcDbEntity
  8
LC-001-100-D00-0
 62
     7
370
    50
100
AcDbCircle
 10
157.260414
 20
530.501925
 30
0.0
 40
1.000000000000114
100
AcDbArc
 50
270.0
 51
0.0
  0
LINE
  5
1CA
330
1F
100
AcDbEntity
  8
LC-001-100-D00-0
 62
     7
370
    50
100
AcDbLine
 10
157.260414
 20
529.501925
 30
0.0
 11
154.861271
 21
529.501926
 31
0.0
  0
LINE
  5
1CB
330
1F
100
AcDbEntity
  8
LC-001-100-D00-0
 62
     7
370
    50
100
AcDbLine
 10
154.861271
 20
531.501924
 30
0.0
 11
154.861271
 21
529.501926
 31
0.0
  0
LINE
  5
1CC
330
1F
100
AcDbEntity
  8
LC-001-100-D00-0
 62
     7
370
    50
100
AcDbLine
 10
154.210414
 20
531.501925
 30
0.0
 11
154.861271
 21
531.501924
 31
0.0
  0
ARC
  5
1CD
330
1F
100
AcDbEntity
  8
LC-001-100-D00-0
 62
     7
370
    50
100
AcDbCircle
 10
154.210414
 20
532.001925
 30
0.0
 40
0.5000000000002274
100
AcDbArc
 50
180.0
 51
270.0
  0
LINE
  5
1CE
330
1F
100
AcDbEntity
  8
LC-001-100-D00-0
 62
     7
370
    50
100
AcDbLine
 10
153.710414
 20
535.001925
 30
0.0
 11
153.710414
 21
532.001925
 31
0.0
  0
ARC
  5
1CF
330
1F
100
AcDbEntity
  8
LC-001-100-D00-0
 62
     7
370
    50
100
AcDbCircle
 10
154.210414
 20
535.001925
 30
0.0
 40
0.5000000000003411
100
AcDbArc
 50
90.0
 51
180.0
  0
LINE
  5
1D0
330
1F
100
AcDbEntity
  8
LC-001-100-D00-0
 62
     7
370
    50
100
AcDbLine
 10
154.861271
 20
535.501925
 30
0.0
 11
154.210414
 21
535.501925
 31
0.0
  0
LINE
  5
1D1
330
1F
100
AcDbEntity
  8
LC-001-100-D00-0
 62
     7
370
    50
100
AcDbLine
 10
154.861271
 20
537.501925
 30
0.0
 11
154.861271
 21
535.501925
 31
0.0
  0
ARC
  5
1D2
330
1F
100
AcDbEntity
  8
LC-001-100-D00-0
 62
     7
370
    50
100
AcDbCircle
 10
165.760414
 20
547.501925
 30
0.0
 40
0.9999999999999147
100
AcDbArc
 50
0.0
 51
90.0
  0
ARC
  5
1D3
330
1F
100
AcDbEntity
  8
LC-001-100-D00-0
 62
     7
370
    50
100
AcDbCircle
 10
137.760414
 20
544.501925
 30
0.0
 40
1.000000000000199
100
AcDbArc
 50
0.0
 51
90.0
  0
LINE
  5
1D4
330
1F
100
AcDbEntity
  8
LC-001-100-D00-0
 62
     7
370
    50
100
AcDbLine
 10
138.760414
 20
544.501925
 30
0.0
 11
138.760414
 21
530.501925
 31
0.0
  0
ARC
  5
1D5
330
1F
100
AcDbEntity
  8
LC-001-100-D00-0
 62
     7
370
    50
100
AcDbCircle
 10
139.760414
 20
530.501925
 30
0.0
 40
0.9999999999999147
100
AcDbArc
 50
180.0
 51
270.0
  0
LINE
  5
1D6
330
1F
100
AcDbEntity
  8
LC-001-100-D00-0
 62
     7
370
    50
100
AcDbLine
 10
143.310414
 20
532.001925
 30
0.0
 11
143.310414
 21
535.001925
 31
0.0
  0
LINE
  5
1D7
330
1F
100
AcDbEntity
  8
LC-001-100-D00-0
 62
     7
370
    50
100
AcDbLine
 10
144.610414
 20
548.501925
 30
0.0
 11
144.610404
 21
537.501925
 31
0.0
  0
LINE
  5
1D8
330
1F
100
AcDbEntity
  8
LC-001-100-D00-0
 62
     7
370
    50
100
AcDbLine
 10
144.610414
 20
548.501925
 30
0.0
 11
152.410414
 21
548.501925
 31
0.0
  0
LINE
  5
1D9
330
1F
100
AcDbEntity
  8
LC-001-100-D00-0
 62
     7
370
    50
100
AcDbLine
 10
142.159551
 20
537.501925
 30
0.0
 11
142.159551
 21
535.501925
 31
0.0
  0
LINE
  5
1DA
330
1F
100
AcDbEntity
  8
LC-001-100-D00-0
 62
     7
370
    50
100
AcDbLine
 10
142.159551
 20
531.501924
 30
0.0
 11
142.159551
 21
529.501926
 31
0.0
  0
ARC
  5
1DB
330
1F
100
AcDbEntity
  8
LC-001-100-D00-0
 62
     7
370
    50
100
AcDbCircle
 10
142.810414
 20
532.001925
 30
0.0
 40
0.4999999999997726
100
AcDbArc
 50
270.0
 51
0.0
  0
LINE
  5
1DC
330
1F
100
AcDbEntity
  8
LC-001-100-D00-0
 62
     7
370
    50
100
AcDbLine
 10
142.159551
 20
531.501924
 30
0.0
 11
142.810414
 21
531.501925
 31
0.0
  0
LINE
  5
1DD
330
1F
100
AcDbEntity
  8
LC-001-100-D00-0
 62
     7
370
    50
100
AcDbLine
 10
133.260428
 20
545.501925
 30
0.0
 11
133.260414
 21
541.501925
 31
0.0
  0
LINE
  5
1DE
330
1F
100
AcDbEntity
  8
LC-001-100-D00-0
 62
     7
370
    50
100
AcDbLine
 10
130.260407
 20
541.501925
 30
0.0
 11
130.260414
 21
547.501925
 31
0.0
  0
ARC
  5
1DF
330
1F
100
AcDbEntity
  8
LC-001-100-D00-0
 62
     7
370
    50
100
AcDbCircle
 10
131.260414
 20
547.501925
 30
0.0
 40
1.000000000000114
100
AcDbArc
 50
90.0
 51
180.0
  0
LINE
  5
1E0
330
1F
100
AcDbEntity
  8
LC-001-100-D00-0
 62
     7
370
    50
100
AcDbLine
 10
142.810414
 20
535.501925
 30
0.0
 11
142.159551
 21
535.501925
 31
0.0
  0
ARC
  5
1E1
330
1F
100
AcDbEntity
  8
LC-001-100-D00-0
 62
     7
370
    50
100
AcDbCircle
 10
142.810414
 20
535.001925
 30
0.0
 40
0.4999999999998295
100
AcDbArc
 50
0.0
 51
90.0
  0
LINE
  5
1E2
330
1F
100
AcDbEntity
  8
LC-001-100-D00-0
 62
     7
370
    50
100
AcDbLine
 10
144.610404
 20
537.501925
 30
0.0
 11
142.159551
 21
537.501925
 31
0.0
  0
LINE
  5
1E3
330
1F
100
AcDbEntity
  8
LC-001-100-D00-0
 62
     7
370
    50
100
AcDbLine
 10
142.159551
 20
529.501926
 30
0.0
 11
139.760414
 21
529.501925
 31
0.0
  0
LINE
  5
1E4
330
1F
100
AcDbEntity
  8
LC-001-100-D00-0
 62
     7
370
    50
100
AcDbLine
 10
133.260428
 20
545.501925
 30
0.0
 11
137.760414
 21
545.501925
 31
0.0
  0
LINE
  5
1E5
330
1F
100
AcDbEntity
  8
LC-001-100-D00-0
 62
     7
370
    50
100
AcDbLine
 10
131.260414
 20
548.501925
 30
0.0
 11
144.610414
 21
548.501925
 31
0.0
  0
LINE
  5
1E6
330
1F
100
AcDbEntity
  8
LC-001-100-D00-0
 62
     7
370
    50
100
AcDbLine
 10
130.260407
 20
541.501925
 30
0.0
 11
133.260414
 21
541.501925
 31
0.0
  0
LINE
  5
1E7
330
1F
100
AcDbEntity
  8
LC-001-100-D00-0
 62
     7
370
    50
100
AcDbLine
 10
161.760414
 20
541.501925
 30
0.0
 11
163.760414
 21
541.501925
 31
0.0
  0
LINE
  5
1E8
330
1F
100
AcDbEntity
  8
LC-001-100-D00-0
 62
     7
370
    50
100
AcDbLine
 10
133.260414
 20
541.501925
 30
0.0
 11
135.260414
 21
541.501925
 31
0.0
  0
LINE
  5
1E9
330
1F
100
AcDbEntity
  8
LC-001-100-D00-0
 62
     7
370
    50
100
AcDbLine
 10
135.260414
 20
541.501925
 30
0.0
 11
138.760417
 21
541.501925
 31
0.0
  0
LINE
  5
1EA
330
1F
100
AcDbEntity
  8
LC-001-100-D00-0
 62
     7
370
    50
100
AcDbLine
 10
158.260404
 20
541.501925
 30
0.0
 11
161.760414
 21
541.501925
 31
0.0
  0
LINE
  5
1EB
330
1F
100
AcDbEntity
  8
LC-001-100-D00-0
 62
     7
370
    50
100
AcDbLine
 10
-572.956252
 20
532.270691
 30
0.0
 11
-572.956252
 21
534.733159
 31
0.0
  0
ARC
  5
1EC
330
1F
100
AcDbEntity
  8
LC-001-100-D00-0
 62
     7
370
    50
100
AcDbCircle
 10
-572.356252
 20
532.270691
 30
0.0
 40
0.6000000000001364
100
AcDbArc
 50
180.0
 51
255.0
  0
LINE
  5
1ED
330
1F
100
AcDbEntity
  8
LC-001-100-D00-0
 62
     7
370
    50
100
AcDbLine
 10
-571.805388
 20
531.501924
 30
0.0
 11
-572.511544
 21
531.691136
 31
0.0
  0
LINE
  5
1EE
330
1F
100
AcDbEntity
  8
LC-001-100-D00-0
 62
     7
370
    50
100
AcDbLine
 10
-571.805388
 20
531.501924
 30
0.0
 11
-571.805388
 21
529.501926
 31
0.0
  0
LINE
  5
1EF
330
1F
100
AcDbEntity
  8
LC-001-100-D00-0
 62
     7
370
    50
100
AcDbLine
 10
-574.756252
 20
530.501925
 30
0.0
 11
-573.756252
 21
529.501925
 31
0.0
  0
LINE
  5
1F0
330
1F
100
AcDbEntity
  8
LC-001-100-D00-0
 62
     7
370
    50
100
AcDbLine
 10
-574.756252
 20
530.501925
 30
0.0
 11
-574.756265
 21
536.501925
 31
0.0
  0
LINE
  5
1F1
330
1F
100
AcDbEntity
  8
LC-001-100-D00-0
 62
     7
370
    50
100
AcDbLine
 10
-573.756248
 20
537.501925
 30
0.0
 11
-574.756265
 21
536.501925
 31
0.0
  0
LINE
  5
1F2
330
1F
100
AcDbEntity
  8
LC-001-100-D00-0
 62
     7
370
    50
100
AcDbLine
 10
-571.805388
 20
537.501925
 30
0.0
 11
-571.805388
 21
535.501925
 31
0.0
  0
LINE
  5
1F3
330
1F
100
AcDbEntity
  8
LC-001-100-D00-0
 62
     7
370
    50
100
AcDbLine
 10
-572.511544
 20
535.312714
 30
0.0
 11
-571.805388
 21
535.501925
 31
0.0
  0
ARC
  5
1F4
330
1F
100
AcDbEntity
  8
LC-001-100-D00-0
 62
     7
370
    50
100
AcDbCircle
 10
-572.356252
 20
534.733159
 30
0.0
 40
0.6000000000001984
100
AcDbArc
 50
105.0
 51
180.0
  0
LINE
  5
1F5
330
1F
100
AcDbEntity
  8
LC-001-100-D00-0
 62
     7
370
    50
100
AcDbLine
 10
-573.756252
 20
529.501925
 30
0.0
 11
-571.805388
 21
529.501926
 31
0.0
  0
LINE
  5
1F6
330
1F
100
AcDbEntity
  8
LC-001-100-D00-0
 62
     7
370
    50
100
AcDbLine
 10
-573.756248
 20
537.501925
 30
0.0
 11
-571.805388
 21
537.501925
 31
0.0
  0
LINE
  5
1F7
330
1F
100
AcDbEntity
  8
LC-001-100-D00-0
 62
     7
370
    50
100
AcDbLine
 10
-583.356252
 20
534.733159
 30
0.0
 11
-583.356252
 21
532.270691
 31
0.0
  0
LINE
  5
1F8
330
1F
100
AcDbEntity
  8
LC-001-100-D00-0
 62
     7
370
    50
100
AcDbLine
 10
-581.556261
 20
536.501925
 30
0.0
 11
-582.556248
 21
537.501925
 31
0.0
  0
LINE
  5
1F9
330
1F
100
AcDbEntity
  8
LC-001-100-D00-0
 62
     7
370
    50
100
AcDbLine
 10
-581.556261
 20
536.501925
 30
0.0
 11
-581.556252
 21
530.501925
 31
0.0
  0
LINE
  5
1FA
330
1F
100
AcDbEntity
  8
LC-001-100-D00-0
 62
     7
370
    50
100
AcDbLine
 10
-582.556252
 20
529.501925
 30
0.0
 11
-581.556252
 21
530.501925
 31
0.0
  0
LINE
  5
1FB
330
1F
100
AcDbEntity
  8
LC-001-100-D00-0
 62
     7
370
    50
100
AcDbLine
 10
-584.507108
 20
531.501924
 30
0.0
 11
-584.507108
 21
529.501926
 31
0.0
  0
LINE
  5
1FC
330
1F
100
AcDbEntity
  8
LC-001-100-D00-0
 62
     7
370
    50
100
AcDbLine
 10
-583.800961
 20
531.691136
 30
0.0
 11
-584.507108
 21
531.501924
 31
0.0
  0
ARC
  5
1FD
330
1F
100
AcDbEntity
  8
LC-001-100-D00-0
 62
     7
370
    50
100
AcDbCircle
 10
-583.956252
 20
532.270691
 30
0.0
 40
0.5999999999997885
100
AcDbArc
 50
285.0
 51
0.0
  0
ARC
  5
1FE
330
1F
100
AcDbEntity
  8
LC-001-100-D00-0
 62
     7
370
    50
100
AcDbCircle
 10
-583.956252
 20
534.733159
 30
0.0
 40
0.6000000000002501
100
AcDbArc
 50
0.0
 51
75.0
  0
LINE
  5
1FF
330
1F
100
AcDbEntity
  8
LC-001-100-D00-0
 62
     7
370
    50
100
AcDbLine
 10
-584.507108
 20
535.501925
 30
0.0
 11
-583.800961
 21
535.312714
 31
0.0
  0
LINE
  5
200
330
1F
100
AcDbEntity
  8
LC-001-100-D00-0
 62
     7
370
    50
100
AcDbLine
 10
-584.507108
 20
537.501925
 30
0.0
 11
-584.507108
 21
535.501925
 31
0.0
  0
LINE
  5
201
330
1F
100
AcDbEntity
  8
LC-001-100-D00-0
 62
     7
370
    50
100
AcDbLine
 10
-584.507108
 20
529.501926
 30
0.0
 11
-582.556252
 21
529.501925
 31
0.0
  0
LINE
  5
202
330
1F
100
AcDbEntity
  8
LC-001-100-D00-0
 62
     7
370
    50
100
AcDbLine
 10
-584.507108
 20
537.501925
 30
0.0
 11
-582.556248
 21
537.501925
 31
0.0
  0
LINE
  5
203
330
1F
100
AcDbEntity
  8
LC-001-100-D00-0
 62
     7
370
    50
100
AcDbLine
 10
-581.556252
 20
530.501925
 30
0.0
 11
-581.398413
 21
530.501925
 31
0.0
  0
LINE
  5
204
330
1F
100
AcDbEntity
  8
LC-001-100-D00-0
 62
     7
370
    50
100
AcDbLine
 10
-574.914092
 20
530.501925
 30
0.0
 11
-574.756252
 21
530.501925
 31
0.0
  0
LINE
  5
205
330
1F
100
AcDbEntity
  8
LC-001-100-D00-0
 62
     7
370
    50
100
AcDbLine
 10
-573.756252
 20
529.501925
 30
0.0
 11
-574.292034
 21
529.501925
 31
0.0
  0
LINE
  5
206
330
1F
100
AcDbEntity
  8
LC-001-100-D00-0
 62
     7
370
    50
100
AcDbLine
 10
-582.020471
 20
529.501925
 30
0.0
 11
-582.556252
 21
529.501925
 31
0.0
  0
LINE
  5
207
330
1F
100
AcDbEntity
  8
LC-001-100-D00-0
 62
     7
370
    50
100
AcDbLine
 10
-571.805388
 20
537.501925
 30
0.0
 11
-574.256242
 21
537.501925
 31
0.0
  0
LINE
  5
208
330
1F
100
AcDbEntity
  8
LC-001-100-D00-0
 62
     7
370
    50
100
AcDbLine
 10
-574.256242
 20
537.501925
 30
0.0
 11
-574.256252
 21
548.501925
 31
0.0
  0
LINE
  5
209
330
1F
100
AcDbEntity
  8
LC-001-100-D00-0
 62
     7
370
    50
100
AcDbLine
 10
-574.256252
 20
548.501925
 30
0.0
 11
-560.906252
 21
548.501925
 31
0.0
  0
LINE
  5
20A
330
1F
100
AcDbEntity
  8
LC-001-100-D00-0
 62
     7
370
    50
100
AcDbLine
 10
-559.906252
 20
547.501925
 30
0.0
 11
-559.906245
 21
541.501925
 31
0.0
  0
LINE
  5
20B
330
1F
100
AcDbEntity
  8
LC-001-100-D00-0
 62
     7
370
    50
100
AcDbLine
 10
-562.906252
 20
541.501925
 30
0.0
 11
-559.906245
 21
541.501925
 31
0.0
  0
LINE
  5
20C
330
1F
100
AcDbEntity
  8
LC-001-100-D00-0
 62
     7
370
    50
100
AcDbLine
 10
-562.906252
 20
541.501925
 30
0.0
 11
-562.906266
 21
545.501925
 31
0.0
  0
LINE
  5
20D
330
1F
100
AcDbEntity
  8
LC-001-100-D00-0
 62
     7
370
    50
100
AcDbLine
 10
-567.406252
 20
545.501925
 30
0.0
 11
-562.906266
 21
545.501925
 31
0.0
  0
ARC
  5
20E
330
1F
100
AcDbEntity
  8
LC-001-100-D00-0
 62
     7
370
    50
100
AcDbCircle
 10
-567.406252
 20
544.501925
 30
0.0
 40
1.000000000000114
100
AcDbArc
 50
90.0
 51
180.0
  0
LINE
  5
20F
330
1F
100
AcDbEntity
  8
LC-001-100-D00-0
 62
     7
370
    50
100
AcDbLine
 10
-568.406252
 20
530.501925
 30
0.0
 11
-568.406252
 21
544.501925
 31
0.0
  0
ARC
  5
210
330
1F
100
AcDbEntity
  8
LC-001-100-D00-0
 62
     7
370
    50
100
AcDbCircle
 10
-569.406252
 20
530.501925
 30
0.0
 40
1.000000000000114
100
AcDbArc
 50
270.0
 51
0.0
  0
LINE
  5
211
330
1F
100
AcDbEntity
  8
LC-001-100-D00-0
 62
     7
370
    50
100
AcDbLine
 10
-569.406252
 20
529.501925
 30
0.0
 11
-571.805388
 21
529.501926
 31
0.0
  0
LINE
  5
212
330
1F
100
AcDbEntity
  8
LC-001-100-D00-0
 62
     7
370
    50
100
AcDbLine
 10
-571.805388
 20
531.501924
 30
0.0
 11
-571.805388
 21
529.501926
 31
0.0
  0
LINE
  5
213
330
1F
100
AcDbEntity
  8
LC-001-100-D00-0
 62
     7
370
    50
100
AcDbLine
 10
-572.456252
 20
531.501925
 30
0.0
 11
-571.805388
 21
531.501924
 31
0.0
  0
ARC
  5
214
330
1F
100
AcDbEntity
  8
LC-001-100-D00-0
 62
     7
370
    50
100
AcDbCircle
 10
-572.456252
 20
532.001925
 30
0.0
 40
0.5000000000001137
100
AcDbArc
 50
180.0
 51
270.0
  0
LINE
  5
215
330
1F
100
AcDbEntity
  8
LC-001-100-D00-0
 62
     7
370
    50
100
AcDbLine
 10
-572.956252
 20
535.001925
 30
0.0
 11
-572.956252
 21
532.001925
 31
0.0
  0
ARC
  5
216
330
1F
100
AcDbEntity
  8
LC-001-100-D00-0
 62
     7
370
    50
100
AcDbCircle
 10
-572.456252
 20
535.001925
 30
0.0
 40
0.5000000000003411
100
AcDbArc
 50
90.0
 51
180.0
  0
LINE
  5
217
330
1F
100
AcDbEntity
  8
LC-001-100-D00-0
 62
     7
370
    50
100
AcDbLine
 10
-571.805388
 20
535.501925
 30
0.0
 11
-572.456252
 21
535.501925
 31
0.0
  0
LINE
  5
218
330
1F
100
AcDbEntity
  8
LC-001-100-D00-0
 62
     7
370
    50
100
AcDbLine
 10
-571.805388
 20
537.501925
 30
0.0
 11
-571.805388
 21
535.501925
 31
0.0
  0
ARC
  5
219
330
1F
100
AcDbEntity
  8
LC-001-100-D00-0
 62
     7
370
    50
100
AcDbCircle
 10
-560.906252
 20
547.501925
 30
0.0
 40
0.9999999999998863
100
AcDbArc
 50
0.0
 51
90.0
  0
ARC
  5
21A
330
1F
100
AcDbEntity
  8
LC-001-100-D00-0
 62
     7
370
    50
100
AcDbCircle
 10
-588.906252
 20
544.501925
 30
0.0
 40
0.9999999999998863
100
AcDbArc
 50
0.0
 51
90.0
  0
LINE
  5
21B
330
1F
100
AcDbEntity
  8
LC-001-100-D00-0
 62
     7
370
    50
100
AcDbLine
 10
-587.906252
 20
544.501925
 30
0.0
 11
-587.906252
 21
530.501925
 31
0.0
  0
ARC
  5
21C
330
1F
100
AcDbEntity
  8
LC-001-100-D00-0
 62
     7
370
    50
100
AcDbCircle
 10
-586.906252
 20
530.501925
 30
0.0
 40
1.0
100
AcDbArc
 50
180.0
 51
270.0
  0
LINE
  5
21D
330
1F
100
AcDbEntity
  8
LC-001-100-D00-0
 62
     7
370
    50
100
AcDbLine
 10
-583.356252
 20
532.001925
 30
0.0
 11
-583.356252
 21
535.001925
 31
0.0
  0
LINE
  5
21E
330
1F
100
AcDbEntity
  8
LC-001-100-D00-0
 62
     7
370
    50
100
AcDbLine
 10
-582.056252
 20
548.501925
 30
0.0
 11
-582.056255
 21
537.501925
 31
0.0
  0
LINE
  5
21F
330
1F
100
AcDbEntity
  8
LC-001-100-D00-0
 62
     7
370
    50
100
AcDbLine
 10
-582.056252
 20
548.501925
 30
0.0
 11
-574.256252
 21
548.501925
 31
0.0
  0
LINE
  5
220
330
1F
100
AcDbEntity
  8
LC-001-100-D00-0
 62
     7
370
    50
100
AcDbLine
 10
-584.507108
 20
537.501925
 30
0.0
 11
-584.507108
 21
535.501925
 31
0.0
  0
LINE
  5
221
330
1F
100
AcDbEntity
  8
LC-001-100-D00-0
 62
     7
370
    50
100
AcDbLine
 10
-584.507108
 20
531.501924
 30
0.0
 11
-584.507108
 21
529.501926
 31
0.0
  0
ARC
  5
222
330
1F
100
AcDbEntity
  8
LC-001-100-D00-0
 62
     7
370
    50
100
AcDbCircle
 10
-583.856252
 20
532.001925
 30
0.0
 40
0.4999999999997726
100
AcDbArc
 50
270.0
 51
0.0
  0
LINE
  5
223
330
1F
100
AcDbEntity
  8
LC-001-100-D00-0
 62
     7
370
    50
100
AcDbLine
 10
-584.507108
 20
531.501924
 30
0.0
 11
-583.856252
 21
531.501925
 31
0.0
  0
LINE
  5
224
330
1F
100
AcDbEntity
  8
LC-001-100-D00-0
 62
     7
370
    50
100
AcDbLine
 10
-593.406261
 20
545.501925
 30
0.0
 11
-593.406252
 21
541.501925
 31
0.0
  0
LINE
  5
225
330
1F
100
AcDbEntity
  8
LC-001-100-D00-0
 62
     7
370
    50
100
AcDbLine
 10
-596.406252
 20
541.501925
 30
0.0
 11
-596.406252
 21
547.501925
 31
0.0
  0
ARC
  5
226
330
1F
100
AcDbEntity
  8
LC-001-100-D00-0
 62
     7
370
    50
100
AcDbCircle
 10
-595.406252
 20
547.501925
 30
0.0
 40
0.9999999999996589
100
AcDbArc
 50
90.0
 51
180.0
  0
LINE
  5
227
330
1F
100
AcDbEntity
  8
LC-001-100-D00-0
 62
     7
370
    50
100
AcDbLine
 10
-583.856252
 20
535.501925
 30
0.0
 11
-584.507108
 21
535.501925
 31
0.0
  0
ARC
  5
228
330
1F
100
AcDbEntity
  8
LC-001-100-D00-0
 62
     7
370
    50
100
AcDbCircle
 10
-583.856252
 20
535.001925
 30
0.0
 40
0.5000000000002274
100
AcDbArc
 50
0.0
 51
90.0
  0
LINE
  5
229
330
1F
100
AcDbEntity
  8
LC-001-100-D00-0
 62
     7
370
    50
100
AcDbLine
 10
-582.056255
 20
537.501925
 30
0.0
 11
-584.507108
 21
537.501925
 31
0.0
  0
LINE
  5
22A
330
1F
100
AcDbEntity
  8
LC-001-100-D00-0
 62
     7
370
    50
100
AcDbLine
 10
-584.507108
 20
529.501926
 30
0.0
 11
-586.906252
 21
529.501925
 31
0.0
  0
LINE
  5
22B
330
1F
100
AcDbEntity
  8
LC-001-100-D00-0
 62
     7
370
    50
100
AcDbLine
 10
-593.406261
 20
545.501925
 30
0.0
 11
-588.906252
 21
545.501925
 31
0.0
  0
LINE
  5
22C
330
1F
100
AcDbEntity
  8
LC-001-100-D00-0
 62
     7
370
    50
100
AcDbLine
 10
-595.406252
 20
548.501925
 30
0.0
 11
-582.056252
 21
548.501925
 31
0.0
  0
LINE
  5
22D
330
1F
100
AcDbEntity
  8
LC-001-100-D00-0
 62
     7
370
    50
100
AcDbLine
 10
-596.406252
 20
541.501925
 30
0.0
 11
-593.406252
 21
541.501925
 31
0.0
  0
LINE
  5
22E
330
1F
100
AcDbEntity
  8
LC-001-100-D00-0
 62
     7
370
    50
100
AcDbLine
 10
-564.906252
 20
541.501925
 30
0.0
 11
-562.906252
 21
541.501925
 31
0.0
  0
LINE
  5
22F
330
1F
100
AcDbEntity
  8
LC-001-100-D00-0
 62
     7
370
    50
100
AcDbLine
 10
-593.406252
 20
541.501925
 30
0.0
 11
-591.406252
 21
541.501925
 31
0.0
  0
LINE
  5
230
330
1F
100
AcDbEntity
  8
LC-001-100-D00-0
 62
     7
370
    50
100
AcDbLine
 10
-591.406252
 20
541.501925
 30
0.0
 11
-587.906242
 21
541.501925
 31
0.0
  0
LINE
  5
231
330
1F
100
AcDbEntity
  8
LC-001-100-D00-0
 62
     7
370
    50
100
AcDbLine
 10
-568.406255
 20
541.501925
 30
0.0
 11
-564.906252
 21
541.501925
 31
0.0
  0
LINE
  5
232
330
1F
100
AcDbEntity
  8
LC-001-100-D00-0
 62
     7
370
    50
100
AcDbLine
 10
-466.289586
 20
532.270691
 30
0.0
 11
-466.289586
 21
534.733159
 31
0.0
  0
ARC
  5
233
330
1F
100
AcDbEntity
  8
LC-001-100-D00-0
 62
     7
370
    50
100
AcDbCircle
 10
-465.689586
 20
532.270691
 30
0.0
 40
0.6000000000000796
100
AcDbArc
 50
180.0
 51
255.0
  0
LINE
  5
234
330
1F
100
AcDbEntity
  8
LC-001-100-D00-0
 62
     7
370
    50
100
AcDbLine
 10
-465.138734
 20
531.501924
 30
0.0
 11
-465.844877
 21
531.691136
 31
0.0
  0
LINE
  5
235
330
1F
100
AcDbEntity
  8
LC-001-100-D00-0
 62
     7
370
    50
100
AcDbLine
 10
-465.138734
 20
531.501924
 30
0.0
 11
-465.138734
 21
529.501926
 31
0.0
  0
LINE
  5
236
330
1F
100
AcDbEntity
  8
LC-001-100-D00-0
 62
     7
370
    50
100
AcDbLine
 10
-467.089586
 20
529.501925
 30
0.0
 11
-465.138734
 21
529.501926
 31
0.0
  0
LINE
  5
237
330
1F
100
AcDbEntity
  8
LC-001-100-D00-0
 62
     7
370
    50
100
AcDbLine
 10
-468.089586
 20
530.501925
 30
0.0
 11
-467.089586
 21
529.501925
 31
0.0
  0
LINE
  5
238
330
1F
100
AcDbEntity
  8
LC-001-100-D00-0
 62
     7
370
    50
100
AcDbLine
 10
-468.089586
 20
530.501925
 30
0.0
 11
-468.089581
 21
536.501925
 31
0.0
  0
LINE
  5
239
330
1F
100
AcDbEntity
  8
LC-001-100-D00-0
 62
     7
370
    50
100
AcDbLine
 10
-467.089594
 20
537.501925
 30
0.0
 11
-468.089581
 21
536.501925
 31
0.0
  0
LINE
  5
23A
330
1F
100
AcDbEntity
  8
LC-001-100-D00-0
 62
     7
370
    50
100
AcDbLine
 10
-465.138734
 20
537.501925
 30
0.0
 11
-465.138734
 21
535.501925
 31
0.0
  0
LINE
  5
23B
330
1F
100
AcDbEntity
  8
LC-001-100-D00-0
 62
     7
370
    50
100
AcDbLine
 10
-465.844877
 20
535.312714
 30
0.0
 11
-465.138734
 21
535.501925
 31
0.0
  0
ARC
  5
23C
330
1F
100
AcDbEntity
  8
LC-001-100-D00-0
 62
     7
370
    50
100
AcDbCircle
 10
-465.689586
 20
534.733159
 30
0.0
 40
0.600000000000213
100
AcDbArc
 50
105.0
 51
180.0
  0
LINE
  5
23D
330
1F
100
AcDbEntity
  8
LC-001-100-D00-0
 62
     7
370
    50
100
AcDbLine
 10
-467.089594
 20
537.501925
 30
0.0
 11
-465.138734
 21
537.501925
 31
0.0
  0
LINE
  5
23E
330
1F
100
AcDbEntity
  8
LC-001-100-D00-0
 62
     7
370
    50
100
AcDbLine
 10
-474.889577
 20
536.501925
 30
0.0
 11
-475.889594
 21
537.501925
 31
0.0
  0
LINE
  5
23F
330
1F
100
AcDbEntity
  8
LC-001-100-D00-0
 62
     7
370
    50
100
AcDbLine
 10
-475.889586
 20
529.501925
 30
0.0
 11
-474.889586
 21
530.501925
 31
0.0
  0
LINE
  5
240
330
1F
100
AcDbEntity
  8
LC-001-100-D00-0
 62
     7
370
    50
100
AcDbLine
 10
-474.889586
 20
530.501925
 30
0.0
 11
-474.731746
 21
530.501925
 31
0.0
  0
LINE
  5
241
330
1F
100
AcDbEntity
  8
LC-001-100-D00-0
 62
     7
370
    50
100
AcDbLine
 10
-468.247425
 20
530.501925
 30
0.0
 11
-468.089586
 21
530.501925
 31
0.0
  0
LINE
  5
242
330
1F
100
AcDbEntity
  8
LC-001-100-D00-0
 62
     7
370
    50
100
AcDbLine
 10
-467.089586
 20
529.501925
 30
0.0
 11
-467.625367
 21
529.501925
 31
0.0
  0
LINE
  5
243
330
1F
100
AcDbEntity
  8
LC-001-100-D00-0
 62
     7
370
    50
100
AcDbLine
 10
-475.353804
 20
529.501925
 30
0.0
 11
-475.889586
 21
529.501925
 31
0.0
  0
LINE
  5
244
330
1F
100
AcDbEntity
  8
LC-001-100-D00-0
 62
     7
370
    50
100
AcDbLine
 10
-474.889577
 20
536.501925
 30
0.0
 11
-474.889586
 21
530.501925
 31
0.0
  0
LINE
  5
245
330
1F
100
AcDbEntity
  8
LC-001-100-D00-0
 62
     7
370
    50
100
AcDbLine
 10
-476.689586
 20
534.733159
 30
0.0
 11
-476.689586
 21
532.270691
 31
0.0
  0
LINE
  5
246
330
1F
100
AcDbEntity
  8
LC-001-100-D00-0
 62
     7
370
    50
100
AcDbLine
 10
-477.840424
 20
531.501924
 30
0.0
 11
-477.840424
 21
529.501926
 31
0.0
  0
LINE
  5
247
330
1F
100
AcDbEntity
  8
LC-001-100-D00-0
 62
     7
370
    50
100
AcDbLine
 10
-477.134294
 20
531.691136
 30
0.0
 11
-477.840424
 21
531.501924
 31
0.0
  0
ARC
  5
248
330
1F
100
AcDbEntity
  8
LC-001-100-D00-0
 62
     7
370
    50
100
AcDbCircle
 10
-477.289586
 20
532.270691
 30
0.0
 40
0.5999999999997738
100
AcDbArc
 50
285.0
 51
0.0
  0
ARC
  5
249
330
1F
100
AcDbEntity
  8
LC-001-100-D00-0
 62
     7
370
    50
100
AcDbCircle
 10
-477.289586
 20
534.733159
 30
0.0
 40
0.6000000000001933
100
AcDbArc
 50
0.0
 51
75.0
  0
LINE
  5
24A
330
1F
100
AcDbEntity
  8
LC-001-100-D00-0
 62
     7
370
    50
100
AcDbLine
 10
-477.840424
 20
535.501925
 30
0.0
 11
-477.134294
 21
535.312714
 31
0.0
  0
LINE
  5
24B
330
1F
100
AcDbEntity
  8
LC-001-100-D00-0
 62
     7
370
    50
100
AcDbLine
 10
-477.840424
 20
537.501925
 30
0.0
 11
-477.840424
 21
535.501925
 31
0.0
  0
LINE
  5
24C
330
1F
100
AcDbEntity
  8
LC-001-100-D00-0
 62
     7
370
    50
100
AcDbLine
 10
-477.840424
 20
529.501926
 30
0.0
 11
-475.889586
 21
529.501925
 31
0.0
  0
LINE
  5
24D
330
1F
100
AcDbEntity
  8
LC-001-100-D00-0
 62
     7
370
    50
100
AcDbLine
 10
-477.840424
 20
537.501925
 30
0.0
 11
-475.889594
 21
537.501925
 31
0.0
  0
LINE
  5
24E
330
1F
100
AcDbEntity
  8
LC-001-100-D00-0
 62
     7
370
    50
100
AcDbLine
 10
-465.138734
 20
537.501925
 30
0.0
 11
-467.589588
 21
537.501925
 31
0.0
  0
LINE
  5
24F
330
1F
100
AcDbEntity
  8
LC-001-100-D00-0
 62
     7
370
    50
100
AcDbLine
 10
-467.589588
 20
537.501925
 30
0.0
 11
-467.589586
 21
548.501925
 31
0.0
  0
LINE
  5
250
330
1F
100
AcDbEntity
  8
LC-001-100-D00-0
 62
     7
370
    50
100
AcDbLine
 10
-467.589586
 20
548.501925
 30
0.0
 11
-454.239586
 21
548.501925
 31
0.0
  0
LINE
  5
251
330
1F
100
AcDbEntity
  8
LC-001-100-D00-0
 62
     7
370
    50
100
AcDbLine
 10
-453.239586
 20
547.501925
 30
0.0
 11
-453.239591
 21
541.501925
 31
0.0
  0
LINE
  5
252
330
1F
100
AcDbEntity
  8
LC-001-100-D00-0
 62
     7
370
    50
100
AcDbLine
 10
-456.239586
 20
541.501925
 30
0.0
 11
-453.239591
 21
541.501925
 31
0.0
  0
LINE
  5
253
330
1F
100
AcDbEntity
  8
LC-001-100-D00-0
 62
     7
370
    50
100
AcDbLine
 10
-456.239586
 20
541.501925
 30
0.0
 11
-456.239582
 21
545.501925
 31
0.0
  0
LINE
  5
254
330
1F
100
AcDbEntity
  8
LC-001-100-D00-0
 62
     7
370
    50
100
AcDbLine
 10
-460.739586
 20
545.501925
 30
0.0
 11
-456.239582
 21
545.501925
 31
0.0
  0
ARC
  5
255
330
1F
100
AcDbEntity
  8
LC-001-100-D00-0
 62
     7
370
    50
100
AcDbCircle
 10
-460.739586
 20
544.501925
 30
0.0
 40
1.000000000000114
100
AcDbArc
 50
90.0
 51
180.0
  0
LINE
  5
256
330
1F
100
AcDbEntity
  8
LC-001-100-D00-0
 62
     7
370
    50
100
AcDbLine
 10
-461.739586
 20
530.501925
 30
0.0
 11
-461.739586
 21
544.501925
 31
0.0
  0
ARC
  5
257
330
1F
100
AcDbEntity
  8
LC-001-100-D00-0
 62
     7
370
    50
100
AcDbCircle
 10
-462.739586
 20
530.501925
 30
0.0
 40
1.000000000000114
100
AcDbArc
 50
270.0
 51
0.0
  0
LINE
  5
258
330
1F
100
AcDbEntity
  8
LC-001-100-D00-0
 62
     7
370
    50
100
AcDbLine
 10
-462.739586
 20
529.501925
 30
0.0
 11
-465.138734
 21
529.501926
 31
0.0
  0
LINE
  5
259
330
1F
100
AcDbEntity
  8
LC-001-100-D00-0
 62
     7
370
    50
100
AcDbLine
 10
-465.138734
 20
531.501924
 30
0.0
 11
-465.138734
 21
529.501926
 31
0.0
  0
LINE
  5
25A
330
1F
100
AcDbEntity
  8
LC-001-100-D00-0
 62
     7
370
    50
100
AcDbLine
 10
-465.789586
 20
531.501925
 30
0.0
 11
-465.138734
 21
531.501924
 31
0.0
  0
ARC
  5
25B
330
1F
100
AcDbEntity
  8
LC-001-100-D00-0
 62
     7
370
    50
100
AcDbCircle
 10
-465.789586
 20
532.001925
 30
0.0
 40
0.5000000000002274
100
AcDbArc
 50
180.0
 51
270.0
  0
LINE
  5
25C
330
1F
100
AcDbEntity
  8
LC-001-100-D00-0
 62
     7
370
    50
100
AcDbLine
 10
-466.289586
 20
535.001925
 30
0.0
 11
-466.289586
 21
532.001925
 31
0.0
  0
ARC
  5
25D
330
1F
100
AcDbEntity
  8
LC-001-100-D00-0
 62
     7
370
    50
100
AcDbCircle
 10
-465.789586
 20
535.001925
 30
0.0
 40
0.4999999999998863
100
AcDbArc
 50
90.0
 51
180.0
  0
LINE
  5
25E
330
1F
100
AcDbEntity
  8
LC-001-100-D00-0
 62
     7
370
    50
100
AcDbLine
 10
-465.138734
 20
535.501925
 30
0.0
 11
-465.789586
 21
535.501925
 31
0.0
  0
LINE
  5
25F
330
1F
100
AcDbEntity
  8
LC-001-100-D00-0
 62
     7
370
    50
100
AcDbLine
 10
-465.138734
 20
537.501925
 30
0.0
 11
-465.138734
 21
535.501925
 31
0.0
  0
ARC
  5
260
330
1F
100
AcDbEntity
  8
LC-001-100-D00-0
 62
     7
370
    50
100
AcDbCircle
 10
-454.239586
 20
547.501925
 30
0.0
 40
1.000000000000057
100
AcDbArc
 50
0.0
 51
90.0
  0
LINE
  5
261
330
1F
100
AcDbEntity
  8
LC-001-100-D00-0
 62
     7
370
    50
100
AcDbLine
 10
-475.389586
 20
548.501925
 30
0.0
 11
-475.389571
 21
537.501925
 31
0.0
  0
LINE
  5
262
330
1F
100
AcDbEntity
  8
LC-001-100-D00-0
 62
     7
370
    50
100
AcDbLine
 10
-475.389586
 20
548.501925
 30
0.0
 11
-467.589586
 21
548.501925
 31
0.0
  0
ARC
  5
263
330
1F
100
AcDbEntity
  8
LC-001-100-D00-0
 62
     7
370
    50
100
AcDbCircle
 10
-482.239586
 20
544.501925
 30
0.0
 40
1.0
100
AcDbArc
 50
0.0
 51
90.0
  0
LINE
  5
264
330
1F
100
AcDbEntity
  8
LC-001-100-D00-0
 62
     7
370
    50
100
AcDbLine
 10
-481.239586
 20
544.501925
 30
0.0
 11
-481.239586
 21
530.501925
 31
0.0
  0
ARC
  5
265
330
1F
100
AcDbEntity
  8
LC-001-100-D00-0
 62
     7
370
    50
100
AcDbCircle
 10
-480.239586
 20
530.501925
 30
0.0
 40
1.0
100
AcDbArc
 50
180.0
 51
270.0
  0
LINE
  5
266
330
1F
100
AcDbEntity
  8
LC-001-100-D00-0
 62
     7
370
    50
100
AcDbLine
 10
-476.689586
 20
532.001925
 30
0.0
 11
-476.689586
 21
535.001925
 31
0.0
  0
ARC
  5
267
330
1F
100
AcDbEntity
  8
LC-001-100-D00-0
 62
     7
370
    50
100
AcDbCircle
 10
-477.189586
 20
532.001925
 30
0.0
 40
0.5000000000001137
100
AcDbArc
 50
270.0
 51
0.0
  0
LINE
  5
268
330
1F
100
AcDbEntity
  8
LC-001-100-D00-0
 62
     7
370
    50
100
AcDbLine
 10
-477.840424
 20
531.501924
 30
0.0
 11
-477.189586
 21
531.501925
 31
0.0
  0
LINE
  5
269
330
1F
100
AcDbEntity
  8
LC-001-100-D00-0
 62
     7
370
    50
100
AcDbLine
 10
-477.840424
 20
531.501924
 30
0.0
 11
-477.840424
 21
529.501926
 31
0.0
  0
LINE
  5
26A
330
1F
100
AcDbEntity
  8
LC-001-100-D00-0
 62
     7
370
    50
100
AcDbLine
 10
-486.739577
 20
545.501925
 30
0.0
 11
-486.739586
 21
541.501925
 31
0.0
  0
LINE
  5
26B
330
1F
100
AcDbEntity
  8
LC-001-100-D00-0
 62
     7
370
    50
100
AcDbLine
 10
-489.739598
 20
541.501925
 30
0.0
 11
-489.739586
 21
547.501925
 31
0.0
  0
ARC
  5
26C
330
1F
100
AcDbEntity
  8
LC-001-100-D00-0
 62
     7
370
    50
100
AcDbCircle
 10
-488.739586
 20
547.501925
 30
0.0
 40
0.9999999999996589
100
AcDbArc
 50
90.0
 51
180.0
  0
LINE
  5
26D
330
1F
100
AcDbEntity
  8
LC-001-100-D00-0
 62
     7
370
    50
100
AcDbLine
 10
-477.840424
 20
537.501925
 30
0.0
 11
-477.840424
 21
535.501925
 31
0.0
  0
LINE
  5
26E
330
1F
100
AcDbEntity
  8
LC-001-100-D00-0
 62
     7
370
    50
100
AcDbLine
 10
-477.189586
 20
535.501925
 30
0.0
 11
-477.840424
 21
535.501925
 31
0.0
  0
ARC
  5
26F
330
1F
100
AcDbEntity
  8
LC-001-100-D00-0
 62
     7
370
    50
100
AcDbCircle
 10
-477.189586
 20
535.001925
 30
0.0
 40
0.4999999999999432
100
AcDbArc
 50
0.0
 51
90.0
  0
LINE
  5
270
330
1F
100
AcDbEntity
  8
LC-001-100-D00-0
 62
     7
370
    50
100
AcDbLine
 10
-477.840424
 20
529.501926
 30
0.0
 11
-480.239586
 21
529.501925
 31
0.0
  0
LINE
  5
271
330
1F
100
AcDbEntity
  8
LC-001-100-D00-0
 62
     7
370
    50
100
AcDbLine
 10
-475.389571
 20
537.501925
 30
0.0
 11
-477.840424
 21
537.501925
 31
0.0
  0
LINE
  5
272
330
1F
100
AcDbEntity
  8
LC-001-100-D00-0
 62
     7
370
    50
100
AcDbLine
 10
-486.739577
 20
545.501925
 30
0.0
 11
-482.239586
 21
545.501925
 31
0.0
  0
LINE
  5
273
330
1F
100
AcDbEntity
  8
LC-001-100-D00-0
 62
     7
370
    50
100
AcDbLine
 10
-488.739586
 20
548.501925
 30
0.0
 11
-475.389586
 21
548.501925
 31
0.0
  0
LINE
  5
274
330
1F
100
AcDbEntity
  8
LC-001-100-D00-0
 62
     7
370
    50
100
AcDbLine
 10
-489.739598
 20
541.501925
 30
0.0
 11
-486.739586
 21
541.501925
 31
0.0
  0
LINE
  5
275
330
1F
100
AcDbEntity
  8
LC-001-100-D00-0
 62
     7
370
    50
100
AcDbLine
 10
-458.239586
 20
541.501925
 30
0.0
 11
-456.239586
 21
541.501925
 31
0.0
  0
LINE
  5
276
330
1F
100
AcDbEntity
  8
LC-001-100-D00-0
 62
     7
370
    50
100
AcDbLine
 10
-486.739586
 20
541.501925
 30
0.0
 11
-484.739586
 21
541.501925
 31
0.0
  0
LINE
  5
277
330
1F
100
AcDbEntity
  8
LC-001-100-D00-0
 62
     7
370
    50
100
AcDbLine
 10
-484.739586
 20
541.501925
 30
0.0
 11
-481.239588
 21
541.501925
 31
0.0
  0
LINE
  5
278
330
1F
100
AcDbEntity
  8
LC-001-100-D00-0
 62
     7
370
    50
100
AcDbLine
 10
-461.739585
 20
541.501925
 30
0.0
 11
-458.239586
 21
541.501925
 31
0.0
  0
LINE
  5
279
330
1F
100
AcDbEntity
  8
LC-001-100-D00-0
 62
     7
370
    50
100
AcDbLine
 10
47.043748
 20
532.270691
 30
0.0
 11
47.043748
 21
534.733159
 31
0.0
  0
ARC
  5
27A
330
1F
100
AcDbEntity
  8
LC-001-100-D00-0
 62
     7
370
    50
100
AcDbCircle
 10
47.643748
 20
532.270691
 30
0.0
 40
0.6000000000002714
100
AcDbArc
 50
180.0
 51
255.0
  0
LINE
  5
27B
330
1F
100
AcDbEntity
  8
LC-001-100-D00-0
 62
     7
370
    50
100
AcDbLine
 10
48.194587
 20
531.501924
 30
0.0
 11
47.488456
 21
531.691136
 31
0.0
  0
LINE
  5
27C
330
1F
100
AcDbEntity
  8
LC-001-100-D00-0
 62
     7
370
    50
100
AcDbLine
 10
48.194587
 20
531.501924
 30
0.0
 11
48.194587
 21
529.501926
 31
0.0
  0
LINE
  5
27D
330
1F
100
AcDbEntity
  8
LC-001-100-D00-0
 62
     7
370
    50
100
AcDbLine
 10
46.243748
 20
529.501925
 30
0.0
 11
48.194587
 21
529.501926
 31
0.0
  0
LINE
  5
27E
330
1F
100
AcDbEntity
  8
LC-001-100-D00-0
 62
     7
370
    50
100
AcDbLine
 10
45.243748
 20
530.501925
 30
0.0
 11
46.243748
 21
529.501925
 31
0.0
  0
LINE
  5
27F
330
1F
100
AcDbEntity
  8
LC-001-100-D00-0
 62
     7
370
    50
100
AcDbLine
 10
45.243748
 20
530.501925
 30
0.0
 11
45.243739
 21
536.501925
 31
0.0
  0
LINE
  5
280
330
1F
100
AcDbEntity
  8
LC-001-100-D00-0
 62
     7
370
    50
100
AcDbLine
 10
46.243756
 20
537.501925
 30
0.0
 11
45.243739
 21
536.501925
 31
0.0
  0
LINE
  5
281
330
1F
100
AcDbEntity
  8
LC-001-100-D00-0
 62
     7
370
    50
100
AcDbLine
 10
48.194587
 20
537.501925
 30
0.0
 11
48.194587
 21
535.501925
 31
0.0
  0
LINE
  5
282
330
1F
100
AcDbEntity
  8
LC-001-100-D00-0
 62
     7
370
    50
100
AcDbLine
 10
47.488456
 20
535.312714
 30
0.0
 11
48.194587
 21
535.501925
 31
0.0
  0
ARC
  5
283
330
1F
100
AcDbEntity
  8
LC-001-100-D00-0
 62
     7
370
    50
100
AcDbCircle
 10
47.643748
 20
534.733159
 30
0.0
 40
0.6000000000002682
100
AcDbArc
 50
105.0
 51
180.0
  0
LINE
  5
284
330
1F
100
AcDbEntity
  8
LC-001-100-D00-0
 62
     7
370
    50
100
AcDbLine
 10
46.243756
 20
537.501925
 30
0.0
 11
48.194587
 21
537.501925
 31
0.0
  0
LINE
  5
285
330
1F
100
AcDbEntity
  8
LC-001-100-D00-0
 62
     7
370
    50
100
AcDbLine
 10
38.443744
 20
536.501925
 30
0.0
 11
37.443756
 21
537.501925
 31
0.0
  0
LINE
  5
286
330
1F
100
AcDbEntity
  8
LC-001-100-D00-0
 62
     7
370
    50
100
AcDbLine
 10
37.443748
 20
529.501925
 30
0.0
 11
38.443748
 21
530.501925
 31
0.0
  0
LINE
  5
287
330
1F
100
AcDbEntity
  8
LC-001-100-D00-0
 62
     7
370
    50
100
AcDbLine
 10
38.443748
 20
530.501925
 30
0.0
 11
38.601587
 21
530.501925
 31
0.0
  0
LINE
  5
288
330
1F
100
AcDbEntity
  8
LC-001-100-D00-0
 62
     7
370
    50
100
AcDbLine
 10
45.085908
 20
530.501925
 30
0.0
 11
45.243748
 21
530.501925
 31
0.0
  0
LINE
  5
289
330
1F
100
AcDbEntity
  8
LC-001-100-D00-0
 62
     7
370
    50
100
AcDbLine
 10
46.243748
 20
529.501925
 30
0.0
 11
45.707966
 21
529.501925
 31
0.0
  0
LINE
  5
28A
330
1F
100
AcDbEntity
  8
LC-001-100-D00-0
 62
     7
370
    50
100
AcDbLine
 10
37.979529
 20
529.501925
 30
0.0
 11
37.443748
 21
529.501925
 31
0.0
  0
LINE
  5
28B
330
1F
100
AcDbEntity
  8
LC-001-100-D00-0
 62
     7
370
    50
100
AcDbLine
 10
38.443744
 20
536.501925
 30
0.0
 11
38.443748
 21
530.501925
 31
0.0
  0
LINE
  5
28C
330
1F
100
AcDbEntity
  8
LC-001-100-D00-0
 62
     7
370
    50
100
AcDbLine
 10
36.643748
 20
534.733159
 30
0.0
 11
36.643748
 21
532.270691
 31
0.0
  0
LINE
  5
28D
330
1F
100
AcDbEntity
  8
LC-001-100-D00-0
 62
     7
370
    50
100
AcDbLine
 10
35.492896
 20
531.501924
 30
0.0
 11
35.492896
 21
529.501926
 31
0.0
  0
LINE
  5
28E
330
1F
100
AcDbEntity
  8
LC-001-100-D00-0
 62
     7
370
    50
100
AcDbLine
 10
36.199039
 20
531.691136
 30
0.0
 11
35.492896
 21
531.501924
 31
0.0
  0
ARC
  5
28F
330
1F
100
AcDbEntity
  8
LC-001-100-D00-0
 62
     7
370
    50
100
AcDbCircle
 10
36.043748
 20
532.270691
 30
0.0
 40
0.6000000000002351
100
AcDbArc
 50
285.0
 51
0.0
  0
ARC
  5
290
330
1F
100
AcDbEntity
  8
LC-001-100-D00-0
 62
     7
370
    50
100
AcDbCircle
 10
36.043748
 20
534.733159
 30
0.0
 40
0.6000000000006907
100
AcDbArc
 50
0.0
 51
75.0
  0
LINE
  5
291
330
1F
100
AcDbEntity
  8
LC-001-100-D00-0
 62
     7
370
    50
100
AcDbLine
 10
35.492896
 20
535.501925
 30
0.0
 11
36.199039
 21
535.312714
 31
0.0
  0
LINE
  5
292
330
1F
100
AcDbEntity
  8
LC-001-100-D00-0
 62
     7
370
    50
100
AcDbLine
 10
35.492896
 20
537.501925
 30
0.0
 11
35.492896
 21
535.501925
 31
0.0
  0
LINE
  5
293
330
1F
100
AcDbEntity
  8
LC-001-100-D00-0
 62
     7
370
    50
100
AcDbLine
 10
35.492896
 20
529.501926
 30
0.0
 11
37.443748
 21
529.501925
 31
0.0
  0
LINE
  5
294
330
1F
100
AcDbEntity
  8
LC-001-100-D00-0
 62
     7
370
    50
100
AcDbLine
 10
35.492896
 20
537.501925
 30
0.0
 11
37.443756
 21
537.501925
 31
0.0
  0
LINE
  5
295
330
1F
100
AcDbEntity
  8
LC-001-100-D00-0
 62
     7
370
    50
100
AcDbLine
 10
48.194587
 20
537.501925
 30
0.0
 11
45.743733
 21
537.501925
 31
0.0
  0
LINE
  5
296
330
1F
100
AcDbEntity
  8
LC-001-100-D00-0
 62
     7
370
    50
100
AcDbLine
 10
45.743733
 20
537.501925
 30
0.0
 11
45.743748
 21
548.501925
 31
0.0
  0
LINE
  5
297
330
1F
100
AcDbEntity
  8
LC-001-100-D00-0
 62
     7
370
    50
100
AcDbLine
 10
45.743748
 20
548.501925
 30
0.0
 11
59.093748
 21
548.501925
 31
0.0
  0
LINE
  5
298
330
1F
100
AcDbEntity
  8
LC-001-100-D00-0
 62
     7
370
    50
100
AcDbLine
 10
60.093748
 20
547.501925
 30
0.0
 11
60.09376
 21
541.501925
 31
0.0
  0
LINE
  5
299
330
1F
100
AcDbEntity
  8
LC-001-100-D00-0
 62
     7
370
    50
100
AcDbLine
 10
57.093748
 20
541.501925
 30
0.0
 11
60.09376
 21
541.501925
 31
0.0
  0
LINE
  5
29A
330
1F
100
AcDbEntity
  8
LC-001-100-D00-0
 62
     7
370
    50
100
AcDbLine
 10
57.093748
 20
541.501925
 30
0.0
 11
57.093739
 21
545.501925
 31
0.0
  0
LINE
  5
29B
330
1F
100
AcDbEntity
  8
LC-001-100-D00-0
 62
     7
370
    50
100
AcDbLine
 10
52.593748
 20
545.501925
 30
0.0
 11
57.093739
 21
545.501925
 31
0.0
  0
ARC
  5
29C
330
1F
100
AcDbEntity
  8
LC-001-100-D00-0
 62
     7
370
    50
100
AcDbCircle
 10
52.593748
 20
544.501925
 30
0.0
 40
0.9999999999996589
100
AcDbArc
 50
90.0
 51
180.0
  0
LINE
  5
29D
330
1F
100
AcDbEntity
  8
LC-001-100-D00-0
 62
     7
370
    50
100
AcDbLine
 10
51.593748
 20
530.501925
 30
0.0
 11
51.593748
 21
544.501925
 31
0.0
  0
ARC
  5
29E
330
1F
100
AcDbEntity
  8
LC-001-100-D00-0
 62
     7
370
    50
100
AcDbCircle
 10
50.593748
 20
530.501925
 30
0.0
 40
1.000000000000114
100
AcDbArc
 50
270.0
 51
0.0
  0
LINE
  5
29F
330
1F
100
AcDbEntity
  8
LC-001-100-D00-0
 62
     7
370
    50
100
AcDbLine
 10
50.593748
 20
529.501925
 30
0.0
 11
48.194587
 21
529.501926
 31
0.0
  0
LINE
  5
2A0
330
1F
100
AcDbEntity
  8
LC-001-100-D00-0
 62
     7
370
    50
100
AcDbLine
 10
48.194587
 20
531.501924
 30
0.0
 11
48.194587
 21
529.501926
 31
0.0
  0
LINE
  5
2A1
330
1F
100
AcDbEntity
  8
LC-001-100-D00-0
 62
     7
370
    50
100
AcDbLine
 10
47.543748
 20
531.501925
 30
0.0
 11
48.194587
 21
531.501924
 31
0.0
  0
ARC
  5
2A2
330
1F
100
AcDbEntity
  8
LC-001-100-D00-0
 62
     7
370
    50
100
AcDbCircle
 10
47.543748
 20
532.001925
 30
0.0
 40
0.5000000000000853
100
AcDbArc
 50
180.0
 51
270.0
  0
LINE
  5
2A3
330
1F
100
AcDbEntity
  8
LC-001-100-D00-0
 62
     7
370
    50
100
AcDbLine
 10
47.043748
 20
535.001925
 30
0.0
 11
47.043748
 21
532.001925
 31
0.0
  0
ARC
  5
2A4
330
1F
100
AcDbEntity
  8
LC-001-100-D00-0
 62
     7
370
    50
100
AcDbCircle
 10
47.543748
 20
535.001925
 30
0.0
 40
0.4999999999998863
100
AcDbArc
 50
90.0
 51
180.0
  0
LINE
  5
2A5
330
1F
100
AcDbEntity
  8
LC-001-100-D00-0
 62
     7
370
    50
100
AcDbLine
 10
48.194587
 20
535.501925
 30
0.0
 11
47.543748
 21
535.501925
 31
0.0
  0
LINE
  5
2A6
330
1F
100
AcDbEntity
  8
LC-001-100-D00-0
 62
     7
370
    50
100
AcDbLine
 10
48.194587
 20
537.501925
 30
0.0
 11
48.194587
 21
535.501925
 31
0.0
  0
ARC
  5
2A7
330
1F
100
AcDbEntity
  8
LC-001-100-D00-0
 62
     7
370
    50
100
AcDbCircle
 10
59.093748
 20
547.501925
 30
0.0
 40
1.000000000000178
100
AcDbArc
 50
0.0
 51
90.0
  0
LINE
  5
2A8
330
1F
100
AcDbEntity
  8
LC-001-100-D00-0
 62
     7
370
    50
100
AcDbLine
 10
37.943748
 20
548.501925
 30
0.0
 11
37.94375
 21
537.501925
 31
0.0
  0
LINE
  5
2A9
330
1F
100
AcDbEntity
  8
LC-001-100-D00-0
 62
     7
370
    50
100
AcDbLine
 10
37.943748
 20
548.501925
 30
0.0
 11
45.743748
 21
548.501925
 31
0.0
  0
ARC
  5
2AA
330
1F
100
AcDbEntity
  8
LC-001-100-D00-0
 62
     7
370
    50
100
AcDbCircle
 10
31.093748
 20
544.501925
 30
0.0
 40
0.9999999999999112
100
AcDbArc
 50
0.0
 51
90.0
  0
LINE
  5
2AB
330
1F
100
AcDbEntity
  8
LC-001-100-D00-0
 62
     7
370
    50
100
AcDbLine
 10
32.093748
 20
544.501925
 30
0.0
 11
32.093748
 21
530.501925
 31
0.0
  0
ARC
  5
2AC
330
1F
100
AcDbEntity
  8
LC-001-100-D00-0
 62
     7
370
    50
100
AcDbCircle
 10
33.093748
 20
530.501925
 30
0.0
 40
1.000000000000043
100
AcDbArc
 50
180.0
 51
270.0
  0
LINE
  5
2AD
330
1F
100
AcDbEntity
  8
LC-001-100-D00-0
 62
     7
370
    50
100
AcDbLine
 10
36.643748
 20
532.001925
 30
0.0
 11
36.643748
 21
535.001925
 31
0.0
  0
ARC
  5
2AE
330
1F
100
AcDbEntity
  8
LC-001-100-D00-0
 62
     7
370
    50
100
AcDbCircle
 10
36.143748
 20
532.001925
 30
0.0
 40
0.4999999999997726
100
AcDbArc
 50
270.0
 51
0.0
  0
LINE
  5
2AF
330
1F
100
AcDbEntity
  8
LC-001-100-D00-0
 62
     7
370
    50
100
AcDbLine
 10
35.492896
 20
531.501924
 30
0.0
 11
36.143748
 21
531.501925
 31
0.0
  0
LINE
  5
2B0
330
1F
100
AcDbEntity
  8
LC-001-100-D00-0
 62
     7
370
    50
100
AcDbLine
 10
35.492896
 20
531.501924
 30
0.0
 11
35.492896
 21
529.501926
 31
0.0
  0
LINE
  5
2B1
330
1F
100
AcDbEntity
  8
LC-001-100-D00-0
 62
     7
370
    50
100
AcDbLine
 10
26.593744
 20
545.501925
 30
0.0
 11
26.593748
 21
541.501925
 31
0.0
  0
LINE
  5
2B2
330
1F
100
AcDbEntity
  8
LC-001-100-D00-0
 62
     7
370
    50
100
AcDbLine
 10
23.593753
 20
541.501925
 30
0.0
 11
23.593748
 21
547.501925
 31
0.0
  0
ARC
  5
2B3
330
1F
100
AcDbEntity
  8
LC-001-100-D00-0
 62
     7
370
    50
100
AcDbCircle
 10
24.593748
 20
547.501925
 30
0.0
 40
0.9999999999996589
100
AcDbArc
 50
90.0
 51
180.0
  0
LINE
  5
2B4
330
1F
100
AcDbEntity
  8
LC-001-100-D00-0
 62
     7
370
    50
100
AcDbLine
 10
35.492896
 20
537.501925
 30
0.0
 11
35.492896
 21
535.501925
 31
0.0
  0
LINE
  5
2B5
330
1F
100
AcDbEntity
  8
LC-001-100-D00-0
 62
     7
370
    50
100
AcDbLine
 10
36.143748
 20
535.501925
 30
0.0
 11
35.492896
 21
535.501925
 31
0.0
  0
ARC
  5
2B6
330
1F
100
AcDbEntity
  8
LC-001-100-D00-0
 62
     7
370
    50
100
AcDbCircle
 10
36.143748
 20
535.001925
 30
0.0
 40
0.5000000000000924
100
AcDbArc
 50
0.0
 51
90.0
  0
LINE
  5
2B7
330
1F
100
AcDbEntity
  8
LC-001-100-D00-0
 62
     7
370
    50
100
AcDbLine
 10
35.492896
 20
529.501926
 30
0.0
 11
33.093748
 21
529.501925
 31
0.0
  0
LINE
  5
2B8
330
1F
100
AcDbEntity
  8
LC-001-100-D00-0
 62
     7
370
    50
100
AcDbLine
 10
37.94375
 20
537.501925
 30
0.0
 11
35.492896
 21
537.501925
 31
0.0
  0
LINE
  5
2B9
330
1F
100
AcDbEntity
  8
LC-001-100-D00-0
 62
     7
370
    50
100
AcDbLine
 10
26.593744
 20
545.501925
 30
0.0
 11
31.093748
 21
545.501925
 31
0.0
  0
LINE
  5
2BA
330
1F
100
AcDbEntity
  8
LC-001-100-D00-0
 62
     7
370
    50
100
AcDbLine
 10
24.593748
 20
548.501925
 30
0.0
 11
37.943748
 21
548.501925
 31
0.0
  0
LINE
  5
2BB
330
1F
100
AcDbEntity
  8
LC-001-100-D00-0
 62
     7
370
    50
100
AcDbLine
 10
23.593753
 20
541.501925
 30
0.0
 11
26.593748
 21
541.501925
 31
0.0
  0
LINE
  5
2BC
330
1F
100
AcDbEntity
  8
LC-001-100-D00-0
 62
     7
370
    50
100
AcDbLine
 10
55.093748
 20
541.501925
 30
0.0
 11
57.093748
 21
541.501925
 31
0.0
  0
LINE
  5
2BD
330
1F
100
AcDbEntity
  8
LC-001-100-D00-0
 62
     7
370
    50
100
AcDbLine
 10
26.593748
 20
541.501925
 30
0.0
 11
28.593748
 21
541.501925
 31
0.0
  0
LINE
  5
2BE
330
1F
100
AcDbEntity
  8
LC-001-100-D00-0
 62
     7
370
    50
100
AcDbLine
 10
28.593748
 20
541.501925
 30
0.0
 11
32.093748
 21
541.501925
 31
0.0
  0
LINE
  5
2BF
330
1F
100
AcDbEntity
  8
LC-001-100-D00-0
 62
     7
370
    50
100
AcDbLine
 10
51.59375
 20
541.501925
 30
0.0
 11
55.093748
 21
541.501925
 31
0.0
  0
LINE
  5
2C0
330
1F
100
AcDbEntity
  8
LC-001-100-D00-0
 62
     7
370
    50
100
AcDbLine
 10
-729.622919
 20
532.270691
 30
0.0
 11
-729.622919
 21
534.733159
 31
0.0
  0
ARC
  5
2C1
330
1F
100
AcDbEntity
  8
LC-001-100-D00-0
 62
     7
370
    50
100
AcDbCircle
 10
-729.022919
 20
532.270691
 30
0.0
 40
0.5999999999999091
100
AcDbArc
 50
180.0
 51
255.0
  0
LINE
  5
2C2
330
1F
100
AcDbEntity
  8
LC-001-100-D00-0
 62
     7
370
    50
100
AcDbLine
 10
-728.472084
 20
531.501924
 30
0.0
 11
-729.17821
 21
531.691136
 31
0.0
  0
LINE
  5
2C3
330
1F
100
AcDbEntity
  8
LC-001-100-D00-0
 62
     7
370
    50
100
AcDbLine
 10
-728.472084
 20
531.501924
 30
0.0
 11
-728.472084
 21
529.501926
 31
0.0
  0
LINE
  5
2C4
330
1F
100
AcDbEntity
  8
LC-001-100-D00-0
 62
     7
370
    50
100
AcDbLine
 10
-731.422919
 20
530.501925
 30
0.0
 11
-730.422919
 21
529.501925
 31
0.0
  0
LINE
  5
2C5
330
1F
100
AcDbEntity
  8
LC-001-100-D00-0
 62
     7
370
    50
100
AcDbLine
 10
-731.422919
 20
530.501925
 30
0.0
 11
-731.422932
 21
536.501925
 31
0.0
  0
LINE
  5
2C6
330
1F
100
AcDbEntity
  8
LC-001-100-D00-0
 62
     7
370
    50
100
AcDbLine
 10
-730.422944
 20
537.501925
 30
0.0
 11
-731.422932
 21
536.501925
 31
0.0
  0
LINE
  5
2C7
330
1F
100
AcDbEntity
  8
LC-001-100-D00-0
 62
     7
370
    50
100
AcDbLine
 10
-728.472084
 20
537.501925
 30
0.0
 11
-728.472084
 21
535.501925
 31
0.0
  0
LINE
  5
2C8
330
1F
100
AcDbEntity
  8
LC-001-100-D00-0
 62
     7
370
    50
100
AcDbLine
 10
-729.17821
 20
535.312714
 30
0.0
 11
-728.472084
 21
535.501925
 31
0.0
  0
ARC
  5
2C9
330
1F
100
AcDbEntity
  8
LC-001-100-D00-0
 62
     7
370
    50
100
AcDbCircle
 10
-729.022919
 20
534.733159
 30
0.0
 40
0.6000000000002278
100
AcDbArc
 50
105.0
 51
180.0
  0
LINE
  5
2CA
330
1F
100
AcDbEntity
  8
LC-001-100-D00-0
 62
     7
370
    50
100
AcDbLine
 10
-730.422919
 20
529.501925
 30
0.0
 11
-728.472084
 21
529.501926
 31
0.0
  0
LINE
  5
2CB
330
1F
100
AcDbEntity
  8
LC-001-100-D00-0
 62
     7
370
    50
100
AcDbLine
 10
-730.422944
 20
537.501925
 30
0.0
 11
-728.472084
 21
537.501925
 31
0.0
  0
LINE
  5
2CC
330
1F
100
AcDbEntity
  8
LC-001-100-D00-0
 62
     7
370
    50
100
AcDbLine
 10
-740.022919
 20
534.733159
 30
0.0
 11
-740.022919
 21
532.270691
 31
0.0
  0
LINE
  5
2CD
330
1F
100
AcDbEntity
  8
LC-001-100-D00-0
 62
     7
370
    50
100
AcDbLine
 10
-738.222928
 20
536.501925
 30
0.0
 11
-739.222915
 21
537.501925
 31
0.0
  0
LINE
  5
2CE
330
1F
100
AcDbEntity
  8
LC-001-100-D00-0
 62
     7
370
    50
100
AcDbLine
 10
-738.222928
 20
536.501925
 30
0.0
 11
-738.222919
 21
530.501925
 31
0.0
  0
LINE
  5
2CF
330
1F
100
AcDbEntity
  8
LC-001-100-D00-0
 62
     7
370
    50
100
AcDbLine
 10
-739.222919
 20
529.501925
 30
0.0
 11
-738.222919
 21
530.501925
 31
0.0
  0
LINE
  5
2D0
330
1F
100
AcDbEntity
  8
LC-001-100-D00-0
 62
     7
370
    50
100
AcDbLine
 10
-741.173775
 20
531.501924
 30
0.0
 11
-741.173775
 21
529.501926
 31
0.0
  0
LINE
  5
2D1
330
1F
100
AcDbEntity
  8
LC-001-100-D00-0
 62
     7
370
    50
100
AcDbLine
 10
-740.467627
 20
531.691136
 30
0.0
 11
-741.173775
 21
531.501924
 31
0.0
  0
ARC
  5
2D2
330
1F
100
AcDbEntity
  8
LC-001-100-D00-0
 62
     7
370
    50
100
AcDbCircle
 10
-740.622919
 20
532.270691
 30
0.0
 40
0.6000000000002278
100
AcDbArc
 50
285.0
 51
0.0
  0
ARC
  5
2D3
330
1F
100
AcDbEntity
  8
LC-001-100-D00-0
 62
     7
370
    50
100
AcDbCircle
 10
-740.622919
 20
534.733159
 30
0.0
 40
0.6000000000001364
100
AcDbArc
 50
0.0
 51
75.0
  0
LINE
  5
2D4
330
1F
100
AcDbEntity
  8
LC-001-100-D00-0
 62
     7
370
    50
100
AcDbLine
 10
-741.173775
 20
535.501925
 30
0.0
 11
-740.467627
 21
535.312714
 31
0.0
  0
LINE
  5
2D5
330
1F
100
AcDbEntity
  8
LC-001-100-D00-0
 62
     7
370
    50
100
AcDbLine
 10
-741.173775
 20
537.501925
 30
0.0
 11
-741.173775
 21
535.501925
 31
0.0
  0
LINE
  5
2D6
330
1F
100
AcDbEntity
  8
LC-001-100-D00-0
 62
     7
370
    50
100
AcDbLine
 10
-741.173775
 20
529.501926
 30
0.0
 11
-739.222919
 21
529.501925
 31
0.0
  0
LINE
  5
2D7
330
1F
100
AcDbEntity
  8
LC-001-100-D00-0
 62
     7
370
    50
100
AcDbLine
 10
-741.173775
 20
537.501925
 30
0.0
 11
-739.222915
 21
537.501925
 31
0.0
  0
LINE
  5
2D8
330
1F
100
AcDbEntity
  8
LC-001-100-D00-0
 62
     7
370
    50
100
AcDbLine
 10
-738.222919
 20
530.501925
 30
0.0
 11
-738.065079
 21
530.501925
 31
0.0
  0
LINE
  5
2D9
330
1F
100
AcDbEntity
  8
LC-001-100-D00-0
 62
     7
370
    50
100
AcDbLine
 10
-731.580758
 20
530.501925
 30
0.0
 11
-731.422919
 21
530.501925
 31
0.0
  0
LINE
  5
2DA
330
1F
100
AcDbEntity
  8
LC-001-100-D00-0
 62
     7
370
    50
100
AcDbLine
 10
-730.422919
 20
529.501925
 30
0.0
 11
-730.958701
 21
529.501925
 31
0.0
  0
LINE
  5
2DB
330
1F
100
AcDbEntity
  8
LC-001-100-D00-0
 62
     7
370
    50
100
AcDbLine
 10
-738.687137
 20
529.501925
 30
0.0
 11
-739.222919
 21
529.501925
 31
0.0
  0
LINE
  5
2DC
330
1F
100
AcDbEntity
  8
LC-001-100-D00-0
 62
     7
370
    50
100
AcDbLine
 10
-728.472084
 20
537.501925
 30
0.0
 11
-730.922908
 21
537.501925
 31
0.0
  0
LINE
  5
2DD
330
1F
100
AcDbEntity
  8
LC-001-100-D00-0
 62
     7
370
    50
100
AcDbLine
 10
-730.922908
 20
537.501925
 30
0.0
 11
-730.922919
 21
548.501925
 31
0.0
  0
LINE
  5
2DE
330
1F
100
AcDbEntity
  8
LC-001-100-D00-0
 62
     7
370
    50
100
AcDbLine
 10
-730.922919
 20
548.501925
 30
0.0
 11
-717.572919
 21
548.501925
 31
0.0
  0
ARC
  5
2DF
330
1F
100
AcDbEntity
  8
LC-001-100-D00-0
 62
     7
370
    50
100
AcDbCircle
 10
-717.572919
 20
547.501925
 30
0.0
 40
0.9999999999998863
100
AcDbArc
 50
0.0
 51
90.0
  0
LINE
  5
2E0
330
1F
100
AcDbEntity
  8
LC-001-100-D00-0
 62
     7
370
    50
100
AcDbLine
 10
-716.572919
 20
547.501925
 30
0.0
 11
-716.572911
 21
541.501925
 31
0.0
  0
LINE
  5
2E1
330
1F
100
AcDbEntity
  8
LC-001-100-D00-0
 62
     7
370
    50
100
AcDbLine
 10
-719.572919
 20
541.501925
 30
0.0
 11
-716.572911
 21
541.501925
 31
0.0
  0
LINE
  5
2E2
330
1F
100
AcDbEntity
  8
LC-001-100-D00-0
 62
     7
370
    50
100
AcDbLine
 10
-719.572919
 20
541.501925
 30
0.0
 11
-719.572932
 21
545.501925
 31
0.0
  0
LINE
  5
2E3
330
1F
100
AcDbEntity
  8
LC-001-100-D00-0
 62
     7
370
    50
100
AcDbLine
 10
-724.072919
 20
545.501925
 30
0.0
 11
-719.572932
 21
545.501925
 31
0.0
  0
ARC
  5
2E4
330
1F
100
AcDbEntity
  8
LC-001-100-D00-0
 62
     7
370
    50
100
AcDbCircle
 10
-724.072919
 20
544.501925
 30
0.0
 40
1.000000000000114
100
AcDbArc
 50
90.0
 51
180.0
  0
LINE
  5
2E5
330
1F
100
AcDbEntity
  8
LC-001-100-D00-0
 62
     7
370
    50
100
AcDbLine
 10
-725.072919
 20
530.501925
 30
0.0
 11
-725.072919
 21
544.501925
 31
0.0
  0
ARC
  5
2E6
330
1F
100
AcDbEntity
  8
LC-001-100-D00-0
 62
     7
370
    50
100
AcDbCircle
 10
-726.072919
 20
530.501925
 30
0.0
 40
1.000000000000114
100
AcDbArc
 50
270.0
 51
0.0
  0
LINE
  5
2E7
330
1F
100
AcDbEntity
  8
LC-001-100-D00-0
 62
     7
370
    50
100
AcDbLine
 10
-726.072919
 20
529.501925
 30
0.0
 11
-728.472084
 21
529.501926
 31
0.0
  0
LINE
  5
2E8
330
1F
100
AcDbEntity
  8
LC-001-100-D00-0
 62
     7
370
    50
100
AcDbLine
 10
-728.472084
 20
531.501924
 30
0.0
 11
-728.472084
 21
529.501926
 31
0.0
  0
LINE
  5
2E9
330
1F
100
AcDbEntity
  8
LC-001-100-D00-0
 62
     7
370
    50
100
AcDbLine
 10
-729.122919
 20
531.501925
 30
0.0
 11
-728.472084
 21
531.501924
 31
0.0
  0
ARC
  5
2EA
330
1F
100
AcDbEntity
  8
LC-001-100-D00-0
 62
     7
370
    50
100
AcDbCircle
 10
-729.122919
 20
532.001925
 30
0.0
 40
0.5000000000001137
100
AcDbArc
 50
180.0
 51
270.0
  0
LINE
  5
2EB
330
1F
100
AcDbEntity
  8
LC-001-100-D00-0
 62
     7
370
    50
100
AcDbLine
 10
-729.622919
 20
535.001925
 30
0.0
 11
-729.622919
 21
532.001925
 31
0.0
  0
ARC
  5
2EC
330
1F
100
AcDbEntity
  8
LC-001-100-D00-0
 62
     7
370
    50
100
AcDbCircle
 10
-729.122919
 20
535.001925
 30
0.0
 40
0.5000000000003411
100
AcDbArc
 50
90.0
 51
180.0
  0
LINE
  5
2ED
330
1F
100
AcDbEntity
  8
LC-001-100-D00-0
 62
     7
370
    50
100
AcDbLine
 10
-728.472084
 20
535.501925
 30
0.0
 11
-729.122919
 21
535.501925
 31
0.0
  0
LINE
  5
2EE
330
1F
100
AcDbEntity
  8
LC-001-100-D00-0
 62
     7
370
    50
100
AcDbLine
 10
-728.472084
 20
537.501925
 30
0.0
 11
-728.472084
 21
535.501925
 31
0.0
  0
ARC
  5
2EF
330
1F
100
AcDbEntity
  8
LC-001-100-D00-0
 62
     7
370
    50
100
AcDbCircle
 10
-745.572919
 20
544.501925
 30
0.0
 40
1.0
100
AcDbArc
 50
0.0
 51
90.0
  0
LINE
  5
2F0
330
1F
100
AcDbEntity
  8
LC-001-100-D00-0
 62
     7
370
    50
100
AcDbLine
 10
-744.572919
 20
544.501925
 30
0.0
 11
-744.572919
 21
530.501925
 31
0.0
  0
ARC
  5
2F1
330
1F
100
AcDbEntity
  8
LC-001-100-D00-0
 62
     7
370
    50
100
AcDbCircle
 10
-743.572919
 20
530.501925
 30
0.0
 40
0.9999999999998863
100
AcDbArc
 50
180.0
 51
270.0
  0
LINE
  5
2F2
330
1F
100
AcDbEntity
  8
LC-001-100-D00-0
 62
     7
370
    50
100
AcDbLine
 10
-740.022919
 20
532.001925
 30
0.0
 11
-740.022919
 21
535.001925
 31
0.0
  0
LINE
  5
2F3
330
1F
100
AcDbEntity
  8
LC-001-100-D00-0
 62
     7
370
    50
100
AcDbLine
 10
-738.722919
 20
548.501925
 30
0.0
 11
-738.722891
 21
537.501925
 31
0.0
  0
LINE
  5
2F4
330
1F
100
AcDbEntity
  8
LC-001-100-D00-0
 62
     7
370
    50
100
AcDbLine
 10
-738.722919
 20
548.501925
 30
0.0
 11
-730.922919
 21
548.501925
 31
0.0
  0
LINE
  5
2F5
330
1F
100
AcDbEntity
  8
LC-001-100-D00-0
 62
     7
370
    50
100
AcDbLine
 10
-741.173775
 20
537.501925
 30
0.0
 11
-741.173775
 21
535.501925
 31
0.0
  0
LINE
  5
2F6
330
1F
100
AcDbEntity
  8
LC-001-100-D00-0
 62
     7
370
    50
100
AcDbLine
 10
-741.173775
 20
531.501924
 30
0.0
 11
-741.173775
 21
529.501926
 31
0.0
  0
ARC
  5
2F7
330
1F
100
AcDbEntity
  8
LC-001-100-D00-0
 62
     7
370
    50
100
AcDbCircle
 10
-740.522919
 20
532.001925
 30
0.0
 40
0.5000000000001137
100
AcDbArc
 50
270.0
 51
0.0
  0
LINE
  5
2F8
330
1F
100
AcDbEntity
  8
LC-001-100-D00-0
 62
     7
370
    50
100
AcDbLine
 10
-741.173775
 20
531.501924
 30
0.0
 11
-740.522919
 21
531.501925
 31
0.0
  0
LINE
  5
2F9
330
1F
100
AcDbEntity
  8
LC-001-100-D00-0
 62
     7
370
    50
100
AcDbLine
 10
-750.072927
 20
545.501925
 30
0.0
 11
-750.072919
 21
541.501925
 31
0.0
  0
LINE
  5
2FA
330
1F
100
AcDbEntity
  8
LC-001-100-D00-0
 62
     7
370
    50
100
AcDbLine
 10
-753.072948
 20
541.501925
 30
0.0
 11
-753.072919
 21
547.501925
 31
0.0
  0
ARC
  5
2FB
330
1F
100
AcDbEntity
  8
LC-001-100-D00-0
 62
     7
370
    50
100
AcDbCircle
 10
-752.072919
 20
547.501925
 30
0.0
 40
1.000000000000114
100
AcDbArc
 50
90.0
 51
180.0
  0
LINE
  5
2FC
330
1F
100
AcDbEntity
  8
LC-001-100-D00-0
 62
     7
370
    50
100
AcDbLine
 10
-740.522919
 20
535.501925
 30
0.0
 11
-741.173775
 21
535.501925
 31
0.0
  0
ARC
  5
2FD
330
1F
100
AcDbEntity
  8
LC-001-100-D00-0
 62
     7
370
    50
100
AcDbCircle
 10
-740.522919
 20
535.001925
 30
0.0
 40
0.5000000000001137
100
AcDbArc
 50
0.0
 51
90.0
  0
LINE
  5
2FE
330
1F
100
AcDbEntity
  8
LC-001-100-D00-0
 62
     7
370
    50
100
AcDbLine
 10
-753.072948
 20
541.501925
 30
0.0
 11
-750.072919
 21
541.501925
 31
0.0
  0
LINE
  5
2FF
330
1F
100
AcDbEntity
  8
LC-001-100-D00-0
 62
     7
370
    50
100
AcDbLine
 10
-738.722891
 20
537.501925
 30
0.0
 11
-741.173775
 21
537.501925
 31
0.0
  0
LINE
  5
300
330
1F
100
AcDbEntity
  8
LC-001-100-D00-0
 62
     7
370
    50
100
AcDbLine
 10
-741.173775
 20
529.501926
 30
0.0
 11
-743.572919
 21
529.501925
 31
0.0
  0
LINE
  5
301
330
1F
100
AcDbEntity
  8
LC-001-100-D00-0
 62
     7
370
    50
100
AcDbLine
 10
-750.072927
 20
545.501925
 30
0.0
 11
-745.572919
 21
545.501925
 31
0.0
  0
LINE
  5
302
330
1F
100
AcDbEntity
  8
LC-001-100-D00-0
 62
     7
370
    50
100
AcDbLine
 10
-752.072919
 20
548.501925
 30
0.0
 11
-738.722919
 21
548.501925
 31
0.0
  0
LINE
  5
303
330
1F
100
AcDbEntity
  8
LC-001-100-D00-0
 62
     7
370
    50
100
AcDbLine
 10
-721.572919
 20
541.501925
 30
0.0
 11
-719.572919
 21
541.501925
 31
0.0
  0
LINE
  5
304
330
1F
100
AcDbEntity
  8
LC-001-100-D00-0
 62
     7
370
    50
100
AcDbLine
 10
-750.072919
 20
541.501925
 30
0.0
 11
-748.072919
 21
541.501925
 31
0.0
  0
LINE
  5
305
330
1F
100
AcDbEntity
  8
LC-001-100-D00-0
 62
     7
370
    50
100
AcDbLine
 10
-748.072919
 20
541.501925
 30
0.0
 11
-744.572908
 21
541.501925
 31
0.0
  0
LINE
  5
306
330
1F
100
AcDbEntity
  8
LC-001-100-D00-0
 62
     7
370
    50
100
AcDbLine
 10
-725.072891
 20
541.501925
 30
0.0
 11
-721.572919
 21
541.501925
 31
0.0
  0
LINE
  5
307
330
1F
100
AcDbEntity
  8
LC-001-100-D00-0
 62
     7
370
    50
100
AcDbLine
 10
-309.622919
 20
532.270691
 30
0.0
 11
-309.622919
 21
534.733159
 31
0.0
  0
ARC
  5
308
330
1F
100
AcDbEntity
  8
LC-001-100-D00-0
 62
     7
370
    50
100
AcDbCircle
 10
-309.022919
 20
532.270691
 30
0.0
 40
0.6000000000000227
100
AcDbArc
 50
180.0
 51
255.0
  0
LINE
  5
309
330
1F
100
AcDbEntity
  8
LC-001-100-D00-0
 62
     7
370
    50
100
AcDbLine
 10
-308.472068
 20
531.501924
 30
0.0
 11
-309.17821
 21
531.691136
 31
0.0
  0
LINE
  5
30A
330
1F
100
AcDbEntity
  8
LC-001-100-D00-0
 62
     7
370
    50
100
AcDbLine
 10
-308.472068
 20
531.501924
 30
0.0
 11
-308.472068
 21
529.501926
 31
0.0
  0
LINE
  5
30B
330
1F
100
AcDbEntity
  8
LC-001-100-D00-0
 62
     7
370
    50
100
AcDbLine
 10
-311.422919
 20
530.501925
 30
0.0
 11
-310.422919
 21
529.501925
 31
0.0
  0
LINE
  5
30C
330
1F
100
AcDbEntity
  8
LC-001-100-D00-0
 62
     7
370
    50
100
AcDbLine
 10
-311.422919
 20
530.501925
 30
0.0
 11
-311.422922
 21
536.501925
 31
0.0
  0
LINE
  5
30D
330
1F
100
AcDbEntity
  8
LC-001-100-D00-0
 62
     7
370
    50
100
AcDbLine
 10
-310.42292
 20
537.501925
 30
0.0
 11
-311.422922
 21
536.501925
 31
0.0
  0
LINE
  5
30E
330
1F
100
AcDbEntity
  8
LC-001-100-D00-0
 62
     7
370
    50
100
AcDbLine
 10
-308.472068
 20
537.501925
 30
0.0
 11
-308.472068
 21
535.501925
 31
0.0
  0
LINE
  5
30F
330
1F
100
AcDbEntity
  8
LC-001-100-D00-0
 62
     7
370
    50
100
AcDbLine
 10
-309.17821
 20
535.312714
 30
0.0
 11
-308.472068
 21
535.501925
 31
0.0
  0
ARC
  5
310
330
1F
100
AcDbEntity
  8
LC-001-100-D00-0
 62
     7
370
    50
100
AcDbCircle
 10
-309.022919
 20
534.733159
 30
0.0
 40
0.6000000000002425
100
AcDbArc
 50
105.0
 51
180.0
  0
LINE
  5
311
330
1F
100
AcDbEntity
  8
LC-001-100-D00-0
 62
     7
370
    50
100
AcDbLine
 10
-310.422919
 20
529.501925
 30
0.0
 11
-308.472068
 21
529.501926
 31
0.0
  0
LINE
  5
312
330
1F
100
AcDbEntity
  8
LC-001-100-D00-0
 62
     7
370
    50
100
AcDbLine
 10
-310.42292
 20
537.501925
 30
0.0
 11
-308.472068
 21
537.501925
 31
0.0
  0
LINE
  5
313
330
1F
100
AcDbEntity
  8
LC-001-100-D00-0
 62
     7
370
    50
100
AcDbLine
 10
-320.022919
 20
534.733159
 30
0.0
 11
-320.022919
 21
532.270691
 31
0.0
  0
LINE
  5
314
330
1F
100
AcDbEntity
  8
LC-001-100-D00-0
 62
     7
370
    50
100
AcDbLine
 10
-318.222918
 20
536.501925
 30
0.0
 11
-319.22292
 21
537.501925
 31
0.0
  0
LINE
  5
315
330
1F
100
AcDbEntity
  8
LC-001-100-D00-0
 62
     7
370
    50
100
AcDbLine
 10
-318.222918
 20
536.501925
 30
0.0
 11
-318.222919
 21
530.501925
 31
0.0
  0
LINE
  5
316
330
1F
100
AcDbEntity
  8
LC-001-100-D00-0
 62
     7
370
    50
100
AcDbLine
 10
-319.222919
 20
529.501925
 30
0.0
 11
-318.222919
 21
530.501925
 31
0.0
  0
LINE
  5
317
330
1F
100
AcDbEntity
  8
LC-001-100-D00-0
 62
     7
370
    50
100
AcDbLine
 10
-321.173773
 20
531.501924
 30
0.0
 11
-321.173773
 21
529.501926
 31
0.0
  0
LINE
  5
318
330
1F
100
AcDbEntity
  8
LC-001-100-D00-0
 62
     7
370
    50
100
AcDbLine
 10
-320.467627
 20
531.691136
 30
0.0
 11
-321.173773
 21
531.501924
 31
0.0
  0
ARC
  5
319
330
1F
100
AcDbEntity
  8
LC-001-100-D00-0
 62
     7
370
    50
100
AcDbCircle
 10
-320.622919
 20
532.270691
 30
0.0
 40
0.5999999999997591
100
AcDbArc
 50
285.0
 51
0.0
  0
ARC
  5
31A
330
1F
100
AcDbEntity
  8
LC-001-100-D00-0
 62
     7
370
    50
100
AcDbCircle
 10
-320.622919
 20
534.733159
 30
0.0
 40
0.6000000000001364
100
AcDbArc
 50
0.0
 51
75.0
  0
LINE
  5
31B
330
1F
100
AcDbEntity
  8
LC-001-100-D00-0
 62
     7
370
    50
100
AcDbLine
 10
-321.173773
 20
535.501925
 30
0.0
 11
-320.467627
 21
535.312714
 31
0.0
  0
LINE
  5
31C
330
1F
100
AcDbEntity
  8
LC-001-100-D00-0
 62
     7
370
    50
100
AcDbLine
 10
-321.173773
 20
537.501925
 30
0.0
 11
-321.173773
 21
535.501925
 31
0.0
  0
LINE
  5
31D
330
1F
100
AcDbEntity
  8
LC-001-100-D00-0
 62
     7
370
    50
100
AcDbLine
 10
-321.173773
 20
529.501926
 30
0.0
 11
-319.222919
 21
529.501925
 31
0.0
  0
LINE
  5
31E
330
1F
100
AcDbEntity
  8
LC-001-100-D00-0
 62
     7
370
    50
100
AcDbLine
 10
-321.173773
 20
537.501925
 30
0.0
 11
-319.22292
 21
537.501925
 31
0.0
  0
LINE
  5
31F
330
1F
100
AcDbEntity
  8
LC-001-100-D00-0
 62
     7
370
    50
100
AcDbLine
 10
-318.222919
 20
530.501925
 30
0.0
 11
-318.065079
 21
530.501925
 31
0.0
  0
LINE
  5
320
330
1F
100
AcDbEntity
  8
LC-001-100-D00-0
 62
     7
370
    50
100
AcDbLine
 10
-311.580758
 20
530.501925
 30
0.0
 11
-311.422919
 21
530.501925
 31
0.0
  0
LINE
  5
321
330
1F
100
AcDbEntity
  8
LC-001-100-D00-0
 62
     7
370
    50
100
AcDbLine
 10
-310.422919
 20
529.501925
 30
0.0
 11
-310.958701
 21
529.501925
 31
0.0
  0
LINE
  5
322
330
1F
100
AcDbEntity
  8
LC-001-100-D00-0
 62
     7
370
    50
100
AcDbLine
 10
-318.687137
 20
529.501925
 30
0.0
 11
-319.222919
 21
529.501925
 31
0.0
  0
LINE
  5
323
330
1F
100
AcDbEntity
  8
LC-001-100-D00-0
 62
     7
370
    50
100
AcDbLine
 10
-308.472068
 20
537.501925
 30
0.0
 11
-310.922921
 21
537.501925
 31
0.0
  0
LINE
  5
324
330
1F
100
AcDbEntity
  8
LC-001-100-D00-0
 62
     7
370
    50
100
AcDbLine
 10
-310.922921
 20
537.501925
 30
0.0
 11
-310.922919
 21
548.501925
 31
0.0
  0
LINE
  5
325
330
1F
100
AcDbEntity
  8
LC-001-100-D00-0
 62
     7
370
    50
100
AcDbLine
 10
-310.922919
 20
548.501925
 30
0.0
 11
-297.572919
 21
548.501925
 31
0.0
  0
LINE
  5
326
330
1F
100
AcDbEntity
  8
LC-001-100-D00-0
 62
     7
370
    50
100
AcDbLine
 10
-296.572919
 20
547.501925
 30
0.0
 11
-296.572917
 21
541.501925
 31
0.0
  0
LINE
  5
327
330
1F
100
AcDbEntity
  8
LC-001-100-D00-0
 62
     7
370
    50
100
AcDbLine
 10
-299.572919
 20
541.501925
 30
0.0
 11
-296.572917
 21
541.501925
 31
0.0
  0
LINE
  5
328
330
1F
100
AcDbEntity
  8
LC-001-100-D00-0
 62
     7
370
    50
100
AcDbLine
 10
-299.572919
 20
541.501925
 30
0.0
 11
-299.572916
 21
545.501925
 31
0.0
  0
LINE
  5
329
330
1F
100
AcDbEntity
  8
LC-001-100-D00-0
 62
     7
370
    50
100
AcDbLine
 10
-304.072919
 20
545.501925
 30
0.0
 11
-299.572916
 21
545.501925
 31
0.0
  0
ARC
  5
32A
330
1F
100
AcDbEntity
  8
LC-001-100-D00-0
 62
     7
370
    50
100
AcDbCircle
 10
-304.072919
 20
544.501925
 30
0.0
 40
1.000000000000114
100
AcDbArc
 50
90.0
 51
180.0
  0
LINE
  5
32B
330
1F
100
AcDbEntity
  8
LC-001-100-D00-0
 62
     7
370
    50
100
AcDbLine
 10
-305.072919
 20
530.501925
 30
0.0
 11
-305.072919
 21
544.501925
 31
0.0
  0
ARC
  5
32C
330
1F
100
AcDbEntity
  8
LC-001-100-D00-0
 62
     7
370
    50
100
AcDbCircle
 10
-306.072919
 20
530.501925
 30
0.0
 40
1.000000000000114
100
AcDbArc
 50
270.0
 51
0.0
  0
LINE
  5
32D
330
1F
100
AcDbEntity
  8
LC-001-100-D00-0
 62
     7
370
    50
100
AcDbLine
 10
-306.072919
 20
529.501925
 30
0.0
 11
-308.472068
 21
529.501926
 31
0.0
  0
LINE
  5
32E
330
1F
100
AcDbEntity
  8
LC-001-100-D00-0
 62
     7
370
    50
100
AcDbLine
 10
-308.472068
 20
531.501924
 30
0.0
 11
-308.472068
 21
529.501926
 31
0.0
  0
LINE
  5
32F
330
1F
100
AcDbEntity
  8
LC-001-100-D00-0
 62
     7
370
    50
100
AcDbLine
 10
-309.122919
 20
531.501925
 30
0.0
 11
-308.472068
 21
531.501924
 31
0.0
  0
ARC
  5
330
330
1F
100
AcDbEntity
  8
LC-001-100-D00-0
 62
     7
370
    50
100
AcDbCircle
 10
-309.122919
 20
532.001925
 30
0.0
 40
0.5000000000002274
100
AcDbArc
 50
180.0
 51
270.0
  0
LINE
  5
331
330
1F
100
AcDbEntity
  8
LC-001-100-D00-0
 62
     7
370
    50
100
AcDbLine
 10
-309.622919
 20
535.001925
 30
0.0
 11
-309.622919
 21
532.001925
 31
0.0
  0
ARC
  5
332
330
1F
100
AcDbEntity
  8
LC-001-100-D00-0
 62
     7
370
    50
100
AcDbCircle
 10
-309.122919
 20
535.001925
 30
0.0
 40
0.4999999999998863
100
AcDbArc
 50
90.0
 51
180.0
  0
LINE
  5
333
330
1F
100
AcDbEntity
  8
LC-001-100-D00-0
 62
     7
370
    50
100
AcDbLine
 10
-308.472068
 20
535.501925
 30
0.0
 11
-309.122919
 21
535.501925
 31
0.0
  0
LINE
  5
334
330
1F
100
AcDbEntity
  8
LC-001-100-D00-0
 62
     7
370
    50
100
AcDbLine
 10
-308.472068
 20
537.501925
 30
0.0
 11
-308.472068
 21
535.501925
 31
0.0
  0
ARC
  5
335
330
1F
100
AcDbEntity
  8
LC-001-100-D00-0
 62
     7
370
    50
100
AcDbCircle
 10
-297.572919
 20
547.501925
 30
0.0
 40
1.0
100
AcDbArc
 50
0.0
 51
90.0
  0
ARC
  5
336
330
1F
100
AcDbEntity
  8
LC-001-100-D00-0
 62
     7
370
    50
100
AcDbCircle
 10
-325.572919
 20
544.501925
 30
0.0
 40
0.9999999999998863
100
AcDbArc
 50
0.0
 51
90.0
  0
LINE
  5
337
330
1F
100
AcDbEntity
  8
LC-001-100-D00-0
 62
     7
370
    50
100
AcDbLine
 10
-324.572919
 20
544.501925
 30
0.0
 11
-324.572919
 21
530.501925
 31
0.0
  0
ARC
  5
338
330
1F
100
AcDbEntity
  8
LC-001-100-D00-0
 62
     7
370
    50
100
AcDbCircle
 10
-323.572919
 20
530.501925
 30
0.0
 40
1.000000000000057
100
AcDbArc
 50
180.0
 51
270.0
  0
LINE
  5
339
330
1F
100
AcDbEntity
  8
LC-001-100-D00-0
 62
     7
370
    50
100
AcDbLine
 10
-320.022919
 20
532.001925
 30
0.0
 11
-320.022919
 21
535.001925
 31
0.0
  0
LINE
  5
33A
330
1F
100
AcDbEntity
  8
LC-001-100-D00-0
 62
     7
370
    50
100
AcDbLine
 10
-318.722919
 20
548.501925
 30
0.0
 11
-318.722919
 21
537.501925
 31
0.0
  0
LINE
  5
33B
330
1F
100
AcDbEntity
  8
LC-001-100-D00-0
 62
     7
370
    50
100
AcDbLine
 10
-318.722919
 20
548.501925
 30
0.0
 11
-310.922919
 21
548.501925
 31
0.0
  0
LINE
  5
33C
330
1F
100
AcDbEntity
  8
LC-001-100-D00-0
 62
     7
370
    50
100
AcDbLine
 10
-321.173773
 20
537.501925
 30
0.0
 11
-321.173773
 21
535.501925
 31
0.0
  0
LINE
  5
33D
330
1F
100
AcDbEntity
  8
LC-001-100-D00-0
 62
     7
370
    50
100
AcDbLine
 10
-321.173773
 20
531.501924
 30
0.0
 11
-321.173773
 21
529.501926
 31
0.0
  0
ARC
  5
33E
330
1F
100
AcDbEntity
  8
LC-001-100-D00-0
 62
     7
370
    50
100
AcDbCircle
 10
-320.522919
 20
532.001925
 30
0.0
 40
0.5000000000001137
100
AcDbArc
 50
270.0
 51
0.0
  0
LINE
  5
33F
330
1F
100
AcDbEntity
  8
LC-001-100-D00-0
 62
     7
370
    50
100
AcDbLine
 10
-321.173773
 20
531.501924
 30
0.0
 11
-320.522919
 21
531.501925
 31
0.0
  0
LINE
  5
340
330
1F
100
AcDbEntity
  8
LC-001-100-D00-0
 62
     7
370
    50
100
AcDbLine
 10
-330.072918
 20
545.501925
 30
0.0
 11
-330.072919
 21
541.501925
 31
0.0
  0
LINE
  5
341
330
1F
100
AcDbEntity
  8
LC-001-100-D00-0
 62
     7
370
    50
100
AcDbLine
 10
-333.072916
 20
541.501925
 30
0.0
 11
-333.072919
 21
547.501925
 31
0.0
  0
ARC
  5
342
330
1F
100
AcDbEntity
  8
LC-001-100-D00-0
 62
     7
370
    50
100
AcDbCircle
 10
-332.072919
 20
547.501925
 30
0.0
 40
1.000000000000114
100
AcDbArc
 50
90.0
 51
180.0
  0
LINE
  5
343
330
1F
100
AcDbEntity
  8
LC-001-100-D00-0
 62
     7
370
    50
100
AcDbLine
 10
-320.522919
 20
535.501925
 30
0.0
 11
-321.173773
 21
535.501925
 31
0.0
  0
ARC
  5
344
330
1F
100
AcDbEntity
  8
LC-001-100-D00-0
 62
     7
370
    50
100
AcDbCircle
 10
-320.522919
 20
535.001925
 30
0.0
 40
0.5000000000001137
100
AcDbArc
 50
0.0
 51
90.0
  0
LINE
  5
345
330
1F
100
AcDbEntity
  8
LC-001-100-D00-0
 62
     7
370
    50
100
AcDbLine
 10
-318.722919
 20
537.501925
 30
0.0
 11
-321.173773
 21
537.501925
 31
0.0
  0
LINE
  5
346
330
1F
100
AcDbEntity
  8
LC-001-100-D00-0
 62
     7
370
    50
100
AcDbLine
 10
-321.173773
 20
529.501926
 30
0.0
 11
-323.572919
 21
529.501925
 31
0.0
  0
LINE
  5
347
330
1F
100
AcDbEntity
  8
LC-001-100-D00-0
 62
     7
370
    50
100
AcDbLine
 10
-330.072918
 20
545.501925
 30
0.0
 11
-325.572919
 21
545.501925
 31
0.0
  0
LINE
  5
348
330
1F
100
AcDbEntity
  8
LC-001-100-D00-0
 62
     7
370
    50
100
AcDbLine
 10
-332.072919
 20
548.501925
 30
0.0
 11
-318.722919
 21
548.501925
 31
0.0
  0
LINE
  5
349
330
1F
100
AcDbEntity
  8
LC-001-100-D00-0
 62
     7
370
    50
100
AcDbLine
 10
-333.072916
 20
541.501925
 30
0.0
 11
-330.072919
 21
541.501925
 31
0.0
  0
LINE
  5
34A
330
1F
100
AcDbEntity
  8
LC-001-100-D00-0
 62
     7
370
    50
100
AcDbLine
 10
-301.572919
 20
541.501925
 30
0.0
 11
-299.572919
 21
541.501925
 31
0.0
  0
LINE
  5
34B
330
1F
100
AcDbEntity
  8
LC-001-100-D00-0
 62
     7
370
    50
100
AcDbLine
 10
-330.072919
 20
541.501925
 30
0.0
 11
-328.072919
 21
541.501925
 31
0.0
  0
LINE
  5
34C
330
1F
100
AcDbEntity
  8
LC-001-100-D00-0
 62
     7
370
    50
100
AcDbLine
 10
-328.072919
 20
541.501925
 30
0.0
 11
-324.572921
 21
541.501925
 31
0.0
  0
LINE
  5
34D
330
1F
100
AcDbEntity
  8
LC-001-100-D00-0
 62
     7
370
    50
100
AcDbLine
 10
-305.072919
 20
541.501925
 30
0.0
 11
-301.572919
 21
541.501925
 31
0.0
  0
LINE
  5
34E
330
1F
100
AcDbEntity
  8
LC-001-100-D00-0
 62
     7
370
    50
100
AcDbLine
 10
310.377081
 20
532.270691
 30
0.0
 11
310.377081
 21
534.733159
 31
0.0
  0
ARC
  5
34F
330
1F
100
AcDbEntity
  8
LC-001-100-D00-0
 62
     7
370
    50
100
AcDbCircle
 10
310.977081
 20
532.270691
 30
0.0
 40
0.6000000000000227
100
AcDbArc
 50
180.0
 51
255.0
  0
LINE
  5
350
330
1F
100
AcDbEntity
  8
LC-001-100-D00-0
 62
     7
370
    50
100
AcDbLine
 10
311.527937
 20
531.501924
 30
0.0
 11
310.82179
 21
531.691136
 31
0.0
  0
LINE
  5
351
330
1F
100
AcDbEntity
  8
LC-001-100-D00-0
 62
     7
370
    50
100
AcDbLine
 10
311.527937
 20
531.501924
 30
0.0
 11
311.527937
 21
529.501926
 31
0.0
  0
LINE
  5
352
330
1F
100
AcDbEntity
  8
LC-001-100-D00-0
 62
     7
370
    50
100
AcDbLine
 10
308.577081
 20
530.501925
 30
0.0
 11
309.577081
 21
529.501925
 31
0.0
  0
LINE
  5
353
330
1F
100
AcDbEntity
  8
LC-001-100-D00-0
 62
     7
370
    50
100
AcDbLine
 10
308.577081
 20
530.501925
 30
0.0
 11
308.57709
 21
536.501925
 31
0.0
  0
LINE
  5
354
330
1F
100
AcDbEntity
  8
LC-001-100-D00-0
 62
     7
370
    50
100
AcDbLine
 10
309.577077
 20
537.501925
 30
0.0
 11
308.57709
 21
536.501925
 31
0.0
  0
LINE
  5
355
330
1F
100
AcDbEntity
  8
LC-001-100-D00-0
 62
     7
370
    50
100
AcDbLine
 10
311.527937
 20
537.501925
 30
0.0
 11
311.527937
 21
535.501925
 31
0.0
  0
LINE
  5
356
330
1F
100
AcDbEntity
  8
LC-001-100-D00-0
 62
     7
370
    50
100
AcDbLine
 10
310.82179
 20
535.312714
 30
0.0
 11
311.527937
 21
535.501925
 31
0.0
  0
ARC
  5
357
330
1F
100
AcDbEntity
  8
LC-001-100-D00-0
 62
     7
370
    50
100
AcDbCircle
 10
310.977081
 20
534.733159
 30
0.0
 40
0.6000000000005277
100
AcDbArc
 50
105.0
 51
180.0
  0
LINE
  5
358
330
1F
100
AcDbEntity
  8
LC-001-100-D00-0
 62
     7
370
    50
100
AcDbLine
 10
309.577081
 20
529.501925
 30
0.0
 11
311.527937
 21
529.501926
 31
0.0
  0
LINE
  5
359
330
1F
100
AcDbEntity
  8
LC-001-100-D00-0
 62
     7
370
    50
100
AcDbLine
 10
309.577077
 20
537.501925
 30
0.0
 11
311.527937
 21
537.501925
 31
0.0
  0
LINE
  5
35A
330
1F
100
AcDbEntity
  8
LC-001-100-D00-0
 62
     7
370
    50
100
AcDbLine
 10
299.977081
 20
534.733159
 30
0.0
 11
299.977081
 21
532.270691
 31
0.0
  0
LINE
  5
35B
330
1F
100
AcDbEntity
  8
LC-001-100-D00-0
 62
     7
370
    50
100
AcDbLine
 10
301.777094
 20
536.501925
 30
0.0
 11
300.777107
 21
537.501925
 31
0.0
  0
LINE
  5
35C
330
1F
100
AcDbEntity
  8
LC-001-100-D00-0
 62
     7
370
    50
100
AcDbLine
 10
301.777094
 20
536.501925
 30
0.0
 11
301.777081
 21
530.501925
 31
0.0
  0
LINE
  5
35D
330
1F
100
AcDbEntity
  8
LC-001-100-D00-0
 62
     7
370
    50
100
AcDbLine
 10
300.777081
 20
529.501925
 30
0.0
 11
301.777081
 21
530.501925
 31
0.0
  0
LINE
  5
35E
330
1F
100
AcDbEntity
  8
LC-001-100-D00-0
 62
     7
370
    50
100
AcDbLine
 10
298.826247
 20
531.501924
 30
0.0
 11
298.826247
 21
529.501926
 31
0.0
  0
LINE
  5
35F
330
1F
100
AcDbEntity
  8
LC-001-100-D00-0
 62
     7
370
    50
100
AcDbLine
 10
299.532373
 20
531.691136
 30
0.0
 11
298.826247
 21
531.501924
 31
0.0
  0
ARC
  5
360
330
1F
100
AcDbEntity
  8
LC-001-100-D00-0
 62
     7
370
    50
100
AcDbCircle
 10
299.377081
 20
532.270691
 30
0.0
 40
0.5999999999997591
100
AcDbArc
 50
285.0
 51
0.0
  0
ARC
  5
361
330
1F
100
AcDbEntity
  8
LC-001-100-D00-0
 62
     7
370
    50
100
AcDbCircle
 10
299.377081
 20
534.733159
 30
0.0
 40
0.6000000000005343
100
AcDbArc
 50
0.0
 51
75.0
  0
LINE
  5
362
330
1F
100
AcDbEntity
  8
LC-001-100-D00-0
 62
     7
370
    50
100
AcDbLine
 10
298.826247
 20
535.501925
 30
0.0
 11
299.532373
 21
535.312714
 31
0.0
  0
LINE
  5
363
330
1F
100
AcDbEntity
  8
LC-001-100-D00-0
 62
     7
370
    50
100
AcDbLine
 10
298.826247
 20
537.501925
 30
0.0
 11
298.826247
 21
535.501925
 31
0.0
  0
LINE
  5
364
330
1F
100
AcDbEntity
  8
LC-001-100-D00-0
 62
     7
370
    50
100
AcDbLine
 10
298.826247
 20
529.501926
 30
0.0
 11
300.777081
 21
529.501925
 31
0.0
  0
LINE
  5
365
330
1F
100
AcDbEntity
  8
LC-001-100-D00-0
 62
     7
370
    50
100
AcDbLine
 10
298.826247
 20
537.501925
 30
0.0
 11
300.777107
 21
537.501925
 31
0.0
  0
LINE
  5
366
330
1F
100
AcDbEntity
  8
LC-001-100-D00-0
 62
     7
370
    50
100
AcDbLine
 10
301.777081
 20
530.501925
 30
0.0
 11
301.934921
 21
530.501925
 31
0.0
  0
LINE
  5
367
330
1F
100
AcDbEntity
  8
LC-001-100-D00-0
 62
     7
370
    50
100
AcDbLine
 10
308.419242
 20
530.501925
 30
0.0
 11
308.577081
 21
530.501925
 31
0.0
  0
LINE
  5
368
330
1F
100
AcDbEntity
  8
LC-001-100-D00-0
 62
     7
370
    50
100
AcDbLine
 10
309.577081
 20
529.501925
 30
0.0
 11
309.041299
 21
529.501925
 31
0.0
  0
LINE
  5
369
330
1F
100
AcDbEntity
  8
LC-001-100-D00-0
 62
     7
370
    50
100
AcDbLine
 10
301.312863
 20
529.501925
 30
0.0
 11
300.777081
 21
529.501925
 31
0.0
  0
LINE
  5
36A
330
1F
100
AcDbEntity
  8
LC-001-100-D00-0
 62
     7
370
    50
100
AcDbLine
 10
311.527937
 20
537.501925
 30
0.0
 11
309.077054
 21
537.501925
 31
0.0
  0
LINE
  5
36B
330
1F
100
AcDbEntity
  8
LC-001-100-D00-0
 62
     7
370
    50
100
AcDbLine
 10
309.077054
 20
537.501925
 30
0.0
 11
309.077081
 21
548.501925
 31
0.0
  0
LINE
  5
36C
330
1F
100
AcDbEntity
  8
LC-001-100-D00-0
 62
     7
370
    50
100
AcDbLine
 10
309.077081
 20
548.501925
 30
0.0
 11
322.427081
 21
548.501925
 31
0.0
  0
ARC
  5
36D
330
1F
100
AcDbEntity
  8
LC-001-100-D00-0
 62
     7
370
    50
100
AcDbCircle
 10
322.427081
 20
547.501925
 30
0.0
 40
0.9999999999996021
100
AcDbArc
 50
0.0
 51
90.0
  0
LINE
  5
36E
330
1F
100
AcDbEntity
  8
LC-001-100-D00-0
 62
     7
370
    50
100
AcDbLine
 10
323.427081
 20
547.501925
 30
0.0
 11
323.42711
 21
541.501925
 31
0.0
  0
LINE
  5
36F
330
1F
100
AcDbEntity
  8
LC-001-100-D00-0
 62
     7
370
    50
100
AcDbLine
 10
320.427081
 20
541.501925
 30
0.0
 11
323.42711
 21
541.501925
 31
0.0
  0
LINE
  5
370
330
1F
100
AcDbEntity
  8
LC-001-100-D00-0
 62
     7
370
    50
100
AcDbLine
 10
320.427081
 20
541.501925
 30
0.0
 11
320.427089
 21
545.501925
 31
0.0
  0
LINE
  5
371
330
1F
100
AcDbEntity
  8
LC-001-100-D00-0
 62
     7
370
    50
100
AcDbLine
 10
315.927081
 20
545.501925
 30
0.0
 11
320.427089
 21
545.501925
 31
0.0
  0
ARC
  5
372
330
1F
100
AcDbEntity
  8
LC-001-100-D00-0
 62
     7
370
    50
100
AcDbCircle
 10
315.927081
 20
544.501925
 30
0.0
 40
0.9999999999996589
100
AcDbArc
 50
90.0
 51
180.0
  0
LINE
  5
373
330
1F
100
AcDbEntity
  8
LC-001-100-D00-0
 62
     7
370
    50
100
AcDbLine
 10
314.927081
 20
530.501925
 30
0.0
 11
314.927081
 21
544.501925
 31
0.0
  0
ARC
  5
374
330
1F
100
AcDbEntity
  8
LC-001-100-D00-0
 62
     7
370
    50
100
AcDbCircle
 10
313.927081
 20
530.501925
 30
0.0
 40
1.000000000000114
100
AcDbArc
 50
270.0
 51
0.0
  0
LINE
  5
375
330
1F
100
AcDbEntity
  8
LC-001-100-D00-0
 62
     7
370
    50
100
AcDbLine
 10
313.927081
 20
529.501925
 30
0.0
 11
311.527937
 21
529.501926
 31
0.0
  0
LINE
  5
376
330
1F
100
AcDbEntity
  8
LC-001-100-D00-0
 62
     7
370
    50
100
AcDbLine
 10
311.527937
 20
531.501924
 30
0.0
 11
311.527937
 21
529.501926
 31
0.0
  0
LINE
  5
377
330
1F
100
AcDbEntity
  8
LC-001-100-D00-0
 62
     7
370
    50
100
AcDbLine
 10
310.877081
 20
531.501925
 30
0.0
 11
311.527937
 21
531.501924
 31
0.0
  0
ARC
  5
378
330
1F
100
AcDbEntity
  8
LC-001-100-D00-0
 62
     7
370
    50
100
AcDbCircle
 10
310.877081
 20
532.001925
 30
0.0
 40
0.5000000000001137
100
AcDbArc
 50
180.0
 51
270.0
  0
LINE
  5
379
330
1F
100
AcDbEntity
  8
LC-001-100-D00-0
 62
     7
370
    50
100
AcDbLine
 10
310.377081
 20
535.001925
 30
0.0
 11
310.377081
 21
532.001925
 31
0.0
  0
ARC
  5
37A
330
1F
100
AcDbEntity
  8
LC-001-100-D00-0
 62
     7
370
    50
100
AcDbCircle
 10
310.877081
 20
535.001925
 30
0.0
 40
0.5000000000003411
100
AcDbArc
 50
90.0
 51
180.0
  0
LINE
  5
37B
330
1F
100
AcDbEntity
  8
LC-001-100-D00-0
 62
     7
370
    50
100
AcDbLine
 10
311.527937
 20
535.501925
 30
0.0
 11
310.877081
 21
535.501925
 31
0.0
  0
LINE
  5
37C
330
1F
100
AcDbEntity
  8
LC-001-100-D00-0
 62
     7
370
    50
100
AcDbLine
 10
311.527937
 20
537.501925
 30
0.0
 11
311.527937
 21
535.501925
 31
0.0
  0
ARC
  5
37D
330
1F
100
AcDbEntity
  8
LC-001-100-D00-0
 62
     7
370
    50
100
AcDbCircle
 10
294.427081
 20
544.501925
 30
0.0
 40
1.000000000000171
100
AcDbArc
 50
0.0
 51
90.0
  0
LINE
  5
37E
330
1F
100
AcDbEntity
  8
LC-001-100-D00-0
 62
     7
370
    50
100
AcDbLine
 10
295.427081
 20
544.501925
 30
0.0
 11
295.427081
 21
530.501925
 31
0.0
  0
ARC
  5
37F
330
1F
100
AcDbEntity
  8
LC-001-100-D00-0
 62
     7
370
    50
100
AcDbCircle
 10
296.427081
 20
530.501925
 30
0.0
 40
0.9999999999998863
100
AcDbArc
 50
180.0
 51
270.0
  0
LINE
  5
380
330
1F
100
AcDbEntity
  8
LC-001-100-D00-0
 62
     7
370
    50
100
AcDbLine
 10
299.977081
 20
532.001925
 30
0.0
 11
299.977081
 21
535.001925
 31
0.0
  0
LINE
  5
381
330
1F
100
AcDbEntity
  8
LC-001-100-D00-0
 62
     7
370
    50
100
AcDbLine
 10
301.277081
 20
548.501925
 30
0.0
 11
301.277071
 21
537.501925
 31
0.0
  0
LINE
  5
382
330
1F
100
AcDbEntity
  8
LC-001-100-D00-0
 62
     7
370
    50
100
AcDbLine
 10
301.277081
 20
548.501925
 30
0.0
 11
309.077081
 21
548.501925
 31
0.0
  0
LINE
  5
383
330
1F
100
AcDbEntity
  8
LC-001-100-D00-0
 62
     7
370
    50
100
AcDbLine
 10
298.826247
 20
537.501925
 30
0.0
 11
298.826247
 21
535.501925
 31
0.0
  0
LINE
  5
384
330
1F
100
AcDbEntity
  8
LC-001-100-D00-0
 62
     7
370
    50
100
AcDbLine
 10
298.826247
 20
531.501924
 30
0.0
 11
298.826247
 21
529.501926
 31
0.0
  0
ARC
  5
385
330
1F
100
AcDbEntity
  8
LC-001-100-D00-0
 62
     7
370
    50
100
AcDbCircle
 10
299.477081
 20
532.001925
 30
0.0
 40
0.4999999999997726
100
AcDbArc
 50
270.0
 51
0.0
  0
LINE
  5
386
330
1F
100
AcDbEntity
  8
LC-001-100-D00-0
 62
     7
370
    50
100
AcDbLine
 10
298.826247
 20
531.501924
 30
0.0
 11
299.477081
 21
531.501925
 31
0.0
  0
LINE
  5
387
330
1F
100
AcDbEntity
  8
LC-001-100-D00-0
 62
     7
370
    50
100
AcDbLine
 10
289.927095
 20
545.501925
 30
0.0
 11
289.927081
 21
541.501925
 31
0.0
  0
LINE
  5
388
330
1F
100
AcDbEntity
  8
LC-001-100-D00-0
 62
     7
370
    50
100
AcDbLine
 10
286.927074
 20
541.501925
 30
0.0
 11
286.927081
 21
547.501925
 31
0.0
  0
ARC
  5
389
330
1F
100
AcDbEntity
  8
LC-001-100-D00-0
 62
     7
370
    50
100
AcDbCircle
 10
287.927081
 20
547.501925
 30
0.0
 40
0.9999999999996589
100
AcDbArc
 50
90.0
 51
180.0
  0
LINE
  5
38A
330
1F
100
AcDbEntity
  8
LC-001-100-D00-0
 62
     7
370
    50
100
AcDbLine
 10
299.477081
 20
535.501925
 30
0.0
 11
298.826247
 21
535.501925
 31
0.0
  0
ARC
  5
38B
330
1F
100
AcDbEntity
  8
LC-001-100-D00-0
 62
     7
370
    50
100
AcDbCircle
 10
299.477081
 20
535.001925
 30
0.0
 40
0.4999999999998295
100
AcDbArc
 50
0.0
 51
90.0
  0
LINE
  5
38C
330
1F
100
AcDbEntity
  8
LC-001-100-D00-0
 62
     7
370
    50
100
AcDbLine
 10
286.927074
 20
541.501925
 30
0.0
 11
289.927081
 21
541.501925
 31
0.0
  0
LINE
  5
38D
330
1F
100
AcDbEntity
  8
LC-001-100-D00-0
 62
     7
370
    50
100
AcDbLine
 10
301.277071
 20
537.501925
 30
0.0
 11
298.826247
 21
537.501925
 31
0.0
  0
LINE
  5
38E
330
1F
100
AcDbEntity
  8
LC-001-100-D00-0
 62
     7
370
    50
100
AcDbLine
 10
298.826247
 20
529.501926
 30
0.0
 11
296.427081
 21
529.501925
 31
0.0
  0
LINE
  5
38F
330
1F
100
AcDbEntity
  8
LC-001-100-D00-0
 62
     7
370
    50
100
AcDbLine
 10
289.927095
 20
545.501925
 30
0.0
 11
294.427081
 21
545.501925
 31
0.0
  0
LINE
  5
390
330
1F
100
AcDbEntity
  8
LC-001-100-D00-0
 62
     7
370
    50
100
AcDbLine
 10
287.927081
 20
548.501925
 30
0.0
 11
301.277081
 21
548.501925
 31
0.0
  0
LINE
  5
391
330
1F
100
AcDbEntity
  8
LC-001-100-D00-0
 62
     7
370
    50
100
AcDbLine
 10
318.427081
 20
541.501925
 30
0.0
 11
320.427081
 21
541.501925
 31
0.0
  0
LINE
  5
392
330
1F
100
AcDbEntity
  8
LC-001-100-D00-0
 62
     7
370
    50
100
AcDbLine
 10
289.927081
 20
541.501925
 30
0.0
 11
291.927081
 21
541.501925
 31
0.0
  0
LINE
  5
393
330
1F
100
AcDbEntity
  8
LC-001-100-D00-0
 62
     7
370
    50
100
AcDbLine
 10
291.927081
 20
541.501925
 30
0.0
 11
295.427053
 21
541.501925
 31
0.0
  0
LINE
  5
394
330
1F
100
AcDbEntity
  8
LC-001-100-D00-0
 62
     7
370
    50
100
AcDbLine
 10
314.927071
 20
541.501925
 30
0.0
 11
318.427081
 21
541.501925
 31
0.0
  0
LINE
  5
395
330
1F
100
AcDbEntity
  8
LC-001-100-D00-0
 62
     7
370
    50
100
AcDbLine
 10
-109.622919
 20
532.270691
 30
0.0
 11
-109.622919
 21
534.733159
 31
0.0
  0
ARC
  5
396
330
1F
100
AcDbEntity
  8
LC-001-100-D00-0
 62
     7
370
    50
100
AcDbCircle
 10
-109.022919
 20
532.270691
 30
0.0
 40
0.6000000000001364
100
AcDbArc
 50
180.0
 51
255.0
  0
LINE
  5
397
330
1F
100
AcDbEntity
  8
LC-001-100-D00-0
 62
     7
370
    50
100
AcDbLine
 10
-108.472065
 20
531.501924
 30
0.0
 11
-109.17821
 21
531.691136
 31
0.0
  0
LINE
  5
398
330
1F
100
AcDbEntity
  8
LC-001-100-D00-0
 62
     7
370
    50
100
AcDbLine
 10
-108.472065
 20
531.501924
 30
0.0
 11
-108.472065
 21
529.501926
 31
0.0
  0
LINE
  5
399
330
1F
100
AcDbEntity
  8
LC-001-100-D00-0
 62
     7
370
    50
100
AcDbLine
 10
-111.422919
 20
530.501925
 30
0.0
 11
-110.422919
 21
529.501925
 31
0.0
  0
LINE
  5
39A
330
1F
100
AcDbEntity
  8
LC-001-100-D00-0
 62
     7
370
    50
100
AcDbLine
 10
-111.422919
 20
530.501925
 30
0.0
 11
-111.422919
 21
536.501925
 31
0.0
  0
LINE
  5
39B
330
1F
100
AcDbEntity
  8
LC-001-100-D00-0
 62
     7
370
    50
100
AcDbLine
 10
-110.422917
 20
537.501925
 30
0.0
 11
-111.422919
 21
536.501925
 31
0.0
  0
LINE
  5
39C
330
1F
100
AcDbEntity
  8
LC-001-100-D00-0
 62
     7
370
    50
100
AcDbLine
 10
-108.472065
 20
537.501925
 30
0.0
 11
-108.472065
 21
535.501925
 31
0.0
  0
LINE
  5
39D
330
1F
100
AcDbEntity
  8
LC-001-100-D00-0
 62
     7
370
    50
100
AcDbLine
 10
-109.17821
 20
535.312714
 30
0.0
 11
-108.472065
 21
535.501925
 31
0.0
  0
ARC
  5
39E
330
1F
100
AcDbEntity
  8
LC-001-100-D00-0
 62
     7
370
    50
100
AcDbCircle
 10
-109.022919
 20
534.733159
 30
0.0
 40
0.6000000000002351
100
AcDbArc
 50
105.0
 51
180.0
  0
LINE
  5
39F
330
1F
100
AcDbEntity
  8
LC-001-100-D00-0
 62
     7
370
    50
100
AcDbLine
 10
-110.422919
 20
529.501925
 30
0.0
 11
-108.472065
 21
529.501926
 31
0.0
  0
LINE
  5
3A0
330
1F
100
AcDbEntity
  8
LC-001-100-D00-0
 62
     7
370
    50
100
AcDbLine
 10
-110.422917
 20
537.501925
 30
0.0
 11
-108.472065
 21
537.501925
 31
0.0
  0
LINE
  5
3A1
330
1F
100
AcDbEntity
  8
LC-001-100-D00-0
 62
     7
370
    50
100
AcDbLine
 10
-120.022919
 20
534.733159
 30
0.0
 11
-120.022919
 21
532.270691
 31
0.0
  0
LINE
  5
3A2
330
1F
100
AcDbEntity
  8
LC-001-100-D00-0
 62
     7
370
    50
100
AcDbLine
 10
-118.222915
 20
536.501925
 30
0.0
 11
-119.222917
 21
537.501925
 31
0.0
  0
LINE
  5
3A3
330
1F
100
AcDbEntity
  8
LC-001-100-D00-0
 62
     7
370
    50
100
AcDbLine
 10
-118.222915
 20
536.501925
 30
0.0
 11
-118.222919
 21
530.501925
 31
0.0
  0
LINE
  5
3A4
330
1F
100
AcDbEntity
  8
LC-001-100-D00-0
 62
     7
370
    50
100
AcDbLine
 10
-119.222919
 20
529.501925
 30
0.0
 11
-118.222919
 21
530.501925
 31
0.0
  0
LINE
  5
3A5
330
1F
100
AcDbEntity
  8
LC-001-100-D00-0
 62
     7
370
    50
100
AcDbLine
 10
-121.17377
 20
531.501924
 30
0.0
 11
-121.17377
 21
529.501926
 31
0.0
  0
LINE
  5
3A6
330
1F
100
AcDbEntity
  8
LC-001-100-D00-0
 62
     7
370
    50
100
AcDbLine
 10
-120.467627
 20
531.691136
 30
0.0
 11
-121.17377
 21
531.501924
 31
0.0
  0
ARC
  5
3A7
330
1F
100
AcDbEntity
  8
LC-001-100-D00-0
 62
     7
370
    50
100
AcDbCircle
 10
-120.622919
 20
532.270691
 30
0.0
 40
0.5999999999997591
100
AcDbArc
 50
285.0
 51
0.0
  0
ARC
  5
3A8
330
1F
100
AcDbEntity
  8
LC-001-100-D00-0
 62
     7
370
    50
100
AcDbCircle
 10
-120.622919
 20
534.733159
 30
0.0
 40
0.6000000000001364
100
AcDbArc
 50
0.0
 51
75.0
  0
LINE
  5
3A9
330
1F
100
AcDbEntity
  8
LC-001-100-D00-0
 62
     7
370
    50
100
AcDbLine
 10
-121.17377
 20
535.501925
 30
0.0
 11
-120.467627
 21
535.312714
 31
0.0
  0
LINE
  5
3AA
330
1F
100
AcDbEntity
  8
LC-001-100-D00-0
 62
     7
370
    50
100
AcDbLine
 10
-121.17377
 20
537.501925
 30
0.0
 11
-121.17377
 21
535.501925
 31
0.0
  0
LINE
  5
3AB
330
1F
100
AcDbEntity
  8
LC-001-100-D00-0
 62
     7
370
    50
100
AcDbLine
 10
-121.17377
 20
529.501926
 30
0.0
 11
-119.222919
 21
529.501925
 31
0.0
  0
LINE
  5
3AC
330
1F
100
AcDbEntity
  8
LC-001-100-D00-0
 62
     7
370
    50
100
AcDbLine
 10
-121.17377
 20
537.501925
 30
0.0
 11
-119.222917
 21
537.501925
 31
0.0
  0
LINE
  5
3AD
330
1F
100
AcDbEntity
  8
LC-001-100-D00-0
 62
     7
370
    50
100
AcDbLine
 10
-118.222919
 20
530.501925
 30
0.0
 11
-118.065079
 21
530.501925
 31
0.0
  0
LINE
  5
3AE
330
1F
100
AcDbEntity
  8
LC-001-100-D00-0
 62
     7
370
    50
100
AcDbLine
 10
-111.580758
 20
530.501925
 30
0.0
 11
-111.422919
 21
530.501925
 31
0.0
  0
LINE
  5
3AF
330
1F
100
AcDbEntity
  8
LC-001-100-D00-0
 62
     7
370
    50
100
AcDbLine
 10
-110.422919
 20
529.501925
 30
0.0
 11
-110.958701
 21
529.501925
 31
0.0
  0
LINE
  5
3B0
330
1F
100
AcDbEntity
  8
LC-001-100-D00-0
 62
     7
370
    50
100
AcDbLine
 10
-118.687137
 20
529.501925
 30
0.0
 11
-119.222919
 21
529.501925
 31
0.0
  0
LINE
  5
3B1
330
1F
100
AcDbEntity
  8
LC-001-100-D00-0
 62
     7
370
    50
100
AcDbLine
 10
-108.472065
 20
537.501925
 30
0.0
 11
-110.922918
 21
537.501925
 31
0.0
  0
LINE
  5
3B2
330
1F
100
AcDbEntity
  8
LC-001-100-D00-0
 62
     7
370
    50
100
AcDbLine
 10
-110.922918
 20
537.501925
 30
0.0
 11
-110.922919
 21
548.501925
 31
0.0
  0
LINE
  5
3B3
330
1F
100
AcDbEntity
  8
LC-001-100-D00-0
 62
     7
370
    50
100
AcDbLine
 10
-110.922919
 20
548.501925
 30
0.0
 11
-97.572919
 21
548.501925
 31
0.0
  0
ARC
  5
3B4
330
1F
100
AcDbEntity
  8
LC-001-100-D00-0
 62
     7
370
    50
100
AcDbCircle
 10
-97.572919
 20
547.501925
 30
0.0
 40
0.9999999999999147
100
AcDbArc
 50
0.0
 51
90.0
  0
LINE
  5
3B5
330
1F
100
AcDbEntity
  8
LC-001-100-D00-0
 62
     7
370
    50
100
AcDbLine
 10
-96.572919
 20
547.501925
 30
0.0
 11
-96.572921
 21
541.501925
 31
0.0
  0
LINE
  5
3B6
330
1F
100
AcDbEntity
  8
LC-001-100-D00-0
 62
     7
370
    50
100
AcDbLine
 10
-99.572919
 20
541.501925
 30
0.0
 11
-96.572921
 21
541.501925
 31
0.0
  0
LINE
  5
3B7
330
1F
100
AcDbEntity
  8
LC-001-100-D00-0
 62
     7
370
    50
100
AcDbLine
 10
-99.572919
 20
541.501925
 30
0.0
 11
-99.57292
 21
545.501925
 31
0.0
  0
LINE
  5
3B8
330
1F
100
AcDbEntity
  8
LC-001-100-D00-0
 62
     7
370
    50
100
AcDbLine
 10
-104.072919
 20
545.501925
 30
0.0
 11
-99.57292
 21
545.501925
 31
0.0
  0
ARC
  5
3B9
330
1F
100
AcDbEntity
  8
LC-001-100-D00-0
 62
     7
370
    50
100
AcDbCircle
 10
-104.072919
 20
544.501925
 30
0.0
 40
1.000000000000114
100
AcDbArc
 50
90.0
 51
180.0
  0
LINE
  5
3BA
330
1F
100
AcDbEntity
  8
LC-001-100-D00-0
 62
     7
370
    50
100
AcDbLine
 10
-105.072919
 20
530.501925
 30
0.0
 11
-105.072919
 21
544.501925
 31
0.0
  0
ARC
  5
3BB
330
1F
100
AcDbEntity
  8
LC-001-100-D00-0
 62
     7
370
    50
100
AcDbCircle
 10
-106.072919
 20
530.501925
 30
0.0
 40
0.9999999999996589
100
AcDbArc
 50
270.0
 51
0.0
  0
LINE
  5
3BC
330
1F
100
AcDbEntity
  8
LC-001-100-D00-0
 62
     7
370
    50
100
AcDbLine
 10
-106.072919
 20
529.501925
 30
0.0
 11
-108.472065
 21
529.501926
 31
0.0
  0
LINE
  5
3BD
330
1F
100
AcDbEntity
  8
LC-001-100-D00-0
 62
     7
370
    50
100
AcDbLine
 10
-108.472065
 20
531.501924
 30
0.0
 11
-108.472065
 21
529.501926
 31
0.0
  0
LINE
  5
3BE
330
1F
100
AcDbEntity
  8
LC-001-100-D00-0
 62
     7
370
    50
100
AcDbLine
 10
-109.122919
 20
531.501925
 30
0.0
 11
-108.472065
 21
531.501924
 31
0.0
  0
ARC
  5
3BF
330
1F
100
AcDbEntity
  8
LC-001-100-D00-0
 62
     7
370
    50
100
AcDbCircle
 10
-109.122919
 20
532.001925
 30
0.0
 40
0.5000000000002274
100
AcDbArc
 50
180.0
 51
270.0
  0
LINE
  5
3C0
330
1F
100
AcDbEntity
  8
LC-001-100-D00-0
 62
     7
370
    50
100
AcDbLine
 10
-109.622919
 20
535.001925
 30
0.0
 11
-109.622919
 21
532.001925
 31
0.0
  0
ARC
  5
3C1
330
1F
100
AcDbEntity
  8
LC-001-100-D00-0
 62
     7
370
    50
100
AcDbCircle
 10
-109.122919
 20
535.001925
 30
0.0
 40
0.5000000000003411
100
AcDbArc
 50
90.0
 51
180.0
  0
LINE
  5
3C2
330
1F
100
AcDbEntity
  8
LC-001-100-D00-0
 62
     7
370
    50
100
AcDbLine
 10
-108.472065
 20
535.501925
 30
0.0
 11
-109.122919
 21
535.501925
 31
0.0
  0
LINE
  5
3C3
330
1F
100
AcDbEntity
  8
LC-001-100-D00-0
 62
     7
370
    50
100
AcDbLine
 10
-108.472065
 20
537.501925
 30
0.0
 11
-108.472065
 21
535.501925
 31
0.0
  0
ARC
  5
3C4
330
1F
100
AcDbEntity
  8
LC-001-100-D00-0
 62
     7
370
    50
100
AcDbCircle
 10
-125.572919
 20
544.501925
 30
0.0
 40
0.9999999999999147
100
AcDbArc
 50
0.0
 51
90.0
  0
LINE
  5
3C5
330
1F
100
AcDbEntity
  8
LC-001-100-D00-0
 62
     7
370
    50
100
AcDbLine
 10
-124.572919
 20
544.501925
 30
0.0
 11
-124.572919
 21
530.501925
 31
0.0
  0
ARC
  5
3C6
330
1F
100
AcDbEntity
  8
LC-001-100-D00-0
 62
     7
370
    50
100
AcDbCircle
 10
-123.572919
 20
530.501925
 30
0.0
 40
0.9999999999999147
100
AcDbArc
 50
180.0
 51
270.0
  0
LINE
  5
3C7
330
1F
100
AcDbEntity
  8
LC-001-100-D00-0
 62
     7
370
    50
100
AcDbLine
 10
-120.022919
 20
532.001925
 30
0.0
 11
-120.022919
 21
535.001925
 31
0.0
  0
LINE
  5
3C8
330
1F
100
AcDbEntity
  8
LC-001-100-D00-0
 62
     7
370
    50
100
AcDbLine
 10
-118.722919
 20
548.501925
 30
0.0
 11
-118.722916
 21
537.501925
 31
0.0
  0
LINE
  5
3C9
330
1F
100
AcDbEntity
  8
LC-001-100-D00-0
 62
     7
370
    50
100
AcDbLine
 10
-118.722919
 20
548.501925
 30
0.0
 11
-110.922919
 21
548.501925
 31
0.0
  0
LINE
  5
3CA
330
1F
100
AcDbEntity
  8
LC-001-100-D00-0
 62
     7
370
    50
100
AcDbLine
 10
-121.17377
 20
537.501925
 30
0.0
 11
-121.17377
 21
535.501925
 31
0.0
  0
LINE
  5
3CB
330
1F
100
AcDbEntity
  8
LC-001-100-D00-0
 62
     7
370
    50
100
AcDbLine
 10
-121.17377
 20
531.501924
 30
0.0
 11
-121.17377
 21
529.501926
 31
0.0
  0
ARC
  5
3CC
330
1F
100
AcDbEntity
  8
LC-001-100-D00-0
 62
     7
370
    50
100
AcDbCircle
 10
-120.522919
 20
532.001925
 30
0.0
 40
0.5000000000001137
100
AcDbArc
 50
270.0
 51
0.0
  0
LINE
  5
3CD
330
1F
100
AcDbEntity
  8
LC-001-100-D00-0
 62
     7
370
    50
100
AcDbLine
 10
-121.17377
 20
531.501924
 30
0.0
 11
-120.522919
 21
531.501925
 31
0.0
  0
LINE
  5
3CE
330
1F
100
AcDbEntity
  8
LC-001-100-D00-0
 62
     7
370
    50
100
AcDbLine
 10
-130.072922
 20
545.501925
 30
0.0
 11
-130.072919
 21
541.501925
 31
0.0
  0
LINE
  5
3CF
330
1F
100
AcDbEntity
  8
LC-001-100-D00-0
 62
     7
370
    50
100
AcDbLine
 10
-133.072921
 20
541.501925
 30
0.0
 11
-133.072919
 21
547.501925
 31
0.0
  0
ARC
  5
3D0
330
1F
100
AcDbEntity
  8
LC-001-100-D00-0
 62
     7
370
    50
100
AcDbCircle
 10
-132.072919
 20
547.501925
 30
0.0
 40
0.9999999999996589
100
AcDbArc
 50
90.0
 51
180.0
  0
LINE
  5
3D1
330
1F
100
AcDbEntity
  8
LC-001-100-D00-0
 62
     7
370
    50
100
AcDbLine
 10
-120.522919
 20
535.501925
 30
0.0
 11
-121.17377
 21
535.501925
 31
0.0
  0
ARC
  5
3D2
330
1F
100
AcDbEntity
  8
LC-001-100-D00-0
 62
     7
370
    50
100
AcDbCircle
 10
-120.522919
 20
535.001925
 30
0.0
 40
0.5000000000001137
100
AcDbArc
 50
0.0
 51
90.0
  0
LINE
  5
3D3
330
1F
100
AcDbEntity
  8
LC-001-100-D00-0
 62
     7
370
    50
100
AcDbLine
 10
-118.722916
 20
537.501925
 30
0.0
 11
-121.17377
 21
537.501925
 31
0.0
  0
LINE
  5
3D4
330
1F
100
AcDbEntity
  8
LC-001-100-D00-0
 62
     7
370
    50
100
AcDbLine
 10
-121.17377
 20
529.501926
 30
0.0
 11
-123.572919
 21
529.501925
 31
0.0
  0
LINE
  5
3D5
330
1F
100
AcDbEntity
  8
LC-001-100-D00-0
 62
     7
370
    50
100
AcDbLine
 10
-130.072922
 20
545.501925
 30
0.0
 11
-125.572919
 21
545.501925
 31
0.0
  0
LINE
  5
3D6
330
1F
100
AcDbEntity
  8
LC-001-100-D00-0
 62
     7
370
    50
100
AcDbLine
 10
-132.072919
 20
548.501925
 30
0.0
 11
-118.722919
 21
548.501925
 31
0.0
  0
LINE
  5
3D7
330
1F
100
AcDbEntity
  8
LC-001-100-D00-0
 62
     7
370
    50
100
AcDbLine
 10
-133.072921
 20
541.501925
 30
0.0
 11
-130.072919
 21
541.501925
 31
0.0
  0
LINE
  5
3D8
330
1F
100
AcDbEntity
  8
LC-001-100-D00-0
 62
     7
370
    50
100
AcDbLine
 10
-101.572919
 20
541.501925
 30
0.0
 11
-99.572919
 21
541.501925
 31
0.0
  0
LINE
  5
3D9
330
1F
100
AcDbEntity
  8
LC-001-100-D00-0
 62
     7
370
    50
100
AcDbLine
 10
-130.072919
 20
541.501925
 30
0.0
 11
-128.072919
 21
541.501925
 31
0.0
  0
LINE
  5
3DA
330
1F
100
AcDbEntity
  8
LC-001-100-D00-0
 62
     7
370
    50
100
AcDbLine
 10
-128.072919
 20
541.501925
 30
0.0
 11
-124.572918
 21
541.501925
 31
0.0
  0
LINE
  5
3DB
330
1F
100
AcDbEntity
  8
LC-001-100-D00-0
 62
     7
370
    50
100
AcDbLine
 10
-105.072916
 20
541.501925
 30
0.0
 11
-101.572919
 21
541.501925
 31
0.0
  0
LINE
  5
3DC
330
1F
100
AcDbEntity
  8
LC-001-100-D00-0
 62
     7
370
    50
100
AcDbLine
 10
-156.32292
 20
518.659008
 30
0.0
 11
-156.033002
 21
518.567926
 31
0.0
  0
LINE
  5
3DD
330
1F
100
AcDbEntity
  8
LC-001-100-D00-0
 62
     7
370
    50
100
AcDbLine
 10
-157.510533
 20
516.516496
 30
0.0
 11
-156.32292
 21
518.659008
 31
0.0
  0
ARC
  5
3DE
330
1F
100
AcDbEntity
  8
LC-001-100-D00-0
 62
     7
370
    50
100
AcDbCircle
 10
-157.772919
 20
516.661939
 30
0.0
 40
0.3000000000001251
100
AcDbArc
 50
180.0
 51
331.0
  0
LINE
  5
3DF
330
1F
100
AcDbEntity
  8
LC-001-100-D00-0
 62
     7
370
    50
100
AcDbLine
 10
-158.072919
 20
519.202179
 30
0.0
 11
-158.072919
 21
516.661939
 31
0.0
  0
ARC
  5
3E0
330
1F
100
AcDbEntity
  8
LC-001-100-D00-0
 62
     7
370
    50
100
AcDbCircle
 10
-156.072919
 20
519.202179
 30
0.0
 40
1.999999999999803
100
AcDbArc
 50
113.962489
 51
180.0
  0
LINE
  5
3E1
330
1F
100
AcDbEntity
  8
LC-001-100-D00-0
 62
     7
370
    50
100
AcDbLine
 10
-156.016843
 20
521.415736
 30
0.0
 11
-156.885196
 21
521.029802
 31
0.0
  0
ARC
  5
3E2
330
1F
100
AcDbEntity
  8
LC-001-100-D00-0
 62
     7
370
    50
100
AcDbCircle
 10
-155.610704
 20
520.501925
 30
0.0
 40
0.9999999999996589
100
AcDbArc
 50
90.0
 51
113.962489
  0
LINE
  5
3E3
330
1F
100
AcDbEntity
  8
LC-001-100-D00-0
 62
     7
370
    50
100
AcDbLine
 10
-149.822921
 20
521.501924
 30
0.0
 11
-149.822921
 21
517.501925
 31
0.0
  0
LINE
  5
3E4
330
1F
100
AcDbEntity
  8
LC-001-100-D00-0
 62
     7
370
    50
100
AcDbLine
 10
-155.822919
 20
518.281718
 30
0.0
 11
-155.822919
 21
517.501925
 31
0.0
  0
ARC
  5
3E5
330
1F
100
AcDbEntity
  8
LC-001-100-D00-0
 62
     7
370
    50
100
AcDbCircle
 10
-156.122919
 20
518.281718
 30
0.0
 40
0.3000000000000114
100
AcDbArc
 50
0.0
 51
72.558995
  0
LINE
  5
3E6
330
1F
100
AcDbEntity
  8
LC-001-100-D00-0
 62
     7
370
    50
100
AcDbLine
 10
-149.822921
 20
517.501925
 30
0.0
 11
-155.822919
 21
517.501925
 31
0.0
  0
LINE
  5
3E7
330
1F
100
AcDbEntity
  8
LC-001-100-D00-0
 62
     7
370
    50
100
AcDbLine
 10
-149.822921
 20
521.501924
 30
0.0
 11
-155.610704
 21
521.501925
 31
0.0
  0
LINE
  5
3E8
330
1F
100
AcDbEntity
  8
LC-001-100-D00-0
 62
     7
370
    50
100
AcDbLine
 10
-155.822919
 20
517.501925
 30
0.0
 11
-156.964301
 21
517.501925
 31
0.0
  0
LINE
  5
3E9
330
1F
100
AcDbEntity
  8
LC-001-100-D00-0
 62
     7
370
    50
100
AcDbLine
 10
-156.373407
 20
518.567926
 30
0.0
 11
-156.033002
 21
518.567926
 31
0.0
  0
LINE
  5
3EA
330
1F
100
AcDbEntity
  8
LC-001-100-D00-0
 62
     7
370
    50
100
AcDbLine
 10
-273.822919
 20
517.501925
 30
0.0
 11
-273.822919
 21
518.281718
 31
0.0
  0
LINE
  5
3EB
330
1F
100
AcDbEntity
  8
LC-001-100-D00-0
 62
     7
370
    50
100
AcDbLine
 10
-272.681537
 20
517.501925
 30
0.0
 11
-273.822919
 21
517.501925
 31
0.0
  0
LINE
  5
3EC
330
1F
100
AcDbEntity
  8
LC-001-100-D00-0
 62
     7
370
    50
100
AcDbLine
 10
-273.322918
 20
518.659008
 30
0.0
 11
-272.135305
 21
516.516496
 31
0.0
  0
LINE
  5
3ED
330
1F
100
AcDbEntity
  8
LC-001-100-D00-0
 62
     7
370
    50
100
AcDbLine
 10
-273.612836
 20
518.567926
 30
0.0
 11
-273.272431
 21
518.567926
 31
0.0
  0
LINE
  5
3EE
330
1F
100
AcDbEntity
  8
LC-001-100-D00-0
 62
     7
370
    50
100
AcDbLine
 10
-273.612836
 20
518.567926
 30
0.0
 11
-273.322918
 21
518.659008
 31
0.0
  0
ARC
  5
3EF
330
1F
100
AcDbEntity
  8
LC-001-100-D00-0
 62
     7
370
    50
100
AcDbCircle
 10
-273.522919
 20
518.281718
 30
0.0
 40
0.2999999999999676
100
AcDbArc
 50
107.441005
 51
180.0
  0
ARC
  5
3F0
330
1F
100
AcDbEntity
  8
LC-001-100-D00-0
 62
     7
370
    50
100
AcDbCircle
 10
-274.035133
 20
520.501925
 30
0.0
 40
0.9999999999999591
100
AcDbArc
 50
66.037511
 51
90.0
  0
LINE
  5
3F1
330
1F
100
AcDbEntity
  8
LC-001-100-D00-0
 62
     7
370
    50
100
AcDbLine
 10
-271.572919
 20
516.661939
 30
0.0
 11
-271.572919
 21
519.202179
 31
0.0
  0
ARC
  5
3F2
330
1F
100
AcDbEntity
  8
LC-001-100-D00-0
 62
     7
370
    50
100
AcDbCircle
 10
-273.572919
 20
519.202179
 30
0.0
 40
2.000000000000057
100
AcDbArc
 50
0.0
 51
66.037511
  0
LINE
  5
3F3
330
1F
100
AcDbEntity
  8
LC-001-100-D00-0
 62
     7
370
    50
100
AcDbLine
 10
-272.760642
 20
521.029802
 30
0.0
 11
-273.628995
 21
521.415736
 31
0.0
  0
ARC
  5
3F4
330
1F
100
AcDbEntity
  8
LC-001-100-D00-0
 62
     7
370
    50
100
AcDbCircle
 10
-271.872919
 20
516.661939
 30
0.0
 40
0.2999999999999927
100
AcDbArc
 50
209.0
 51
0.0
  0
LINE
  5
3F5
330
1F
100
AcDbEntity
  8
LC-001-100-D00-0
 62
     7
370
    50
100
AcDbLine
 10
-279.822916
 20
517.501925
 30
0.0
 11
-279.822916
 21
521.501924
 31
0.0
  0
LINE
  5
3F6
330
1F
100
AcDbEntity
  8
LC-001-100-D00-0
 62
     7
370
    50
100
AcDbLine
 10
-273.822919
 20
517.501925
 30
0.0
 11
-279.822916
 21
517.501925
 31
0.0
  0
LINE
  5
3F7
330
1F
100
AcDbEntity
  8
LC-001-100-D00-0
 62
     7
370
    50
100
AcDbLine
 10
-274.035133
 20
521.501925
 30
0.0
 11
-279.822916
 21
521.501924
 31
0.0
  0
LINE
  5
3F8
330
1F
100
AcDbEntity
  8
LC-001-100-D00-0
 62
     7
370
    50
100
AcDbLine
 10
-140.822918
 20
521.501924
 30
0.0
 11
-140.822918
 21
497.751926
 31
0.0
  0
LINE
  5
3F9
330
1F
100
AcDbEntity
  8
LC-001-100-D00-0
 62
     7
370
    50
100
AcDbLine
 10
-143.822917
 20
518.501926
 30
0.0
 11
-143.822919
 21
497.751925
 31
0.0
  0
LINE
  5
3FA
330
1F
100
AcDbEntity
  8
LC-001-100-D00-0
 62
     7
370
    50
100
AcDbLine
 10
-146.822915
 20
518.501926
 30
0.0
 11
-146.822915
 21
514.501923
 31
0.0
  0
LINE
  5
3FB
330
1F
100
AcDbEntity
  8
LC-001-100-D00-0
 62
     7
370
    50
100
AcDbLine
 10
-152.822919
 20
514.501925
 30
0.0
 11
-146.822915
 21
514.501923
 31
0.0
  0
LINE
  5
3FC
330
1F
100
AcDbEntity
  8
LC-001-100-D00-0
 62
     7
370
    50
100
AcDbLine
 10
-152.82292
 20
517.501925
 30
0.0
 11
-152.822919
 21
514.501925
 31
0.0
  0
LINE
  5
3FD
330
1F
100
AcDbEntity
  8
LC-001-100-D00-0
 62
     7
370
    50
100
AcDbLine
 10
-149.822921
 20
517.501925
 30
0.0
 11
-152.82292
 21
517.501925
 31
0.0
  0
LINE
  5
3FE
330
1F
100
AcDbEntity
  8
LC-001-100-D00-0
 62
     7
370
    50
100
AcDbLine
 10
-149.822921
 20
517.501925
 30
0.0
 11
-149.822921
 21
521.501924
 31
0.0
  0
LINE
  5
3FF
330
1F
100
AcDbEntity
  8
LC-001-100-D00-0
 62
     7
370
    50
100
AcDbLine
 10
-146.822915
 20
518.501926
 30
0.0
 11
-143.822917
 21
518.501926
 31
0.0
  0
LINE
  5
400
330
1F
100
AcDbEntity
  8
LC-001-100-D00-0
 62
     7
370
    50
100
AcDbLine
 10
-140.822918
 20
521.501924
 30
0.0
 11
-149.822921
 21
521.501924
 31
0.0
  0
LINE
  5
401
330
1F
100
AcDbEntity
  8
LC-001-100-D00-0
 62
     7
370
    50
100
AcDbLine
 10
-143.822919
 20
497.751925
 30
0.0
 11
-140.822918
 21
497.751926
 31
0.0
  0
LINE
  5
402
330
1F
100
AcDbEntity
  8
LC-001-100-D00-0
 62
     7
370
    50
100
AcDbLine
 10
-164.522511
 20
497.751925
 30
0.0
 11
-143.822919
 21
497.751925
 31
0.0
  0
LINE
  5
403
330
1F
100
AcDbEntity
  8
LC-001-100-D00-0
 62
     7
370
    50
100
AcDbLine
 10
-159.572919
 20
514.501925
 30
0.0
 11
-152.822919
 21
514.501925
 31
0.0
  0
LINE
  5
404
330
1F
100
AcDbEntity
  8
LC-001-100-D00-0
 62
     7
370
    50
100
AcDbLine
 10
-276.822919
 20
514.501925
 30
0.0
 11
-276.822918
 21
517.501925
 31
0.0
  0
LINE
  5
405
330
1F
100
AcDbEntity
  8
LC-001-100-D00-0
 62
     7
370
    50
100
AcDbLine
 10
-276.822919
 20
514.501925
 30
0.0
 11
-270.072919
 21
514.501925
 31
0.0
  0
LINE
  5
406
330
1F
100
AcDbEntity
  8
LC-001-100-D00-0
 62
     7
370
    50
100
AcDbLine
 10
-279.822916
 20
521.501924
 30
0.0
 11
-279.822916
 21
517.501925
 31
0.0
  0
LINE
  5
407
330
1F
100
AcDbEntity
  8
LC-001-100-D00-0
 62
     7
370
    50
100
AcDbLine
 10
-282.822923
 20
514.501923
 30
0.0
 11
-282.822923
 21
518.501926
 31
0.0
  0
LINE
  5
408
330
1F
100
AcDbEntity
  8
LC-001-100-D00-0
 62
     7
370
    50
100
AcDbLine
 10
-285.822919
 20
497.751925
 30
0.0
 11
-285.822921
 21
518.501926
 31
0.0
  0
LINE
  5
409
330
1F
100
AcDbEntity
  8
LC-001-100-D00-0
 62
     7
370
    50
100
AcDbLine
 10
-285.822919
 20
497.751925
 30
0.0
 11
-265.123326
 21
497.751925
 31
0.0
  0
LINE
  5
40A
330
1F
100
AcDbEntity
  8
LC-001-100-D00-0
 62
     7
370
    50
100
AcDbLine
 10
-288.82292
 20
497.751926
 30
0.0
 11
-288.82292
 21
521.501924
 31
0.0
  0
LINE
  5
40B
330
1F
100
AcDbEntity
  8
LC-001-100-D00-0
 62
     7
370
    50
100
AcDbLine
 10
-276.822918
 20
517.501925
 30
0.0
 11
-279.822916
 21
517.501925
 31
0.0
  0
LINE
  5
40C
330
1F
100
AcDbEntity
  8
LC-001-100-D00-0
 62
     7
370
    50
100
AcDbLine
 10
-282.822923
 20
514.501923
 30
0.0
 11
-276.822919
 21
514.501925
 31
0.0
  0
LINE
  5
40D
330
1F
100
AcDbEntity
  8
LC-001-100-D00-0
 62
     7
370
    50
100
AcDbLine
 10
-285.822921
 20
518.501926
 30
0.0
 11
-282.822923
 21
518.501926
 31
0.0
  0
LINE
  5
40E
330
1F
100
AcDbEntity
  8
LC-001-100-D00-0
 62
     7
370
    50
100
AcDbLine
 10
-279.822916
 20
521.501924
 30
0.0
 11
-288.82292
 21
521.501924
 31
0.0
  0
LINE
  5
40F
330
1F
100
AcDbEntity
  8
LC-001-100-D00-0
 62
     7
370
    50
100
AcDbLine
 10
-288.82292
 20
497.751926
 30
0.0
 11
-285.822919
 21
497.751925
 31
0.0
  0
LINE
  5
410
330
1F
100
AcDbEntity
  8
LC-001-100-D00-0
 62
     7
370
    50
100
AcDbLine
 10
-172.833794
 20
497.751925
 30
0.0
 11
-164.522511
 21
497.751925
 31
0.0
  0
LINE
  5
411
330
1F
100
AcDbEntity
  8
LC-001-100-D00-0
 62
     7
370
    50
100
AcDbLine
 10
-265.123326
 20
497.751925
 30
0.0
 11
-256.812044
 21
497.751925
 31
0.0
  0
LINE
  5
412
330
1F
100
AcDbEntity
  8
LC-001-100-D00-0
 62
     7
370
    50
100
AcDbLine
 10
-256.812044
 20
497.751925
 30
0.0
 11
-255.82292
 21
497.751926
 31
0.0
  0
LINE
  5
413
330
1F
100
AcDbEntity
  8
LC-001-100-D00-0
 62
     7
370
    50
100
AcDbLine
 10
-173.822918
 20
497.751926
 30
0.0
 11
-172.833794
 21
497.751925
 31
0.0
  0
LINE
  5
414
330
1F
100
AcDbEntity
  8
LC-001-100-D00-0
 62
     7
370
    50
100
AcDbLine
 10
-140.822918
 20
497.001925
 30
0.0
 11
-129.822918
 21
497.001925
 31
0.0
  0
LINE
  5
415
330
1F
100
AcDbEntity
  8
LC-001-100-D00-0
 62
     7
370
    50
100
AcDbLine
 10
-129.822918
 20
445.001924
 30
0.0
 11
-140.822918
 21
445.001924
 31
0.0
  0
LINE
  5
416
330
1F
100
AcDbEntity
  8
LC-001-100-D00-0
 62
     7
370
    50
100
AcDbLine
 10
-140.822918
 20
497.751926
 30
0.0
 11
-140.822918
 21
497.001925
 31
0.0
  0
INSERT
  5
427
330
1F
100
AcDbEntity
  8
LC-001-100-D00-0
 62
     7
370
    50
100
AcDbBlockReference
  2
KLON15
 10
0.0
 20
0.0
 30
0.0
  0
INSERT
  5
43B
330
1F
100
AcDbEntity
  8
LC-001-100-D00-0
 62
     7
370
    50
100
AcDbBlockReference
  2
KLON16
 10
0.0
 20
0.0
 30
0.0
  0
LINE
  5
43C
330
1F
100
AcDbEntity
  8
LC-001-100-D00-0
 62
     7
370
    50
100
AcDbLine
 10
-143.822917
 20
494.001926
 30
0.0
 11
-101.925733
 21
494.001925
 31
0.0
  0
LINE
  5
43D
330
1F
100
AcDbEntity
  8
LC-001-100-D00-0
 62
     7
370
    50
100
AcDbLine
 10
-101.925733
 20
448.001925
 30
0.0
 11
-101.925733
 21
494.001925
 31
0.0
  0
LINE
  5
43E
330
1F
100
AcDbEntity
  8
LC-001-100-D00-0
 62
     7
370
    50
100
AcDbLine
 10
-101.925733
 20
448.001925
 30
0.0
 11
-140.822918
 21
448.001922
 31
0.0
  0
INSERT
  5
444
330
1F
100
AcDbEntity
  8
LC-001-100-D00-0
 62
     7
370
    50
100
AcDbBlockReference
  2
KLON17
 10
0.0
 20
0.0
 30
0.0
  0
LINE
  5
445
330
1F
100
AcDbEntity
  8
LC-001-100-D00-0
 62
     7
370
    50
100
AcDbLine
 10
-143.822919
 20
497.751925
 30
0.0
 11
-164.522511
 21
497.751925
 31
0.0
  0
LINE
  5
446
330
1F
100
AcDbEntity
  8
LC-001-100-D00-0
 62
     7
370
    50
100
AcDbLine
 10
-143.822919
 20
497.751925
 30
0.0
 11
-143.822917
 21
494.001926
 31
0.0
  0
LINE
  5
447
330
1F
100
AcDbEntity
  8
LC-001-100-D00-0
 62
     7
370
    50
100
AcDbLine
 10
-153.822919
 20
445.001925
 30
0.0
 11
-140.822918
 21
445.001924
 31
0.0
  0
ARC
  5
448
330
1F
100
AcDbEntity
  8
LC-001-100-D00-0
 62
     7
370
    50
100
AcDbCircle
 10
-160.805039
 20
445.501925
 30
0.0
 40
7.000000000000227
100
AcDbArc
 50
270.0
 51
355.903956
  0
LINE
  5
449
330
1F
100
AcDbEntity
  8
LC-001-100-D00-0
 62
     7
370
    50
100
AcDbLine
 10
-160.805039
 20
438.501925
 30
0.0
 11
-268.840799
 21
438.501925
 31
0.0
  0
ARC
  5
44A
330
1F
100
AcDbEntity
  8
LC-001-100-D00-0
 62
     7
370
    50
100
AcDbCircle
 10
-268.840799
 20
445.501925
 30
0.0
 40
6.999999999999959
100
AcDbArc
 50
184.096044
 51
270.0
  0
LINE
  5
44B
330
1F
100
AcDbEntity
  8
LC-001-100-D00-0
 62
     7
370
    50
100
AcDbLine
 10
-276.322919
 20
445.001925
 30
0.0
 11
-275.822919
 21
445.001925
 31
0.0
  0
ARC
  5
44C
330
1F
100
AcDbEntity
  8
LC-001-100-D00-0
 62
     7
370
    50
100
AcDbCircle
 10
-276.322919
 20
457.501925
 30
0.0
 40
12.50000000000011
100
AcDbArc
 50
180.0
 51
270.0
  0
LINE
  5
44D
330
1F
100
AcDbEntity
  8
LC-001-100-D00-0
 62
     7
370
    50
100
AcDbLine
 10
-288.822919
 20
457.501925
 30
0.0
 11
-288.82292
 21
497.751926
 31
0.0
  0
LINE
  5
44E
330
1F
100
AcDbEntity
  8
LC-001-100-D00-0
 62
     7
370
    50
100
AcDbLine
 10
-288.82292
 20
497.751926
 30
0.0
 11
-285.822919
 21
497.751925
 31
0.0
  0
LINE
  5
44F
330
1F
100
AcDbEntity
  8
LC-001-100-D00-0
 62
     7
370
    50
100
AcDbLine
 10
-285.822919
 20
457.501925
 30
0.0
 11
-285.822919
 21
497.751925
 31
0.0
  0
ARC
  5
450
330
1F
100
AcDbEntity
  8
LC-001-100-D00-0
 62
     7
370
    50
100
AcDbCircle
 10
-276.322919
 20
457.501925
 30
0.0
 40
9.500000000000114
100
AcDbArc
 50
180.0
 51
270.0
  0
LINE
  5
451
330
1F
100
AcDbEntity
  8
LC-001-100-D00-0
 62
     7
370
    50
100
AcDbLine
 10
-276.322919
 20
448.001925
 30
0.0
 11
-273.822919
 21
448.001925
 31
0.0
  0
ARC
  5
452
330
1F
100
AcDbEntity
  8
LC-001-100-D00-0
 62
     7
370
    50
100
AcDbCircle
 10
-273.822919
 20
447.001925
 30
0.0
 40
1.000000000000057
100
AcDbArc
 50
0.0
 51
90.0
  0
LINE
  5
453
330
1F
100
AcDbEntity
  8
LC-001-100-D00-0
 62
     7
370
    50
100
AcDbLine
 10
-272.822919
 20
447.001925
 30
0.0
 11
-272.822919
 21
445.501925
 31
0.0
  0
ARC
  5
454
330
1F
100
AcDbEntity
  8
LC-001-100-D00-0
 62
     7
370
    50
100
AcDbCircle
 10
-268.822919
 20
445.501925
 30
0.0
 40
3.999999999999773
100
AcDbArc
 50
180.0
 51
270.0
  0
LINE
  5
455
330
1F
100
AcDbEntity
  8
LC-001-100-D00-0
 62
     7
370
    50
100
AcDbLine
 10
-160.822919
 20
441.501925
 30
0.0
 11
-268.822919
 21
441.501925
 31
0.0
  0
ARC
  5
456
330
1F
100
AcDbEntity
  8
LC-001-100-D00-0
 62
     7
370
    50
100
AcDbCircle
 10
-160.822919
 20
445.501925
 30
0.0
 40
3.999999999999886
100
AcDbArc
 50
270.0
 51
0.0
  0
LINE
  5
457
330
1F
100
AcDbEntity
  8
LC-001-100-D00-0
 62
     7
370
    50
100
AcDbLine
 10
-156.822919
 20
445.501925
 30
0.0
 11
-156.822919
 21
447.001925
 31
0.0
  0
ARC
  5
458
330
1F
100
AcDbEntity
  8
LC-001-100-D00-0
 62
     7
370
    50
100
AcDbCircle
 10
-155.822919
 20
447.001925
 30
0.0
 40
0.9999999999998863
100
AcDbArc
 50
90.0
 51
180.0
  0
LINE
  5
459
330
1F
100
AcDbEntity
  8
LC-001-100-D00-0
 62
     7
370
    50
100
AcDbLine
 10
-155.822919
 20
448.001925
 30
0.0
 11
-140.822918
 21
448.001922
 31
0.0
  0
LINE
  5
45A
330
1F
100
AcDbEntity
  8
LC-001-100-D00-0
 62
     7
370
    50
100
AcDbLine
 10
-96.325733
 20
446.501409
 30
0.0
 11
-101.925733
 21
448.001925
 31
0.0
  0
LINE
  5
45B
330
1F
100
AcDbEntity
  8
LC-001-100-D00-0
 62
     7
370
    50
100
AcDbLine
 10
-96.325733
 20
446.06767
 30
0.0
 11
-96.325733
 21
446.501409
 31
0.0
  0
ARC
  5
45C
330
1F
100
AcDbEntity
  8
LC-001-100-D00-0
 62
     7
370
    50
100
AcDbCircle
 10
-96.825691
 20
446.06767
 30
0.0
 40
0.4999578796799839
100
AcDbArc
 50
301.198872
 51
0.0
  0
ARC
  5
45D
330
1F
100
AcDbEntity
  8
LC-001-100-D00-0
 62
     7
370
    50
100
AcDbCircle
 10
-111.924415
 20
470.999735
 30
0.0
 40
29.64750216706068
100
AcDbArc
 50
292.382556
 51
301.198872
  0
ARC
  5
45E
330
1F
100
AcDbEntity
  8
LC-001-100-D00-0
 62
     7
370
    50
100
AcDbCircle
 10
-100.825355
 20
444.048108
 30
0.0
 40
0.4999578796803235
100
AcDbArc
 50
180.0
 51
292.382556
  0
LINE
  5
45F
330
1F
100
AcDbEntity
  8
LC-001-100-D00-0
 62
     7
370
    50
100
AcDbLine
 10
-101.325312
 20
445.351967
 30
0.0
 11
-101.325312
 21
444.048108
 31
0.0
  0
ARC
  5
460
330
1F
100
AcDbEntity
  8
LC-001-100-D00-0
 62
     7
370
    50
100
AcDbCircle
 10
-101.82527
 20
445.351967
 30
0.0
 40
0.4999578796800392
100
AcDbArc
 50
0.0
 51
90.0
  0
LINE
  5
461
330
1F
100
AcDbEntity
  8
LC-001-100-D00-0
 62
     7
370
    50
100
AcDbLine
 10
-105.324975
 20
445.851925
 30
0.0
 11
-101.82527
 21
445.851925
 31
0.0
  0
ARC
  5
462
330
1F
100
AcDbEntity
  8
LC-001-100-D00-0
 62
     7
370
    50
100
AcDbCircle
 10
-105.324975
 20
445.351967
 30
0.0
 40
0.4999578796802098
100
AcDbArc
 50
90.0
 51
180.0
  0
LINE
  5
463
330
1F
100
AcDbEntity
  8
LC-001-100-D00-0
 62
     7
370
    50
100
AcDbLine
 10
-105.824933
 20
442.395106
 30
0.0
 11
-105.824933
 21
445.351967
 31
0.0
  0
ARC
  5
464
330
1F
100
AcDbEntity
  8
LC-001-100-D00-0
 62
     7
370
    50
100
AcDbCircle
 10
-106.324891
 20
442.395106
 30
0.0
 40
0.4999578796803604
100
AcDbArc
 50
281.075925
 51
0.0
  0
ARC
  5
465
330
1F
100
AcDbEntity
  8
LC-001-100-D00-0
 62
     7
370
    50
100
AcDbCircle
 10
-111.924415
 20
470.999735
 30
0.0
 40
29.64750432250003
100
AcDbArc
 50
241.270296
 51
281.075925
  0
LINE
  5
466
330
1F
100
AcDbEntity
  8
LC-001-100-D00-0
 62
     7
370
    50
100
AcDbLine
 10
-127.323122
 20
445.001924
 30
0.0
 11
-126.175324
 21
445.001925
 31
0.0
  0
LINE
  5
467
330
1F
100
AcDbEntity
  8
LC-001-100-D00-0
 62
     7
370
    50
100
AcDbLine
 10
-127.323122
 20
443.501928
 30
0.0
 11
-127.323122
 21
445.001924
 31
0.0
  0
LINE
  5
468
330
1F
100
AcDbEntity
  8
LC-001-100-D00-0
 62
     7
370
    50
100
AcDbLine
 10
-129.822918
 20
443.501928
 30
0.0
 11
-127.323122
 21
443.501928
 31
0.0
  0
LINE
  5
469
330
1F
100
AcDbEntity
  8
LC-001-100-D00-0
 62
     7
370
    50
100
AcDbLine
 10
-129.822918
 20
445.001924
 30
0.0
 11
-129.822918
 21
443.501928
 31
0.0
  0
ARC
  5
46A
330
1F
100
AcDbEntity
  8
LC-001-100-D00-0
 62
     7
370
    50
100
AcDbCircle
 10
-101.82527
 20
496.651883
 30
0.0
 40
0.4999578796798687
100
AcDbArc
 50
270.0
 51
0.0
  0
LINE
  5
46B
330
1F
100
AcDbEntity
  8
LC-001-100-D00-0
 62
     7
370
    50
100
AcDbLine
 10
-101.325312
 20
497.955742
 30
0.0
 11
-101.325312
 21
496.651883
 31
0.0
  0
ARC
  5
46C
330
1F
100
AcDbEntity
  8
LC-001-100-D00-0
 62
     7
370
    50
100
AcDbCircle
 10
-100.825355
 20
497.955742
 30
0.0
 40
0.4999578796800866
100
AcDbArc
 50
67.617444
 51
180.0
  0
ARC
  5
46D
330
1F
100
AcDbEntity
  8
LC-001-100-D00-0
 62
     7
370
    50
100
AcDbCircle
 10
-111.924415
 20
471.004115
 30
0.0
 40
29.6475021670608
100
AcDbArc
 50
58.801128
 51
67.617444
  0
ARC
  5
46E
330
1F
100
AcDbEntity
  8
LC-001-100-D00-0
 62
     7
370
    50
100
AcDbCircle
 10
-96.825691
 20
495.93618
 30
0.0
 40
0.4999578796797835
100
AcDbArc
 50
0.0
 51
58.801128
  0
LINE
  5
46F
330
1F
100
AcDbEntity
  8
LC-001-100-D00-0
 62
     7
370
    50
100
AcDbLine
 10
-96.325733
 20
495.50244
 30
0.0
 11
-96.325733
 21
495.93618
 31
0.0
  0
LINE
  5
470
330
1F
100
AcDbEntity
  8
LC-001-100-D00-0
 62
     7
370
    50
100
AcDbLine
 10
-101.925733
 20
494.001925
 30
0.0
 11
-96.325733
 21
495.50244
 31
0.0
  0
LINE
  5
471
330
1F
100
AcDbEntity
  8
LC-001-100-D00-0
 62
     7
370
    50
100
AcDbLine
 10
-143.822919
 20
497.751925
 30
0.0
 11
-140.822918
 21
497.751926
 31
0.0
  0
LINE
  5
472
330
1F
100
AcDbEntity
  8
LC-001-100-D00-0
 62
     7
370
    50
100
AcDbLine
 10
-129.822918
 20
498.501924
 30
0.0
 11
-129.822918
 21
497.001925
 31
0.0
  0
LINE
  5
473
330
1F
100
AcDbEntity
  8
LC-001-100-D00-0
 62
     7
370
    50
100
AcDbLine
 10
-127.323122
 20
498.501925
 30
0.0
 11
-129.822918
 21
498.501924
 31
0.0
  0
ARC
  5
474
330
1F
100
AcDbEntity
  8
LC-001-100-D00-0
 62
     7
370
    50
100
AcDbCircle
 10
-111.96083
 20
471.001925
 30
0.0
 40
31.49999999999984
100
AcDbArc
 50
105.394857
 51
119.188982
  0
LINE
  5
475
330
1F
100
AcDbEntity
  8
LC-001-100-D00-0
 62
     7
370
    50
100
AcDbLine
 10
-120.323122
 20
501.371681
 30
0.0
 11
-120.323122
 21
499.437128
 31
0.0
  0
ARC
  5
476
330
1F
100
AcDbEntity
  8
LC-001-100-D00-0
 62
     7
370
    50
100
AcDbCircle
 10
-111.924415
 20
471.004115
 30
0.0
 40
29.6475043225003
100
AcDbArc
 50
78.924075
 51
106.456389
  0
ARC
  5
477
330
1F
100
AcDbEntity
  8
LC-001-100-D00-0
 62
     7
370
    50
100
AcDbCircle
 10
-106.324891
 20
499.608744
 30
0.0
 40
0.4999578796801956
100
AcDbArc
 50
0.0
 51
78.924075
  0
LINE
  5
478
330
1F
100
AcDbEntity
  8
LC-001-100-D00-0
 62
     7
370
    50
100
AcDbLine
 10
-105.824933
 20
496.651883
 30
0.0
 11
-105.824933
 21
499.608744
 31
0.0
  0
ARC
  5
479
330
1F
100
AcDbEntity
  8
LC-001-100-D00-0
 62
     7
370
    50
100
AcDbCircle
 10
-105.324975
 20
496.651883
 30
0.0
 40
0.4999578796800535
100
AcDbArc
 50
180.0
 51
270.0
  0
LINE
  5
47A
330
1F
100
AcDbEntity
  8
LC-001-100-D00-0
 62
     7
370
    50
100
AcDbLine
 10
-101.82527
 20
496.151925
 30
0.0
 11
-105.324975
 21
496.151925
 31
0.0
  0
LINE
  5
47B
330
1F
100
AcDbEntity
  8
LC-001-100-D00-0
 62
     7
370
    50
100
AcDbLine
 10
-96.325733
 20
495.50244
 30
0.0
 11
-96.325733
 21
446.501409
 31
0.0
  0
LINE
  5
47C
330
1F
100
AcDbEntity
  8
LC-001-100-D00-0
 62
     7
370
    50
100
AcDbLine
 10
-170.389299
 20
448.001925
 30
0.0
 11
-155.822919
 21
448.001925
 31
0.0
  0
LINE
  5
47D
330
1F
100
AcDbEntity
  8
LC-001-100-D00-0
 62
     7
370
    50
100
AcDbLine
 10
-273.822919
 20
448.001925
 30
0.0
 11
-259.256539
 21
448.001925
 31
0.0
  0
LINE
  5
47E
330
1F
100
AcDbEntity
  8
LC-001-100-D00-0
 62
     7
370
    50
100
AcDbLine
 10
-265.123326
 20
497.751925
 30
0.0
 11
-285.822919
 21
497.751925
 31
0.0
  0
LINE
  5
47F
330
1F
100
AcDbEntity
  8
LC-001-100-D00-0
 62
     7
370
    50
100
AcDbLine
 10
-172.833794
 20
448.001925
 30
0.0
 11
-170.389299
 21
448.001925
 31
0.0
  0
LINE
  5
480
330
1F
100
AcDbEntity
  8
LC-001-100-D00-0
 62
     7
370
    50
100
AcDbLine
 10
-259.256539
 20
448.001925
 30
0.0
 11
-256.812044
 21
448.001925
 31
0.0
  0
LINE
  5
481
330
1F
100
AcDbEntity
  8
LC-001-100-D00-0
 62
     7
370
    50
100
AcDbLine
 10
-256.812044
 20
448.001925
 30
0.0
 11
-255.82292
 21
448.001922
 31
0.0
  0
LINE
  5
482
330
1F
100
AcDbEntity
  8
LC-001-100-D00-0
 62
     7
370
    50
100
AcDbLine
 10
-173.822918
 20
448.001922
 30
0.0
 11
-172.833794
 21
448.001925
 31
0.0
  0
LINE
  5
483
330
1F
100
AcDbEntity
  8
LC-001-100-D00-0
 62
     7
370
    50
100
AcDbLine
 10
-164.522511
 20
497.751925
 30
0.0
 11
-172.833794
 21
497.751925
 31
0.0
  0
LINE
  5
484
330
1F
100
AcDbEntity
  8
LC-001-100-D00-0
 62
     7
370
    50
100
AcDbLine
 10
-256.812044
 20
497.751925
 30
0.0
 11
-265.123326
 21
497.751925
 31
0.0
  0
LINE
  5
485
330
1F
100
AcDbEntity
  8
LC-001-100-D00-0
 62
     7
370
    50
100
AcDbLine
 10
-172.833794
 20
497.751925
 30
0.0
 11
-173.822918
 21
497.751926
 31
0.0
  0
LINE
  5
486
330
1F
100
AcDbEntity
  8
LC-001-100-D00-0
 62
     7
370
    50
100
AcDbLine
 10
-255.82292
 20
497.751926
 30
0.0
 11
-256.812044
 21
497.751925
 31
0.0
  0
CIRCLE
  5
487
330
1F
100
AcDbEntity
  8
LC-001-100-D00-0
 62
     7
370
    50
100
AcDbCircle
 10
-160.572919
 20
519.251925
 30
0.0
 40
1.749999999999631
  0
CIRCLE
  5
488
330
1F
100
AcDbEntity
  8
LC-001-100-D00-0
 62
     7
370
    50
100
AcDbCircle
 10
-269.072919
 20
519.251925
 30
0.0
 40
1.749999999999886
  0
LINE
  5
489
330
1F
100
AcDbEntity
  8
LC-001-100-D00-0
 62
     7
370
    50
100
AcDbLine
 10
-160.32292
 20
521.001925
 30
0.0
 11
-160.32292
 21
522.501924
 31
0.0
  0
LINE
  5
48A
330
1F
100
AcDbEntity
  8
LC-001-100-D00-0
 62
     7
370
    50
100
AcDbLine
 10
-162.32292
 20
521.001925
 30
0.0
 11
-160.32292
 21
521.001925
 31
0.0
  0
LINE
  5
48B
330
1F
100
AcDbEntity
  8
LC-001-100-D00-0
 62
     7
370
    50
100
AcDbLine
 10
-162.32292
 20
521.001925
 30
0.0
 11
-162.32292
 21
517.501925
 31
0.0
  0
LINE
  5
48C
330
1F
100
AcDbEntity
  8
LC-001-100-D00-0
 62
     7
370
    50
100
AcDbLine
 10
-162.32292
 20
517.501925
 30
0.0
 11
-160.32292
 21
517.501925
 31
0.0
  0
LINE
  5
48D
330
1F
100
AcDbEntity
  8
LC-001-100-D00-0
 62
     7
370
    50
100
AcDbLine
 10
-160.32292
 20
517.501925
 30
0.0
 11
-160.32292
 21
516.501923
 31
0.0
  0
LINE
  5
48E
330
1F
100
AcDbEntity
  8
LC-001-100-D00-0
 62
     7
370
    50
100
AcDbLine
 10
-175.822919
 20
516.501925
 30
0.0
 11
-160.32292
 21
516.501923
 31
0.0
  0
ARC
  5
48F
330
1F
100
AcDbEntity
  8
LC-001-100-D00-0
 62
     7
370
    50
100
AcDbCircle
 10
-175.822919
 20
506.501925
 30
0.0
 40
10.00000000000023
100
AcDbArc
 50
90.0
 51
180.0
  0
LINE
  5
490
330
1F
100
AcDbEntity
  8
LC-001-100-D00-0
 62
     7
370
    50
100
AcDbLine
 10
-185.822919
 20
506.501925
 30
0.0
 11
-185.82292
 21
456.601926
 31
0.0
  0
LINE
  5
491
330
1F
100
AcDbEntity
  8
LC-001-100-D00-0
 62
     7
370
    50
100
AcDbLine
 10
-187.322919
 20
456.601925
 30
0.0
 11
-185.82292
 21
456.601926
 31
0.0
  0
LINE
  5
492
330
1F
100
AcDbEntity
  8
LC-001-100-D00-0
 62
     7
370
    50
100
AcDbLine
 10
-187.322919
 20
520.501925
 30
0.0
 11
-187.322919
 21
456.601925
 31
0.0
  0
ARC
  5
493
330
1F
100
AcDbEntity
  8
LC-001-100-D00-0
 62
     7
370
    50
100
AcDbCircle
 10
-185.322919
 20
520.501925
 30
0.0
 40
2.000000000000341
100
AcDbArc
 50
90.0
 51
180.0
  0
LINE
  5
494
330
1F
100
AcDbEntity
  8
LC-001-100-D00-0
 62
     7
370
    50
100
AcDbLine
 10
-185.322919
 20
522.501925
 30
0.0
 11
-160.32292
 21
522.501924
 31
0.0
  0
LINE
  5
495
330
1F
100
AcDbEntity
  8
LC-001-100-D00-0
 62
     7
370
    50
100
AcDbLine
 10
-203.322919
 20
522.501925
 30
0.0
 11
-185.322919
 21
522.501925
 31
0.0
  0
LINE
  5
496
330
1F
100
AcDbEntity
  8
LC-001-100-D00-0
 62
     7
370
    50
100
AcDbLine
 10
-203.322919
 20
456.601925
 30
0.0
 11
-187.322919
 21
456.601925
 31
0.0
  0
LINE
  5
497
330
1F
100
AcDbEntity
  8
LC-001-100-D00-0
 62
     7
370
    50
100
AcDbLine
 10
-243.822918
 20
456.601926
 30
0.0
 11
-243.822919
 21
506.501925
 31
0.0
  0
ARC
  5
498
330
1F
100
AcDbEntity
  8
LC-001-100-D00-0
 62
     7
370
    50
100
AcDbCircle
 10
-244.322919
 20
520.501925
 30
0.0
 40
1.999999999999943
100
AcDbArc
 50
0.0
 51
90.0
  0
LINE
  5
499
330
1F
100
AcDbEntity
  8
LC-001-100-D00-0
 62
     7
370
    50
100
AcDbLine
 10
-244.322919
 20
522.501925
 30
0.0
 11
-226.322919
 21
522.501925
 31
0.0
  0
LINE
  5
49A
330
1F
100
AcDbEntity
  8
LC-001-100-D00-0
 62
     7
370
    50
100
AcDbLine
 10
-242.322919
 20
456.601925
 30
0.0
 11
-242.322919
 21
520.501925
 31
0.0
  0
LINE
  5
49B
330
1F
100
AcDbEntity
  8
LC-001-100-D00-0
 62
     7
370
    50
100
AcDbLine
 10
-242.322919
 20
456.601925
 30
0.0
 11
-226.322919
 21
456.601925
 31
0.0
  0
ARC
  5
49C
330
1F
100
AcDbEntity
  8
LC-001-100-D00-0
 62
     7
370
    50
100
AcDbCircle
 10
-253.822919
 20
506.501925
 30
0.0
 40
10.00000000000006
100
AcDbArc
 50
0.0
 51
90.0
  0
LINE
  5
49D
330
1F
100
AcDbEntity
  8
LC-001-100-D00-0
 62
     7
370
    50
100
AcDbLine
 10
-269.322918
 20
516.501923
 30
0.0
 11
-269.322918
 21
517.501925
 31
0.0
  0
LINE
  5
49E
330
1F
100
AcDbEntity
  8
LC-001-100-D00-0
 62
     7
370
    50
100
AcDbLine
 10
-267.322917
 20
517.501925
 30
0.0
 11
-267.322917
 21
521.001925
 31
0.0
  0
LINE
  5
49F
330
1F
100
AcDbEntity
  8
LC-001-100-D00-0
 62
     7
370
    50
100
AcDbLine
 10
-269.322918
 20
522.501924
 30
0.0
 11
-269.322918
 21
521.001925
 31
0.0
  0
LINE
  5
4A0
330
1F
100
AcDbEntity
  8
LC-001-100-D00-0
 62
     7
370
    50
100
AcDbLine
 10
-243.822918
 20
456.601926
 30
0.0
 11
-242.322919
 21
456.601925
 31
0.0
  0
LINE
  5
4A1
330
1F
100
AcDbEntity
  8
LC-001-100-D00-0
 62
     7
370
    50
100
AcDbLine
 10
-269.322918
 20
517.501925
 30
0.0
 11
-267.322917
 21
517.501925
 31
0.0
  0
LINE
  5
4A2
330
1F
100
AcDbEntity
  8
LC-001-100-D00-0
 62
     7
370
    50
100
AcDbLine
 10
-269.322918
 20
521.001925
 30
0.0
 11
-267.322917
 21
521.001925
 31
0.0
  0
LINE
  5
4A3
330
1F
100
AcDbEntity
  8
LC-001-100-D00-0
 62
     7
370
    50
100
AcDbLine
 10
-269.322918
 20
516.501923
 30
0.0
 11
-253.822919
 21
516.501925
 31
0.0
  0
LINE
  5
4A4
330
1F
100
AcDbEntity
  8
LC-001-100-D00-0
 62
     7
370
    50
100
AcDbLine
 10
-269.322918
 20
522.501924
 30
0.0
 11
-244.322919
 21
522.501925
 31
0.0
  0
LINE
  5
4A5
330
1F
100
AcDbEntity
  8
LC-001-100-D00-0
 62
     7
370
    50
100
AcDbLine
 10
-226.322919
 20
522.501925
 30
0.0
 11
-203.322919
 21
522.501925
 31
0.0
  0
LINE
  5
4A6
330
1F
100
AcDbEntity
  8
LC-001-100-D00-0
 62
     7
370
    50
100
AcDbLine
 10
-226.322919
 20
456.601925
 30
0.0
 11
-203.322919
 21
456.601925
 31
0.0
  0
LINE
  5
4A7
330
1F
100
AcDbEntity
  8
LC-001-100-D00-0
 62
     7
370
    50
100
AcDbLine
 10
-255.82292
 20
507.001926
 30
0.0
 11
-265.758604
 21
514.307576
 31
0.0
  0
ARC
  5
4A8
330
1F
100
AcDbEntity
  8
LC-001-100-D00-0
 62
     7
370
    50
100
AcDbCircle
 10
-266.350995
 20
513.501925
 30
0.0
 40
1.000000000000549
100
AcDbArc
 50
53.673174
 51
90.0
  0
LINE
  5
4A9
330
1F
100
AcDbEntity
  8
LC-001-100-D00-0
 62
     7
370
    50
100
AcDbLine
 10
-270.072919
 20
514.501925
 30
0.0
 11
-266.350995
 21
514.501925
 31
0.0
  0
LINE
  5
4AA
330
1F
100
AcDbEntity
  8
LC-001-100-D00-0
 62
     7
370
    50
100
AcDbLine
 10
-270.072919
 20
514.501925
 30
0.0
 11
-270.072919
 21
516.501925
 31
0.0
  0
LINE
  5
4AB
330
1F
100
AcDbEntity
  8
LC-001-100-D00-0
 62
     7
370
    50
100
AcDbLine
 10
-270.072919
 20
516.501925
 30
0.0
 11
-266.350995
 21
516.501925
 31
0.0
  0
ARC
  5
4AC
330
1F
100
AcDbEntity
  8
LC-001-100-D00-0
 62
     7
370
    50
100
AcDbCircle
 10
-266.350995
 20
513.501925
 30
0.0
 40
3.000000000000659
100
AcDbArc
 50
53.673174
 51
90.0
  0
LINE
  5
4AD
330
1F
100
AcDbEntity
  8
LC-001-100-D00-0
 62
     7
370
    50
100
AcDbLine
 10
-264.573823
 20
515.918878
 30
0.0
 11
-254.730528
 21
508.681161
 31
0.0
  0
ARC
  5
4AE
330
1F
100
AcDbEntity
  8
LC-001-100-D00-0
 62
     7
370
    50
100
AcDbCircle
 10
-255.322919
 20
507.87551
 30
0.0
 40
1.000000000000284
100
AcDbArc
 50
0.0
 51
53.673174
  0
LINE
  5
4AF
330
1F
100
AcDbEntity
  8
LC-001-100-D00-0
 62
     7
370
    50
100
AcDbLine
 10
-254.322919
 20
446.001925
 30
0.0
 11
-254.322919
 21
507.87551
 31
0.0
  0
ARC
  5
4B0
330
1F
100
AcDbEntity
  8
LC-001-100-D00-0
 62
     7
370
    50
100
AcDbCircle
 10
-250.822919
 20
446.001925
 30
0.0
 40
3.500000000000114
100
AcDbArc
 50
180.0
 51
270.0
  0
LINE
  5
4B1
330
1F
100
AcDbEntity
  8
LC-001-100-D00-0
 62
     7
370
    50
100
AcDbLine
 10
-178.822919
 20
442.501925
 30
0.0
 11
-250.822919
 21
442.501925
 31
0.0
  0
ARC
  5
4B2
330
1F
100
AcDbEntity
  8
LC-001-100-D00-0
 62
     7
370
    50
100
AcDbCircle
 10
-178.822919
 20
446.001925
 30
0.0
 40
3.500000000000114
100
AcDbArc
 50
270.0
 51
0.0
  0
LINE
  5
4B3
330
1F
100
AcDbEntity
  8
LC-001-100-D00-0
 62
     7
370
    50
100
AcDbLine
 10
-175.322919
 20
507.87551
 30
0.0
 11
-175.322919
 21
446.001925
 31
0.0
  0
ARC
  5
4B4
330
1F
100
AcDbEntity
  8
LC-001-100-D00-0
 62
     7
370
    50
100
AcDbCircle
 10
-174.322919
 20
507.87551
 30
0.0
 40
1.00000000000039
100
AcDbArc
 50
126.326826
 51
180.0
  0
LINE
  5
4B5
330
1F
100
AcDbEntity
  8
LC-001-100-D00-0
 62
     7
370
    50
100
AcDbLine
 10
-165.072014
 20
515.918878
 30
0.0
 11
-174.915309
 21
508.681161
 31
0.0
  0
ARC
  5
4B6
330
1F
100
AcDbEntity
  8
LC-001-100-D00-0
 62
     7
370
    50
100
AcDbCircle
 10
-163.294843
 20
513.501925
 30
0.0
 40
3.000000000000341
100
AcDbArc
 50
90.0
 51
126.326826
  0
LINE
  5
4B7
330
1F
100
AcDbEntity
  8
LC-001-100-D00-0
 62
     7
370
    50
100
AcDbLine
 10
-163.294843
 20
516.501925
 30
0.0
 11
-159.572919
 21
516.501925
 31
0.0
  0
LINE
  5
4B8
330
1F
100
AcDbEntity
  8
LC-001-100-D00-0
 62
     7
370
    50
100
AcDbLine
 10
-159.572919
 20
516.501925
 30
0.0
 11
-159.572919
 21
514.501925
 31
0.0
  0
LINE
  5
4B9
330
1F
100
AcDbEntity
  8
LC-001-100-D00-0
 62
     7
370
    50
100
AcDbLine
 10
-163.294843
 20
514.501925
 30
0.0
 11
-159.572919
 21
514.501925
 31
0.0
  0
ARC
  5
4BA
330
1F
100
AcDbEntity
  8
LC-001-100-D00-0
 62
     7
370
    50
100
AcDbCircle
 10
-163.294843
 20
513.501925
 30
0.0
 40
1.000000000000455
100
AcDbArc
 50
90.0
 51
126.326826
  0
LINE
  5
4BB
330
1F
100
AcDbEntity
  8
LC-001-100-D00-0
 62
     7
370
    50
100
AcDbLine
 10
-173.822918
 20
507.001926
 30
0.0
 11
-163.887233
 21
514.307576
 31
0.0
  0
LINE
  5
4BC
330
1F
100
AcDbEntity
  8
LC-001-100-D00-0
 62
     7
370
    50
100
AcDbLine
 10
-173.822918
 20
507.001926
 30
0.0
 11
-173.822919
 21
446.001925
 31
0.0
  0
ARC
  5
4BD
330
1F
100
AcDbEntity
  8
LC-001-100-D00-0
 62
     7
370
    50
100
AcDbCircle
 10
-178.822919
 20
446.001925
 30
0.0
 40
5.000000000000114
100
AcDbArc
 50
270.0
 51
0.0
  0
LINE
  5
4BE
330
1F
100
AcDbEntity
  8
LC-001-100-D00-0
 62
     7
370
    50
100
AcDbLine
 10
-178.822919
 20
441.001925
 30
0.0
 11
-250.822919
 21
441.001925
 31
0.0
  0
ARC
  5
4BF
330
1F
100
AcDbEntity
  8
LC-001-100-D00-0
 62
     7
370
    50
100
AcDbCircle
 10
-250.822919
 20
446.001925
 30
0.0
 40
5.000000000000227
100
AcDbArc
 50
180.0
 51
270.0
  0
LINE
  5
4C0
330
1F
100
AcDbEntity
  8
LC-001-100-D00-0
 62
     7
370
    50
100
AcDbLine
 10
-255.822919
 20
446.001925
 30
0.0
 11
-255.82292
 21
507.001926
 31
0.0
  0
ARC
  5
4C1
330
1F
100
AcDbEntity
  8
LC-001-100-D00-0
 62
     7
370
    50
100
AcDbCircle
 10
-174.329666
 20
507.870084
 30
0.0
 40
1.000373573446331
100
AcDbArc
 50
126.325165
 51
180.0
  0
LINE
  5
4C2
330
1F
100
AcDbEntity
  8
LC-001-100-D00-0
 62
     7
370
    50
100
AcDbLine
 10
-174.922255
 20
508.676053
 30
0.0
 11
-174.915309
 21
508.681161
 31
0.0
  0
LINE
  5
4C3
330
1F
100
AcDbEntity
  8
LC-001-100-D00-0
 62
     7
370
    50
100
AcDbLine
 10
-175.33004
 20
507.001925
 30
0.0
 11
-179.743523
 21
507.001925
 31
0.0
  0
LINE
  5
4C4
330
1F
100
AcDbEntity
  8
LC-001-100-D00-0
 62
     7
370
    50
100
AcDbLine
 10
-175.33004
 20
507.870143
 30
0.0
 11
-175.33004
 21
507.001925
 31
0.0
  0
LINE
  5
4C5
330
1F
100
AcDbEntity
  8
LC-001-100-D00-0
 62
     7
370
    50
100
AcDbLine
 10
-254.315798
 20
507.870143
 30
0.0
 11
-254.315798
 21
507.001925
 31
0.0
  0
LINE
  5
4C6
330
1F
100
AcDbEntity
  8
LC-001-100-D00-0
 62
     7
370
    50
100
AcDbLine
 10
-249.902314
 20
507.001925
 30
0.0
 11
-254.315798
 21
507.001925
 31
0.0
  0
ARC
  5
4C7
330
1F
100
AcDbEntity
  8
LC-001-100-D00-0
 62
     7
370
    50
100
AcDbCircle
 10
-255.316145
 20
507.870098
 30
0.0
 40
1.000347039121607
100
AcDbArc
 50
0.0
 51
53.675603
  0
LINE
  5
4C8
330
1F
100
AcDbEntity
  8
LC-001-100-D00-0
 62
     7
370
    50
100
AcDbLine
 10
-181.894553
 20
514.447694
 30
0.0
 11
-181.894553
 21
507.001926
 31
0.0
  0
LINE
  5
4C9
330
1F
100
AcDbEntity
  8
LC-001-100-D00-0
 62
     7
370
    50
100
AcDbLine
 10
-181.894554
 20
514.501925
 30
0.0
 11
-175.108504
 21
514.501925
 31
0.0
  0
LINE
  5
4CA
330
1F
100
AcDbEntity
  8
LC-001-100-D00-0
 62
     7
370
    50
100
AcDbLine
 10
-170.644216
 20
514.501925
 30
0.0
 11
-166.999071
 21
514.501925
 31
0.0
  0
LINE
  5
4CB
330
1F
100
AcDbEntity
  8
LC-001-100-D00-0
 62
     7
370
    50
100
AcDbLine
 10
-247.751285
 20
514.447694
 30
0.0
 11
-247.751285
 21
507.001926
 31
0.0
  0
LINE
  5
4CC
330
1F
100
AcDbEntity
  8
LC-001-100-D00-0
 62
     7
370
    50
100
AcDbLine
 10
-262.646767
 20
514.501925
 30
0.0
 11
-259.001622
 21
514.501925
 31
0.0
  0
LINE
  5
4CD
330
1F
100
AcDbEntity
  8
LC-001-100-D00-0
 62
     7
370
    50
100
AcDbLine
 10
-254.537334
 20
514.501925
 30
0.0
 11
-247.751283
 21
514.501925
 31
0.0
  0
LINE
  5
4CE
330
1F
100
AcDbEntity
  8
LC-001-100-D00-0
 62
     7
370
    50
100
AcDbLine
 10
-179.743523
 20
507.001925
 30
0.0
 11
-185.810411
 21
507.001925
 31
0.0
  0
LINE
  5
4CF
330
1F
100
AcDbEntity
  8
LC-001-100-D00-0
 62
     7
370
    50
100
AcDbLine
 10
-243.835427
 20
507.001925
 30
0.0
 11
-249.902314
 21
507.001925
 31
0.0
  0
LINE
  5
4D0
330
1F
100
AcDbEntity
  8
LC-001-100-D00-0
 62
     7
370
    50
100
AcDbLine
 10
-120.323122
 20
439.001926
 30
0.0
 11
-120.323122
 21
441.438434
 31
0.0
  0
ARC
  5
4D1
330
1F
100
AcDbEntity
  8
LC-001-100-D00-0
 62
     7
370
    50
100
AcDbCircle
 10
-119.323122
 20
441.438434
 30
0.0
 40
0.999999999999959
100
AcDbArc
 50
75.764876
 51
180.0
  0
ARC
  5
4D2
330
1F
100
AcDbEntity
  8
LC-001-100-D00-0
 62
     7
370
    50
100
AcDbCircle
 10
-111.823122
 20
471.001925
 30
0.0
 40
29.5
100
AcDbArc
 50
255.764876
 51
309.53945
  0
LINE
  5
4D3
330
1F
100
AcDbEntity
  8
LC-001-100-D00-0
 62
     7
370
    50
100
AcDbLine
 10
-93.043146
 20
448.251925
 30
0.0
 11
-5.323122
 21
448.251925
 31
0.0
  0
LINE
  5
4D4
330
1F
100
AcDbEntity
  8
LC-001-100-D00-0
 62
     7
370
    50
100
AcDbLine
 10
-5.323122
 20
448.251925
 30
0.0
 11
-5.323128
 21
446.939745
 31
0.0
  0
LINE
  5
4D5
330
1F
100
AcDbEntity
  8
LC-001-100-D00-0
 62
     7
370
    50
100
AcDbLine
 10
-5.323128
 20
446.939745
 30
0.0
 11
-8.823127
 21
446.001926
 31
0.0
  0
LINE
  5
4D6
330
1F
100
AcDbEntity
  8
LC-001-100-D00-0
 62
     7
370
    50
100
AcDbLine
 10
-8.823127
 20
446.001926
 30
0.0
 11
-91.848138
 21
446.001925
 31
0.0
  0
ARC
  5
4D7
330
1F
100
AcDbEntity
  8
LC-001-100-D00-0
 62
     7
370
    50
100
AcDbCircle
 10
-111.823122
 20
471.001925
 30
0.0
 40
32.00000000000011
100
AcDbArc
 50
270.0
 51
308.624833
  0
LINE
  5
4D8
330
1F
100
AcDbEntity
  8
LC-001-100-D00-0
 62
     7
370
    50
100
AcDbLine
 10
-111.823122
 20
439.001925
 30
0.0
 11
-120.323122
 21
439.001926
 31
0.0
  0
ARC
  5
4D9
330
1F
100
AcDbEntity
  8
LC-001-100-D00-0
 62
     7
370
    50
100
AcDbCircle
 10
-111.823122
 20
471.001925
 30
0.0
 40
32.00000000000017
100
AcDbArc
 50
51.375167
 51
90.0
  0
LINE
  5
4DA
330
1F
100
AcDbEntity
  8
LC-001-100-D00-0
 62
     7
370
    50
100
AcDbLine
 10
-91.848138
 20
496.001925
 30
0.0
 11
-8.823127
 21
496.001927
 31
0.0
  0
LINE
  5
4DB
330
1F
100
AcDbEntity
  8
LC-001-100-D00-0
 62
     7
370
    50
100
AcDbLine
 10
-8.823127
 20
496.001927
 30
0.0
 11
-5.323128
 21
495.064103
 31
0.0
  0
LINE
  5
4DC
330
1F
100
AcDbEntity
  8
LC-001-100-D00-0
 62
     7
370
    50
100
AcDbLine
 10
-5.323128
 20
495.064103
 30
0.0
 11
-5.323122
 21
493.751925
 31
0.0
  0
LINE
  5
4DD
330
1F
100
AcDbEntity
  8
LC-001-100-D00-0
 62
     7
370
    50
100
AcDbLine
 10
-5.323122
 20
493.751925
 30
0.0
 11
-93.043146
 21
493.751925
 31
0.0
  0
ARC
  5
4DE
330
1F
100
AcDbEntity
  8
LC-001-100-D00-0
 62
     7
370
    50
100
AcDbCircle
 10
-111.823122
 20
471.001925
 30
0.0
 40
29.49999999999971
100
AcDbArc
 50
50.46055
 51
104.235124
  0
ARC
  5
4DF
330
1F
100
AcDbEntity
  8
LC-001-100-D00-0
 62
     7
370
    50
100
AcDbCircle
 10
-119.323122
 20
500.565416
 30
0.0
 40
0.9999999999998863
100
AcDbArc
 50
180.0
 51
284.235124
  0
LINE
  5
4E0
330
1F
100
AcDbEntity
  8
LC-001-100-D00-0
 62
     7
370
    50
100
AcDbLine
 10
-120.323122
 20
500.565416
 30
0.0
 11
-120.323122
 21
503.001926
 31
0.0
  0
LINE
  5
4E1
330
1F
100
AcDbEntity
  8
LC-001-100-D00-0
 62
     7
370
    50
100
AcDbLine
 10
-120.323122
 20
503.001926
 30
0.0
 11
-111.823122
 21
503.001925
 31
0.0
  0
LINE
  5
4E2
330
1F
100
AcDbEntity
  8
LC-001-100-D00-0
 62
     7
370
    50
100
AcDbLine
 10
-5.323122
 20
493.751925
 30
0.0
 11
-5.323122
 21
448.251925
 31
0.0
  0
LINE
  5
4E3
330
1F
100
AcDbEntity
  8
LC-001-100-D00-0
 62
     7
370
    50
100
AcDbLine
 10
-93.043146
 20
493.751925
 30
0.0
 11
-93.043146
 21
448.251925
 31
0.0
  0
LINE
  5
4E4
330
1F
100
AcDbEntity
  8
LC-001-100-D00-0
 62
     7
370
    50
100
AcDbLine
 10
-120.323122
 20
442.566722
 30
0.0
 11
-120.323122
 21
441.438434
 31
0.0
  0
CIRCLE
  5
4E5
330
1F
100
AcDbEntity
  8
LC-001-100-D00-0
 62
     7
370
    50
100
AcDbCircle
 10
-103.575123
 20
498.001925
 30
0.0
 40
1.999999999999545
  0
CIRCLE
  5
4E6
330
1F
100
AcDbEntity
  8
LC-001-100-D00-0
 62
     7
370
    50
100
AcDbCircle
 10
-103.575123
 20
444.001925
 30
0.0
 40
1.999999999999815
  0
ARC
  5
4E7
330
1F
100
AcDbEntity
  8
LC-001-100-D00-0
 62
     7
370
    50
100
AcDbCircle
 10
338.177081
 20
545.501925
 30
0.0
 40
1.500000000000568
100
AcDbArc
 50
90.0
 51
180.0
  0
LINE
  5
4E8
330
1F
100
AcDbEntity
  8
LC-001-100-D00-0
 62
     7
370
    50
100
AcDbLine
 10
336.677081
 20
536.001925
 30
0.0
 11
336.677081
 21
545.501925
 31
0.0
  0
ARC
  5
4E9
330
1F
100
AcDbEntity
  8
LC-001-100-D00-0
 62
     7
370
    50
100
AcDbCircle
 10
327.177081
 20
536.001925
 30
0.0
 40
9.499999999999773
100
AcDbArc
 50
270.0
 51
0.0
  0
LINE
  5
4EA
330
1F
100
AcDbEntity
  8
LC-001-100-D00-0
 62
     7
370
    50
100
AcDbLine
 10
-120.833534
 20
526.501925
 30
0.0
 11
327.177081
 21
526.501925
 31
0.0
  0
ARC
  5
4EB
330
1F
100
AcDbEntity
  8
LC-001-100-D00-0
 62
     7
370
    50
100
AcDbCircle
 10
-120.833534
 20
524.001925
 30
0.0
 40
2.499999999999659
100
AcDbArc
 50
90.0
 51
105.0
  0
LINE
  5
4EC
330
1F
100
AcDbEntity
  8
LC-001-100-D00-0
 62
     7
370
    50
100
AcDbLine
 10
-121.480581
 20
526.416739
 30
0.0
 11
-139.314253
 21
521.638222
 31
0.0
  0
ARC
  5
4ED
330
1F
100
AcDbEntity
  8
LC-001-100-D00-0
 62
     7
370
    50
100
AcDbCircle
 10
-140.349529
 20
525.501925
 30
0.0
 40
4.000000000000114
100
AcDbArc
 50
270.0
 51
285.0
  0
LINE
  5
4EE
330
1F
100
AcDbEntity
  8
LC-001-100-D00-0
 62
     7
370
    50
100
AcDbLine
 10
-140.349529
 20
521.501925
 30
0.0
 11
-157.022919
 21
521.501925
 31
0.0
  0
ARC
  5
4EF
330
1F
100
AcDbEntity
  8
LC-001-100-D00-0
 62
     7
370
    50
100
AcDbCircle
 10
-157.022919
 20
520.501925
 30
0.0
 40
0.9999999999996589
100
AcDbArc
 50
90.0
 51
180.0
  0
LINE
  5
4F0
330
1F
100
AcDbEntity
  8
LC-001-100-D00-0
 62
     7
370
    50
100
AcDbLine
 10
-158.022919
 20
520.501925
 30
0.0
 11
-158.022918
 21
516.501923
 31
0.0
  0
LINE
  5
4F1
330
1F
100
AcDbEntity
  8
LC-001-100-D00-0
 62
     7
370
    50
100
AcDbLine
 10
-158.022918
 20
516.501923
 30
0.0
 11
-159.522919
 21
516.501925
 31
0.0
  0
LINE
  5
4F2
330
1F
100
AcDbEntity
  8
LC-001-100-D00-0
 62
     7
370
    50
100
AcDbLine
 10
-159.522919
 20
520.501925
 30
0.0
 11
-159.522919
 21
516.501925
 31
0.0
  0
ARC
  5
4F3
330
1F
100
AcDbEntity
  8
LC-001-100-D00-0
 62
     7
370
    50
100
AcDbCircle
 10
-157.022919
 20
520.501925
 30
0.0
 40
2.500000000000114
100
AcDbArc
 50
90.0
 51
180.0
  0
LINE
  5
4F4
330
1F
100
AcDbEntity
  8
LC-001-100-D00-0
 62
     7
370
    50
100
AcDbLine
 10
-140.349529
 20
523.001925
 30
0.0
 11
-157.022919
 21
523.001925
 31
0.0
  0
ARC
  5
4F5
330
1F
100
AcDbEntity
  8
LC-001-100-D00-0
 62
     7
370
    50
100
AcDbCircle
 10
-140.349529
 20
525.501925
 30
0.0
 40
2.500000000000114
100
AcDbArc
 50
270.0
 51
285.0
  0
LINE
  5
4F6
330
1F
100
AcDbEntity
  8
LC-001-100-D00-0
 62
     7
370
    50
100
AcDbLine
 10
-121.86881
 20
527.865628
 30
0.0
 11
-139.702481
 21
523.08711
 31
0.0
  0
ARC
  5
4F7
330
1F
100
AcDbEntity
  8
LC-001-100-D00-0
 62
     7
370
    50
100
AcDbCircle
 10
-120.833534
 20
524.001925
 30
0.0
 40
3.999999999999659
100
AcDbArc
 50
90.0
 51
105.0
  0
LINE
  5
4F8
330
1F
100
AcDbEntity
  8
LC-001-100-D00-0
 62
     7
370
    50
100
AcDbLine
 10
-120.833534
 20
528.001925
 30
0.0
 11
-119.322919
 21
528.001924
 31
0.0
  0
LINE
  5
4F9
330
1F
100
AcDbEntity
  8
LC-001-100-D00-0
 62
     7
370
    50
100
AcDbLine
 10
-119.322919
 20
528.001924
 30
0.0
 11
-119.322919
 21
529.401926
 31
0.0
  0
LINE
  5
4FA
330
1F
100
AcDbEntity
  8
LC-001-100-D00-0
 62
     7
370
    50
100
AcDbLine
 10
-118.822919
 20
529.401925
 30
0.0
 11
-119.322919
 21
529.401926
 31
0.0
  0
ARC
  5
4FB
330
1F
100
AcDbEntity
  8
LC-001-100-D00-0
 62
     7
370
    50
100
AcDbCircle
 10
-119.822919
 20
530.901925
 30
0.0
 40
1.802775637731963
100
AcDbArc
 50
303.690068
 51
56.309932
  0
LINE
  5
4FC
330
1F
100
AcDbEntity
  8
LC-001-100-D00-0
 62
     7
370
    50
100
AcDbLine
 10
-118.822918
 20
547.001925
 30
0.0
 11
-118.822919
 21
532.401925
 31
0.0
  0
LINE
  5
4FD
330
1F
100
AcDbEntity
  8
LC-001-100-D00-0
 62
     7
370
    50
100
AcDbLine
 10
-117.822916
 20
548.001925
 30
0.0
 11
-118.822918
 21
547.001925
 31
0.0
  0
LINE
  5
4FE
330
1F
100
AcDbEntity
  8
LC-001-100-D00-0
 62
     7
370
    50
100
AcDbLine
 10
-111.822919
 20
548.001925
 30
0.0
 11
-117.822916
 21
548.001925
 31
0.0
  0
LINE
  5
4FF
330
1F
100
AcDbEntity
  8
LC-001-100-D00-0
 62
     7
370
    50
100
AcDbLine
 10
-110.822917
 20
547.001925
 30
0.0
 11
-111.822919
 21
548.001925
 31
0.0
  0
LINE
  5
500
330
1F
100
AcDbEntity
  8
LC-001-100-D00-0
 62
     7
370
    50
100
AcDbLine
 10
-110.822919
 20
532.401925
 30
0.0
 11
-110.822917
 21
547.001925
 31
0.0
  0
ARC
  5
501
330
1F
100
AcDbEntity
  8
LC-001-100-D00-0
 62
     7
370
    50
100
AcDbCircle
 10
-109.822919
 20
530.901925
 30
0.0
 40
1.802775637732058
100
AcDbArc
 50
123.690068
 51
236.309932
  0
LINE
  5
502
330
1F
100
AcDbEntity
  8
LC-001-100-D00-0
 62
     7
370
    50
100
AcDbLine
 10
-110.322916
 20
529.401926
 30
0.0
 11
-110.822919
 21
529.401925
 31
0.0
  0
LINE
  5
503
330
1F
100
AcDbEntity
  8
LC-001-100-D00-0
 62
     7
370
    50
100
AcDbLine
 10
-110.322916
 20
529.401926
 30
0.0
 11
-110.322916
 21
528.001924
 31
0.0
  0
LINE
  5
504
330
1F
100
AcDbEntity
  8
LC-001-100-D00-0
 62
     7
370
    50
100
AcDbLine
 10
-110.322916
 20
528.001924
 30
0.0
 11
37.34374
 21
528.001924
 31
0.0
  0
LINE
  5
505
330
1F
100
AcDbEntity
  8
LC-001-100-D00-0
 62
     7
370
    50
100
AcDbLine
 10
37.34374
 20
528.001924
 30
0.0
 11
37.34374
 21
529.401926
 31
0.0
  0
LINE
  5
506
330
1F
100
AcDbEntity
  8
LC-001-100-D00-0
 62
     7
370
    50
100
AcDbLine
 10
37.843748
 20
529.401925
 30
0.0
 11
37.34374
 21
529.401926
 31
0.0
  0
ARC
  5
507
330
1F
100
AcDbEntity
  8
LC-001-100-D00-0
 62
     7
370
    50
100
AcDbCircle
 10
36.843748
 20
530.901925
 30
0.0
 40
1.802775637731963
100
AcDbArc
 50
303.690068
 51
56.309932
  0
LINE
  5
508
330
1F
100
AcDbEntity
  8
LC-001-100-D00-0
 62
     7
370
    50
100
AcDbLine
 10
37.843733
 20
547.001925
 30
0.0
 11
37.843748
 21
532.401925
 31
0.0
  0
LINE
  5
509
330
1F
100
AcDbEntity
  8
LC-001-100-D00-0
 62
     7
370
    50
100
AcDbLine
 10
38.84375
 20
548.001925
 30
0.0
 11
37.843733
 21
547.001925
 31
0.0
  0
LINE
  5
50A
330
1F
100
AcDbEntity
  8
LC-001-100-D00-0
 62
     7
370
    50
100
AcDbLine
 10
44.843762
 20
548.001925
 30
0.0
 11
38.84375
 21
548.001925
 31
0.0
  0
LINE
  5
50B
330
1F
100
AcDbEntity
  8
LC-001-100-D00-0
 62
     7
370
    50
100
AcDbLine
 10
45.84375
 20
547.001925
 30
0.0
 11
44.843762
 21
548.001925
 31
0.0
  0
LINE
  5
50C
330
1F
100
AcDbEntity
  8
LC-001-100-D00-0
 62
     7
370
    50
100
AcDbLine
 10
45.843748
 20
532.401925
 30
0.0
 11
45.84375
 21
547.001925
 31
0.0
  0
ARC
  5
50D
330
1F
100
AcDbEntity
  8
LC-001-100-D00-0
 62
     7
370
    50
100
AcDbCircle
 10
46.843748
 20
530.901925
 30
0.0
 40
1.802775637732058
100
AcDbArc
 50
123.690068
 51
236.309932
  0
LINE
  5
50E
330
1F
100
AcDbEntity
  8
LC-001-100-D00-0
 62
     7
370
    50
100
AcDbLine
 10
46.343743
 20
529.401926
 30
0.0
 11
45.843748
 21
529.401925
 31
0.0
  0
LINE
  5
50F
330
1F
100
AcDbEntity
  8
LC-001-100-D00-0
 62
     7
370
    50
100
AcDbLine
 10
46.343743
 20
529.401926
 30
0.0
 11
46.343743
 21
528.001924
 31
0.0
  0
LINE
  5
510
330
1F
100
AcDbEntity
  8
LC-001-100-D00-0
 62
     7
370
    50
100
AcDbLine
 10
46.343743
 20
528.001924
 30
0.0
 11
144.010424
 21
528.001924
 31
0.0
  0
LINE
  5
511
330
1F
100
AcDbEntity
  8
LC-001-100-D00-0
 62
     7
370
    50
100
AcDbLine
 10
144.010424
 20
528.001924
 30
0.0
 11
144.010424
 21
529.401926
 31
0.0
  0
LINE
  5
512
330
1F
100
AcDbEntity
  8
LC-001-100-D00-0
 62
     7
370
    50
100
AcDbLine
 10
144.510414
 20
529.401925
 30
0.0
 11
144.010424
 21
529.401926
 31
0.0
  0
ARC
  5
513
330
1F
100
AcDbEntity
  8
LC-001-100-D00-0
 62
     7
370
    50
100
AcDbCircle
 10
143.510414
 20
530.901925
 30
0.0
 40
1.802775637731963
100
AcDbArc
 50
303.690068
 51
56.309932
  0
LINE
  5
514
330
1F
100
AcDbEntity
  8
LC-001-100-D00-0
 62
     7
370
    50
100
AcDbLine
 10
144.510418
 20
547.001925
 30
0.0
 11
144.510414
 21
532.401925
 31
0.0
  0
LINE
  5
515
330
1F
100
AcDbEntity
  8
LC-001-100-D00-0
 62
     7
370
    50
100
AcDbLine
 10
145.510405
 20
548.001925
 30
0.0
 11
144.510418
 21
547.001925
 31
0.0
  0
LINE
  5
516
330
1F
100
AcDbEntity
  8
LC-001-100-D00-0
 62
     7
370
    50
100
AcDbLine
 10
151.510417
 20
548.001925
 30
0.0
 11
145.510405
 21
548.001925
 31
0.0
  0
LINE
  5
517
330
1F
100
AcDbEntity
  8
LC-001-100-D00-0
 62
     7
370
    50
100
AcDbLine
 10
152.510404
 20
547.001925
 30
0.0
 11
151.510417
 21
548.001925
 31
0.0
  0
LINE
  5
518
330
1F
100
AcDbEntity
  8
LC-001-100-D00-0
 62
     7
370
    50
100
AcDbLine
 10
152.510414
 20
532.401925
 30
0.0
 11
152.510404
 21
547.001925
 31
0.0
  0
ARC
  5
519
330
1F
100
AcDbEntity
  8
LC-001-100-D00-0
 62
     7
370
    50
100
AcDbCircle
 10
153.510414
 20
530.901925
 30
0.0
 40
1.802775637732058
100
AcDbArc
 50
123.690068
 51
236.309932
  0
LINE
  5
51A
330
1F
100
AcDbEntity
  8
LC-001-100-D00-0
 62
     7
370
    50
100
AcDbLine
 10
153.010427
 20
529.401926
 30
0.0
 11
152.510414
 21
529.401925
 31
0.0
  0
LINE
  5
51B
330
1F
100
AcDbEntity
  8
LC-001-100-D00-0
 62
     7
370
    50
100
AcDbLine
 10
153.010427
 20
529.401926
 30
0.0
 11
153.010427
 21
528.001924
 31
0.0
  0
LINE
  5
51C
330
1F
100
AcDbEntity
  8
LC-001-100-D00-0
 62
     7
370
    50
100
AcDbLine
 10
153.010427
 20
528.001924
 30
0.0
 11
300.67709
 21
528.001924
 31
0.0
  0
LINE
  5
51D
330
1F
100
AcDbEntity
  8
LC-001-100-D00-0
 62
     7
370
    50
100
AcDbLine
 10
300.67709
 20
528.001924
 30
0.0
 11
300.67709
 21
529.401926
 31
0.0
  0
LINE
  5
51E
330
1F
100
AcDbEntity
  8
LC-001-100-D00-0
 62
     7
370
    50
100
AcDbLine
 10
301.177081
 20
529.401925
 30
0.0
 11
300.67709
 21
529.401926
 31
0.0
  0
ARC
  5
51F
330
1F
100
AcDbEntity
  8
LC-001-100-D00-0
 62
     7
370
    50
100
AcDbCircle
 10
300.177081
 20
530.901925
 30
0.0
 40
1.802775637731963
100
AcDbArc
 50
303.690068
 51
56.309932
  0
LINE
  5
520
330
1F
100
AcDbEntity
  8
LC-001-100-D00-0
 62
     7
370
    50
100
AcDbLine
 10
301.177054
 20
547.001925
 30
0.0
 11
301.177081
 21
532.401925
 31
0.0
  0
LINE
  5
521
330
1F
100
AcDbEntity
  8
LC-001-100-D00-0
 62
     7
370
    50
100
AcDbLine
 10
302.177101
 20
548.001925
 30
0.0
 11
301.177054
 21
547.001925
 31
0.0
  0
LINE
  5
522
330
1F
100
AcDbEntity
  8
LC-001-100-D00-0
 62
     7
370
    50
100
AcDbLine
 10
308.177083
 20
548.001925
 30
0.0
 11
302.177101
 21
548.001925
 31
0.0
  0
LINE
  5
523
330
1F
100
AcDbEntity
  8
LC-001-100-D00-0
 62
     7
370
    50
100
AcDbLine
 10
309.17707
 20
547.001925
 30
0.0
 11
308.177083
 21
548.001925
 31
0.0
  0
LINE
  5
524
330
1F
100
AcDbEntity
  8
LC-001-100-D00-0
 62
     7
370
    50
100
AcDbLine
 10
309.177081
 20
532.401925
 30
0.0
 11
309.17707
 21
547.001925
 31
0.0
  0
ARC
  5
525
330
1F
100
AcDbEntity
  8
LC-001-100-D00-0
 62
     7
370
    50
100
AcDbCircle
 10
310.177081
 20
530.901925
 30
0.0
 40
1.8027756377319
100
AcDbArc
 50
123.690068
 51
236.309932
  0
LINE
  5
526
330
1F
100
AcDbEntity
  8
LC-001-100-D00-0
 62
     7
370
    50
100
AcDbLine
 10
309.677094
 20
529.401926
 30
0.0
 11
309.177081
 21
529.401925
 31
0.0
  0
LINE
  5
527
330
1F
100
AcDbEntity
  8
LC-001-100-D00-0
 62
     7
370
    50
100
AcDbLine
 10
309.677094
 20
529.401926
 30
0.0
 11
309.677094
 21
528.001924
 31
0.0
  0
LINE
  5
528
330
1F
100
AcDbEntity
  8
LC-001-100-D00-0
 62
     7
370
    50
100
AcDbLine
 10
309.677094
 20
528.001924
 30
0.0
 11
327.177081
 21
528.001925
 31
0.0
  0
ARC
  5
529
330
1F
100
AcDbEntity
  8
LC-001-100-D00-0
 62
     7
370
    50
100
AcDbCircle
 10
327.177081
 20
536.001925
 30
0.0
 40
8.000000000000341
100
AcDbArc
 50
270.0
 51
0.0
  0
LINE
  5
52A
330
1F
100
AcDbEntity
  8
LC-001-100-D00-0
 62
     7
370
    50
100
AcDbLine
 10
335.177081
 20
536.001925
 30
0.0
 11
335.177081
 21
545.501925
 31
0.0
  0
ARC
  5
52B
330
1F
100
AcDbEntity
  8
LC-001-100-D00-0
 62
     7
370
    50
100
AcDbCircle
 10
338.177081
 20
545.501925
 30
0.0
 40
3.0
100
AcDbArc
 50
90.0
 51
180.0
  0
LINE
  5
52C
330
1F
100
AcDbEntity
  8
LC-001-100-D00-0
 62
     7
370
    50
100
AcDbLine
 10
385.177105
 20
548.501925
 30
0.0
 11
338.177081
 21
548.501925
 31
0.0
  0
LINE
  5
52D
330
1F
100
AcDbEntity
  8
LC-001-100-D00-0
 62
     7
370
    50
100
AcDbLine
 10
385.177105
 20
547.001925
 30
0.0
 11
385.177105
 21
548.501925
 31
0.0
  0
LINE
  5
52E
330
1F
100
AcDbEntity
  8
LC-001-100-D00-0
 62
     7
370
    50
100
AcDbLine
 10
385.177105
 20
547.001925
 30
0.0
 11
338.177081
 21
547.001925
 31
0.0
  0
LINE
  5
52F
330
1F
100
AcDbEntity
  8
LC-001-100-D00-0
 62
     7
370
    50
100
AcDbLine
 10
-170.429035
 20
523.001925
 30
0.0
 11
-157.022919
 21
523.001925
 31
0.0
  0
LINE
  5
530
330
1F
100
AcDbEntity
  8
LC-001-100-D00-0
 62
     7
370
    50
100
AcDbLine
 10
-159.522919
 20
516.501925
 30
0.0
 11
-159.572919
 21
516.501925
 31
0.0
  0
LINE
  5
531
330
1F
100
AcDbEntity
  8
LC-001-100-D00-0
 62
     7
370
    50
100
AcDbLine
 10
-270.072919
 20
516.501925
 30
0.0
 11
-270.122919
 21
516.501925
 31
0.0
  0
LINE
  5
532
330
1F
100
AcDbEntity
  8
LC-001-100-D00-0
 62
     7
370
    50
100
AcDbLine
 10
-270.122919
 20
516.501925
 30
0.0
 11
-270.122919
 21
520.501925
 31
0.0
  0
LINE
  5
533
330
1F
100
AcDbEntity
  8
LC-001-100-D00-0
 62
     7
370
    50
100
AcDbLine
 10
-271.622919
 20
516.501923
 30
0.0
 11
-271.622919
 21
520.501925
 31
0.0
  0
LINE
  5
534
330
1F
100
AcDbEntity
  8
LC-001-100-D00-0
 62
     7
370
    50
100
AcDbLine
 10
-582.156242
 20
547.001925
 30
0.0
 11
-582.156252
 21
532.401925
 31
0.0
  0
LINE
  5
535
330
1F
100
AcDbEntity
  8
LC-001-100-D00-0
 62
     7
370
    50
100
AcDbLine
 10
-581.156254
 20
548.001925
 30
0.0
 11
-582.156242
 21
547.001925
 31
0.0
  0
LINE
  5
536
330
1F
100
AcDbEntity
  8
LC-001-100-D00-0
 62
     7
370
    50
100
AcDbLine
 10
-575.156242
 20
548.001925
 30
0.0
 11
-581.156254
 21
548.001925
 31
0.0
  0
LINE
  5
537
330
1F
100
AcDbEntity
  8
LC-001-100-D00-0
 62
     7
370
    50
100
AcDbLine
 10
-574.156255
 20
547.001925
 30
0.0
 11
-575.156242
 21
548.001925
 31
0.0
  0
LINE
  5
538
330
1F
100
AcDbEntity
  8
LC-001-100-D00-0
 62
     7
370
    50
100
AcDbLine
 10
-574.156252
 20
532.401925
 30
0.0
 11
-574.156255
 21
547.001925
 31
0.0
  0
ARC
  5
539
330
1F
100
AcDbEntity
  8
LC-001-100-D00-0
 62
     7
370
    50
100
AcDbCircle
 10
-573.156252
 20
530.901925
 30
0.0
 40
1.802775637732121
100
AcDbArc
 50
123.690068
 51
236.309932
  0
LINE
  5
53A
330
1F
100
AcDbEntity
  8
LC-001-100-D00-0
 62
     7
370
    50
100
AcDbLine
 10
-573.656262
 20
529.401926
 30
0.0
 11
-574.156252
 21
529.401925
 31
0.0
  0
LINE
  5
53B
330
1F
100
AcDbEntity
  8
LC-001-100-D00-0
 62
     7
370
    50
100
AcDbLine
 10
-573.656262
 20
529.401926
 30
0.0
 11
-573.656262
 21
528.001924
 31
0.0
  0
LINE
  5
53C
330
1F
100
AcDbEntity
  8
LC-001-100-D00-0
 62
     7
370
    50
100
AcDbLine
 10
-573.656262
 20
528.001924
 30
0.0
 11
-475.989581
 21
528.001924
 31
0.0
  0
LINE
  5
53D
330
1F
100
AcDbEntity
  8
LC-001-100-D00-0
 62
     7
370
    50
100
AcDbLine
 10
-475.989581
 20
528.001924
 30
0.0
 11
-475.989581
 21
529.401926
 31
0.0
  0
LINE
  5
53E
330
1F
100
AcDbEntity
  8
LC-001-100-D00-0
 62
     7
370
    50
100
AcDbLine
 10
-475.489586
 20
529.401925
 30
0.0
 11
-475.989581
 21
529.401926
 31
0.0
  0
ARC
  5
53F
330
1F
100
AcDbEntity
  8
LC-001-100-D00-0
 62
     7
370
    50
100
AcDbCircle
 10
-476.489586
 20
530.901925
 30
0.0
 40
1.802775637731995
100
AcDbArc
 50
303.690068
 51
56.309932
  0
LINE
  5
540
330
1F
100
AcDbEntity
  8
LC-001-100-D00-0
 62
     7
370
    50
100
AcDbLine
 10
-475.489587
 20
547.001925
 30
0.0
 11
-475.489586
 21
532.401925
 31
0.0
  0
LINE
  5
541
330
1F
100
AcDbEntity
  8
LC-001-100-D00-0
 62
     7
370
    50
100
AcDbLine
 10
-474.4896
 20
548.001925
 30
0.0
 11
-475.489587
 21
547.001925
 31
0.0
  0
LINE
  5
542
330
1F
100
AcDbEntity
  8
LC-001-100-D00-0
 62
     7
370
    50
100
AcDbLine
 10
-468.489588
 20
548.001925
 30
0.0
 11
-474.4896
 21
548.001925
 31
0.0
  0
LINE
  5
543
330
1F
100
AcDbEntity
  8
LC-001-100-D00-0
 62
     7
370
    50
100
AcDbLine
 10
-467.489571
 20
547.001925
 30
0.0
 11
-468.489588
 21
548.001925
 31
0.0
  0
LINE
  5
544
330
1F
100
AcDbEntity
  8
LC-001-100-D00-0
 62
     7
370
    50
100
AcDbLine
 10
-467.489586
 20
532.401925
 30
0.0
 11
-467.489571
 21
547.001925
 31
0.0
  0
ARC
  5
545
330
1F
100
AcDbEntity
  8
LC-001-100-D00-0
 62
     7
370
    50
100
AcDbCircle
 10
-466.489586
 20
530.901925
 30
0.0
 40
1.802775637732089
100
AcDbArc
 50
123.690068
 51
236.309932
  0
LINE
  5
546
330
1F
100
AcDbEntity
  8
LC-001-100-D00-0
 62
     7
370
    50
100
AcDbLine
 10
-466.989577
 20
529.401926
 30
0.0
 11
-467.489586
 21
529.401925
 31
0.0
  0
LINE
  5
547
330
1F
100
AcDbEntity
  8
LC-001-100-D00-0
 62
     7
370
    50
100
AcDbLine
 10
-466.989577
 20
529.401926
 30
0.0
 11
-466.989577
 21
528.001924
 31
0.0
  0
LINE
  5
548
330
1F
100
AcDbEntity
  8
LC-001-100-D00-0
 62
     7
370
    50
100
AcDbLine
 10
-466.989577
 20
528.001924
 30
0.0
 11
-319.322922
 21
528.001924
 31
0.0
  0
LINE
  5
549
330
1F
100
AcDbEntity
  8
LC-001-100-D00-0
 62
     7
370
    50
100
AcDbLine
 10
-319.322922
 20
528.001924
 30
0.0
 11
-319.322922
 21
529.401926
 31
0.0
  0
LINE
  5
54A
330
1F
100
AcDbEntity
  8
LC-001-100-D00-0
 62
     7
370
    50
100
AcDbLine
 10
-318.822919
 20
529.401925
 30
0.0
 11
-319.322922
 21
529.401926
 31
0.0
  0
ARC
  5
54B
330
1F
100
AcDbEntity
  8
LC-001-100-D00-0
 62
     7
370
    50
100
AcDbCircle
 10
-319.822919
 20
530.901925
 30
0.0
 40
1.802775637732026
100
AcDbArc
 50
303.690068
 51
56.309932
  0
LINE
  5
54C
330
1F
100
AcDbEntity
  8
LC-001-100-D00-0
 62
     7
370
    50
100
AcDbLine
 10
-318.822921
 20
547.001925
 30
0.0
 11
-318.822919
 21
532.401925
 31
0.0
  0
LINE
  5
54D
330
1F
100
AcDbEntity
  8
LC-001-100-D00-0
 62
     7
370
    50
100
AcDbLine
 10
-317.822919
 20
548.001925
 30
0.0
 11
-318.822921
 21
547.001925
 31
0.0
  0
LINE
  5
54E
330
1F
100
AcDbEntity
  8
LC-001-100-D00-0
 62
     7
370
    50
100
AcDbLine
 10
-311.822922
 20
548.001925
 30
0.0
 11
-317.822919
 21
548.001925
 31
0.0
  0
LINE
  5
54F
330
1F
100
AcDbEntity
  8
LC-001-100-D00-0
 62
     7
370
    50
100
AcDbLine
 10
-310.82292
 20
547.001925
 30
0.0
 11
-311.822922
 21
548.001925
 31
0.0
  0
LINE
  5
550
330
1F
100
AcDbEntity
  8
LC-001-100-D00-0
 62
     7
370
    50
100
AcDbLine
 10
-310.822919
 20
532.401925
 30
0.0
 11
-310.82292
 21
547.001925
 31
0.0
  0
ARC
  5
551
330
1F
100
AcDbEntity
  8
LC-001-100-D00-0
 62
     7
370
    50
100
AcDbCircle
 10
-309.822919
 20
530.901925
 30
0.0
 40
1.802775637732058
100
AcDbArc
 50
123.690068
 51
236.309932
  0
LINE
  5
552
330
1F
100
AcDbEntity
  8
LC-001-100-D00-0
 62
     7
370
    50
100
AcDbLine
 10
-310.322919
 20
529.401926
 30
0.0
 11
-310.822919
 21
529.401925
 31
0.0
  0
LINE
  5
553
330
1F
100
AcDbEntity
  8
LC-001-100-D00-0
 62
     7
370
    50
100
AcDbLine
 10
-310.322919
 20
529.401926
 30
0.0
 11
-310.322919
 21
528.001924
 31
0.0
  0
LINE
  5
554
330
1F
100
AcDbEntity
  8
LC-001-100-D00-0
 62
     7
370
    50
100
AcDbLine
 10
-310.322919
 20
528.001924
 30
0.0
 11
-308.812304
 21
528.001925
 31
0.0
  0
ARC
  5
555
330
1F
100
AcDbEntity
  8
LC-001-100-D00-0
 62
     7
370
    50
100
AcDbCircle
 10
-308.812304
 20
524.001925
 30
0.0
 40
3.999999999999763
100
AcDbArc
 50
75.0
 51
90.0
  0
LINE
  5
556
330
1F
100
AcDbEntity
  8
LC-001-100-D00-0
 62
     7
370
    50
100
AcDbLine
 10
-289.943356
 20
523.08711
 30
0.0
 11
-307.777028
 21
527.865628
 31
0.0
  0
ARC
  5
557
330
1F
100
AcDbEntity
  8
LC-001-100-D00-0
 62
     7
370
    50
100
AcDbCircle
 10
-289.296309
 20
525.501925
 30
0.0
 40
2.500000000000186
100
AcDbArc
 50
255.0
 51
270.0
  0
LINE
  5
558
330
1F
100
AcDbEntity
  8
LC-001-100-D00-0
 62
     7
370
    50
100
AcDbLine
 10
-283.900127
 20
523.001925
 30
0.0
 11
-289.296309
 21
523.001925
 31
0.0
  0
LINE
  5
559
330
1F
100
AcDbEntity
  8
LC-001-100-D00-0
 62
     7
370
    50
100
AcDbLine
 10
-283.900127
 20
522.901926
 30
0.0
 11
-283.900127
 21
523.001925
 31
0.0
  0
LINE
  5
55A
330
1F
100
AcDbEntity
  8
LC-001-100-D00-0
 62
     7
370
    50
100
AcDbLine
 10
-283.376292
 20
522.901926
 30
0.0
 11
-283.900127
 21
522.901926
 31
0.0
  0
LINE
  5
55B
330
1F
100
AcDbEntity
  8
LC-001-100-D00-0
 62
     7
370
    50
100
AcDbLine
 10
-283.376292
 20
523.001925
 30
0.0
 11
-283.376292
 21
522.901926
 31
0.0
  0
LINE
  5
55C
330
1F
100
AcDbEntity
  8
LC-001-100-D00-0
 62
     7
370
    50
100
AcDbLine
 10
-282.682047
 20
523.001925
 30
0.0
 11
-283.376292
 21
523.001925
 31
0.0
  0
LINE
  5
55D
330
1F
100
AcDbEntity
  8
LC-001-100-D00-0
 62
     7
370
    50
100
AcDbLine
 10
-282.682047
 20
522.901926
 30
0.0
 11
-282.682047
 21
523.001925
 31
0.0
  0
LINE
  5
55E
330
1F
100
AcDbEntity
  8
LC-001-100-D00-0
 62
     7
370
    50
100
AcDbLine
 10
-282.157697
 20
522.901926
 30
0.0
 11
-282.682047
 21
522.901926
 31
0.0
  0
LINE
  5
55F
330
1F
100
AcDbEntity
  8
LC-001-100-D00-0
 62
     7
370
    50
100
AcDbLine
 10
-282.157697
 20
523.001925
 30
0.0
 11
-282.157697
 21
522.901926
 31
0.0
  0
LINE
  5
560
330
1F
100
AcDbEntity
  8
LC-001-100-D00-0
 62
     7
370
    50
100
AcDbLine
 10
-272.622919
 20
523.001925
 30
0.0
 11
-282.157697
 21
523.001925
 31
0.0
  0
ARC
  5
561
330
1F
100
AcDbEntity
  8
LC-001-100-D00-0
 62
     7
370
    50
100
AcDbCircle
 10
-272.622919
 20
520.501925
 30
0.0
 40
2.500000000000171
100
AcDbArc
 50
0.0
 51
90.0
  0
LINE
  5
562
330
1F
100
AcDbEntity
  8
LC-001-100-D00-0
 62
     7
370
    50
100
AcDbLine
 10
-270.122919
 20
516.501925
 30
0.0
 11
-271.622919
 21
516.501923
 31
0.0
  0
ARC
  5
563
330
1F
100
AcDbEntity
  8
LC-001-100-D00-0
 62
     7
370
    50
100
AcDbCircle
 10
-272.622919
 20
520.501925
 30
0.0
 40
0.9999999999999432
100
AcDbArc
 50
0.0
 51
90.0
  0
LINE
  5
564
330
1F
100
AcDbEntity
  8
LC-001-100-D00-0
 62
     7
370
    50
100
AcDbLine
 10
-272.622919
 20
521.501925
 30
0.0
 11
-289.296309
 21
521.501925
 31
0.0
  0
ARC
  5
565
330
1F
100
AcDbEntity
  8
LC-001-100-D00-0
 62
     7
370
    50
100
AcDbCircle
 10
-289.296309
 20
525.501925
 30
0.0
 40
4.000000000000232
100
AcDbArc
 50
255.0
 51
270.0
  0
LINE
  5
566
330
1F
100
AcDbEntity
  8
LC-001-100-D00-0
 62
     7
370
    50
100
AcDbLine
 10
-290.331585
 20
521.638222
 30
0.0
 11
-308.165257
 21
526.416739
 31
0.0
  0
ARC
  5
567
330
1F
100
AcDbEntity
  8
LC-001-100-D00-0
 62
     7
370
    50
100
AcDbCircle
 10
-308.812304
 20
524.001925
 30
0.0
 40
2.499999999999718
100
AcDbArc
 50
75.0
 51
90.0
  0
LINE
  5
568
330
1F
100
AcDbEntity
  8
LC-001-100-D00-0
 62
     7
370
    50
100
AcDbLine
 10
-756.822919
 20
526.501925
 30
0.0
 11
-308.812304
 21
526.501925
 31
0.0
  0
ARC
  5
569
330
1F
100
AcDbEntity
  8
LC-001-100-D00-0
 62
     7
370
    50
100
AcDbCircle
 10
-756.822919
 20
536.001925
 30
0.0
 40
9.5
100
AcDbArc
 50
180.0
 51
270.0
  0
LINE
  5
56A
330
1F
100
AcDbEntity
  8
LC-001-100-D00-0
 62
     7
370
    50
100
AcDbLine
 10
-766.322919
 20
545.501925
 30
0.0
 11
-766.322919
 21
536.001925
 31
0.0
  0
ARC
  5
56B
330
1F
100
AcDbEntity
  8
LC-001-100-D00-0
 62
     7
370
    50
100
AcDbCircle
 10
-767.822919
 20
545.501925
 30
0.0
 40
1.5
100
AcDbArc
 50
0.0
 51
90.0
  0
LINE
  5
56C
330
1F
100
AcDbEntity
  8
LC-001-100-D00-0
 62
     7
370
    50
100
AcDbLine
 10
-814.822943
 20
548.501925
 30
0.0
 11
-814.822943
 21
547.001925
 31
0.0
  0
ARC
  5
56D
330
1F
100
AcDbEntity
  8
LC-001-100-D00-0
 62
     7
370
    50
100
AcDbCircle
 10
-767.822919
 20
545.501925
 30
0.0
 40
3.0
100
AcDbArc
 50
0.0
 51
90.0
  0
LINE
  5
56E
330
1F
100
AcDbEntity
  8
LC-001-100-D00-0
 62
     7
370
    50
100
AcDbLine
 10
-764.822919
 20
545.501925
 30
0.0
 11
-764.822919
 21
536.001925
 31
0.0
  0
ARC
  5
56F
330
1F
100
AcDbEntity
  8
LC-001-100-D00-0
 62
     7
370
    50
100
AcDbCircle
 10
-756.822919
 20
536.001925
 30
0.0
 40
8.000000000000114
100
AcDbArc
 50
180.0
 51
270.0
  0
LINE
  5
570
330
1F
100
AcDbEntity
  8
LC-001-100-D00-0
 62
     7
370
    50
100
AcDbLine
 10
-756.822919
 20
528.001925
 30
0.0
 11
-739.322931
 21
528.001924
 31
0.0
  0
LINE
  5
571
330
1F
100
AcDbEntity
  8
LC-001-100-D00-0
 62
     7
370
    50
100
AcDbLine
 10
-739.322931
 20
528.001924
 30
0.0
 11
-739.322931
 21
529.401926
 31
0.0
  0
LINE
  5
572
330
1F
100
AcDbEntity
  8
LC-001-100-D00-0
 62
     7
370
    50
100
AcDbLine
 10
-738.822919
 20
529.401925
 30
0.0
 11
-739.322931
 21
529.401926
 31
0.0
  0
ARC
  5
573
330
1F
100
AcDbEntity
  8
LC-001-100-D00-0
 62
     7
370
    50
100
AcDbCircle
 10
-739.822919
 20
530.901925
 30
0.0
 40
1.802775637731585
100
AcDbArc
 50
303.690068
 51
56.309932
  0
LINE
  5
574
330
1F
100
AcDbEntity
  8
LC-001-100-D00-0
 62
     7
370
    50
100
AcDbLine
 10
-738.822908
 20
547.001925
 30
0.0
 11
-738.822919
 21
532.401925
 31
0.0
  0
LINE
  5
575
330
1F
100
AcDbEntity
  8
LC-001-100-D00-0
 62
     7
370
    50
100
AcDbLine
 10
-737.822921
 20
548.001925
 30
0.0
 11
-738.822908
 21
547.001925
 31
0.0
  0
LINE
  5
576
330
1F
100
AcDbEntity
  8
LC-001-100-D00-0
 62
     7
370
    50
100
AcDbLine
 10
-731.822938
 20
548.001925
 30
0.0
 11
-737.822921
 21
548.001925
 31
0.0
  0
LINE
  5
577
330
1F
100
AcDbEntity
  8
LC-001-100-D00-0
 62
     7
370
    50
100
AcDbLine
 10
-730.822892
 20
547.001925
 30
0.0
 11
-731.822938
 21
548.001925
 31
0.0
  0
LINE
  5
578
330
1F
100
AcDbEntity
  8
LC-001-100-D00-0
 62
     7
370
    50
100
AcDbLine
 10
-730.822919
 20
532.401925
 30
0.0
 11
-730.822892
 21
547.001925
 31
0.0
  0
ARC
  5
579
330
1F
100
AcDbEntity
  8
LC-001-100-D00-0
 62
     7
370
    50
100
AcDbCircle
 10
-729.822919
 20
530.901925
 30
0.0
 40
1.802775637731711
100
AcDbArc
 50
123.690068
 51
236.309932
  0
LINE
  5
57A
330
1F
100
AcDbEntity
  8
LC-001-100-D00-0
 62
     7
370
    50
100
AcDbLine
 10
-730.322928
 20
529.401926
 30
0.0
 11
-730.822919
 21
529.401925
 31
0.0
  0
LINE
  5
57B
330
1F
100
AcDbEntity
  8
LC-001-100-D00-0
 62
     7
370
    50
100
AcDbLine
 10
-730.322928
 20
529.401926
 30
0.0
 11
-730.322928
 21
528.001924
 31
0.0
  0
LINE
  5
57C
330
1F
100
AcDbEntity
  8
LC-001-100-D00-0
 62
     7
370
    50
100
AcDbLine
 10
-730.322928
 20
528.001924
 30
0.0
 11
-582.656265
 21
528.001924
 31
0.0
  0
LINE
  5
57D
330
1F
100
AcDbEntity
  8
LC-001-100-D00-0
 62
     7
370
    50
100
AcDbLine
 10
-582.656265
 20
528.001924
 30
0.0
 11
-582.656265
 21
529.401926
 31
0.0
  0
LINE
  5
57E
330
1F
100
AcDbEntity
  8
LC-001-100-D00-0
 62
     7
370
    50
100
AcDbLine
 10
-582.156252
 20
529.401925
 30
0.0
 11
-582.656265
 21
529.401926
 31
0.0
  0
ARC
  5
57F
330
1F
100
AcDbEntity
  8
LC-001-100-D00-0
 62
     7
370
    50
100
AcDbCircle
 10
-583.156252
 20
530.901925
 30
0.0
 40
1.802775637732026
100
AcDbArc
 50
303.690068
 51
56.309932
  0
LINE
  5
580
330
1F
100
AcDbEntity
  8
LC-001-100-D00-0
 62
     7
370
    50
100
AcDbLine
 10
-767.822919
 20
547.001925
 30
0.0
 11
-814.822943
 21
547.001925
 31
0.0
  0
LINE
  5
581
330
1F
100
AcDbEntity
  8
LC-001-100-D00-0
 62
     7
370
    50
100
AcDbLine
 10
-767.822919
 20
548.501925
 30
0.0
 11
-814.822943
 21
548.501925
 31
0.0
  0
LINE
  5
582
330
1F
100
AcDbEntity
  8
LC-001-100-D00-0
 62
     7
370
    50
100
AcDbLine
 10
-259.216802
 20
523.001925
 30
0.0
 11
-272.622919
 21
523.001925
 31
0.0
  0
LINE
  5
583
330
1F
100
AcDbEntity
  8
LC-001-100-D00-0
 62
     7
370
    50
100
AcDbLine
 10
-282.682047
 20
523.001925
 30
0.0
 11
-282.157697
 21
523.001925
 31
0.0
  0
LINE
  5
584
330
1F
100
AcDbEntity
  8
LC-001-100-D00-0
 62
     7
370
    50
100
AcDbLine
 10
-283.900127
 20
523.001925
 30
0.0
 11
-283.376292
 21
523.001925
 31
0.0
  0
ELLIPSE
  5
585
330
1F
100
AcDbEntity
  8
LC-001-100-D00-0
 62
     7
370
    50
100
AcDbEllipse
 10
190.198898
 20
524.001925
 30
0.0
 11
0.0
 21
-2.499999818801987
 31
0.0
210
0.0
220
0.0
230
1.0
 40
0.027578
 41
6.283185307171754
 42
6.604935861568867
  0
ELLIPSE
  5
586
330
1F
100
AcDbEntity
  8
LC-001-100-D00-0
 62
     7
370
    50
100
AcDbEllipse
 10
-619.844736
 20
524.001925
 30
0.0
 11
0.0
 21
-2.499999969482535
 31
0.0
210
0.0
220
0.0
230
1.0
 40
0.027578
 41
5.961434752779136
 42
6.283185307174639
  0
ELLIPSE
  5
587
330
1F
100
AcDbEntity
  8
LC-001-100-D00-0
 62
     7
370
    50
100
AcDbEllipse
 10
-39.017673
 20
517.139816
 30
0.0
 11
229.1947499528955
 21
4.568208569406923
 31
0.0
210
0.0
220
0.0
230
1.0
 40
0.005528
 41
0.0
 42
6.283185307179586
  0
LINE
  5
588
330
1F
100
AcDbEntity
  8
LC-001-100-D00-0
 62
     7
370
    50
100
AcDbLine
 10
190.177082
 20
526.373272
 30
0.0
 11
190.177082
 21
521.707884
 31
0.0
  0
LINE
  5
589
330
1F
100
AcDbEntity
  8
LC-001-100-D00-0
 62
     7
370
    50
100
AcDbLine
 10
-619.82292
 20
526.373272
 30
0.0
 11
-619.82292
 21
521.707884
 31
0.0
  0
INSERT
  5
593
330
1F
100
AcDbEntity
  8
LC-001-100-D00-0
 62
     7
370
    50
100
AcDbBlockReference
  2
KLON18
 10
0.0
 20
0.0
 30
0.0
  0
INSERT
  5
59D
330
1F
100
AcDbEntity
  8
LC-001-100-D00-0
 62
     7
370
    50
100
AcDbBlockReference
  2
KLON19
 10
0.0
 20
0.0
 30
0.0
  0
LINE
  5
59E
330
1F
100
AcDbEntity
  8
LC-001-100-D00-0
 62
     7
370
    50
100
AcDbLine
 10
190.177082
 20
521.501924
 30
0.0
 11
190.177053
 21
521.707191
 31
0.0
  0
LINE
  5
59F
330
1F
100
AcDbEntity
  8
LC-001-100-D00-0
 62
     7
370
    50
100
AcDbLine
 10
-619.82292
 20
521.501924
 30
0.0
 11
-619.82289
 21
521.707191
 31
0.0
  0
LINE
  5
5A0
330
1F
100
AcDbEntity
  8
LC-001-100-D00-0
 62
     7
370
    50
100
AcDbLine
 10
-619.82292
 20
521.501924
 30
0.0
 11
-747.730584
 21
526.170089
 31
0.0
  0
LINE
  5
5A1
330
1F
100
AcDbEntity
  8
LC-001-100-D00-0
 62
     7
370
    50
100
AcDbLine
 10
-173.036762
 20
514.501925
 30
0.0
 11
-170.644216
 21
514.501925
 31
0.0
  0
LINE
  5
5A2
330
1F
100
AcDbEntity
  8
LC-001-100-D00-0
 62
     7
370
    50
100
AcDbLine
 10
-169.673004
 20
513.001925
 30
0.0
 11
-169.577417
 21
513.009985
 31
0.0
  0
LINE
  5
5A3
330
1F
100
AcDbEntity
  8
LC-001-100-D00-0
 62
     7
370
    50
100
AcDbLine
 10
-169.673004
 20
513.001925
 30
0.0
 11
-173.036762
 21
513.001925
 31
0.0
  0
LINE
  5
5A4
330
1F
100
AcDbEntity
  8
LC-001-100-D00-0
 62
     7
370
    50
100
AcDbLine
 10
-260.068421
 20
513.009985
 30
0.0
 11
-259.972834
 21
513.001925
 31
0.0
  0
LINE
  5
5A5
330
1F
100
AcDbEntity
  8
LC-001-100-D00-0
 62
     7
370
    50
100
AcDbLine
 10
-259.001622
 20
514.501925
 30
0.0
 11
-256.609075
 21
514.501925
 31
0.0
  0
LINE
  5
5A6
330
1F
100
AcDbEntity
  8
LC-001-100-D00-0
 62
     7
370
    50
100
AcDbLine
 10
-256.609075
 20
513.001925
 30
0.0
 11
-259.972834
 21
513.001925
 31
0.0
  0
LINE
  5
5A7
330
1F
100
AcDbEntity
  8
LC-001-100-D00-0
 62
     7
370
    50
100
AcDbLine
 10
-173.036762
 20
513.001925
 30
0.0
 11
-173.813691
 21
513.001925
 31
0.0
  0
LINE
  5
5A8
330
1F
100
AcDbEntity
  8
LC-001-100-D00-0
 62
     7
370
    50
100
AcDbLine
 10
-173.036762
 20
514.501925
 30
0.0
 11
-173.813691
 21
514.501925
 31
0.0
  0
LINE
  5
5A9
330
1F
100
AcDbEntity
  8
LC-001-100-D00-0
 62
     7
370
    50
100
AcDbLine
 10
-256.609075
 20
514.501925
 30
0.0
 11
-255.832147
 21
514.501925
 31
0.0
  0
LINE
  5
5AA
330
1F
100
AcDbEntity
  8
LC-001-100-D00-0
 62
     7
370
    50
100
AcDbLine
 10
-256.609075
 20
513.001925
 30
0.0
 11
-255.832147
 21
513.001925
 31
0.0
  0
LINE
  5
5AB
330
1F
100
AcDbEntity
  8
LC-001-100-D00-0
 62
     7
370
    50
100
AcDbLine
 10
-140.349529
 20
521.501925
 30
0.0
 11
-138.248929
 21
521.501924
 31
0.0
  0
LINE
  5
5AC
330
1F
100
AcDbEntity
  8
LC-001-100-D00-0
 62
     7
370
    50
100
AcDbLine
 10
-289.296309
 20
521.501925
 30
0.0
 11
-291.396909
 21
521.501924
 31
0.0
  0
LINE
  5
5AD
330
1F
100
AcDbEntity
  8
LC-001-100-D00-0
 62
     7
370
    50
100
AcDbLine
 10
-173.813691
 20
513.001925
 30
0.0
 11
-175.108504
 21
513.001925
 31
0.0
  0
LINE
  5
5AE
330
1F
100
AcDbEntity
  8
LC-001-100-D00-0
 62
     7
370
    50
100
AcDbLine
 10
-175.092573
 20
514.501925
 30
0.0
 11
-173.813691
 21
514.501925
 31
0.0
  0
LINE
  5
5AF
330
1F
100
AcDbEntity
  8
LC-001-100-D00-0
 62
     7
370
    50
100
AcDbLine
 10
-255.832147
 20
514.501925
 30
0.0
 11
-254.553265
 21
514.501925
 31
0.0
  0
LINE
  5
5B0
330
1F
100
AcDbEntity
  8
LC-001-100-D00-0
 62
     7
370
    50
100
AcDbLine
 10
-254.537334
 20
513.001925
 30
0.0
 11
-255.832147
 21
513.001925
 31
0.0
  0
LINE
  5
5B1
330
1F
100
AcDbEntity
  8
LC-001-100-D00-0
 62
     7
370
    50
100
AcDbLine
 10
-138.248929
 20
521.501924
 30
0.0
 11
190.177082
 21
521.501924
 31
0.0
  0
LINE
  5
5B2
330
1F
100
AcDbEntity
  8
LC-001-100-D00-0
 62
     7
370
    50
100
AcDbLine
 10
-291.396909
 20
521.501924
 30
0.0
 11
-619.82292
 21
521.501924
 31
0.0
  0
ARC
  5
5B3
330
1F
100
AcDbEntity
  8
LC-001-100-D00-0
 62
     7
370
    50
100
AcDbCircle
 10
-170.307291
 20
514.436076
 30
0.0
 40
1.602014939990435
100
AcDbArc
 50
297.103406
 51
2.355668
  0
INSERT
  5
5BC
330
1F
100
AcDbEntity
  8
LC-001-100-D00-0
 62
     7
370
    50
100
AcDbBlockReference
  2
KLON20
 10
0.0
 20
0.0
 30
0.0
  0
INSERT
  5
5C9
330
1F
100
AcDbEntity
  8
LC-001-100-D00-0
 62
     7
370
    50
100
AcDbBlockReference
  2
KLON21
 10
0.0
 20
0.0
 30
0.0
  0
INSERT
  5
5D6
330
1F
100
AcDbEntity
  8
LC-001-100-D00-0
 62
     7
370
    50
100
AcDbBlockReference
  2
KLON22
 10
0.0
 20
0.0
 30
0.0
  0
LINE
  5
5D7
330
1F
100
AcDbEntity
  8
LC-001-100-D00-0
 62
     7
370
    50
100
AcDbLine
 10
332.677081
 20
548.501925
 30
0.0
 11
338.177081
 21
548.501925
 31
0.0
  0
LINE
  5
5D8
330
1F
100
AcDbEntity
  8
LC-001-100-D00-0
 62
     7
370
    50
100
AcDbLine
 10
-762.322919
 20
548.501925
 30
0.0
 11
-767.822919
 21
548.501925
 31
0.0
  0
LINE
  5
5D9
330
1F
100
AcDbEntity
  8
LC-001-100-D00-0
 62
     7
370
    50
100
AcDbLine
 10
332.677081
 20
548.501925
 30
0.0
 11
322.427081
 21
548.501925
 31
0.0
  0
LINE
  5
5DA
330
1F
100
AcDbEntity
  8
LC-001-100-D00-0
 62
     7
370
    50
100
AcDbLine
 10
287.927081
 20
548.501925
 30
0.0
 11
165.760414
 21
548.501925
 31
0.0
  0
LINE
  5
5DB
330
1F
100
AcDbEntity
  8
LC-001-100-D00-0
 62
     7
370
    50
100
AcDbLine
 10
131.260414
 20
548.501925
 30
0.0
 11
59.093748
 21
548.501925
 31
0.0
  0
LINE
  5
5DC
330
1F
100
AcDbEntity
  8
LC-001-100-D00-0
 62
     7
370
    50
100
AcDbLine
 10
24.593748
 20
548.501925
 30
0.0
 11
-97.572919
 21
548.501925
 31
0.0
  0
LINE
  5
5DD
330
1F
100
AcDbEntity
  8
LC-001-100-D00-0
 62
     7
370
    50
100
AcDbLine
 10
-132.072919
 20
548.501925
 30
0.0
 11
-297.572919
 21
548.501925
 31
0.0
  0
LINE
  5
5DE
330
1F
100
AcDbEntity
  8
LC-001-100-D00-0
 62
     7
370
    50
100
AcDbLine
 10
-332.072919
 20
548.501925
 30
0.0
 11
-454.239586
 21
548.501925
 31
0.0
  0
LINE
  5
5DF
330
1F
100
AcDbEntity
  8
LC-001-100-D00-0
 62
     7
370
    50
100
AcDbLine
 10
-488.739586
 20
548.501925
 30
0.0
 11
-560.906252
 21
548.501925
 31
0.0
  0
LINE
  5
5E0
330
1F
100
AcDbEntity
  8
LC-001-100-D00-0
 62
     7
370
    50
100
AcDbLine
 10
-595.406252
 20
548.501925
 30
0.0
 11
-717.572919
 21
548.501925
 31
0.0
  0
LINE
  5
5E1
330
1F
100
AcDbEntity
  8
LC-001-100-D00-0
 62
     7
370
    50
100
AcDbLine
 10
-752.072919
 20
548.501925
 30
0.0
 11
-762.322919
 21
548.501925
 31
0.0
  0
ARC
  5
5E2
330
1F
100
AcDbEntity
  8
LC-001-100-D00-0
 62
     7
370
    50
100
AcDbCircle
 10
122.277081
 20
521.901925
 30
0.0
 40
2.000000000000175
100
AcDbArc
 50
191.536959
 51
270.0
  0
LINE
  5
5E3
330
1F
100
AcDbEntity
  8
LC-001-100-D00-0
 62
     7
370
    50
100
AcDbLine
 10
122.277081
 20
519.901925
 30
0.0
 11
148.077081
 21
519.901925
 31
0.0
  0
ARC
  5
5E4
330
1F
100
AcDbEntity
  8
LC-001-100-D00-0
 62
     7
370
    50
100
AcDbCircle
 10
148.077081
 20
521.901925
 30
0.0
 40
1.999999999999773
100
AcDbArc
 50
270.0
 51
348.463041
  0
ARC
  5
5E5
330
1F
100
AcDbEntity
  8
LC-001-100-D00-0
 62
     7
370
    50
100
AcDbCircle
 10
148.077081
 20
521.901925
 30
0.0
 40
3.999999999999659
100
AcDbArc
 50
270.0
 51
354.26083
  0
LINE
  5
5E6
330
1F
100
AcDbEntity
  8
LC-001-100-D00-0
 62
     7
370
    50
100
AcDbLine
 10
148.077081
 20
517.901925
 30
0.0
 11
122.277081
 21
517.901925
 31
0.0
  0
ARC
  5
5E7
330
1F
100
AcDbEntity
  8
LC-001-100-D00-0
 62
     7
370
    50
100
AcDbCircle
 10
122.277081
 20
521.901925
 30
0.0
 40
4.000000000000078
100
AcDbArc
 50
185.73917
 51
270.0
  0
ARC
  5
5E8
330
1F
100
AcDbEntity
  8
LC-001-100-D00-0
 62
     7
370
    50
100
AcDbCircle
 10
-551.922919
 20
521.901925
 30
0.0
 40
3.999999999999886
100
AcDbArc
 50
270.0
 51
354.26083
  0
LINE
  5
5E9
330
1F
100
AcDbEntity
  8
LC-001-100-D00-0
 62
     7
370
    50
100
AcDbLine
 10
-577.722919
 20
517.901925
 30
0.0
 11
-551.922919
 21
517.901925
 31
0.0
  0
ARC
  5
5EA
330
1F
100
AcDbEntity
  8
LC-001-100-D00-0
 62
     7
370
    50
100
AcDbCircle
 10
-577.722919
 20
521.901925
 30
0.0
 40
3.999999999999937
100
AcDbArc
 50
185.73917
 51
270.0
  0
ARC
  5
5EB
330
1F
100
AcDbEntity
  8
LC-001-100-D00-0
 62
     7
370
    50
100
AcDbCircle
 10
-577.722919
 20
521.901925
 30
0.0
 40
2.000000000000236
100
AcDbArc
 50
191.536959
 51
270.0
  0
LINE
  5
5EC
330
1F
100
AcDbEntity
  8
LC-001-100-D00-0
 62
     7
370
    50
100
AcDbLine
 10
-551.922919
 20
519.901925
 30
0.0
 11
-577.722919
 21
519.901925
 31
0.0
  0
ARC
  5
5ED
330
1F
100
AcDbEntity
  8
LC-001-100-D00-0
 62
     7
370
    50
100
AcDbCircle
 10
-551.922919
 20
521.901925
 30
0.0
 40
2.000000000000114
100
AcDbArc
 50
270.0
 51
348.463041
  0
LINE
  5
5EE
330
1F
100
AcDbEntity
  8
LC-001-100-D00-0
 62
     7
370
    50
100
AcDbLine
 10
-562.987179
 20
422.001929
 30
0.0
 11
-573.664845
 21
422.001929
 31
0.0
  0
LINE
  5
5EF
330
1F
100
AcDbEntity
  8
LC-001-100-D00-0
 62
     7
370
    50
100
AcDbLine
 10
-562.987179
 20
422.001929
 30
0.0
 11
-555.955023
 21
422.001929
 31
0.0
  0
LINE
  5
5F0
330
1F
100
AcDbEntity
  8
LC-001-100-D00-0
 62
     7
370
    50
100
AcDbLine
 10
-574.123201
 20
414.001925
 30
0.0
 11
-574.322919
 21
414.001925
 31
0.0
  0
LINE
  5
5F1
330
1F
100
AcDbEntity
  8
LC-001-100-D00-0
 62
     7
370
    50
100
AcDbLine
 10
-555.322919
 20
414.001925
 30
0.0
 11
-574.123201
 21
414.001925
 31
0.0
  0
LINE
  5
5F2
330
1F
100
AcDbEntity
  8
LC-001-100-D00-0
 62
     7
370
    50
100
AcDbLine
 10
137.012809
 20
422.001929
 30
0.0
 11
126.335143
 21
422.001929
 31
0.0
  0
LINE
  5
5F3
330
1F
100
AcDbEntity
  8
LC-001-100-D00-0
 62
     7
370
    50
100
AcDbLine
 10
137.012809
 20
422.001929
 30
0.0
 11
144.044965
 21
422.001929
 31
0.0
  0
LINE
  5
5F4
330
1F
100
AcDbEntity
  8
LC-001-100-D00-0
 62
     7
370
    50
100
AcDbLine
 10
125.876799
 20
414.001925
 30
0.0
 11
125.677081
 21
414.001925
 31
0.0
  0
LINE
  5
5F5
330
1F
100
AcDbEntity
  8
LC-001-100-D00-0
 62
     7
370
    50
100
AcDbLine
 10
144.677081
 20
414.001925
 30
0.0
 11
125.876799
 21
414.001925
 31
0.0
  0
LINE
  5
5F6
330
1F
100
AcDbEntity
  8
LC-001-100-D00-0
 62
     7
370
    50
100
AcDbLine
 10
-567.70967
 20
491.001925
 30
0.0
 11
-573.771848
 21
491.001925
 31
0.0
  0
LINE
  5
5F7
330
1F
100
AcDbEntity
  8
LC-001-100-D00-0
 62
     7
370
    50
100
AcDbLine
 10
-555.822919
 20
516.001925
 30
0.0
 11
-561.936171
 21
516.001926
 31
0.0
  0
LINE
  5
5F8
330
1F
100
AcDbEntity
  8
LC-001-100-D00-0
 62
     7
370
    50
100
AcDbLine
 10
-567.709685
 20
516.001926
 30
0.0
 11
-573.822919
 21
516.001925
 31
0.0
  0
LINE
  5
5F9
330
1F
100
AcDbEntity
  8
LC-001-100-D00-0
 62
     7
370
    50
100
AcDbLine
 10
-561.936167
 20
491.001925
 30
0.0
 11
-567.70967
 21
491.001925
 31
0.0
  0
LINE
  5
5FA
330
1F
100
AcDbEntity
  8
LC-001-100-D00-0
 62
     7
370
    50
100
AcDbLine
 10
-549.822919
 20
518.001925
 30
0.0
 11
-549.822919
 21
516.001925
 31
0.0
  0
LINE
  5
5FB
330
1F
100
AcDbEntity
  8
LC-001-100-D00-0
 62
     7
370
    50
100
AcDbLine
 10
-549.822919
 20
516.001925
 30
0.0
 11
-555.822919
 21
516.001925
 31
0.0
  0
LINE
  5
5FC
330
1F
100
AcDbEntity
  8
LC-001-100-D00-0
 62
     7
370
    50
100
AcDbLine
 10
-551.034099
 20
518.001925
 30
0.0
 11
-549.822919
 21
518.001925
 31
0.0
  0
LINE
  5
5FD
330
1F
100
AcDbEntity
  8
LC-001-100-D00-0
 62
     7
370
    50
100
AcDbLine
 10
-579.822919
 20
516.001925
 30
0.0
 11
-579.822919
 21
518.001925
 31
0.0
  0
LINE
  5
5FE
330
1F
100
AcDbEntity
  8
LC-001-100-D00-0
 62
     7
370
    50
100
AcDbLine
 10
-579.822919
 20
518.001925
 30
0.0
 11
-578.611738
 21
518.001925
 31
0.0
  0
LINE
  5
5FF
330
1F
100
AcDbEntity
  8
LC-001-100-D00-0
 62
     7
370
    50
100
AcDbLine
 10
-573.822919
 20
516.001925
 30
0.0
 11
-579.822919
 21
516.001925
 31
0.0
  0
LINE
  5
600
330
1F
100
AcDbEntity
  8
LC-001-100-D00-0
 62
     7
370
    50
100
AcDbLine
 10
-555.87399
 20
491.001925
 30
0.0
 11
-561.936167
 21
491.001925
 31
0.0
  0
LINE
  5
601
330
1F
100
AcDbEntity
  8
LC-001-100-D00-0
 62
     7
370
    50
100
AcDbLine
 10
-552.987238
 20
491.001925
 30
0.0
 11
-555.87399
 21
491.001925
 31
0.0
  0
LINE
  5
602
330
1F
100
AcDbEntity
  8
LC-001-100-D00-0
 62
     7
370
    50
100
AcDbLine
 10
-573.771848
 20
491.001925
 30
0.0
 11
-576.658599
 21
491.001925
 31
0.0
  0
LINE
  5
603
330
1F
100
AcDbEntity
  8
LC-001-100-D00-0
 62
     7
370
    50
100
AcDbLine
 10
-552.049416
 20
491.001925
 30
0.0
 11
-552.987238
 21
491.001925
 31
0.0
  0
LINE
  5
604
330
1F
100
AcDbEntity
  8
LC-001-100-D00-0
 62
     7
370
    50
100
AcDbLine
 10
-576.658599
 20
491.001925
 30
0.0
 11
-577.596422
 21
491.001925
 31
0.0
  0
LINE
  5
605
330
1F
100
AcDbEntity
  8
LC-001-100-D00-0
 62
     7
370
    50
100
AcDbLine
 10
-567.70967
 20
520.001925
 30
0.0
 11
-573.771848
 21
520.001925
 31
0.0
  0
LINE
  5
606
330
1F
100
AcDbEntity
  8
LC-001-100-D00-0
 62
     7
370
    50
100
AcDbLine
 10
-561.936167
 20
520.001925
 30
0.0
 11
-567.70967
 21
520.001925
 31
0.0
  0
LINE
  5
607
330
1F
100
AcDbEntity
  8
LC-001-100-D00-0
 62
     7
370
    50
100
AcDbLine
 10
-555.87399
 20
520.001925
 30
0.0
 11
-561.936167
 21
520.001925
 31
0.0
  0
LINE
  5
608
330
1F
100
AcDbEntity
  8
LC-001-100-D00-0
 62
     7
370
    50
100
AcDbLine
 10
-552.987238
 20
520.001925
 30
0.0
 11
-555.87399
 21
520.001925
 31
0.0
  0
LINE
  5
609
330
1F
100
AcDbEntity
  8
LC-001-100-D00-0
 62
     7
370
    50
100
AcDbLine
 10
-573.771848
 20
520.001925
 30
0.0
 11
-576.658599
 21
520.001925
 31
0.0
  0
LINE
  5
60A
330
1F
100
AcDbEntity
  8
LC-001-100-D00-0
 62
     7
370
    50
100
AcDbLine
 10
-552.049416
 20
520.001925
 30
0.0
 11
-552.987238
 21
520.001925
 31
0.0
  0
LINE
  5
60B
330
1F
100
AcDbEntity
  8
LC-001-100-D00-0
 62
     7
370
    50
100
AcDbLine
 10
-576.658599
 20
520.001925
 30
0.0
 11
-577.596422
 21
520.001925
 31
0.0
  0
LINE
  5
60C
330
1F
100
AcDbEntity
  8
LC-001-100-D00-0
 62
     7
370
    50
100
AcDbLine
 10
132.29033
 20
491.001925
 30
0.0
 11
126.228152
 21
491.001925
 31
0.0
  0
LINE
  5
60D
330
1F
100
AcDbEntity
  8
LC-001-100-D00-0
 62
     7
370
    50
100
AcDbLine
 10
144.177081
 20
516.001925
 30
0.0
 11
138.063847
 21
516.001926
 31
0.0
  0
LINE
  5
60E
330
1F
100
AcDbEntity
  8
LC-001-100-D00-0
 62
     7
370
    50
100
AcDbLine
 10
132.290333
 20
516.001926
 30
0.0
 11
126.177081
 21
516.001925
 31
0.0
  0
LINE
  5
60F
330
1F
100
AcDbEntity
  8
LC-001-100-D00-0
 62
     7
370
    50
100
AcDbLine
 10
138.063833
 20
491.001925
 30
0.0
 11
132.29033
 21
491.001925
 31
0.0
  0
LINE
  5
610
330
1F
100
AcDbEntity
  8
LC-001-100-D00-0
 62
     7
370
    50
100
AcDbLine
 10
150.177081
 20
518.001925
 30
0.0
 11
150.177081
 21
516.001925
 31
0.0
  0
LINE
  5
611
330
1F
100
AcDbEntity
  8
LC-001-100-D00-0
 62
     7
370
    50
100
AcDbLine
 10
150.177081
 20
516.001925
 30
0.0
 11
144.177081
 21
516.001925
 31
0.0
  0
LINE
  5
612
330
1F
100
AcDbEntity
  8
LC-001-100-D00-0
 62
     7
370
    50
100
AcDbLine
 10
148.965901
 20
518.001925
 30
0.0
 11
150.177081
 21
518.001925
 31
0.0
  0
LINE
  5
613
330
1F
100
AcDbEntity
  8
LC-001-100-D00-0
 62
     7
370
    50
100
AcDbLine
 10
120.177081
 20
516.001925
 30
0.0
 11
120.177081
 21
518.001925
 31
0.0
  0
LINE
  5
614
330
1F
100
AcDbEntity
  8
LC-001-100-D00-0
 62
     7
370
    50
100
AcDbLine
 10
120.177081
 20
518.001925
 30
0.0
 11
121.388262
 21
518.001925
 31
0.0
  0
LINE
  5
615
330
1F
100
AcDbEntity
  8
LC-001-100-D00-0
 62
     7
370
    50
100
AcDbLine
 10
126.177081
 20
516.001925
 30
0.0
 11
120.177081
 21
516.001925
 31
0.0
  0
LINE
  5
616
330
1F
100
AcDbEntity
  8
LC-001-100-D00-0
 62
     7
370
    50
100
AcDbLine
 10
144.12601
 20
491.001925
 30
0.0
 11
138.063833
 21
491.001925
 31
0.0
  0
LINE
  5
617
330
1F
100
AcDbEntity
  8
LC-001-100-D00-0
 62
     7
370
    50
100
AcDbLine
 10
147.012762
 20
491.001925
 30
0.0
 11
144.12601
 21
491.001925
 31
0.0
  0
LINE
  5
618
330
1F
100
AcDbEntity
  8
LC-001-100-D00-0
 62
     7
370
    50
100
AcDbLine
 10
126.228152
 20
491.001925
 30
0.0
 11
123.341401
 21
491.001925
 31
0.0
  0
LINE
  5
619
330
1F
100
AcDbEntity
  8
LC-001-100-D00-0
 62
     7
370
    50
100
AcDbLine
 10
147.950584
 20
491.001925
 30
0.0
 11
147.012762
 21
491.001925
 31
0.0
  0
LINE
  5
61A
330
1F
100
AcDbEntity
  8
LC-001-100-D00-0
 62
     7
370
    50
100
AcDbLine
 10
123.341401
 20
491.001925
 30
0.0
 11
122.403578
 21
491.001925
 31
0.0
  0
LINE
  5
61B
330
1F
100
AcDbEntity
  8
LC-001-100-D00-0
 62
     7
370
    50
100
AcDbLine
 10
132.29033
 20
520.001925
 30
0.0
 11
126.228152
 21
520.001925
 31
0.0
  0
LINE
  5
61C
330
1F
100
AcDbEntity
  8
LC-001-100-D00-0
 62
     7
370
    50
100
AcDbLine
 10
138.063833
 20
520.001925
 30
0.0
 11
132.29033
 21
520.001925
 31
0.0
  0
LINE
  5
61D
330
1F
100
AcDbEntity
  8
LC-001-100-D00-0
 62
     7
370
    50
100
AcDbLine
 10
144.12601
 20
520.001925
 30
0.0
 11
138.063833
 21
520.001925
 31
0.0
  0
LINE
  5
61E
330
1F
100
AcDbEntity
  8
LC-001-100-D00-0
 62
     7
370
    50
100
AcDbLine
 10
147.012762
 20
520.001925
 30
0.0
 11
144.12601
 21
520.001925
 31
0.0
  0
LINE
  5
61F
330
1F
100
AcDbEntity
  8
LC-001-100-D00-0
 62
     7
370
    50
100
AcDbLine
 10
126.228152
 20
520.001925
 30
0.0
 11
123.341401
 21
520.001925
 31
0.0
  0
LINE
  5
620
330
1F
100
AcDbEntity
  8
LC-001-100-D00-0
 62
     7
370
    50
100
AcDbLine
 10
147.950584
 20
520.001925
 30
0.0
 11
147.012762
 21
520.001925
 31
0.0
  0
LINE
  5
621
330
1F
100
AcDbEntity
  8
LC-001-100-D00-0
 62
     7
370
    50
100
AcDbLine
 10
123.341401
 20
520.001925
 30
0.0
 11
122.403578
 21
520.001925
 31
0.0
  0
LINE
  5
622
330
1F
100
AcDbEntity
  8
LC-001-100-D00-0
 62
     7
370
    50
100
AcDbLine
 10
-574.822919
 20
437.001925
 30
0.0
 11
-554.822919
 21
437.001925
 31
0.0
  0
LINE
  5
623
330
1F
100
AcDbEntity
  8
LC-001-100-D00-0
 62
     7
370
    50
100
AcDbLine
 10
-574.822919
 20
433.501925
 30
0.0
 11
-554.822919
 21
433.501925
 31
0.0
  0
LINE
  5
624
330
1F
100
AcDbEntity
  8
LC-001-100-D00-0
 62
     7
370
    50
100
AcDbLine
 10
-574.612689
 20
423.001925
 30
0.0
 11
-554.822919
 21
423.001925
 31
0.0
  0
LINE
  5
625
330
1F
100
AcDbEntity
  8
LC-001-100-D00-0
 62
     7
370
    50
100
AcDbLine
 10
-574.822919
 20
423.001925
 30
0.0
 11
-574.612689
 21
423.001925
 31
0.0
  0
LINE
  5
626
330
1F
100
AcDbEntity
  8
LC-001-100-D00-0
 62
     7
370
    50
100
AcDbLine
 10
-573.633712
 20
422.001925
 30
0.0
 11
-573.822919
 21
422.001925
 31
0.0
  0
LINE
  5
627
330
1F
100
AcDbEntity
  8
LC-001-100-D00-0
 62
     7
370
    50
100
AcDbLine
 10
-555.822919
 20
422.001925
 30
0.0
 11
-573.633712
 21
422.001925
 31
0.0
  0
LINE
  5
628
330
1F
100
AcDbEntity
  8
LC-001-100-D00-0
 62
     7
370
    50
100
AcDbLine
 10
125.177081
 20
437.001925
 30
0.0
 11
145.177081
 21
437.001925
 31
0.0
  0
LINE
  5
629
330
1F
100
AcDbEntity
  8
LC-001-100-D00-0
 62
     7
370
    50
100
AcDbLine
 10
125.177081
 20
433.501925
 30
0.0
 11
145.177081
 21
433.501925
 31
0.0
  0
LINE
  5
62A
330
1F
100
AcDbEntity
  8
LC-001-100-D00-0
 62
     7
370
    50
100
AcDbLine
 10
125.387311
 20
423.001925
 30
0.0
 11
145.177081
 21
423.001925
 31
0.0
  0
LINE
  5
62B
330
1F
100
AcDbEntity
  8
LC-001-100-D00-0
 62
     7
370
    50
100
AcDbLine
 10
125.177081
 20
423.001925
 30
0.0
 11
125.387311
 21
423.001925
 31
0.0
  0
LINE
  5
62C
330
1F
100
AcDbEntity
  8
LC-001-100-D00-0
 62
     7
370
    50
100
AcDbLine
 10
126.366288
 20
422.001925
 30
0.0
 11
126.177081
 21
422.001925
 31
0.0
  0
LINE
  5
62D
330
1F
100
AcDbEntity
  8
LC-001-100-D00-0
 62
     7
370
    50
100
AcDbLine
 10
144.177081
 20
422.001925
 30
0.0
 11
126.366288
 21
422.001925
 31
0.0
  0
DIMENSION
  5
62E
330
1F
100
AcDbEntity
  8
LC-001-100-D00-0
 62
     7
370
    25
100
AcDbDimension
  2
*D24
 10
-814.822919
 20
671.741925
 30
0.0
 11
-217.406416
 21
726.741925
 31
0.0
 70
   160
  1
1200
 71
     5
 42
1200.0
  3
LC-DIM-L-0100-02-02
100
AcDbAlignedDimension
 13
385.177081
 23
548.501925
 33
0.0
 14
-814.822919
 24
548.501925
 34
0.0
100
AcDbRotatedDimension
  0
DIMENSION
  5
63B
330
1F
100
AcDbEntity
  8
LC-001-100-D00-0
 62
     7
370
    25
100
AcDbDimension
  2
*D25
 10
335.177081
 20
584.128227
 30
0.0
 11
-217.002775
 21
639.128227
 31
0.0
 70
   160
  1
1100
 71
     5
 42
1100.0
  3
LC-DIM-L-0100-02-02
100
AcDbAlignedDimension
 13
-764.822919
 23
545.501925
 33
0.0
 14
335.177081
 24
545.501925
 34
0.0
100
AcDbRotatedDimension
  0
DIMENSION
  5
648
330
1F
100
AcDbEntity
  8
LC-001-100-D00-0
 62
     7
370
    25
100
AcDbDimension
  2
*D26
 10
-384.559226
 20
507.001925
 30
0.0
 11
-439.559226
 21
386.621925
 31
0.0
 70
   160
  1
50
 71
     5
 42
50.4
 53
90.0
  3
LC-DIM-L-0100-02-02
100
AcDbAlignedDimension
 13
-243.822919
 23
456.601925
 33
0.0
 14
-254.315798
 24
507.001925
 34
0.0
 50
90.0
100
AcDbRotatedDimension
  0
DIMENSION
  5
656
330
1F
100
AcDbEntity
  8
LC-001-100-D00-0
 62
     7
370
    25
100
AcDbDimension
  2
*D27
 10
-140.822919
 20
331.379925
 30
0.0
 11
-229.788105
 21
386.379925
 31
0.0
 70
   160
  1
148
 71
     5
 42
148.0
  3
LC-DIM-L-0100-02-02
100
AcDbAlignedDimension
 13
-288.822919
 23
457.501925
 33
0.0
 14
-140.822919
 24
497.751925
 34
0.0
100
AcDbRotatedDimension
  0
DIMENSION
  5
663
330
1F
100
AcDbEntity
  8
LC-001-100-D00-0
 62
     7
370
    25
100
AcDbDimension
  2
*D28
 10
-5.323122
 20
249.407925
 30
0.0
 11
-174.070502
 21
304.407925
 31
0.0
 70
   160
  1
284
 71
     5
 42
283.499797
  3
LC-DIM-L-0100-02-02
100
AcDbAlignedDimension
 13
-288.822919
 23
457.501925
 33
0.0
 14
-5.323122
 24
446.939747
 34
0.0
100
AcDbRotatedDimension
  0
DIMENSION
  5
670
330
1F
100
AcDbEntity
  8
LC-001-100-D00-0
 62
     7
370
    25
100
AcDbDimension
  2
*D29
 10
95.77642
 20
446.001925
 30
0.0
 11
40.77642
 21
469.561207
 31
0.0
 70
   160
  1
DN50
 71
     5
 42
50.0
 53
90.0
  3
LC-DIM-L-0100-02-02
100
AcDbAlignedDimension
 13
-8.823122
 23
496.001925
 33
0.0
 14
-8.823122
 24
446.001925
 34
0.0
 50
90.0
100
AcDbRotatedDimension
  0
DIMENSION
  5
67F
330
1F
100
AcDbEntity
  8
LC-001-100-D00-0
 62
     7
370
    25
100
AcDbDimension
  2
*D30
 10
420.735085
 20
471.001925
 30
0.0
 11
365.735085
 21
509.647972
 31
0.0
 70
   160
  1
77,5
 71
     5
 42
77.5
 53
90.0
  3
LC-DIM-L-0100-02-02
100
AcDbAlignedDimension
 13
385.177081
 23
548.501925
 33
0.0
 14
3.176878
 24
471.001925
 34
0.0
 50
90.0
100
AcDbRotatedDimension
  0
DIMENSION
  5
68E
330
1F
100
AcDbEntity
  8
LC-001-100-D00-0
 62
     7
370
    25
100
AcDbDimension
  2
*D31
 10
-667.966531
 20
438.501925
 30
0.0
 11
-722.966531
 21
417.821925
 31
0.0
 70
   160
  1
110
 71
     5
 42
110.0
 53
90.0
  3
LC-DIM-L-0100-02-02
100
AcDbAlignedDimension
 13
-814.822919
 23
548.501925
 33
0.0
 14
-268.840799
 24
438.501925
 34
0.0
 50
90.0
100
AcDbRotatedDimension
  0
DIMENSION
  5
69C
330
1F
100
AcDbEntity
  8
LC-001-100-D00-0
 62
     7
370
    25
100
AcDbDimension
  2
*D32
 10
575.279763
 20
414.001925
 30
0.0
 11
520.279763
 21
257.441925
 31
0.0
 70
   160
  1
110-129,5
 71
     5
 42
134.5
 53
90.0
  3
LC-DIM-L-0100-02-02
100
AcDbAlignedDimension
 13
385.177081
 23
548.501925
 33
0.0
 14
144.677081
 24
414.001925
 34
0.0
 50
90.0
100
AcDbRotatedDimension
  0
LINE
  5
6AA
330
1F
100
AcDbEntity
  8
LC-001-100-D00-0
 62
     7
370
    50
100
AcDbLine
 10
142.159562
 20
537.373242
 30
0.0
 11
142.288244
 21
537.501925
 31
0.0
  0
INSERT
  5
6B0
330
1F
100
AcDbEntity
  8
LC-001-100-D00-0
 62
     7
370
    50
100
AcDbBlockReference
  2
KLON23
 10
0.0
 20
0.0
 30
0.0
  0
LINE
  5
6B1
330
1F
100
AcDbEntity
  8
LC-001-100-D00-0
 62
     7
370
    50
100
AcDbLine
 10
152.410414
 20
547.624096
 30
0.0
 11
153.288243
 21
548.501925
 31
0.0
  0
LINE
  5
6B2
330
1F
100
AcDbEntity
  8
LC-001-100-D00-0
 62
     7
370
    50
100
AcDbLine
 10
-587.906252
 20
534.708147
 30
0.0
 11
-582.056252
 21
540.558148
 31
0.0
  0
LINE
  5
6B3
330
1F
100
AcDbEntity
  8
LC-001-100-D00-0
 62
     7
370
    50
100
AcDbLine
 10
-574.256252
 20
548.358148
 30
0.0
 11
-574.112476
 21
548.501925
 31
0.0
  0
LINE
  5
6B4
330
1F
100
AcDbEntity
  8
LC-001-100-D00-0
 62
     7
370
    50
100
AcDbLine
 10
-279.822919
 20
519.502271
 30
0.0
 11
-277.823265
 21
521.501925
 31
0.0
  0
INSERT
  5
6BA
330
1F
100
AcDbEntity
  8
LC-001-100-D00-0
 62
     7
370
    50
100
AcDbBlockReference
  2
KLON24
 10
0.0
 20
0.0
 30
0.0
  0
INSERT
  5
6C0
330
1F
100
AcDbEntity
  8
LC-001-100-D00-0
 62
     7
370
    50
100
AcDbBlockReference
  2
KLON25
 10
0.0
 20
0.0
 30
0.0
  0
INSERT
  5
6CD
330
1F
100
AcDbEntity
  8
LC-001-100-D00-0
 62
     7
370
    50
100
AcDbBlockReference
  2
KLON26
 10
0.0
 20
0.0
 30
0.0
  0
INSERT
  5
6D3
330
1F
100
AcDbEntity
  8
LC-001-100-D00-0
 62
     7
370
    50
100
AcDbBlockReference
  2
KLON27
 10
0.0
 20
0.0
 30
0.0
  0
INSERT
  5
6DF
330
1F
100
AcDbEntity
  8
LC-001-100-D00-0
 62
     7
370
    50
100
AcDbBlockReference
  2
KLON28
 10
0.0
 20
0.0
 30
0.0
  0
INSERT
  5
6E6
330
1F
100
AcDbEntity
  8
LC-001-100-D00-0
 62
     7
370
    50
100
AcDbBlockReference
  2
KLON29
 10
0.0
 20
0.0
 30
0.0
  0
INSERT
  5
6ED
330
1F
100
AcDbEntity
  8
LC-001-100-D00-0
 62
     7
370
    50
100
AcDbBlockReference
  2
KLON30
 10
0.0
 20
0.0
 30
0.0
  0
LINE
  5
6EE
330
1F
100
AcDbEntity
  8
LC-001-100-D00-0
 62
     7
370
    50
100
AcDbLine
 10
-477.840438
 20
537.010892
 30
0.0
 11
-477.349405
 21
537.501925
 31
0.0
  0
INSERT
  5
6F4
330
1F
100
AcDbEntity
  8
LC-001-100-D00-0
 62
     7
370
    50
100
AcDbBlockReference
  2
KLON31
 10
0.0
 20
0.0
 30
0.0
  0
LINE
  5
6F5
330
1F
100
AcDbEntity
  8
LC-001-100-D00-0
 62
     7
370
    50
100
AcDbLine
 10
-467.589586
 20
547.261746
 30
0.0
 11
-466.349406
 21
548.501925
 31
0.0
  0
LINE
  5
6F6
330
1F
100
AcDbEntity
  8
LC-001-100-D00-0
 62
     7
370
    50
100
AcDbLine
 10
32.093748
 20
535.070498
 30
0.0
 11
37.943748
 21
540.920498
 31
0.0
  0
LINE
  5
6F7
330
1F
100
AcDbEntity
  8
LC-001-100-D00-0
 62
     7
370
    50
100
AcDbLine
 10
-744.572919
 20
539.686085
 30
0.0
 11
-738.722919
 21
545.536086
 31
0.0
  0
LINE
  5
6F8
330
1F
100
AcDbEntity
  8
LC-001-100-D00-0
 62
     7
370
    50
100
AcDbLine
 10
-727.816311
 20
529.501925
 30
0.0
 11
-725.072919
 21
532.245318
 31
0.0
  0
LINE
  5
6F9
330
1F
100
AcDbEntity
  8
LC-001-100-D00-0
 62
     7
370
    50
100
AcDbLine
 10
-320.022919
 20
533.183807
 30
0.0
 11
-318.222919
 21
534.983807
 31
0.0
  0
INSERT
  5
6FF
330
1F
100
AcDbEntity
  8
LC-001-100-D00-0
 62
     7
370
    50
100
AcDbBlockReference
  2
KLON32
 10
0.0
 20
0.0
 30
0.0
  0
LINE
  5
700
330
1F
100
AcDbEntity
  8
LC-001-100-D00-0
 62
     7
370
    50
100
AcDbLine
 10
-310.922919
 20
542.283808
 30
0.0
 11
-304.704802
 21
548.501925
 31
0.0
  0
LINE
  5
701
330
1F
100
AcDbEntity
  8
LC-001-100-D00-0
 62
     7
370
    50
100
AcDbLine
 10
299.977081
 20
533.546157
 30
0.0
 11
301.777081
 21
535.346157
 31
0.0
  0
INSERT
  5
707
330
1F
100
AcDbEntity
  8
LC-001-100-D00-0
 62
     7
370
    50
100
AcDbBlockReference
  2
KLON33
 10
0.0
 20
0.0
 30
0.0
  0
LINE
  5
708
330
1F
100
AcDbEntity
  8
LC-001-100-D00-0
 62
     7
370
    50
100
AcDbLine
 10
309.077081
 20
542.646158
 30
0.0
 11
314.932848
 21
548.501925
 31
0.0
  0
LINE
  5
709
330
1F
100
AcDbEntity
  8
LC-001-100-D00-0
 62
     7
370
    50
100
AcDbLine
 10
-124.572919
 20
540.048436
 30
0.0
 11
-118.722919
 21
545.898436
 31
0.0
  0
LINE
  5
70A
330
1F
100
AcDbEntity
  8
LC-001-100-D00-0
 62
     7
370
    50
100
AcDbLine
 10
-108.178662
 20
529.501925
 30
0.0
 11
-105.072919
 21
532.607668
 31
0.0
  0
INSERT
  5
712
330
1F
100
AcDbEntity
  8
LC-001-100-D00-0
 62
     7
370
    50
100
AcDbBlockReference
  2
KLON34
 10
0.0
 20
0.0
 30
0.0
  0
INSERT
  5
718
330
1F
100
AcDbEntity
  8
LC-001-100-D00-0
 62
     7
370
    50
100
AcDbBlockReference
  2
KLON35
 10
0.0
 20
0.0
 30
0.0
  0
INSERT
  5
735
330
1F
100
AcDbEntity
  8
LC-001-100-D00-0
 62
     7
370
    50
100
AcDbBlockReference
  2
KLON36
 10
0.0
 20
0.0
 30
0.0
  0
INSERT
  5
752
330
1F
100
AcDbEntity
  8
LC-001-100-D00-0
 62
     7
370
    50
100
AcDbBlockReference
  2
KLON37
 10
0.0
 20
0.0
 30
0.0
  0
LINE
  5
753
330
1F
100
AcDbEntity
  8
LC-001-100-D00-0
  6
DASHDOT
 62
     7
370
    25
100
AcDbLine
 10
305.177081
 20
518.501925
 30
0.0
 11
305.177081
 21
556.501925
 31
0.0
  0
LINE
  5
754
330
1F
100
AcDbEntity
  8
LC-001-100-D00-0
  6
DASHDOT
 62
     7
370
    25
100
AcDbLine
 10
148.510414
 20
518.501925
 30
0.0
 11
148.510414
 21
556.501925
 31
0.0
  0
LINE
  5
755
330
1F
100
AcDbEntity
  8
LC-001-100-D00-0
  6
DASHDOT
 62
     7
370
    25
100
AcDbLine
 10
135.177081
 20
425.001925
 30
0.0
 11
135.177081
 21
553.001925
 31
0.0
  0
LINE
  5
756
330
1F
100
AcDbEntity
  8
LC-001-100-D00-0
  6
DASHDOT
 62
     7
370
    25
100
AcDbLine
 10
41.843748
 20
518.501925
 30
0.0
 11
41.843748
 21
556.501925
 31
0.0
  0
LINE
  5
757
330
1F
100
AcDbEntity
  8
LC-001-100-D00-0
  6
DASHDOT
 62
     7
370
    25
100
AcDbLine
 10
-114.822919
 20
518.501925
 30
0.0
 11
-114.822919
 21
556.501925
 31
0.0
  0
LINE
  5
758
330
1F
100
AcDbEntity
  8
LC-001-100-D00-0
  6
DASHDOT
 62
     7
370
    25
100
AcDbLine
 10
3.176878
 20
471.001925
 30
0.0
 11
-103.848138
 21
471.001925
 31
0.0
  0
LINE
  5
759
330
1F
100
AcDbEntity
  8
LC-001-100-D00-0
  6
DASHDOT
 62
     7
370
    25
100
AcDbLine
 10
-214.822919
 20
519.001925
 30
0.0
 11
-214.822919
 21
434.001925
 31
0.0
  0
LINE
  5
75A
330
1F
100
AcDbEntity
  8
LC-001-100-D00-0
  6
DASHDOT
 62
     7
370
    25
100
AcDbLine
 10
-314.822919
 20
518.501925
 30
0.0
 11
-314.822919
 21
556.501925
 31
0.0
  0
LINE
  5
75B
330
1F
100
AcDbEntity
  8
LC-001-100-D00-0
  6
DASHDOT
 62
     7
370
    25
100
AcDbLine
 10
-471.489586
 20
518.501925
 30
0.0
 11
-471.489586
 21
556.501925
 31
0.0
  0
LINE
  5
75C
330
1F
100
AcDbEntity
  8
LC-001-100-D00-0
  6
DASHDOT
 62
     7
370
    25
100
AcDbLine
 10
-578.156252
 20
518.501925
 30
0.0
 11
-578.156252
 21
556.501925
 31
0.0
  0
LINE
  5
75D
330
1F
100
AcDbEntity
  8
LC-001-100-D00-0
  6
DASHDOT
 62
     7
370
    25
100
AcDbLine
 10
-734.822919
 20
518.501925
 30
0.0
 11
-734.822919
 21
556.501925
 31
0.0
  0
LINE
  5
75E
330
1F
100
AcDbEntity
  8
LC-001-100-D00-0
  6
DASHDOT
 62
     7
370
    25
100
AcDbLine
 10
-564.822919
 20
425.001925
 30
0.0
 11
-564.822919
 21
553.001925
 31
0.0
  0
ENDSEC
  0
SECTION
  2
OBJECTS
  0
DICTIONARY
  5
C
330
0
100
AcDbDictionary
281
     1
  3
ACAD_GROUP
350
D
  3
ACAD_LAYOUT
350
1A
  3
ACAD_MLINESTYLE
350
17
  3
ACAD_PLOTSETTINGS
350
19
  3
ACAD_PLOTSTYLENAME
350
E
  0
DICTIONARY
  5
D
102
{ACAD_REACTORS
330
C
102
}
330
C
100
AcDbDictionary
281
     1
  0
DICTIONARY
  5
1A
102
{ACAD_REACTORS
330
C
102
}
330
C
100
AcDbDictionary
281
     1
  3
Layout1
350
1E
  3
Layout2
350
26
  3
Model
350
22
  0
DICTIONARY
  5
17
102
{ACAD_REACTORS
330
C
102
}
330
C
100
AcDbDictionary
281
     1
  3
Standard
350
18
  0
DICTIONARY
  5
19
102
{ACAD_REACTORS
330
C
102
}
330
C
100
AcDbDictionary
281
     1
  0
ACDBDICTIONARYWDFLT
  5
E
102
{ACAD_REACTORS
330
C
102
}
330
C
100
AcDbDictionary
281
     1
  3
Normal
350
F
100
AcDbDictionaryWithDefault
340
F
  0
LAYOUT
  5
1E
102
{ACAD_REACTORS
330
1A
102
}
330
1A
100
AcDbPlotSettings
  1

  2

  4

  6

 40
0.0
 41
0.0
 42
0.0
 43
0.0
 44
0.0
 45
0.0
 46
0.0
 47
0.0
 48
0.0
 49
0.0
140
0.0
141
0.0
142
1.0
143
1.0
 70
   688
 72
     0
 73
     0
 74
     5
  7

 75
    16
147
1.0
148
0.0
149
0.0
100
AcDbLayout
  1
Layout1
 70
     1
 71
     1
 10
-852.7523
 20
-603.858075
 11
1247.2477
 21
881.141925
 12
0.0
 22
0.0
 32
0.0
 14
-852.7523
 24
-603.858075
 34
0.0
 15
1247.2477
 25
881.141925
 35
0.0
146
0.0
 13
0.0
 23
0.0
 33
0.0
 16
1.0
 26
0.0
 36
0.0
 17
0.0
 27
1.0
 37
0.0
 76
     0
330
1B
  0
LAYOUT
  5
26
102
{ACAD_REACTORS
330
1A
102
}
330
1A
100
AcDbPlotSettings
  1

  2

  4

  6

 40
0.0
 41
0.0
 42
0.0
 43
0.0
 44
0.0
 45
0.0
 46
0.0
 47
0.0
 48
0.0
 49
0.0
140
0.0
141
0.0
142
1.0
143
1.0
 70
   688
 72
     0
 73
     0
 74
     5
  7

 75
    16
147
1.0
148
0.0
149
0.0
100
AcDbLayout
  1
Layout2
 70
     1
 71
     2
 10
0.0
 20
0.0
 11
0.0
 21
0.0
 12
0.0
 22
0.0
 32
0.0
 14
0.0
 24
0.0
 34
0.0
 15
0.0
 25
0.0
 35
0.0
146
0.0
 13
0.0
 23
0.0
 33
0.0
 16
1.0
 26
0.0
 36
0.0
 17
0.0
 27
1.0
 37
0.0
 76
     0
330
23
  0
LAYOUT
  5
22
102
{ACAD_REACTORS
330
1A
102
}
330
1A
100
AcDbPlotSettings
  1

  2

  4

  6

 40
0.0
 41
0.0
 42
0.0
 43
0.0
 44
0.0
 45
0.0
 46
0.0
 47
0.0
 48
0.0
 49
0.0
140
0.0
141
0.0
142
1.0
143
1.0
 70
  1776
 72
     0
 73
     0
 74
     0
  7

 75
     0
147
1.0
148
0.0
149
0.0
100
AcDbLayout
  1
Model
 70
     1
 71
     0
 10
-852.7523
 20
-603.858075
 11
1247.2477
 21
881.141925
 12
0.0
 22
0.0
 32
0.0
 14
-852.7523
 24
-603.858075
 34
0.0
 15
1247.2477
 25
881.141925
 35
0.0
146
0.0
 13
0.0
 23
0.0
 33
0.0
 16
1.0
 26
0.0
 36
0.0
 17
0.0
 27
1.0
 37
0.0
 76
     0
330
1F
  0
MLINESTYLE
  5
18
102
{ACAD_REACTORS
330
17
102
}
330
17
100
AcDbMlineStyle
  2
Standard
 70
     0
  3

 62
   256
 51
90.0
 52
90.0
 71
     2
 49
0.5
 62
   256
  6
BYLAYER
 49
-0.5
 62
   256
  6
BYLAYER
  0
ACDBPLACEHOLDER
  5
F
102
{ACAD_REACTORS
330
E
102
}
330
E
  0
ENDSEC
  0
EOF
