  0
SECTION
  2
HEADER
  9
$ACADVER
  1
AC1015
  9
$ACADMAINTVER
 70
     6
  9
$DWGCODEPAGE
  3
ANSI_1252
  9
$INSBASE
 10
0.0
 20
0.0
 30
0.0
  9
$EXTMIN
 10
-847.253883
 20
-611.347115
 30
0.0
  9
$EXTMAX
 10
1252.746117
 20
873.652885
 30
0.0
  9
$LIMMIN
 10
-847.253883
 20
-611.347115
  9
$LIMMAX
 10
1252.746117
 20
873.652885
  9
$ORTHOMODE
 70
     0
  9
$REGENMODE
 70
     1
  9
$FILLMODE
 70
     1
  9
$QTEXTMODE
 70
     0
  9
$MIRRTEXT
 70
     1
  9
$LTSCALE
 40
5.0
  9
$ATTMODE
 70
     1
  9
$TEXTSIZE
 40
2.5
  9
$TRACEWID
 40
1.0
  9
$TEXTSTYLE
  7
Standard
  9
$CLAYER
  8
0
  9
$CELTYPE
  6
ByLayer
  9
$CECOLOR
 62
     7
  9
$CELTSCALE
 40
1.0
  9
$DISPSILH
 70
     0
  9
$DIMSCALE
 40
5.0
  9
$DIMASZ
 40
3.5
  9
$DIMEXO
 40
0.625
  9
$DIMDLI
 40
3.75
  9
$DIMRND
 40
0.0
  9
$DIMDLE
 40
0.0
  9
$DIMEXE
 40
1.25
  9
$DIMTP
 40
0.0
  9
$DIMTM
 40
0.0
  9
$DIMTXT
 40
3.5
  9
$DIMCEN
 40
2.5
  9
$DIMTSZ
 40
0.0
  9
$DIMTOL
 70
     0
  9
$DIMLIM
 70
     0
  9
$DIMTIH
 70
     0
  9
$DIMTOH
 70
     0
  9
$DIMSE1
 70
     0
  9
$DIMSE2
 70
     0
  9
$DIMTAD
 70
     1
  9
$DIMZIN
 70
     8
  9
$DIMBLK
  1

  9
$DIMASO
 70
     1
  9
$DIMSHO
 70
     1
  9
$DIMPOST
  1

  9
$DIMAPOST
  1

  9
$DIMALT
 70
     0
  9
$DIMALTD
 70
     3
  9
$DIMALTF
 40
0.03937
  9
$DIMLFAC
 40
1.0
  9
$DIMTOFL
 70
     1
  9
$DIMTVP
 40
0.0
  9
$DIMTIX
 70
     0
  9
$DIMSOXD
 70
     0
  9
$DIMSAH
 70
     0
  9
$DIMBLK1
  1

  9
$DIMBLK2
  1

  9
$DIMSTYLE
  2
ISO-25
  9
$DIMCLRD
 70
     0
  9
$DIMCLRE
 70
     0
  9
$DIMCLRT
 70
     0
  9
$DIMTFAC
 40
1.0
  9
$DIMGAP
 40
0.625
  9
$DIMJUST
 70
     0
  9
$DIMSD1
 70
     0
  9
$DIMSD2
 70
     0
  9
$DIMTOLJ
 70
     0
  9
$DIMTZIN
 70
     8
  9
$DIMALTZ
 70
     0
  9
$DIMALTTZ
 70
     0
  9
$DIMUPT
 70
     0
  9
$DIMDEC
 70
     2
  9
$DIMTDEC
 70
     2
  9
$DIMALTU
 70
     2
  9
$DIMALTTD
 70
     3
  9
$DIMTXSTY
  7
Standard
  9
$DIMAUNIT
 70
     0
  9
$DIMADEC
 70
     0
  9
$DIMALTRND
 40
0.0
  9
$DIMAZIN
 70
     0
  9
$DIMDSEP
 70
    44
  9
$DIMATFIT
 70
     3
  9
$DIMFRAC
 70
     0
  9
$DIMLDRBLK
  1

  9
$DIMLUNIT
 70
     2
  9
$DIMLWD
 70
    -2
  9
$DIMLWE
 70
    -2
  9
$DIMTMOVE
 70
     0
  9
$LUNITS
 70
     2
  9
$LUPREC
 70
     4
  9
$SKETCHINC
 40
1.0
  9
$FILLETRAD
 40
10.0
  9
$AUNITS
 70
     0
  9
$AUPREC
 70
     0
  9
$MENU
  1
.
  9
$ELEVATION
 40
0.0
  9
$PELEVATION
 40
0.0
  9
$THICKNESS
 40
0.0
  9
$LIMCHECK
 70
     0
  9
$CHAMFERA
 40
10.0
  9
$CHAMFERB
 40
10.0
  9
$CHAMFERC
 40
20.0
  9
$CHAMFERD
 40
0.0
  9
$SKPOLY
 70
     0
  9
$TDCREATE
 40
2456014.411733854
  9
$TDUCREATE
 40
2456014.328400521
  9
$TDUPDATE
 40
2456014.411733866
  9
$TDUUPDATE
 40
2456014.328400532
  9
$TDINDWG
 40
0.0000000116
  9
$TDUSRTIMER
 40
0.0000000116
  9
$USRTIMER
 70
     1
  9
$ANGBASE
 50
0.0
  9
$ANGDIR
 70
     0
  9
$PDMODE
 70
     0
  9
$PDSIZE
 40
0.0
  9
$PLINEWID
 40
0.0
  9
$SPLFRAME
 70
     0
  9
$SPLINETYPE
 70
     6
  9
$SPLINESEGS
 70
     8
  9
$HANDSEED
  5
75B
  9
$SURFTAB1
 70
     6
  9
$SURFTAB2
 70
     6
  9
$SURFTYPE
 70
     6
  9
$SURFU
 70
     6
  9
$SURFV
 70
     6
  9
$UCSBASE
  2

  9
$UCSNAME
  2

  9
$UCSORG
 10
0.0
 20
0.0
 30
0.0
  9
$UCSXDIR
 10
1.0
 20
0.0
 30
0.0
  9
$UCSYDIR
 10
0.0
 20
1.0
 30
0.0
  9
$UCSORTHOREF
  2

  9
$UCSORTHOVIEW
 70
     0
  9
$UCSORGTOP
 10
0.0
 20
0.0
 30
0.0
  9
$UCSORGBOTTOM
 10
0.0
 20
0.0
 30
0.0
  9
$UCSORGLEFT
 10
0.0
 20
0.0
 30
0.0
  9
$UCSORGRIGHT
 10
0.0
 20
0.0
 30
0.0
  9
$UCSORGFRONT
 10
0.0
 20
0.0
 30
0.0
  9
$UCSORGBACK
 10
0.0
 20
0.0
 30
0.0
  9
$PUCSBASE
  2

  9
$PUCSNAME
  2

  9
$PUCSORG
 10
0.0
 20
0.0
 30
0.0
  9
$PUCSXDIR
 10
1.0
 20
0.0
 30
0.0
  9
$PUCSYDIR
 10
0.0
 20
1.0
 30
0.0
  9
$PUCSORTHOREF
  2

  9
$PUCSORTHOVIEW
 70
     0
  9
$PUCSORGTOP
 10
0.0
 20
0.0
 30
0.0
  9
$PUCSORGBOTTOM
 10
0.0
 20
0.0
 30
0.0
  9
$PUCSORGLEFT
 10
0.0
 20
0.0
 30
0.0
  9
$PUCSORGRIGHT
 10
0.0
 20
0.0
 30
0.0
  9
$PUCSORGFRONT
 10
0.0
 20
0.0
 30
0.0
  9
$PUCSORGBACK
 10
0.0
 20
0.0
 30
0.0
  9
$USERI1
 70
     0
  9
$USERI2
 70
     0
  9
$USERI3
 70
     0
  9
$USERI4
 70
     0
  9
$USERI5
 70
     0
  9
$USERR1
 40
0.0
  9
$USERR2
 40
0.0
  9
$USERR3
 40
0.0
  9
$USERR4
 40
0.0
  9
$USERR5
 40
0.0
  9
$WORLDVIEW
 70
     1
  9
$SHADEDGE
 70
     3
  9
$SHADEDIF
 70
    70
  9
$TILEMODE
 70
     1
  9
$MAXACTVP
 70
    64
  9
$PINSBASE
 10
0.0
 20
0.0
 30
0.0
  9
$PLIMCHECK
 70
     0
  9
$PEXTMIN
 10
-847.253883
 20
-611.347115
 30
0.0
  9
$PEXTMAX
 10
1252.746117
 20
873.652885
 30
0.0
  9
$PLIMMIN
 10
-847.253883
 20
-611.347115
  9
$PLIMMAX
 10
1252.746117
 20
873.652885
  9
$UNITMODE
 70
     0
  9
$VISRETAIN
 70
     1
  9
$PLINEGEN
 70
     0
  9
$PSLTSCALE
 70
     1
  9
$TREEDEPTH
 70
  3020
  9
$CMLSTYLE
  2
Standard
  9
$CMLJUST
 70
     0
  9
$CMLSCALE
 40
20.0
  9
$PROXYGRAPHICS
 70
     1
  9
$MEASUREMENT
 70
     1
  9
$CELWEIGHT
370
    -1
  9
$ENDCAPS
280
     0
  9
$JOINSTYLE
280
     0
  9
$LWDISPLAY
290
     0
  9
$INSUNITS
 70
     4
  9
$HYPERLINKBASE
  1

  9
$STYLESHEET
  1

  9
$XEDIT
290
     1
  9
$CEPSNTYPE
380
     0
  9
$PSTYLEMODE
290
     1
  9
$FINGERPRINTGUID
  2
{FAEB1C30-E019-11D5-929B-00C0DF256EC4}
  9
$VERSIONGUID
  2
{FAEB1C32-E019-11D5-929B-00C0DF256EC4}
  9
$EXTNAMES
290
     1
  9
$PSVPSCALE
 40
0.0
  9
$OLESTARTUP
290
     0
  0
ENDSEC
  0
SECTION
  2
CLASSES
  0
CLASS
  1
ACDBDICTIONARYWDFLT
  2
AcDbDictionaryWithDefault
  3
ObjectDBX Classes
 90
        0
280
     0
281
     0
  0
CLASS
  1
ACDBPLACEHOLDER
  2
AcDbPlaceHolder
  3
ObjectDBX Classes
 90
        0
280
     0
281
     0
  0
CLASS
  1
LAYOUT
  2
AcDbLayout
  3
ObjectDBX Classes
 90
        0
280
     0
281
     0
  0
ENDSEC
  0
SECTION
  2
TABLES
  0
TABLE
  2
VPORT
  5
8
330
0
100
AcDbSymbolTable
 70
     2
  0
VPORT
  5
29
330
8
100
AcDbSymbolTableRecord
100
AcDbViewportTableRecord
  2
*ACTIVE
 70
     0
 10
0.0
 20
0.0
 11
1.0
 21
1.0
 12
202.746117
 22
131.152885
 13
0.0
 23
0.0
 14
1.0
 24
1.0
 15
0.0
 25
0.0
 16
0.0
 26
0.0
 36
1.0
 17
0.0
 27
0.0
 37
0.0
 40
1485.0
 41
1.414141
 42
50.0
 43
0.0
 44
0.0
 50
0.0
 51
0.0
 71
    16
 72
   100
 73
     1
 74
     0
 75
     0
 76
     0
 77
     0
 78
     0
281
     0
 65
     0
110
0.0
120
0.0
130
0.0
111
1.0
121
0.0
131
0.0
112
0.0
122
1.0
132
0.0
 79
     0
146
0.0
  0
ENDTAB
  0
TABLE
  2
LTYPE
  5
5
330
0
100
AcDbSymbolTable
 70
     3
  0
LTYPE
  5
14
330
5
100
AcDbSymbolTableRecord
100
AcDbLinetypeTableRecord
  2
ByBlock
 70
     0
  3

 72
    65
 73
     0
 40
0.0
  0
LTYPE
  5
15
330
5
100
AcDbSymbolTableRecord
100
AcDbLinetypeTableRecord
  2
ByLayer
 70
     0
  3

 72
    65
 73
     0
 40
0.0
  0
LTYPE
  5
16
330
5
100
AcDbSymbolTableRecord
100
AcDbLinetypeTableRecord
  2
Continuous
 70
     0
  3
Solid line
 72
    65
 73
     0
 40
0.0
  0
LTYPE
  5
2A
330
5
100
AcDbSymbolTableRecord
100
AcDbLinetypeTableRecord
  2
DASHED
 70
     0
  3
__ __ __ __ __
 72
    65
 73
     2
 40
6.25
 49
5.0
 74
     4
 75
     0
340
0
 46
1.0
 50
0.0
 44
0.0
 45
0.0
 49
-1.25
 74
     4
 75
     0
340
0
 46
1.0
 50
0.0
 44
0.0
 45
0.0
  0
LTYPE
  5
177
330
5
100
AcDbSymbolTableRecord
100
AcDbLinetypeTableRecord
  2
DASHDOT
 70
     0
  3
__ . __ . __ . __ . __
 72
    65
 73
     4
 40
7.5
 49
5.0
 74
     4
 75
     0
340
0
 46
1.0
 50
0.0
 44
0.0
 45
0.0
 49
-1.25
 74
     4
 75
     0
340
0
 46
1.0
 50
0.0
 44
0.0
 45
0.0
 49
0.0
 74
     4
 75
     0
340
0
 46
1.0
 50
0.0
 44
0.0
 45
0.0
 49
-1.25
 74
     4
 75
     0
340
0
 46
1.0
 50
0.0
 44
0.0
 45
0.0
  0
ENDTAB
  0
TABLE
  2
LAYER
  5
2
330
0
100
AcDbSymbolTable
 70
     7
  0
LAYER
  5
10
330
2
100
AcDbSymbolTableRecord
100
AcDbLayerTableRecord
  2
0
 70
     0
 62
     7
  6
Continuous
370
    -3
390
F
  0
LAYER
  5
2B
330
2
100
AcDbSymbolTableRecord
100
AcDbLayerTableRecord
  2
LC-INFO-1-5-mm-A3-0
 70
     1
 62
     7
  6
ByBlock
370
    -3
390
F
  0
LAYER
  5
2C
330
2
100
AcDbSymbolTableRecord
100
AcDbLayerTableRecord
  2
LC-CUT-HIDDEN
 70
     0
 62
     7
  6
DASHED
370
    -3
390
F
  0
LAYER
  5
2D
330
2
100
AcDbSymbolTableRecord
100
AcDbLayerTableRecord
  2
LC-VIEWPORT
 70
     0
 62
     7
  6
ByBlock
370
    -3
390
F
  0
LAYER
  5
2E
330
2
100
AcDbSymbolTableRecord
100
AcDbLayerTableRecord
  2
LC-3D-HIDDEN
 70
     0
 62
     9
  6
DASHED
370
    -3
390
F
  0
LAYER
  5
30
330
2
100
AcDbSymbolTableRecord
100
AcDbLayerTableRecord
  2
LC-001-100-D00-0
 70
     0
 62
     1
  6
ByBlock
370
    -3
390
F
  0
LAYER
  5
16A
330
2
100
AcDbSymbolTableRecord
100
AcDbLayerTableRecord
  2
Defpoints
 70
     0
 62
     7
  6
Continuous
290
     0
370
    -3
390
F
  0
ENDTAB
  0
TABLE
  2
STYLE
  5
3
330
0
100
AcDbSymbolTable
 70
     3
  0
STYLE
  5
11
330
3
100
AcDbSymbolTableRecord
100
AcDbTextStyleTableRecord
  2
Standard
 70
     0
 40
0.0
 41
1.0
 50
0.0
 71
     0
 42
2.5
  3
txt
  4

  0
STYLE
  5
2F
330
3
100
AcDbSymbolTableRecord
100
AcDbTextStyleTableRecord
  2
LCTX15-400-0-0-Arial
 70
     0
 40
0.0
 41
0.8
 50
0.0
 71
     0
 42
3.5
  3

  4

1001
ACAD
1000
Arial
1071
 16777218
  0
STYLE
  5
167
330
3
100
AcDbSymbolTableRecord
100
AcDbTextStyleTableRecord
  2
LCTX15-400-0-0pDIN-Schrift
 70
     0
 40
2.5
 41
0.8
 50
15.0
 71
     0
 42
3.5
  3
STANDARD
  4

  0
ENDTAB
  0
TABLE
  2
VIEW
  5
6
330
0
100
AcDbSymbolTable
 70
     0
  0
ENDTAB
  0
TABLE
  2
UCS
  5
7
330
0
100
AcDbSymbolTable
 70
     0
  0
ENDTAB
  0
TABLE
  2
APPID
  5
9
330
0
100
AcDbSymbolTable
 70
     1
  0
APPID
  5
12
330
9
100
AcDbSymbolTableRecord
100
AcDbRegAppTableRecord
  2
ACAD
 70
     0
  0
ENDTAB
  0
TABLE
  2
DIMSTYLE
  5
A
330
0
100
AcDbSymbolTable
 70
     2
100
AcDbDimStyleTable
  0
DIMSTYLE
105
27
330
A
100
AcDbSymbolTableRecord
100
AcDbDimStyleTableRecord
  2
ISO-25
 70
     0
 41
2.5
 42
0.625
 43
3.75
 44
1.25
 73
     0
 74
     0
 77
     1
 78
     8
140
2.5
141
2.5
143
0.03937
147
0.625
171
     3
172
     1
271
     2
272
     2
274
     3
278
    44
283
     0
284
     8
340
11
  0
DIMSTYLE
105
168
102
{ACAD_REACTORS
330
169
330
630
330
63D
330
64A
330
659
330
666
330
673
330
681
330
690
330
69E
102
}
330
A
100
AcDbSymbolTableRecord
100
AcDbDimStyleTableRecord
  2
LC-DIM-L-0100-02-02
 70
     0
 40
5.0
 41
10.0
 42
0.0
 43
7.5
 44
1.8
 73
     0
 74
     0
 77
     1
 78
     8
 79
     2
140
10.0
141
0.0
146
0.71
147
1.5
176
     2
177
     2
178
     2
179
     2
271
     2
278
    44
289
     1
340
167
  0
ENDTAB
  0
TABLE
  2
BLOCK_RECORD
  5
1
330
0
100
AcDbSymbolTable
 70
    46
  0
BLOCK_RECORD
  5
1F
330
1
100
AcDbSymbolTableRecord
100
AcDbBlockTableRecord
  2
*Model_Space
340
22
  0
BLOCK_RECORD
  5
1B
330
1
100
AcDbSymbolTableRecord
100
AcDbBlockTableRecord
  2
*Paper_Space
340
1E
  0
BLOCK_RECORD
  5
23
330
1
100
AcDbSymbolTableRecord
100
AcDbBlockTableRecord
  2
*Paper_Space0
340
26
  0
BLOCK_RECORD
  5
4B
330
1
100
AcDbSymbolTableRecord
100
AcDbBlockTableRecord
  2
KLON1
340
0
102
{BLKREFS
331
52
102
}
  0
BLOCK_RECORD
  5
54
330
1
100
AcDbSymbolTableRecord
100
AcDbBlockTableRecord
  2
KLON2
340
0
102
{BLKREFS
331
59
102
}
  0
BLOCK_RECORD
  5
5A
330
1
100
AcDbSymbolTableRecord
100
AcDbBlockTableRecord
  2
KLON3
340
0
102
{BLKREFS
331
5F
102
}
  0
BLOCK_RECORD
  5
60
330
1
100
AcDbSymbolTableRecord
100
AcDbBlockTableRecord
  2
KLON4
340
0
102
{BLKREFS
331
65
102
}
  0
BLOCK_RECORD
  5
67
330
1
100
AcDbSymbolTableRecord
100
AcDbBlockTableRecord
  2
KLON5
340
0
102
{BLKREFS
331
6E
102
}
  0
BLOCK_RECORD
  5
71
330
1
100
AcDbSymbolTableRecord
100
AcDbBlockTableRecord
  2
KLON6
340
0
102
{BLKREFS
331
76
102
}
  0
BLOCK_RECORD
  5
84
330
1
100
AcDbSymbolTableRecord
100
AcDbBlockTableRecord
  2
KLON7
340
0
102
{BLKREFS
331
89
102
}
  0
BLOCK_RECORD
  5
8A
330
1
100
AcDbSymbolTableRecord
100
AcDbBlockTableRecord
  2
KLON8
340
0
102
{BLKREFS
331
8F
102
}
  0
BLOCK_RECORD
  5
91
330
1
100
AcDbSymbolTableRecord
100
AcDbBlockTableRecord
  2
KLON9
340
0
102
{BLKREFS
331
97
102
}
  0
BLOCK_RECORD
  5
98
330
1
100
AcDbSymbolTableRecord
100
AcDbBlockTableRecord
  2
KLON10
340
0
102
{BLKREFS
331
9D
102
}
  0
BLOCK_RECORD
  5
9E
330
1
100
AcDbSymbolTableRecord
100
AcDbBlockTableRecord
  2
KLON11
340
0
102
{BLKREFS
331
A4
102
}
  0
BLOCK_RECORD
  5
A5
330
1
100
AcDbSymbolTableRecord
100
AcDbBlockTableRecord
  2
KLON12
340
0
102
{BLKREFS
331
AB
102
}
  0
BLOCK_RECORD
  5
AC
330
1
100
AcDbSymbolTableRecord
100
AcDbBlockTableRecord
  2
KLON13
340
0
102
{BLKREFS
331
B2
102
}
  0
BLOCK_RECORD
  5
B3
330
1
100
AcDbSymbolTableRecord
100
AcDbBlockTableRecord
  2
KLON14
340
0
102
{BLKREFS
331
B8
102
}
  0
BLOCK_RECORD
  5
16B
330
1
100
AcDbSymbolTableRecord
100
AcDbBlockTableRecord
  2
*D15
340
0
  0
BLOCK_RECORD
  5
419
330
1
100
AcDbSymbolTableRecord
100
AcDbBlockTableRecord
  2
KLON15
340
0
102
{BLKREFS
331
429
102
}
  0
BLOCK_RECORD
  5
42A
330
1
100
AcDbSymbolTableRecord
100
AcDbBlockTableRecord
  2
KLON16
340
0
102
{BLKREFS
331
43D
102
}
  0
BLOCK_RECORD
  5
441
330
1
100
AcDbSymbolTableRecord
100
AcDbBlockTableRecord
  2
KLON17
340
0
102
{BLKREFS
331
446
102
}
  0
BLOCK_RECORD
  5
58B
330
1
100
AcDbSymbolTableRecord
100
AcDbBlockTableRecord
  2
KLON18
340
0
102
{BLKREFS
331
594
102
}
  0
BLOCK_RECORD
  5
595
330
1
100
AcDbSymbolTableRecord
100
AcDbBlockTableRecord
  2
KLON19
340
0
102
{BLKREFS
331
59E
102
}
  0
BLOCK_RECORD
  5
5B8
330
1
100
AcDbSymbolTableRecord
100
AcDbBlockTableRecord
  2
KLON20
340
0
102
{BLKREFS
331
5C0
102
}
  0
BLOCK_RECORD
  5
5C1
330
1
100
AcDbSymbolTableRecord
100
AcDbBlockTableRecord
  2
KLON21
340
0
102
{BLKREFS
331
5CC
102
}
  0
BLOCK_RECORD
  5
5CD
330
1
100
AcDbSymbolTableRecord
100
AcDbBlockTableRecord
  2
KLON22
340
0
102
{BLKREFS
331
5D8
102
}
  0
BLOCK_RECORD
  5
631
330
1
100
AcDbSymbolTableRecord
100
AcDbBlockTableRecord
  2
*D24
340
0
  0
BLOCK_RECORD
  5
63E
330
1
100
AcDbSymbolTableRecord
100
AcDbBlockTableRecord
  2
*D25
340
0
  0
BLOCK_RECORD
  5
64B
330
1
100
AcDbSymbolTableRecord
100
AcDbBlockTableRecord
  2
*D26
340
0
  0
BLOCK_RECORD
  5
65A
330
1
100
AcDbSymbolTableRecord
100
AcDbBlockTableRecord
  2
*D27
340
0
  0
BLOCK_RECORD
  5
667
330
1
100
AcDbSymbolTableRecord
100
AcDbBlockTableRecord
  2
*D28
340
0
  0
BLOCK_RECORD
  5
674
330
1
100
AcDbSymbolTableRecord
100
AcDbBlockTableRecord
  2
*D29
340
0
  0
BLOCK_RECORD
  5
682
330
1
100
AcDbSymbolTableRecord
100
AcDbBlockTableRecord
  2
*D30
340
0
  0
BLOCK_RECORD
  5
691
330
1
100
AcDbSymbolTableRecord
100
AcDbBlockTableRecord
  2
*D31
340
0
  0
BLOCK_RECORD
  5
69F
330
1
100
AcDbSymbolTableRecord
100
AcDbBlockTableRecord
  2
*D32
340
0
  0
BLOCK_RECORD
  5
6AC
330
1
100
AcDbSymbolTableRecord
100
AcDbBlockTableRecord
  2
KLON23
340
0
102
{BLKREFS
331
6CA
102
}
  0
BLOCK_RECORD
  5
6CB
330
1
100
AcDbSymbolTableRecord
100
AcDbBlockTableRecord
  2
KLON24
340
0
102
{BLKREFS
331
6E8
102
}
  0
BLOCK_RECORD
  5
6E9
330
1
100
AcDbSymbolTableRecord
100
AcDbBlockTableRecord
  2
KLON25
340
0
102
{BLKREFS
331
6F4
102
}
  0
BLOCK_RECORD
  5
6F5
330
1
100
AcDbSymbolTableRecord
100
AcDbBlockTableRecord
  2
KLON26
340
0
102
{BLKREFS
331
6FB
102
}
  0
BLOCK_RECORD
  5
6FC
330
1
100
AcDbSymbolTableRecord
100
AcDbBlockTableRecord
  2
KLON27
340
0
102
{BLKREFS
331
702
102
}
  0
BLOCK_RECORD
  5
703
330
1
100
AcDbSymbolTableRecord
100
AcDbBlockTableRecord
  2
KLON28
340
0
102
{BLKREFS
331
709
102
}
  0
BLOCK_RECORD
  5
70A
330
1
100
AcDbSymbolTableRecord
100
AcDbBlockTableRecord
  2
KLON29
340
0
102
{BLKREFS
331
710
102
}
  0
BLOCK_RECORD
  5
713
330
1
100
AcDbSymbolTableRecord
100
AcDbBlockTableRecord
  2
KLON30
340
0
102
{BLKREFS
331
718
102
}
  0
BLOCK_RECORD
  5
719
330
1
100
AcDbSymbolTableRecord
100
AcDbBlockTableRecord
  2
KLON31
340
0
102
{BLKREFS
331
725
102
}
  0
BLOCK_RECORD
  5
726
330
1
100
AcDbSymbolTableRecord
100
AcDbBlockTableRecord
  2
KLON32
340
0
102
{BLKREFS
331
72B
102
}
  0
BLOCK_RECORD
  5
72E
330
1
100
AcDbSymbolTableRecord
100
AcDbBlockTableRecord
  2
KLON33
340
0
102
{BLKREFS
331
733
102
}
  0
BLOCK_RECORD
  5
73A
330
1
100
AcDbSymbolTableRecord
100
AcDbBlockTableRecord
  2
KLON34
340
0
102
{BLKREFS
331
73F
102
}
  0
BLOCK_RECORD
  5
746
330
1
100
AcDbSymbolTableRecord
100
AcDbBlockTableRecord
  2
KLON35
340
0
102
{BLKREFS
331
74B
102
}
  0
ENDTAB
  0
ENDSEC
  0
SECTION
  2
BLOCKS
  0
BLOCK
  5
20
330
1F
100
AcDbEntity
  8
0
100
AcDbBlockBegin
  2
*Model_Space
 70
     0
 71
     0
 10
0.0
 20
0.0
 30
0.0
  3
*Model_Space
  1

  0
ENDBLK
  5
21
330
1F
100
AcDbEntity
  8
0
100
AcDbBlockEnd
  0
BLOCK
  5
1C
330
1B
100
AcDbEntity
 67
     1
  8
0
100
AcDbBlockBegin
  2
*Paper_Space
 70
     0
 71
     0
 10
0.0
 20
0.0
 30
0.0
  3
*Paper_Space
  1

  0
ENDBLK
  5
1D
330
1B
100
AcDbEntity
 67
     1
  8
0
100
AcDbBlockEnd
  0
BLOCK
  5
24
330
23
100
AcDbEntity
  8
0
100
AcDbBlockBegin
  2
*Paper_Space0
 70
     0
 71
     0
 10
0.0
 20
0.0
 30
0.0
  3
*Paper_Space0
  1

  0
ENDBLK
  5
25
330
23
100
AcDbEntity
  8
0
100
AcDbBlockEnd
  0
BLOCK
  5
4C
330
4B
100
AcDbEntity
  8
0
100
AcDbBlockBegin
  2
KLON1
 70
     0
 71
     0
 10
0.0
 20
0.0
 30
0.0
  3
KLON1
  1

  4
KLON1
  0
LINE
  5
4E
330
4B
100
AcDbEntity
  8
LC-001-100-D00-0
 62
     7
370
    15
100
AcDbLine
 10
416.548157
 20
62.822797
 30
0.0
 11
416.560853
 21
62.741916
 31
0.0
  0
LINE
  5
4F
330
4B
100
AcDbEntity
  8
LC-001-100-D00-0
 62
     7
370
    15
100
AcDbLine
 10
416.560853
 20
62.741916
 30
0.0
 11
416.569614
 21
62.685707
 31
0.0
  0
LINE
  5
50
330
4B
100
AcDbEntity
  8
LC-001-100-D00-0
 62
     7
370
    15
100
AcDbLine
 10
416.569614
 20
62.685707
 30
0.0
 11
416.572118
 21
62.669609
 31
0.0
  0
LINE
  5
51
330
4B
100
AcDbEntity
  8
LC-001-100-D00-0
 62
     7
370
    15
100
AcDbLine
 10
416.572118
 20
62.669609
 30
0.0
 11
416.574383
 21
62.655323
 31
0.0
  0
ENDBLK
  5
4D
330
4B
100
AcDbEntity
  8
0
100
AcDbBlockEnd
  0
BLOCK
  5
55
330
54
100
AcDbEntity
  8
0
100
AcDbBlockBegin
  2
KLON2
 70
     0
 71
     0
 10
0.0
 20
0.0
 30
0.0
  3
KLON2
  1

  4
KLON2
  0
LINE
  5
57
330
54
100
AcDbEntity
  8
LC-001-100-D00-0
 62
     7
370
    15
100
AcDbLine
 10
416.548157
 20
73.985489
 30
0.0
 11
416.558766
 21
73.991399
 31
0.0
  0
LINE
  5
58
330
54
100
AcDbEntity
  8
LC-001-100-D00-0
 62
     7
370
    15
100
AcDbLine
 10
416.558766
 20
73.991399
 30
0.0
 11
416.574383
 21
74.000127
 31
0.0
  0
ENDBLK
  5
56
330
54
100
AcDbEntity
  8
0
100
AcDbBlockEnd
  0
BLOCK
  5
5B
330
5A
100
AcDbEntity
  8
0
100
AcDbBlockBegin
  2
KLON3
 70
     0
 71
     0
 10
0.0
 20
0.0
 30
0.0
  3
KLON3
  1

  4
KLON3
  0
LINE
  5
5D
330
5A
100
AcDbEntity
  8
LC-001-100-D00-0
 62
     7
370
    15
100
AcDbLine
 10
416.548157
 20
27.000129
 30
0.0
 11
416.555607
 21
26.961956
 31
0.0
  0
LINE
  5
5E
330
5A
100
AcDbEntity
  8
LC-001-100-D00-0
 62
     7
370
    15
100
AcDbLine
 10
416.555607
 20
26.961956
 30
0.0
 11
416.574383
 21
26.929472
 31
0.0
  0
ENDBLK
  5
5C
330
5A
100
AcDbEntity
  8
0
100
AcDbBlockEnd
  0
BLOCK
  5
61
330
60
100
AcDbEntity
  8
0
100
AcDbBlockBegin
  2
KLON4
 70
     0
 71
     0
 10
0.0
 20
0.0
 30
0.0
  3
KLON4
  1

  4
KLON4
  0
LINE
  5
63
330
60
100
AcDbEntity
  8
LC-001-100-D00-0
 62
     7
370
    15
100
AcDbLine
 10
-767.399406
 20
73.985489
 30
0.0
 11
-767.410016
 21
73.991399
 31
0.0
  0
LINE
  5
64
330
60
100
AcDbEntity
  8
LC-001-100-D00-0
 62
     7
370
    15
100
AcDbLine
 10
-767.410016
 20
73.991399
 30
0.0
 11
-767.425632
 21
74.000127
 31
0.0
  0
ENDBLK
  5
62
330
60
100
AcDbEntity
  8
0
100
AcDbBlockEnd
  0
BLOCK
  5
68
330
67
100
AcDbEntity
  8
0
100
AcDbBlockBegin
  2
KLON5
 70
     0
 71
     0
 10
0.0
 20
0.0
 30
0.0
  3
KLON5
  1

  4
KLON5
  0
LINE
  5
6A
330
67
100
AcDbEntity
  8
LC-001-100-D00-0
 62
     7
370
    15
100
AcDbLine
 10
-767.399406
 20
62.822797
 30
0.0
 11
-767.412102
 21
62.741916
 31
0.0
  0
LINE
  5
6B
330
67
100
AcDbEntity
  8
LC-001-100-D00-0
 62
     7
370
    15
100
AcDbLine
 10
-767.412102
 20
62.741916
 30
0.0
 11
-767.420864
 21
62.685707
 31
0.0
  0
LINE
  5
6C
330
67
100
AcDbEntity
  8
LC-001-100-D00-0
 62
     7
370
    15
100
AcDbLine
 10
-767.420864
 20
62.685707
 30
0.0
 11
-767.423367
 21
62.669609
 31
0.0
  0
LINE
  5
6D
330
67
100
AcDbEntity
  8
LC-001-100-D00-0
 62
     7
370
    15
100
AcDbLine
 10
-767.423367
 20
62.669609
 30
0.0
 11
-767.425632
 21
62.655323
 31
0.0
  0
ENDBLK
  5
69
330
67
100
AcDbEntity
  8
0
100
AcDbBlockEnd
  0
BLOCK
  5
72
330
71
100
AcDbEntity
  8
0
100
AcDbBlockBegin
  2
KLON6
 70
     0
 71
     0
 10
0.0
 20
0.0
 30
0.0
  3
KLON6
  1

  4
KLON6
  0
LINE
  5
74
330
71
100
AcDbEntity
  8
LC-001-100-D00-0
 62
     7
370
    15
100
AcDbLine
 10
-767.399406
 20
27.000129
 30
0.0
 11
-767.406857
 21
26.961956
 31
0.0
  0
LINE
  5
75
330
71
100
AcDbEntity
  8
LC-001-100-D00-0
 62
     7
370
    15
100
AcDbLine
 10
-767.406857
 20
26.961956
 30
0.0
 11
-767.425632
 21
26.929472
 31
0.0
  0
ENDBLK
  5
73
330
71
100
AcDbEntity
  8
0
100
AcDbBlockEnd
  0
BLOCK
  5
85
330
84
100
AcDbEntity
  8
0
100
AcDbBlockBegin
  2
KLON7
 70
     0
 71
     0
 10
0.0
 20
0.0
 30
0.0
  3
KLON7
  1

  4
KLON7
  0
LINE
  5
87
330
84
100
AcDbEntity
  8
LC-001-100-D00-0
 62
     7
370
    15
100
AcDbLine
 10
416.519666
 20
38.166719
 30
0.0
 11
416.535819
 21
38.172804
 31
0.0
  0
LINE
  5
88
330
84
100
AcDbEntity
  8
LC-001-100-D00-0
 62
     7
370
    15
100
AcDbLine
 10
416.535819
 20
38.172804
 30
0.0
 11
416.548157
 21
38.177459
 31
0.0
  0
ENDBLK
  5
86
330
84
100
AcDbEntity
  8
0
100
AcDbBlockEnd
  0
BLOCK
  5
8B
330
8A
100
AcDbEntity
  8
0
100
AcDbBlockBegin
  2
KLON8
 70
     0
 71
     0
 10
0.0
 20
0.0
 30
0.0
  3
KLON8
  1

  4
KLON8
  0
LINE
  5
8D
330
8A
100
AcDbEntity
  8
LC-001-100-D00-0
 62
     7
370
    15
100
AcDbLine
 10
-767.370915
 20
38.166719
 30
0.0
 11
-767.387068
 21
38.172804
 31
0.0
  0
LINE
  5
8E
330
8A
100
AcDbEntity
  8
LC-001-100-D00-0
 62
     7
370
    15
100
AcDbLine
 10
-767.387068
 20
38.172804
 30
0.0
 11
-767.399406
 21
38.177459
 31
0.0
  0
ENDBLK
  5
8C
330
8A
100
AcDbEntity
  8
0
100
AcDbBlockEnd
  0
BLOCK
  5
92
330
91
100
AcDbEntity
  8
0
100
AcDbBlockBegin
  2
KLON9
 70
     0
 71
     0
 10
0.0
 20
0.0
 30
0.0
  3
KLON9
  1

  4
KLON9
  0
LINE
  5
94
330
91
100
AcDbEntity
  8
LC-001-100-D00-0
 62
     7
370
    15
100
AcDbLine
 10
279.561305
 20
44.640911
 30
0.0
 11
279.572719
 21
45.054385
 31
0.0
  0
LINE
  5
95
330
91
100
AcDbEntity
  8
LC-001-100-D00-0
 62
     7
370
    15
100
AcDbLine
 10
279.572719
 20
45.054385
 30
0.0
 11
279.584372
 21
45.477643
 31
0.0
  0
LINE
  5
96
330
91
100
AcDbEntity
  8
LC-001-100-D00-0
 62
     7
370
    15
100
AcDbLine
 10
279.584372
 20
45.477643
 30
0.0
 11
279.596204
 21
45.905822
 31
0.0
  0
ENDBLK
  5
93
330
91
100
AcDbEntity
  8
0
100
AcDbBlockEnd
  0
BLOCK
  5
99
330
98
100
AcDbEntity
  8
0
100
AcDbBlockBegin
  2
KLON10
 70
     0
 71
     0
 10
0.0
 20
0.0
 30
0.0
  3
KLON10
  1

  4
KLON10
  0
LINE
  5
9B
330
98
100
AcDbEntity
  8
LC-001-100-D00-0
 62
     7
370
    15
100
AcDbLine
 10
416.519666
 20
62.833537
 30
0.0
 11
416.535819
 21
62.827453
 31
0.0
  0
LINE
  5
9C
330
98
100
AcDbEntity
  8
LC-001-100-D00-0
 62
     7
370
    15
100
AcDbLine
 10
416.535819
 20
62.827453
 30
0.0
 11
416.548157
 21
62.822797
 31
0.0
  0
ENDBLK
  5
9A
330
98
100
AcDbEntity
  8
0
100
AcDbBlockEnd
  0
BLOCK
  5
9F
330
9E
100
AcDbEntity
  8
0
100
AcDbBlockBegin
  2
KLON11
 70
     0
 71
     0
 10
0.0
 20
0.0
 30
0.0
  3
KLON11
  1

  4
KLON11
  0
LINE
  5
A1
330
9E
100
AcDbEntity
  8
LC-001-100-D00-0
 62
     7
370
    15
100
AcDbLine
 10
279.596204
 20
55.094434
 30
0.0
 11
279.584372
 21
55.522613
 31
0.0
  0
LINE
  5
A2
330
9E
100
AcDbEntity
  8
LC-001-100-D00-0
 62
     7
370
    15
100
AcDbLine
 10
279.584372
 20
55.522613
 30
0.0
 11
279.572719
 21
55.945871
 31
0.0
  0
LINE
  5
A3
330
9E
100
AcDbEntity
  8
LC-001-100-D00-0
 62
     7
370
    15
100
AcDbLine
 10
279.572719
 20
55.945871
 30
0.0
 11
279.561305
 21
56.359345
 31
0.0
  0
ENDBLK
  5
A0
330
9E
100
AcDbEntity
  8
0
100
AcDbBlockEnd
  0
BLOCK
  5
A6
330
A5
100
AcDbEntity
  8
0
100
AcDbBlockBegin
  2
KLON12
 70
     0
 71
     0
 10
0.0
 20
0.0
 30
0.0
  3
KLON12
  1

  4
KLON12
  0
LINE
  5
A8
330
A5
100
AcDbEntity
  8
LC-001-100-D00-0
 62
     7
370
    15
100
AcDbLine
 10
-630.412555
 20
44.640911
 30
0.0
 11
-630.423969
 21
45.054385
 31
0.0
  0
LINE
  5
A9
330
A5
100
AcDbEntity
  8
LC-001-100-D00-0
 62
     7
370
    15
100
AcDbLine
 10
-630.423969
 20
45.054385
 30
0.0
 11
-630.435622
 21
45.477643
 31
0.0
  0
LINE
  5
AA
330
A5
100
AcDbEntity
  8
LC-001-100-D00-0
 62
     7
370
    15
100
AcDbLine
 10
-630.435622
 20
45.477643
 30
0.0
 11
-630.447453
 21
45.905822
 31
0.0
  0
ENDBLK
  5
A7
330
A5
100
AcDbEntity
  8
0
100
AcDbBlockEnd
  0
BLOCK
  5
AD
330
AC
100
AcDbEntity
  8
0
100
AcDbBlockBegin
  2
KLON13
 70
     0
 71
     0
 10
0.0
 20
0.0
 30
0.0
  3
KLON13
  1

  4
KLON13
  0
LINE
  5
AF
330
AC
100
AcDbEntity
  8
LC-001-100-D00-0
 62
     7
370
    15
100
AcDbLine
 10
-630.447453
 20
55.094434
 30
0.0
 11
-630.435622
 21
55.522613
 31
0.0
  0
LINE
  5
B0
330
AC
100
AcDbEntity
  8
LC-001-100-D00-0
 62
     7
370
    15
100
AcDbLine
 10
-630.435622
 20
55.522613
 30
0.0
 11
-630.423969
 21
55.945871
 31
0.0
  0
LINE
  5
B1
330
AC
100
AcDbEntity
  8
LC-001-100-D00-0
 62
     7
370
    15
100
AcDbLine
 10
-630.423969
 20
55.945871
 30
0.0
 11
-630.412555
 21
56.359345
 31
0.0
  0
ENDBLK
  5
AE
330
AC
100
AcDbEntity
  8
0
100
AcDbBlockEnd
  0
BLOCK
  5
B4
330
B3
100
AcDbEntity
  8
0
100
AcDbBlockBegin
  2
KLON14
 70
     0
 71
     0
 10
0.0
 20
0.0
 30
0.0
  3
KLON14
  1

  4
KLON14
  0
LINE
  5
B6
330
B3
100
AcDbEntity
  8
LC-001-100-D00-0
 62
     7
370
    15
100
AcDbLine
 10
-767.370915
 20
62.833537
 30
0.0
 11
-767.387068
 21
62.827453
 31
0.0
  0
LINE
  5
B7
330
B3
100
AcDbEntity
  8
LC-001-100-D00-0
 62
     7
370
    15
100
AcDbLine
 10
-767.387068
 20
62.827453
 30
0.0
 11
-767.399406
 21
62.822797
 31
0.0
  0
ENDBLK
  5
B5
330
B3
100
AcDbEntity
  8
0
100
AcDbBlockEnd
  0
BLOCK
  5
175
330
16B
100
AcDbEntity
  8
0
100
AcDbBlockBegin
  2
*D15
 70
     1
 71
     0
 10
0.0
 20
0.0
 30
0.0
  3
*D15
  1

  0
LINE
  5
16C
330
16B
100
AcDbEntity
  8
LC-001-100-D00-0
 62
     2
370
    -2
100
AcDbLine
 10
469.574375
 20
128.000128
 30
0.0
 11
571.142798
 21
128.000128
 31
0.0
  0
LINE
  5
16D
330
16B
100
AcDbEntity
  8
LC-001-100-D00-0
 62
     2
370
    -2
100
AcDbLine
 10
469.574375
 20
-26.999872
 30
0.0
 11
571.142798
 21
-26.999872
 31
0.0
  0
LINE
  5
16E
330
16B
100
AcDbEntity
  8
LC-001-100-D00-0
 62
     2
370
    -2
100
AcDbLine
 10
562.142798
 20
78.000128
 30
0.0
 11
562.142798
 21
23.000128
 31
0.0
  0
SOLID
  5
16F
330
16B
100
AcDbEntity
  8
LC-001-100-D00-0
 62
     2
100
AcDbTrace
 10
570.476131
 20
78.000128
 30
0.0
 11
553.809465
 21
78.000128
 31
0.0
 12
562.142798
 22
128.000128
 32
0.0
 13
562.142798
 23
128.000128
 33
0.0
  0
SOLID
  5
170
330
16B
100
AcDbEntity
  8
LC-001-100-D00-0
 62
     2
100
AcDbTrace
 10
553.809465
 20
23.000128
 30
0.0
 11
570.476131
 21
23.000128
 31
0.0
 12
562.142798
 22
-26.999872
 32
0.0
 13
562.142798
 23
-26.999872
 33
0.0
  0
MTEXT
  5
171
330
16B
100
AcDbEntity
  8
LC-001-100-D00-0
 62
     2
100
AcDbMText
 10
507.142798
 20
39.082885
 30
0.0
 40
50.0
 41
0.0
 71
     5
 72
     1
  1
\A1;155
  7
LCTX15-400-0-0pDIN-Schrift
 11
6.123031769111886E-17
 21
1.0
 31
0.0
 73
     1
 44
1.0
  0
POINT
  5
172
330
16B
100
AcDbEntity
  8
Defpoints
 62
     0
100
AcDbPoint
 10
469.574375
 20
128.000128
 30
0.0
  0
POINT
  5
173
330
16B
100
AcDbEntity
  8
Defpoints
 62
     0
100
AcDbPoint
 10
469.574375
 20
-26.999872
 30
0.0
  0
POINT
  5
174
330
16B
100
AcDbEntity
  8
Defpoints
 62
     0
100
AcDbPoint
 10
562.142798
 20
-26.999872
 30
0.0
  0
ENDBLK
  5
176
330
16B
100
AcDbEntity
  8
0
100
AcDbBlockEnd
  0
BLOCK
  5
41A
330
419
100
AcDbEntity
  8
0
100
AcDbBlockBegin
  2
KLON15
 70
     0
 71
     0
 10
0.0
 20
0.0
 30
0.0
  3
KLON15
  1

  4
KLON15
  0
LINE
  5
41C
330
419
100
AcDbEntity
  8
LC-001-100-D00-0
 62
     7
370
    15
100
AcDbLine
 10
-101.425648
 20
419.722883
 30
0.0
 11
-101.428375
 21
419.72292
 31
0.0
  0
LINE
  5
41D
330
419
100
AcDbEntity
  8
LC-001-100-D00-0
 62
     7
370
    15
100
AcDbLine
 10
-101.428375
 20
419.72292
 30
0.0
 11
-101.432957
 21
419.723114
 31
0.0
  0
LINE
  5
41E
330
419
100
AcDbEntity
  8
LC-001-100-D00-0
 62
     7
370
    15
100
AcDbLine
 10
-101.432957
 20
419.723114
 30
0.0
 11
-101.44183
 21
419.723948
 31
0.0
  0
LINE
  5
41F
330
419
100
AcDbEntity
  8
LC-001-100-D00-0
 62
     7
370
    15
100
AcDbLine
 10
-101.44183
 20
419.723948
 30
0.0
 11
-101.44411
 21
419.724254
 31
0.0
  0
LINE
  5
420
330
419
100
AcDbEntity
  8
LC-001-100-D00-0
 62
     7
370
    15
100
AcDbLine
 10
-101.44411
 20
419.724254
 30
0.0
 11
-101.444684
 21
419.724336
 31
0.0
  0
LINE
  5
421
330
419
100
AcDbEntity
  8
LC-001-100-D00-0
 62
     7
370
    15
100
AcDbLine
 10
-101.444684
 20
419.724336
 30
0.0
 11
-101.444825
 21
419.724358
 31
0.0
  0
LINE
  5
422
330
419
100
AcDbEntity
  8
LC-001-100-D00-0
 62
     7
370
    15
100
AcDbLine
 10
-101.444825
 20
419.724358
 30
0.0
 11
-101.564005
 21
419.773629
 31
0.0
  0
LINE
  5
423
330
419
100
AcDbEntity
  8
LC-001-100-D00-0
 62
     7
370
    15
100
AcDbLine
 10
-101.564005
 20
419.773629
 30
0.0
 11
-102.404609
 21
420.586524
 31
0.0
  0
LINE
  5
424
330
419
100
AcDbEntity
  8
LC-001-100-D00-0
 62
     7
370
    15
100
AcDbLine
 10
-102.404609
 20
420.586524
 30
0.0
 11
-103.493288
 21
421.911849
 31
0.0
  0
LINE
  5
425
330
419
100
AcDbEntity
  8
LC-001-100-D00-0
 62
     7
370
    15
100
AcDbLine
 10
-103.493288
 20
421.911849
 30
0.0
 11
-104.91915
 21
423.81501
 31
0.0
  0
LINE
  5
426
330
419
100
AcDbEntity
  8
LC-001-100-D00-0
 62
     7
370
    15
100
AcDbLine
 10
-104.91915
 20
423.81501
 30
0.0
 11
-106.971495
 21
426.780669
 31
0.0
  0
LINE
  5
427
330
419
100
AcDbEntity
  8
LC-001-100-D00-0
 62
     7
370
    15
100
AcDbLine
 10
-106.971495
 20
426.780669
 30
0.0
 11
-109.342165
 21
430.421999
 31
0.0
  0
LINE
  5
428
330
419
100
AcDbEntity
  8
LC-001-100-D00-0
 62
     7
370
    15
100
AcDbLine
 10
-109.342165
 20
430.421999
 30
0.0
 11
-109.450355
 21
430.588377
 31
0.0
  0
ENDBLK
  5
41B
330
419
100
AcDbEntity
  8
0
100
AcDbBlockEnd
  0
BLOCK
  5
42B
330
42A
100
AcDbEntity
  8
0
100
AcDbBlockBegin
  2
KLON16
 70
     0
 71
     0
 10
0.0
 20
0.0
 30
0.0
  3
KLON16
  1

  4
KLON16
  0
LINE
  5
42D
330
42A
100
AcDbEntity
  8
LC-001-100-D00-0
 62
     7
370
    15
100
AcDbLine
 10
-109.450355
 20
430.588377
 30
0.0
 11
-110.191964
 21
432.966931
 31
0.0
  0
LINE
  5
42E
330
42A
100
AcDbEntity
  8
LC-001-100-D00-0
 62
     7
370
    15
100
AcDbLine
 10
-110.191964
 20
432.966931
 30
0.0
 11
-110.826701
 21
435.547357
 31
0.0
  0
LINE
  5
42F
330
42A
100
AcDbEntity
  8
LC-001-100-D00-0
 62
     7
370
    15
100
AcDbLine
 10
-110.826701
 20
435.547357
 30
0.0
 11
-111.345909
 21
438.679537
 31
0.0
  0
LINE
  5
430
330
42A
100
AcDbEntity
  8
LC-001-100-D00-0
 62
     7
370
    15
100
AcDbLine
 10
-111.345909
 20
438.679537
 30
0.0
 11
-111.582749
 21
442.016413
 31
0.0
  0
LINE
  5
431
330
42A
100
AcDbEntity
  8
LC-001-100-D00-0
 62
     7
370
    15
100
AcDbLine
 10
-111.582749
 20
442.016413
 30
0.0
 11
-111.491829
 21
445.286183
 31
0.0
  0
LINE
  5
432
330
42A
100
AcDbEntity
  8
LC-001-100-D00-0
 62
     7
370
    15
100
AcDbLine
 10
-111.491829
 20
445.286183
 30
0.0
 11
-111.080013
 21
448.577558
 31
0.0
  0
LINE
  5
433
330
42A
100
AcDbEntity
  8
LC-001-100-D00-0
 62
     7
370
    15
100
AcDbLine
 10
-111.080013
 20
448.577558
 30
0.0
 11
-110.436119
 21
451.570345
 31
0.0
  0
LINE
  5
434
330
42A
100
AcDbEntity
  8
LC-001-100-D00-0
 62
     7
370
    15
100
AcDbLine
 10
-110.436119
 20
451.570345
 30
0.0
 11
-109.597489
 21
454.420274
 31
0.0
  0
LINE
  5
435
330
42A
100
AcDbEntity
  8
LC-001-100-D00-0
 62
     7
370
    15
100
AcDbLine
 10
-109.597489
 20
454.420274
 30
0.0
 11
-108.529828
 21
457.331298
 31
0.0
  0
LINE
  5
436
330
42A
100
AcDbEntity
  8
LC-001-100-D00-0
 62
     7
370
    15
100
AcDbLine
 10
-108.529828
 20
457.331298
 30
0.0
 11
-107.405953
 21
459.941404
 31
0.0
  0
LINE
  5
437
330
42A
100
AcDbEntity
  8
LC-001-100-D00-0
 62
     7
370
    15
100
AcDbLine
 10
-107.405953
 20
459.941404
 30
0.0
 11
-106.257535
 21
462.318113
 31
0.0
  0
LINE
  5
438
330
42A
100
AcDbEntity
  8
LC-001-100-D00-0
 62
     7
370
    15
100
AcDbLine
 10
-106.257535
 20
462.318113
 30
0.0
 11
-105.285719
 21
464.172227
 31
0.0
  0
LINE
  5
439
330
42A
100
AcDbEntity
  8
LC-001-100-D00-0
 62
     7
370
    15
100
AcDbLine
 10
-105.285719
 20
464.172227
 30
0.0
 11
-104.743481
 21
465.158498
 31
0.0
  0
LINE
  5
43A
330
42A
100
AcDbEntity
  8
LC-001-100-D00-0
 62
     7
370
    15
100
AcDbLine
 10
-104.743481
 20
465.158498
 30
0.0
 11
-104.456782
 21
465.668024
 31
0.0
  0
LINE
  5
43B
330
42A
100
AcDbEntity
  8
LC-001-100-D00-0
 62
     7
370
    15
100
AcDbLine
 10
-104.456782
 20
465.668024
 30
0.0
 11
-104.425922
 21
465.722402
 31
0.0
  0
LINE
  5
43C
330
42A
100
AcDbEntity
  8
LC-001-100-D00-0
 62
     7
370
    15
100
AcDbLine
 10
-104.425922
 20
465.722402
 30
0.0
 11
-104.425646
 21
465.722887
 31
0.0
  0
ENDBLK
  5
42C
330
42A
100
AcDbEntity
  8
0
100
AcDbBlockEnd
  0
BLOCK
  5
442
330
441
100
AcDbEntity
  8
0
100
AcDbBlockBegin
  2
KLON17
 70
     0
 71
     0
 10
0.0
 20
0.0
 30
0.0
  3
KLON17
  1

  4
KLON17
  0
LINE
  5
444
330
441
100
AcDbEntity
  8
LC-001-100-D00-0
 62
     7
370
    15
100
AcDbLine
 10
-110.108197
 20
429.222887
 30
0.0
 11
-110.101417
 21
429.237163
 31
0.0
  0
LINE
  5
445
330
441
100
AcDbEntity
  8
LC-001-100-D00-0
 62
     7
370
    15
100
AcDbLine
 10
-110.101417
 20
429.237163
 30
0.0
 11
-109.450355
 21
430.588377
 31
0.0
  0
ENDBLK
  5
443
330
441
100
AcDbEntity
  8
0
100
AcDbBlockEnd
  0
BLOCK
  5
58C
330
58B
100
AcDbEntity
  8
0
100
AcDbBlockBegin
  2
KLON18
 70
     0
 71
     0
 10
0.0
 20
0.0
 30
0.0
  3
KLON18
  1

  4
KLON18
  0
LINE
  5
58E
330
58B
100
AcDbEntity
  8
LC-001-100-D00-0
 62
     7
370
    15
100
AcDbLine
 10
407.482028
 20
497.89105
 30
0.0
 11
410.038352
 21
497.984346
 31
0.0
  0
LINE
  5
58F
330
58B
100
AcDbEntity
  8
LC-001-100-D00-0
 62
     7
370
    15
100
AcDbLine
 10
410.038352
 20
497.984346
 30
0.0
 11
412.184119
 21
498.062659
 31
0.0
  0
LINE
  5
590
330
58B
100
AcDbEntity
  8
LC-001-100-D00-0
 62
     7
370
    15
100
AcDbLine
 10
412.184119
 20
498.062659
 30
0.0
 11
413.914263
 21
498.125803
 31
0.0
  0
LINE
  5
591
330
58B
100
AcDbEntity
  8
LC-001-100-D00-0
 62
     7
370
    15
100
AcDbLine
 10
413.914263
 20
498.125803
 30
0.0
 11
415.224612
 21
498.173624
 31
0.0
  0
LINE
  5
592
330
58B
100
AcDbEntity
  8
LC-001-100-D00-0
 62
     7
370
    15
100
AcDbLine
 10
415.224612
 20
498.173624
 30
0.0
 11
416.112006
 21
498.206012
 31
0.0
  0
LINE
  5
593
330
58B
100
AcDbEntity
  8
LC-001-100-D00-0
 62
     7
370
    15
100
AcDbLine
 10
416.112006
 20
498.206012
 30
0.0
 11
416.574359
 21
498.222885
 31
0.0
  0
ENDBLK
  5
58D
330
58B
100
AcDbEntity
  8
0
100
AcDbBlockEnd
  0
BLOCK
  5
596
330
595
100
AcDbEntity
  8
0
100
AcDbBlockBegin
  2
KLON19
 70
     0
 71
     0
 10
0.0
 20
0.0
 30
0.0
  3
KLON19
  1

  4
KLON19
  0
LINE
  5
598
330
595
100
AcDbEntity
  8
LC-001-100-D00-0
 62
     7
370
    15
100
AcDbLine
 10
-758.333325
 20
497.89105
 30
0.0
 11
-760.889649
 21
497.984346
 31
0.0
  0
LINE
  5
599
330
595
100
AcDbEntity
  8
LC-001-100-D00-0
 62
     7
370
    15
100
AcDbLine
 10
-760.889649
 20
497.984346
 30
0.0
 11
-763.035417
 21
498.062659
 31
0.0
  0
LINE
  5
59A
330
595
100
AcDbEntity
  8
LC-001-100-D00-0
 62
     7
370
    15
100
AcDbLine
 10
-763.035417
 20
498.062659
 30
0.0
 11
-764.765561
 21
498.125803
 31
0.0
  0
LINE
  5
59B
330
595
100
AcDbEntity
  8
LC-001-100-D00-0
 62
     7
370
    15
100
AcDbLine
 10
-764.765561
 20
498.125803
 30
0.0
 11
-766.075909
 21
498.173624
 31
0.0
  0
LINE
  5
59C
330
595
100
AcDbEntity
  8
LC-001-100-D00-0
 62
     7
370
    15
100
AcDbLine
 10
-766.075909
 20
498.173624
 30
0.0
 11
-766.963303
 21
498.206012
 31
0.0
  0
LINE
  5
59D
330
595
100
AcDbEntity
  8
LC-001-100-D00-0
 62
     7
370
    15
100
AcDbLine
 10
-766.963303
 20
498.206012
 30
0.0
 11
-767.425656
 21
498.222885
 31
0.0
  0
ENDBLK
  5
597
330
595
100
AcDbEntity
  8
0
100
AcDbBlockEnd
  0
BLOCK
  5
5B9
330
5B8
100
AcDbEntity
  8
0
100
AcDbBlockBegin
  2
KLON20
 70
     0
 71
     0
 10
0.0
 20
0.0
 30
0.0
  3
KLON20
  1

  4
KLON20
  0
LINE
  5
5BB
330
5B8
100
AcDbEntity
  8
LC-001-100-D00-0
 62
     7
370
    15
100
AcDbLine
 10
-221.545264
 20
486.222884
 30
0.0
 11
-221.531734
 21
486.064179
 31
0.0
  0
LINE
  5
5BC
330
5B8
100
AcDbEntity
  8
LC-001-100-D00-0
 62
     7
370
    15
100
AcDbLine
 10
-221.531734
 20
486.064179
 30
0.0
 11
-221.36981
 21
485.479759
 31
0.0
  0
LINE
  5
5BD
330
5B8
100
AcDbEntity
  8
LC-001-100-D00-0
 62
     7
370
    15
100
AcDbLine
 10
-221.36981
 20
485.479759
 30
0.0
 11
-221.119944
 21
485.033454
 31
0.0
  0
LINE
  5
5BE
330
5B8
100
AcDbEntity
  8
LC-001-100-D00-0
 62
     7
370
    15
100
AcDbLine
 10
-221.119944
 20
485.033454
 30
0.0
 11
-220.808644
 21
484.774703
 31
0.0
  0
LINE
  5
5BF
330
5B8
100
AcDbEntity
  8
LC-001-100-D00-0
 62
     7
370
    15
100
AcDbLine
 10
-220.808644
 20
484.774703
 30
0.0
 11
-220.671151
 21
484.730946
 31
0.0
  0
ENDBLK
  5
5BA
330
5B8
100
AcDbEntity
  8
0
100
AcDbBlockEnd
  0
BLOCK
  5
5C2
330
5C1
100
AcDbEntity
  8
0
100
AcDbBlockBegin
  2
KLON21
 70
     0
 71
     0
 10
0.0
 20
0.0
 30
0.0
  3
KLON21
  1

  4
KLON21
  0
LINE
  5
5C4
330
5C1
100
AcDbEntity
  8
LC-001-100-D00-0
 62
     7
370
    15
100
AcDbLine
 10
416.547
 20
499.722885
 30
0.0
 11
416.546106
 21
499.770922
 31
0.0
  0
LINE
  5
5C5
330
5C1
100
AcDbEntity
  8
LC-001-100-D00-0
 62
     7
370
    15
100
AcDbLine
 10
416.546106
 20
499.770922
 30
0.0
 11
416.543543
 21
499.913186
 31
0.0
  0
LINE
  5
5C6
330
5C1
100
AcDbEntity
  8
LC-001-100-D00-0
 62
     7
370
    15
100
AcDbLine
 10
416.543543
 20
499.913186
 30
0.0
 11
416.539311
 21
500.144211
 31
0.0
  0
LINE
  5
5C7
330
5C1
100
AcDbEntity
  8
LC-001-100-D00-0
 62
     7
370
    15
100
AcDbLine
 10
416.539311
 20
500.144211
 30
0.0
 11
416.533649
 21
500.455119
 31
0.0
  0
LINE
  5
5C8
330
5C1
100
AcDbEntity
  8
LC-001-100-D00-0
 62
     7
370
    15
100
AcDbLine
 10
416.533649
 20
500.455119
 30
0.0
 11
416.526735
 21
500.83396
 31
0.0
  0
LINE
  5
5C9
330
5C1
100
AcDbEntity
  8
LC-001-100-D00-0
 62
     7
370
    15
100
AcDbLine
 10
416.526735
 20
500.83396
 30
0.0
 11
416.518807
 21
501.266178
 31
0.0
  0
LINE
  5
5CA
330
5C1
100
AcDbEntity
  8
LC-001-100-D00-0
 62
     7
370
    15
100
AcDbLine
 10
416.518807
 20
501.266178
 30
0.0
 11
416.510284
 21
501.73516
 31
0.0
  0
LINE
  5
5CB
330
5C1
100
AcDbEntity
  8
LC-001-100-D00-0
 62
     7
370
    15
100
AcDbLine
 10
416.510284
 20
501.73516
 30
0.0
 11
416.501403
 21
502.222886
 31
0.0
  0
ENDBLK
  5
5C3
330
5C1
100
AcDbEntity
  8
0
100
AcDbBlockEnd
  0
BLOCK
  5
5CE
330
5CD
100
AcDbEntity
  8
0
100
AcDbBlockBegin
  2
KLON22
 70
     0
 71
     0
 10
0.0
 20
0.0
 30
0.0
  3
KLON22
  1

  4
KLON22
  0
LINE
  5
5D0
330
5CD
100
AcDbEntity
  8
LC-001-100-D00-0
 62
     7
370
    15
100
AcDbLine
 10
-767.398298
 20
499.722885
 30
0.0
 11
-767.397404
 21
499.770922
 31
0.0
  0
LINE
  5
5D1
330
5CD
100
AcDbEntity
  8
LC-001-100-D00-0
 62
     7
370
    15
100
AcDbLine
 10
-767.397404
 20
499.770922
 30
0.0
 11
-767.394841
 21
499.913186
 31
0.0
  0
LINE
  5
5D2
330
5CD
100
AcDbEntity
  8
LC-001-100-D00-0
 62
     7
370
    15
100
AcDbLine
 10
-767.394841
 20
499.913186
 30
0.0
 11
-767.390609
 21
500.144211
 31
0.0
  0
LINE
  5
5D3
330
5CD
100
AcDbEntity
  8
LC-001-100-D00-0
 62
     7
370
    15
100
AcDbLine
 10
-767.390609
 20
500.144211
 30
0.0
 11
-767.384946
 21
500.455119
 31
0.0
  0
LINE
  5
5D4
330
5CD
100
AcDbEntity
  8
LC-001-100-D00-0
 62
     7
370
    15
100
AcDbLine
 10
-767.384946
 20
500.455119
 30
0.0
 11
-767.378032
 21
500.83396
 31
0.0
  0
LINE
  5
5D5
330
5CD
100
AcDbEntity
  8
LC-001-100-D00-0
 62
     7
370
    15
100
AcDbLine
 10
-767.378032
 20
500.83396
 30
0.0
 11
-767.370105
 21
501.266178
 31
0.0
  0
LINE
  5
5D6
330
5CD
100
AcDbEntity
  8
LC-001-100-D00-0
 62
     7
370
    15
100
AcDbLine
 10
-767.370105
 20
501.266178
 30
0.0
 11
-767.361581
 21
501.73516
 31
0.0
  0
LINE
  5
5D7
330
5CD
100
AcDbEntity
  8
LC-001-100-D00-0
 62
     7
370
    15
100
AcDbLine
 10
-767.361581
 20
501.73516
 30
0.0
 11
-767.3527
 21
502.222886
 31
0.0
  0
ENDBLK
  5
5CF
330
5CD
100
AcDbEntity
  8
0
100
AcDbBlockEnd
  0
BLOCK
  5
63B
330
631
100
AcDbEntity
  8
0
100
AcDbBlockBegin
  2
*D24
 70
     1
 71
     0
 10
0.0
 20
0.0
 30
0.0
  3
*D24
  1

  0
LINE
  5
632
330
631
100
AcDbEntity
  8
LC-001-100-D00-0
 62
     2
370
    -2
100
AcDbLine
 10
474.574351
 20
520.222885
 30
0.0
 11
474.574351
 21
664.354885
 31
0.0
  0
LINE
  5
633
330
631
100
AcDbEntity
  8
LC-001-100-D00-0
 62
     2
370
    -2
100
AcDbLine
 10
-825.425649
 20
520.222885
 30
0.0
 11
-825.425649
 21
664.354885
 31
0.0
  0
LINE
  5
634
330
631
100
AcDbEntity
  8
LC-001-100-D00-0
 62
     2
370
    -2
100
AcDbLine
 10
424.574351
 20
655.354885
 30
0.0
 11
-775.425649
 21
655.354885
 31
0.0
  0
SOLID
  5
635
330
631
100
AcDbEntity
  8
LC-001-100-D00-0
 62
     2
100
AcDbTrace
 10
424.574351
 20
647.021552
 30
0.0
 11
424.574351
 21
663.688219
 31
0.0
 12
474.574351
 22
655.354885
 32
0.0
 13
474.574351
 23
655.354885
 33
0.0
  0
SOLID
  5
636
330
631
100
AcDbEntity
  8
LC-001-100-D00-0
 62
     2
100
AcDbTrace
 10
-775.425649
 20
663.688219
 30
0.0
 11
-775.425649
 21
647.021552
 31
0.0
 12
-825.425649
 22
655.354885
 32
0.0
 13
-825.425649
 23
655.354885
 33
0.0
  0
MTEXT
  5
637
330
631
100
AcDbEntity
  8
LC-001-100-D00-0
 62
     2
100
AcDbMText
 10
-172.291513
 20
710.354885
 30
0.0
 40
50.0
 41
0.0
 71
     5
 72
     1
  1
\A1;1300
  7
LCTX15-400-0-0pDIN-Schrift
 73
     1
 44
1.0
  0
POINT
  5
638
330
631
100
AcDbEntity
  8
Defpoints
 62
     0
100
AcDbPoint
 10
474.574351
 20
520.222885
 30
0.0
  0
POINT
  5
639
330
631
100
AcDbEntity
  8
Defpoints
 62
     0
100
AcDbPoint
 10
-825.425649
 20
520.222885
 30
0.0
  0
POINT
  5
63A
330
631
100
AcDbEntity
  8
Defpoints
 62
     0
100
AcDbPoint
 10
-825.425649
 20
655.354885
 30
0.0
  0
ENDBLK
  5
63C
330
631
100
AcDbEntity
  8
0
100
AcDbBlockEnd
  0
BLOCK
  5
648
330
63E
100
AcDbEntity
  8
0
100
AcDbBlockBegin
  2
*D25
 70
     1
 71
     0
 10
0.0
 20
0.0
 30
0.0
  3
*D25
  1

  0
LINE
  5
63F
330
63E
100
AcDbEntity
  8
LC-001-100-D00-0
 62
     2
370
    -2
100
AcDbLine
 10
424.574351
 20
517.222885
 30
0.0
 11
424.574351
 21
566.906793
 31
0.0
  0
LINE
  5
640
330
63E
100
AcDbEntity
  8
LC-001-100-D00-0
 62
     2
370
    -2
100
AcDbLine
 10
-775.425649
 20
517.222885
 30
0.0
 11
-775.425649
 21
566.906793
 31
0.0
  0
LINE
  5
641
330
63E
100
AcDbEntity
  8
LC-001-100-D00-0
 62
     2
370
    -2
100
AcDbLine
 10
374.574351
 20
557.906793
 30
0.0
 11
-725.425649
 21
557.906793
 31
0.0
  0
SOLID
  5
642
330
63E
100
AcDbEntity
  8
LC-001-100-D00-0
 62
     2
100
AcDbTrace
 10
374.574351
 20
549.57346
 30
0.0
 11
374.574351
 21
566.240126
 31
0.0
 12
424.574351
 22
557.906793
 32
0.0
 13
424.574351
 23
557.906793
 33
0.0
  0
SOLID
  5
643
330
63E
100
AcDbEntity
  8
LC-001-100-D00-0
 62
     2
100
AcDbTrace
 10
-725.425649
 20
566.240126
 30
0.0
 11
-725.425649
 21
549.57346
 31
0.0
 12
-775.425649
 22
557.906793
 32
0.0
 13
-775.425649
 23
557.906793
 33
0.0
  0
MTEXT
  5
644
330
63E
100
AcDbEntity
  8
LC-001-100-D00-0
 62
     2
100
AcDbMText
 10
-178.294239
 20
612.906793
 30
0.0
 40
50.0
 41
0.0
 71
     5
 72
     1
  1
\A1;1200
  7
LCTX15-400-0-0pDIN-Schrift
 73
     1
 44
1.0
  0
POINT
  5
645
330
63E
100
AcDbEntity
  8
Defpoints
 62
     0
100
AcDbPoint
 10
424.574351
 20
517.222885
 30
0.0
  0
POINT
  5
646
330
63E
100
AcDbEntity
  8
Defpoints
 62
     0
100
AcDbPoint
 10
-775.425649
 20
517.222885
 30
0.0
  0
POINT
  5
647
330
63E
100
AcDbEntity
  8
Defpoints
 62
     0
100
AcDbPoint
 10
-775.425649
 20
557.906793
 30
0.0
  0
ENDBLK
  5
649
330
63E
100
AcDbEntity
  8
0
100
AcDbBlockEnd
  0
BLOCK
  5
657
330
64B
100
AcDbEntity
  8
0
100
AcDbBlockBegin
  2
*D26
 70
     1
 71
     0
 10
0.0
 20
0.0
 30
0.0
  3
*D26
  1

  0
LINE
  5
64C
330
64B
100
AcDbEntity
  8
LC-001-100-D00-0
 62
     2
370
    -2
100
AcDbLine
 10
-204.425649
 20
428.322885
 30
0.0
 11
-322.156594
 21
428.322885
 31
0.0
  0
LINE
  5
64D
330
64B
100
AcDbEntity
  8
LC-001-100-D00-0
 62
     2
370
    -2
100
AcDbLine
 10
-210.505044
 20
478.722885
 30
0.0
 11
-322.156594
 21
478.722885
 31
0.0
  0
LINE
  5
64E
330
64B
100
AcDbEntity
  8
LC-001-100-D00-0
 62
     2
370
    -2
100
AcDbLine
 10
-313.156594
 20
378.322885
 30
0.0
 11
-313.156594
 21
328.322885
 31
0.0
  0
LINE
  5
64F
330
64B
100
AcDbEntity
  8
LC-001-100-D00-0
 62
     2
370
    -2
100
AcDbLine
 10
-313.156594
 20
528.722885
 30
0.0
 11
-313.156594
 21
578.722885
 31
0.0
  0
LINE
  5
650
330
64B
100
AcDbEntity
  8
LC-001-100-D00-0
 62
     2
370
    -2
100
AcDbLine
 10
-313.156594
 20
428.322885
 30
0.0
 11
-313.156594
 21
478.722885
 31
0.0
  0
SOLID
  5
651
330
64B
100
AcDbEntity
  8
LC-001-100-D00-0
 62
     2
100
AcDbTrace
 10
-304.82326
 20
378.322885
 30
0.0
 11
-321.489927
 21
378.322885
 31
0.0
 12
-313.156594
 22
428.322885
 32
0.0
 13
-313.156594
 23
428.322885
 33
0.0
  0
SOLID
  5
652
330
64B
100
AcDbEntity
  8
LC-001-100-D00-0
 62
     2
100
AcDbTrace
 10
-321.489927
 20
528.722885
 30
0.0
 11
-304.82326
 21
528.722885
 31
0.0
 12
-313.156594
 22
478.722885
 32
0.0
 13
-313.156594
 23
478.722885
 33
0.0
  0
MTEXT
  5
653
330
64B
100
AcDbEntity
  8
LC-001-100-D00-0
 62
     2
100
AcDbMText
 10
-368.156594
 20
452.725021
 30
0.0
 40
50.0
 41
0.0
 71
     5
 72
     1
  1
\A1;50
  7
LCTX15-400-0-0pDIN-Schrift
 11
6.123031769111886E-17
 21
1.0
 31
0.0
 73
     1
 44
1.0
  0
POINT
  5
654
330
64B
100
AcDbEntity
  8
Defpoints
 62
     0
100
AcDbPoint
 10
-204.425649
 20
428.322885
 30
0.0
  0
POINT
  5
655
330
64B
100
AcDbEntity
  8
Defpoints
 62
     0
100
AcDbPoint
 10
-210.505044
 20
478.722885
 30
0.0
  0
POINT
  5
656
330
64B
100
AcDbEntity
  8
Defpoints
 62
     0
100
AcDbPoint
 10
-313.156594
 20
478.722885
 30
0.0
  0
ENDBLK
  5
658
330
64B
100
AcDbEntity
  8
0
100
AcDbBlockEnd
  0
BLOCK
  5
664
330
65A
100
AcDbEntity
  8
0
100
AcDbBlockBegin
  2
*D27
 70
     1
 71
     0
 10
0.0
 20
0.0
 30
0.0
  3
*D27
  1

  0
LINE
  5
65B
330
65A
100
AcDbEntity
  8
LC-001-100-D00-0
 62
     2
370
    -2
100
AcDbLine
 10
-249.425649
 20
429.222885
 30
0.0
 11
-249.425649
 21
297.082885
 31
0.0
  0
LINE
  5
65C
330
65A
100
AcDbEntity
  8
LC-001-100-D00-0
 62
     2
370
    -2
100
AcDbLine
 10
-101.425649
 20
469.472885
 30
0.0
 11
-101.425649
 21
297.082885
 31
0.0
  0
LINE
  5
65D
330
65A
100
AcDbEntity
  8
LC-001-100-D00-0
 62
     2
370
    -2
100
AcDbLine
 10
-199.425649
 20
306.082885
 30
0.0
 11
-151.425649
 21
306.082885
 31
0.0
  0
SOLID
  5
65E
330
65A
100
AcDbEntity
  8
LC-001-100-D00-0
 62
     2
100
AcDbTrace
 10
-199.425649
 20
314.416219
 30
0.0
 11
-199.425649
 21
297.749552
 31
0.0
 12
-249.425649
 22
306.082885
 32
0.0
 13
-249.425649
 23
306.082885
 33
0.0
  0
SOLID
  5
65F
330
65A
100
AcDbEntity
  8
LC-001-100-D00-0
 62
     2
100
AcDbTrace
 10
-151.425649
 20
297.749552
 30
0.0
 11
-151.425649
 21
314.416219
 31
0.0
 12
-101.425649
 22
306.082885
 32
0.0
 13
-101.425649
 23
306.082885
 33
0.0
  0
MTEXT
  5
660
330
65A
100
AcDbEntity
  8
LC-001-100-D00-0
 62
     2
100
AcDbMText
 10
-187.768626
 20
361.082885
 30
0.0
 40
50.0
 41
0.0
 71
     5
 72
     1
  1
\A1;148
  7
LCTX15-400-0-0pDIN-Schrift
 73
     1
 44
1.0
  0
POINT
  5
661
330
65A
100
AcDbEntity
  8
Defpoints
 62
     0
100
AcDbPoint
 10
-249.425649
 20
429.222885
 30
0.0
  0
POINT
  5
662
330
65A
100
AcDbEntity
  8
Defpoints
 62
     0
100
AcDbPoint
 10
-101.425649
 20
469.472885
 30
0.0
  0
POINT
  5
663
330
65A
100
AcDbEntity
  8
Defpoints
 62
     0
100
AcDbPoint
 10
-101.425649
 20
306.082885
 30
0.0
  0
ENDBLK
  5
665
330
65A
100
AcDbEntity
  8
0
100
AcDbBlockEnd
  0
BLOCK
  5
671
330
667
100
AcDbEntity
  8
0
100
AcDbBlockBegin
  2
*D28
 70
     1
 71
     0
 10
0.0
 20
0.0
 30
0.0
  3
*D28
  1

  0
LINE
  5
668
330
667
100
AcDbEntity
  8
LC-001-100-D00-0
 62
     2
370
    -2
100
AcDbLine
 10
-249.425649
 20
429.222885
 30
0.0
 11
-249.425649
 21
200.854885
 31
0.0
  0
LINE
  5
669
330
667
100
AcDbEntity
  8
LC-001-100-D00-0
 62
     2
370
    -2
100
AcDbLine
 10
34.074148
 20
418.660708
 30
0.0
 11
34.074148
 21
200.854885
 31
0.0
  0
LINE
  5
66A
330
667
100
AcDbEntity
  8
LC-001-100-D00-0
 62
     2
370
    -2
100
AcDbLine
 10
-199.425649
 20
209.854885
 30
0.0
 11
-15.925852
 21
209.854885
 31
0.0
  0
SOLID
  5
66B
330
667
100
AcDbEntity
  8
LC-001-100-D00-0
 62
     2
100
AcDbTrace
 10
-199.425649
 20
218.188219
 30
0.0
 11
-199.425649
 21
201.521552
 31
0.0
 12
-249.425649
 22
209.854885
 32
0.0
 13
-249.425649
 23
209.854885
 33
0.0
  0
SOLID
  5
66C
330
667
100
AcDbEntity
  8
LC-001-100-D00-0
 62
     2
100
AcDbTrace
 10
-15.925852
 20
201.521552
 30
0.0
 11
-15.925852
 21
218.188219
 31
0.0
 12
34.074148
 22
209.854885
 32
0.0
 13
34.074148
 23
209.854885
 33
0.0
  0
MTEXT
  5
66D
330
667
100
AcDbEntity
  8
LC-001-100-D00-0
 62
     2
100
AcDbMText
 10
-113.478488
 20
264.854885
 30
0.0
 40
50.0
 41
0.0
 71
     5
 72
     1
  1
\A1;284
  7
LCTX15-400-0-0pDIN-Schrift
 73
     1
 44
1.0
  0
POINT
  5
66E
330
667
100
AcDbEntity
  8
Defpoints
 62
     0
100
AcDbPoint
 10
-249.425649
 20
429.222885
 30
0.0
  0
POINT
  5
66F
330
667
100
AcDbEntity
  8
Defpoints
 62
     0
100
AcDbPoint
 10
34.074148
 20
418.660708
 30
0.0
  0
POINT
  5
670
330
667
100
AcDbEntity
  8
Defpoints
 62
     0
100
AcDbPoint
 10
34.074148
 20
209.854885
 30
0.0
  0
ENDBLK
  5
672
330
667
100
AcDbEntity
  8
0
100
AcDbBlockEnd
  0
BLOCK
  5
67F
330
674
100
AcDbEntity
  8
0
100
AcDbBlockBegin
  2
*D29
 70
     1
 71
     0
 10
0.0
 20
0.0
 30
0.0
  3
*D29
  1

  0
LINE
  5
675
330
674
100
AcDbEntity
  8
LC-001-100-D00-0
 62
     2
370
    -2
100
AcDbLine
 10
30.574148
 20
467.722885
 30
0.0
 11
133.869039
 21
467.722885
 31
0.0
  0
LINE
  5
676
330
674
100
AcDbEntity
  8
LC-001-100-D00-0
 62
     2
370
    -2
100
AcDbLine
 10
30.574148
 20
417.722885
 30
0.0
 11
133.869039
 21
417.722885
 31
0.0
  0
LINE
  5
677
330
674
100
AcDbEntity
  8
LC-001-100-D00-0
 62
     2
370
    -2
100
AcDbLine
 10
124.869039
 20
517.722885
 30
0.0
 11
124.869039
 21
567.722885
 31
0.0
  0
LINE
  5
678
330
674
100
AcDbEntity
  8
LC-001-100-D00-0
 62
     2
370
    -2
100
AcDbLine
 10
124.869039
 20
367.722885
 30
0.0
 11
124.869039
 21
307.267533
 31
0.0
  0
SOLID
  5
679
330
674
100
AcDbEntity
  8
LC-001-100-D00-0
 62
     2
100
AcDbTrace
 10
116.535705
 20
517.722885
 30
0.0
 11
133.202372
 21
517.722885
 31
0.0
 12
124.869039
 22
467.722885
 32
0.0
 13
124.869039
 23
467.722885
 33
0.0
  0
SOLID
  5
67A
330
674
100
AcDbEntity
  8
LC-001-100-D00-0
 62
     2
100
AcDbTrace
 10
133.202372
 20
367.722885
 30
0.0
 11
116.535705
 21
367.722885
 31
0.0
 12
124.869039
 22
417.722885
 32
0.0
 13
124.869039
 23
417.722885
 33
0.0
  0
MTEXT
  5
67B
330
674
100
AcDbEntity
  8
LC-001-100-D00-0
 62
     2
100
AcDbMText
 10
69.869039
 20
391.618885
 30
0.0
 40
50.0
 41
0.0
 71
     5
 72
     1
  1
\A1;DN50
  7
LCTX15-400-0-0pDIN-Schrift
 11
6.123031769111886E-17
 21
1.0
 31
0.0
 73
     1
 44
1.0
  0
POINT
  5
67C
330
674
100
AcDbEntity
  8
Defpoints
 62
     0
100
AcDbPoint
 10
30.574148
 20
467.722885
 30
0.0
  0
POINT
  5
67D
330
674
100
AcDbEntity
  8
Defpoints
 62
     0
100
AcDbPoint
 10
30.574148
 20
417.722885
 30
0.0
  0
POINT
  5
67E
330
674
100
AcDbEntity
  8
Defpoints
 62
     0
100
AcDbPoint
 10
124.869039
 20
417.722885
 30
0.0
  0
ENDBLK
  5
680
330
674
100
AcDbEntity
  8
0
100
AcDbBlockEnd
  0
BLOCK
  5
68E
330
682
100
AcDbEntity
  8
0
100
AcDbBlockBegin
  2
*D30
 70
     1
 71
     0
 10
0.0
 20
0.0
 30
0.0
  3
*D30
  1

  0
LINE
  5
683
330
682
100
AcDbEntity
  8
LC-001-100-D00-0
 62
     2
370
    -2
100
AcDbLine
 10
474.574351
 20
520.222885
 30
0.0
 11
518.433132
 21
520.222885
 31
0.0
  0
LINE
  5
684
330
682
100
AcDbEntity
  8
LC-001-100-D00-0
 62
     2
370
    -2
100
AcDbLine
 10
42.574148
 20
442.722885
 30
0.0
 11
518.433132
 21
442.722885
 31
0.0
  0
LINE
  5
685
330
682
100
AcDbEntity
  8
LC-001-100-D00-0
 62
     2
370
    -2
100
AcDbLine
 10
509.433132
 20
570.222885
 30
0.0
 11
509.433132
 21
620.222885
 31
0.0
  0
LINE
  5
686
330
682
100
AcDbEntity
  8
LC-001-100-D00-0
 62
     2
370
    -2
100
AcDbLine
 10
509.433132
 20
392.722885
 30
0.0
 11
509.433132
 21
342.722885
 31
0.0
  0
LINE
  5
687
330
682
100
AcDbEntity
  8
LC-001-100-D00-0
 62
     2
370
    -2
100
AcDbLine
 10
509.433132
 20
520.222885
 30
0.0
 11
509.433132
 21
442.722885
 31
0.0
  0
SOLID
  5
688
330
682
100
AcDbEntity
  8
LC-001-100-D00-0
 62
     2
100
AcDbTrace
 10
501.099799
 20
570.222885
 30
0.0
 11
517.766466
 21
570.222885
 31
0.0
 12
509.433132
 22
520.222885
 32
0.0
 13
509.433132
 23
520.222885
 33
0.0
  0
SOLID
  5
689
330
682
100
AcDbEntity
  8
LC-001-100-D00-0
 62
     2
100
AcDbTrace
 10
517.766466
 20
392.722885
 30
0.0
 11
501.099799
 21
392.722885
 31
0.0
 12
509.433132
 22
442.722885
 32
0.0
 13
509.433132
 23
442.722885
 33
0.0
  0
MTEXT
  5
68A
330
682
100
AcDbEntity
  8
LC-001-100-D00-0
 62
     2
100
AcDbMText
 10
454.433132
 20
481.420012
 30
0.0
 40
50.0
 41
0.0
 71
     5
 72
     1
  1
\A1;77,5
  7
LCTX15-400-0-0pDIN-Schrift
 11
6.123031769111886E-17
 21
1.0
 31
0.0
 73
     1
 44
1.0
  0
POINT
  5
68B
330
682
100
AcDbEntity
  8
Defpoints
 62
     0
100
AcDbPoint
 10
474.574351
 20
520.222885
 30
0.0
  0
POINT
  5
68C
330
682
100
AcDbEntity
  8
Defpoints
 62
     0
100
AcDbPoint
 10
42.574148
 20
442.722885
 30
0.0
  0
POINT
  5
68D
330
682
100
AcDbEntity
  8
Defpoints
 62
     0
100
AcDbPoint
 10
509.433132
 20
442.722885
 30
0.0
  0
ENDBLK
  5
68F
330
682
100
AcDbEntity
  8
0
100
AcDbBlockEnd
  0
BLOCK
  5
69C
330
691
100
AcDbEntity
  8
0
100
AcDbBlockBegin
  2
*D31
 70
     1
 71
     0
 10
0.0
 20
0.0
 30
0.0
  3
*D31
  1

  0
LINE
  5
692
330
691
100
AcDbEntity
  8
LC-001-100-D00-0
 62
     2
370
    -2
100
AcDbLine
 10
-825.425649
 20
520.222885
 30
0.0
 11
-680.09009
 21
520.222885
 31
0.0
  0
LINE
  5
693
330
691
100
AcDbEntity
  8
LC-001-100-D00-0
 62
     2
370
    -2
100
AcDbLine
 10
-229.443529
 20
410.222885
 30
0.0
 11
-698.09009
 21
410.222885
 31
0.0
  0
LINE
  5
694
330
691
100
AcDbEntity
  8
LC-001-100-D00-0
 62
     2
370
    -2
100
AcDbLine
 10
-689.09009
 20
570.222885
 30
0.0
 11
-689.09009
 21
620.222885
 31
0.0
  0
LINE
  5
695
330
691
100
AcDbEntity
  8
LC-001-100-D00-0
 62
     2
370
    -2
100
AcDbLine
 10
-689.09009
 20
360.222885
 30
0.0
 11
-689.09009
 21
345.642961
 31
0.0
  0
SOLID
  5
696
330
691
100
AcDbEntity
  8
LC-001-100-D00-0
 62
     2
100
AcDbTrace
 10
-697.423423
 20
570.222885
 30
0.0
 11
-680.756757
 21
570.222885
 31
0.0
 12
-689.09009
 22
520.222885
 32
0.0
 13
-689.09009
 23
520.222885
 33
0.0
  0
SOLID
  5
697
330
691
100
AcDbEntity
  8
LC-001-100-D00-0
 62
     2
100
AcDbTrace
 10
-680.756757
 20
360.222885
 30
0.0
 11
-697.423423
 21
360.222885
 31
0.0
 12
-689.09009
 22
410.222885
 32
0.0
 13
-689.09009
 23
410.222885
 33
0.0
  0
MTEXT
  5
698
330
691
100
AcDbEntity
  8
LC-001-100-D00-0
 62
     2
100
AcDbMText
 10
-744.09009
 20
401.422885
 30
0.0
 40
50.0
 41
0.0
 71
     5
 72
     1
  1
\A1;110
  7
LCTX15-400-0-0pDIN-Schrift
 11
6.123031769111886E-17
 21
1.0
 31
0.0
 73
     1
 44
1.0
  0
POINT
  5
699
330
691
100
AcDbEntity
  8
Defpoints
 62
     0
100
AcDbPoint
 10
-825.425649
 20
520.222885
 30
0.0
  0
POINT
  5
69A
330
691
100
AcDbEntity
  8
Defpoints
 62
     0
100
AcDbPoint
 10
-229.443529
 20
410.222885
 30
0.0
  0
POINT
  5
69B
330
691
100
AcDbEntity
  8
Defpoints
 62
     0
100
AcDbPoint
 10
-689.09009
 20
410.222885
 30
0.0
  0
ENDBLK
  5
69D
330
691
100
AcDbEntity
  8
0
100
AcDbBlockEnd
  0
BLOCK
  5
6AA
330
69F
100
AcDbEntity
  8
0
100
AcDbBlockBegin
  2
*D32
 70
     1
 71
     0
 10
0.0
 20
0.0
 30
0.0
  3
*D32
  1

  0
LINE
  5
6A0
330
69F
100
AcDbEntity
  8
LC-001-100-D00-0
 62
     2
370
    -2
100
AcDbLine
 10
474.574351
 20
520.222885
 30
0.0
 11
677.630703
 21
520.222885
 31
0.0
  0
LINE
  5
6A1
330
69F
100
AcDbEntity
  8
LC-001-100-D00-0
 62
     2
370
    -2
100
AcDbLine
 10
184.074351
 20
385.722885
 30
0.0
 11
677.630703
 21
385.722885
 31
0.0
  0
LINE
  5
6A2
330
69F
100
AcDbEntity
  8
LC-001-100-D00-0
 62
     2
370
    -2
100
AcDbLine
 10
668.630703
 20
470.222885
 30
0.0
 11
668.630703
 21
435.722885
 31
0.0
  0
LINE
  5
6A3
330
69F
100
AcDbEntity
  8
LC-001-100-D00-0
 62
     2
370
    -2
100
AcDbLine
 10
668.630703
 20
385.722885
 30
0.0
 11
668.630703
 21
78.918203
 31
0.0
  0
SOLID
  5
6A4
330
69F
100
AcDbEntity
  8
LC-001-100-D00-0
 62
     2
100
AcDbTrace
 10
676.964037
 20
470.222885
 30
0.0
 11
660.29737
 21
470.222885
 31
0.0
 12
668.630703
 22
520.222885
 32
0.0
 13
668.630703
 23
520.222885
 33
0.0
  0
SOLID
  5
6A5
330
69F
100
AcDbEntity
  8
LC-001-100-D00-0
 62
     2
100
AcDbTrace
 10
660.29737
 20
435.722885
 30
0.0
 11
676.964037
 21
435.722885
 31
0.0
 12
668.630703
 22
385.722885
 32
0.0
 13
668.630703
 23
385.722885
 33
0.0
  0
MTEXT
  5
6A6
330
69F
100
AcDbEntity
  8
LC-001-100-D00-0
 62
     2
100
AcDbMText
 10
613.630703
 20
245.497885
 30
0.0
 40
50.0
 41
0.0
 71
     5
 72
     1
  1
\A1;110-129,5
  7
LCTX15-400-0-0pDIN-Schrift
 11
6.123031769111886E-17
 21
1.0
 31
0.0
 73
     1
 44
1.0
  0
POINT
  5
6A7
330
69F
100
AcDbEntity
  8
Defpoints
 62
     0
100
AcDbPoint
 10
474.574351
 20
520.222885
 30
0.0
  0
POINT
  5
6A8
330
69F
100
AcDbEntity
  8
Defpoints
 62
     0
100
AcDbPoint
 10
184.074351
 20
385.722885
 30
0.0
  0
POINT
  5
6A9
330
69F
100
AcDbEntity
  8
Defpoints
 62
     0
100
AcDbPoint
 10
668.630703
 20
385.722885
 30
0.0
  0
ENDBLK
  5
6AB
330
69F
100
AcDbEntity
  8
0
100
AcDbBlockEnd
  0
BLOCK
  5
6AD
330
6AC
100
AcDbEntity
  8
0
100
AcDbBlockBegin
  2
KLON23
 70
     0
 71
     0
 10
0.0
 20
0.0
 30
0.0
  3
KLON23
  1

  4
KLON23
  0
LINE
  5
6AF
330
6AC
100
AcDbEntity
  8
LC-001-100-D00-0
 62
     7
370
    50
100
AcDbLine
 10
459.866338
 20
518.722885
 30
0.0
 11
461.366338
 21
520.222885
 31
0.0
  0
LINE
  5
6B0
330
6AC
100
AcDbEntity
  8
LC-001-100-D00-0
 62
     7
370
    50
100
AcDbLine
 10
412.425572
 20
498.222885
 30
0.0
 11
413.925572
 21
499.722885
 31
0.0
  0
LINE
  5
6B1
330
6AC
100
AcDbEntity
  8
LC-001-100-D00-0
 62
     7
370
    50
100
AcDbLine
 10
424.574351
 20
510.371665
 30
0.0
 11
426.074351
 21
511.871665
 31
0.0
  0
LINE
  5
6B2
330
6AC
100
AcDbEntity
  8
LC-001-100-D00-0
 62
     7
370
    50
100
AcDbLine
 10
432.925571
 20
518.722885
 30
0.0
 11
434.425571
 21
520.222885
 31
0.0
  0
LINE
  5
6B3
330
6AC
100
AcDbEntity
  8
LC-001-100-D00-0
 62
     7
370
    50
100
AcDbLine
 10
385.484805
 20
498.222885
 30
0.0
 11
386.984805
 21
499.722885
 31
0.0
  0
LINE
  5
6B4
330
6AC
100
AcDbEntity
  8
LC-001-100-D00-0
 62
     7
370
    50
100
AcDbLine
 10
390.994847
 20
503.732927
 30
0.0
 11
398.574351
 21
511.312433
 31
0.0
  0
LINE
  5
6B5
330
6AC
100
AcDbEntity
  8
LC-001-100-D00-0
 62
     7
370
    50
100
AcDbLine
 10
358.544038
 20
498.222885
 30
0.0
 11
360.044037
 21
499.722885
 31
0.0
  0
LINE
  5
6B6
330
6AC
100
AcDbEntity
  8
LC-001-100-D00-0
 62
     7
370
    50
100
AcDbLine
 10
331.60327
 20
498.222885
 30
0.0
 11
333.10327
 21
499.722885
 31
0.0
  0
LINE
  5
6B7
330
6AC
100
AcDbEntity
  8
LC-001-100-D00-0
 62
     7
370
    50
100
AcDbLine
 10
304.662503
 20
498.222885
 30
0.0
 11
306.162503
 21
499.722885
 31
0.0
  0
LINE
  5
6B8
330
6AC
100
AcDbEntity
  8
LC-001-100-D00-0
 62
     7
370
    50
100
AcDbLine
 10
277.721735
 20
498.222885
 30
0.0
 11
279.221735
 21
499.722885
 31
0.0
  0
LINE
  5
6B9
330
6AC
100
AcDbEntity
  8
LC-001-100-D00-0
 62
     7
370
    50
100
AcDbLine
 10
250.780968
 20
498.222885
 30
0.0
 11
252.280968
 21
499.722885
 31
0.0
  0
LINE
  5
6BA
330
6AC
100
AcDbEntity
  8
LC-001-100-D00-0
 62
     7
370
    50
100
AcDbLine
 10
223.840201
 20
498.222885
 30
0.0
 11
225.340201
 21
499.722885
 31
0.0
  0
LINE
  5
6BB
330
6AC
100
AcDbEntity
  8
LC-001-100-D00-0
 62
     7
370
    50
100
AcDbLine
 10
233.907685
 20
508.29037
 30
0.0
 11
241.907685
 21
516.290371
 31
0.0
  0
LINE
  5
6BC
330
6AC
100
AcDbEntity
  8
LC-001-100-D00-0
 62
     7
370
    50
100
AcDbLine
 10
196.899433
 20
498.222885
 30
0.0
 11
198.399433
 21
499.722885
 31
0.0
  0
LINE
  5
6BD
330
6AC
100
AcDbEntity
  8
LC-001-100-D00-0
 62
     7
370
    50
100
AcDbLine
 10
169.958666
 20
498.222885
 30
0.0
 11
171.458666
 21
499.722885
 31
0.0
  0
LINE
  5
6BE
330
6AC
100
AcDbEntity
  8
LC-001-100-D00-0
 62
     7
370
    50
100
AcDbLine
 10
143.017898
 20
498.222885
 30
0.0
 11
144.517898
 21
499.722885
 31
0.0
  0
LINE
  5
6BF
330
6AC
100
AcDbEntity
  8
LC-001-100-D00-0
 62
     7
370
    50
100
AcDbLine
 10
116.077131
 20
498.222885
 30
0.0
 11
117.577131
 21
499.722885
 31
0.0
  0
LINE
  5
6C0
330
6AC
100
AcDbEntity
  8
LC-001-100-D00-0
 62
     7
370
    50
100
AcDbLine
 10
89.136364
 20
498.222885
 30
0.0
 11
90.636364
 21
499.722885
 31
0.0
  0
LINE
  5
6C1
330
6AC
100
AcDbEntity
  8
LC-001-100-D00-0
 62
     7
370
    50
100
AcDbLine
 10
62.195596
 20
498.222885
 30
0.0
 11
63.695596
 21
499.722885
 31
0.0
  0
LINE
  5
6C2
330
6AC
100
AcDbEntity
  8
LC-001-100-D00-0
 62
     7
370
    50
100
AcDbLine
 10
77.241018
 20
513.268308
 30
0.0
 11
83.695595
 21
519.722885
 31
0.0
  0
LINE
  5
6C3
330
6AC
100
AcDbEntity
  8
LC-001-100-D00-0
 62
     7
370
    50
100
AcDbLine
 10
35.254829
 20
498.222885
 30
0.0
 11
36.754829
 21
499.722885
 31
0.0
  0
LINE
  5
6C4
330
6AC
100
AcDbEntity
  8
LC-001-100-D00-0
 62
     7
370
    50
100
AcDbLine
 10
8.314062
 20
498.222885
 30
0.0
 11
9.814061
 21
499.722885
 31
0.0
  0
LINE
  5
6C5
330
6AC
100
AcDbEntity
  8
LC-001-100-D00-0
 62
     7
370
    50
100
AcDbLine
 10
-18.626706
 20
498.222885
 30
0.0
 11
-17.126706
 21
499.722885
 31
0.0
  0
LINE
  5
6C6
330
6AC
100
AcDbEntity
  8
LC-001-100-D00-0
 62
     7
370
    50
100
AcDbLine
 10
-45.567473
 20
498.222885
 30
0.0
 11
-44.067473
 21
499.722885
 31
0.0
  0
LINE
  5
6C7
330
6AC
100
AcDbEntity
  8
LC-001-100-D00-0
 62
     7
370
    50
100
AcDbLine
 10
-72.508241
 20
498.222885
 30
0.0
 11
-70.925649
 21
499.805477
 31
0.0
  0
LINE
  5
6C8
330
6AC
100
AcDbEntity
  8
LC-001-100-D00-0
 62
     7
370
    50
100
AcDbLine
 10
-104.449008
 20
493.222885
 30
0.0
 11
-102.949008
 21
494.722885
 31
0.0
  0
LINE
  5
6C9
330
6AC
100
AcDbEntity
  8
LC-001-100-D00-0
 62
     7
370
    50
100
AcDbLine
 10
-79.425649
 20
518.246246
 30
0.0
 11
-77.949009
 21
519.722885
 31
0.0
  0
ENDBLK
  5
6AE
330
6AC
100
AcDbEntity
  8
0
100
AcDbBlockEnd
  0
BLOCK
  5
6CC
330
6CB
100
AcDbEntity
  8
0
100
AcDbBlockBegin
  2
KLON24
 70
     0
 71
     0
 10
0.0
 20
0.0
 30
0.0
  3
KLON24
  1

  4
KLON24
  0
LINE
  5
6CE
330
6CB
100
AcDbEntity
  8
LC-001-100-D00-0
 62
     7
370
    50
100
AcDbLine
 10
-239.152844
 20
493.222885
 30
0.0
 11
-237.652845
 21
494.722885
 31
0.0
  0
LINE
  5
6CF
330
6CB
100
AcDbEntity
  8
LC-001-100-D00-0
 62
     7
370
    50
100
AcDbLine
 10
-262.782582
 20
496.533916
 30
0.0
 11
-261.557837
 21
497.75866
 31
0.0
  0
LINE
  5
6D0
330
6CB
100
AcDbEntity
  8
LC-001-100-D00-0
 62
     7
370
    50
100
AcDbLine
 10
-288.03438
 20
498.222885
 30
0.0
 11
-286.53438
 21
499.722885
 31
0.0
  0
LINE
  5
6D1
330
6CB
100
AcDbEntity
  8
LC-001-100-D00-0
 62
     7
370
    50
100
AcDbLine
 10
-279.425649
 20
506.831617
 30
0.0
 11
-271.425649
 21
514.831617
 31
0.0
  0
LINE
  5
6D2
330
6CB
100
AcDbEntity
  8
LC-001-100-D00-0
 62
     7
370
    50
100
AcDbLine
 10
-314.975147
 20
498.222885
 30
0.0
 11
-313.475147
 21
499.722885
 31
0.0
  0
LINE
  5
6D3
330
6CB
100
AcDbEntity
  8
LC-001-100-D00-0
 62
     7
370
    50
100
AcDbLine
 10
-341.915914
 20
498.222885
 30
0.0
 11
-340.415914
 21
499.722885
 31
0.0
  0
LINE
  5
6D4
330
6CB
100
AcDbEntity
  8
LC-001-100-D00-0
 62
     7
370
    50
100
AcDbLine
 10
-368.856682
 20
498.222885
 30
0.0
 11
-367.356682
 21
499.722885
 31
0.0
  0
LINE
  5
6D5
330
6CB
100
AcDbEntity
  8
LC-001-100-D00-0
 62
     7
370
    50
100
AcDbLine
 10
-395.797449
 20
498.222885
 30
0.0
 11
-394.297449
 21
499.722885
 31
0.0
  0
LINE
  5
6D6
330
6CB
100
AcDbEntity
  8
LC-001-100-D00-0
 62
     7
370
    50
100
AcDbLine
 10
-422.738216
 20
498.222885
 30
0.0
 11
-421.238217
 21
499.722885
 31
0.0
  0
LINE
  5
6D7
330
6CB
100
AcDbEntity
  8
LC-001-100-D00-0
 62
     7
370
    50
100
AcDbLine
 10
-449.678984
 20
498.222885
 30
0.0
 11
-448.178984
 21
499.722885
 31
0.0
  0
LINE
  5
6D8
330
6CB
100
AcDbEntity
  8
LC-001-100-D00-0
 62
     7
370
    50
100
AcDbLine
 10
-436.092315
 20
511.809555
 30
0.0
 11
-428.63565
 21
519.26622
 31
0.0
  0
LINE
  5
6D9
330
6CB
100
AcDbEntity
  8
LC-001-100-D00-0
 62
     7
370
    50
100
AcDbLine
 10
-476.619751
 20
498.222885
 30
0.0
 11
-475.119751
 21
499.722885
 31
0.0
  0
LINE
  5
6DA
330
6CB
100
AcDbEntity
  8
LC-001-100-D00-0
 62
     7
370
    50
100
AcDbLine
 10
-503.560519
 20
498.222885
 30
0.0
 11
-502.060519
 21
499.722885
 31
0.0
  0
LINE
  5
6DB
330
6CB
100
AcDbEntity
  8
LC-001-100-D00-0
 62
     7
370
    50
100
AcDbLine
 10
-530.501286
 20
498.222885
 30
0.0
 11
-529.001286
 21
499.722885
 31
0.0
  0
LINE
  5
6DC
330
6CB
100
AcDbEntity
  8
LC-001-100-D00-0
 62
     7
370
    50
100
AcDbLine
 10
-557.442053
 20
498.222885
 30
0.0
 11
-555.942053
 21
499.722885
 31
0.0
  0
LINE
  5
6DD
330
6CB
100
AcDbEntity
  8
LC-001-100-D00-0
 62
     7
370
    50
100
AcDbLine
 10
-584.382821
 20
498.222885
 30
0.0
 11
-582.882821
 21
499.722885
 31
0.0
  0
LINE
  5
6DE
330
6CB
100
AcDbEntity
  8
LC-001-100-D00-0
 62
     7
370
    50
100
AcDbLine
 10
-611.323588
 20
498.222885
 30
0.0
 11
-609.823588
 21
499.722885
 31
0.0
  0
LINE
  5
6DF
330
6CB
100
AcDbEntity
  8
LC-001-100-D00-0
 62
     7
370
    50
100
AcDbLine
 10
-592.758982
 20
516.787493
 30
0.0
 11
-589.82359
 21
519.722885
 31
0.0
  0
LINE
  5
6E0
330
6CB
100
AcDbEntity
  8
LC-001-100-D00-0
 62
     7
370
    50
100
AcDbLine
 10
-638.264355
 20
498.222885
 30
0.0
 11
-636.764356
 21
499.722885
 31
0.0
  0
LINE
  5
6E1
330
6CB
100
AcDbEntity
  8
LC-001-100-D00-0
 62
     7
370
    50
100
AcDbLine
 10
-665.205123
 20
498.222885
 30
0.0
 11
-663.705123
 21
499.722885
 31
0.0
  0
LINE
  5
6E2
330
6CB
100
AcDbEntity
  8
LC-001-100-D00-0
 62
     7
370
    50
100
AcDbLine
 10
-692.14589
 20
498.222885
 30
0.0
 11
-690.64589
 21
499.722885
 31
0.0
  0
LINE
  5
6E3
330
6CB
100
AcDbEntity
  8
LC-001-100-D00-0
 62
     7
370
    50
100
AcDbLine
 10
-719.086658
 20
498.222885
 30
0.0
 11
-717.586658
 21
499.722885
 31
0.0
  0
LINE
  5
6E4
330
6CB
100
AcDbEntity
  8
LC-001-100-D00-0
 62
     7
370
    50
100
AcDbLine
 10
-746.027425
 20
498.222885
 30
0.0
 11
-742.150785
 21
502.099526
 31
0.0
  0
LINE
  5
6E5
330
6CB
100
AcDbEntity
  8
LC-001-100-D00-0
 62
     7
370
    50
100
AcDbLine
 10
-771.866394
 20
499.324684
 30
0.0
 11
-770.746414
 21
500.444663
 31
0.0
  0
LINE
  5
6E6
330
6CB
100
AcDbEntity
  8
LC-001-100-D00-0
 62
     7
370
    50
100
AcDbLine
 10
-779.408961
 20
518.722885
 30
0.0
 11
-777.947337
 21
520.18451
 31
0.0
  0
LINE
  5
6E7
330
6CB
100
AcDbEntity
  8
LC-001-100-D00-0
 62
     7
370
    50
100
AcDbLine
 10
-806.349729
 20
518.722885
 30
0.0
 11
-804.849729
 21
520.222885
 31
0.0
  0
ENDBLK
  5
6CD
330
6CB
100
AcDbEntity
  8
0
100
AcDbBlockEnd
  0
BLOCK
  5
6EA
330
6E9
100
AcDbEntity
  8
0
100
AcDbBlockBegin
  2
KLON25
 70
     0
 71
     0
 10
0.0
 20
0.0
 30
0.0
  3
KLON25
  1

  4
KLON25
  0
LINE
  5
6EC
330
6E9
100
AcDbEntity
  8
LC-001-100-D00-0
 62
     7
370
    50
100
AcDbLine
 10
-158.008234
 20
412.722885
 30
0.0
 11
-156.508234
 21
414.222885
 31
0.0
  0
LINE
  5
6ED
330
6E9
100
AcDbEntity
  8
LC-001-100-D00-0
 62
     7
370
    50
100
AcDbLine
 10
-135.925649
 20
434.805473
 30
0.0
 11
-134.425649
 21
436.305473
 31
0.0
  0
LINE
  5
6EE
330
6E9
100
AcDbEntity
  8
LC-001-100-D00-0
 62
     7
370
    50
100
AcDbLine
 10
-184.949002
 20
412.722885
 30
0.0
 11
-183.449002
 21
414.222885
 31
0.0
  0
LINE
  5
6EF
330
6E9
100
AcDbEntity
  8
LC-001-100-D00-0
 62
     7
370
    50
100
AcDbLine
 10
-135.925649
 20
461.746242
 30
0.0
 11
-134.425649
 21
463.246242
 31
0.0
  0
LINE
  5
6F0
330
6E9
100
AcDbEntity
  8
LC-001-100-D00-0
 62
     7
370
    50
100
AcDbLine
 10
-211.869986
 20
412.742668
 30
0.0
 11
-210.389769
 21
414.222885
 31
0.0
  0
LINE
  5
6F1
330
6E9
100
AcDbEntity
  8
LC-001-100-D00-0
 62
     7
370
    50
100
AcDbLine
 10
-216.425649
 20
435.127775
 30
0.0
 11
-214.925649
 21
436.627775
 31
0.0
  0
LINE
  5
6F2
330
6E9
100
AcDbEntity
  8
LC-001-100-D00-0
 62
     7
370
    50
100
AcDbLine
 10
-216.425649
 20
462.068544
 30
0.0
 11
-214.925649
 21
463.568544
 31
0.0
  0
LINE
  5
6F3
330
6E9
100
AcDbEntity
  8
LC-001-100-D00-0
 62
     7
370
    50
100
AcDbLine
 10
-222.353421
 20
483.081541
 30
0.0
 11
-220.922848
 21
484.512114
 31
0.0
  0
ENDBLK
  5
6EB
330
6E9
100
AcDbEntity
  8
0
100
AcDbBlockEnd
  0
BLOCK
  5
6F6
330
6F5
100
AcDbEntity
  8
0
100
AcDbBlockBegin
  2
KLON26
 70
     0
 71
     0
 10
0.0
 20
0.0
 30
0.0
  3
KLON26
  1

  4
KLON26
  0
LINE
  5
6F8
330
6F5
100
AcDbEntity
  8
LC-001-100-D00-0
 62
     7
370
    50
100
AcDbLine
 10
2.504831
 20
465.472885
 30
0.0
 11
4.754831
 21
467.722885
 31
0.0
  0
LINE
  5
6F9
330
6F5
100
AcDbEntity
  8
LC-001-100-D00-0
 62
     7
370
    50
100
AcDbLine
 10
29.445599
 20
465.472885
 30
0.0
 11
31.458609
 21
467.485895
 31
0.0
  0
LINE
  5
6FA
330
6F5
100
AcDbEntity
  8
LC-001-100-D00-0
 62
     7
370
    50
100
AcDbLine
 10
-71.579633
 20
472.210746
 30
0.0
 11
-69.227709
 21
474.56267
 31
0.0
  0
ENDBLK
  5
6F7
330
6F5
100
AcDbEntity
  8
0
100
AcDbBlockEnd
  0
BLOCK
  5
6FD
330
6FC
100
AcDbEntity
  8
0
100
AcDbBlockBegin
  2
KLON27
 70
     0
 71
     0
 10
0.0
 20
0.0
 30
0.0
  3
KLON27
  1

  4
KLON27
  0
LINE
  5
6FF
330
6FC
100
AcDbEntity
  8
LC-001-100-D00-0
 62
     7
370
    50
100
AcDbLine
 10
-45.245165
 20
417.722885
 30
0.0
 11
-42.995165
 21
419.972885
 31
0.0
  0
LINE
  5
700
330
6FC
100
AcDbEntity
  8
LC-001-100-D00-0
 62
     7
370
    50
100
AcDbLine
 10
-18.304397
 20
417.722885
 30
0.0
 11
-16.054397
 21
419.972885
 31
0.0
  0
LINE
  5
701
330
6FC
100
AcDbEntity
  8
LC-001-100-D00-0
 62
     7
370
    50
100
AcDbLine
 10
8.636371
 20
417.722885
 30
0.0
 11
10.886371
 21
419.972885
 31
0.0
  0
ENDBLK
  5
6FE
330
6FC
100
AcDbEntity
  8
0
100
AcDbBlockEnd
  0
BLOCK
  5
704
330
703
100
AcDbEntity
  8
0
100
AcDbBlockBegin
  2
KLON28
 70
     0
 71
     0
 10
0.0
 20
0.0
 30
0.0
  3
KLON28
  1

  4
KLON28
  0
LINE
  5
706
330
703
100
AcDbEntity
  8
LC-001-100-D00-0
 62
     7
370
    50
100
AcDbLine
 10
-147.925649
 20
449.746241
 30
0.0
 11
-146.425649
 21
451.246241
 31
0.0
  0
LINE
  5
707
330
703
100
AcDbEntity
  8
LC-001-100-D00-0
 62
     7
370
    50
100
AcDbLine
 10
-147.925649
 20
476.68701
 30
0.0
 11
-146.425649
 21
478.187011
 31
0.0
  0
LINE
  5
708
330
703
100
AcDbEntity
  8
LC-001-100-D00-0
 62
     7
370
    50
100
AcDbLine
 10
-136.389775
 20
488.222885
 30
0.0
 11
-130.389775
 21
494.222885
 31
0.0
  0
ENDBLK
  5
705
330
703
100
AcDbEntity
  8
0
100
AcDbBlockEnd
  0
BLOCK
  5
70B
330
70A
100
AcDbEntity
  8
0
100
AcDbBlockBegin
  2
KLON29
 70
     0
 71
     0
 10
0.0
 20
0.0
 30
0.0
  3
KLON29
  1

  4
KLON29
  0
LINE
  5
70D
330
70A
100
AcDbEntity
  8
LC-001-100-D00-0
 62
     7
370
    50
100
AcDbLine
 10
-204.425649
 20
447.127776
 30
0.0
 11
-202.925649
 21
448.627776
 31
0.0
  0
LINE
  5
70E
330
70A
100
AcDbEntity
  8
LC-001-100-D00-0
 62
     7
370
    50
100
AcDbLine
 10
-204.425649
 20
474.068545
 30
0.0
 11
-202.925649
 21
475.568545
 31
0.0
  0
LINE
  5
70F
330
70A
100
AcDbEntity
  8
LC-001-100-D00-0
 62
     7
370
    50
100
AcDbLine
 10
-217.212077
 20
488.222885
 30
0.0
 11
-211.212077
 21
494.222885
 31
0.0
  0
ENDBLK
  5
70C
330
70A
100
AcDbEntity
  8
0
100
AcDbBlockEnd
  0
BLOCK
  5
714
330
713
100
AcDbEntity
  8
0
100
AcDbBlockBegin
  2
KLON30
 70
     0
 71
     0
 10
0.0
 20
0.0
 30
0.0
  3
KLON30
  1

  4
KLON30
  0
LINE
  5
716
330
713
100
AcDbEntity
  8
LC-001-100-D00-0
 62
     7
370
    50
100
AcDbLine
 10
-249.425649
 20
482.95008
 30
0.0
 11
-246.425649
 21
485.950081
 31
0.0
  0
LINE
  5
717
330
713
100
AcDbEntity
  8
LC-001-100-D00-0
 62
     7
370
    50
100
AcDbLine
 10
-243.425649
 20
488.950081
 30
0.0
 11
-240.425649
 21
491.950081
 31
0.0
  0
ENDBLK
  5
715
330
713
100
AcDbEntity
  8
0
100
AcDbBlockEnd
  0
BLOCK
  5
71A
330
719
100
AcDbEntity
  8
0
100
AcDbBlockBegin
  2
KLON31
 70
     0
 71
     0
 10
0.0
 20
0.0
 30
0.0
  3
KLON31
  1

  4
KLON31
  0
LINE
  5
71C
330
719
100
AcDbEntity
  8
LC-001-100-D00-0
 62
     7
370
    50
100
AcDbLine
 10
-76.560051
 20
413.348767
 30
0.0
 11
-70.185933
 21
419.722885
 31
0.0
  0
LINE
  5
71D
330
719
100
AcDbEntity
  8
LC-001-100-D00-0
 62
     7
370
    50
100
AcDbLine
 10
-100.1267
 20
416.722885
 30
0.0
 11
-97.1267
 21
419.722885
 31
0.0
  0
LINE
  5
71E
330
719
100
AcDbEntity
  8
LC-001-100-D00-0
 62
     7
370
    50
100
AcDbLine
 10
-133.567467
 20
410.222885
 30
0.0
 11
-130.567467
 21
413.222885
 31
0.0
  0
LINE
  5
71F
330
719
100
AcDbEntity
  8
LC-001-100-D00-0
 62
     7
370
    50
100
AcDbLine
 10
-160.508234
 20
410.222885
 30
0.0
 11
-157.508234
 21
413.222885
 31
0.0
  0
LINE
  5
720
330
719
100
AcDbEntity
  8
LC-001-100-D00-0
 62
     7
370
    50
100
AcDbLine
 10
-187.449001
 20
410.222885
 30
0.0
 11
-184.449002
 21
413.222885
 31
0.0
  0
LINE
  5
721
330
719
100
AcDbEntity
  8
LC-001-100-D00-0
 62
     7
370
    50
100
AcDbLine
 10
-214.389769
 20
410.222885
 30
0.0
 11
-211.389769
 21
413.222885
 31
0.0
  0
LINE
  5
722
330
719
100
AcDbEntity
  8
LC-001-100-D00-0
 62
     7
370
    50
100
AcDbLine
 10
-236.191599
 20
415.361823
 30
0.0
 11
-233.425649
 21
418.127773
 31
0.0
  0
LINE
  5
723
330
719
100
AcDbEntity
  8
LC-001-100-D00-0
 62
     7
370
    50
100
AcDbLine
 10
-249.424707
 20
429.069483
 30
0.0
 11
-246.425649
 21
432.068542
 31
0.0
  0
LINE
  5
724
330
719
100
AcDbEntity
  8
LC-001-100-D00-0
 62
     7
370
    50
100
AcDbLine
 10
-249.425649
 20
456.009311
 30
0.0
 11
-246.425649
 21
459.009311
 31
0.0
  0
ENDBLK
  5
71B
330
719
100
AcDbEntity
  8
0
100
AcDbBlockEnd
  0
BLOCK
  5
727
330
726
100
AcDbEntity
  8
0
100
AcDbBlockBegin
  2
KLON32
 70
     0
 71
     0
 10
0.0
 20
0.0
 30
0.0
  3
KLON32
  1

  4
KLON32
  0
LINE
  5
729
330
726
100
AcDbEntity
  8
LC-001-100-D00-0
 62
     7
370
    50
100
AcDbLine
 10
-78.067471
 20
465.722885
 30
0.0
 11
-71.437797
 21
472.35256
 31
0.0
  0
LINE
  5
72A
330
726
100
AcDbEntity
  8
LC-001-100-D00-0
 62
     7
370
    50
100
AcDbLine
 10
-104.425649
 20
466.305475
 30
0.0
 11
-101.425649
 21
469.305475
 31
0.0
  0
ENDBLK
  5
728
330
726
100
AcDbEntity
  8
0
100
AcDbBlockEnd
  0
BLOCK
  5
72F
330
72E
100
AcDbEntity
  8
0
100
AcDbBlockBegin
  2
KLON33
 70
     0
 71
     0
 10
0.0
 20
0.0
 30
0.0
  3
KLON33
  1

  4
KLON33
  0
LINE
  5
731
330
72E
100
AcDbEntity
  8
LC-001-100-D00-0
 62
     7
370
    50
100
AcDbLine
 10
-69.074796
 20
501.65633
 30
0.0
 11
-65.675649
 21
505.055478
 31
0.0
  0
LINE
  5
732
330
72E
100
AcDbEntity
  8
LC-001-100-D00-0
 62
     7
370
    50
100
AcDbLine
 10
-57.508242
 20
513.222885
 30
0.0
 11
-57.175649
 21
513.555478
 31
0.0
  0
ENDBLK
  5
730
330
72E
100
AcDbEntity
  8
0
100
AcDbBlockEnd
  0
BLOCK
  5
73B
330
73A
100
AcDbEntity
  8
0
100
AcDbBlockBegin
  2
KLON34
 70
     0
 71
     0
 10
0.0
 20
0.0
 30
0.0
  3
KLON34
  1

  4
KLON34
  0
LINE
  5
73D
330
73A
100
AcDbEntity
  8
LC-001-100-D00-0
 62
     7
370
    50
100
AcDbLine
 10
-740.225649
 20
504.024662
 30
0.0
 11
-735.675649
 21
508.574662
 31
0.0
  0
LINE
  5
73E
330
73A
100
AcDbEntity
  8
LC-001-100-D00-0
 62
     7
370
    50
100
AcDbLine
 10
-730.175649
 20
514.074663
 30
0.0
 11
-727.175649
 21
517.074663
 31
0.0
  0
ENDBLK
  5
73C
330
73A
100
AcDbEntity
  8
0
100
AcDbBlockEnd
  0
BLOCK
  5
747
330
746
100
AcDbEntity
  8
0
100
AcDbBlockBegin
  2
KLON35
 70
     0
 71
     0
 10
0.0
 20
0.0
 30
0.0
  3
KLON35
  1

  4
KLON35
  0
LINE
  5
749
330
746
100
AcDbEntity
  8
LC-001-100-D00-0
 62
     7
370
    50
100
AcDbLine
 10
-284.808584
 20
501.448681
 30
0.0
 11
-280.625649
 21
505.631617
 31
0.0
  0
LINE
  5
74A
330
746
100
AcDbEntity
  8
LC-001-100-D00-0
 62
     7
370
    50
100
AcDbLine
 10
-293.60437
 20
519.593664
 30
0.0
 11
-293.046427
 21
520.151607
 31
0.0
  0
ENDBLK
  5
748
330
746
100
AcDbEntity
  8
0
100
AcDbBlockEnd
  0
ENDSEC
  0
SECTION
  2
ENTITIES
  0
ARC
  5
31
330
1F
100
AcDbEntity
  8
LC-001-100-D00-0
 62
     7
370
    50
100
AcDbCircle
 10
422.074375
 20
27.000128
 30
0.0
 40
2.499999999999915
100
AcDbArc
 50
270.0
 51
0.0
  0
LINE
  5
32
330
1F
100
AcDbEntity
  8
LC-001-100-D00-0
 62
     7
370
    50
100
AcDbLine
 10
424.574375
 20
27.000128
 30
0.0
 11
424.574375
 21
74.000128
 31
0.0
  0
ARC
  5
33
330
1F
100
AcDbEntity
  8
LC-001-100-D00-0
 62
     7
370
    50
100
AcDbCircle
 10
422.074375
 20
74.000128
 30
0.0
 40
2.499999999999886
100
AcDbArc
 50
0.0
 51
90.0
  0
LINE
  5
34
330
1F
100
AcDbEntity
  8
LC-001-100-D00-0
 62
     7
370
    50
100
AcDbLine
 10
-772.925625
 20
76.500128
 30
0.0
 11
422.074375
 21
76.500128
 31
0.0
  0
LINE
  5
35
330
1F
100
AcDbEntity
  8
LC-001-100-D00-0
 62
     7
370
    50
100
AcDbLine
 10
422.074375
 20
24.500128
 30
0.0
 11
-772.925625
 21
24.500128
 31
0.0
  0
ARC
  5
36
330
1F
100
AcDbEntity
  8
LC-001-100-D00-0
 62
     7
370
    50
100
AcDbCircle
 10
-772.925625
 20
74.000128
 30
0.0
 40
2.500000000000028
100
AcDbArc
 50
90.0
 51
180.0
  0
ARC
  5
37
330
1F
100
AcDbEntity
  8
LC-001-100-D00-0
 62
     7
370
    50
100
AcDbCircle
 10
-772.925625
 20
27.000128
 30
0.0
 40
2.5
100
AcDbArc
 50
180.0
 51
270.0
  0
LINE
  5
38
330
1F
100
AcDbEntity
  8
LC-001-100-D00-0
 62
     7
370
    50
100
AcDbLine
 10
-775.425625
 20
27.000128
 30
0.0
 11
-775.425625
 21
74.000128
 31
0.0
  0
ARC
  5
39
330
1F
100
AcDbEntity
  8
LC-001-100-D00-0
 62
     7
370
    50
100
AcDbCircle
 10
-820.425625
 20
123.000128
 30
0.0
 40
4.99999999999983
100
AcDbArc
 50
90.0
 51
180.0
  0
LINE
  5
3A
330
1F
100
AcDbEntity
  8
LC-001-100-D00-0
 62
     7
370
    50
100
AcDbLine
 10
469.574375
 20
128.000128
 30
0.0
 11
-820.425625
 21
128.000128
 31
0.0
  0
LINE
  5
3B
330
1F
100
AcDbEntity
  8
LC-001-100-D00-0
 62
     7
370
    50
100
AcDbLine
 10
474.574375
 20
123.000128
 30
0.0
 11
474.574375
 21
-21.999872
 31
0.0
  0
LINE
  5
3C
330
1F
100
AcDbEntity
  8
LC-001-100-D00-0
 62
     7
370
    50
100
AcDbLine
 10
-820.425625
 20
-26.999872
 30
0.0
 11
469.574375
 21
-26.999872
 31
0.0
  0
ARC
  5
3D
330
1F
100
AcDbEntity
  8
LC-001-100-D00-0
 62
     7
370
    50
100
AcDbCircle
 10
-820.425625
 20
-21.999872
 30
0.0
 40
4.999999999999886
100
AcDbArc
 50
180.0
 51
270.0
  0
LINE
  5
3E
330
1F
100
AcDbEntity
  8
LC-001-100-D00-0
 62
     7
370
    50
100
AcDbLine
 10
-825.425625
 20
123.000128
 30
0.0
 11
-825.425625
 21
-21.999872
 31
0.0
  0
ARC
  5
3F
330
1F
100
AcDbEntity
  8
LC-001-100-D00-0
 62
     7
370
    50
100
AcDbCircle
 10
469.574375
 20
-21.999872
 30
0.0
 40
4.999999999999957
100
AcDbArc
 50
270.0
 51
0.0
  0
ARC
  5
40
330
1F
100
AcDbEntity
  8
LC-001-100-D00-0
 62
     7
370
    50
100
AcDbCircle
 10
469.574375
 20
123.000128
 30
0.0
 40
5.000000000000114
100
AcDbArc
 50
0.0
 51
90.0
  0
CIRCLE
  5
41
330
1F
100
AcDbEntity
  8
LC-001-100-D00-0
 62
     7
370
    50
100
AcDbCircle
 10
394.574375
 20
50.500128
 30
0.0
 40
3.0
  0
CIRCLE
  5
42
330
1F
100
AcDbEntity
  8
LC-001-100-D00-0
 62
     7
370
    50
100
AcDbCircle
 10
237.907709
 20
50.500128
 30
0.0
 40
3.0
  0
CIRCLE
  5
43
330
1F
100
AcDbEntity
  8
LC-001-100-D00-0
 62
     7
370
    50
100
AcDbCircle
 10
81.241042
 20
50.500128
 30
0.0
 40
3.000000000000284
  0
CIRCLE
  5
44
330
1F
100
AcDbEntity
  8
LC-001-100-D00-0
 62
     7
370
    50
100
AcDbCircle
 10
-75.425625
 20
50.500128
 30
0.0
 40
2.999999999999744
  0
CIRCLE
  5
45
330
1F
100
AcDbEntity
  8
LC-001-100-D00-0
 62
     7
370
    50
100
AcDbCircle
 10
-275.425625
 20
50.500128
 30
0.0
 40
3.0
  0
CIRCLE
  5
46
330
1F
100
AcDbEntity
  8
LC-001-100-D00-0
 62
     7
370
    50
100
AcDbCircle
 10
-432.092291
 20
50.500128
 30
0.0
 40
3.0
  0
CIRCLE
  5
47
330
1F
100
AcDbEntity
  8
LC-001-100-D00-0
 62
     7
370
    50
100
AcDbCircle
 10
-588.758958
 20
50.500128
 30
0.0
 40
3.000000000000284
  0
CIRCLE
  5
48
330
1F
100
AcDbEntity
  8
LC-001-100-D00-0
 62
     7
370
    50
100
AcDbCircle
 10
-745.425625
 20
50.500128
 30
0.0
 40
3.0
  0
LINE
  5
49
330
1F
100
AcDbEntity
  8
LC-001-100-D00-0
 62
     7
370
    50
100
AcDbLine
 10
416.548157
 20
38.177459
 30
0.0
 11
416.548157
 21
27.000129
 31
0.0
  0
ARC
  5
4A
330
1F
100
AcDbEntity
  8
LC-001-100-D00-0
 62
     7
370
    50
100
AcDbCircle
 10
376.99997
 20
44.4564
 30
0.0
 40
40.04352880730222
100
AcDbArc
 50
350.978628
 51
351.221177
  0
INSERT
  5
52
330
1F
100
AcDbEntity
  8
LC-001-100-D00-0
 62
     7
370
    50
100
AcDbBlockReference
  2
KLON1
 10
0.0
 20
0.0
 30
0.0
  0
LINE
  5
53
330
1F
100
AcDbEntity
  8
LC-001-100-D00-0
 62
     7
370
    50
100
AcDbLine
 10
416.548157
 20
73.985489
 30
0.0
 11
416.548157
 21
62.822797
 31
0.0
  0
INSERT
  5
59
330
1F
100
AcDbEntity
  8
LC-001-100-D00-0
 62
     7
370
    50
100
AcDbBlockReference
  2
KLON2
 10
0.0
 20
0.0
 30
0.0
  0
INSERT
  5
5F
330
1F
100
AcDbEntity
  8
LC-001-100-D00-0
 62
     7
370
    50
100
AcDbBlockReference
  2
KLON3
 10
0.0
 20
0.0
 30
0.0
  0
INSERT
  5
65
330
1F
100
AcDbEntity
  8
LC-001-100-D00-0
 62
     7
370
    50
100
AcDbBlockReference
  2
KLON4
 10
0.0
 20
0.0
 30
0.0
  0
LINE
  5
66
330
1F
100
AcDbEntity
  8
LC-001-100-D00-0
 62
     7
370
    50
100
AcDbLine
 10
-767.399406
 20
73.985489
 30
0.0
 11
-767.399406
 21
62.822797
 31
0.0
  0
INSERT
  5
6E
330
1F
100
AcDbEntity
  8
LC-001-100-D00-0
 62
     7
370
    50
100
AcDbBlockReference
  2
KLON5
 10
0.0
 20
0.0
 30
0.0
  0
ARC
  5
6F
330
1F
100
AcDbEntity
  8
LC-001-100-D00-0
 62
     7
370
    50
100
AcDbCircle
 10
-727.851219
 20
44.4564
 30
0.0
 40
40.04352880730568
100
AcDbArc
 50
188.778823
 51
189.021372
  0
LINE
  5
70
330
1F
100
AcDbEntity
  8
LC-001-100-D00-0
 62
     7
370
    50
100
AcDbLine
 10
-767.399406
 20
38.177459
 30
0.0
 11
-767.399406
 21
27.000129
 31
0.0
  0
INSERT
  5
76
330
1F
100
AcDbEntity
  8
LC-001-100-D00-0
 62
     7
370
    50
100
AcDbBlockReference
  2
KLON6
 10
0.0
 20
0.0
 30
0.0
  0
ELLIPSE
  5
77
330
1F
100
AcDbEntity
  8
LC-001-100-D00-0
 62
     7
370
    50
100
AcDbEllipse
 10
416.501407
 20
27.000128
 30
0.0
 11
0.0
 21
-2.500000015258562
 31
0.0
210
0.0
220
0.0
230
1.0
 40
0.018242
 41
3.141592653594779
 42
4.712388980377057
  0
ELLIPSE
  5
78
330
1F
100
AcDbEntity
  8
LC-001-100-D00-0
 62
     7
370
    50
100
AcDbEllipse
 10
279.501407
 20
27.000128
 30
0.0
 11
0.0
 21
-2.499999999999773
 31
0.0
210
0.0
220
0.0
230
0.9999999999999999
 40
0.018242
 41
3.141592653589793
 42
4.712388980380765
  0
ELLIPSE
  5
79
330
1F
100
AcDbEntity
  8
LC-001-100-D00-0
 62
     7
370
    50
100
AcDbEllipse
 10
485.047012
 20
27.000128
 30
0.0
 11
68.50000000978707
 21
0.0
 31
0.0
210
0.0
220
0.0
230
1.0
 40
0.036496
 41
3.141592653597485
 42
3.169858841660827
  0
ELLIPSE
  5
7A
330
1F
100
AcDbEntity
  8
LC-001-100-D00-0
 62
     7
370
    50
100
AcDbEllipse
 10
-767.352656
 20
27.000128
 30
0.0
 11
0.0
 21
-2.499999877929457
 31
0.0
210
0.0
220
0.0
230
1.0
 40
0.018242
 41
1.570796326802381
 42
3.141592653592286
  0
ELLIPSE
  5
7B
330
1F
100
AcDbEntity
  8
LC-001-100-D00-0
 62
     7
370
    50
100
AcDbEllipse
 10
-630.352656
 20
27.000128
 30
0.0
 11
0.0
 21
-2.499999938964616
 31
0.0
210
0.0
220
0.0
230
1.0
 40
0.018242
 41
1.570796326798539
 42
3.141592653589793
  0
ELLIPSE
  5
7C
330
1F
100
AcDbEntity
  8
LC-001-100-D00-0
 62
     7
370
    50
100
AcDbEllipse
 10
-835.898262
 20
27.000128
 30
0.0
 11
68.49999999673145
 21
0.0
 31
0.0
210
0.0
220
0.0
230
1.0
 40
0.036496
 41
6.25491911910954
 42
6.283185307179638
  0
ELLIPSE
  5
7D
330
1F
100
AcDbEntity
  8
LC-001-100-D00-0
 62
     7
370
    50
100
AcDbEllipse
 10
485.047012
 20
74.000128
 30
0.0
 11
68.49999999992269
 21
0.0
 31
0.0
210
0.0
220
0.0
230
0.9999999999999999
 40
0.036496
 41
3.141592653589782
 42
3.147448628039664
  0
ELLIPSE
  5
7E
330
1F
100
AcDbEntity
  8
LC-001-100-D00-0
 62
     7
370
    50
100
AcDbEllipse
 10
416.501407
 20
74.000128
 30
0.0
 11
0.0
 21
-2.499999786376717
 31
0.0
210
0.0
220
0.0
230
1.0
 40
0.018242
 41
4.712388980384678
 42
6.283185278079357
  0
ELLIPSE
  5
7F
330
1F
100
AcDbEntity
  8
LC-001-100-D00-0
 62
     7
370
    50
100
AcDbEllipse
 10
-835.898262
 20
74.000128
 30
0.0
 11
68.4999999885672
 21
0.0
 31
0.0
210
0.0
220
0.0
230
1.0
 40
0.036496
 41
6.27732933273049
 42
6.283185307179535
  0
ELLIPSE
  5
80
330
1F
100
AcDbEntity
  8
LC-001-100-D00-0
 62
     7
370
    50
100
AcDbEllipse
 10
-767.352656
 20
74.000128
 30
0.0
 11
0.0
 21
-2.500000122070083
 31
0.0
210
0.0
220
0.0
230
0.9999999999999999
 40
0.018242
 41
0.0000000290915017
 42
1.570796326794675
  0
ELLIPSE
  5
81
330
1F
100
AcDbEntity
  8
LC-001-100-D00-0
 62
     7
370
    50
100
AcDbEllipse
 10
279.501407
 20
74.000128
 30
0.0
 11
0.0
 21
-2.499999511718476
 31
0.0
210
0.0
220
0.0
230
1.0
 40
0.018242
 41
4.712388980388339
 42
6.283185318945817
  0
ELLIPSE
  5
82
330
1F
100
AcDbEntity
  8
LC-001-100-D00-0
 62
     7
370
    50
100
AcDbEllipse
 10
-630.352656
 20
74.000128
 30
0.0
 11
0.0
 21
-2.499999999999773
 31
0.0
210
0.0
220
0.0
230
0.9999999999999999
 40
0.018242
 41
6.283185295408372
 42
7.853981633970515
  0
LINE
  5
83
330
1F
100
AcDbEntity
  8
LC-001-100-D00-0
 62
     7
370
    50
100
AcDbLine
 10
279.547
 20
27.000129
 30
0.0
 11
279.547
 21
29.850645
 31
0.0
  0
INSERT
  5
89
330
1F
100
AcDbEntity
  8
LC-001-100-D00-0
 62
     7
370
    50
100
AcDbBlockReference
  2
KLON7
 10
0.0
 20
0.0
 30
0.0
  0
INSERT
  5
8F
330
1F
100
AcDbEntity
  8
LC-001-100-D00-0
 62
     7
370
    50
100
AcDbBlockReference
  2
KLON8
 10
0.0
 20
0.0
 30
0.0
  0
LINE
  5
90
330
1F
100
AcDbEntity
  8
LC-001-100-D00-0
 62
     7
370
    50
100
AcDbLine
 10
-630.39825
 20
27.000129
 30
0.0
 11
-630.39825
 21
29.850645
 31
0.0
  0
INSERT
  5
97
330
1F
100
AcDbEntity
  8
LC-001-100-D00-0
 62
     7
370
    50
100
AcDbBlockReference
  2
KLON9
 10
0.0
 20
0.0
 30
0.0
  0
INSERT
  5
9D
330
1F
100
AcDbEntity
  8
LC-001-100-D00-0
 62
     7
370
    50
100
AcDbBlockReference
  2
KLON10
 10
0.0
 20
0.0
 30
0.0
  0
INSERT
  5
A4
330
1F
100
AcDbEntity
  8
LC-001-100-D00-0
 62
     7
370
    50
100
AcDbBlockReference
  2
KLON11
 10
0.0
 20
0.0
 30
0.0
  0
INSERT
  5
AB
330
1F
100
AcDbEntity
  8
LC-001-100-D00-0
 62
     7
370
    50
100
AcDbBlockReference
  2
KLON12
 10
0.0
 20
0.0
 30
0.0
  0
INSERT
  5
B2
330
1F
100
AcDbEntity
  8
LC-001-100-D00-0
 62
     7
370
    50
100
AcDbBlockReference
  2
KLON13
 10
0.0
 20
0.0
 30
0.0
  0
INSERT
  5
B8
330
1F
100
AcDbEntity
  8
LC-001-100-D00-0
 62
     7
370
    50
100
AcDbBlockReference
  2
KLON14
 10
0.0
 20
0.0
 30
0.0
  0
LINE
  5
B9
330
1F
100
AcDbEntity
  8
LC-001-100-D00-0
 62
     7
370
    50
100
AcDbLine
 10
279.547
 20
71.149612
 30
0.0
 11
279.547
 21
74.000127
 31
0.0
  0
LINE
  5
BA
330
1F
100
AcDbEntity
  8
LC-001-100-D00-0
 62
     7
370
    50
100
AcDbLine
 10
-630.39825
 20
71.149612
 30
0.0
 11
-630.39825
 21
74.000127
 31
0.0
  0
ELLIPSE
  5
BB
330
1F
100
AcDbEntity
  8
LC-001-100-D00-0
 62
     7
370
    15
100
AcDbEllipse
 10
200.945855
 20
195.041229
 30
0.0
 11
23.8744419004651
 21
-1.427912455521581
 31
0.0
210
0.0
220
0.0
230
1.0
 40
0.016531
 41
0.0009886796575246
 42
0.0021906412348349
  0
LINE
  5
BC
330
1F
100
AcDbEntity
  8
LC-001-100-D00-0
 62
     7
370
    50
100
AcDbLine
 10
279.561275
 20
56.361079
 30
0.0
 11
279.561275
 21
70.355806
 31
0.0
  0
LINE
  5
BD
330
1F
100
AcDbEntity
  8
LC-001-100-D00-0
 62
     7
370
    50
100
AcDbLine
 10
279.561275
 20
30.64445
 30
0.0
 11
279.561275
 21
44.639177
 31
0.0
  0
ELLIPSE
  5
BE
330
1F
100
AcDbEntity
  8
LC-001-100-D00-0
 62
     7
370
    15
100
AcDbEllipse
 10
200.945855
 20
185.567626
 30
0.0
 11
23.8744418503746
 21
1.427912452525706
 31
0.0
210
0.0
220
0.0
230
1.0
 40
0.016531
 41
6.280994665935818
 42
6.282196627513335
  0
ELLIPSE
  5
BF
330
1F
100
AcDbEntity
  8
LC-001-100-D00-0
 62
     7
370
    15
100
AcDbEllipse
 10
97.032458
 20
185.567626
 30
0.0
 11
23.87444191867989
 21
-1.427912456610994
 31
0.0
210
0.0
220
0.0
230
1.0
 40
0.016531
 41
3.142581333250361
 42
3.143783294827958
  0
LINE
  5
C0
330
1F
100
AcDbEntity
  8
LC-001-100-D00-0
 62
     7
370
    50
100
AcDbLine
 10
-630.412525
 20
30.64445
 30
0.0
 11
-630.412525
 21
44.639177
 31
0.0
  0
ELLIPSE
  5
C1
330
1F
100
AcDbEntity
  8
LC-001-100-D00-0
 62
     7
370
    15
100
AcDbEllipse
 10
97.032458
 20
195.041229
 30
0.0
 11
23.87444182646768
 21
1.427912451095851
 31
0.0
210
0.0
220
0.0
230
1.0
 40
0.016531
 41
3.139402012345882
 42
3.140603973923293
  0
LINE
  5
C2
330
1F
100
AcDbEntity
  8
LC-001-100-D00-0
 62
     7
370
    50
100
AcDbLine
 10
-630.412525
 20
56.361079
 30
0.0
 11
-630.412525
 21
70.355806
 31
0.0
  0
LINE
  5
C3
330
1F
100
AcDbEntity
  8
LC-001-100-D00-0
 62
     7
370
    50
100
AcDbLine
 10
279.547
 20
29.851017
 30
0.0
 11
279.561186
 21
30.641587
 31
0.0
  0
LINE
  5
C4
330
1F
100
AcDbEntity
  8
LC-001-100-D00-0
 62
     7
370
    50
100
AcDbLine
 10
279.547
 20
71.149239
 30
0.0
 11
279.561186
 21
70.358669
 31
0.0
  0
LINE
  5
C5
330
1F
100
AcDbEntity
  8
LC-001-100-D00-0
 62
     7
370
    50
100
AcDbLine
 10
-630.39825
 20
29.851017
 30
0.0
 11
-630.412435
 21
30.641587
 31
0.0
  0
LINE
  5
C6
330
1F
100
AcDbEntity
  8
LC-001-100-D00-0
 62
     7
370
    50
100
AcDbLine
 10
-630.39825
 20
71.149239
 30
0.0
 11
-630.412435
 21
70.358669
 31
0.0
  0
ARC
  5
C7
330
1F
100
AcDbEntity
  8
LC-001-100-D00-0
 62
     7
370
    50
100
AcDbCircle
 10
-144.925633
 20
50.500149
 30
0.0
 40
24.80002105913714
100
AcDbArc
 50
270.0
 51
300.592807
  0
ARC
  5
C8
330
1F
100
AcDbEntity
  8
LC-001-100-D00-0
 62
     7
370
    50
100
AcDbCircle
 10
-205.925617
 20
50.500149
 30
0.0
 40
24.80002105913709
100
AcDbArc
 50
239.407193
 51
270.0
  0
ARC
  5
C9
330
1F
100
AcDbEntity
  8
LC-001-100-D00-0
 62
     7
370
    50
100
AcDbCircle
 10
-144.925631
 20
50.500115
 30
0.0
 40
24.8000135806323
100
AcDbArc
 50
59.407188
 51
90.0
  0
ARC
  5
CA
330
1F
100
AcDbEntity
  8
LC-001-100-D00-0
 62
     7
370
    50
100
AcDbCircle
 10
-205.925619
 20
50.500115
 30
0.0
 40
24.80001358063493
100
AcDbArc
 50
90.0
 51
120.592812
  0
LINE
  5
CB
330
1F
100
AcDbEntity
  8
LC-001-100-D00-0
 62
     7
370
    50
100
AcDbLine
 10
-205.925625
 20
75.300129
 30
0.0
 11
-144.925624
 21
75.300129
 31
0.0
  0
LINE
  5
CC
330
1F
100
AcDbEntity
  8
LC-001-100-D00-0
 62
     7
370
    50
100
AcDbLine
 10
-144.925624
 20
25.700128
 30
0.0
 11
-205.925625
 21
25.700128
 31
0.0
  0
LINE
  5
CD
330
1F
100
AcDbEntity
  8
LC-001-100-D00-0
 62
     7
370
    50
100
AcDbLine
 10
-242.258458
 20
53.939031
 30
0.0
 11
-242.250314
 21
53.57114
 31
0.0
  0
LINE
  5
CE
330
1F
100
AcDbEntity
  8
LC-001-100-D00-0
 62
     7
370
    50
100
AcDbLine
 10
-243.369734
 20
54.732
 30
0.0
 11
-242.258458
 21
53.939031
 31
0.0
  0
LINE
  5
CF
330
1F
100
AcDbEntity
  8
LC-001-100-D00-0
 62
     7
370
    50
100
AcDbLine
 10
-242.258458
 20
55.524969
 30
0.0
 11
-243.369734
 21
54.732
 31
0.0
  0
LINE
  5
D0
330
1F
100
AcDbEntity
  8
LC-001-100-D00-0
 62
     7
370
    50
100
AcDbLine
 10
-242.258458
 20
55.898667
 30
0.0
 11
-242.258458
 21
55.524969
 31
0.0
  0
LINE
  5
D1
330
1F
100
AcDbEntity
  8
LC-001-100-D00-0
 62
     7
370
    50
100
AcDbLine
 10
-243.631957
 20
54.919199
 30
0.0
 11
-242.258458
 21
55.898667
 31
0.0
  0
LINE
  5
D2
330
1F
100
AcDbEntity
  8
LC-001-100-D00-0
 62
     7
370
    50
100
AcDbLine
 10
-244.816153
 20
55.764051
 30
0.0
 11
-243.631957
 21
54.919199
 31
0.0
  0
LINE
  5
D3
330
1F
100
AcDbEntity
  8
LC-001-100-D00-0
 62
     7
370
    50
100
AcDbLine
 10
-244.816153
 20
55.390353
 30
0.0
 11
-244.816153
 21
55.764051
 31
0.0
  0
LINE
  5
D4
330
1F
100
AcDbEntity
  8
LC-001-100-D00-0
 62
     7
370
    50
100
AcDbLine
 10
-243.893473
 20
54.732
 30
0.0
 11
-244.816153
 21
55.390353
 31
0.0
  0
LINE
  5
D5
330
1F
100
AcDbEntity
  8
LC-001-100-D00-0
 62
     7
370
    50
100
AcDbLine
 10
-244.816153
 20
54.073647
 30
0.0
 11
-243.893473
 21
54.732
 31
0.0
  0
LINE
  5
D6
330
1F
100
AcDbEntity
  8
LC-001-100-D00-0
 62
     7
370
    50
100
AcDbLine
 10
-244.816153
 20
53.699949
 30
0.0
 11
-244.816153
 21
54.073647
 31
0.0
  0
LINE
  5
D7
330
1F
100
AcDbEntity
  8
LC-001-100-D00-0
 62
     7
370
    50
100
AcDbLine
 10
-243.631957
 20
54.545502
 30
0.0
 11
-244.816153
 21
53.699949
 31
0.0
  0
LINE
  5
D8
330
1F
100
AcDbEntity
  8
LC-001-100-D00-0
 62
     7
370
    50
100
AcDbLine
 10
-242.250314
 20
53.57114
 30
0.0
 11
-243.631957
 21
54.545502
 31
0.0
  0
LINE
  5
D9
330
1F
100
AcDbEntity
  8
LC-001-100-D00-0
 62
     7
370
    50
100
AcDbLine
 10
-242.258458
 20
49.272365
 30
0.0
 11
-242.250314
 21
48.904473
 31
0.0
  0
LINE
  5
DA
330
1F
100
AcDbEntity
  8
LC-001-100-D00-0
 62
     7
370
    50
100
AcDbLine
 10
-243.369734
 20
50.065333
 30
0.0
 11
-242.258458
 21
49.272365
 31
0.0
  0
LINE
  5
DB
330
1F
100
AcDbEntity
  8
LC-001-100-D00-0
 62
     7
370
    50
100
AcDbLine
 10
-242.258458
 20
50.858302
 30
0.0
 11
-243.369734
 21
50.065333
 31
0.0
  0
LINE
  5
DC
330
1F
100
AcDbEntity
  8
LC-001-100-D00-0
 62
     7
370
    50
100
AcDbLine
 10
-242.258458
 20
51.232
 30
0.0
 11
-242.258458
 21
50.858302
 31
0.0
  0
LINE
  5
DD
330
1F
100
AcDbEntity
  8
LC-001-100-D00-0
 62
     7
370
    50
100
AcDbLine
 10
-243.631957
 20
50.252533
 30
0.0
 11
-242.258458
 21
51.232
 31
0.0
  0
LINE
  5
DE
330
1F
100
AcDbEntity
  8
LC-001-100-D00-0
 62
     7
370
    50
100
AcDbLine
 10
-244.816153
 20
51.097385
 30
0.0
 11
-243.631957
 21
50.252533
 31
0.0
  0
LINE
  5
DF
330
1F
100
AcDbEntity
  8
LC-001-100-D00-0
 62
     7
370
    50
100
AcDbLine
 10
-244.816153
 20
50.723687
 30
0.0
 11
-244.816153
 21
51.097385
 31
0.0
  0
LINE
  5
E0
330
1F
100
AcDbEntity
  8
LC-001-100-D00-0
 62
     7
370
    50
100
AcDbLine
 10
-243.893473
 20
50.065333
 30
0.0
 11
-244.816153
 21
50.723687
 31
0.0
  0
LINE
  5
E1
330
1F
100
AcDbEntity
  8
LC-001-100-D00-0
 62
     7
370
    50
100
AcDbLine
 10
-244.816153
 20
49.40698
 30
0.0
 11
-243.893473
 21
50.065333
 31
0.0
  0
LINE
  5
E2
330
1F
100
AcDbEntity
  8
LC-001-100-D00-0
 62
     7
370
    50
100
AcDbLine
 10
-244.816153
 20
49.033282
 30
0.0
 11
-244.816153
 21
49.40698
 31
0.0
  0
LINE
  5
E3
330
1F
100
AcDbEntity
  8
LC-001-100-D00-0
 62
     7
370
    50
100
AcDbLine
 10
-243.631957
 20
49.878835
 30
0.0
 11
-244.816153
 21
49.033282
 31
0.0
  0
LINE
  5
E4
330
1F
100
AcDbEntity
  8
LC-001-100-D00-0
 62
     7
370
    50
100
AcDbLine
 10
-242.250314
 20
48.904473
 30
0.0
 11
-243.631957
 21
49.878835
 31
0.0
  0
LINE
  5
E5
330
1F
100
AcDbEntity
  8
LC-001-100-D00-0
 62
     7
370
    50
100
AcDbLine
 10
-242.258458
 20
44.605698
 30
0.0
 11
-242.250314
 21
44.237806
 31
0.0
  0
LINE
  5
E6
330
1F
100
AcDbEntity
  8
LC-001-100-D00-0
 62
     7
370
    50
100
AcDbLine
 10
-243.369734
 20
45.398667
 30
0.0
 11
-242.258458
 21
44.605698
 31
0.0
  0
LINE
  5
E7
330
1F
100
AcDbEntity
  8
LC-001-100-D00-0
 62
     7
370
    50
100
AcDbLine
 10
-242.258458
 20
46.191635
 30
0.0
 11
-243.369734
 21
45.398667
 31
0.0
  0
LINE
  5
E8
330
1F
100
AcDbEntity
  8
LC-001-100-D00-0
 62
     7
370
    50
100
AcDbLine
 10
-242.258458
 20
46.565333
 30
0.0
 11
-242.258458
 21
46.191635
 31
0.0
  0
LINE
  5
E9
330
1F
100
AcDbEntity
  8
LC-001-100-D00-0
 62
     7
370
    50
100
AcDbLine
 10
-243.631957
 20
45.585866
 30
0.0
 11
-242.258458
 21
46.565333
 31
0.0
  0
LINE
  5
EA
330
1F
100
AcDbEntity
  8
LC-001-100-D00-0
 62
     7
370
    50
100
AcDbLine
 10
-244.816153
 20
46.430718
 30
0.0
 11
-243.631957
 21
45.585866
 31
0.0
  0
LINE
  5
EB
330
1F
100
AcDbEntity
  8
LC-001-100-D00-0
 62
     7
370
    50
100
AcDbLine
 10
-244.816153
 20
46.05702
 30
0.0
 11
-244.816153
 21
46.430718
 31
0.0
  0
LINE
  5
EC
330
1F
100
AcDbEntity
  8
LC-001-100-D00-0
 62
     7
370
    50
100
AcDbLine
 10
-243.893473
 20
45.398667
 30
0.0
 11
-244.816153
 21
46.05702
 31
0.0
  0
LINE
  5
ED
330
1F
100
AcDbEntity
  8
LC-001-100-D00-0
 62
     7
370
    50
100
AcDbLine
 10
-244.816153
 20
44.740314
 30
0.0
 11
-243.893473
 21
45.398667
 31
0.0
  0
LINE
  5
EE
330
1F
100
AcDbEntity
  8
LC-001-100-D00-0
 62
     7
370
    50
100
AcDbLine
 10
-244.816153
 20
44.366615
 30
0.0
 11
-244.816153
 21
44.740314
 31
0.0
  0
LINE
  5
EF
330
1F
100
AcDbEntity
  8
LC-001-100-D00-0
 62
     7
370
    50
100
AcDbLine
 10
-243.631957
 20
45.212168
 30
0.0
 11
-244.816153
 21
44.366615
 31
0.0
  0
LINE
  5
F0
330
1F
100
AcDbEntity
  8
LC-001-100-D00-0
 62
     7
370
    50
100
AcDbLine
 10
-242.250314
 20
44.237806
 30
0.0
 11
-243.631957
 21
45.212168
 31
0.0
  0
LINE
  5
F1
330
1F
100
AcDbEntity
  8
LC-001-100-D00-0
 62
     7
370
    50
100
AcDbLine
 10
-242.258458
 20
42.272365
 30
0.0
 11
-242.258458
 21
41.898667
 31
0.0
  0
LINE
  5
F2
330
1F
100
AcDbEntity
  8
LC-001-100-D00-0
 62
     7
370
    50
100
AcDbLine
 10
-243.369734
 20
43.065333
 30
0.0
 11
-242.258458
 21
42.272365
 31
0.0
  0
LINE
  5
F3
330
1F
100
AcDbEntity
  8
LC-001-100-D00-0
 62
     7
370
    50
100
AcDbLine
 10
-242.258458
 20
43.858302
 30
0.0
 11
-243.369734
 21
43.065333
 31
0.0
  0
LINE
  5
F4
330
1F
100
AcDbEntity
  8
LC-001-100-D00-0
 62
     7
370
    50
100
AcDbLine
 10
-242.258458
 20
44.232
 30
0.0
 11
-242.258458
 21
43.858302
 31
0.0
  0
LINE
  5
F5
330
1F
100
AcDbEntity
  8
LC-001-100-D00-0
 62
     7
370
    50
100
AcDbLine
 10
-243.631957
 20
43.252533
 30
0.0
 11
-242.258458
 21
44.232
 31
0.0
  0
LINE
  5
F6
330
1F
100
AcDbEntity
  8
LC-001-100-D00-0
 62
     7
370
    50
100
AcDbLine
 10
-244.816153
 20
44.097385
 30
0.0
 11
-243.631957
 21
43.252533
 31
0.0
  0
LINE
  5
F7
330
1F
100
AcDbEntity
  8
LC-001-100-D00-0
 62
     7
370
    50
100
AcDbLine
 10
-244.816153
 20
43.723687
 30
0.0
 11
-244.816153
 21
44.097385
 31
0.0
  0
LINE
  5
F8
330
1F
100
AcDbEntity
  8
LC-001-100-D00-0
 62
     7
370
    50
100
AcDbLine
 10
-243.893473
 20
43.065333
 30
0.0
 11
-244.816153
 21
43.723687
 31
0.0
  0
LINE
  5
F9
330
1F
100
AcDbEntity
  8
LC-001-100-D00-0
 62
     7
370
    50
100
AcDbLine
 10
-244.816153
 20
42.40698
 30
0.0
 11
-243.893473
 21
43.065333
 31
0.0
  0
LINE
  5
FA
330
1F
100
AcDbEntity
  8
LC-001-100-D00-0
 62
     7
370
    50
100
AcDbLine
 10
-244.816153
 20
42.033282
 30
0.0
 11
-244.816153
 21
42.40698
 31
0.0
  0
LINE
  5
FB
330
1F
100
AcDbEntity
  8
LC-001-100-D00-0
 62
     7
370
    50
100
AcDbLine
 10
-243.631957
 20
42.878835
 30
0.0
 11
-244.816153
 21
42.033282
 31
0.0
  0
LINE
  5
FC
330
1F
100
AcDbEntity
  8
LC-001-100-D00-0
 62
     7
370
    50
100
AcDbLine
 10
-242.258458
 20
41.898667
 30
0.0
 11
-243.631957
 21
42.878835
 31
0.0
  0
LINE
  5
FD
330
1F
100
AcDbEntity
  8
LC-001-100-D00-0
 62
     7
370
    50
100
AcDbLine
 10
-242.258458
 20
46.939031
 30
0.0
 11
-242.250314
 21
46.57114
 31
0.0
  0
LINE
  5
FE
330
1F
100
AcDbEntity
  8
LC-001-100-D00-0
 62
     7
370
    50
100
AcDbLine
 10
-243.369734
 20
47.732
 30
0.0
 11
-242.258458
 21
46.939031
 31
0.0
  0
LINE
  5
FF
330
1F
100
AcDbEntity
  8
LC-001-100-D00-0
 62
     7
370
    50
100
AcDbLine
 10
-242.258458
 20
48.524969
 30
0.0
 11
-243.369734
 21
47.732
 31
0.0
  0
LINE
  5
100
330
1F
100
AcDbEntity
  8
LC-001-100-D00-0
 62
     7
370
    50
100
AcDbLine
 10
-242.258458
 20
48.898667
 30
0.0
 11
-242.258458
 21
48.524969
 31
0.0
  0
LINE
  5
101
330
1F
100
AcDbEntity
  8
LC-001-100-D00-0
 62
     7
370
    50
100
AcDbLine
 10
-243.631957
 20
47.9192
 30
0.0
 11
-242.258458
 21
48.898667
 31
0.0
  0
LINE
  5
102
330
1F
100
AcDbEntity
  8
LC-001-100-D00-0
 62
     7
370
    50
100
AcDbLine
 10
-244.816153
 20
48.764051
 30
0.0
 11
-243.631957
 21
47.9192
 31
0.0
  0
LINE
  5
103
330
1F
100
AcDbEntity
  8
LC-001-100-D00-0
 62
     7
370
    50
100
AcDbLine
 10
-244.816153
 20
48.390353
 30
0.0
 11
-244.816153
 21
48.764051
 31
0.0
  0
LINE
  5
104
330
1F
100
AcDbEntity
  8
LC-001-100-D00-0
 62
     7
370
    50
100
AcDbLine
 10
-243.893473
 20
47.732
 30
0.0
 11
-244.816153
 21
48.390353
 31
0.0
  0
LINE
  5
105
330
1F
100
AcDbEntity
  8
LC-001-100-D00-0
 62
     7
370
    50
100
AcDbLine
 10
-244.816153
 20
47.073647
 30
0.0
 11
-243.893473
 21
47.732
 31
0.0
  0
LINE
  5
106
330
1F
100
AcDbEntity
  8
LC-001-100-D00-0
 62
     7
370
    50
100
AcDbLine
 10
-244.816153
 20
46.699949
 30
0.0
 11
-244.816153
 21
47.073647
 31
0.0
  0
LINE
  5
107
330
1F
100
AcDbEntity
  8
LC-001-100-D00-0
 62
     7
370
    50
100
AcDbLine
 10
-243.631957
 20
47.545502
 30
0.0
 11
-244.816153
 21
46.699949
 31
0.0
  0
LINE
  5
108
330
1F
100
AcDbEntity
  8
LC-001-100-D00-0
 62
     7
370
    50
100
AcDbLine
 10
-242.250314
 20
46.57114
 30
0.0
 11
-243.631957
 21
47.545502
 31
0.0
  0
LINE
  5
109
330
1F
100
AcDbEntity
  8
LC-001-100-D00-0
 62
     7
370
    50
100
AcDbLine
 10
-242.258458
 20
51.605698
 30
0.0
 11
-242.250314
 21
51.237806
 31
0.0
  0
LINE
  5
10A
330
1F
100
AcDbEntity
  8
LC-001-100-D00-0
 62
     7
370
    50
100
AcDbLine
 10
-243.369734
 20
52.398667
 30
0.0
 11
-242.258458
 21
51.605698
 31
0.0
  0
LINE
  5
10B
330
1F
100
AcDbEntity
  8
LC-001-100-D00-0
 62
     7
370
    50
100
AcDbLine
 10
-242.258458
 20
53.191635
 30
0.0
 11
-243.369734
 21
52.398667
 31
0.0
  0
LINE
  5
10C
330
1F
100
AcDbEntity
  8
LC-001-100-D00-0
 62
     7
370
    50
100
AcDbLine
 10
-242.258458
 20
53.565333
 30
0.0
 11
-242.258458
 21
53.191635
 31
0.0
  0
LINE
  5
10D
330
1F
100
AcDbEntity
  8
LC-001-100-D00-0
 62
     7
370
    50
100
AcDbLine
 10
-243.631957
 20
52.585866
 30
0.0
 11
-242.258458
 21
53.565333
 31
0.0
  0
LINE
  5
10E
330
1F
100
AcDbEntity
  8
LC-001-100-D00-0
 62
     7
370
    50
100
AcDbLine
 10
-244.816153
 20
53.430718
 30
0.0
 11
-243.631957
 21
52.585866
 31
0.0
  0
LINE
  5
10F
330
1F
100
AcDbEntity
  8
LC-001-100-D00-0
 62
     7
370
    50
100
AcDbLine
 10
-244.816153
 20
53.05702
 30
0.0
 11
-244.816153
 21
53.430718
 31
0.0
  0
LINE
  5
110
330
1F
100
AcDbEntity
  8
LC-001-100-D00-0
 62
     7
370
    50
100
AcDbLine
 10
-243.893473
 20
52.398667
 30
0.0
 11
-244.816153
 21
53.05702
 31
0.0
  0
LINE
  5
111
330
1F
100
AcDbEntity
  8
LC-001-100-D00-0
 62
     7
370
    50
100
AcDbLine
 10
-244.816153
 20
51.740313
 30
0.0
 11
-243.893473
 21
52.398667
 31
0.0
  0
LINE
  5
112
330
1F
100
AcDbEntity
  8
LC-001-100-D00-0
 62
     7
370
    50
100
AcDbLine
 10
-244.816153
 20
51.366615
 30
0.0
 11
-244.816153
 21
51.740313
 31
0.0
  0
LINE
  5
113
330
1F
100
AcDbEntity
  8
LC-001-100-D00-0
 62
     7
370
    50
100
AcDbLine
 10
-243.631957
 20
52.212168
 30
0.0
 11
-244.816153
 21
51.366615
 31
0.0
  0
LINE
  5
114
330
1F
100
AcDbEntity
  8
LC-001-100-D00-0
 62
     7
370
    50
100
AcDbLine
 10
-242.250314
 20
51.237806
 30
0.0
 11
-243.631957
 21
52.212168
 31
0.0
  0
ARC
  5
115
330
1F
100
AcDbEntity
  8
LC-001-100-D00-0
 62
     7
370
    50
100
AcDbCircle
 10
-144.925625
 20
50.500128
 30
0.0
 40
24.79999999999434
100
AcDbArc
 50
300.592814
 51
59.407186
  0
ARC
  5
116
330
1F
100
AcDbEntity
  8
LC-001-100-D00-0
 62
     7
370
    50
100
AcDbCircle
 10
-205.925625
 20
50.500128
 30
0.0
 40
24.79999999999454
100
AcDbArc
 50
120.592814
 51
239.407186
  0
LINE
  5
117
330
1F
100
AcDbEntity
  8
LC-001-100-D00-0
 62
     7
370
    50
100
AcDbLine
 10
-570.508958
 20
63.750128
 30
0.0
 11
-570.508958
 21
37.250128
 31
0.0
  0
ARC
  5
118
330
1F
100
AcDbEntity
  8
LC-001-100-D00-0
 62
     7
370
    50
100
AcDbCircle
 10
-575.508958
 20
37.250128
 30
0.0
 40
4.999999999999957
100
AcDbArc
 50
270.0
 51
0.0
  0
ARC
  5
119
330
1F
100
AcDbEntity
  8
LC-001-100-D00-0
 62
     7
370
    50
100
AcDbCircle
 10
-575.508958
 20
63.750128
 30
0.0
 40
4.999999999999773
100
AcDbArc
 50
0.0
 51
90.0
  0
CIRCLE
  5
11A
330
1F
100
AcDbEntity
  8
LC-001-100-D00-0
 62
     7
370
    50
100
AcDbCircle
 10
-588.758958
 20
50.500128
 30
0.0
 40
3.90000000000029
  0
LINE
  5
11B
330
1F
100
AcDbEntity
  8
LC-001-100-D00-0
 62
     7
370
    50
100
AcDbLine
 10
-575.508958
 20
32.250128
 30
0.0
 11
-602.008958
 21
32.250128
 31
0.0
  0
LINE
  5
11C
330
1F
100
AcDbEntity
  8
LC-001-100-D00-0
 62
     7
370
    50
100
AcDbLine
 10
-602.008958
 20
68.750128
 30
0.0
 11
-575.508958
 21
68.750128
 31
0.0
  0
ARC
  5
11D
330
1F
100
AcDbEntity
  8
LC-001-100-D00-0
 62
     7
370
    50
100
AcDbCircle
 10
-602.008958
 20
37.250128
 30
0.0
 40
5.000000000000227
100
AcDbArc
 50
180.0
 51
270.0
  0
ARC
  5
11E
330
1F
100
AcDbEntity
  8
LC-001-100-D00-0
 62
     7
370
    50
100
AcDbCircle
 10
-602.008958
 20
63.750128
 30
0.0
 40
4.99999999999983
100
AcDbArc
 50
90.0
 51
180.0
  0
LINE
  5
11F
330
1F
100
AcDbEntity
  8
LC-001-100-D00-0
 62
     7
370
    50
100
AcDbLine
 10
-607.008958
 20
37.250128
 30
0.0
 11
-607.008958
 21
63.750128
 31
0.0
  0
ARC
  5
120
330
1F
100
AcDbEntity
  8
LC-001-100-D00-0
 62
     7
370
    50
100
AcDbCircle
 10
-62.175625
 20
63.750128
 30
0.0
 40
5.000000000000227
100
AcDbArc
 50
0.0
 51
90.0
  0
LINE
  5
121
330
1F
100
AcDbEntity
  8
LC-001-100-D00-0
 62
     7
370
    50
100
AcDbLine
 10
-57.175625
 20
63.750128
 30
0.0
 11
-57.175625
 21
37.250128
 31
0.0
  0
ARC
  5
122
330
1F
100
AcDbEntity
  8
LC-001-100-D00-0
 62
     7
370
    50
100
AcDbCircle
 10
-62.175625
 20
37.250128
 30
0.0
 40
4.999999999999957
100
AcDbArc
 50
270.0
 51
0.0
  0
CIRCLE
  5
123
330
1F
100
AcDbEntity
  8
LC-001-100-D00-0
 62
     7
370
    50
100
AcDbCircle
 10
-75.425625
 20
50.500128
 30
0.0
 40
3.90000000000029
  0
LINE
  5
124
330
1F
100
AcDbEntity
  8
LC-001-100-D00-0
 62
     7
370
    50
100
AcDbLine
 10
-88.675625
 20
68.750128
 30
0.0
 11
-62.175625
 21
68.750128
 31
0.0
  0
LINE
  5
125
330
1F
100
AcDbEntity
  8
LC-001-100-D00-0
 62
     7
370
    50
100
AcDbLine
 10
-62.175625
 20
32.250128
 30
0.0
 11
-88.675625
 21
32.250128
 31
0.0
  0
ARC
  5
126
330
1F
100
AcDbEntity
  8
LC-001-100-D00-0
 62
     7
370
    50
100
AcDbCircle
 10
-88.675625
 20
63.750128
 30
0.0
 40
4.99999999999983
100
AcDbArc
 50
90.0
 51
180.0
  0
ARC
  5
127
330
1F
100
AcDbEntity
  8
LC-001-100-D00-0
 62
     7
370
    50
100
AcDbCircle
 10
-88.675625
 20
37.250128
 30
0.0
 40
5.000000000000227
100
AcDbArc
 50
180.0
 51
270.0
  0
LINE
  5
128
330
1F
100
AcDbEntity
  8
LC-001-100-D00-0
 62
     7
370
    50
100
AcDbLine
 10
-93.675625
 20
37.250128
 30
0.0
 11
-93.675625
 21
63.750128
 31
0.0
  0
ARC
  5
129
330
1F
100
AcDbEntity
  8
LC-001-100-D00-0
 62
     7
370
    50
100
AcDbCircle
 10
251.157709
 20
63.750128
 30
0.0
 40
5.000000000000398
100
AcDbArc
 50
0.0
 51
90.0
  0
LINE
  5
12A
330
1F
100
AcDbEntity
  8
LC-001-100-D00-0
 62
     7
370
    50
100
AcDbLine
 10
256.157709
 20
63.750128
 30
0.0
 11
256.157709
 21
37.250128
 31
0.0
  0
ARC
  5
12B
330
1F
100
AcDbEntity
  8
LC-001-100-D00-0
 62
     7
370
    50
100
AcDbCircle
 10
251.157709
 20
37.250128
 30
0.0
 40
4.999999999999957
100
AcDbArc
 50
270.0
 51
0.0
  0
CIRCLE
  5
12C
330
1F
100
AcDbEntity
  8
LC-001-100-D00-0
 62
     7
370
    50
100
AcDbCircle
 10
237.907709
 20
50.500128
 30
0.0
 40
3.90000000000029
  0
LINE
  5
12D
330
1F
100
AcDbEntity
  8
LC-001-100-D00-0
 62
     7
370
    50
100
AcDbLine
 10
251.157709
 20
32.250128
 30
0.0
 11
224.657709
 21
32.250128
 31
0.0
  0
LINE
  5
12E
330
1F
100
AcDbEntity
  8
LC-001-100-D00-0
 62
     7
370
    50
100
AcDbLine
 10
224.657709
 20
68.750128
 30
0.0
 11
251.157709
 21
68.750128
 31
0.0
  0
ARC
  5
12F
330
1F
100
AcDbEntity
  8
LC-001-100-D00-0
 62
     7
370
    50
100
AcDbCircle
 10
224.657709
 20
63.750128
 30
0.0
 40
4.99999999999983
100
AcDbArc
 50
90.0
 51
180.0
  0
ARC
  5
130
330
1F
100
AcDbEntity
  8
LC-001-100-D00-0
 62
     7
370
    50
100
AcDbCircle
 10
224.657709
 20
37.250128
 30
0.0
 40
5.000000000000057
100
AcDbArc
 50
180.0
 51
270.0
  0
LINE
  5
131
330
1F
100
AcDbEntity
  8
LC-001-100-D00-0
 62
     7
370
    50
100
AcDbLine
 10
219.657709
 20
37.250128
 30
0.0
 11
219.657709
 21
63.750128
 31
0.0
  0
ARC
  5
132
330
1F
100
AcDbEntity
  8
LC-001-100-D00-0
 62
     7
370
    50
100
AcDbCircle
 10
-262.175625
 20
63.750128
 30
0.0
 40
4.99999999999983
100
AcDbArc
 50
0.0
 51
90.0
  0
LINE
  5
133
330
1F
100
AcDbEntity
  8
LC-001-100-D00-0
 62
     7
370
    50
100
AcDbLine
 10
-257.175625
 20
63.750128
 30
0.0
 11
-257.175625
 21
37.250128
 31
0.0
  0
ARC
  5
134
330
1F
100
AcDbEntity
  8
LC-001-100-D00-0
 62
     7
370
    50
100
AcDbCircle
 10
-262.175625
 20
37.250128
 30
0.0
 40
4.999999999999957
100
AcDbArc
 50
270.0
 51
0.0
  0
CIRCLE
  5
135
330
1F
100
AcDbEntity
  8
LC-001-100-D00-0
 62
     7
370
    50
100
AcDbCircle
 10
-275.425625
 20
50.500128
 30
0.0
 40
3.899999999999864
  0
LINE
  5
136
330
1F
100
AcDbEntity
  8
LC-001-100-D00-0
 62
     7
370
    50
100
AcDbLine
 10
-262.175625
 20
32.250128
 30
0.0
 11
-288.675625
 21
32.250128
 31
0.0
  0
LINE
  5
137
330
1F
100
AcDbEntity
  8
LC-001-100-D00-0
 62
     7
370
    50
100
AcDbLine
 10
-288.675625
 20
68.750128
 30
0.0
 11
-262.175625
 21
68.750128
 31
0.0
  0
ARC
  5
138
330
1F
100
AcDbEntity
  8
LC-001-100-D00-0
 62
     7
370
    50
100
AcDbCircle
 10
-288.675625
 20
63.750128
 30
0.0
 40
4.99999999999983
100
AcDbArc
 50
90.0
 51
180.0
  0
ARC
  5
139
330
1F
100
AcDbEntity
  8
LC-001-100-D00-0
 62
     7
370
    50
100
AcDbCircle
 10
-288.675625
 20
37.250128
 30
0.0
 40
5.000000000000227
100
AcDbArc
 50
180.0
 51
270.0
  0
LINE
  5
13A
330
1F
100
AcDbEntity
  8
LC-001-100-D00-0
 62
     7
370
    50
100
AcDbLine
 10
-293.675625
 20
37.250128
 30
0.0
 11
-293.675625
 21
63.750128
 31
0.0
  0
ARC
  5
13B
330
1F
100
AcDbEntity
  8
LC-001-100-D00-0
 62
     7
370
    50
100
AcDbCircle
 10
407.824375
 20
37.250128
 30
0.0
 40
5.000000000000227
100
AcDbArc
 50
270.0
 51
0.0
  0
ARC
  5
13C
330
1F
100
AcDbEntity
  8
LC-001-100-D00-0
 62
     7
370
    50
100
AcDbCircle
 10
407.824375
 20
63.750128
 30
0.0
 40
5.000000000000057
100
AcDbArc
 50
0.0
 51
90.0
  0
LINE
  5
13D
330
1F
100
AcDbEntity
  8
LC-001-100-D00-0
 62
     7
370
    50
100
AcDbLine
 10
412.824375
 20
63.750128
 30
0.0
 11
412.824375
 21
37.250128
 31
0.0
  0
CIRCLE
  5
13E
330
1F
100
AcDbEntity
  8
LC-001-100-D00-0
 62
     7
370
    50
100
AcDbCircle
 10
394.574375
 20
50.500128
 30
0.0
 40
3.899999999999864
  0
LINE
  5
13F
330
1F
100
AcDbEntity
  8
LC-001-100-D00-0
 62
     7
370
    50
100
AcDbLine
 10
407.824375
 20
32.250128
 30
0.0
 11
381.324375
 21
32.250128
 31
0.0
  0
LINE
  5
140
330
1F
100
AcDbEntity
  8
LC-001-100-D00-0
 62
     7
370
    50
100
AcDbLine
 10
381.324375
 20
68.750128
 30
0.0
 11
407.824375
 21
68.750128
 31
0.0
  0
ARC
  5
141
330
1F
100
AcDbEntity
  8
LC-001-100-D00-0
 62
     7
370
    50
100
AcDbCircle
 10
381.324375
 20
37.250128
 30
0.0
 40
5.000000000000114
100
AcDbArc
 50
180.0
 51
270.0
  0
ARC
  5
142
330
1F
100
AcDbEntity
  8
LC-001-100-D00-0
 62
     7
370
    50
100
AcDbCircle
 10
381.324375
 20
63.750128
 30
0.0
 40
4.99999999999983
100
AcDbArc
 50
90.0
 51
180.0
  0
LINE
  5
143
330
1F
100
AcDbEntity
  8
LC-001-100-D00-0
 62
     7
370
    50
100
AcDbLine
 10
376.324375
 20
37.250128
 30
0.0
 11
376.324375
 21
63.750128
 31
0.0
  0
ARC
  5
144
330
1F
100
AcDbEntity
  8
LC-001-100-D00-0
 62
     7
370
    50
100
AcDbCircle
 10
94.491042
 20
37.250128
 30
0.0
 40
5.000000000000227
100
AcDbArc
 50
270.0
 51
0.0
  0
ARC
  5
145
330
1F
100
AcDbEntity
  8
LC-001-100-D00-0
 62
     7
370
    50
100
AcDbCircle
 10
94.491042
 20
63.750128
 30
0.0
 40
5.000000000000227
100
AcDbArc
 50
0.0
 51
90.0
  0
LINE
  5
146
330
1F
100
AcDbEntity
  8
LC-001-100-D00-0
 62
     7
370
    50
100
AcDbLine
 10
99.491042
 20
63.750128
 30
0.0
 11
99.491042
 21
37.250128
 31
0.0
  0
CIRCLE
  5
147
330
1F
100
AcDbEntity
  8
LC-001-100-D00-0
 62
     7
370
    50
100
AcDbCircle
 10
81.241042
 20
50.500128
 30
0.0
 40
3.90000000000029
  0
LINE
  5
148
330
1F
100
AcDbEntity
  8
LC-001-100-D00-0
 62
     7
370
    50
100
AcDbLine
 10
94.491042
 20
32.250128
 30
0.0
 11
67.991042
 21
32.250128
 31
0.0
  0
LINE
  5
149
330
1F
100
AcDbEntity
  8
LC-001-100-D00-0
 62
     7
370
    50
100
AcDbLine
 10
67.991042
 20
68.750128
 30
0.0
 11
94.491042
 21
68.750128
 31
0.0
  0
ARC
  5
14A
330
1F
100
AcDbEntity
  8
LC-001-100-D00-0
 62
     7
370
    50
100
AcDbCircle
 10
67.991042
 20
63.750128
 30
0.0
 40
5.000000000000085
100
AcDbArc
 50
90.0
 51
180.0
  0
ARC
  5
14B
330
1F
100
AcDbEntity
  8
LC-001-100-D00-0
 62
     7
370
    50
100
AcDbCircle
 10
67.991042
 20
37.250128
 30
0.0
 40
5.00000000000022
100
AcDbArc
 50
180.0
 51
270.0
  0
LINE
  5
14C
330
1F
100
AcDbEntity
  8
LC-001-100-D00-0
 62
     7
370
    50
100
AcDbLine
 10
62.991042
 20
37.250128
 30
0.0
 11
62.991042
 21
63.750128
 31
0.0
  0
ARC
  5
14D
330
1F
100
AcDbEntity
  8
LC-001-100-D00-0
 62
     7
370
    50
100
AcDbCircle
 10
-732.175625
 20
63.750128
 30
0.0
 40
5.0
100
AcDbArc
 50
0.0
 51
90.0
  0
LINE
  5
14E
330
1F
100
AcDbEntity
  8
LC-001-100-D00-0
 62
     7
370
    50
100
AcDbLine
 10
-727.175625
 20
63.750128
 30
0.0
 11
-727.175625
 21
37.250128
 31
0.0
  0
ARC
  5
14F
330
1F
100
AcDbEntity
  8
LC-001-100-D00-0
 62
     7
370
    50
100
AcDbCircle
 10
-732.175625
 20
37.250128
 30
0.0
 40
5.000000000000227
100
AcDbArc
 50
270.0
 51
0.0
  0
CIRCLE
  5
150
330
1F
100
AcDbEntity
  8
LC-001-100-D00-0
 62
     7
370
    50
100
AcDbCircle
 10
-745.425625
 20
50.500128
 30
0.0
 40
3.899999999999864
  0
LINE
  5
151
330
1F
100
AcDbEntity
  8
LC-001-100-D00-0
 62
     7
370
    50
100
AcDbLine
 10
-732.175625
 20
32.250128
 30
0.0
 11
-758.675625
 21
32.250128
 31
0.0
  0
LINE
  5
152
330
1F
100
AcDbEntity
  8
LC-001-100-D00-0
 62
     7
370
    50
100
AcDbLine
 10
-758.675625
 20
68.750128
 30
0.0
 11
-732.175625
 21
68.750128
 31
0.0
  0
ARC
  5
153
330
1F
100
AcDbEntity
  8
LC-001-100-D00-0
 62
     7
370
    50
100
AcDbCircle
 10
-758.675625
 20
63.750128
 30
0.0
 40
4.99999999999983
100
AcDbArc
 50
90.0
 51
180.0
  0
ARC
  5
154
330
1F
100
AcDbEntity
  8
LC-001-100-D00-0
 62
     7
370
    50
100
AcDbCircle
 10
-758.675625
 20
37.250128
 30
0.0
 40
5.000000000000227
100
AcDbArc
 50
180.0
 51
270.0
  0
LINE
  5
155
330
1F
100
AcDbEntity
  8
LC-001-100-D00-0
 62
     7
370
    50
100
AcDbLine
 10
-763.675625
 20
37.250128
 30
0.0
 11
-763.675625
 21
63.750128
 31
0.0
  0
ARC
  5
156
330
1F
100
AcDbEntity
  8
LC-001-100-D00-0
 62
     7
370
    50
100
AcDbCircle
 10
-418.842291
 20
63.750128
 30
0.0
 40
5.000000000000227
100
AcDbArc
 50
0.0
 51
90.0
  0
LINE
  5
157
330
1F
100
AcDbEntity
  8
LC-001-100-D00-0
 62
     7
370
    50
100
AcDbLine
 10
-413.842291
 20
63.750128
 30
0.0
 11
-413.842291
 21
37.250128
 31
0.0
  0
ARC
  5
158
330
1F
100
AcDbEntity
  8
LC-001-100-D00-0
 62
     7
370
    50
100
AcDbCircle
 10
-418.842291
 20
37.250128
 30
0.0
 40
4.999999999999957
100
AcDbArc
 50
270.0
 51
0.0
  0
CIRCLE
  5
159
330
1F
100
AcDbEntity
  8
LC-001-100-D00-0
 62
     7
370
    50
100
AcDbCircle
 10
-432.092291
 20
50.500128
 30
0.0
 40
3.899999999999864
  0
LINE
  5
15A
330
1F
100
AcDbEntity
  8
LC-001-100-D00-0
 62
     7
370
    50
100
AcDbLine
 10
-418.842291
 20
32.250128
 30
0.0
 11
-445.342291
 21
32.250128
 31
0.0
  0
LINE
  5
15B
330
1F
100
AcDbEntity
  8
LC-001-100-D00-0
 62
     7
370
    50
100
AcDbLine
 10
-445.342291
 20
68.750128
 30
0.0
 11
-418.842291
 21
68.750128
 31
0.0
  0
ARC
  5
15C
330
1F
100
AcDbEntity
  8
LC-001-100-D00-0
 62
     7
370
    50
100
AcDbCircle
 10
-445.342291
 20
63.750128
 30
0.0
 40
4.99999999999983
100
AcDbArc
 50
90.0
 51
180.0
  0
ARC
  5
15D
330
1F
100
AcDbEntity
  8
LC-001-100-D00-0
 62
     7
370
    50
100
AcDbCircle
 10
-445.342291
 20
37.250128
 30
0.0
 40
5.000000000000227
100
AcDbArc
 50
180.0
 51
270.0
  0
LINE
  5
15E
330
1F
100
AcDbEntity
  8
LC-001-100-D00-0
 62
     7
370
    50
100
AcDbLine
 10
-450.342291
 20
37.250128
 30
0.0
 11
-450.342291
 21
63.750128
 31
0.0
  0
LINE
  5
15F
330
1F
100
AcDbEntity
  8
LC-001-100-D00-0
 62
     7
370
    50
100
AcDbLine
 10
-205.925625
 20
26.500128
 30
0.0
 11
-144.925625
 21
26.500128
 31
0.0
  0
ARC
  5
160
330
1F
100
AcDbEntity
  8
LC-001-100-D00-0
 62
     7
370
    50
100
AcDbCircle
 10
-205.925625
 20
50.500128
 30
0.0
 40
24.0
100
AcDbArc
 50
90.0
 51
270.0
  0
LINE
  5
161
330
1F
100
AcDbEntity
  8
LC-001-100-D00-0
 62
     7
370
    50
100
AcDbLine
 10
-144.925625
 20
74.500128
 30
0.0
 11
-205.925625
 21
74.500128
 31
0.0
  0
ARC
  5
162
330
1F
100
AcDbEntity
  8
LC-001-100-D00-0
 62
     7
370
    50
100
AcDbCircle
 10
-144.925625
 20
50.500128
 30
0.0
 40
24.0
100
AcDbArc
 50
270.0
 51
90.0
  0
ARC
  5
163
330
1F
100
AcDbEntity
  8
LC-001-100-D00-0
 62
     7
370
    50
100
AcDbCircle
 10
-163.925625
 20
50.500128
 30
0.0
 40
16.00000000000019
100
AcDbArc
 50
270.0
 51
90.0
  0
LINE
  5
164
330
1F
100
AcDbEntity
  8
LC-001-100-D00-0
 62
     7
370
    50
100
AcDbLine
 10
-186.925625
 20
34.500128
 30
0.0
 11
-163.925625
 21
34.500128
 31
0.0
  0
LINE
  5
165
330
1F
100
AcDbEntity
  8
LC-001-100-D00-0
 62
     7
370
    50
100
AcDbLine
 10
-163.925625
 20
66.500128
 30
0.0
 11
-186.925625
 21
66.500128
 31
0.0
  0
ARC
  5
166
330
1F
100
AcDbEntity
  8
LC-001-100-D00-0
 62
     7
370
    50
100
AcDbCircle
 10
-186.925625
 20
50.500128
 30
0.0
 40
16.00000000000017
100
AcDbArc
 50
90.0
 51
270.0
  0
DIMENSION
  5
169
330
1F
100
AcDbEntity
  8
LC-001-100-D00-0
 62
     7
370
    25
100
AcDbDimension
  2
*D15
 10
562.142798
 20
-26.999872
 30
0.0
 11
507.142798
 21
39.082885
 31
0.0
 70
   160
  1
155
 71
     5
 42
155.0
 53
90.0
  3
LC-DIM-L-0100-02-02
100
AcDbAlignedDimension
 13
469.574375
 23
128.000128
 33
0.0
 14
469.574375
 24
-26.999872
 34
0.0
 50
90.0
100
AcDbRotatedDimension
  0
LINE
  5
178
330
1F
100
AcDbEntity
  8
LC-001-100-D00-0
  6
DASHDOT
 62
     7
370
    25
100
AcDbLine
 10
-175.425625
 20
135.000128
 30
0.0
 11
-175.425625
 21
-33.999872
 31
0.0
  0
LINE
  5
179
330
1F
100
AcDbEntity
  8
LC-001-100-D00-0
  6
DASHDOT
 62
     7
370
    25
100
AcDbLine
 10
-832.425625
 20
50.500128
 30
0.0
 11
481.574375
 21
50.500128
 31
0.0
  0
LINE
  5
17A
330
1F
100
AcDbEntity
  8
LC-001-100-D00-0
 62
     7
370
    50
100
AcDbLine
 10
-120.175649
 20
488.082899
 30
0.0
 11
-118.375649
 21
488.082899
 31
0.0
  0
LINE
  5
17B
330
1F
100
AcDbEntity
  8
LC-001-100-D00-0
 62
     7
370
    50
100
AcDbLine
 10
-232.475649
 20
488.082899
 30
0.0
 11
-230.675649
 21
488.082899
 31
0.0
  0
LINE
  5
17C
330
1F
100
AcDbEntity
  8
LC-001-100-D00-0
 62
     7
370
    50
100
AcDbLine
 10
-62.177853
 20
415.722885
 30
0.0
 11
-62.177853
 21
417.505806
 31
0.0
  0
LINE
  5
17D
330
1F
100
AcDbEntity
  8
LC-001-100-D00-0
 62
     7
370
    50
100
AcDbLine
 10
-62.177853
 20
467.939964
 30
0.0
 11
-62.177853
 21
469.722885
 31
0.0
  0
LINE
  5
17E
330
1F
100
AcDbEntity
  8
LC-001-100-D00-0
 62
     7
370
    50
100
AcDbLine
 10
-66.177853
 20
469.722885
 30
0.0
 11
-66.177853
 21
467.939964
 31
0.0
  0
LINE
  5
17F
330
1F
100
AcDbEntity
  8
LC-001-100-D00-0
 62
     7
370
    50
100
AcDbLine
 10
-66.177853
 20
417.505806
 30
0.0
 11
-66.177853
 21
415.722885
 31
0.0
  0
LINE
  5
180
330
1F
100
AcDbEntity
  8
LC-001-100-D00-0
 62
     7
370
    50
100
AcDbLine
 10
-135.711234
 20
486.222885
 30
0.0
 11
-135.711234
 21
484.722885
 31
0.0
  0
LINE
  5
181
330
1F
100
AcDbEntity
  8
LC-001-100-D00-0
 62
     7
370
    50
100
AcDbLine
 10
-215.140064
 20
484.722885
 30
0.0
 11
-215.140064
 21
486.222885
 31
0.0
  0
ARC
  5
182
330
1F
100
AcDbEntity
  8
LC-001-100-D00-0
 62
     7
370
    50
100
AcDbCircle
 10
165.574351
 20
393.222885
 30
0.0
 40
0.5000000000003979
100
AcDbArc
 50
90.0
 51
180.0
  0
ARC
  5
183
330
1F
100
AcDbEntity
  8
LC-001-100-D00-0
 62
     7
370
    50
100
AcDbCircle
 10
183.574351
 20
393.222885
 30
0.0
 40
0.4999999999998295
100
AcDbArc
 50
0.0
 51
90.0
  0
LINE
  5
184
330
1F
100
AcDbEntity
  8
LC-001-100-D00-0
 62
     7
370
    50
100
AcDbLine
 10
165.074351
 20
393.222885
 30
0.0
 11
165.074351
 21
385.722885
 31
0.0
  0
LINE
  5
185
330
1F
100
AcDbEntity
  8
LC-001-100-D00-0
 62
     7
370
    50
100
AcDbLine
 10
184.074351
 20
385.722885
 30
0.0
 11
184.074351
 21
393.222885
 31
0.0
  0
ARC
  5
186
330
1F
100
AcDbEntity
  8
LC-001-100-D00-0
 62
     7
370
    50
100
AcDbCircle
 10
-534.425649
 20
393.222885
 30
0.0
 40
0.5000000000001137
100
AcDbArc
 50
90.0
 51
180.0
  0
ARC
  5
187
330
1F
100
AcDbEntity
  8
LC-001-100-D00-0
 62
     7
370
    50
100
AcDbCircle
 10
-516.425649
 20
393.222885
 30
0.0
 40
0.5000000000001137
100
AcDbArc
 50
0.0
 51
90.0
  0
LINE
  5
188
330
1F
100
AcDbEntity
  8
LC-001-100-D00-0
 62
     7
370
    50
100
AcDbLine
 10
-534.925649
 20
393.222885
 30
0.0
 11
-534.925649
 21
385.722885
 31
0.0
  0
LINE
  5
189
330
1F
100
AcDbEntity
  8
LC-001-100-D00-0
 62
     7
370
    50
100
AcDbLine
 10
-515.925649
 20
385.722885
 30
0.0
 11
-515.925649
 21
393.222885
 31
0.0
  0
LINE
  5
18A
330
1F
100
AcDbEntity
  8
LC-001-100-D00-0
 62
     7
370
    50
100
AcDbLine
 10
187.347854
 20
462.722885
 30
0.0
 11
187.347859
 21
487.722887
 31
0.0
  0
LINE
  5
18B
330
1F
100
AcDbEntity
  8
LC-001-100-D00-0
 62
     7
370
    50
100
AcDbLine
 10
161.800861
 20
487.722887
 30
0.0
 11
161.800849
 21
462.722885
 31
0.0
  0
LINE
  5
18C
330
1F
100
AcDbEntity
  8
LC-001-100-D00-0
 62
     7
370
    50
100
AcDbLine
 10
-512.652146
 20
491.722885
 30
0.0
 11
-512.652159
 21
493.222885
 31
0.0
  0
LINE
  5
18D
330
1F
100
AcDbEntity
  8
LC-001-100-D00-0
 62
     7
370
    50
100
AcDbLine
 10
-538.199156
 20
493.222885
 30
0.0
 11
-538.199151
 21
491.722885
 31
0.0
  0
LINE
  5
18E
330
1F
100
AcDbEntity
  8
LC-001-100-D00-0
 62
     7
370
    50
100
AcDbLine
 10
-512.652146
 20
462.722885
 30
0.0
 11
-512.652159
 21
487.722887
 31
0.0
  0
LINE
  5
18F
330
1F
100
AcDbEntity
  8
LC-001-100-D00-0
 62
     7
370
    50
100
AcDbLine
 10
-538.199156
 20
487.722887
 30
0.0
 11
-538.199151
 21
462.722885
 31
0.0
  0
LINE
  5
190
330
1F
100
AcDbEntity
  8
LC-001-100-D00-0
 62
     7
370
    50
100
AcDbLine
 10
187.347854
 20
491.722885
 30
0.0
 11
187.347859
 21
493.222885
 31
0.0
  0
LINE
  5
191
330
1F
100
AcDbEntity
  8
LC-001-100-D00-0
 62
     7
370
    50
100
AcDbLine
 10
161.800861
 20
493.222885
 30
0.0
 11
161.800849
 21
491.722885
 31
0.0
  0
LINE
  5
192
330
1F
100
AcDbEntity
  8
LC-001-100-D00-0
 62
     7
370
    50
100
AcDbLine
 10
-535.425663
 20
491.722885
 30
0.0
 11
-535.425663
 21
491.622886
 31
0.0
  0
LINE
  5
193
330
1F
100
AcDbEntity
  8
LC-001-100-D00-0
 62
     7
370
    50
100
AcDbLine
 10
-535.425663
 20
462.722884
 30
0.0
 11
-535.425649
 21
408.722885
 31
0.0
  0
LINE
  5
194
330
1F
100
AcDbEntity
  8
LC-001-100-D00-0
 62
     7
370
    50
100
AcDbLine
 10
-515.425649
 20
408.722885
 30
0.0
 11
-515.425652
 21
462.722884
 31
0.0
  0
LINE
  5
195
330
1F
100
AcDbEntity
  8
LC-001-100-D00-0
 62
     7
370
    50
100
AcDbLine
 10
-515.425652
 20
491.622886
 30
0.0
 11
-515.425652
 21
491.722885
 31
0.0
  0
LINE
  5
196
330
1F
100
AcDbEntity
  8
LC-001-100-D00-0
 62
     7
370
    50
100
AcDbLine
 10
-535.425649
 20
405.222885
 30
0.0
 11
-535.425649
 21
394.722885
 31
0.0
  0
LINE
  5
197
330
1F
100
AcDbEntity
  8
LC-001-100-D00-0
 62
     7
370
    50
100
AcDbLine
 10
-515.425649
 20
394.722885
 30
0.0
 11
-515.425649
 21
405.222885
 31
0.0
  0
LINE
  5
198
330
1F
100
AcDbEntity
  8
LC-001-100-D00-0
 62
     7
370
    50
100
AcDbLine
 10
-535.425649
 20
394.722885
 30
0.0
 11
-534.425649
 21
393.722885
 31
0.0
  0
LINE
  5
199
330
1F
100
AcDbEntity
  8
LC-001-100-D00-0
 62
     7
370
    50
100
AcDbLine
 10
-516.425649
 20
393.722885
 30
0.0
 11
-515.425649
 21
394.722885
 31
0.0
  0
LINE
  5
19A
330
1F
100
AcDbEntity
  8
LC-001-100-D00-0
 62
     7
370
    50
100
AcDbLine
 10
-533.325642
 20
408.722883
 30
0.0
 11
-533.325642
 21
405.222883
 31
0.0
  0
LINE
  5
19B
330
1F
100
AcDbEntity
  8
LC-001-100-D00-0
 62
     7
370
    50
100
AcDbLine
 10
-517.525643
 20
405.222883
 30
0.0
 11
-517.525643
 21
408.722883
 31
0.0
  0
LINE
  5
19C
330
1F
100
AcDbEntity
  8
LC-001-100-D00-0
 62
     7
370
    50
100
AcDbLine
 10
164.574355
 20
491.722885
 30
0.0
 11
164.574355
 21
491.622886
 31
0.0
  0
LINE
  5
19D
330
1F
100
AcDbEntity
  8
LC-001-100-D00-0
 62
     7
370
    50
100
AcDbLine
 10
164.574355
 20
462.722884
 30
0.0
 11
164.574351
 21
408.722885
 31
0.0
  0
LINE
  5
19E
330
1F
100
AcDbEntity
  8
LC-001-100-D00-0
 62
     7
370
    50
100
AcDbLine
 10
184.574351
 20
408.722885
 30
0.0
 11
184.574366
 21
462.722884
 31
0.0
  0
LINE
  5
19F
330
1F
100
AcDbEntity
  8
LC-001-100-D00-0
 62
     7
370
    50
100
AcDbLine
 10
184.574366
 20
491.622886
 30
0.0
 11
184.574366
 21
491.722885
 31
0.0
  0
LINE
  5
1A0
330
1F
100
AcDbEntity
  8
LC-001-100-D00-0
 62
     7
370
    50
100
AcDbLine
 10
164.574351
 20
405.222885
 30
0.0
 11
164.574351
 21
394.722885
 31
0.0
  0
LINE
  5
1A1
330
1F
100
AcDbEntity
  8
LC-001-100-D00-0
 62
     7
370
    50
100
AcDbLine
 10
184.574351
 20
394.722885
 30
0.0
 11
184.574351
 21
405.222885
 31
0.0
  0
LINE
  5
1A2
330
1F
100
AcDbEntity
  8
LC-001-100-D00-0
 62
     7
370
    50
100
AcDbLine
 10
164.574351
 20
394.722885
 30
0.0
 11
165.574351
 21
393.722885
 31
0.0
  0
LINE
  5
1A3
330
1F
100
AcDbEntity
  8
LC-001-100-D00-0
 62
     7
370
    50
100
AcDbLine
 10
183.574351
 20
393.722885
 30
0.0
 11
184.574351
 21
394.722885
 31
0.0
  0
LINE
  5
1A4
330
1F
100
AcDbEntity
  8
LC-001-100-D00-0
 62
     7
370
    50
100
AcDbLine
 10
166.674346
 20
408.722883
 30
0.0
 11
166.674346
 21
405.222883
 31
0.0
  0
LINE
  5
1A5
330
1F
100
AcDbEntity
  8
LC-001-100-D00-0
 62
     7
370
    50
100
AcDbLine
 10
182.474345
 20
405.222883
 30
0.0
 11
182.474345
 21
408.722883
 31
0.0
  0
LINE
  5
1A6
330
1F
100
AcDbEntity
  8
LC-001-100-D00-0
 62
     7
370
    50
100
AcDbLine
 10
243.107685
 20
503.991652
 30
0.0
 11
243.107685
 21
506.454119
 31
0.0
  0
ARC
  5
1A7
330
1F
100
AcDbEntity
  8
LC-001-100-D00-0
 62
     7
370
    50
100
AcDbCircle
 10
243.707685
 20
503.991652
 30
0.0
 40
0.6000000000002785
100
AcDbArc
 50
180.0
 51
255.0
  0
LINE
  5
1A8
330
1F
100
AcDbEntity
  8
LC-001-100-D00-0
 62
     7
370
    50
100
AcDbLine
 10
244.258523
 20
503.222884
 30
0.0
 11
243.552393
 21
503.412096
 31
0.0
  0
LINE
  5
1A9
330
1F
100
AcDbEntity
  8
LC-001-100-D00-0
 62
     7
370
    50
100
AcDbLine
 10
244.258523
 20
503.222884
 30
0.0
 11
244.258523
 21
501.222886
 31
0.0
  0
LINE
  5
1AA
330
1F
100
AcDbEntity
  8
LC-001-100-D00-0
 62
     7
370
    50
100
AcDbLine
 10
241.307685
 20
502.222885
 30
0.0
 11
242.307685
 21
501.222885
 31
0.0
  0
LINE
  5
1AB
330
1F
100
AcDbEntity
  8
LC-001-100-D00-0
 62
     7
370
    50
100
AcDbLine
 10
241.307685
 20
502.222885
 30
0.0
 11
241.307676
 21
508.222885
 31
0.0
  0
LINE
  5
1AC
330
1F
100
AcDbEntity
  8
LC-001-100-D00-0
 62
     7
370
    50
100
AcDbLine
 10
242.307693
 20
509.222885
 30
0.0
 11
241.307676
 21
508.222885
 31
0.0
  0
LINE
  5
1AD
330
1F
100
AcDbEntity
  8
LC-001-100-D00-0
 62
     7
370
    50
100
AcDbLine
 10
244.258523
 20
509.222885
 30
0.0
 11
244.258523
 21
507.222885
 31
0.0
  0
LINE
  5
1AE
330
1F
100
AcDbEntity
  8
LC-001-100-D00-0
 62
     7
370
    50
100
AcDbLine
 10
243.552393
 20
507.033675
 30
0.0
 11
244.258523
 21
507.222885
 31
0.0
  0
ARC
  5
1AF
330
1F
100
AcDbEntity
  8
LC-001-100-D00-0
 62
     7
370
    50
100
AcDbCircle
 10
243.707685
 20
506.454119
 30
0.0
 40
0.6000000000001621
100
AcDbArc
 50
105.0
 51
180.0
  0
LINE
  5
1B0
330
1F
100
AcDbEntity
  8
LC-001-100-D00-0
 62
     7
370
    50
100
AcDbLine
 10
242.307685
 20
501.222885
 30
0.0
 11
244.258523
 21
501.222886
 31
0.0
  0
LINE
  5
1B1
330
1F
100
AcDbEntity
  8
LC-001-100-D00-0
 62
     7
370
    50
100
AcDbLine
 10
242.307693
 20
509.222885
 30
0.0
 11
244.258523
 21
509.222885
 31
0.0
  0
LINE
  5
1B2
330
1F
100
AcDbEntity
  8
LC-001-100-D00-0
 62
     7
370
    50
100
AcDbLine
 10
234.50768
 20
508.222885
 30
0.0
 11
233.507693
 21
509.222885
 31
0.0
  0
LINE
  5
1B3
330
1F
100
AcDbEntity
  8
LC-001-100-D00-0
 62
     7
370
    50
100
AcDbLine
 10
233.507685
 20
501.222885
 30
0.0
 11
234.507685
 21
502.222885
 31
0.0
  0
LINE
  5
1B4
330
1F
100
AcDbEntity
  8
LC-001-100-D00-0
 62
     7
370
    50
100
AcDbLine
 10
234.507685
 20
502.222885
 30
0.0
 11
234.665524
 21
502.222885
 31
0.0
  0
LINE
  5
1B5
330
1F
100
AcDbEntity
  8
LC-001-100-D00-0
 62
     7
370
    50
100
AcDbLine
 10
241.149845
 20
502.222885
 30
0.0
 11
241.307685
 21
502.222885
 31
0.0
  0
LINE
  5
1B6
330
1F
100
AcDbEntity
  8
LC-001-100-D00-0
 62
     7
370
    50
100
AcDbLine
 10
242.307685
 20
501.222885
 30
0.0
 11
241.771903
 21
501.222885
 31
0.0
  0
LINE
  5
1B7
330
1F
100
AcDbEntity
  8
LC-001-100-D00-0
 62
     7
370
    50
100
AcDbLine
 10
234.043466
 20
501.222885
 30
0.0
 11
233.507685
 21
501.222885
 31
0.0
  0
LINE
  5
1B8
330
1F
100
AcDbEntity
  8
LC-001-100-D00-0
 62
     7
370
    50
100
AcDbLine
 10
234.50768
 20
508.222885
 30
0.0
 11
234.507685
 21
502.222885
 31
0.0
  0
LINE
  5
1B9
330
1F
100
AcDbEntity
  8
LC-001-100-D00-0
 62
     7
370
    50
100
AcDbLine
 10
231.556833
 20
503.222884
 30
0.0
 11
231.556833
 21
501.222886
 31
0.0
  0
LINE
  5
1BA
330
1F
100
AcDbEntity
  8
LC-001-100-D00-0
 62
     7
370
    50
100
AcDbLine
 10
232.262976
 20
503.412096
 30
0.0
 11
231.556833
 21
503.222884
 31
0.0
  0
ARC
  5
1BB
330
1F
100
AcDbEntity
  8
LC-001-100-D00-0
 62
     7
370
    50
100
AcDbCircle
 10
232.107685
 20
503.991652
 30
0.0
 40
0.5999999999999787
100
AcDbArc
 50
285.0
 51
0.0
  0
LINE
  5
1BC
330
1F
100
AcDbEntity
  8
LC-001-100-D00-0
 62
     7
370
    50
100
AcDbLine
 10
232.707685
 20
506.454119
 30
0.0
 11
232.707685
 21
503.991652
 31
0.0
  0
ARC
  5
1BD
330
1F
100
AcDbEntity
  8
LC-001-100-D00-0
 62
     7
370
    50
100
AcDbCircle
 10
232.107685
 20
506.454119
 30
0.0
 40
0.6000000000002501
100
AcDbArc
 50
0.0
 51
75.0
  0
LINE
  5
1BE
330
1F
100
AcDbEntity
  8
LC-001-100-D00-0
 62
     7
370
    50
100
AcDbLine
 10
231.556833
 20
507.222885
 30
0.0
 11
232.262976
 21
507.033675
 31
0.0
  0
LINE
  5
1BF
330
1F
100
AcDbEntity
  8
LC-001-100-D00-0
 62
     7
370
    50
100
AcDbLine
 10
231.556833
 20
509.222885
 30
0.0
 11
231.556833
 21
507.222885
 31
0.0
  0
LINE
  5
1C0
330
1F
100
AcDbEntity
  8
LC-001-100-D00-0
 62
     7
370
    50
100
AcDbLine
 10
231.556833
 20
501.222886
 30
0.0
 11
233.507685
 21
501.222885
 31
0.0
  0
LINE
  5
1C1
330
1F
100
AcDbEntity
  8
LC-001-100-D00-0
 62
     7
370
    50
100
AcDbLine
 10
231.556833
 20
509.222885
 30
0.0
 11
233.507693
 21
509.222885
 31
0.0
  0
LINE
  5
1C2
330
1F
100
AcDbEntity
  8
LC-001-100-D00-0
 62
     7
370
    50
100
AcDbLine
 10
244.258523
 20
509.222885
 30
0.0
 11
241.807699
 21
509.222885
 31
0.0
  0
LINE
  5
1C3
330
1F
100
AcDbEntity
  8
LC-001-100-D00-0
 62
     7
370
    50
100
AcDbLine
 10
241.807699
 20
509.222885
 30
0.0
 11
241.807685
 21
520.222885
 31
0.0
  0
LINE
  5
1C4
330
1F
100
AcDbEntity
  8
LC-001-100-D00-0
 62
     7
370
    50
100
AcDbLine
 10
241.807685
 20
520.222885
 30
0.0
 11
255.157685
 21
520.222885
 31
0.0
  0
LINE
  5
1C5
330
1F
100
AcDbEntity
  8
LC-001-100-D00-0
 62
     7
370
    50
100
AcDbLine
 10
253.157685
 20
513.222885
 30
0.0
 11
253.157675
 21
517.222885
 31
0.0
  0
LINE
  5
1C6
330
1F
100
AcDbEntity
  8
LC-001-100-D00-0
 62
     7
370
    50
100
AcDbLine
 10
248.657685
 20
517.222885
 30
0.0
 11
253.157675
 21
517.222885
 31
0.0
  0
ARC
  5
1C7
330
1F
100
AcDbEntity
  8
LC-001-100-D00-0
 62
     7
370
    50
100
AcDbCircle
 10
248.657685
 20
516.222885
 30
0.0
 40
1.000000000000114
100
AcDbArc
 50
90.0
 51
180.0
  0
LINE
  5
1C8
330
1F
100
AcDbEntity
  8
LC-001-100-D00-0
 62
     7
370
    50
100
AcDbLine
 10
247.657685
 20
502.222885
 30
0.0
 11
247.657685
 21
516.222885
 31
0.0
  0
ARC
  5
1C9
330
1F
100
AcDbEntity
  8
LC-001-100-D00-0
 62
     7
370
    50
100
AcDbCircle
 10
246.657685
 20
502.222885
 30
0.0
 40
1.000000000000114
100
AcDbArc
 50
270.0
 51
0.0
  0
LINE
  5
1CA
330
1F
100
AcDbEntity
  8
LC-001-100-D00-0
 62
     7
370
    50
100
AcDbLine
 10
246.657685
 20
501.222885
 30
0.0
 11
244.258523
 21
501.222886
 31
0.0
  0
LINE
  5
1CB
330
1F
100
AcDbEntity
  8
LC-001-100-D00-0
 62
     7
370
    50
100
AcDbLine
 10
244.258523
 20
503.222884
 30
0.0
 11
244.258523
 21
501.222886
 31
0.0
  0
LINE
  5
1CC
330
1F
100
AcDbEntity
  8
LC-001-100-D00-0
 62
     7
370
    50
100
AcDbLine
 10
243.607685
 20
503.222885
 30
0.0
 11
244.258523
 21
503.222884
 31
0.0
  0
ARC
  5
1CD
330
1F
100
AcDbEntity
  8
LC-001-100-D00-0
 62
     7
370
    50
100
AcDbCircle
 10
243.607685
 20
503.722885
 30
0.0
 40
0.5000000000000853
100
AcDbArc
 50
180.0
 51
270.0
  0
LINE
  5
1CE
330
1F
100
AcDbEntity
  8
LC-001-100-D00-0
 62
     7
370
    50
100
AcDbLine
 10
243.107685
 20
506.722885
 30
0.0
 11
243.107685
 21
503.722885
 31
0.0
  0
ARC
  5
1CF
330
1F
100
AcDbEntity
  8
LC-001-100-D00-0
 62
     7
370
    50
100
AcDbCircle
 10
243.607685
 20
506.722885
 30
0.0
 40
0.4999999999998863
100
AcDbArc
 50
90.0
 51
180.0
  0
LINE
  5
1D0
330
1F
100
AcDbEntity
  8
LC-001-100-D00-0
 62
     7
370
    50
100
AcDbLine
 10
244.258523
 20
507.222885
 30
0.0
 11
243.607685
 21
507.222885
 31
0.0
  0
LINE
  5
1D1
330
1F
100
AcDbEntity
  8
LC-001-100-D00-0
 62
     7
370
    50
100
AcDbLine
 10
244.258523
 20
509.222885
 30
0.0
 11
244.258523
 21
507.222885
 31
0.0
  0
LINE
  5
1D2
330
1F
100
AcDbEntity
  8
LC-001-100-D00-0
 62
     7
370
    50
100
AcDbLine
 10
253.157685
 20
513.222885
 30
0.0
 11
256.157696
 21
513.222885
 31
0.0
  0
LINE
  5
1D3
330
1F
100
AcDbEntity
  8
LC-001-100-D00-0
 62
     7
370
    50
100
AcDbLine
 10
256.157685
 20
519.222885
 30
0.0
 11
256.157696
 21
513.222885
 31
0.0
  0
ARC
  5
1D4
330
1F
100
AcDbEntity
  8
LC-001-100-D00-0
 62
     7
370
    50
100
AcDbCircle
 10
255.157685
 20
519.222885
 30
0.0
 40
0.9999999999999432
100
AcDbArc
 50
0.0
 51
90.0
  0
ARC
  5
1D5
330
1F
100
AcDbEntity
  8
LC-001-100-D00-0
 62
     7
370
    50
100
AcDbCircle
 10
227.157685
 20
516.222885
 30
0.0
 40
0.9999999999999147
100
AcDbArc
 50
0.0
 51
90.0
  0
LINE
  5
1D6
330
1F
100
AcDbEntity
  8
LC-001-100-D00-0
 62
     7
370
    50
100
AcDbLine
 10
228.157685
 20
516.222885
 30
0.0
 11
228.157685
 21
502.222885
 31
0.0
  0
ARC
  5
1D7
330
1F
100
AcDbEntity
  8
LC-001-100-D00-0
 62
     7
370
    50
100
AcDbCircle
 10
229.157685
 20
502.222885
 30
0.0
 40
1.000000000000199
100
AcDbArc
 50
180.0
 51
270.0
  0
LINE
  5
1D8
330
1F
100
AcDbEntity
  8
LC-001-100-D00-0
 62
     7
370
    50
100
AcDbLine
 10
234.007685
 20
520.222885
 30
0.0
 11
234.007686
 21
509.222885
 31
0.0
  0
LINE
  5
1D9
330
1F
100
AcDbEntity
  8
LC-001-100-D00-0
 62
     7
370
    50
100
AcDbLine
 10
234.007685
 20
520.222885
 30
0.0
 11
241.807685
 21
520.222885
 31
0.0
  0
LINE
  5
1DA
330
1F
100
AcDbEntity
  8
LC-001-100-D00-0
 62
     7
370
    50
100
AcDbLine
 10
232.707685
 20
503.722885
 30
0.0
 11
232.707685
 21
506.722885
 31
0.0
  0
ARC
  5
1DB
330
1F
100
AcDbEntity
  8
LC-001-100-D00-0
 62
     7
370
    50
100
AcDbCircle
 10
232.207685
 20
503.722885
 30
0.0
 40
0.5000000000003411
100
AcDbArc
 50
270.0
 51
0.0
  0
LINE
  5
1DC
330
1F
100
AcDbEntity
  8
LC-001-100-D00-0
 62
     7
370
    50
100
AcDbLine
 10
231.556833
 20
503.222884
 30
0.0
 11
232.207685
 21
503.222885
 31
0.0
  0
LINE
  5
1DD
330
1F
100
AcDbEntity
  8
LC-001-100-D00-0
 62
     7
370
    50
100
AcDbLine
 10
231.556833
 20
503.222884
 30
0.0
 11
231.556833
 21
501.222886
 31
0.0
  0
LINE
  5
1DE
330
1F
100
AcDbEntity
  8
LC-001-100-D00-0
 62
     7
370
    50
100
AcDbLine
 10
222.657681
 20
517.222885
 30
0.0
 11
222.657685
 21
513.222885
 31
0.0
  0
LINE
  5
1DF
330
1F
100
AcDbEntity
  8
LC-001-100-D00-0
 62
     7
370
    50
100
AcDbLine
 10
219.657689
 20
513.222885
 30
0.0
 11
219.657685
 21
519.222885
 31
0.0
  0
ARC
  5
1E0
330
1F
100
AcDbEntity
  8
LC-001-100-D00-0
 62
     7
370
    50
100
AcDbCircle
 10
220.657685
 20
519.222885
 30
0.0
 40
0.9999999999998863
100
AcDbArc
 50
90.0
 51
180.0
  0
LINE
  5
1E1
330
1F
100
AcDbEntity
  8
LC-001-100-D00-0
 62
     7
370
    50
100
AcDbLine
 10
231.556833
 20
509.222885
 30
0.0
 11
231.556833
 21
507.222885
 31
0.0
  0
LINE
  5
1E2
330
1F
100
AcDbEntity
  8
LC-001-100-D00-0
 62
     7
370
    50
100
AcDbLine
 10
232.207685
 20
507.222885
 30
0.0
 11
231.556833
 21
507.222885
 31
0.0
  0
ARC
  5
1E3
330
1F
100
AcDbEntity
  8
LC-001-100-D00-0
 62
     7
370
    50
100
AcDbCircle
 10
232.207685
 20
506.722885
 30
0.0
 40
0.5000000000001137
100
AcDbArc
 50
0.0
 51
90.0
  0
LINE
  5
1E4
330
1F
100
AcDbEntity
  8
LC-001-100-D00-0
 62
     7
370
    50
100
AcDbLine
 10
231.556833
 20
501.222886
 30
0.0
 11
229.157685
 21
501.222885
 31
0.0
  0
LINE
  5
1E5
330
1F
100
AcDbEntity
  8
LC-001-100-D00-0
 62
     7
370
    50
100
AcDbLine
 10
234.007686
 20
509.222885
 30
0.0
 11
231.556833
 21
509.222885
 31
0.0
  0
LINE
  5
1E6
330
1F
100
AcDbEntity
  8
LC-001-100-D00-0
 62
     7
370
    50
100
AcDbLine
 10
222.657681
 20
517.222885
 30
0.0
 11
227.157685
 21
517.222885
 31
0.0
  0
LINE
  5
1E7
330
1F
100
AcDbEntity
  8
LC-001-100-D00-0
 62
     7
370
    50
100
AcDbLine
 10
220.657685
 20
520.222885
 30
0.0
 11
234.007685
 21
520.222885
 31
0.0
  0
LINE
  5
1E8
330
1F
100
AcDbEntity
  8
LC-001-100-D00-0
 62
     7
370
    50
100
AcDbLine
 10
219.657689
 20
513.222885
 30
0.0
 11
222.657685
 21
513.222885
 31
0.0
  0
LINE
  5
1E9
330
1F
100
AcDbEntity
  8
LC-001-100-D00-0
 62
     7
370
    50
100
AcDbLine
 10
251.157685
 20
513.222885
 30
0.0
 11
253.157685
 21
513.222885
 31
0.0
  0
LINE
  5
1EA
330
1F
100
AcDbEntity
  8
LC-001-100-D00-0
 62
     7
370
    50
100
AcDbLine
 10
222.657685
 20
513.222885
 30
0.0
 11
224.657685
 21
513.222885
 31
0.0
  0
LINE
  5
1EB
330
1F
100
AcDbEntity
  8
LC-001-100-D00-0
 62
     7
370
    50
100
AcDbLine
 10
224.657685
 20
513.222885
 30
0.0
 11
228.157699
 21
513.222885
 31
0.0
  0
LINE
  5
1EC
330
1F
100
AcDbEntity
  8
LC-001-100-D00-0
 62
     7
370
    50
100
AcDbLine
 10
247.657687
 20
513.222885
 30
0.0
 11
251.157685
 21
513.222885
 31
0.0
  0
LINE
  5
1ED
330
1F
100
AcDbEntity
  8
LC-001-100-D00-0
 62
     7
370
    50
100
AcDbLine
 10
-583.558982
 20
503.991652
 30
0.0
 11
-583.558982
 21
506.454119
 31
0.0
  0
ARC
  5
1EE
330
1F
100
AcDbEntity
  8
LC-001-100-D00-0
 62
     7
370
    50
100
AcDbCircle
 10
-582.958982
 20
503.991652
 30
0.0
 40
0.6000000000000227
100
AcDbArc
 50
180.0
 51
255.0
  0
LINE
  5
1EF
330
1F
100
AcDbEntity
  8
LC-001-100-D00-0
 62
     7
370
    50
100
AcDbLine
 10
-582.40813
 20
503.222884
 30
0.0
 11
-583.114273
 21
503.412096
 31
0.0
  0
LINE
  5
1F0
330
1F
100
AcDbEntity
  8
LC-001-100-D00-0
 62
     7
370
    50
100
AcDbLine
 10
-582.40813
 20
503.222884
 30
0.0
 11
-582.40813
 21
501.222886
 31
0.0
  0
LINE
  5
1F1
330
1F
100
AcDbEntity
  8
LC-001-100-D00-0
 62
     7
370
    50
100
AcDbLine
 10
-585.358982
 20
502.222885
 30
0.0
 11
-584.358982
 21
501.222885
 31
0.0
  0
LINE
  5
1F2
330
1F
100
AcDbEntity
  8
LC-001-100-D00-0
 62
     7
370
    50
100
AcDbLine
 10
-585.358982
 20
502.222885
 30
0.0
 11
-585.358977
 21
508.222885
 31
0.0
  0
LINE
  5
1F3
330
1F
100
AcDbEntity
  8
LC-001-100-D00-0
 62
     7
370
    50
100
AcDbLine
 10
-584.35899
 20
509.222885
 30
0.0
 11
-585.358977
 21
508.222885
 31
0.0
  0
LINE
  5
1F4
330
1F
100
AcDbEntity
  8
LC-001-100-D00-0
 62
     7
370
    50
100
AcDbLine
 10
-582.40813
 20
509.222885
 30
0.0
 11
-582.40813
 21
507.222885
 31
0.0
  0
LINE
  5
1F5
330
1F
100
AcDbEntity
  8
LC-001-100-D00-0
 62
     7
370
    50
100
AcDbLine
 10
-583.114273
 20
507.033675
 30
0.0
 11
-582.40813
 21
507.222885
 31
0.0
  0
ARC
  5
1F6
330
1F
100
AcDbEntity
  8
LC-001-100-D00-0
 62
     7
370
    50
100
AcDbCircle
 10
-582.958982
 20
506.454119
 30
0.0
 40
0.6000000000001474
100
AcDbArc
 50
105.0
 51
180.0
  0
LINE
  5
1F7
330
1F
100
AcDbEntity
  8
LC-001-100-D00-0
 62
     7
370
    50
100
AcDbLine
 10
-584.358982
 20
501.222885
 30
0.0
 11
-582.40813
 21
501.222886
 31
0.0
  0
LINE
  5
1F8
330
1F
100
AcDbEntity
  8
LC-001-100-D00-0
 62
     7
370
    50
100
AcDbLine
 10
-584.35899
 20
509.222885
 30
0.0
 11
-582.40813
 21
509.222885
 31
0.0
  0
LINE
  5
1F9
330
1F
100
AcDbEntity
  8
LC-001-100-D00-0
 62
     7
370
    50
100
AcDbLine
 10
-592.158973
 20
508.222885
 30
0.0
 11
-593.15899
 21
509.222885
 31
0.0
  0
LINE
  5
1FA
330
1F
100
AcDbEntity
  8
LC-001-100-D00-0
 62
     7
370
    50
100
AcDbLine
 10
-593.158982
 20
501.222885
 30
0.0
 11
-592.158982
 21
502.222885
 31
0.0
  0
LINE
  5
1FB
330
1F
100
AcDbEntity
  8
LC-001-100-D00-0
 62
     7
370
    50
100
AcDbLine
 10
-592.158982
 20
502.222885
 30
0.0
 11
-592.001142
 21
502.222885
 31
0.0
  0
LINE
  5
1FC
330
1F
100
AcDbEntity
  8
LC-001-100-D00-0
 62
     7
370
    50
100
AcDbLine
 10
-585.516822
 20
502.222885
 30
0.0
 11
-585.358982
 21
502.222885
 31
0.0
  0
LINE
  5
1FD
330
1F
100
AcDbEntity
  8
LC-001-100-D00-0
 62
     7
370
    50
100
AcDbLine
 10
-584.358982
 20
501.222885
 30
0.0
 11
-584.894764
 21
501.222885
 31
0.0
  0
LINE
  5
1FE
330
1F
100
AcDbEntity
  8
LC-001-100-D00-0
 62
     7
370
    50
100
AcDbLine
 10
-592.6232
 20
501.222885
 30
0.0
 11
-593.158982
 21
501.222885
 31
0.0
  0
LINE
  5
1FF
330
1F
100
AcDbEntity
  8
LC-001-100-D00-0
 62
     7
370
    50
100
AcDbLine
 10
-592.158973
 20
508.222885
 30
0.0
 11
-592.158982
 21
502.222885
 31
0.0
  0
LINE
  5
200
330
1F
100
AcDbEntity
  8
LC-001-100-D00-0
 62
     7
370
    50
100
AcDbLine
 10
-595.10982
 20
503.222884
 30
0.0
 11
-595.10982
 21
501.222886
 31
0.0
  0
LINE
  5
201
330
1F
100
AcDbEntity
  8
LC-001-100-D00-0
 62
     7
370
    50
100
AcDbLine
 10
-594.403691
 20
503.412096
 30
0.0
 11
-595.10982
 21
503.222884
 31
0.0
  0
ARC
  5
202
330
1F
100
AcDbEntity
  8
LC-001-100-D00-0
 62
     7
370
    50
100
AcDbCircle
 10
-594.558982
 20
503.991652
 30
0.0
 40
0.6000000000001984
100
AcDbArc
 50
285.0
 51
0.0
  0
LINE
  5
203
330
1F
100
AcDbEntity
  8
LC-001-100-D00-0
 62
     7
370
    50
100
AcDbLine
 10
-593.958982
 20
506.454119
 30
0.0
 11
-593.958982
 21
503.991652
 31
0.0
  0
ARC
  5
204
330
1F
100
AcDbEntity
  8
LC-001-100-D00-0
 62
     7
370
    50
100
AcDbCircle
 10
-594.558982
 20
506.454119
 30
0.0
 40
0.6000000000001364
100
AcDbArc
 50
0.0
 51
75.0
  0
LINE
  5
205
330
1F
100
AcDbEntity
  8
LC-001-100-D00-0
 62
     7
370
    50
100
AcDbLine
 10
-595.10982
 20
507.222885
 30
0.0
 11
-594.403691
 21
507.033675
 31
0.0
  0
LINE
  5
206
330
1F
100
AcDbEntity
  8
LC-001-100-D00-0
 62
     7
370
    50
100
AcDbLine
 10
-595.10982
 20
509.222885
 30
0.0
 11
-595.10982
 21
507.222885
 31
0.0
  0
LINE
  5
207
330
1F
100
AcDbEntity
  8
LC-001-100-D00-0
 62
     7
370
    50
100
AcDbLine
 10
-595.10982
 20
501.222886
 30
0.0
 11
-593.158982
 21
501.222885
 31
0.0
  0
LINE
  5
208
330
1F
100
AcDbEntity
  8
LC-001-100-D00-0
 62
     7
370
    50
100
AcDbLine
 10
-595.10982
 20
509.222885
 30
0.0
 11
-593.15899
 21
509.222885
 31
0.0
  0
LINE
  5
209
330
1F
100
AcDbEntity
  8
LC-001-100-D00-0
 62
     7
370
    50
100
AcDbLine
 10
-582.40813
 20
509.222885
 30
0.0
 11
-584.858984
 21
509.222885
 31
0.0
  0
LINE
  5
20A
330
1F
100
AcDbEntity
  8
LC-001-100-D00-0
 62
     7
370
    50
100
AcDbLine
 10
-584.858984
 20
509.222885
 30
0.0
 11
-584.858982
 21
520.222885
 31
0.0
  0
LINE
  5
20B
330
1F
100
AcDbEntity
  8
LC-001-100-D00-0
 62
     7
370
    50
100
AcDbLine
 10
-584.858982
 20
520.222885
 30
0.0
 11
-571.508982
 21
520.222885
 31
0.0
  0
LINE
  5
20C
330
1F
100
AcDbEntity
  8
LC-001-100-D00-0
 62
     7
370
    50
100
AcDbLine
 10
-573.508982
 20
513.222885
 30
0.0
 11
-570.508987
 21
513.222885
 31
0.0
  0
LINE
  5
20D
330
1F
100
AcDbEntity
  8
LC-001-100-D00-0
 62
     7
370
    50
100
AcDbLine
 10
-573.508982
 20
513.222885
 30
0.0
 11
-573.508978
 21
517.222885
 31
0.0
  0
LINE
  5
20E
330
1F
100
AcDbEntity
  8
LC-001-100-D00-0
 62
     7
370
    50
100
AcDbLine
 10
-578.008982
 20
517.222885
 30
0.0
 11
-573.508978
 21
517.222885
 31
0.0
  0
ARC
  5
20F
330
1F
100
AcDbEntity
  8
LC-001-100-D00-0
 62
     7
370
    50
100
AcDbCircle
 10
-578.008982
 20
516.222885
 30
0.0
 40
1.000000000000114
100
AcDbArc
 50
90.0
 51
180.0
  0
LINE
  5
210
330
1F
100
AcDbEntity
  8
LC-001-100-D00-0
 62
     7
370
    50
100
AcDbLine
 10
-579.008982
 20
502.222885
 30
0.0
 11
-579.008982
 21
516.222885
 31
0.0
  0
ARC
  5
211
330
1F
100
AcDbEntity
  8
LC-001-100-D00-0
 62
     7
370
    50
100
AcDbCircle
 10
-580.008982
 20
502.222885
 30
0.0
 40
1.000000000000114
100
AcDbArc
 50
270.0
 51
0.0
  0
LINE
  5
212
330
1F
100
AcDbEntity
  8
LC-001-100-D00-0
 62
     7
370
    50
100
AcDbLine
 10
-580.008982
 20
501.222885
 30
0.0
 11
-582.40813
 21
501.222886
 31
0.0
  0
LINE
  5
213
330
1F
100
AcDbEntity
  8
LC-001-100-D00-0
 62
     7
370
    50
100
AcDbLine
 10
-582.40813
 20
503.222884
 30
0.0
 11
-582.40813
 21
501.222886
 31
0.0
  0
LINE
  5
214
330
1F
100
AcDbEntity
  8
LC-001-100-D00-0
 62
     7
370
    50
100
AcDbLine
 10
-583.058982
 20
503.222885
 30
0.0
 11
-582.40813
 21
503.222884
 31
0.0
  0
ARC
  5
215
330
1F
100
AcDbEntity
  8
LC-001-100-D00-0
 62
     7
370
    50
100
AcDbCircle
 10
-583.058982
 20
503.722885
 30
0.0
 40
0.5000000000002274
100
AcDbArc
 50
180.0
 51
270.0
  0
LINE
  5
216
330
1F
100
AcDbEntity
  8
LC-001-100-D00-0
 62
     7
370
    50
100
AcDbLine
 10
-583.558982
 20
506.722885
 30
0.0
 11
-583.558982
 21
503.722885
 31
0.0
  0
ARC
  5
217
330
1F
100
AcDbEntity
  8
LC-001-100-D00-0
 62
     7
370
    50
100
AcDbCircle
 10
-583.058982
 20
506.722885
 30
0.0
 40
0.4999999999998863
100
AcDbArc
 50
90.0
 51
180.0
  0
LINE
  5
218
330
1F
100
AcDbEntity
  8
LC-001-100-D00-0
 62
     7
370
    50
100
AcDbLine
 10
-582.40813
 20
507.222885
 30
0.0
 11
-583.058982
 21
507.222885
 31
0.0
  0
LINE
  5
219
330
1F
100
AcDbEntity
  8
LC-001-100-D00-0
 62
     7
370
    50
100
AcDbLine
 10
-582.40813
 20
509.222885
 30
0.0
 11
-582.40813
 21
507.222885
 31
0.0
  0
LINE
  5
21A
330
1F
100
AcDbEntity
  8
LC-001-100-D00-0
 62
     7
370
    50
100
AcDbLine
 10
-570.508982
 20
519.222885
 30
0.0
 11
-570.508987
 21
513.222885
 31
0.0
  0
ARC
  5
21B
330
1F
100
AcDbEntity
  8
LC-001-100-D00-0
 62
     7
370
    50
100
AcDbCircle
 10
-571.508982
 20
519.222885
 30
0.0
 40
1.000000000000114
100
AcDbArc
 50
0.0
 51
90.0
  0
ARC
  5
21C
330
1F
100
AcDbEntity
  8
LC-001-100-D00-0
 62
     7
370
    50
100
AcDbCircle
 10
-599.508982
 20
516.222885
 30
0.0
 40
0.9999999999998863
100
AcDbArc
 50
0.0
 51
90.0
  0
LINE
  5
21D
330
1F
100
AcDbEntity
  8
LC-001-100-D00-0
 62
     7
370
    50
100
AcDbLine
 10
-598.508982
 20
516.222885
 30
0.0
 11
-598.508982
 21
502.222885
 31
0.0
  0
ARC
  5
21E
330
1F
100
AcDbEntity
  8
LC-001-100-D00-0
 62
     7
370
    50
100
AcDbCircle
 10
-597.508982
 20
502.222885
 30
0.0
 40
0.9999999999998863
100
AcDbArc
 50
180.0
 51
270.0
  0
LINE
  5
21F
330
1F
100
AcDbEntity
  8
LC-001-100-D00-0
 62
     7
370
    50
100
AcDbLine
 10
-592.658982
 20
520.222885
 30
0.0
 11
-592.658997
 21
509.222885
 31
0.0
  0
LINE
  5
220
330
1F
100
AcDbEntity
  8
LC-001-100-D00-0
 62
     7
370
    50
100
AcDbLine
 10
-592.658982
 20
520.222885
 30
0.0
 11
-584.858982
 21
520.222885
 31
0.0
  0
LINE
  5
221
330
1F
100
AcDbEntity
  8
LC-001-100-D00-0
 62
     7
370
    50
100
AcDbLine
 10
-593.958982
 20
503.722885
 30
0.0
 11
-593.958982
 21
506.722885
 31
0.0
  0
ARC
  5
222
330
1F
100
AcDbEntity
  8
LC-001-100-D00-0
 62
     7
370
    50
100
AcDbCircle
 10
-594.458982
 20
503.722885
 30
0.0
 40
0.5000000000003411
100
AcDbArc
 50
270.0
 51
0.0
  0
LINE
  5
223
330
1F
100
AcDbEntity
  8
LC-001-100-D00-0
 62
     7
370
    50
100
AcDbLine
 10
-595.10982
 20
503.222884
 30
0.0
 11
-594.458982
 21
503.222885
 31
0.0
  0
LINE
  5
224
330
1F
100
AcDbEntity
  8
LC-001-100-D00-0
 62
     7
370
    50
100
AcDbLine
 10
-595.10982
 20
503.222884
 30
0.0
 11
-595.10982
 21
501.222886
 31
0.0
  0
LINE
  5
225
330
1F
100
AcDbEntity
  8
LC-001-100-D00-0
 62
     7
370
    50
100
AcDbLine
 10
-604.008973
 20
517.222885
 30
0.0
 11
-604.008982
 21
513.222885
 31
0.0
  0
LINE
  5
226
330
1F
100
AcDbEntity
  8
LC-001-100-D00-0
 62
     7
370
    50
100
AcDbLine
 10
-607.008994
 20
513.222885
 30
0.0
 11
-607.008982
 21
519.222885
 31
0.0
  0
ARC
  5
227
330
1F
100
AcDbEntity
  8
LC-001-100-D00-0
 62
     7
370
    50
100
AcDbCircle
 10
-606.008982
 20
519.222885
 30
0.0
 40
1.000000000000114
100
AcDbArc
 50
90.0
 51
180.0
  0
LINE
  5
228
330
1F
100
AcDbEntity
  8
LC-001-100-D00-0
 62
     7
370
    50
100
AcDbLine
 10
-595.10982
 20
509.222885
 30
0.0
 11
-595.10982
 21
507.222885
 31
0.0
  0
LINE
  5
229
330
1F
100
AcDbEntity
  8
LC-001-100-D00-0
 62
     7
370
    50
100
AcDbLine
 10
-594.458982
 20
507.222885
 30
0.0
 11
-595.10982
 21
507.222885
 31
0.0
  0
ARC
  5
22A
330
1F
100
AcDbEntity
  8
LC-001-100-D00-0
 62
     7
370
    50
100
AcDbCircle
 10
-594.458982
 20
506.722885
 30
0.0
 40
0.5000000000001137
100
AcDbArc
 50
0.0
 51
90.0
  0
LINE
  5
22B
330
1F
100
AcDbEntity
  8
LC-001-100-D00-0
 62
     7
370
    50
100
AcDbLine
 10
-595.10982
 20
501.222886
 30
0.0
 11
-597.508982
 21
501.222885
 31
0.0
  0
LINE
  5
22C
330
1F
100
AcDbEntity
  8
LC-001-100-D00-0
 62
     7
370
    50
100
AcDbLine
 10
-592.658997
 20
509.222885
 30
0.0
 11
-595.10982
 21
509.222885
 31
0.0
  0
LINE
  5
22D
330
1F
100
AcDbEntity
  8
LC-001-100-D00-0
 62
     7
370
    50
100
AcDbLine
 10
-604.008973
 20
517.222885
 30
0.0
 11
-599.508982
 21
517.222885
 31
0.0
  0
LINE
  5
22E
330
1F
100
AcDbEntity
  8
LC-001-100-D00-0
 62
     7
370
    50
100
AcDbLine
 10
-606.008982
 20
520.222885
 30
0.0
 11
-592.658982
 21
520.222885
 31
0.0
  0
LINE
  5
22F
330
1F
100
AcDbEntity
  8
LC-001-100-D00-0
 62
     7
370
    50
100
AcDbLine
 10
-607.008994
 20
513.222885
 30
0.0
 11
-604.008982
 21
513.222885
 31
0.0
  0
LINE
  5
230
330
1F
100
AcDbEntity
  8
LC-001-100-D00-0
 62
     7
370
    50
100
AcDbLine
 10
-575.508982
 20
513.222885
 30
0.0
 11
-573.508982
 21
513.222885
 31
0.0
  0
LINE
  5
231
330
1F
100
AcDbEntity
  8
LC-001-100-D00-0
 62
     7
370
    50
100
AcDbLine
 10
-604.008982
 20
513.222885
 30
0.0
 11
-602.008982
 21
513.222885
 31
0.0
  0
LINE
  5
232
330
1F
100
AcDbEntity
  8
LC-001-100-D00-0
 62
     7
370
    50
100
AcDbLine
 10
-602.008982
 20
513.222885
 30
0.0
 11
-598.508984
 21
513.222885
 31
0.0
  0
LINE
  5
233
330
1F
100
AcDbEntity
  8
LC-001-100-D00-0
 62
     7
370
    50
100
AcDbLine
 10
-579.008996
 20
513.222885
 30
0.0
 11
-575.508982
 21
513.222885
 31
0.0
  0
LINE
  5
234
330
1F
100
AcDbEntity
  8
LC-001-100-D00-0
 62
     7
370
    50
100
AcDbLine
 10
-426.892315
 20
503.991652
 30
0.0
 11
-426.892315
 21
506.454119
 31
0.0
  0
ARC
  5
235
330
1F
100
AcDbEntity
  8
LC-001-100-D00-0
 62
     7
370
    50
100
AcDbCircle
 10
-426.292315
 20
503.991652
 30
0.0
 40
0.6000000000000227
100
AcDbArc
 50
180.0
 51
255.0
  0
LINE
  5
236
330
1F
100
AcDbEntity
  8
LC-001-100-D00-0
 62
     7
370
    50
100
AcDbLine
 10
-425.741464
 20
503.222884
 30
0.0
 11
-426.447607
 21
503.412096
 31
0.0
  0
LINE
  5
237
330
1F
100
AcDbEntity
  8
LC-001-100-D00-0
 62
     7
370
    50
100
AcDbLine
 10
-425.741464
 20
503.222884
 30
0.0
 11
-425.741464
 21
501.222886
 31
0.0
  0
LINE
  5
238
330
1F
100
AcDbEntity
  8
LC-001-100-D00-0
 62
     7
370
    50
100
AcDbLine
 10
-427.692315
 20
501.222885
 30
0.0
 11
-425.741464
 21
501.222886
 31
0.0
  0
LINE
  5
239
330
1F
100
AcDbEntity
  8
LC-001-100-D00-0
 62
     7
370
    50
100
AcDbLine
 10
-428.692315
 20
502.222885
 30
0.0
 11
-427.692315
 21
501.222885
 31
0.0
  0
LINE
  5
23A
330
1F
100
AcDbEntity
  8
LC-001-100-D00-0
 62
     7
370
    50
100
AcDbLine
 10
-428.692315
 20
502.222885
 30
0.0
 11
-428.692311
 21
508.222885
 31
0.0
  0
LINE
  5
23B
330
1F
100
AcDbEntity
  8
LC-001-100-D00-0
 62
     7
370
    50
100
AcDbLine
 10
-427.692324
 20
509.222885
 30
0.0
 11
-428.692311
 21
508.222885
 31
0.0
  0
LINE
  5
23C
330
1F
100
AcDbEntity
  8
LC-001-100-D00-0
 62
     7
370
    50
100
AcDbLine
 10
-425.741464
 20
509.222885
 30
0.0
 11
-425.741464
 21
507.222885
 31
0.0
  0
LINE
  5
23D
330
1F
100
AcDbEntity
  8
LC-001-100-D00-0
 62
     7
370
    50
100
AcDbLine
 10
-426.447607
 20
507.033675
 30
0.0
 11
-425.741464
 21
507.222885
 31
0.0
  0
ARC
  5
23E
330
1F
100
AcDbEntity
  8
LC-001-100-D00-0
 62
     7
370
    50
100
AcDbCircle
 10
-426.292315
 20
506.454119
 30
0.0
 40
0.6000000000000886
100
AcDbArc
 50
105.0
 51
180.0
  0
LINE
  5
23F
330
1F
100
AcDbEntity
  8
LC-001-100-D00-0
 62
     7
370
    50
100
AcDbLine
 10
-427.692324
 20
509.222885
 30
0.0
 11
-425.741464
 21
509.222885
 31
0.0
  0
LINE
  5
240
330
1F
100
AcDbEntity
  8
LC-001-100-D00-0
 62
     7
370
    50
100
AcDbLine
 10
-435.492307
 20
508.222885
 30
0.0
 11
-436.492324
 21
509.222885
 31
0.0
  0
LINE
  5
241
330
1F
100
AcDbEntity
  8
LC-001-100-D00-0
 62
     7
370
    50
100
AcDbLine
 10
-436.492315
 20
501.222885
 30
0.0
 11
-435.492315
 21
502.222885
 31
0.0
  0
LINE
  5
242
330
1F
100
AcDbEntity
  8
LC-001-100-D00-0
 62
     7
370
    50
100
AcDbLine
 10
-435.492315
 20
502.222885
 30
0.0
 11
-435.334476
 21
502.222885
 31
0.0
  0
LINE
  5
243
330
1F
100
AcDbEntity
  8
LC-001-100-D00-0
 62
     7
370
    50
100
AcDbLine
 10
-428.850155
 20
502.222885
 30
0.0
 11
-428.692315
 21
502.222885
 31
0.0
  0
LINE
  5
244
330
1F
100
AcDbEntity
  8
LC-001-100-D00-0
 62
     7
370
    50
100
AcDbLine
 10
-427.692315
 20
501.222885
 30
0.0
 11
-428.228097
 21
501.222885
 31
0.0
  0
LINE
  5
245
330
1F
100
AcDbEntity
  8
LC-001-100-D00-0
 62
     7
370
    50
100
AcDbLine
 10
-435.956534
 20
501.222885
 30
0.0
 11
-436.492315
 21
501.222885
 31
0.0
  0
LINE
  5
246
330
1F
100
AcDbEntity
  8
LC-001-100-D00-0
 62
     7
370
    50
100
AcDbLine
 10
-435.492307
 20
508.222885
 30
0.0
 11
-435.492315
 21
502.222885
 31
0.0
  0
LINE
  5
247
330
1F
100
AcDbEntity
  8
LC-001-100-D00-0
 62
     7
370
    50
100
AcDbLine
 10
-438.443154
 20
503.222884
 30
0.0
 11
-438.443154
 21
501.222886
 31
0.0
  0
LINE
  5
248
330
1F
100
AcDbEntity
  8
LC-001-100-D00-0
 62
     7
370
    50
100
AcDbLine
 10
-437.737024
 20
503.412096
 30
0.0
 11
-438.443154
 21
503.222884
 31
0.0
  0
ARC
  5
249
330
1F
100
AcDbEntity
  8
LC-001-100-D00-0
 62
     7
370
    50
100
AcDbCircle
 10
-437.892315
 20
503.991652
 30
0.0
 40
0.6000000000000081
100
AcDbArc
 50
285.0
 51
0.0
  0
LINE
  5
24A
330
1F
100
AcDbEntity
  8
LC-001-100-D00-0
 62
     7
370
    50
100
AcDbLine
 10
-437.292315
 20
506.454119
 30
0.0
 11
-437.292315
 21
503.991652
 31
0.0
  0
ARC
  5
24B
330
1F
100
AcDbEntity
  8
LC-001-100-D00-0
 62
     7
370
    50
100
AcDbCircle
 10
-437.892315
 20
506.454119
 30
0.0
 40
0.6000000000002501
100
AcDbArc
 50
0.0
 51
75.0
  0
LINE
  5
24C
330
1F
100
AcDbEntity
  8
LC-001-100-D00-0
 62
     7
370
    50
100
AcDbLine
 10
-438.443154
 20
507.222885
 30
0.0
 11
-437.737024
 21
507.033675
 31
0.0
  0
LINE
  5
24D
330
1F
100
AcDbEntity
  8
LC-001-100-D00-0
 62
     7
370
    50
100
AcDbLine
 10
-438.443154
 20
509.222885
 30
0.0
 11
-438.443154
 21
507.222885
 31
0.0
  0
LINE
  5
24E
330
1F
100
AcDbEntity
  8
LC-001-100-D00-0
 62
     7
370
    50
100
AcDbLine
 10
-438.443154
 20
501.222886
 30
0.0
 11
-436.492315
 21
501.222885
 31
0.0
  0
LINE
  5
24F
330
1F
100
AcDbEntity
  8
LC-001-100-D00-0
 62
     7
370
    50
100
AcDbLine
 10
-438.443154
 20
509.222885
 30
0.0
 11
-436.492324
 21
509.222885
 31
0.0
  0
LINE
  5
250
330
1F
100
AcDbEntity
  8
LC-001-100-D00-0
 62
     7
370
    50
100
AcDbLine
 10
-425.741464
 20
509.222885
 30
0.0
 11
-428.192317
 21
509.222885
 31
0.0
  0
LINE
  5
251
330
1F
100
AcDbEntity
  8
LC-001-100-D00-0
 62
     7
370
    50
100
AcDbLine
 10
-428.192317
 20
509.222885
 30
0.0
 11
-428.192315
 21
520.222885
 31
0.0
  0
LINE
  5
252
330
1F
100
AcDbEntity
  8
LC-001-100-D00-0
 62
     7
370
    50
100
AcDbLine
 10
-428.192315
 20
520.222885
 30
0.0
 11
-414.842315
 21
520.222885
 31
0.0
  0
LINE
  5
253
330
1F
100
AcDbEntity
  8
LC-001-100-D00-0
 62
     7
370
    50
100
AcDbLine
 10
-416.842315
 20
513.222885
 30
0.0
 11
-416.842312
 21
517.222885
 31
0.0
  0
LINE
  5
254
330
1F
100
AcDbEntity
  8
LC-001-100-D00-0
 62
     7
370
    50
100
AcDbLine
 10
-421.342315
 20
517.222885
 30
0.0
 11
-416.842312
 21
517.222885
 31
0.0
  0
ARC
  5
255
330
1F
100
AcDbEntity
  8
LC-001-100-D00-0
 62
     7
370
    50
100
AcDbCircle
 10
-421.342315
 20
516.222885
 30
0.0
 40
1.000000000000114
100
AcDbArc
 50
90.0
 51
180.0
  0
LINE
  5
256
330
1F
100
AcDbEntity
  8
LC-001-100-D00-0
 62
     7
370
    50
100
AcDbLine
 10
-422.342315
 20
502.222885
 30
0.0
 11
-422.342315
 21
516.222885
 31
0.0
  0
ARC
  5
257
330
1F
100
AcDbEntity
  8
LC-001-100-D00-0
 62
     7
370
    50
100
AcDbCircle
 10
-423.342315
 20
502.222885
 30
0.0
 40
1.000000000000114
100
AcDbArc
 50
270.0
 51
0.0
  0
LINE
  5
258
330
1F
100
AcDbEntity
  8
LC-001-100-D00-0
 62
     7
370
    50
100
AcDbLine
 10
-423.342315
 20
501.222885
 30
0.0
 11
-425.741464
 21
501.222886
 31
0.0
  0
LINE
  5
259
330
1F
100
AcDbEntity
  8
LC-001-100-D00-0
 62
     7
370
    50
100
AcDbLine
 10
-425.741464
 20
503.222884
 30
0.0
 11
-425.741464
 21
501.222886
 31
0.0
  0
LINE
  5
25A
330
1F
100
AcDbEntity
  8
LC-001-100-D00-0
 62
     7
370
    50
100
AcDbLine
 10
-426.392315
 20
503.222885
 30
0.0
 11
-425.741464
 21
503.222884
 31
0.0
  0
ARC
  5
25B
330
1F
100
AcDbEntity
  8
LC-001-100-D00-0
 62
     7
370
    50
100
AcDbCircle
 10
-426.392315
 20
503.722885
 30
0.0
 40
0.5000000000001137
100
AcDbArc
 50
180.0
 51
270.0
  0
LINE
  5
25C
330
1F
100
AcDbEntity
  8
LC-001-100-D00-0
 62
     7
370
    50
100
AcDbLine
 10
-426.892315
 20
506.722885
 30
0.0
 11
-426.892315
 21
503.722885
 31
0.0
  0
ARC
  5
25D
330
1F
100
AcDbEntity
  8
LC-001-100-D00-0
 62
     7
370
    50
100
AcDbCircle
 10
-426.392315
 20
506.722885
 30
0.0
 40
0.4999999999998863
100
AcDbArc
 50
90.0
 51
180.0
  0
LINE
  5
25E
330
1F
100
AcDbEntity
  8
LC-001-100-D00-0
 62
     7
370
    50
100
AcDbLine
 10
-425.741464
 20
507.222885
 30
0.0
 11
-426.392315
 21
507.222885
 31
0.0
  0
LINE
  5
25F
330
1F
100
AcDbEntity
  8
LC-001-100-D00-0
 62
     7
370
    50
100
AcDbLine
 10
-425.741464
 20
509.222885
 30
0.0
 11
-425.741464
 21
507.222885
 31
0.0
  0
ARC
  5
260
330
1F
100
AcDbEntity
  8
LC-001-100-D00-0
 62
     7
370
    50
100
AcDbCircle
 10
-414.842315
 20
519.222885
 30
0.0
 40
1.0
100
AcDbArc
 50
0.0
 51
90.0
  0
LINE
  5
261
330
1F
100
AcDbEntity
  8
LC-001-100-D00-0
 62
     7
370
    50
100
AcDbLine
 10
-416.842315
 20
513.222885
 30
0.0
 11
-413.84232
 21
513.222885
 31
0.0
  0
LINE
  5
262
330
1F
100
AcDbEntity
  8
LC-001-100-D00-0
 62
     7
370
    50
100
AcDbLine
 10
-413.842315
 20
519.222885
 30
0.0
 11
-413.84232
 21
513.222885
 31
0.0
  0
LINE
  5
263
330
1F
100
AcDbEntity
  8
LC-001-100-D00-0
 62
     7
370
    50
100
AcDbLine
 10
-435.992315
 20
520.222885
 30
0.0
 11
-435.9923
 21
509.222885
 31
0.0
  0
LINE
  5
264
330
1F
100
AcDbEntity
  8
LC-001-100-D00-0
 62
     7
370
    50
100
AcDbLine
 10
-435.992315
 20
520.222885
 30
0.0
 11
-428.192315
 21
520.222885
 31
0.0
  0
ARC
  5
265
330
1F
100
AcDbEntity
  8
LC-001-100-D00-0
 62
     7
370
    50
100
AcDbCircle
 10
-442.842315
 20
516.222885
 30
0.0
 40
0.9999999999998863
100
AcDbArc
 50
0.0
 51
90.0
  0
ARC
  5
266
330
1F
100
AcDbEntity
  8
LC-001-100-D00-0
 62
     7
370
    50
100
AcDbCircle
 10
-440.842315
 20
502.222885
 30
0.0
 40
1.000000000000114
100
AcDbArc
 50
180.0
 51
270.0
  0
LINE
  5
267
330
1F
100
AcDbEntity
  8
LC-001-100-D00-0
 62
     7
370
    50
100
AcDbLine
 10
-441.842315
 20
516.222885
 30
0.0
 11
-441.842315
 21
502.222885
 31
0.0
  0
LINE
  5
268
330
1F
100
AcDbEntity
  8
LC-001-100-D00-0
 62
     7
370
    50
100
AcDbLine
 10
-437.292315
 20
503.722885
 30
0.0
 11
-437.292315
 21
506.722885
 31
0.0
  0
ARC
  5
269
330
1F
100
AcDbEntity
  8
LC-001-100-D00-0
 62
     7
370
    50
100
AcDbCircle
 10
-437.792315
 20
503.722885
 30
0.0
 40
0.5000000000003411
100
AcDbArc
 50
270.0
 51
0.0
  0
LINE
  5
26A
330
1F
100
AcDbEntity
  8
LC-001-100-D00-0
 62
     7
370
    50
100
AcDbLine
 10
-438.443154
 20
503.222884
 30
0.0
 11
-437.792315
 21
503.222885
 31
0.0
  0
LINE
  5
26B
330
1F
100
AcDbEntity
  8
LC-001-100-D00-0
 62
     7
370
    50
100
AcDbLine
 10
-438.443154
 20
503.222884
 30
0.0
 11
-438.443154
 21
501.222886
 31
0.0
  0
LINE
  5
26C
330
1F
100
AcDbEntity
  8
LC-001-100-D00-0
 62
     7
370
    50
100
AcDbLine
 10
-447.342306
 20
517.222885
 30
0.0
 11
-447.342315
 21
513.222885
 31
0.0
  0
LINE
  5
26D
330
1F
100
AcDbEntity
  8
LC-001-100-D00-0
 62
     7
370
    50
100
AcDbLine
 10
-450.342327
 20
513.222885
 30
0.0
 11
-450.342315
 21
519.222885
 31
0.0
  0
ARC
  5
26E
330
1F
100
AcDbEntity
  8
LC-001-100-D00-0
 62
     7
370
    50
100
AcDbCircle
 10
-449.342315
 20
519.222885
 30
0.0
 40
0.9999999999998863
100
AcDbArc
 50
90.0
 51
180.0
  0
LINE
  5
26F
330
1F
100
AcDbEntity
  8
LC-001-100-D00-0
 62
     7
370
    50
100
AcDbLine
 10
-438.443154
 20
509.222885
 30
0.0
 11
-438.443154
 21
507.222885
 31
0.0
  0
LINE
  5
270
330
1F
100
AcDbEntity
  8
LC-001-100-D00-0
 62
     7
370
    50
100
AcDbLine
 10
-437.792315
 20
507.222885
 30
0.0
 11
-438.443154
 21
507.222885
 31
0.0
  0
ARC
  5
271
330
1F
100
AcDbEntity
  8
LC-001-100-D00-0
 62
     7
370
    50
100
AcDbCircle
 10
-437.792315
 20
506.722885
 30
0.0
 40
0.4999999999998863
100
AcDbArc
 50
0.0
 51
90.0
  0
LINE
  5
272
330
1F
100
AcDbEntity
  8
LC-001-100-D00-0
 62
     7
370
    50
100
AcDbLine
 10
-438.443154
 20
501.222886
 30
0.0
 11
-440.842315
 21
501.222885
 31
0.0
  0
LINE
  5
273
330
1F
100
AcDbEntity
  8
LC-001-100-D00-0
 62
     7
370
    50
100
AcDbLine
 10
-435.9923
 20
509.222885
 30
0.0
 11
-438.443154
 21
509.222885
 31
0.0
  0
LINE
  5
274
330
1F
100
AcDbEntity
  8
LC-001-100-D00-0
 62
     7
370
    50
100
AcDbLine
 10
-447.342306
 20
517.222885
 30
0.0
 11
-442.842315
 21
517.222885
 31
0.0
  0
LINE
  5
275
330
1F
100
AcDbEntity
  8
LC-001-100-D00-0
 62
     7
370
    50
100
AcDbLine
 10
-449.342315
 20
520.222885
 30
0.0
 11
-435.992315
 21
520.222885
 31
0.0
  0
LINE
  5
276
330
1F
100
AcDbEntity
  8
LC-001-100-D00-0
 62
     7
370
    50
100
AcDbLine
 10
-450.342327
 20
513.222885
 30
0.0
 11
-447.342315
 21
513.222885
 31
0.0
  0
LINE
  5
277
330
1F
100
AcDbEntity
  8
LC-001-100-D00-0
 62
     7
370
    50
100
AcDbLine
 10
-418.842315
 20
513.222885
 30
0.0
 11
-416.842315
 21
513.222885
 31
0.0
  0
LINE
  5
278
330
1F
100
AcDbEntity
  8
LC-001-100-D00-0
 62
     7
370
    50
100
AcDbLine
 10
-447.342315
 20
513.222885
 30
0.0
 11
-445.342315
 21
513.222885
 31
0.0
  0
LINE
  5
279
330
1F
100
AcDbEntity
  8
LC-001-100-D00-0
 62
     7
370
    50
100
AcDbLine
 10
-445.342315
 20
513.222885
 30
0.0
 11
-441.842318
 21
513.222885
 31
0.0
  0
LINE
  5
27A
330
1F
100
AcDbEntity
  8
LC-001-100-D00-0
 62
     7
370
    50
100
AcDbLine
 10
-422.342315
 20
513.222885
 30
0.0
 11
-418.842315
 21
513.222885
 31
0.0
  0
LINE
  5
27B
330
1F
100
AcDbEntity
  8
LC-001-100-D00-0
 62
     7
370
    50
100
AcDbLine
 10
86.441018
 20
503.991652
 30
0.0
 11
86.441018
 21
506.454119
 31
0.0
  0
ARC
  5
27C
330
1F
100
AcDbEntity
  8
LC-001-100-D00-0
 62
     7
370
    50
100
AcDbCircle
 10
87.041018
 20
503.991652
 30
0.0
 40
0.5999999999998664
100
AcDbArc
 50
180.0
 51
255.0
  0
LINE
  5
27D
330
1F
100
AcDbEntity
  8
LC-001-100-D00-0
 62
     7
370
    50
100
AcDbLine
 10
87.591857
 20
503.222884
 30
0.0
 11
86.885727
 21
503.412096
 31
0.0
  0
LINE
  5
27E
330
1F
100
AcDbEntity
  8
LC-001-100-D00-0
 62
     7
370
    50
100
AcDbLine
 10
87.591857
 20
503.222884
 30
0.0
 11
87.591857
 21
501.222886
 31
0.0
  0
LINE
  5
27F
330
1F
100
AcDbEntity
  8
LC-001-100-D00-0
 62
     7
370
    50
100
AcDbLine
 10
85.641018
 20
501.222885
 30
0.0
 11
87.591857
 21
501.222886
 31
0.0
  0
LINE
  5
280
330
1F
100
AcDbEntity
  8
LC-001-100-D00-0
 62
     7
370
    50
100
AcDbLine
 10
84.641018
 20
502.222885
 30
0.0
 11
85.641018
 21
501.222885
 31
0.0
  0
LINE
  5
281
330
1F
100
AcDbEntity
  8
LC-001-100-D00-0
 62
     7
370
    50
100
AcDbLine
 10
84.641018
 20
502.222885
 30
0.0
 11
84.64101
 21
508.222885
 31
0.0
  0
LINE
  5
282
330
1F
100
AcDbEntity
  8
LC-001-100-D00-0
 62
     7
370
    50
100
AcDbLine
 10
85.641027
 20
509.222885
 30
0.0
 11
84.64101
 21
508.222885
 31
0.0
  0
LINE
  5
283
330
1F
100
AcDbEntity
  8
LC-001-100-D00-0
 62
     7
370
    50
100
AcDbLine
 10
87.591857
 20
509.222885
 30
0.0
 11
87.591857
 21
507.222885
 31
0.0
  0
LINE
  5
284
330
1F
100
AcDbEntity
  8
LC-001-100-D00-0
 62
     7
370
    50
100
AcDbLine
 10
86.885727
 20
507.033675
 30
0.0
 11
87.591857
 21
507.222885
 31
0.0
  0
ARC
  5
285
330
1F
100
AcDbEntity
  8
LC-001-100-D00-0
 62
     7
370
    50
100
AcDbCircle
 10
87.041018
 20
506.454119
 30
0.0
 40
0.6000000000001253
100
AcDbArc
 50
105.0
 51
180.0
  0
LINE
  5
286
330
1F
100
AcDbEntity
  8
LC-001-100-D00-0
 62
     7
370
    50
100
AcDbLine
 10
85.641027
 20
509.222885
 30
0.0
 11
87.591857
 21
509.222885
 31
0.0
  0
LINE
  5
287
330
1F
100
AcDbEntity
  8
LC-001-100-D00-0
 62
     7
370
    50
100
AcDbLine
 10
77.841014
 20
508.222885
 30
0.0
 11
76.841027
 21
509.222885
 31
0.0
  0
LINE
  5
288
330
1F
100
AcDbEntity
  8
LC-001-100-D00-0
 62
     7
370
    50
100
AcDbLine
 10
76.841018
 20
501.222885
 30
0.0
 11
77.841018
 21
502.222885
 31
0.0
  0
LINE
  5
289
330
1F
100
AcDbEntity
  8
LC-001-100-D00-0
 62
     7
370
    50
100
AcDbLine
 10
77.841018
 20
502.222885
 30
0.0
 11
77.998858
 21
502.222885
 31
0.0
  0
LINE
  5
28A
330
1F
100
AcDbEntity
  8
LC-001-100-D00-0
 62
     7
370
    50
100
AcDbLine
 10
84.483178
 20
502.222885
 30
0.0
 11
84.641018
 21
502.222885
 31
0.0
  0
LINE
  5
28B
330
1F
100
AcDbEntity
  8
LC-001-100-D00-0
 62
     7
370
    50
100
AcDbLine
 10
85.641018
 20
501.222885
 30
0.0
 11
85.105236
 21
501.222885
 31
0.0
  0
LINE
  5
28C
330
1F
100
AcDbEntity
  8
LC-001-100-D00-0
 62
     7
370
    50
100
AcDbLine
 10
77.3768
 20
501.222885
 30
0.0
 11
76.841018
 21
501.222885
 31
0.0
  0
LINE
  5
28D
330
1F
100
AcDbEntity
  8
LC-001-100-D00-0
 62
     7
370
    50
100
AcDbLine
 10
77.841014
 20
508.222885
 30
0.0
 11
77.841018
 21
502.222885
 31
0.0
  0
LINE
  5
28E
330
1F
100
AcDbEntity
  8
LC-001-100-D00-0
 62
     7
370
    50
100
AcDbLine
 10
76.041018
 20
506.454119
 30
0.0
 11
76.041018
 21
503.991652
 31
0.0
  0
LINE
  5
28F
330
1F
100
AcDbEntity
  8
LC-001-100-D00-0
 62
     7
370
    50
100
AcDbLine
 10
74.890167
 20
503.222884
 30
0.0
 11
74.890167
 21
501.222886
 31
0.0
  0
LINE
  5
290
330
1F
100
AcDbEntity
  8
LC-001-100-D00-0
 62
     7
370
    50
100
AcDbLine
 10
75.596309
 20
503.412096
 30
0.0
 11
74.890167
 21
503.222884
 31
0.0
  0
ARC
  5
291
330
1F
100
AcDbEntity
  8
LC-001-100-D00-0
 62
     7
370
    50
100
AcDbCircle
 10
75.441018
 20
503.991652
 30
0.0
 40
0.6000000000002351
100
AcDbArc
 50
285.0
 51
0.0
  0
ARC
  5
292
330
1F
100
AcDbEntity
  8
LC-001-100-D00-0
 62
     7
370
    50
100
AcDbCircle
 10
75.441018
 20
506.454119
 30
0.0
 40
0.6000000000002785
100
AcDbArc
 50
0.0
 51
75.0
  0
LINE
  5
293
330
1F
100
AcDbEntity
  8
LC-001-100-D00-0
 62
     7
370
    50
100
AcDbLine
 10
74.890167
 20
507.222885
 30
0.0
 11
75.596309
 21
507.033675
 31
0.0
  0
LINE
  5
294
330
1F
100
AcDbEntity
  8
LC-001-100-D00-0
 62
     7
370
    50
100
AcDbLine
 10
74.890167
 20
509.222885
 30
0.0
 11
74.890167
 21
507.222885
 31
0.0
  0
LINE
  5
295
330
1F
100
AcDbEntity
  8
LC-001-100-D00-0
 62
     7
370
    50
100
AcDbLine
 10
74.890167
 20
501.222886
 30
0.0
 11
76.841018
 21
501.222885
 31
0.0
  0
LINE
  5
296
330
1F
100
AcDbEntity
  8
LC-001-100-D00-0
 62
     7
370
    50
100
AcDbLine
 10
74.890167
 20
509.222885
 30
0.0
 11
76.841027
 21
509.222885
 31
0.0
  0
LINE
  5
297
330
1F
100
AcDbEntity
  8
LC-001-100-D00-0
 62
     7
370
    50
100
AcDbLine
 10
87.591857
 20
509.222885
 30
0.0
 11
85.141003
 21
509.222885
 31
0.0
  0
LINE
  5
298
330
1F
100
AcDbEntity
  8
LC-001-100-D00-0
 62
     7
370
    50
100
AcDbLine
 10
85.141003
 20
509.222885
 30
0.0
 11
85.141018
 21
520.222885
 31
0.0
  0
LINE
  5
299
330
1F
100
AcDbEntity
  8
LC-001-100-D00-0
 62
     7
370
    50
100
AcDbLine
 10
85.141018
 20
520.222885
 30
0.0
 11
98.491018
 21
520.222885
 31
0.0
  0
LINE
  5
29A
330
1F
100
AcDbEntity
  8
LC-001-100-D00-0
 62
     7
370
    50
100
AcDbLine
 10
96.491018
 20
513.222885
 30
0.0
 11
96.491009
 21
517.222885
 31
0.0
  0
LINE
  5
29B
330
1F
100
AcDbEntity
  8
LC-001-100-D00-0
 62
     7
370
    50
100
AcDbLine
 10
91.991018
 20
517.222885
 30
0.0
 11
96.491009
 21
517.222885
 31
0.0
  0
ARC
  5
29C
330
1F
100
AcDbEntity
  8
LC-001-100-D00-0
 62
     7
370
    50
100
AcDbCircle
 10
91.991018
 20
516.222885
 30
0.0
 40
1.000000000000114
100
AcDbArc
 50
90.0
 51
180.0
  0
LINE
  5
29D
330
1F
100
AcDbEntity
  8
LC-001-100-D00-0
 62
     7
370
    50
100
AcDbLine
 10
90.991018
 20
502.222885
 30
0.0
 11
90.991018
 21
516.222885
 31
0.0
  0
ARC
  5
29E
330
1F
100
AcDbEntity
  8
LC-001-100-D00-0
 62
     7
370
    50
100
AcDbCircle
 10
89.991018
 20
502.222885
 30
0.0
 40
0.9999999999998863
100
AcDbArc
 50
270.0
 51
0.0
  0
LINE
  5
29F
330
1F
100
AcDbEntity
  8
LC-001-100-D00-0
 62
     7
370
    50
100
AcDbLine
 10
89.991018
 20
501.222885
 30
0.0
 11
87.591857
 21
501.222886
 31
0.0
  0
LINE
  5
2A0
330
1F
100
AcDbEntity
  8
LC-001-100-D00-0
 62
     7
370
    50
100
AcDbLine
 10
87.591857
 20
503.222884
 30
0.0
 11
87.591857
 21
501.222886
 31
0.0
  0
LINE
  5
2A1
330
1F
100
AcDbEntity
  8
LC-001-100-D00-0
 62
     7
370
    50
100
AcDbLine
 10
86.941018
 20
503.222885
 30
0.0
 11
87.591857
 21
503.222884
 31
0.0
  0
ARC
  5
2A2
330
1F
100
AcDbEntity
  8
LC-001-100-D00-0
 62
     7
370
    50
100
AcDbCircle
 10
86.941018
 20
503.722885
 30
0.0
 40
0.5000000000000853
100
AcDbArc
 50
180.0
 51
270.0
  0
LINE
  5
2A3
330
1F
100
AcDbEntity
  8
LC-001-100-D00-0
 62
     7
370
    50
100
AcDbLine
 10
86.441018
 20
506.722885
 30
0.0
 11
86.441018
 21
503.722885
 31
0.0
  0
ARC
  5
2A4
330
1F
100
AcDbEntity
  8
LC-001-100-D00-0
 62
     7
370
    50
100
AcDbCircle
 10
86.941018
 20
506.722885
 30
0.0
 40
0.4999999999998863
100
AcDbArc
 50
90.0
 51
180.0
  0
LINE
  5
2A5
330
1F
100
AcDbEntity
  8
LC-001-100-D00-0
 62
     7
370
    50
100
AcDbLine
 10
87.591857
 20
507.222885
 30
0.0
 11
86.941018
 21
507.222885
 31
0.0
  0
LINE
  5
2A6
330
1F
100
AcDbEntity
  8
LC-001-100-D00-0
 62
     7
370
    50
100
AcDbLine
 10
87.591857
 20
509.222885
 30
0.0
 11
87.591857
 21
507.222885
 31
0.0
  0
LINE
  5
2A7
330
1F
100
AcDbEntity
  8
LC-001-100-D00-0
 62
     7
370
    50
100
AcDbLine
 10
99.491018
 20
519.222885
 30
0.0
 11
99.49103
 21
513.222885
 31
0.0
  0
LINE
  5
2A8
330
1F
100
AcDbEntity
  8
LC-001-100-D00-0
 62
     7
370
    50
100
AcDbLine
 10
96.491018
 20
513.222885
 30
0.0
 11
99.49103
 21
513.222885
 31
0.0
  0
ARC
  5
2A9
330
1F
100
AcDbEntity
  8
LC-001-100-D00-0
 62
     7
370
    50
100
AcDbCircle
 10
98.491018
 20
519.222885
 30
0.0
 40
1.000000000000043
100
AcDbArc
 50
0.0
 51
90.0
  0
LINE
  5
2AA
330
1F
100
AcDbEntity
  8
LC-001-100-D00-0
 62
     7
370
    50
100
AcDbLine
 10
77.341018
 20
520.222885
 30
0.0
 11
77.34102
 21
509.222885
 31
0.0
  0
LINE
  5
2AB
330
1F
100
AcDbEntity
  8
LC-001-100-D00-0
 62
     7
370
    50
100
AcDbLine
 10
77.341018
 20
520.222885
 30
0.0
 11
85.141018
 21
520.222885
 31
0.0
  0
ARC
  5
2AC
330
1F
100
AcDbEntity
  8
LC-001-100-D00-0
 62
     7
370
    50
100
AcDbCircle
 10
70.491018
 20
516.222885
 30
0.0
 40
1.000000000000028
100
AcDbArc
 50
0.0
 51
90.0
  0
LINE
  5
2AD
330
1F
100
AcDbEntity
  8
LC-001-100-D00-0
 62
     7
370
    50
100
AcDbLine
 10
71.491018
 20
516.222885
 30
0.0
 11
71.491018
 21
502.222885
 31
0.0
  0
ARC
  5
2AE
330
1F
100
AcDbEntity
  8
LC-001-100-D00-0
 62
     7
370
    50
100
AcDbCircle
 10
72.491018
 20
502.222885
 30
0.0
 40
0.9999999999999147
100
AcDbArc
 50
180.0
 51
270.0
  0
LINE
  5
2AF
330
1F
100
AcDbEntity
  8
LC-001-100-D00-0
 62
     7
370
    50
100
AcDbLine
 10
76.041018
 20
503.722885
 30
0.0
 11
76.041018
 21
506.722885
 31
0.0
  0
ARC
  5
2B0
330
1F
100
AcDbEntity
  8
LC-001-100-D00-0
 62
     7
370
    50
100
AcDbCircle
 10
75.541018
 20
503.722885
 30
0.0
 40
0.5000000000003411
100
AcDbArc
 50
270.0
 51
0.0
  0
LINE
  5
2B1
330
1F
100
AcDbEntity
  8
LC-001-100-D00-0
 62
     7
370
    50
100
AcDbLine
 10
74.890167
 20
503.222884
 30
0.0
 11
75.541018
 21
503.222885
 31
0.0
  0
LINE
  5
2B2
330
1F
100
AcDbEntity
  8
LC-001-100-D00-0
 62
     7
370
    50
100
AcDbLine
 10
74.890167
 20
503.222884
 30
0.0
 11
74.890167
 21
501.222886
 31
0.0
  0
LINE
  5
2B3
330
1F
100
AcDbEntity
  8
LC-001-100-D00-0
 62
     7
370
    50
100
AcDbLine
 10
65.991014
 20
517.222885
 30
0.0
 11
65.991018
 21
513.222885
 31
0.0
  0
LINE
  5
2B4
330
1F
100
AcDbEntity
  8
LC-001-100-D00-0
 62
     7
370
    50
100
AcDbLine
 10
62.991023
 20
513.222885
 30
0.0
 11
62.991018
 21
519.222885
 31
0.0
  0
ARC
  5
2B5
330
1F
100
AcDbEntity
  8
LC-001-100-D00-0
 62
     7
370
    50
100
AcDbCircle
 10
63.991018
 20
519.222885
 30
0.0
 40
0.9999999999998863
100
AcDbArc
 50
90.0
 51
180.0
  0
LINE
  5
2B6
330
1F
100
AcDbEntity
  8
LC-001-100-D00-0
 62
     7
370
    50
100
AcDbLine
 10
74.890167
 20
509.222885
 30
0.0
 11
74.890167
 21
507.222885
 31
0.0
  0
LINE
  5
2B7
330
1F
100
AcDbEntity
  8
LC-001-100-D00-0
 62
     7
370
    50
100
AcDbLine
 10
75.541018
 20
507.222885
 30
0.0
 11
74.890167
 21
507.222885
 31
0.0
  0
ARC
  5
2B8
330
1F
100
AcDbEntity
  8
LC-001-100-D00-0
 62
     7
370
    50
100
AcDbCircle
 10
75.541018
 20
506.722885
 30
0.0
 40
0.5000000000002274
100
AcDbArc
 50
0.0
 51
90.0
  0
LINE
  5
2B9
330
1F
100
AcDbEntity
  8
LC-001-100-D00-0
 62
     7
370
    50
100
AcDbLine
 10
74.890167
 20
501.222886
 30
0.0
 11
72.491018
 21
501.222885
 31
0.0
  0
LINE
  5
2BA
330
1F
100
AcDbEntity
  8
LC-001-100-D00-0
 62
     7
370
    50
100
AcDbLine
 10
77.34102
 20
509.222885
 30
0.0
 11
74.890167
 21
509.222885
 31
0.0
  0
LINE
  5
2BB
330
1F
100
AcDbEntity
  8
LC-001-100-D00-0
 62
     7
370
    50
100
AcDbLine
 10
65.991014
 20
517.222885
 30
0.0
 11
70.491018
 21
517.222885
 31
0.0
  0
LINE
  5
2BC
330
1F
100
AcDbEntity
  8
LC-001-100-D00-0
 62
     7
370
    50
100
AcDbLine
 10
63.991018
 20
520.222885
 30
0.0
 11
77.341018
 21
520.222885
 31
0.0
  0
LINE
  5
2BD
330
1F
100
AcDbEntity
  8
LC-001-100-D00-0
 62
     7
370
    50
100
AcDbLine
 10
62.991023
 20
513.222885
 30
0.0
 11
65.991018
 21
513.222885
 31
0.0
  0
LINE
  5
2BE
330
1F
100
AcDbEntity
  8
LC-001-100-D00-0
 62
     7
370
    50
100
AcDbLine
 10
94.491018
 20
513.222885
 30
0.0
 11
96.491018
 21
513.222885
 31
0.0
  0
LINE
  5
2BF
330
1F
100
AcDbEntity
  8
LC-001-100-D00-0
 62
     7
370
    50
100
AcDbLine
 10
65.991018
 20
513.222885
 30
0.0
 11
67.991018
 21
513.222885
 31
0.0
  0
LINE
  5
2C0
330
1F
100
AcDbEntity
  8
LC-001-100-D00-0
 62
     7
370
    50
100
AcDbLine
 10
67.991018
 20
513.222885
 30
0.0
 11
71.491018
 21
513.222885
 31
0.0
  0
LINE
  5
2C1
330
1F
100
AcDbEntity
  8
LC-001-100-D00-0
 62
     7
370
    50
100
AcDbLine
 10
90.99102
 20
513.222885
 30
0.0
 11
94.491018
 21
513.222885
 31
0.0
  0
LINE
  5
2C2
330
1F
100
AcDbEntity
  8
LC-001-100-D00-0
 62
     7
370
    50
100
AcDbLine
 10
-740.225649
 20
503.991652
 30
0.0
 11
-740.225649
 21
506.454119
 31
0.0
  0
ARC
  5
2C3
330
1F
100
AcDbEntity
  8
LC-001-100-D00-0
 62
     7
370
    50
100
AcDbCircle
 10
-739.625649
 20
503.991652
 30
0.0
 40
0.5999999999999091
100
AcDbArc
 50
180.0
 51
255.0
  0
LINE
  5
2C4
330
1F
100
AcDbEntity
  8
LC-001-100-D00-0
 62
     7
370
    50
100
AcDbLine
 10
-739.074767
 20
503.222884
 30
0.0
 11
-739.78094
 21
503.412096
 31
0.0
  0
LINE
  5
2C5
330
1F
100
AcDbEntity
  8
LC-001-100-D00-0
 62
     7
370
    50
100
AcDbLine
 10
-739.074767
 20
503.222884
 30
0.0
 11
-739.074767
 21
501.222886
 31
0.0
  0
LINE
  5
2C6
330
1F
100
AcDbEntity
  8
LC-001-100-D00-0
 62
     7
370
    50
100
AcDbLine
 10
-742.025649
 20
502.222885
 30
0.0
 11
-741.025649
 21
501.222885
 31
0.0
  0
LINE
  5
2C7
330
1F
100
AcDbEntity
  8
LC-001-100-D00-0
 62
     7
370
    50
100
AcDbLine
 10
-742.025649
 20
502.222885
 30
0.0
 11
-742.025673
 21
508.222885
 31
0.0
  0
LINE
  5
2C8
330
1F
100
AcDbEntity
  8
LC-001-100-D00-0
 62
     7
370
    50
100
AcDbLine
 10
-741.025627
 20
509.222885
 30
0.0
 11
-742.025673
 21
508.222885
 31
0.0
  0
LINE
  5
2C9
330
1F
100
AcDbEntity
  8
LC-001-100-D00-0
 62
     7
370
    50
100
AcDbLine
 10
-739.074767
 20
509.222885
 30
0.0
 11
-739.074767
 21
507.222885
 31
0.0
  0
LINE
  5
2CA
330
1F
100
AcDbEntity
  8
LC-001-100-D00-0
 62
     7
370
    50
100
AcDbLine
 10
-739.78094
 20
507.033675
 30
0.0
 11
-739.074767
 21
507.222885
 31
0.0
  0
ARC
  5
2CB
330
1F
100
AcDbEntity
  8
LC-001-100-D00-0
 62
     7
370
    50
100
AcDbCircle
 10
-739.625649
 20
506.454119
 30
0.0
 40
0.6000000000000886
100
AcDbArc
 50
105.0
 51
180.0
  0
LINE
  5
2CC
330
1F
100
AcDbEntity
  8
LC-001-100-D00-0
 62
     7
370
    50
100
AcDbLine
 10
-741.025649
 20
501.222885
 30
0.0
 11
-739.074767
 21
501.222886
 31
0.0
  0
LINE
  5
2CD
330
1F
100
AcDbEntity
  8
LC-001-100-D00-0
 62
     7
370
    50
100
AcDbLine
 10
-741.025627
 20
509.222885
 30
0.0
 11
-739.074767
 21
509.222885
 31
0.0
  0
LINE
  5
2CE
330
1F
100
AcDbEntity
  8
LC-001-100-D00-0
 62
     7
370
    50
100
AcDbLine
 10
-750.625649
 20
506.454119
 30
0.0
 11
-750.625649
 21
503.991652
 31
0.0
  0
LINE
  5
2CF
330
1F
100
AcDbEntity
  8
LC-001-100-D00-0
 62
     7
370
    50
100
AcDbLine
 10
-748.825669
 20
508.222885
 30
0.0
 11
-749.825656
 21
509.222885
 31
0.0
  0
LINE
  5
2D0
330
1F
100
AcDbEntity
  8
LC-001-100-D00-0
 62
     7
370
    50
100
AcDbLine
 10
-748.825669
 20
508.222885
 30
0.0
 11
-748.825649
 21
502.222885
 31
0.0
  0
LINE
  5
2D1
330
1F
100
AcDbEntity
  8
LC-001-100-D00-0
 62
     7
370
    50
100
AcDbLine
 10
-749.825649
 20
501.222885
 30
0.0
 11
-748.825649
 21
502.222885
 31
0.0
  0
LINE
  5
2D2
330
1F
100
AcDbEntity
  8
LC-001-100-D00-0
 62
     7
370
    50
100
AcDbLine
 10
-751.776516
 20
503.222884
 30
0.0
 11
-751.776516
 21
501.222886
 31
0.0
  0
LINE
  5
2D3
330
1F
100
AcDbEntity
  8
LC-001-100-D00-0
 62
     7
370
    50
100
AcDbLine
 10
-751.070357
 20
503.412096
 30
0.0
 11
-751.776516
 21
503.222884
 31
0.0
  0
ARC
  5
2D4
330
1F
100
AcDbEntity
  8
LC-001-100-D00-0
 62
     7
370
    50
100
AcDbCircle
 10
-751.225649
 20
503.991652
 30
0.0
 40
0.6000000000000081
100
AcDbArc
 50
285.0
 51
0.0
  0
ARC
  5
2D5
330
1F
100
AcDbEntity
  8
LC-001-100-D00-0
 62
     7
370
    50
100
AcDbCircle
 10
-751.225649
 20
506.454119
 30
0.0
 40
0.6000000000001364
100
AcDbArc
 50
0.0
 51
75.0
  0
LINE
  5
2D6
330
1F
100
AcDbEntity
  8
LC-001-100-D00-0
 62
     7
370
    50
100
AcDbLine
 10
-751.776516
 20
507.222885
 30
0.0
 11
-751.070357
 21
507.033675
 31
0.0
  0
LINE
  5
2D7
330
1F
100
AcDbEntity
  8
LC-001-100-D00-0
 62
     7
370
    50
100
AcDbLine
 10
-751.776516
 20
509.222885
 30
0.0
 11
-751.776516
 21
507.222885
 31
0.0
  0
LINE
  5
2D8
330
1F
100
AcDbEntity
  8
LC-001-100-D00-0
 62
     7
370
    50
100
AcDbLine
 10
-751.776516
 20
501.222886
 30
0.0
 11
-749.825649
 21
501.222885
 31
0.0
  0
LINE
  5
2D9
330
1F
100
AcDbEntity
  8
LC-001-100-D00-0
 62
     7
370
    50
100
AcDbLine
 10
-751.776516
 20
509.222885
 30
0.0
 11
-749.825656
 21
509.222885
 31
0.0
  0
LINE
  5
2DA
330
1F
100
AcDbEntity
  8
LC-001-100-D00-0
 62
     7
370
    50
100
AcDbLine
 10
-748.825649
 20
502.222885
 30
0.0
 11
-748.667809
 21
502.222885
 31
0.0
  0
LINE
  5
2DB
330
1F
100
AcDbEntity
  8
LC-001-100-D00-0
 62
     7
370
    50
100
AcDbLine
 10
-742.183488
 20
502.222885
 30
0.0
 11
-742.025649
 21
502.222885
 31
0.0
  0
LINE
  5
2DC
330
1F
100
AcDbEntity
  8
LC-001-100-D00-0
 62
     7
370
    50
100
AcDbLine
 10
-741.025649
 20
501.222885
 30
0.0
 11
-741.56143
 21
501.222885
 31
0.0
  0
LINE
  5
2DD
330
1F
100
AcDbEntity
  8
LC-001-100-D00-0
 62
     7
370
    50
100
AcDbLine
 10
-749.289867
 20
501.222885
 30
0.0
 11
-749.825649
 21
501.222885
 31
0.0
  0
LINE
  5
2DE
330
1F
100
AcDbEntity
  8
LC-001-100-D00-0
 62
     7
370
    50
100
AcDbLine
 10
-739.074767
 20
509.222885
 30
0.0
 11
-741.52565
 21
509.222885
 31
0.0
  0
LINE
  5
2DF
330
1F
100
AcDbEntity
  8
LC-001-100-D00-0
 62
     7
370
    50
100
AcDbLine
 10
-741.52565
 20
509.222885
 30
0.0
 11
-741.525649
 21
520.222885
 31
0.0
  0
LINE
  5
2E0
330
1F
100
AcDbEntity
  8
LC-001-100-D00-0
 62
     7
370
    50
100
AcDbLine
 10
-741.525649
 20
520.222885
 30
0.0
 11
-728.175649
 21
520.222885
 31
0.0
  0
ARC
  5
2E1
330
1F
100
AcDbEntity
  8
LC-001-100-D00-0
 62
     7
370
    50
100
AcDbCircle
 10
-728.175649
 20
519.222885
 30
0.0
 40
0.9999999999998863
100
AcDbArc
 50
0.0
 51
90.0
  0
LINE
  5
2E2
330
1F
100
AcDbEntity
  8
LC-001-100-D00-0
 62
     7
370
    50
100
AcDbLine
 10
-727.175649
 20
519.222885
 30
0.0
 11
-727.175653
 21
513.222885
 31
0.0
  0
LINE
  5
2E3
330
1F
100
AcDbEntity
  8
LC-001-100-D00-0
 62
     7
370
    50
100
AcDbLine
 10
-730.175649
 20
513.222885
 30
0.0
 11
-727.175653
 21
513.222885
 31
0.0
  0
LINE
  5
2E4
330
1F
100
AcDbEntity
  8
LC-001-100-D00-0
 62
     7
370
    50
100
AcDbLine
 10
-730.175649
 20
513.222885
 30
0.0
 11
-730.175674
 21
517.222885
 31
0.0
  0
LINE
  5
2E5
330
1F
100
AcDbEntity
  8
LC-001-100-D00-0
 62
     7
370
    50
100
AcDbLine
 10
-734.675649
 20
517.222885
 30
0.0
 11
-730.175674
 21
517.222885
 31
0.0
  0
ARC
  5
2E6
330
1F
100
AcDbEntity
  8
LC-001-100-D00-0
 62
     7
370
    50
100
AcDbCircle
 10
-734.675649
 20
516.222885
 30
0.0
 40
1.000000000000114
100
AcDbArc
 50
90.0
 51
180.0
  0
LINE
  5
2E7
330
1F
100
AcDbEntity
  8
LC-001-100-D00-0
 62
     7
370
    50
100
AcDbLine
 10
-735.675649
 20
502.222885
 30
0.0
 11
-735.675649
 21
516.222885
 31
0.0
  0
ARC
  5
2E8
330
1F
100
AcDbEntity
  8
LC-001-100-D00-0
 62
     7
370
    50
100
AcDbCircle
 10
-736.675649
 20
502.222885
 30
0.0
 40
1.000000000000114
100
AcDbArc
 50
270.0
 51
0.0
  0
LINE
  5
2E9
330
1F
100
AcDbEntity
  8
LC-001-100-D00-0
 62
     7
370
    50
100
AcDbLine
 10
-736.675649
 20
501.222885
 30
0.0
 11
-739.074767
 21
501.222886
 31
0.0
  0
LINE
  5
2EA
330
1F
100
AcDbEntity
  8
LC-001-100-D00-0
 62
     7
370
    50
100
AcDbLine
 10
-739.074767
 20
503.222884
 30
0.0
 11
-739.074767
 21
501.222886
 31
0.0
  0
LINE
  5
2EB
330
1F
100
AcDbEntity
  8
LC-001-100-D00-0
 62
     7
370
    50
100
AcDbLine
 10
-739.725649
 20
503.222885
 30
0.0
 11
-739.074767
 21
503.222884
 31
0.0
  0
ARC
  5
2EC
330
1F
100
AcDbEntity
  8
LC-001-100-D00-0
 62
     7
370
    50
100
AcDbCircle
 10
-739.725649
 20
503.722885
 30
0.0
 40
0.5000000000002274
100
AcDbArc
 50
180.0
 51
270.0
  0
LINE
  5
2ED
330
1F
100
AcDbEntity
  8
LC-001-100-D00-0
 62
     7
370
    50
100
AcDbLine
 10
-740.225649
 20
506.722885
 30
0.0
 11
-740.225649
 21
503.722885
 31
0.0
  0
ARC
  5
2EE
330
1F
100
AcDbEntity
  8
LC-001-100-D00-0
 62
     7
370
    50
100
AcDbCircle
 10
-739.725649
 20
506.722885
 30
0.0
 40
0.4999999999998863
100
AcDbArc
 50
90.0
 51
180.0
  0
LINE
  5
2EF
330
1F
100
AcDbEntity
  8
LC-001-100-D00-0
 62
     7
370
    50
100
AcDbLine
 10
-739.074767
 20
507.222885
 30
0.0
 11
-739.725649
 21
507.222885
 31
0.0
  0
LINE
  5
2F0
330
1F
100
AcDbEntity
  8
LC-001-100-D00-0
 62
     7
370
    50
100
AcDbLine
 10
-739.074767
 20
509.222885
 30
0.0
 11
-739.074767
 21
507.222885
 31
0.0
  0
ARC
  5
2F1
330
1F
100
AcDbEntity
  8
LC-001-100-D00-0
 62
     7
370
    50
100
AcDbCircle
 10
-756.175649
 20
516.222885
 30
0.0
 40
1.0
100
AcDbArc
 50
0.0
 51
90.0
  0
LINE
  5
2F2
330
1F
100
AcDbEntity
  8
LC-001-100-D00-0
 62
     7
370
    50
100
AcDbLine
 10
-755.175649
 20
516.222885
 30
0.0
 11
-755.175649
 21
502.222885
 31
0.0
  0
ARC
  5
2F3
330
1F
100
AcDbEntity
  8
LC-001-100-D00-0
 62
     7
370
    50
100
AcDbCircle
 10
-754.175649
 20
502.222885
 30
0.0
 40
0.9999999999998863
100
AcDbArc
 50
180.0
 51
270.0
  0
LINE
  5
2F4
330
1F
100
AcDbEntity
  8
LC-001-100-D00-0
 62
     7
370
    50
100
AcDbLine
 10
-750.625649
 20
503.722885
 30
0.0
 11
-750.625649
 21
506.722885
 31
0.0
  0
LINE
  5
2F5
330
1F
100
AcDbEntity
  8
LC-001-100-D00-0
 62
     7
370
    50
100
AcDbLine
 10
-749.325649
 20
520.222885
 30
0.0
 11
-749.325633
 21
509.222885
 31
0.0
  0
LINE
  5
2F6
330
1F
100
AcDbEntity
  8
LC-001-100-D00-0
 62
     7
370
    50
100
AcDbLine
 10
-749.325649
 20
520.222885
 30
0.0
 11
-741.525649
 21
520.222885
 31
0.0
  0
LINE
  5
2F7
330
1F
100
AcDbEntity
  8
LC-001-100-D00-0
 62
     7
370
    50
100
AcDbLine
 10
-751.776516
 20
509.222885
 30
0.0
 11
-751.776516
 21
507.222885
 31
0.0
  0
LINE
  5
2F8
330
1F
100
AcDbEntity
  8
LC-001-100-D00-0
 62
     7
370
    50
100
AcDbLine
 10
-751.776516
 20
503.222884
 30
0.0
 11
-751.776516
 21
501.222886
 31
0.0
  0
ARC
  5
2F9
330
1F
100
AcDbEntity
  8
LC-001-100-D00-0
 62
     7
370
    50
100
AcDbCircle
 10
-751.125649
 20
503.722885
 30
0.0
 40
0.5000000000003411
100
AcDbArc
 50
270.0
 51
0.0
  0
LINE
  5
2FA
330
1F
100
AcDbEntity
  8
LC-001-100-D00-0
 62
     7
370
    50
100
AcDbLine
 10
-751.776516
 20
503.222884
 30
0.0
 11
-751.125649
 21
503.222885
 31
0.0
  0
LINE
  5
2FB
330
1F
100
AcDbEntity
  8
LC-001-100-D00-0
 62
     7
370
    50
100
AcDbLine
 10
-760.675669
 20
517.222885
 30
0.0
 11
-760.675649
 21
513.222885
 31
0.0
  0
LINE
  5
2FC
330
1F
100
AcDbEntity
  8
LC-001-100-D00-0
 62
     7
370
    50
100
AcDbLine
 10
-763.67563
 20
513.222885
 30
0.0
 11
-763.675649
 21
519.222885
 31
0.0
  0
ARC
  5
2FD
330
1F
100
AcDbEntity
  8
LC-001-100-D00-0
 62
     7
370
    50
100
AcDbCircle
 10
-762.675649
 20
519.222885
 30
0.0
 40
1.000000000000114
100
AcDbArc
 50
90.0
 51
180.0
  0
LINE
  5
2FE
330
1F
100
AcDbEntity
  8
LC-001-100-D00-0
 62
     7
370
    50
100
AcDbLine
 10
-751.125649
 20
507.222885
 30
0.0
 11
-751.776516
 21
507.222885
 31
0.0
  0
ARC
  5
2FF
330
1F
100
AcDbEntity
  8
LC-001-100-D00-0
 62
     7
370
    50
100
AcDbCircle
 10
-751.125649
 20
506.722885
 30
0.0
 40
0.4999999999998863
100
AcDbArc
 50
0.0
 51
90.0
  0
LINE
  5
300
330
1F
100
AcDbEntity
  8
LC-001-100-D00-0
 62
     7
370
    50
100
AcDbLine
 10
-763.67563
 20
513.222885
 30
0.0
 11
-760.675649
 21
513.222885
 31
0.0
  0
LINE
  5
301
330
1F
100
AcDbEntity
  8
LC-001-100-D00-0
 62
     7
370
    50
100
AcDbLine
 10
-749.325633
 20
509.222885
 30
0.0
 11
-751.776516
 21
509.222885
 31
0.0
  0
LINE
  5
302
330
1F
100
AcDbEntity
  8
LC-001-100-D00-0
 62
     7
370
    50
100
AcDbLine
 10
-751.776516
 20
501.222886
 30
0.0
 11
-754.175649
 21
501.222885
 31
0.0
  0
LINE
  5
303
330
1F
100
AcDbEntity
  8
LC-001-100-D00-0
 62
     7
370
    50
100
AcDbLine
 10
-760.675669
 20
517.222885
 30
0.0
 11
-756.175649
 21
517.222885
 31
0.0
  0
LINE
  5
304
330
1F
100
AcDbEntity
  8
LC-001-100-D00-0
 62
     7
370
    50
100
AcDbLine
 10
-762.675649
 20
520.222885
 30
0.0
 11
-749.325649
 21
520.222885
 31
0.0
  0
LINE
  5
305
330
1F
100
AcDbEntity
  8
LC-001-100-D00-0
 62
     7
370
    50
100
AcDbLine
 10
-732.175649
 20
513.222885
 30
0.0
 11
-730.175649
 21
513.222885
 31
0.0
  0
LINE
  5
306
330
1F
100
AcDbEntity
  8
LC-001-100-D00-0
 62
     7
370
    50
100
AcDbLine
 10
-760.675649
 20
513.222885
 30
0.0
 11
-758.675649
 21
513.222885
 31
0.0
  0
LINE
  5
307
330
1F
100
AcDbEntity
  8
LC-001-100-D00-0
 62
     7
370
    50
100
AcDbLine
 10
-758.675649
 20
513.222885
 30
0.0
 11
-755.17565
 21
513.222885
 31
0.0
  0
LINE
  5
308
330
1F
100
AcDbEntity
  8
LC-001-100-D00-0
 62
     7
370
    50
100
AcDbLine
 10
-735.675633
 20
513.222885
 30
0.0
 11
-732.175649
 21
513.222885
 31
0.0
  0
LINE
  5
309
330
1F
100
AcDbEntity
  8
LC-001-100-D00-0
 62
     7
370
    50
100
AcDbLine
 10
-270.225649
 20
503.991652
 30
0.0
 11
-270.225649
 21
506.454119
 31
0.0
  0
ARC
  5
30A
330
1F
100
AcDbEntity
  8
LC-001-100-D00-0
 62
     7
370
    50
100
AcDbCircle
 10
-269.625649
 20
503.991652
 30
0.0
 40
0.6000000000001364
100
AcDbArc
 50
180.0
 51
255.0
  0
LINE
  5
30B
330
1F
100
AcDbEntity
  8
LC-001-100-D00-0
 62
     7
370
    50
100
AcDbLine
 10
-269.074798
 20
503.222884
 30
0.0
 11
-269.78094
 21
503.412096
 31
0.0
  0
LINE
  5
30C
330
1F
100
AcDbEntity
  8
LC-001-100-D00-0
 62
     7
370
    50
100
AcDbLine
 10
-269.074798
 20
503.222884
 30
0.0
 11
-269.074798
 21
501.222886
 31
0.0
  0
LINE
  5
30D
330
1F
100
AcDbEntity
  8
LC-001-100-D00-0
 62
     7
370
    50
100
AcDbLine
 10
-272.025649
 20
502.222885
 30
0.0
 11
-271.025649
 21
501.222885
 31
0.0
  0
LINE
  5
30E
330
1F
100
AcDbEntity
  8
LC-001-100-D00-0
 62
     7
370
    50
100
AcDbLine
 10
-272.025649
 20
502.222885
 30
0.0
 11
-272.025652
 21
508.222885
 31
0.0
  0
LINE
  5
30F
330
1F
100
AcDbEntity
  8
LC-001-100-D00-0
 62
     7
370
    50
100
AcDbLine
 10
-271.02565
 20
509.222885
 30
0.0
 11
-272.025652
 21
508.222885
 31
0.0
  0
LINE
  5
310
330
1F
100
AcDbEntity
  8
LC-001-100-D00-0
 62
     7
370
    50
100
AcDbLine
 10
-269.074798
 20
509.222885
 30
0.0
 11
-269.074798
 21
507.222885
 31
0.0
  0
LINE
  5
311
330
1F
100
AcDbEntity
  8
LC-001-100-D00-0
 62
     7
370
    50
100
AcDbLine
 10
-269.78094
 20
507.033675
 30
0.0
 11
-269.074798
 21
507.222885
 31
0.0
  0
ARC
  5
312
330
1F
100
AcDbEntity
  8
LC-001-100-D00-0
 62
     7
370
    50
100
AcDbCircle
 10
-269.625649
 20
506.454119
 30
0.0
 40
0.6000000000001327
100
AcDbArc
 50
105.0
 51
180.0
  0
LINE
  5
313
330
1F
100
AcDbEntity
  8
LC-001-100-D00-0
 62
     7
370
    50
100
AcDbLine
 10
-271.025649
 20
501.222885
 30
0.0
 11
-269.074798
 21
501.222886
 31
0.0
  0
LINE
  5
314
330
1F
100
AcDbEntity
  8
LC-001-100-D00-0
 62
     7
370
    50
100
AcDbLine
 10
-271.02565
 20
509.222885
 30
0.0
 11
-269.074798
 21
509.222885
 31
0.0
  0
LINE
  5
315
330
1F
100
AcDbEntity
  8
LC-001-100-D00-0
 62
     7
370
    50
100
AcDbLine
 10
-280.625649
 20
506.454119
 30
0.0
 11
-280.625649
 21
503.991652
 31
0.0
  0
LINE
  5
316
330
1F
100
AcDbEntity
  8
LC-001-100-D00-0
 62
     7
370
    50
100
AcDbLine
 10
-278.825648
 20
508.222885
 30
0.0
 11
-279.82565
 21
509.222885
 31
0.0
  0
LINE
  5
317
330
1F
100
AcDbEntity
  8
LC-001-100-D00-0
 62
     7
370
    50
100
AcDbLine
 10
-278.825648
 20
508.222885
 30
0.0
 11
-278.825649
 21
502.222885
 31
0.0
  0
LINE
  5
318
330
1F
100
AcDbEntity
  8
LC-001-100-D00-0
 62
     7
370
    50
100
AcDbLine
 10
-279.825649
 20
501.222885
 30
0.0
 11
-278.825649
 21
502.222885
 31
0.0
  0
LINE
  5
319
330
1F
100
AcDbEntity
  8
LC-001-100-D00-0
 62
     7
370
    50
100
AcDbLine
 10
-281.776503
 20
503.222884
 30
0.0
 11
-281.776503
 21
501.222886
 31
0.0
  0
LINE
  5
31A
330
1F
100
AcDbEntity
  8
LC-001-100-D00-0
 62
     7
370
    50
100
AcDbLine
 10
-281.070357
 20
503.412096
 30
0.0
 11
-281.776503
 21
503.222884
 31
0.0
  0
ARC
  5
31B
330
1F
100
AcDbEntity
  8
LC-001-100-D00-0
 62
     7
370
    50
100
AcDbCircle
 10
-281.225649
 20
503.991652
 30
0.0
 40
0.6000000000002719
100
AcDbArc
 50
285.0
 51
0.0
  0
ARC
  5
31C
330
1F
100
AcDbEntity
  8
LC-001-100-D00-0
 62
     7
370
    50
100
AcDbCircle
 10
-281.225649
 20
506.454119
 30
0.0
 40
0.6000000000004206
100
AcDbArc
 50
0.0
 51
75.0
  0
LINE
  5
31D
330
1F
100
AcDbEntity
  8
LC-001-100-D00-0
 62
     7
370
    50
100
AcDbLine
 10
-281.776503
 20
507.222885
 30
0.0
 11
-281.070357
 21
507.033675
 31
0.0
  0
LINE
  5
31E
330
1F
100
AcDbEntity
  8
LC-001-100-D00-0
 62
     7
370
    50
100
AcDbLine
 10
-281.776503
 20
509.222885
 30
0.0
 11
-281.776503
 21
507.222885
 31
0.0
  0
LINE
  5
31F
330
1F
100
AcDbEntity
  8
LC-001-100-D00-0
 62
     7
370
    50
100
AcDbLine
 10
-281.776503
 20
501.222886
 30
0.0
 11
-279.825649
 21
501.222885
 31
0.0
  0
LINE
  5
320
330
1F
100
AcDbEntity
  8
LC-001-100-D00-0
 62
     7
370
    50
100
AcDbLine
 10
-281.776503
 20
509.222885
 30
0.0
 11
-279.82565
 21
509.222885
 31
0.0
  0
LINE
  5
321
330
1F
100
AcDbEntity
  8
LC-001-100-D00-0
 62
     7
370
    50
100
AcDbLine
 10
-278.825649
 20
502.222885
 30
0.0
 11
-278.667809
 21
502.222885
 31
0.0
  0
LINE
  5
322
330
1F
100
AcDbEntity
  8
LC-001-100-D00-0
 62
     7
370
    50
100
AcDbLine
 10
-272.183488
 20
502.222885
 30
0.0
 11
-272.025649
 21
502.222885
 31
0.0
  0
LINE
  5
323
330
1F
100
AcDbEntity
  8
LC-001-100-D00-0
 62
     7
370
    50
100
AcDbLine
 10
-271.025649
 20
501.222885
 30
0.0
 11
-271.56143
 21
501.222885
 31
0.0
  0
LINE
  5
324
330
1F
100
AcDbEntity
  8
LC-001-100-D00-0
 62
     7
370
    50
100
AcDbLine
 10
-279.289867
 20
501.222885
 30
0.0
 11
-279.825649
 21
501.222885
 31
0.0
  0
LINE
  5
325
330
1F
100
AcDbEntity
  8
LC-001-100-D00-0
 62
     7
370
    50
100
AcDbLine
 10
-269.074798
 20
509.222885
 30
0.0
 11
-271.525651
 21
509.222885
 31
0.0
  0
LINE
  5
326
330
1F
100
AcDbEntity
  8
LC-001-100-D00-0
 62
     7
370
    50
100
AcDbLine
 10
-271.525651
 20
509.222885
 30
0.0
 11
-271.525649
 21
520.222885
 31
0.0
  0
LINE
  5
327
330
1F
100
AcDbEntity
  8
LC-001-100-D00-0
 62
     7
370
    50
100
AcDbLine
 10
-271.525649
 20
520.222885
 30
0.0
 11
-258.175649
 21
520.222885
 31
0.0
  0
ARC
  5
328
330
1F
100
AcDbEntity
  8
LC-001-100-D00-0
 62
     7
370
    50
100
AcDbCircle
 10
-258.175649
 20
519.222885
 30
0.0
 40
1.000000000000057
100
AcDbArc
 50
0.0
 51
90.0
  0
LINE
  5
329
330
1F
100
AcDbEntity
  8
LC-001-100-D00-0
 62
     7
370
    50
100
AcDbLine
 10
-257.175649
 20
519.222885
 30
0.0
 11
-257.175647
 21
513.222885
 31
0.0
  0
LINE
  5
32A
330
1F
100
AcDbEntity
  8
LC-001-100-D00-0
 62
     7
370
    50
100
AcDbLine
 10
-260.175649
 20
513.222885
 30
0.0
 11
-257.175647
 21
513.222885
 31
0.0
  0
LINE
  5
32B
330
1F
100
AcDbEntity
  8
LC-001-100-D00-0
 62
     7
370
    50
100
AcDbLine
 10
-260.175649
 20
513.222885
 30
0.0
 11
-260.175645
 21
517.222885
 31
0.0
  0
LINE
  5
32C
330
1F
100
AcDbEntity
  8
LC-001-100-D00-0
 62
     7
370
    50
100
AcDbLine
 10
-264.675649
 20
517.222885
 30
0.0
 11
-260.175645
 21
517.222885
 31
0.0
  0
ARC
  5
32D
330
1F
100
AcDbEntity
  8
LC-001-100-D00-0
 62
     7
370
    50
100
AcDbCircle
 10
-264.675649
 20
516.222885
 30
0.0
 40
1.000000000000114
100
AcDbArc
 50
90.0
 51
180.0
  0
LINE
  5
32E
330
1F
100
AcDbEntity
  8
LC-001-100-D00-0
 62
     7
370
    50
100
AcDbLine
 10
-265.675649
 20
502.222885
 30
0.0
 11
-265.675649
 21
516.222885
 31
0.0
  0
ARC
  5
32F
330
1F
100
AcDbEntity
  8
LC-001-100-D00-0
 62
     7
370
    50
100
AcDbCircle
 10
-266.675649
 20
502.222885
 30
0.0
 40
1.000000000000114
100
AcDbArc
 50
270.0
 51
0.0
  0
LINE
  5
330
330
1F
100
AcDbEntity
  8
LC-001-100-D00-0
 62
     7
370
    50
100
AcDbLine
 10
-266.675649
 20
501.222885
 30
0.0
 11
-269.074798
 21
501.222886
 31
0.0
  0
LINE
  5
331
330
1F
100
AcDbEntity
  8
LC-001-100-D00-0
 62
     7
370
    50
100
AcDbLine
 10
-269.074798
 20
503.222884
 30
0.0
 11
-269.074798
 21
501.222886
 31
0.0
  0
LINE
  5
332
330
1F
100
AcDbEntity
  8
LC-001-100-D00-0
 62
     7
370
    50
100
AcDbLine
 10
-269.725649
 20
503.222885
 30
0.0
 11
-269.074798
 21
503.222884
 31
0.0
  0
ARC
  5
333
330
1F
100
AcDbEntity
  8
LC-001-100-D00-0
 62
     7
370
    50
100
AcDbCircle
 10
-269.725649
 20
503.722885
 30
0.0
 40
0.5000000000002274
100
AcDbArc
 50
180.0
 51
270.0
  0
LINE
  5
334
330
1F
100
AcDbEntity
  8
LC-001-100-D00-0
 62
     7
370
    50
100
AcDbLine
 10
-270.225649
 20
506.722885
 30
0.0
 11
-270.225649
 21
503.722885
 31
0.0
  0
ARC
  5
335
330
1F
100
AcDbEntity
  8
LC-001-100-D00-0
 62
     7
370
    50
100
AcDbCircle
 10
-269.725649
 20
506.722885
 30
0.0
 40
0.4999999999998863
100
AcDbArc
 50
90.0
 51
180.0
  0
LINE
  5
336
330
1F
100
AcDbEntity
  8
LC-001-100-D00-0
 62
     7
370
    50
100
AcDbLine
 10
-269.074798
 20
507.222885
 30
0.0
 11
-269.725649
 21
507.222885
 31
0.0
  0
LINE
  5
337
330
1F
100
AcDbEntity
  8
LC-001-100-D00-0
 62
     7
370
    50
100
AcDbLine
 10
-269.074798
 20
509.222885
 30
0.0
 11
-269.074798
 21
507.222885
 31
0.0
  0
ARC
  5
338
330
1F
100
AcDbEntity
  8
LC-001-100-D00-0
 62
     7
370
    50
100
AcDbCircle
 10
-286.175649
 20
516.222885
 30
0.0
 40
0.9999999999998863
100
AcDbArc
 50
0.0
 51
90.0
  0
LINE
  5
339
330
1F
100
AcDbEntity
  8
LC-001-100-D00-0
 62
     7
370
    50
100
AcDbLine
 10
-285.175649
 20
516.222885
 30
0.0
 11
-285.175649
 21
502.222885
 31
0.0
  0
ARC
  5
33A
330
1F
100
AcDbEntity
  8
LC-001-100-D00-0
 62
     7
370
    50
100
AcDbCircle
 10
-284.175649
 20
502.222885
 30
0.0
 40
1.000000000000171
100
AcDbArc
 50
180.0
 51
270.0
  0
LINE
  5
33B
330
1F
100
AcDbEntity
  8
LC-001-100-D00-0
 62
     7
370
    50
100
AcDbLine
 10
-280.625649
 20
503.722885
 30
0.0
 11
-280.625649
 21
506.722885
 31
0.0
  0
LINE
  5
33C
330
1F
100
AcDbEntity
  8
LC-001-100-D00-0
 62
     7
370
    50
100
AcDbLine
 10
-279.325649
 20
520.222885
 30
0.0
 11
-279.325649
 21
509.222885
 31
0.0
  0
LINE
  5
33D
330
1F
100
AcDbEntity
  8
LC-001-100-D00-0
 62
     7
370
    50
100
AcDbLine
 10
-279.325649
 20
520.222885
 30
0.0
 11
-271.525649
 21
520.222885
 31
0.0
  0
LINE
  5
33E
330
1F
100
AcDbEntity
  8
LC-001-100-D00-0
 62
     7
370
    50
100
AcDbLine
 10
-281.776503
 20
503.222884
 30
0.0
 11
-281.776503
 21
501.222886
 31
0.0
  0
LINE
  5
33F
330
1F
100
AcDbEntity
  8
LC-001-100-D00-0
 62
     7
370
    50
100
AcDbLine
 10
-281.776503
 20
509.222885
 30
0.0
 11
-281.776503
 21
507.222885
 31
0.0
  0
ARC
  5
340
330
1F
100
AcDbEntity
  8
LC-001-100-D00-0
 62
     7
370
    50
100
AcDbCircle
 10
-281.125649
 20
503.722885
 30
0.0
 40
0.5000000000003411
100
AcDbArc
 50
270.0
 51
0.0
  0
LINE
  5
341
330
1F
100
AcDbEntity
  8
LC-001-100-D00-0
 62
     7
370
    50
100
AcDbLine
 10
-281.776503
 20
503.222884
 30
0.0
 11
-281.125649
 21
503.222885
 31
0.0
  0
LINE
  5
342
330
1F
100
AcDbEntity
  8
LC-001-100-D00-0
 62
     7
370
    50
100
AcDbLine
 10
-290.675648
 20
517.222885
 30
0.0
 11
-290.675649
 21
513.222885
 31
0.0
  0
LINE
  5
343
330
1F
100
AcDbEntity
  8
LC-001-100-D00-0
 62
     7
370
    50
100
AcDbLine
 10
-293.675646
 20
513.222885
 30
0.0
 11
-293.675649
 21
519.222885
 31
0.0
  0
ARC
  5
344
330
1F
100
AcDbEntity
  8
LC-001-100-D00-0
 62
     7
370
    50
100
AcDbCircle
 10
-292.675649
 20
519.222885
 30
0.0
 40
1.000000000000114
100
AcDbArc
 50
90.0
 51
180.0
  0
LINE
  5
345
330
1F
100
AcDbEntity
  8
LC-001-100-D00-0
 62
     7
370
    50
100
AcDbLine
 10
-281.125649
 20
507.222885
 30
0.0
 11
-281.776503
 21
507.222885
 31
0.0
  0
ARC
  5
346
330
1F
100
AcDbEntity
  8
LC-001-100-D00-0
 62
     7
370
    50
100
AcDbCircle
 10
-281.125649
 20
506.722885
 30
0.0
 40
0.4999999999999432
100
AcDbArc
 50
0.0
 51
90.0
  0
LINE
  5
347
330
1F
100
AcDbEntity
  8
LC-001-100-D00-0
 62
     7
370
    50
100
AcDbLine
 10
-279.325649
 20
509.222885
 30
0.0
 11
-281.776503
 21
509.222885
 31
0.0
  0
LINE
  5
348
330
1F
100
AcDbEntity
  8
LC-001-100-D00-0
 62
     7
370
    50
100
AcDbLine
 10
-281.776503
 20
501.222886
 30
0.0
 11
-284.175649
 21
501.222885
 31
0.0
  0
LINE
  5
349
330
1F
100
AcDbEntity
  8
LC-001-100-D00-0
 62
     7
370
    50
100
AcDbLine
 10
-290.675648
 20
517.222885
 30
0.0
 11
-286.175649
 21
517.222885
 31
0.0
  0
LINE
  5
34A
330
1F
100
AcDbEntity
  8
LC-001-100-D00-0
 62
     7
370
    50
100
AcDbLine
 10
-292.675649
 20
520.222885
 30
0.0
 11
-279.325649
 21
520.222885
 31
0.0
  0
LINE
  5
34B
330
1F
100
AcDbEntity
  8
LC-001-100-D00-0
 62
     7
370
    50
100
AcDbLine
 10
-293.675646
 20
513.222885
 30
0.0
 11
-290.675649
 21
513.222885
 31
0.0
  0
LINE
  5
34C
330
1F
100
AcDbEntity
  8
LC-001-100-D00-0
 62
     7
370
    50
100
AcDbLine
 10
-262.175649
 20
513.222885
 30
0.0
 11
-260.175649
 21
513.222885
 31
0.0
  0
LINE
  5
34D
330
1F
100
AcDbEntity
  8
LC-001-100-D00-0
 62
     7
370
    50
100
AcDbLine
 10
-290.675649
 20
513.222885
 30
0.0
 11
-288.675649
 21
513.222885
 31
0.0
  0
LINE
  5
34E
330
1F
100
AcDbEntity
  8
LC-001-100-D00-0
 62
     7
370
    50
100
AcDbLine
 10
-288.675649
 20
513.222885
 30
0.0
 11
-285.175651
 21
513.222885
 31
0.0
  0
LINE
  5
34F
330
1F
100
AcDbEntity
  8
LC-001-100-D00-0
 62
     7
370
    50
100
AcDbLine
 10
-265.675649
 20
513.222885
 30
0.0
 11
-262.175649
 21
513.222885
 31
0.0
  0
LINE
  5
350
330
1F
100
AcDbEntity
  8
LC-001-100-D00-0
 62
     7
370
    50
100
AcDbLine
 10
399.774351
 20
503.991652
 30
0.0
 11
399.774351
 21
506.454119
 31
0.0
  0
ARC
  5
351
330
1F
100
AcDbEntity
  8
LC-001-100-D00-0
 62
     7
370
    50
100
AcDbCircle
 10
400.374351
 20
503.991652
 30
0.0
 40
0.5999999999999659
100
AcDbArc
 50
180.0
 51
255.0
  0
LINE
  5
352
330
1F
100
AcDbEntity
  8
LC-001-100-D00-0
 62
     7
370
    50
100
AcDbLine
 10
400.925219
 20
503.222884
 30
0.0
 11
400.21906
 21
503.412096
 31
0.0
  0
LINE
  5
353
330
1F
100
AcDbEntity
  8
LC-001-100-D00-0
 62
     7
370
    50
100
AcDbLine
 10
400.925219
 20
503.222884
 30
0.0
 11
400.925219
 21
501.222886
 31
0.0
  0
LINE
  5
354
330
1F
100
AcDbEntity
  8
LC-001-100-D00-0
 62
     7
370
    50
100
AcDbLine
 10
397.974351
 20
502.222885
 30
0.0
 11
398.974351
 21
501.222885
 31
0.0
  0
LINE
  5
355
330
1F
100
AcDbEntity
  8
LC-001-100-D00-0
 62
     7
370
    50
100
AcDbLine
 10
397.974351
 20
502.222885
 30
0.0
 11
397.974372
 21
508.222885
 31
0.0
  0
LINE
  5
356
330
1F
100
AcDbEntity
  8
LC-001-100-D00-0
 62
     7
370
    50
100
AcDbLine
 10
398.974359
 20
509.222885
 30
0.0
 11
397.974372
 21
508.222885
 31
0.0
  0
LINE
  5
357
330
1F
100
AcDbEntity
  8
LC-001-100-D00-0
 62
     7
370
    50
100
AcDbLine
 10
400.925219
 20
509.222885
 30
0.0
 11
400.925219
 21
507.222885
 31
0.0
  0
LINE
  5
358
330
1F
100
AcDbEntity
  8
LC-001-100-D00-0
 62
     7
370
    50
100
AcDbLine
 10
400.21906
 20
507.033675
 30
0.0
 11
400.925219
 21
507.222885
 31
0.0
  0
ARC
  5
359
330
1F
100
AcDbEntity
  8
LC-001-100-D00-0
 62
     7
370
    50
100
AcDbCircle
 10
400.374351
 20
506.454119
 30
0.0
 40
0.6000000000001621
100
AcDbArc
 50
105.0
 51
180.0
  0
LINE
  5
35A
330
1F
100
AcDbEntity
  8
LC-001-100-D00-0
 62
     7
370
    50
100
AcDbLine
 10
398.974351
 20
501.222885
 30
0.0
 11
400.925219
 21
501.222886
 31
0.0
  0
LINE
  5
35B
330
1F
100
AcDbEntity
  8
LC-001-100-D00-0
 62
     7
370
    50
100
AcDbLine
 10
398.974359
 20
509.222885
 30
0.0
 11
400.925219
 21
509.222885
 31
0.0
  0
LINE
  5
35C
330
1F
100
AcDbEntity
  8
LC-001-100-D00-0
 62
     7
370
    50
100
AcDbLine
 10
389.374351
 20
506.454119
 30
0.0
 11
389.374351
 21
503.991652
 31
0.0
  0
LINE
  5
35D
330
1F
100
AcDbEntity
  8
LC-001-100-D00-0
 62
     7
370
    50
100
AcDbLine
 10
391.174376
 20
508.222885
 30
0.0
 11
390.174329
 21
509.222885
 31
0.0
  0
LINE
  5
35E
330
1F
100
AcDbEntity
  8
LC-001-100-D00-0
 62
     7
370
    50
100
AcDbLine
 10
391.174376
 20
508.222885
 30
0.0
 11
391.174351
 21
502.222885
 31
0.0
  0
LINE
  5
35F
330
1F
100
AcDbEntity
  8
LC-001-100-D00-0
 62
     7
370
    50
100
AcDbLine
 10
390.174351
 20
501.222885
 30
0.0
 11
391.174351
 21
502.222885
 31
0.0
  0
LINE
  5
360
330
1F
100
AcDbEntity
  8
LC-001-100-D00-0
 62
     7
370
    50
100
AcDbLine
 10
388.223469
 20
503.222884
 30
0.0
 11
388.223469
 21
501.222886
 31
0.0
  0
LINE
  5
361
330
1F
100
AcDbEntity
  8
LC-001-100-D00-0
 62
     7
370
    50
100
AcDbLine
 10
388.929643
 20
503.412096
 30
0.0
 11
388.223469
 21
503.222884
 31
0.0
  0
ARC
  5
362
330
1F
100
AcDbEntity
  8
LC-001-100-D00-0
 62
     7
370
    50
100
AcDbCircle
 10
388.774351
 20
503.991652
 30
0.0
 40
0.5999999999999787
100
AcDbArc
 50
285.0
 51
0.0
  0
ARC
  5
363
330
1F
100
AcDbEntity
  8
LC-001-100-D00-0
 62
     7
370
    50
100
AcDbCircle
 10
388.774351
 20
506.454119
 30
0.0
 40
0.6000000000000227
100
AcDbArc
 50
0.0
 51
75.0
  0
LINE
  5
364
330
1F
100
AcDbEntity
  8
LC-001-100-D00-0
 62
     7
370
    50
100
AcDbLine
 10
388.223469
 20
507.222885
 30
0.0
 11
388.929643
 21
507.033675
 31
0.0
  0
LINE
  5
365
330
1F
100
AcDbEntity
  8
LC-001-100-D00-0
 62
     7
370
    50
100
AcDbLine
 10
388.223469
 20
509.222885
 30
0.0
 11
388.223469
 21
507.222885
 31
0.0
  0
LINE
  5
366
330
1F
100
AcDbEntity
  8
LC-001-100-D00-0
 62
     7
370
    50
100
AcDbLine
 10
388.223469
 20
501.222886
 30
0.0
 11
390.174351
 21
501.222885
 31
0.0
  0
LINE
  5
367
330
1F
100
AcDbEntity
  8
LC-001-100-D00-0
 62
     7
370
    50
100
AcDbLine
 10
388.223469
 20
509.222885
 30
0.0
 11
390.174329
 21
509.222885
 31
0.0
  0
LINE
  5
368
330
1F
100
AcDbEntity
  8
LC-001-100-D00-0
 62
     7
370
    50
100
AcDbLine
 10
391.174351
 20
502.222885
 30
0.0
 11
391.332191
 21
502.222885
 31
0.0
  0
LINE
  5
369
330
1F
100
AcDbEntity
  8
LC-001-100-D00-0
 62
     7
370
    50
100
AcDbLine
 10
397.816512
 20
502.222885
 30
0.0
 11
397.974351
 21
502.222885
 31
0.0
  0
LINE
  5
36A
330
1F
100
AcDbEntity
  8
LC-001-100-D00-0
 62
     7
370
    50
100
AcDbLine
 10
398.974351
 20
501.222885
 30
0.0
 11
398.43857
 21
501.222885
 31
0.0
  0
LINE
  5
36B
330
1F
100
AcDbEntity
  8
LC-001-100-D00-0
 62
     7
370
    50
100
AcDbLine
 10
390.710133
 20
501.222885
 30
0.0
 11
390.174351
 21
501.222885
 31
0.0
  0
LINE
  5
36C
330
1F
100
AcDbEntity
  8
LC-001-100-D00-0
 62
     7
370
    50
100
AcDbLine
 10
400.925219
 20
509.222885
 30
0.0
 11
398.474336
 21
509.222885
 31
0.0
  0
LINE
  5
36D
330
1F
100
AcDbEntity
  8
LC-001-100-D00-0
 62
     7
370
    50
100
AcDbLine
 10
398.474336
 20
509.222885
 30
0.0
 11
398.474351
 21
520.222885
 31
0.0
  0
LINE
  5
36E
330
1F
100
AcDbEntity
  8
LC-001-100-D00-0
 62
     7
370
    50
100
AcDbLine
 10
398.474351
 20
520.222885
 30
0.0
 11
411.824351
 21
520.222885
 31
0.0
  0
ARC
  5
36F
330
1F
100
AcDbEntity
  8
LC-001-100-D00-0
 62
     7
370
    50
100
AcDbCircle
 10
411.824351
 20
519.222885
 30
0.0
 40
0.9999999999998863
100
AcDbArc
 50
0.0
 51
90.0
  0
LINE
  5
370
330
1F
100
AcDbEntity
  8
LC-001-100-D00-0
 62
     7
370
    50
100
AcDbLine
 10
412.824351
 20
519.222885
 30
0.0
 11
412.824333
 21
513.222885
 31
0.0
  0
LINE
  5
371
330
1F
100
AcDbEntity
  8
LC-001-100-D00-0
 62
     7
370
    50
100
AcDbLine
 10
409.824351
 20
513.222885
 30
0.0
 11
412.824333
 21
513.222885
 31
0.0
  0
LINE
  5
372
330
1F
100
AcDbEntity
  8
LC-001-100-D00-0
 62
     7
370
    50
100
AcDbLine
 10
409.824351
 20
513.222885
 30
0.0
 11
409.824371
 21
517.222885
 31
0.0
  0
LINE
  5
373
330
1F
100
AcDbEntity
  8
LC-001-100-D00-0
 62
     7
370
    50
100
AcDbLine
 10
405.324351
 20
517.222885
 30
0.0
 11
409.824371
 21
517.222885
 31
0.0
  0
ARC
  5
374
330
1F
100
AcDbEntity
  8
LC-001-100-D00-0
 62
     7
370
    50
100
AcDbCircle
 10
405.324351
 20
516.222885
 30
0.0
 40
1.000000000000114
100
AcDbArc
 50
90.0
 51
180.0
  0
LINE
  5
375
330
1F
100
AcDbEntity
  8
LC-001-100-D00-0
 62
     7
370
    50
100
AcDbLine
 10
404.324351
 20
502.222885
 30
0.0
 11
404.324351
 21
516.222885
 31
0.0
  0
ARC
  5
376
330
1F
100
AcDbEntity
  8
LC-001-100-D00-0
 62
     7
370
    50
100
AcDbCircle
 10
403.324351
 20
502.222885
 30
0.0
 40
0.9999999999998863
100
AcDbArc
 50
270.0
 51
0.0
  0
LINE
  5
377
330
1F
100
AcDbEntity
  8
LC-001-100-D00-0
 62
     7
370
    50
100
AcDbLine
 10
403.324351
 20
501.222885
 30
0.0
 11
400.925219
 21
501.222886
 31
0.0
  0
LINE
  5
378
330
1F
100
AcDbEntity
  8
LC-001-100-D00-0
 62
     7
370
    50
100
AcDbLine
 10
400.925219
 20
503.222884
 30
0.0
 11
400.925219
 21
501.222886
 31
0.0
  0
LINE
  5
379
330
1F
100
AcDbEntity
  8
LC-001-100-D00-0
 62
     7
370
    50
100
AcDbLine
 10
400.274351
 20
503.222885
 30
0.0
 11
400.925219
 21
503.222884
 31
0.0
  0
ARC
  5
37A
330
1F
100
AcDbEntity
  8
LC-001-100-D00-0
 62
     7
370
    50
100
AcDbCircle
 10
400.274351
 20
503.722885
 30
0.0
 40
0.5000000000003411
100
AcDbArc
 50
180.0
 51
270.0
  0
LINE
  5
37B
330
1F
100
AcDbEntity
  8
LC-001-100-D00-0
 62
     7
370
    50
100
AcDbLine
 10
399.774351
 20
506.722885
 30
0.0
 11
399.774351
 21
503.722885
 31
0.0
  0
ARC
  5
37C
330
1F
100
AcDbEntity
  8
LC-001-100-D00-0
 62
     7
370
    50
100
AcDbCircle
 10
400.274351
 20
506.722885
 30
0.0
 40
0.4999999999998863
100
AcDbArc
 50
90.0
 51
180.0
  0
LINE
  5
37D
330
1F
100
AcDbEntity
  8
LC-001-100-D00-0
 62
     7
370
    50
100
AcDbLine
 10
400.925219
 20
507.222885
 30
0.0
 11
400.274351
 21
507.222885
 31
0.0
  0
LINE
  5
37E
330
1F
100
AcDbEntity
  8
LC-001-100-D00-0
 62
     7
370
    50
100
AcDbLine
 10
400.925219
 20
509.222885
 30
0.0
 11
400.925219
 21
507.222885
 31
0.0
  0
ARC
  5
37F
330
1F
100
AcDbEntity
  8
LC-001-100-D00-0
 62
     7
370
    50
100
AcDbCircle
 10
383.824351
 20
516.222885
 30
0.0
 40
0.9999999999998863
100
AcDbArc
 50
0.0
 51
90.0
  0
LINE
  5
380
330
1F
100
AcDbEntity
  8
LC-001-100-D00-0
 62
     7
370
    50
100
AcDbLine
 10
384.824351
 20
516.222885
 30
0.0
 11
384.824351
 21
502.222885
 31
0.0
  0
ARC
  5
381
330
1F
100
AcDbEntity
  8
LC-001-100-D00-0
 62
     7
370
    50
100
AcDbCircle
 10
385.824351
 20
502.222885
 30
0.0
 40
1.000000000000171
100
AcDbArc
 50
180.0
 51
270.0
  0
LINE
  5
382
330
1F
100
AcDbEntity
  8
LC-001-100-D00-0
 62
     7
370
    50
100
AcDbLine
 10
389.374351
 20
503.722885
 30
0.0
 11
389.374351
 21
506.722885
 31
0.0
  0
LINE
  5
383
330
1F
100
AcDbEntity
  8
LC-001-100-D00-0
 62
     7
370
    50
100
AcDbLine
 10
390.674351
 20
520.222885
 30
0.0
 11
390.674353
 21
509.222885
 31
0.0
  0
LINE
  5
384
330
1F
100
AcDbEntity
  8
LC-001-100-D00-0
 62
     7
370
    50
100
AcDbLine
 10
390.674351
 20
520.222885
 30
0.0
 11
398.474351
 21
520.222885
 31
0.0
  0
LINE
  5
385
330
1F
100
AcDbEntity
  8
LC-001-100-D00-0
 62
     7
370
    50
100
AcDbLine
 10
388.223469
 20
503.222884
 30
0.0
 11
388.223469
 21
501.222886
 31
0.0
  0
LINE
  5
386
330
1F
100
AcDbEntity
  8
LC-001-100-D00-0
 62
     7
370
    50
100
AcDbLine
 10
388.223469
 20
509.222885
 30
0.0
 11
388.223469
 21
507.222885
 31
0.0
  0
ARC
  5
387
330
1F
100
AcDbEntity
  8
LC-001-100-D00-0
 62
     7
370
    50
100
AcDbCircle
 10
388.874351
 20
503.722885
 30
0.0
 40
0.5000000000003411
100
AcDbArc
 50
270.0
 51
0.0
  0
LINE
  5
388
330
1F
100
AcDbEntity
  8
LC-001-100-D00-0
 62
     7
370
    50
100
AcDbLine
 10
388.223469
 20
503.222884
 30
0.0
 11
388.874351
 21
503.222885
 31
0.0
  0
LINE
  5
389
330
1F
100
AcDbEntity
  8
LC-001-100-D00-0
 62
     7
370
    50
100
AcDbLine
 10
379.324377
 20
517.222885
 30
0.0
 11
379.324351
 21
513.222885
 31
0.0
  0
LINE
  5
38A
330
1F
100
AcDbEntity
  8
LC-001-100-D00-0
 62
     7
370
    50
100
AcDbLine
 10
376.324356
 20
513.222885
 30
0.0
 11
376.324351
 21
519.222885
 31
0.0
  0
ARC
  5
38B
330
1F
100
AcDbEntity
  8
LC-001-100-D00-0
 62
     7
370
    50
100
AcDbCircle
 10
377.324351
 20
519.222885
 30
0.0
 40
0.9999999999998863
100
AcDbArc
 50
90.0
 51
180.0
  0
LINE
  5
38C
330
1F
100
AcDbEntity
  8
LC-001-100-D00-0
 62
     7
370
    50
100
AcDbLine
 10
388.874351
 20
507.222885
 30
0.0
 11
388.223469
 21
507.222885
 31
0.0
  0
ARC
  5
38D
330
1F
100
AcDbEntity
  8
LC-001-100-D00-0
 62
     7
370
    50
100
AcDbCircle
 10
388.874351
 20
506.722885
 30
0.0
 40
0.4999999999997726
100
AcDbArc
 50
0.0
 51
90.0
  0
LINE
  5
38E
330
1F
100
AcDbEntity
  8
LC-001-100-D00-0
 62
     7
370
    50
100
AcDbLine
 10
376.324356
 20
513.222885
 30
0.0
 11
379.324351
 21
513.222885
 31
0.0
  0
LINE
  5
38F
330
1F
100
AcDbEntity
  8
LC-001-100-D00-0
 62
     7
370
    50
100
AcDbLine
 10
390.674353
 20
509.222885
 30
0.0
 11
388.223469
 21
509.222885
 31
0.0
  0
LINE
  5
390
330
1F
100
AcDbEntity
  8
LC-001-100-D00-0
 62
     7
370
    50
100
AcDbLine
 10
388.223469
 20
501.222886
 30
0.0
 11
385.824351
 21
501.222885
 31
0.0
  0
LINE
  5
391
330
1F
100
AcDbEntity
  8
LC-001-100-D00-0
 62
     7
370
    50
100
AcDbLine
 10
379.324377
 20
517.222885
 30
0.0
 11
383.824351
 21
517.222885
 31
0.0
  0
LINE
  5
392
330
1F
100
AcDbEntity
  8
LC-001-100-D00-0
 62
     7
370
    50
100
AcDbLine
 10
377.324351
 20
520.222885
 30
0.0
 11
390.674351
 21
520.222885
 31
0.0
  0
LINE
  5
393
330
1F
100
AcDbEntity
  8
LC-001-100-D00-0
 62
     7
370
    50
100
AcDbLine
 10
407.824351
 20
513.222885
 30
0.0
 11
409.824351
 21
513.222885
 31
0.0
  0
LINE
  5
394
330
1F
100
AcDbEntity
  8
LC-001-100-D00-0
 62
     7
370
    50
100
AcDbLine
 10
379.324351
 20
513.222885
 30
0.0
 11
381.324351
 21
513.222885
 31
0.0
  0
LINE
  5
395
330
1F
100
AcDbEntity
  8
LC-001-100-D00-0
 62
     7
370
    50
100
AcDbLine
 10
381.324351
 20
513.222885
 30
0.0
 11
384.824336
 21
513.222885
 31
0.0
  0
LINE
  5
396
330
1F
100
AcDbEntity
  8
LC-001-100-D00-0
 62
     7
370
    50
100
AcDbLine
 10
404.324353
 20
513.222885
 30
0.0
 11
407.824351
 21
513.222885
 31
0.0
  0
LINE
  5
397
330
1F
100
AcDbEntity
  8
LC-001-100-D00-0
 62
     7
370
    50
100
AcDbLine
 10
-70.225649
 20
503.991652
 30
0.0
 11
-70.225649
 21
506.454119
 31
0.0
  0
ARC
  5
398
330
1F
100
AcDbEntity
  8
LC-001-100-D00-0
 62
     7
370
    50
100
AcDbCircle
 10
-69.625649
 20
503.991652
 30
0.0
 40
0.6000000000001364
100
AcDbArc
 50
180.0
 51
255.0
  0
LINE
  5
399
330
1F
100
AcDbEntity
  8
LC-001-100-D00-0
 62
     7
370
    50
100
AcDbLine
 10
-69.074795
 20
503.222884
 30
0.0
 11
-69.78094
 21
503.412096
 31
0.0
  0
LINE
  5
39A
330
1F
100
AcDbEntity
  8
LC-001-100-D00-0
 62
     7
370
    50
100
AcDbLine
 10
-69.074795
 20
503.222884
 30
0.0
 11
-69.074795
 21
501.222886
 31
0.0
  0
LINE
  5
39B
330
1F
100
AcDbEntity
  8
LC-001-100-D00-0
 62
     7
370
    50
100
AcDbLine
 10
-72.025649
 20
502.222885
 30
0.0
 11
-71.025649
 21
501.222885
 31
0.0
  0
LINE
  5
39C
330
1F
100
AcDbEntity
  8
LC-001-100-D00-0
 62
     7
370
    50
100
AcDbLine
 10
-72.025649
 20
502.222885
 30
0.0
 11
-72.025649
 21
508.222885
 31
0.0
  0
LINE
  5
39D
330
1F
100
AcDbEntity
  8
LC-001-100-D00-0
 62
     7
370
    50
100
AcDbLine
 10
-71.025647
 20
509.222885
 30
0.0
 11
-72.025649
 21
508.222885
 31
0.0
  0
LINE
  5
39E
330
1F
100
AcDbEntity
  8
LC-001-100-D00-0
 62
     7
370
    50
100
AcDbLine
 10
-69.074795
 20
509.222885
 30
0.0
 11
-69.074795
 21
507.222885
 31
0.0
  0
LINE
  5
39F
330
1F
100
AcDbEntity
  8
LC-001-100-D00-0
 62
     7
370
    50
100
AcDbLine
 10
-69.78094
 20
507.033675
 30
0.0
 11
-69.074795
 21
507.222885
 31
0.0
  0
ARC
  5
3A0
330
1F
100
AcDbEntity
  8
LC-001-100-D00-0
 62
     7
370
    50
100
AcDbCircle
 10
-69.625649
 20
506.454119
 30
0.0
 40
0.600000000000118
100
AcDbArc
 50
105.0
 51
180.0
  0
LINE
  5
3A1
330
1F
100
AcDbEntity
  8
LC-001-100-D00-0
 62
     7
370
    50
100
AcDbLine
 10
-71.025649
 20
501.222885
 30
0.0
 11
-69.074795
 21
501.222886
 31
0.0
  0
LINE
  5
3A2
330
1F
100
AcDbEntity
  8
LC-001-100-D00-0
 62
     7
370
    50
100
AcDbLine
 10
-71.025647
 20
509.222885
 30
0.0
 11
-69.074795
 21
509.222885
 31
0.0
  0
LINE
  5
3A3
330
1F
100
AcDbEntity
  8
LC-001-100-D00-0
 62
     7
370
    50
100
AcDbLine
 10
-80.625649
 20
506.454119
 30
0.0
 11
-80.625649
 21
503.991652
 31
0.0
  0
LINE
  5
3A4
330
1F
100
AcDbEntity
  8
LC-001-100-D00-0
 62
     7
370
    50
100
AcDbLine
 10
-78.825645
 20
508.222885
 30
0.0
 11
-79.825647
 21
509.222885
 31
0.0
  0
LINE
  5
3A5
330
1F
100
AcDbEntity
  8
LC-001-100-D00-0
 62
     7
370
    50
100
AcDbLine
 10
-78.825645
 20
508.222885
 30
0.0
 11
-78.825649
 21
502.222885
 31
0.0
  0
LINE
  5
3A6
330
1F
100
AcDbEntity
  8
LC-001-100-D00-0
 62
     7
370
    50
100
AcDbLine
 10
-79.825649
 20
501.222885
 30
0.0
 11
-78.825649
 21
502.222885
 31
0.0
  0
LINE
  5
3A7
330
1F
100
AcDbEntity
  8
LC-001-100-D00-0
 62
     7
370
    50
100
AcDbLine
 10
-81.7765
 20
503.222884
 30
0.0
 11
-81.7765
 21
501.222886
 31
0.0
  0
LINE
  5
3A8
330
1F
100
AcDbEntity
  8
LC-001-100-D00-0
 62
     7
370
    50
100
AcDbLine
 10
-81.070357
 20
503.412096
 30
0.0
 11
-81.7765
 21
503.222884
 31
0.0
  0
ARC
  5
3A9
330
1F
100
AcDbEntity
  8
LC-001-100-D00-0
 62
     7
370
    50
100
AcDbCircle
 10
-81.225649
 20
503.991652
 30
0.0
 40
0.6000000000002278
100
AcDbArc
 50
285.0
 51
0.0
  0
ARC
  5
3AA
330
1F
100
AcDbEntity
  8
LC-001-100-D00-0
 62
     7
370
    50
100
AcDbCircle
 10
-81.225649
 20
506.454119
 30
0.0
 40
0.6000000000002501
100
AcDbArc
 50
0.0
 51
75.0
  0
LINE
  5
3AB
330
1F
100
AcDbEntity
  8
LC-001-100-D00-0
 62
     7
370
    50
100
AcDbLine
 10
-81.7765
 20
507.222885
 30
0.0
 11
-81.070357
 21
507.033675
 31
0.0
  0
LINE
  5
3AC
330
1F
100
AcDbEntity
  8
LC-001-100-D00-0
 62
     7
370
    50
100
AcDbLine
 10
-81.7765
 20
509.222885
 30
0.0
 11
-81.7765
 21
507.222885
 31
0.0
  0
LINE
  5
3AD
330
1F
100
AcDbEntity
  8
LC-001-100-D00-0
 62
     7
370
    50
100
AcDbLine
 10
-81.7765
 20
501.222886
 30
0.0
 11
-79.825649
 21
501.222885
 31
0.0
  0
LINE
  5
3AE
330
1F
100
AcDbEntity
  8
LC-001-100-D00-0
 62
     7
370
    50
100
AcDbLine
 10
-81.7765
 20
509.222885
 30
0.0
 11
-79.825647
 21
509.222885
 31
0.0
  0
LINE
  5
3AF
330
1F
100
AcDbEntity
  8
LC-001-100-D00-0
 62
     7
370
    50
100
AcDbLine
 10
-78.825649
 20
502.222885
 30
0.0
 11
-78.667809
 21
502.222885
 31
0.0
  0
LINE
  5
3B0
330
1F
100
AcDbEntity
  8
LC-001-100-D00-0
 62
     7
370
    50
100
AcDbLine
 10
-72.183488
 20
502.222885
 30
0.0
 11
-72.025649
 21
502.222885
 31
0.0
  0
LINE
  5
3B1
330
1F
100
AcDbEntity
  8
LC-001-100-D00-0
 62
     7
370
    50
100
AcDbLine
 10
-71.025649
 20
501.222885
 30
0.0
 11
-71.56143
 21
501.222885
 31
0.0
  0
LINE
  5
3B2
330
1F
100
AcDbEntity
  8
LC-001-100-D00-0
 62
     7
370
    50
100
AcDbLine
 10
-79.289867
 20
501.222885
 30
0.0
 11
-79.825649
 21
501.222885
 31
0.0
  0
LINE
  5
3B3
330
1F
100
AcDbEntity
  8
LC-001-100-D00-0
 62
     7
370
    50
100
AcDbLine
 10
-69.074795
 20
509.222885
 30
0.0
 11
-71.525648
 21
509.222885
 31
0.0
  0
LINE
  5
3B4
330
1F
100
AcDbEntity
  8
LC-001-100-D00-0
 62
     7
370
    50
100
AcDbLine
 10
-71.525648
 20
509.222885
 30
0.0
 11
-71.525649
 21
520.222885
 31
0.0
  0
LINE
  5
3B5
330
1F
100
AcDbEntity
  8
LC-001-100-D00-0
 62
     7
370
    50
100
AcDbLine
 10
-71.525649
 20
520.222885
 30
0.0
 11
-58.175649
 21
520.222885
 31
0.0
  0
ARC
  5
3B6
330
1F
100
AcDbEntity
  8
LC-001-100-D00-0
 62
     7
370
    50
100
AcDbCircle
 10
-58.175649
 20
519.222885
 30
0.0
 40
1.000000000000057
100
AcDbArc
 50
0.0
 51
90.0
  0
LINE
  5
3B7
330
1F
100
AcDbEntity
  8
LC-001-100-D00-0
 62
     7
370
    50
100
AcDbLine
 10
-57.175649
 20
519.222885
 30
0.0
 11
-57.175651
 21
513.222885
 31
0.0
  0
LINE
  5
3B8
330
1F
100
AcDbEntity
  8
LC-001-100-D00-0
 62
     7
370
    50
100
AcDbLine
 10
-60.175649
 20
513.222885
 30
0.0
 11
-57.175651
 21
513.222885
 31
0.0
  0
LINE
  5
3B9
330
1F
100
AcDbEntity
  8
LC-001-100-D00-0
 62
     7
370
    50
100
AcDbLine
 10
-60.175649
 20
513.222885
 30
0.0
 11
-60.17565
 21
517.222885
 31
0.0
  0
LINE
  5
3BA
330
1F
100
AcDbEntity
  8
LC-001-100-D00-0
 62
     7
370
    50
100
AcDbLine
 10
-64.675649
 20
517.222885
 30
0.0
 11
-60.17565
 21
517.222885
 31
0.0
  0
ARC
  5
3BB
330
1F
100
AcDbEntity
  8
LC-001-100-D00-0
 62
     7
370
    50
100
AcDbCircle
 10
-64.675649
 20
516.222885
 30
0.0
 40
0.9999999999998863
100
AcDbArc
 50
90.0
 51
180.0
  0
LINE
  5
3BC
330
1F
100
AcDbEntity
  8
LC-001-100-D00-0
 62
     7
370
    50
100
AcDbLine
 10
-65.675649
 20
502.222885
 30
0.0
 11
-65.675649
 21
516.222885
 31
0.0
  0
ARC
  5
3BD
330
1F
100
AcDbEntity
  8
LC-001-100-D00-0
 62
     7
370
    50
100
AcDbCircle
 10
-66.675649
 20
502.222885
 30
0.0
 40
1.000000000000114
100
AcDbArc
 50
270.0
 51
0.0
  0
LINE
  5
3BE
330
1F
100
AcDbEntity
  8
LC-001-100-D00-0
 62
     7
370
    50
100
AcDbLine
 10
-66.675649
 20
501.222885
 30
0.0
 11
-69.074795
 21
501.222886
 31
0.0
  0
LINE
  5
3BF
330
1F
100
AcDbEntity
  8
LC-001-100-D00-0
 62
     7
370
    50
100
AcDbLine
 10
-69.074795
 20
503.222884
 30
0.0
 11
-69.074795
 21
501.222886
 31
0.0
  0
LINE
  5
3C0
330
1F
100
AcDbEntity
  8
LC-001-100-D00-0
 62
     7
370
    50
100
AcDbLine
 10
-69.725649
 20
503.222885
 30
0.0
 11
-69.074795
 21
503.222884
 31
0.0
  0
ARC
  5
3C1
330
1F
100
AcDbEntity
  8
LC-001-100-D00-0
 62
     7
370
    50
100
AcDbCircle
 10
-69.725649
 20
503.722885
 30
0.0
 40
0.5000000000000853
100
AcDbArc
 50
180.0
 51
270.0
  0
LINE
  5
3C2
330
1F
100
AcDbEntity
  8
LC-001-100-D00-0
 62
     7
370
    50
100
AcDbLine
 10
-70.225649
 20
506.722885
 30
0.0
 11
-70.225649
 21
503.722885
 31
0.0
  0
ARC
  5
3C3
330
1F
100
AcDbEntity
  8
LC-001-100-D00-0
 62
     7
370
    50
100
AcDbCircle
 10
-69.725649
 20
506.722885
 30
0.0
 40
0.5000000000001137
100
AcDbArc
 50
90.0
 51
180.0
  0
LINE
  5
3C4
330
1F
100
AcDbEntity
  8
LC-001-100-D00-0
 62
     7
370
    50
100
AcDbLine
 10
-69.074795
 20
507.222885
 30
0.0
 11
-69.725649
 21
507.222885
 31
0.0
  0
LINE
  5
3C5
330
1F
100
AcDbEntity
  8
LC-001-100-D00-0
 62
     7
370
    50
100
AcDbLine
 10
-69.074795
 20
509.222885
 30
0.0
 11
-69.074795
 21
507.222885
 31
0.0
  0
ARC
  5
3C6
330
1F
100
AcDbEntity
  8
LC-001-100-D00-0
 62
     7
370
    50
100
AcDbCircle
 10
-86.175649
 20
516.222885
 30
0.0
 40
0.9999999999999147
100
AcDbArc
 50
0.0
 51
90.0
  0
ARC
  5
3C7
330
1F
100
AcDbEntity
  8
LC-001-100-D00-0
 62
     7
370
    50
100
AcDbCircle
 10
-84.175649
 20
502.222885
 30
0.0
 40
1.000000000000057
100
AcDbArc
 50
180.0
 51
270.0
  0
LINE
  5
3C8
330
1F
100
AcDbEntity
  8
LC-001-100-D00-0
 62
     7
370
    50
100
AcDbLine
 10
-85.175649
 20
516.222885
 30
0.0
 11
-85.175649
 21
502.222885
 31
0.0
  0
LINE
  5
3C9
330
1F
100
AcDbEntity
  8
LC-001-100-D00-0
 62
     7
370
    50
100
AcDbLine
 10
-80.625649
 20
503.722885
 30
0.0
 11
-80.625649
 21
506.722885
 31
0.0
  0
LINE
  5
3CA
330
1F
100
AcDbEntity
  8
LC-001-100-D00-0
 62
     7
370
    50
100
AcDbLine
 10
-79.325649
 20
520.222885
 30
0.0
 11
-79.325646
 21
509.222885
 31
0.0
  0
LINE
  5
3CB
330
1F
100
AcDbEntity
  8
LC-001-100-D00-0
 62
     7
370
    50
100
AcDbLine
 10
-79.325649
 20
520.222885
 30
0.0
 11
-71.525649
 21
520.222885
 31
0.0
  0
LINE
  5
3CC
330
1F
100
AcDbEntity
  8
LC-001-100-D00-0
 62
     7
370
    50
100
AcDbLine
 10
-81.7765
 20
503.222884
 30
0.0
 11
-81.7765
 21
501.222886
 31
0.0
  0
LINE
  5
3CD
330
1F
100
AcDbEntity
  8
LC-001-100-D00-0
 62
     7
370
    50
100
AcDbLine
 10
-81.7765
 20
509.222885
 30
0.0
 11
-81.7765
 21
507.222885
 31
0.0
  0
ARC
  5
3CE
330
1F
100
AcDbEntity
  8
LC-001-100-D00-0
 62
     7
370
    50
100
AcDbCircle
 10
-81.125649
 20
503.722885
 30
0.0
 40
0.5000000000003411
100
AcDbArc
 50
270.0
 51
0.0
  0
LINE
  5
3CF
330
1F
100
AcDbEntity
  8
LC-001-100-D00-0
 62
     7
370
    50
100
AcDbLine
 10
-81.7765
 20
503.222884
 30
0.0
 11
-81.125649
 21
503.222885
 31
0.0
  0
LINE
  5
3D0
330
1F
100
AcDbEntity
  8
LC-001-100-D00-0
 62
     7
370
    50
100
AcDbLine
 10
-90.675652
 20
517.222885
 30
0.0
 11
-90.675649
 21
513.222885
 31
0.0
  0
LINE
  5
3D1
330
1F
100
AcDbEntity
  8
LC-001-100-D00-0
 62
     7
370
    50
100
AcDbLine
 10
-93.675651
 20
513.222885
 30
0.0
 11
-93.675649
 21
519.222885
 31
0.0
  0
ARC
  5
3D2
330
1F
100
AcDbEntity
  8
LC-001-100-D00-0
 62
     7
370
    50
100
AcDbCircle
 10
-92.675649
 20
519.222885
 30
0.0
 40
0.9999999999998863
100
AcDbArc
 50
90.0
 51
180.0
  0
LINE
  5
3D3
330
1F
100
AcDbEntity
  8
LC-001-100-D00-0
 62
     7
370
    50
100
AcDbLine
 10
-81.125649
 20
507.222885
 30
0.0
 11
-81.7765
 21
507.222885
 31
0.0
  0
ARC
  5
3D4
330
1F
100
AcDbEntity
  8
LC-001-100-D00-0
 62
     7
370
    50
100
AcDbCircle
 10
-81.125649
 20
506.722885
 30
0.0
 40
0.5000000000002274
100
AcDbArc
 50
0.0
 51
90.0
  0
LINE
  5
3D5
330
1F
100
AcDbEntity
  8
LC-001-100-D00-0
 62
     7
370
    50
100
AcDbLine
 10
-79.325646
 20
509.222885
 30
0.0
 11
-81.7765
 21
509.222885
 31
0.0
  0
LINE
  5
3D6
330
1F
100
AcDbEntity
  8
LC-001-100-D00-0
 62
     7
370
    50
100
AcDbLine
 10
-81.7765
 20
501.222886
 30
0.0
 11
-84.175649
 21
501.222885
 31
0.0
  0
LINE
  5
3D7
330
1F
100
AcDbEntity
  8
LC-001-100-D00-0
 62
     7
370
    50
100
AcDbLine
 10
-90.675652
 20
517.222885
 30
0.0
 11
-86.175649
 21
517.222885
 31
0.0
  0
LINE
  5
3D8
330
1F
100
AcDbEntity
  8
LC-001-100-D00-0
 62
     7
370
    50
100
AcDbLine
 10
-92.675649
 20
520.222885
 30
0.0
 11
-79.325649
 21
520.222885
 31
0.0
  0
LINE
  5
3D9
330
1F
100
AcDbEntity
  8
LC-001-100-D00-0
 62
     7
370
    50
100
AcDbLine
 10
-93.675651
 20
513.222885
 30
0.0
 11
-90.675649
 21
513.222885
 31
0.0
  0
LINE
  5
3DA
330
1F
100
AcDbEntity
  8
LC-001-100-D00-0
 62
     7
370
    50
100
AcDbLine
 10
-62.175649
 20
513.222885
 30
0.0
 11
-60.175649
 21
513.222885
 31
0.0
  0
LINE
  5
3DB
330
1F
100
AcDbEntity
  8
LC-001-100-D00-0
 62
     7
370
    50
100
AcDbLine
 10
-90.675649
 20
513.222885
 30
0.0
 11
-88.675649
 21
513.222885
 31
0.0
  0
LINE
  5
3DC
330
1F
100
AcDbEntity
  8
LC-001-100-D00-0
 62
     7
370
    50
100
AcDbLine
 10
-88.675649
 20
513.222885
 30
0.0
 11
-85.175648
 21
513.222885
 31
0.0
  0
LINE
  5
3DD
330
1F
100
AcDbEntity
  8
LC-001-100-D00-0
 62
     7
370
    50
100
AcDbLine
 10
-65.675646
 20
513.222885
 30
0.0
 11
-62.175649
 21
513.222885
 31
0.0
  0
LINE
  5
3DE
330
1F
100
AcDbEntity
  8
LC-001-100-D00-0
 62
     7
370
    50
100
AcDbLine
 10
-116.925649
 20
490.379968
 30
0.0
 11
-116.635732
 21
490.288886
 31
0.0
  0
LINE
  5
3DF
330
1F
100
AcDbEntity
  8
LC-001-100-D00-0
 62
     7
370
    50
100
AcDbLine
 10
-118.113263
 20
488.237456
 30
0.0
 11
-116.925649
 21
490.379968
 31
0.0
  0
ARC
  5
3E0
330
1F
100
AcDbEntity
  8
LC-001-100-D00-0
 62
     7
370
    50
100
AcDbCircle
 10
-118.375649
 20
488.382899
 30
0.0
 40
0.3000000000001251
100
AcDbArc
 50
180.0
 51
331.0
  0
LINE
  5
3E1
330
1F
100
AcDbEntity
  8
LC-001-100-D00-0
 62
     7
370
    50
100
AcDbLine
 10
-118.675649
 20
490.923139
 30
0.0
 11
-118.675649
 21
488.382899
 31
0.0
  0
ARC
  5
3E2
330
1F
100
AcDbEntity
  8
LC-001-100-D00-0
 62
     7
370
    50
100
AcDbCircle
 10
-116.675649
 20
490.923139
 30
0.0
 40
1.999999999999791
100
AcDbArc
 50
113.962489
 51
180.0
  0
LINE
  5
3E3
330
1F
100
AcDbEntity
  8
LC-001-100-D00-0
 62
     7
370
    50
100
AcDbLine
 10
-116.619573
 20
493.136697
 30
0.0
 11
-117.487926
 21
492.750762
 31
0.0
  0
ARC
  5
3E4
330
1F
100
AcDbEntity
  8
LC-001-100-D00-0
 62
     7
370
    50
100
AcDbCircle
 10
-116.213434
 20
492.222885
 30
0.0
 40
0.9999999999998863
100
AcDbArc
 50
90.0
 51
113.962489
  0
LINE
  5
3E5
330
1F
100
AcDbEntity
  8
LC-001-100-D00-0
 62
     7
370
    50
100
AcDbLine
 10
-110.425651
 20
493.222885
 30
0.0
 11
-110.425651
 21
489.222886
 31
0.0
  0
LINE
  5
3E6
330
1F
100
AcDbEntity
  8
LC-001-100-D00-0
 62
     7
370
    50
100
AcDbLine
 10
-116.425649
 20
490.002679
 30
0.0
 11
-116.425649
 21
489.222885
 31
0.0
  0
ARC
  5
3E7
330
1F
100
AcDbEntity
  8
LC-001-100-D00-0
 62
     7
370
    50
100
AcDbCircle
 10
-116.725649
 20
490.002679
 30
0.0
 40
0.3000000000001535
100
AcDbArc
 50
0.0
 51
72.558995
  0
LINE
  5
3E8
330
1F
100
AcDbEntity
  8
LC-001-100-D00-0
 62
     7
370
    50
100
AcDbLine
 10
-110.425651
 20
489.222886
 30
0.0
 11
-116.425649
 21
489.222885
 31
0.0
  0
LINE
  5
3E9
330
1F
100
AcDbEntity
  8
LC-001-100-D00-0
 62
     7
370
    50
100
AcDbLine
 10
-110.425651
 20
493.222885
 30
0.0
 11
-116.213434
 21
493.222885
 31
0.0
  0
LINE
  5
3EA
330
1F
100
AcDbEntity
  8
LC-001-100-D00-0
 62
     7
370
    50
100
AcDbLine
 10
-116.425649
 20
489.222885
 30
0.0
 11
-117.567031
 21
489.222885
 31
0.0
  0
LINE
  5
3EB
330
1F
100
AcDbEntity
  8
LC-001-100-D00-0
 62
     7
370
    50
100
AcDbLine
 10
-116.976136
 20
490.288886
 30
0.0
 11
-116.635732
 21
490.288886
 31
0.0
  0
LINE
  5
3EC
330
1F
100
AcDbEntity
  8
LC-001-100-D00-0
 62
     7
370
    50
100
AcDbLine
 10
-234.425649
 20
489.222885
 30
0.0
 11
-234.425649
 21
490.002679
 31
0.0
  0
LINE
  5
3ED
330
1F
100
AcDbEntity
  8
LC-001-100-D00-0
 62
     7
370
    50
100
AcDbLine
 10
-233.284267
 20
489.222885
 30
0.0
 11
-234.425649
 21
489.222885
 31
0.0
  0
LINE
  5
3EE
330
1F
100
AcDbEntity
  8
LC-001-100-D00-0
 62
     7
370
    50
100
AcDbLine
 10
-233.925648
 20
490.379968
 30
0.0
 11
-232.738035
 21
488.237456
 31
0.0
  0
LINE
  5
3EF
330
1F
100
AcDbEntity
  8
LC-001-100-D00-0
 62
     7
370
    50
100
AcDbLine
 10
-234.215566
 20
490.288886
 30
0.0
 11
-233.875161
 21
490.288886
 31
0.0
  0
LINE
  5
3F0
330
1F
100
AcDbEntity
  8
LC-001-100-D00-0
 62
     7
370
    50
100
AcDbLine
 10
-234.215566
 20
490.288886
 30
0.0
 11
-233.925648
 21
490.379968
 31
0.0
  0
ARC
  5
3F1
330
1F
100
AcDbEntity
  8
LC-001-100-D00-0
 62
     7
370
    50
100
AcDbCircle
 10
-234.125649
 20
490.002679
 30
0.0
 40
0.2999999999999676
100
AcDbArc
 50
107.441005
 51
180.0
  0
ARC
  5
3F2
330
1F
100
AcDbEntity
  8
LC-001-100-D00-0
 62
     7
370
    50
100
AcDbCircle
 10
-232.475649
 20
488.382899
 30
0.0
 40
0.3000000000000034
100
AcDbArc
 50
209.0
 51
0.0
  0
ARC
  5
3F3
330
1F
100
AcDbEntity
  8
LC-001-100-D00-0
 62
     7
370
    50
100
AcDbCircle
 10
-234.175649
 20
490.923139
 30
0.0
 40
2.0
100
AcDbArc
 50
0.0
 51
66.037511
  0
LINE
  5
3F4
330
1F
100
AcDbEntity
  8
LC-001-100-D00-0
 62
     7
370
    50
100
AcDbLine
 10
-232.175649
 20
488.382899
 30
0.0
 11
-232.175649
 21
490.923139
 31
0.0
  0
ARC
  5
3F5
330
1F
100
AcDbEntity
  8
LC-001-100-D00-0
 62
     7
370
    50
100
AcDbCircle
 10
-234.637863
 20
492.222885
 30
0.0
 40
1.000000000000144
100
AcDbArc
 50
66.037511
 51
90.0
  0
LINE
  5
3F6
330
1F
100
AcDbEntity
  8
LC-001-100-D00-0
 62
     7
370
    50
100
AcDbLine
 10
-233.363372
 20
492.750762
 30
0.0
 11
-234.231725
 21
493.136697
 31
0.0
  0
LINE
  5
3F7
330
1F
100
AcDbEntity
  8
LC-001-100-D00-0
 62
     7
370
    50
100
AcDbLine
 10
-240.425646
 20
489.222886
 30
0.0
 11
-240.425646
 21
493.222885
 31
0.0
  0
LINE
  5
3F8
330
1F
100
AcDbEntity
  8
LC-001-100-D00-0
 62
     7
370
    50
100
AcDbLine
 10
-234.425649
 20
489.222885
 30
0.0
 11
-240.425646
 21
489.222886
 31
0.0
  0
LINE
  5
3F9
330
1F
100
AcDbEntity
  8
LC-001-100-D00-0
 62
     7
370
    50
100
AcDbLine
 10
-234.637863
 20
493.222885
 30
0.0
 11
-240.425646
 21
493.222885
 31
0.0
  0
LINE
  5
3FA
330
1F
100
AcDbEntity
  8
LC-001-100-D00-0
 62
     7
370
    50
100
AcDbLine
 10
-101.425648
 20
493.222885
 30
0.0
 11
-101.425648
 21
469.472887
 31
0.0
  0
LINE
  5
3FB
330
1F
100
AcDbEntity
  8
LC-001-100-D00-0
 62
     7
370
    50
100
AcDbLine
 10
-104.425646
 20
490.222886
 30
0.0
 11
-104.425649
 21
469.472885
 31
0.0
  0
LINE
  5
3FC
330
1F
100
AcDbEntity
  8
LC-001-100-D00-0
 62
     7
370
    50
100
AcDbLine
 10
-107.425645
 20
490.222886
 30
0.0
 11
-107.425645
 21
486.222884
 31
0.0
  0
LINE
  5
3FD
330
1F
100
AcDbEntity
  8
LC-001-100-D00-0
 62
     7
370
    50
100
AcDbLine
 10
-113.425649
 20
486.222885
 30
0.0
 11
-107.425645
 21
486.222884
 31
0.0
  0
LINE
  5
3FE
330
1F
100
AcDbEntity
  8
LC-001-100-D00-0
 62
     7
370
    50
100
AcDbLine
 10
-113.42565
 20
489.222886
 30
0.0
 11
-113.425649
 21
486.222885
 31
0.0
  0
LINE
  5
3FF
330
1F
100
AcDbEntity
  8
LC-001-100-D00-0
 62
     7
370
    50
100
AcDbLine
 10
-110.425651
 20
489.222886
 30
0.0
 11
-113.42565
 21
489.222886
 31
0.0
  0
LINE
  5
400
330
1F
100
AcDbEntity
  8
LC-001-100-D00-0
 62
     7
370
    50
100
AcDbLine
 10
-110.425651
 20
489.222886
 30
0.0
 11
-110.425651
 21
493.222885
 31
0.0
  0
LINE
  5
401
330
1F
100
AcDbEntity
  8
LC-001-100-D00-0
 62
     7
370
    50
100
AcDbLine
 10
-107.425645
 20
490.222886
 30
0.0
 11
-104.425646
 21
490.222886
 31
0.0
  0
LINE
  5
402
330
1F
100
AcDbEntity
  8
LC-001-100-D00-0
 62
     7
370
    50
100
AcDbLine
 10
-104.425649
 20
469.472885
 30
0.0
 11
-101.425648
 21
469.472887
 31
0.0
  0
LINE
  5
403
330
1F
100
AcDbEntity
  8
LC-001-100-D00-0
 62
     7
370
    50
100
AcDbLine
 10
-101.425648
 20
493.222885
 30
0.0
 11
-110.425651
 21
493.222885
 31
0.0
  0
LINE
  5
404
330
1F
100
AcDbEntity
  8
LC-001-100-D00-0
 62
     7
370
    50
100
AcDbLine
 10
-125.125241
 20
469.472885
 30
0.0
 11
-104.425649
 21
469.472885
 31
0.0
  0
LINE
  5
405
330
1F
100
AcDbEntity
  8
LC-001-100-D00-0
 62
     7
370
    50
100
AcDbLine
 10
-120.175649
 20
486.222885
 30
0.0
 11
-113.425649
 21
486.222885
 31
0.0
  0
LINE
  5
406
330
1F
100
AcDbEntity
  8
LC-001-100-D00-0
 62
     7
370
    50
100
AcDbLine
 10
-237.425649
 20
486.222885
 30
0.0
 11
-237.425648
 21
489.222886
 31
0.0
  0
LINE
  5
407
330
1F
100
AcDbEntity
  8
LC-001-100-D00-0
 62
     7
370
    50
100
AcDbLine
 10
-237.425649
 20
486.222885
 30
0.0
 11
-230.675649
 21
486.222885
 31
0.0
  0
LINE
  5
408
330
1F
100
AcDbEntity
  8
LC-001-100-D00-0
 62
     7
370
    50
100
AcDbLine
 10
-240.425646
 20
493.222885
 30
0.0
 11
-240.425646
 21
489.222886
 31
0.0
  0
LINE
  5
409
330
1F
100
AcDbEntity
  8
LC-001-100-D00-0
 62
     7
370
    50
100
AcDbLine
 10
-243.425652
 20
486.222884
 30
0.0
 11
-243.425652
 21
490.222886
 31
0.0
  0
LINE
  5
40A
330
1F
100
AcDbEntity
  8
LC-001-100-D00-0
 62
     7
370
    50
100
AcDbLine
 10
-246.425649
 20
469.472885
 30
0.0
 11
-246.425651
 21
490.222886
 31
0.0
  0
LINE
  5
40B
330
1F
100
AcDbEntity
  8
LC-001-100-D00-0
 62
     7
370
    50
100
AcDbLine
 10
-246.425649
 20
469.472885
 30
0.0
 11
-225.726056
 21
469.472885
 31
0.0
  0
LINE
  5
40C
330
1F
100
AcDbEntity
  8
LC-001-100-D00-0
 62
     7
370
    50
100
AcDbLine
 10
-249.42565
 20
469.472887
 30
0.0
 11
-249.42565
 21
493.222885
 31
0.0
  0
LINE
  5
40D
330
1F
100
AcDbEntity
  8
LC-001-100-D00-0
 62
     7
370
    50
100
AcDbLine
 10
-237.425648
 20
489.222886
 30
0.0
 11
-240.425646
 21
489.222886
 31
0.0
  0
LINE
  5
40E
330
1F
100
AcDbEntity
  8
LC-001-100-D00-0
 62
     7
370
    50
100
AcDbLine
 10
-243.425652
 20
486.222884
 30
0.0
 11
-237.425649
 21
486.222885
 31
0.0
  0
LINE
  5
40F
330
1F
100
AcDbEntity
  8
LC-001-100-D00-0
 62
     7
370
    50
100
AcDbLine
 10
-246.425651
 20
490.222886
 30
0.0
 11
-243.425652
 21
490.222886
 31
0.0
  0
LINE
  5
410
330
1F
100
AcDbEntity
  8
LC-001-100-D00-0
 62
     7
370
    50
100
AcDbLine
 10
-249.42565
 20
469.472887
 30
0.0
 11
-246.425649
 21
469.472885
 31
0.0
  0
LINE
  5
411
330
1F
100
AcDbEntity
  8
LC-001-100-D00-0
 62
     7
370
    50
100
AcDbLine
 10
-240.425646
 20
493.222885
 30
0.0
 11
-249.42565
 21
493.222885
 31
0.0
  0
LINE
  5
412
330
1F
100
AcDbEntity
  8
LC-001-100-D00-0
 62
     7
370
    50
100
AcDbLine
 10
-133.436523
 20
469.472885
 30
0.0
 11
-125.125241
 21
469.472885
 31
0.0
  0
LINE
  5
413
330
1F
100
AcDbEntity
  8
LC-001-100-D00-0
 62
     7
370
    50
100
AcDbLine
 10
-225.726056
 20
469.472885
 30
0.0
 11
-217.414774
 21
469.472885
 31
0.0
  0
LINE
  5
414
330
1F
100
AcDbEntity
  8
LC-001-100-D00-0
 62
     7
370
    50
100
AcDbLine
 10
-217.414774
 20
469.472885
 30
0.0
 11
-216.42565
 21
469.472887
 31
0.0
  0
LINE
  5
415
330
1F
100
AcDbEntity
  8
LC-001-100-D00-0
 62
     7
370
    50
100
AcDbLine
 10
-134.425648
 20
469.472887
 30
0.0
 11
-133.436523
 21
469.472885
 31
0.0
  0
LINE
  5
416
330
1F
100
AcDbEntity
  8
LC-001-100-D00-0
 62
     7
370
    50
100
AcDbLine
 10
-101.425648
 20
468.722885
 30
0.0
 11
-90.425648
 21
468.722885
 31
0.0
  0
LINE
  5
417
330
1F
100
AcDbEntity
  8
LC-001-100-D00-0
 62
     7
370
    50
100
AcDbLine
 10
-90.425648
 20
416.722884
 30
0.0
 11
-101.425648
 21
416.722884
 31
0.0
  0
LINE
  5
418
330
1F
100
AcDbEntity
  8
LC-001-100-D00-0
 62
     7
370
    50
100
AcDbLine
 10
-101.425648
 20
469.472887
 30
0.0
 11
-101.425648
 21
468.722885
 31
0.0
  0
INSERT
  5
429
330
1F
100
AcDbEntity
  8
LC-001-100-D00-0
 62
     7
370
    50
100
AcDbBlockReference
  2
KLON15
 10
0.0
 20
0.0
 30
0.0
  0
INSERT
  5
43D
330
1F
100
AcDbEntity
  8
LC-001-100-D00-0
 62
     7
370
    50
100
AcDbBlockReference
  2
KLON16
 10
0.0
 20
0.0
 30
0.0
  0
LINE
  5
43E
330
1F
100
AcDbEntity
  8
LC-001-100-D00-0
 62
     7
370
    50
100
AcDbLine
 10
-104.425646
 20
465.722887
 30
0.0
 11
-62.528463
 21
465.722885
 31
0.0
  0
LINE
  5
43F
330
1F
100
AcDbEntity
  8
LC-001-100-D00-0
 62
     7
370
    50
100
AcDbLine
 10
-62.528463
 20
419.722885
 30
0.0
 11
-62.528463
 21
465.722885
 31
0.0
  0
LINE
  5
440
330
1F
100
AcDbEntity
  8
LC-001-100-D00-0
 62
     7
370
    50
100
AcDbLine
 10
-62.528463
 20
419.722885
 30
0.0
 11
-101.425648
 21
419.722883
 31
0.0
  0
INSERT
  5
446
330
1F
100
AcDbEntity
  8
LC-001-100-D00-0
 62
     7
370
    50
100
AcDbBlockReference
  2
KLON17
 10
0.0
 20
0.0
 30
0.0
  0
LINE
  5
447
330
1F
100
AcDbEntity
  8
LC-001-100-D00-0
 62
     7
370
    50
100
AcDbLine
 10
-104.425649
 20
469.472885
 30
0.0
 11
-125.125241
 21
469.472885
 31
0.0
  0
LINE
  5
448
330
1F
100
AcDbEntity
  8
LC-001-100-D00-0
 62
     7
370
    50
100
AcDbLine
 10
-104.425649
 20
469.472885
 30
0.0
 11
-104.425646
 21
465.722887
 31
0.0
  0
LINE
  5
449
330
1F
100
AcDbEntity
  8
LC-001-100-D00-0
 62
     7
370
    50
100
AcDbLine
 10
-114.425649
 20
416.722885
 30
0.0
 11
-101.425648
 21
416.722884
 31
0.0
  0
ARC
  5
44A
330
1F
100
AcDbEntity
  8
LC-001-100-D00-0
 62
     7
370
    50
100
AcDbCircle
 10
-121.407769
 20
417.222885
 30
0.0
 40
6.999999999999886
100
AcDbArc
 50
270.0
 51
355.903956
  0
LINE
  5
44B
330
1F
100
AcDbEntity
  8
LC-001-100-D00-0
 62
     7
370
    50
100
AcDbLine
 10
-121.407769
 20
410.222885
 30
0.0
 11
-229.443529
 21
410.222885
 31
0.0
  0
ARC
  5
44C
330
1F
100
AcDbEntity
  8
LC-001-100-D00-0
 62
     7
370
    50
100
AcDbCircle
 10
-229.443529
 20
417.222885
 30
0.0
 40
6.999999999999934
100
AcDbArc
 50
184.096044
 51
270.0
  0
LINE
  5
44D
330
1F
100
AcDbEntity
  8
LC-001-100-D00-0
 62
     7
370
    50
100
AcDbLine
 10
-236.925649
 20
416.722885
 30
0.0
 11
-236.425649
 21
416.722885
 31
0.0
  0
ARC
  5
44E
330
1F
100
AcDbEntity
  8
LC-001-100-D00-0
 62
     7
370
    50
100
AcDbCircle
 10
-236.925649
 20
429.222885
 30
0.0
 40
12.49999999999983
100
AcDbArc
 50
180.0
 51
270.0
  0
LINE
  5
44F
330
1F
100
AcDbEntity
  8
LC-001-100-D00-0
 62
     7
370
    50
100
AcDbLine
 10
-249.425649
 20
429.222885
 30
0.0
 11
-249.42565
 21
469.472887
 31
0.0
  0
LINE
  5
450
330
1F
100
AcDbEntity
  8
LC-001-100-D00-0
 62
     7
370
    50
100
AcDbLine
 10
-249.42565
 20
469.472887
 30
0.0
 11
-246.425649
 21
469.472885
 31
0.0
  0
LINE
  5
451
330
1F
100
AcDbEntity
  8
LC-001-100-D00-0
 62
     7
370
    50
100
AcDbLine
 10
-246.425649
 20
429.222885
 30
0.0
 11
-246.425649
 21
469.472885
 31
0.0
  0
ARC
  5
452
330
1F
100
AcDbEntity
  8
LC-001-100-D00-0
 62
     7
370
    50
100
AcDbCircle
 10
-236.925649
 20
429.222885
 30
0.0
 40
9.49999999999983
100
AcDbArc
 50
180.0
 51
270.0
  0
LINE
  5
453
330
1F
100
AcDbEntity
  8
LC-001-100-D00-0
 62
     7
370
    50
100
AcDbLine
 10
-236.925649
 20
419.722885
 30
0.0
 11
-234.425649
 21
419.722885
 31
0.0
  0
ARC
  5
454
330
1F
100
AcDbEntity
  8
LC-001-100-D00-0
 62
     7
370
    50
100
AcDbCircle
 10
-234.425649
 20
418.722885
 30
0.0
 40
1.000000000000057
100
AcDbArc
 50
0.0
 51
90.0
  0
LINE
  5
455
330
1F
100
AcDbEntity
  8
LC-001-100-D00-0
 62
     7
370
    50
100
AcDbLine
 10
-233.425649
 20
418.722885
 30
0.0
 11
-233.425649
 21
417.222885
 31
0.0
  0
ARC
  5
456
330
1F
100
AcDbEntity
  8
LC-001-100-D00-0
 62
     7
370
    50
100
AcDbCircle
 10
-229.425649
 20
417.222885
 30
0.0
 40
3.999999999999773
100
AcDbArc
 50
180.0
 51
270.0
  0
LINE
  5
457
330
1F
100
AcDbEntity
  8
LC-001-100-D00-0
 62
     7
370
    50
100
AcDbLine
 10
-121.425649
 20
413.222885
 30
0.0
 11
-229.425649
 21
413.222885
 31
0.0
  0
ARC
  5
458
330
1F
100
AcDbEntity
  8
LC-001-100-D00-0
 62
     7
370
    50
100
AcDbCircle
 10
-121.425649
 20
417.222885
 30
0.0
 40
3.999999999999886
100
AcDbArc
 50
270.0
 51
0.0
  0
LINE
  5
459
330
1F
100
AcDbEntity
  8
LC-001-100-D00-0
 62
     7
370
    50
100
AcDbLine
 10
-117.425649
 20
417.222885
 30
0.0
 11
-117.425649
 21
418.722885
 31
0.0
  0
ARC
  5
45A
330
1F
100
AcDbEntity
  8
LC-001-100-D00-0
 62
     7
370
    50
100
AcDbCircle
 10
-116.425649
 20
418.722885
 30
0.0
 40
1.000000000000171
100
AcDbArc
 50
90.0
 51
180.0
  0
LINE
  5
45B
330
1F
100
AcDbEntity
  8
LC-001-100-D00-0
 62
     7
370
    50
100
AcDbLine
 10
-116.425649
 20
419.722885
 30
0.0
 11
-101.425648
 21
419.722883
 31
0.0
  0
LINE
  5
45C
330
1F
100
AcDbEntity
  8
LC-001-100-D00-0
 62
     7
370
    50
100
AcDbLine
 10
-56.928463
 20
418.22237
 30
0.0
 11
-62.528463
 21
419.722885
 31
0.0
  0
LINE
  5
45D
330
1F
100
AcDbEntity
  8
LC-001-100-D00-0
 62
     7
370
    50
100
AcDbLine
 10
-56.928463
 20
417.78863
 30
0.0
 11
-56.928463
 21
418.22237
 31
0.0
  0
ARC
  5
45E
330
1F
100
AcDbEntity
  8
LC-001-100-D00-0
 62
     7
370
    50
100
AcDbCircle
 10
-57.428421
 20
417.78863
 30
0.0
 40
0.4999578796798617
100
AcDbArc
 50
301.198872
 51
0.0
  0
ARC
  5
45F
330
1F
100
AcDbEntity
  8
LC-001-100-D00-0
 62
     7
370
    50
100
AcDbCircle
 10
-72.527145
 20
442.720695
 30
0.0
 40
29.64750216706105
100
AcDbArc
 50
292.382556
 51
301.198872
  0
ARC
  5
460
330
1F
100
AcDbEntity
  8
LC-001-100-D00-0
 62
     7
370
    50
100
AcDbCircle
 10
-61.428084
 20
415.769069
 30
0.0
 40
0.4999578796803235
100
AcDbArc
 50
180.0
 51
292.382556
  0
LINE
  5
461
330
1F
100
AcDbEntity
  8
LC-001-100-D00-0
 62
     7
370
    50
100
AcDbLine
 10
-61.928042
 20
417.072927
 30
0.0
 11
-61.928042
 21
415.769069
 31
0.0
  0
ARC
  5
462
330
1F
100
AcDbEntity
  8
LC-001-100-D00-0
 62
     7
370
    50
100
AcDbCircle
 10
-62.428
 20
417.072927
 30
0.0
 40
0.4999578796799256
100
AcDbArc
 50
0.0
 51
90.0
  0
LINE
  5
463
330
1F
100
AcDbEntity
  8
LC-001-100-D00-0
 62
     7
370
    50
100
AcDbLine
 10
-65.927705
 20
417.572885
 30
0.0
 11
-62.428
 21
417.572885
 31
0.0
  0
ARC
  5
464
330
1F
100
AcDbEntity
  8
LC-001-100-D00-0
 62
     7
370
    50
100
AcDbCircle
 10
-65.927705
 20
417.072927
 30
0.0
 40
0.4999578796802098
100
AcDbArc
 50
90.0
 51
180.0
  0
LINE
  5
465
330
1F
100
AcDbEntity
  8
LC-001-100-D00-0
 62
     7
370
    50
100
AcDbLine
 10
-66.427663
 20
414.116066
 30
0.0
 11
-66.427663
 21
417.072927
 31
0.0
  0
ARC
  5
466
330
1F
100
AcDbEntity
  8
LC-001-100-D00-0
 62
     7
370
    50
100
AcDbCircle
 10
-66.927621
 20
414.116066
 30
0.0
 40
0.4999578796802344
100
AcDbArc
 50
281.075925
 51
0.0
  0
ARC
  5
467
330
1F
100
AcDbEntity
  8
LC-001-100-D00-0
 62
     7
370
    50
100
AcDbCircle
 10
-72.527145
 20
442.720695
 30
0.0
 40
29.6475043225003
100
AcDbArc
 50
241.270296
 51
281.075925
  0
LINE
  5
468
330
1F
100
AcDbEntity
  8
LC-001-100-D00-0
 62
     7
370
    50
100
AcDbLine
 10
-87.925851
 20
416.722884
 30
0.0
 11
-86.778053
 21
416.722885
 31
0.0
  0
LINE
  5
469
330
1F
100
AcDbEntity
  8
LC-001-100-D00-0
 62
     7
370
    50
100
AcDbLine
 10
-87.925851
 20
415.222889
 30
0.0
 11
-87.925851
 21
416.722884
 31
0.0
  0
LINE
  5
46A
330
1F
100
AcDbEntity
  8
LC-001-100-D00-0
 62
     7
370
    50
100
AcDbLine
 10
-90.425648
 20
415.222889
 30
0.0
 11
-87.925851
 21
415.222889
 31
0.0
  0
LINE
  5
46B
330
1F
100
AcDbEntity
  8
LC-001-100-D00-0
 62
     7
370
    50
100
AcDbLine
 10
-90.425648
 20
416.722884
 30
0.0
 11
-90.425648
 21
415.222889
 31
0.0
  0
ARC
  5
46C
330
1F
100
AcDbEntity
  8
LC-001-100-D00-0
 62
     7
370
    50
100
AcDbCircle
 10
-72.527145
 20
442.725075
 30
0.0
 40
29.64750216706099
100
AcDbArc
 50
58.801128
 51
67.617444
  0
ARC
  5
46D
330
1F
100
AcDbEntity
  8
LC-001-100-D00-0
 62
     7
370
    50
100
AcDbCircle
 10
-57.428421
 20
467.65714
 30
0.0
 40
0.4999578796797835
100
AcDbArc
 50
0.0
 51
58.801128
  0
ARC
  5
46E
330
1F
100
AcDbEntity
  8
LC-001-100-D00-0
 62
     7
370
    50
100
AcDbCircle
 10
-62.428
 20
468.372843
 30
0.0
 40
0.4999578796802098
100
AcDbArc
 50
270.0
 51
0.0
  0
LINE
  5
46F
330
1F
100
AcDbEntity
  8
LC-001-100-D00-0
 62
     7
370
    50
100
AcDbLine
 10
-61.928042
 20
469.676702
 30
0.0
 11
-61.928042
 21
468.372843
 31
0.0
  0
ARC
  5
470
330
1F
100
AcDbEntity
  8
LC-001-100-D00-0
 62
     7
370
    50
100
AcDbCircle
 10
-61.428084
 20
469.676702
 30
0.0
 40
0.4999578796802914
100
AcDbArc
 50
67.617444
 51
180.0
  0
LINE
  5
471
330
1F
100
AcDbEntity
  8
LC-001-100-D00-0
 62
     7
370
    50
100
AcDbLine
 10
-56.928463
 20
467.223401
 30
0.0
 11
-56.928463
 21
467.65714
 31
0.0
  0
LINE
  5
472
330
1F
100
AcDbEntity
  8
LC-001-100-D00-0
 62
     7
370
    50
100
AcDbLine
 10
-62.528463
 20
465.722885
 30
0.0
 11
-56.928463
 21
467.223401
 31
0.0
  0
LINE
  5
473
330
1F
100
AcDbEntity
  8
LC-001-100-D00-0
 62
     7
370
    50
100
AcDbLine
 10
-104.425649
 20
469.472885
 30
0.0
 11
-101.425648
 21
469.472887
 31
0.0
  0
LINE
  5
474
330
1F
100
AcDbEntity
  8
LC-001-100-D00-0
 62
     7
370
    50
100
AcDbLine
 10
-90.425648
 20
470.222885
 30
0.0
 11
-90.425648
 21
468.722885
 31
0.0
  0
LINE
  5
475
330
1F
100
AcDbEntity
  8
LC-001-100-D00-0
 62
     7
370
    50
100
AcDbLine
 10
-87.925852
 20
470.222885
 30
0.0
 11
-90.425648
 21
470.222885
 31
0.0
  0
ARC
  5
476
330
1F
100
AcDbEntity
  8
LC-001-100-D00-0
 62
     7
370
    50
100
AcDbCircle
 10
-72.56356
 20
442.722885
 30
0.0
 40
31.50000000000006
100
AcDbArc
 50
105.394857
 51
119.188982
  0
LINE
  5
477
330
1F
100
AcDbEntity
  8
LC-001-100-D00-0
 62
     7
370
    50
100
AcDbLine
 10
-80.925852
 20
473.092641
 30
0.0
 11
-80.925852
 21
471.158089
 31
0.0
  0
ARC
  5
478
330
1F
100
AcDbEntity
  8
LC-001-100-D00-0
 62
     7
370
    50
100
AcDbCircle
 10
-72.527145
 20
442.725075
 30
0.0
 40
29.64750432250052
100
AcDbArc
 50
78.924075
 51
106.456389
  0
ARC
  5
479
330
1F
100
AcDbEntity
  8
LC-001-100-D00-0
 62
     7
370
    50
100
AcDbCircle
 10
-66.927621
 20
471.329704
 30
0.0
 40
0.4999578796800392
100
AcDbArc
 50
0.0
 51
78.924075
  0
LINE
  5
47A
330
1F
100
AcDbEntity
  8
LC-001-100-D00-0
 62
     7
370
    50
100
AcDbLine
 10
-66.427663
 20
468.372843
 30
0.0
 11
-66.427663
 21
471.329704
 31
0.0
  0
ARC
  5
47B
330
1F
100
AcDbEntity
  8
LC-001-100-D00-0
 62
     7
370
    50
100
AcDbCircle
 10
-65.927705
 20
468.372843
 30
0.0
 40
0.4999578796799256
100
AcDbArc
 50
180.0
 51
270.0
  0
LINE
  5
47C
330
1F
100
AcDbEntity
  8
LC-001-100-D00-0
 62
     7
370
    50
100
AcDbLine
 10
-62.428
 20
467.872885
 30
0.0
 11
-65.927705
 21
467.872885
 31
0.0
  0
LINE
  5
47D
330
1F
100
AcDbEntity
  8
LC-001-100-D00-0
 62
     7
370
    50
100
AcDbLine
 10
-56.928463
 20
467.223401
 30
0.0
 11
-56.928463
 21
418.22237
 31
0.0
  0
LINE
  5
47E
330
1F
100
AcDbEntity
  8
LC-001-100-D00-0
 62
     7
370
    50
100
AcDbLine
 10
-130.992029
 20
419.722885
 30
0.0
 11
-116.425649
 21
419.722885
 31
0.0
  0
LINE
  5
47F
330
1F
100
AcDbEntity
  8
LC-001-100-D00-0
 62
     7
370
    50
100
AcDbLine
 10
-234.425649
 20
419.722885
 30
0.0
 11
-219.859269
 21
419.722885
 31
0.0
  0
LINE
  5
480
330
1F
100
AcDbEntity
  8
LC-001-100-D00-0
 62
     7
370
    50
100
AcDbLine
 10
-225.726056
 20
469.472885
 30
0.0
 11
-246.425649
 21
469.472885
 31
0.0
  0
LINE
  5
481
330
1F
100
AcDbEntity
  8
LC-001-100-D00-0
 62
     7
370
    50
100
AcDbLine
 10
-133.436523
 20
419.722885
 30
0.0
 11
-130.992029
 21
419.722885
 31
0.0
  0
LINE
  5
482
330
1F
100
AcDbEntity
  8
LC-001-100-D00-0
 62
     7
370
    50
100
AcDbLine
 10
-219.859269
 20
419.722885
 30
0.0
 11
-217.414774
 21
419.722885
 31
0.0
  0
LINE
  5
483
330
1F
100
AcDbEntity
  8
LC-001-100-D00-0
 62
     7
370
    50
100
AcDbLine
 10
-217.414774
 20
419.722885
 30
0.0
 11
-216.42565
 21
419.722883
 31
0.0
  0
LINE
  5
484
330
1F
100
AcDbEntity
  8
LC-001-100-D00-0
 62
     7
370
    50
100
AcDbLine
 10
-134.425648
 20
419.722883
 30
0.0
 11
-133.436523
 21
419.722885
 31
0.0
  0
LINE
  5
485
330
1F
100
AcDbEntity
  8
LC-001-100-D00-0
 62
     7
370
    50
100
AcDbLine
 10
-125.125241
 20
469.472885
 30
0.0
 11
-133.436523
 21
469.472885
 31
0.0
  0
LINE
  5
486
330
1F
100
AcDbEntity
  8
LC-001-100-D00-0
 62
     7
370
    50
100
AcDbLine
 10
-217.414774
 20
469.472885
 30
0.0
 11
-225.726056
 21
469.472885
 31
0.0
  0
LINE
  5
487
330
1F
100
AcDbEntity
  8
LC-001-100-D00-0
 62
     7
370
    50
100
AcDbLine
 10
-133.436523
 20
469.472885
 30
0.0
 11
-134.425648
 21
469.472887
 31
0.0
  0
LINE
  5
488
330
1F
100
AcDbEntity
  8
LC-001-100-D00-0
 62
     7
370
    50
100
AcDbLine
 10
-216.42565
 20
469.472887
 30
0.0
 11
-217.414774
 21
469.472885
 31
0.0
  0
CIRCLE
  5
489
330
1F
100
AcDbEntity
  8
LC-001-100-D00-0
 62
     7
370
    50
100
AcDbCircle
 10
-121.175649
 20
490.972885
 30
0.0
 40
1.749999999999915
  0
CIRCLE
  5
48A
330
1F
100
AcDbEntity
  8
LC-001-100-D00-0
 62
     7
370
    50
100
AcDbCircle
 10
-229.675649
 20
490.972885
 30
0.0
 40
1.749999999999943
  0
LINE
  5
48B
330
1F
100
AcDbEntity
  8
LC-001-100-D00-0
 62
     7
370
    50
100
AcDbLine
 10
-120.92565
 20
492.722885
 30
0.0
 11
-120.92565
 21
494.222885
 31
0.0
  0
LINE
  5
48C
330
1F
100
AcDbEntity
  8
LC-001-100-D00-0
 62
     7
370
    50
100
AcDbLine
 10
-122.92565
 20
492.722885
 30
0.0
 11
-120.92565
 21
492.722885
 31
0.0
  0
LINE
  5
48D
330
1F
100
AcDbEntity
  8
LC-001-100-D00-0
 62
     7
370
    50
100
AcDbLine
 10
-122.92565
 20
492.722885
 30
0.0
 11
-122.92565
 21
489.222886
 31
0.0
  0
LINE
  5
48E
330
1F
100
AcDbEntity
  8
LC-001-100-D00-0
 62
     7
370
    50
100
AcDbLine
 10
-122.92565
 20
489.222886
 30
0.0
 11
-120.92565
 21
489.222886
 31
0.0
  0
LINE
  5
48F
330
1F
100
AcDbEntity
  8
LC-001-100-D00-0
 62
     7
370
    50
100
AcDbLine
 10
-120.92565
 20
489.222886
 30
0.0
 11
-120.92565
 21
488.222884
 31
0.0
  0
LINE
  5
490
330
1F
100
AcDbEntity
  8
LC-001-100-D00-0
 62
     7
370
    50
100
AcDbLine
 10
-136.425649
 20
488.222885
 30
0.0
 11
-120.92565
 21
488.222884
 31
0.0
  0
ARC
  5
491
330
1F
100
AcDbEntity
  8
LC-001-100-D00-0
 62
     7
370
    50
100
AcDbCircle
 10
-136.425649
 20
478.222885
 30
0.0
 40
10.0
100
AcDbArc
 50
90.0
 51
180.0
  0
LINE
  5
492
330
1F
100
AcDbEntity
  8
LC-001-100-D00-0
 62
     7
370
    50
100
AcDbLine
 10
-146.425649
 20
478.222885
 30
0.0
 11
-146.425649
 21
428.322887
 31
0.0
  0
LINE
  5
493
330
1F
100
AcDbEntity
  8
LC-001-100-D00-0
 62
     7
370
    50
100
AcDbLine
 10
-147.925649
 20
428.322885
 30
0.0
 11
-146.425649
 21
428.322887
 31
0.0
  0
LINE
  5
494
330
1F
100
AcDbEntity
  8
LC-001-100-D00-0
 62
     7
370
    50
100
AcDbLine
 10
-147.925649
 20
492.222885
 30
0.0
 11
-147.925649
 21
428.322885
 31
0.0
  0
ARC
  5
495
330
1F
100
AcDbEntity
  8
LC-001-100-D00-0
 62
     7
370
    50
100
AcDbCircle
 10
-145.925649
 20
492.222885
 30
0.0
 40
2.000000000000341
100
AcDbArc
 50
90.0
 51
180.0
  0
LINE
  5
496
330
1F
100
AcDbEntity
  8
LC-001-100-D00-0
 62
     7
370
    50
100
AcDbLine
 10
-145.925649
 20
494.222885
 30
0.0
 11
-120.92565
 21
494.222885
 31
0.0
  0
LINE
  5
497
330
1F
100
AcDbEntity
  8
LC-001-100-D00-0
 62
     7
370
    50
100
AcDbLine
 10
-163.925649
 20
494.222885
 30
0.0
 11
-145.925649
 21
494.222885
 31
0.0
  0
LINE
  5
498
330
1F
100
AcDbEntity
  8
LC-001-100-D00-0
 62
     7
370
    50
100
AcDbLine
 10
-163.925649
 20
428.322885
 30
0.0
 11
-147.925649
 21
428.322885
 31
0.0
  0
LINE
  5
499
330
1F
100
AcDbEntity
  8
LC-001-100-D00-0
 62
     7
370
    50
100
AcDbLine
 10
-204.425648
 20
428.322887
 30
0.0
 11
-204.425649
 21
478.222885
 31
0.0
  0
ARC
  5
49A
330
1F
100
AcDbEntity
  8
LC-001-100-D00-0
 62
     7
370
    50
100
AcDbCircle
 10
-204.925649
 20
492.222885
 30
0.0
 40
1.99999999999983
100
AcDbArc
 50
0.0
 51
90.0
  0
LINE
  5
49B
330
1F
100
AcDbEntity
  8
LC-001-100-D00-0
 62
     7
370
    50
100
AcDbLine
 10
-204.925649
 20
494.222885
 30
0.0
 11
-186.925649
 21
494.222885
 31
0.0
  0
LINE
  5
49C
330
1F
100
AcDbEntity
  8
LC-001-100-D00-0
 62
     7
370
    50
100
AcDbLine
 10
-202.925649
 20
428.322885
 30
0.0
 11
-202.925649
 21
492.222885
 31
0.0
  0
LINE
  5
49D
330
1F
100
AcDbEntity
  8
LC-001-100-D00-0
 62
     7
370
    50
100
AcDbLine
 10
-202.925649
 20
428.322885
 30
0.0
 11
-186.925649
 21
428.322885
 31
0.0
  0
ARC
  5
49E
330
1F
100
AcDbEntity
  8
LC-001-100-D00-0
 62
     7
370
    50
100
AcDbCircle
 10
-214.425649
 20
478.222885
 30
0.0
 40
10.00000000000017
100
AcDbArc
 50
0.0
 51
90.0
  0
LINE
  5
49F
330
1F
100
AcDbEntity
  8
LC-001-100-D00-0
 62
     7
370
    50
100
AcDbLine
 10
-229.925647
 20
488.222884
 30
0.0
 11
-229.925647
 21
489.222886
 31
0.0
  0
LINE
  5
4A0
330
1F
100
AcDbEntity
  8
LC-001-100-D00-0
 62
     7
370
    50
100
AcDbLine
 10
-227.925647
 20
489.222886
 30
0.0
 11
-227.925647
 21
492.722885
 31
0.0
  0
LINE
  5
4A1
330
1F
100
AcDbEntity
  8
LC-001-100-D00-0
 62
     7
370
    50
100
AcDbLine
 10
-229.925647
 20
494.222885
 30
0.0
 11
-229.925647
 21
492.722885
 31
0.0
  0
LINE
  5
4A2
330
1F
100
AcDbEntity
  8
LC-001-100-D00-0
 62
     7
370
    50
100
AcDbLine
 10
-204.425648
 20
428.322887
 30
0.0
 11
-202.925649
 21
428.322885
 31
0.0
  0
LINE
  5
4A3
330
1F
100
AcDbEntity
  8
LC-001-100-D00-0
 62
     7
370
    50
100
AcDbLine
 10
-229.925647
 20
489.222886
 30
0.0
 11
-227.925647
 21
489.222886
 31
0.0
  0
LINE
  5
4A4
330
1F
100
AcDbEntity
  8
LC-001-100-D00-0
 62
     7
370
    50
100
AcDbLine
 10
-229.925647
 20
492.722885
 30
0.0
 11
-227.925647
 21
492.722885
 31
0.0
  0
LINE
  5
4A5
330
1F
100
AcDbEntity
  8
LC-001-100-D00-0
 62
     7
370
    50
100
AcDbLine
 10
-229.925647
 20
488.222884
 30
0.0
 11
-214.425649
 21
488.222885
 31
0.0
  0
LINE
  5
4A6
330
1F
100
AcDbEntity
  8
LC-001-100-D00-0
 62
     7
370
    50
100
AcDbLine
 10
-229.925647
 20
494.222885
 30
0.0
 11
-204.925649
 21
494.222885
 31
0.0
  0
LINE
  5
4A7
330
1F
100
AcDbEntity
  8
LC-001-100-D00-0
 62
     7
370
    50
100
AcDbLine
 10
-186.925649
 20
494.222885
 30
0.0
 11
-163.925649
 21
494.222885
 31
0.0
  0
LINE
  5
4A8
330
1F
100
AcDbEntity
  8
LC-001-100-D00-0
 62
     7
370
    50
100
AcDbLine
 10
-186.925649
 20
428.322885
 30
0.0
 11
-163.925649
 21
428.322885
 31
0.0
  0
LINE
  5
4A9
330
1F
100
AcDbEntity
  8
LC-001-100-D00-0
 62
     7
370
    50
100
AcDbLine
 10
-120.175649
 20
488.222885
 30
0.0
 11
-120.175649
 21
486.222885
 31
0.0
  0
LINE
  5
4AA
330
1F
100
AcDbEntity
  8
LC-001-100-D00-0
 62
     7
370
    50
100
AcDbLine
 10
-216.42565
 20
478.722887
 30
0.0
 11
-226.361334
 21
486.028536
 31
0.0
  0
ARC
  5
4AB
330
1F
100
AcDbEntity
  8
LC-001-100-D00-0
 62
     7
370
    50
100
AcDbCircle
 10
-226.953724
 20
485.222885
 30
0.0
 40
1.000000000000322
100
AcDbArc
 50
53.673174
 51
90.0
  0
LINE
  5
4AC
330
1F
100
AcDbEntity
  8
LC-001-100-D00-0
 62
     7
370
    50
100
AcDbLine
 10
-230.675649
 20
486.222885
 30
0.0
 11
-226.953724
 21
486.222885
 31
0.0
  0
LINE
  5
4AD
330
1F
100
AcDbEntity
  8
LC-001-100-D00-0
 62
     7
370
    50
100
AcDbLine
 10
-230.675649
 20
486.222885
 30
0.0
 11
-230.675649
 21
488.222885
 31
0.0
  0
LINE
  5
4AE
330
1F
100
AcDbEntity
  8
LC-001-100-D00-0
 62
     7
370
    50
100
AcDbLine
 10
-230.675649
 20
488.222885
 30
0.0
 11
-226.953724
 21
488.222885
 31
0.0
  0
ARC
  5
4AF
330
1F
100
AcDbEntity
  8
LC-001-100-D00-0
 62
     7
370
    50
100
AcDbCircle
 10
-226.953724
 20
485.222885
 30
0.0
 40
3.000000000000317
100
AcDbArc
 50
53.673174
 51
90.0
  0
LINE
  5
4B0
330
1F
100
AcDbEntity
  8
LC-001-100-D00-0
 62
     7
370
    50
100
AcDbLine
 10
-225.176553
 20
487.639838
 30
0.0
 11
-215.333258
 21
480.402122
 31
0.0
  0
ARC
  5
4B1
330
1F
100
AcDbEntity
  8
LC-001-100-D00-0
 62
     7
370
    50
100
AcDbCircle
 10
-215.925649
 20
479.596471
 30
0.0
 40
1.000000000000341
100
AcDbArc
 50
0.0
 51
53.673174
  0
LINE
  5
4B2
330
1F
100
AcDbEntity
  8
LC-001-100-D00-0
 62
     7
370
    50
100
AcDbLine
 10
-214.925649
 20
417.722885
 30
0.0
 11
-214.925649
 21
479.596471
 31
0.0
  0
ARC
  5
4B3
330
1F
100
AcDbEntity
  8
LC-001-100-D00-0
 62
     7
370
    50
100
AcDbCircle
 10
-211.425649
 20
417.722885
 30
0.0
 40
3.500000000000057
100
AcDbArc
 50
180.0
 51
270.0
  0
LINE
  5
4B4
330
1F
100
AcDbEntity
  8
LC-001-100-D00-0
 62
     7
370
    50
100
AcDbLine
 10
-139.425649
 20
414.222885
 30
0.0
 11
-211.425649
 21
414.222885
 31
0.0
  0
ARC
  5
4B5
330
1F
100
AcDbEntity
  8
LC-001-100-D00-0
 62
     7
370
    50
100
AcDbCircle
 10
-139.425649
 20
417.722885
 30
0.0
 40
3.500000000000114
100
AcDbArc
 50
270.0
 51
0.0
  0
LINE
  5
4B6
330
1F
100
AcDbEntity
  8
LC-001-100-D00-0
 62
     7
370
    50
100
AcDbLine
 10
-135.925649
 20
479.596471
 30
0.0
 11
-135.925649
 21
417.722885
 31
0.0
  0
ARC
  5
4B7
330
1F
100
AcDbEntity
  8
LC-001-100-D00-0
 62
     7
370
    50
100
AcDbCircle
 10
-134.925649
 20
479.596471
 30
0.0
 40
1.000000000000397
100
AcDbArc
 50
126.326826
 51
180.0
  0
LINE
  5
4B8
330
1F
100
AcDbEntity
  8
LC-001-100-D00-0
 62
     7
370
    50
100
AcDbLine
 10
-125.674744
 20
487.639838
 30
0.0
 11
-135.518039
 21
480.402122
 31
0.0
  0
ARC
  5
4B9
330
1F
100
AcDbEntity
  8
LC-001-100-D00-0
 62
     7
370
    50
100
AcDbCircle
 10
-123.897573
 20
485.222885
 30
0.0
 40
3.0
100
AcDbArc
 50
90.0
 51
126.326826
  0
LINE
  5
4BA
330
1F
100
AcDbEntity
  8
LC-001-100-D00-0
 62
     7
370
    50
100
AcDbLine
 10
-123.897573
 20
488.222885
 30
0.0
 11
-120.175649
 21
488.222885
 31
0.0
  0
LINE
  5
4BB
330
1F
100
AcDbEntity
  8
LC-001-100-D00-0
 62
     7
370
    50
100
AcDbLine
 10
-123.897573
 20
486.222885
 30
0.0
 11
-120.175649
 21
486.222885
 31
0.0
  0
ARC
  5
4BC
330
1F
100
AcDbEntity
  8
LC-001-100-D00-0
 62
     7
370
    50
100
AcDbCircle
 10
-123.897573
 20
485.222885
 30
0.0
 40
1.000000000000114
100
AcDbArc
 50
90.0
 51
126.326826
  0
LINE
  5
4BD
330
1F
100
AcDbEntity
  8
LC-001-100-D00-0
 62
     7
370
    50
100
AcDbLine
 10
-134.425648
 20
478.722887
 30
0.0
 11
-124.489963
 21
486.028536
 31
0.0
  0
LINE
  5
4BE
330
1F
100
AcDbEntity
  8
LC-001-100-D00-0
 62
     7
370
    50
100
AcDbLine
 10
-134.425648
 20
478.722887
 30
0.0
 11
-134.425649
 21
417.722885
 31
0.0
  0
ARC
  5
4BF
330
1F
100
AcDbEntity
  8
LC-001-100-D00-0
 62
     7
370
    50
100
AcDbCircle
 10
-139.425649
 20
417.722885
 30
0.0
 40
5.000000000000114
100
AcDbArc
 50
270.0
 51
0.0
  0
LINE
  5
4C0
330
1F
100
AcDbEntity
  8
LC-001-100-D00-0
 62
     7
370
    50
100
AcDbLine
 10
-139.425649
 20
412.722885
 30
0.0
 11
-211.425649
 21
412.722885
 31
0.0
  0
ARC
  5
4C1
330
1F
100
AcDbEntity
  8
LC-001-100-D00-0
 62
     7
370
    50
100
AcDbCircle
 10
-211.425649
 20
417.722885
 30
0.0
 40
5.000000000000227
100
AcDbArc
 50
180.0
 51
270.0
  0
LINE
  5
4C2
330
1F
100
AcDbEntity
  8
LC-001-100-D00-0
 62
     7
370
    50
100
AcDbLine
 10
-216.425649
 20
417.722885
 30
0.0
 11
-216.42565
 21
478.722887
 31
0.0
  0
ARC
  5
4C3
330
1F
100
AcDbEntity
  8
LC-001-100-D00-0
 62
     7
370
    50
100
AcDbCircle
 10
-134.932396
 20
479.591045
 30
0.0
 40
1.00037357344643
100
AcDbArc
 50
126.325165
 51
180.0
  0
LINE
  5
4C4
330
1F
100
AcDbEntity
  8
LC-001-100-D00-0
 62
     7
370
    50
100
AcDbLine
 10
-135.524984
 20
480.397014
 30
0.0
 11
-135.518039
 21
480.402122
 31
0.0
  0
LINE
  5
4C5
330
1F
100
AcDbEntity
  8
LC-001-100-D00-0
 62
     7
370
    50
100
AcDbLine
 10
-135.93277
 20
478.722885
 30
0.0
 11
-140.346253
 21
478.722885
 31
0.0
  0
LINE
  5
4C6
330
1F
100
AcDbEntity
  8
LC-001-100-D00-0
 62
     7
370
    50
100
AcDbLine
 10
-135.93277
 20
479.591103
 30
0.0
 11
-135.93277
 21
478.722885
 31
0.0
  0
LINE
  5
4C7
330
1F
100
AcDbEntity
  8
LC-001-100-D00-0
 62
     7
370
    50
100
AcDbLine
 10
-214.918528
 20
479.591103
 30
0.0
 11
-214.918528
 21
478.722885
 31
0.0
  0
LINE
  5
4C8
330
1F
100
AcDbEntity
  8
LC-001-100-D00-0
 62
     7
370
    50
100
AcDbLine
 10
-210.505044
 20
478.722885
 30
0.0
 11
-214.918528
 21
478.722885
 31
0.0
  0
ARC
  5
4C9
330
1F
100
AcDbEntity
  8
LC-001-100-D00-0
 62
     7
370
    50
100
AcDbCircle
 10
-215.918875
 20
479.591058
 30
0.0
 40
1.000347039121607
100
AcDbArc
 50
0.0
 51
53.675603
  0
LINE
  5
4CA
330
1F
100
AcDbEntity
  8
LC-001-100-D00-0
 62
     7
370
    50
100
AcDbLine
 10
-142.497282
 20
486.168654
 30
0.0
 11
-142.497282
 21
478.722887
 31
0.0
  0
LINE
  5
4CB
330
1F
100
AcDbEntity
  8
LC-001-100-D00-0
 62
     7
370
    50
100
AcDbLine
 10
-142.497284
 20
486.222885
 30
0.0
 11
-135.711234
 21
486.222885
 31
0.0
  0
LINE
  5
4CC
330
1F
100
AcDbEntity
  8
LC-001-100-D00-0
 62
     7
370
    50
100
AcDbLine
 10
-131.246945
 20
486.222885
 30
0.0
 11
-127.6018
 21
486.222885
 31
0.0
  0
LINE
  5
4CD
330
1F
100
AcDbEntity
  8
LC-001-100-D00-0
 62
     7
370
    50
100
AcDbLine
 10
-208.354015
 20
486.168654
 30
0.0
 11
-208.354015
 21
478.722887
 31
0.0
  0
LINE
  5
4CE
330
1F
100
AcDbEntity
  8
LC-001-100-D00-0
 62
     7
370
    50
100
AcDbLine
 10
-223.249497
 20
486.222885
 30
0.0
 11
-219.604352
 21
486.222885
 31
0.0
  0
LINE
  5
4CF
330
1F
100
AcDbEntity
  8
LC-001-100-D00-0
 62
     7
370
    50
100
AcDbLine
 10
-215.140064
 20
486.222885
 30
0.0
 11
-208.354013
 21
486.222885
 31
0.0
  0
LINE
  5
4D0
330
1F
100
AcDbEntity
  8
LC-001-100-D00-0
 62
     7
370
    50
100
AcDbLine
 10
-140.346253
 20
478.722885
 30
0.0
 11
-146.413141
 21
478.722885
 31
0.0
  0
LINE
  5
4D1
330
1F
100
AcDbEntity
  8
LC-001-100-D00-0
 62
     7
370
    50
100
AcDbLine
 10
-204.438156
 20
478.722885
 30
0.0
 11
-210.505044
 21
478.722885
 31
0.0
  0
ARC
  5
4D2
330
1F
100
AcDbEntity
  8
LC-001-100-D00-0
 62
     7
370
    50
100
AcDbCircle
 10
-72.425852
 20
442.722885
 30
0.0
 40
32.00000000000018
100
AcDbArc
 50
51.375167
 51
90.0
  0
LINE
  5
4D3
330
1F
100
AcDbEntity
  8
LC-001-100-D00-0
 62
     7
370
    50
100
AcDbLine
 10
-52.450867
 20
467.722885
 30
0.0
 11
30.574143
 21
467.722887
 31
0.0
  0
LINE
  5
4D4
330
1F
100
AcDbEntity
  8
LC-001-100-D00-0
 62
     7
370
    50
100
AcDbLine
 10
30.574143
 20
467.722887
 30
0.0
 11
34.074143
 21
466.785064
 31
0.0
  0
LINE
  5
4D5
330
1F
100
AcDbEntity
  8
LC-001-100-D00-0
 62
     7
370
    50
100
AcDbLine
 10
34.074143
 20
466.785064
 30
0.0
 11
34.074148
 21
465.472885
 31
0.0
  0
LINE
  5
4D6
330
1F
100
AcDbEntity
  8
LC-001-100-D00-0
 62
     7
370
    50
100
AcDbLine
 10
34.074148
 20
465.472885
 30
0.0
 11
-53.645876
 21
465.472885
 31
0.0
  0
ARC
  5
4D7
330
1F
100
AcDbEntity
  8
LC-001-100-D00-0
 62
     7
370
    50
100
AcDbCircle
 10
-72.425852
 20
442.722885
 30
0.0
 40
29.49999999999988
100
AcDbArc
 50
50.46055
 51
104.235124
  0
ARC
  5
4D8
330
1F
100
AcDbEntity
  8
LC-001-100-D00-0
 62
     7
370
    50
100
AcDbCircle
 10
-79.925852
 20
472.286376
 30
0.0
 40
0.9999999999999147
100
AcDbArc
 50
180.0
 51
284.235124
  0
LINE
  5
4D9
330
1F
100
AcDbEntity
  8
LC-001-100-D00-0
 62
     7
370
    50
100
AcDbLine
 10
-80.925852
 20
472.286376
 30
0.0
 11
-80.925852
 21
474.722886
 31
0.0
  0
LINE
  5
4DA
330
1F
100
AcDbEntity
  8
LC-001-100-D00-0
 62
     7
370
    50
100
AcDbLine
 10
-80.925852
 20
474.722886
 30
0.0
 11
-72.425852
 21
474.722885
 31
0.0
  0
LINE
  5
4DB
330
1F
100
AcDbEntity
  8
LC-001-100-D00-0
 62
     7
370
    50
100
AcDbLine
 10
-80.925852
 20
410.722887
 30
0.0
 11
-80.925852
 21
413.159394
 31
0.0
  0
ARC
  5
4DC
330
1F
100
AcDbEntity
  8
LC-001-100-D00-0
 62
     7
370
    50
100
AcDbCircle
 10
-79.925852
 20
413.159394
 30
0.0
 40
1.000000000000104
100
AcDbArc
 50
75.764876
 51
180.0
  0
ARC
  5
4DD
330
1F
100
AcDbEntity
  8
LC-001-100-D00-0
 62
     7
370
    50
100
AcDbCircle
 10
-72.425852
 20
442.722885
 30
0.0
 40
29.5
100
AcDbArc
 50
255.764876
 51
309.53945
  0
LINE
  5
4DE
330
1F
100
AcDbEntity
  8
LC-001-100-D00-0
 62
     7
370
    50
100
AcDbLine
 10
-53.645876
 20
419.972885
 30
0.0
 11
34.074148
 21
419.972885
 31
0.0
  0
LINE
  5
4DF
330
1F
100
AcDbEntity
  8
LC-001-100-D00-0
 62
     7
370
    50
100
AcDbLine
 10
34.074148
 20
419.972885
 30
0.0
 11
34.074143
 21
418.660706
 31
0.0
  0
LINE
  5
4E0
330
1F
100
AcDbEntity
  8
LC-001-100-D00-0
 62
     7
370
    50
100
AcDbLine
 10
34.074143
 20
418.660706
 30
0.0
 11
30.574143
 21
417.722886
 31
0.0
  0
LINE
  5
4E1
330
1F
100
AcDbEntity
  8
LC-001-100-D00-0
 62
     7
370
    50
100
AcDbLine
 10
30.574143
 20
417.722886
 30
0.0
 11
-52.450867
 21
417.722885
 31
0.0
  0
ARC
  5
4E2
330
1F
100
AcDbEntity
  8
LC-001-100-D00-0
 62
     7
370
    50
100
AcDbCircle
 10
-72.425852
 20
442.722885
 30
0.0
 40
31.99999999999989
100
AcDbArc
 50
270.0
 51
308.624833
  0
LINE
  5
4E3
330
1F
100
AcDbEntity
  8
LC-001-100-D00-0
 62
     7
370
    50
100
AcDbLine
 10
-72.425852
 20
410.722885
 30
0.0
 11
-80.925852
 21
410.722887
 31
0.0
  0
LINE
  5
4E4
330
1F
100
AcDbEntity
  8
LC-001-100-D00-0
 62
     7
370
    50
100
AcDbLine
 10
34.074148
 20
465.472885
 30
0.0
 11
34.074148
 21
419.972885
 31
0.0
  0
LINE
  5
4E5
330
1F
100
AcDbEntity
  8
LC-001-100-D00-0
 62
     7
370
    50
100
AcDbLine
 10
-53.645876
 20
465.472885
 30
0.0
 11
-53.645876
 21
419.972885
 31
0.0
  0
LINE
  5
4E6
330
1F
100
AcDbEntity
  8
LC-001-100-D00-0
 62
     7
370
    50
100
AcDbLine
 10
-80.925852
 20
414.287682
 30
0.0
 11
-80.925852
 21
413.159394
 31
0.0
  0
CIRCLE
  5
4E7
330
1F
100
AcDbEntity
  8
LC-001-100-D00-0
 62
     7
370
    50
100
AcDbCircle
 10
-64.177853
 20
469.722885
 30
0.0
 40
1.999999999999943
  0
CIRCLE
  5
4E8
330
1F
100
AcDbEntity
  8
LC-001-100-D00-0
 62
     7
370
    50
100
AcDbCircle
 10
-64.177853
 20
415.722885
 30
0.0
 40
1.999999999999943
  0
ARC
  5
4E9
330
1F
100
AcDbEntity
  8
LC-001-100-D00-0
 62
     7
370
    50
100
AcDbCircle
 10
427.574351
 20
517.222885
 30
0.0
 40
1.500000000000341
100
AcDbArc
 50
90.0
 51
180.0
  0
LINE
  5
4EA
330
1F
100
AcDbEntity
  8
LC-001-100-D00-0
 62
     7
370
    50
100
AcDbLine
 10
426.074351
 20
507.722885
 30
0.0
 11
426.074351
 21
517.222885
 31
0.0
  0
ARC
  5
4EB
330
1F
100
AcDbEntity
  8
LC-001-100-D00-0
 62
     7
370
    50
100
AcDbCircle
 10
416.574351
 20
507.722885
 30
0.0
 40
9.500000000000114
100
AcDbArc
 50
270.0
 51
0.0
  0
LINE
  5
4EC
330
1F
100
AcDbEntity
  8
LC-001-100-D00-0
 62
     7
370
    50
100
AcDbLine
 10
-81.436263
 20
498.222885
 30
0.0
 11
416.574351
 21
498.222885
 31
0.0
  0
ARC
  5
4ED
330
1F
100
AcDbEntity
  8
LC-001-100-D00-0
 62
     7
370
    50
100
AcDbCircle
 10
-81.436263
 20
495.722885
 30
0.0
 40
2.499999999999886
100
AcDbArc
 50
90.0
 51
105.0
  0
LINE
  5
4EE
330
1F
100
AcDbEntity
  8
LC-001-100-D00-0
 62
     7
370
    50
100
AcDbLine
 10
-82.083311
 20
498.1377
 30
0.0
 11
-99.916982
 21
493.359182
 31
0.0
  0
ARC
  5
4EF
330
1F
100
AcDbEntity
  8
LC-001-100-D00-0
 62
     7
370
    50
100
AcDbCircle
 10
-100.952259
 20
497.222885
 30
0.0
 40
4.000000000000227
100
AcDbArc
 50
270.0
 51
285.0
  0
LINE
  5
4F0
330
1F
100
AcDbEntity
  8
LC-001-100-D00-0
 62
     7
370
    50
100
AcDbLine
 10
-100.952259
 20
493.222885
 30
0.0
 11
-117.625649
 21
493.222885
 31
0.0
  0
ARC
  5
4F1
330
1F
100
AcDbEntity
  8
LC-001-100-D00-0
 62
     7
370
    50
100
AcDbCircle
 10
-117.625649
 20
492.222885
 30
0.0
 40
0.9999999999998863
100
AcDbArc
 50
90.0
 51
180.0
  0
LINE
  5
4F2
330
1F
100
AcDbEntity
  8
LC-001-100-D00-0
 62
     7
370
    50
100
AcDbLine
 10
-118.625649
 20
492.222885
 30
0.0
 11
-118.625648
 21
488.222884
 31
0.0
  0
LINE
  5
4F3
330
1F
100
AcDbEntity
  8
LC-001-100-D00-0
 62
     7
370
    50
100
AcDbLine
 10
-118.625648
 20
488.222884
 30
0.0
 11
-120.125649
 21
488.222885
 31
0.0
  0
LINE
  5
4F4
330
1F
100
AcDbEntity
  8
LC-001-100-D00-0
 62
     7
370
    50
100
AcDbLine
 10
-120.125649
 20
492.222885
 30
0.0
 11
-120.125649
 21
488.222885
 31
0.0
  0
ARC
  5
4F5
330
1F
100
AcDbEntity
  8
LC-001-100-D00-0
 62
     7
370
    50
100
AcDbCircle
 10
-117.625649
 20
492.222885
 30
0.0
 40
2.500000000000114
100
AcDbArc
 50
90.0
 51
180.0
  0
LINE
  5
4F6
330
1F
100
AcDbEntity
  8
LC-001-100-D00-0
 62
     7
370
    50
100
AcDbLine
 10
-100.952259
 20
494.722885
 30
0.0
 11
-117.625649
 21
494.722885
 31
0.0
  0
ARC
  5
4F7
330
1F
100
AcDbEntity
  8
LC-001-100-D00-0
 62
     7
370
    50
100
AcDbCircle
 10
-100.952259
 20
497.222885
 30
0.0
 40
2.500000000000227
100
AcDbArc
 50
270.0
 51
285.0
  0
LINE
  5
4F8
330
1F
100
AcDbEntity
  8
LC-001-100-D00-0
 62
     7
370
    50
100
AcDbLine
 10
-82.47154
 20
499.586589
 30
0.0
 11
-100.305211
 21
494.808071
 31
0.0
  0
ARC
  5
4F9
330
1F
100
AcDbEntity
  8
LC-001-100-D00-0
 62
     7
370
    50
100
AcDbCircle
 10
-81.436263
 20
495.722885
 30
0.0
 40
3.999999999999886
100
AcDbArc
 50
90.0
 51
105.0
  0
LINE
  5
4FA
330
1F
100
AcDbEntity
  8
LC-001-100-D00-0
 62
     7
370
    50
100
AcDbLine
 10
-81.436263
 20
499.722885
 30
0.0
 11
-79.925649
 21
499.722885
 31
0.0
  0
LINE
  5
4FB
330
1F
100
AcDbEntity
  8
LC-001-100-D00-0
 62
     7
370
    50
100
AcDbLine
 10
-79.925649
 20
499.722885
 30
0.0
 11
-79.925649
 21
501.122886
 31
0.0
  0
LINE
  5
4FC
330
1F
100
AcDbEntity
  8
LC-001-100-D00-0
 62
     7
370
    50
100
AcDbLine
 10
-79.425649
 20
501.122885
 30
0.0
 11
-79.925649
 21
501.122886
 31
0.0
  0
ARC
  5
4FD
330
1F
100
AcDbEntity
  8
LC-001-100-D00-0
 62
     7
370
    50
100
AcDbCircle
 10
-80.425649
 20
502.622885
 30
0.0
 40
1.802775637731963
100
AcDbArc
 50
303.690068
 51
56.309932
  0
LINE
  5
4FE
330
1F
100
AcDbEntity
  8
LC-001-100-D00-0
 62
     7
370
    50
100
AcDbLine
 10
-79.425648
 20
518.722885
 30
0.0
 11
-79.425649
 21
504.122885
 31
0.0
  0
LINE
  5
4FF
330
1F
100
AcDbEntity
  8
LC-001-100-D00-0
 62
     7
370
    50
100
AcDbLine
 10
-78.425646
 20
519.722885
 30
0.0
 11
-79.425648
 21
518.722885
 31
0.0
  0
LINE
  5
500
330
1F
100
AcDbEntity
  8
LC-001-100-D00-0
 62
     7
370
    50
100
AcDbLine
 10
-72.425649
 20
519.722885
 30
0.0
 11
-78.425646
 21
519.722885
 31
0.0
  0
LINE
  5
501
330
1F
100
AcDbEntity
  8
LC-001-100-D00-0
 62
     7
370
    50
100
AcDbLine
 10
-71.425646
 20
518.722885
 30
0.0
 11
-72.425649
 21
519.722885
 31
0.0
  0
LINE
  5
502
330
1F
100
AcDbEntity
  8
LC-001-100-D00-0
 62
     7
370
    50
100
AcDbLine
 10
-71.425649
 20
504.122885
 30
0.0
 11
-71.425646
 21
518.722885
 31
0.0
  0
ARC
  5
503
330
1F
100
AcDbEntity
  8
LC-001-100-D00-0
 62
     7
370
    50
100
AcDbCircle
 10
-70.425649
 20
502.622885
 30
0.0
 40
1.802775637731868
100
AcDbArc
 50
123.690068
 51
236.309932
  0
LINE
  5
504
330
1F
100
AcDbEntity
  8
LC-001-100-D00-0
 62
     7
370
    50
100
AcDbLine
 10
-70.925645
 20
501.122886
 30
0.0
 11
-71.425649
 21
501.122885
 31
0.0
  0
LINE
  5
505
330
1F
100
AcDbEntity
  8
LC-001-100-D00-0
 62
     7
370
    50
100
AcDbLine
 10
-70.925645
 20
501.122886
 30
0.0
 11
-70.925645
 21
499.722885
 31
0.0
  0
LINE
  5
506
330
1F
100
AcDbEntity
  8
LC-001-100-D00-0
 62
     7
370
    50
100
AcDbLine
 10
-70.925645
 20
499.722885
 30
0.0
 11
76.74101
 21
499.722885
 31
0.0
  0
LINE
  5
507
330
1F
100
AcDbEntity
  8
LC-001-100-D00-0
 62
     7
370
    50
100
AcDbLine
 10
76.74101
 20
499.722885
 30
0.0
 11
76.74101
 21
501.122886
 31
0.0
  0
LINE
  5
508
330
1F
100
AcDbEntity
  8
LC-001-100-D00-0
 62
     7
370
    50
100
AcDbLine
 10
77.241018
 20
501.122885
 30
0.0
 11
76.74101
 21
501.122886
 31
0.0
  0
ARC
  5
509
330
1F
100
AcDbEntity
  8
LC-001-100-D00-0
 62
     7
370
    50
100
AcDbCircle
 10
76.241018
 20
502.622885
 30
0.0
 40
1.802775637732042
100
AcDbArc
 50
303.690068
 51
56.309932
  0
LINE
  5
50A
330
1F
100
AcDbEntity
  8
LC-001-100-D00-0
 62
     7
370
    50
100
AcDbLine
 10
77.241004
 20
518.722885
 30
0.0
 11
77.241018
 21
504.122885
 31
0.0
  0
LINE
  5
50B
330
1F
100
AcDbEntity
  8
LC-001-100-D00-0
 62
     7
370
    50
100
AcDbLine
 10
78.24102
 20
519.722885
 30
0.0
 11
77.241004
 21
518.722885
 31
0.0
  0
LINE
  5
50C
330
1F
100
AcDbEntity
  8
LC-001-100-D00-0
 62
     7
370
    50
100
AcDbLine
 10
84.241033
 20
519.722885
 30
0.0
 11
78.24102
 21
519.722885
 31
0.0
  0
LINE
  5
50D
330
1F
100
AcDbEntity
  8
LC-001-100-D00-0
 62
     7
370
    50
100
AcDbLine
 10
85.24102
 20
518.722885
 30
0.0
 11
84.241033
 21
519.722885
 31
0.0
  0
LINE
  5
50E
330
1F
100
AcDbEntity
  8
LC-001-100-D00-0
 62
     7
370
    50
100
AcDbLine
 10
85.241018
 20
504.122885
 30
0.0
 11
85.24102
 21
518.722885
 31
0.0
  0
ARC
  5
50F
330
1F
100
AcDbEntity
  8
LC-001-100-D00-0
 62
     7
370
    50
100
AcDbCircle
 10
86.241018
 20
502.622885
 30
0.0
 40
1.802775637731868
100
AcDbArc
 50
123.690068
 51
236.309932
  0
LINE
  5
510
330
1F
100
AcDbEntity
  8
LC-001-100-D00-0
 62
     7
370
    50
100
AcDbLine
 10
85.741013
 20
501.122886
 30
0.0
 11
85.241018
 21
501.122885
 31
0.0
  0
LINE
  5
511
330
1F
100
AcDbEntity
  8
LC-001-100-D00-0
 62
     7
370
    50
100
AcDbLine
 10
85.741013
 20
501.122886
 30
0.0
 11
85.741013
 21
499.722885
 31
0.0
  0
LINE
  5
512
330
1F
100
AcDbEntity
  8
LC-001-100-D00-0
 62
     7
370
    50
100
AcDbLine
 10
85.741013
 20
499.722885
 30
0.0
 11
233.407676
 21
499.722885
 31
0.0
  0
LINE
  5
513
330
1F
100
AcDbEntity
  8
LC-001-100-D00-0
 62
     7
370
    50
100
AcDbLine
 10
233.407676
 20
499.722885
 30
0.0
 11
233.407676
 21
501.122886
 31
0.0
  0
LINE
  5
514
330
1F
100
AcDbEntity
  8
LC-001-100-D00-0
 62
     7
370
    50
100
AcDbLine
 10
233.907685
 20
501.122885
 30
0.0
 11
233.407676
 21
501.122886
 31
0.0
  0
ARC
  5
515
330
1F
100
AcDbEntity
  8
LC-001-100-D00-0
 62
     7
370
    50
100
AcDbCircle
 10
232.907685
 20
502.622885
 30
0.0
 40
1.802775637731963
100
AcDbArc
 50
303.690068
 51
56.309932
  0
LINE
  5
516
330
1F
100
AcDbEntity
  8
LC-001-100-D00-0
 62
     7
370
    50
100
AcDbLine
 10
233.90767
 20
518.722885
 30
0.0
 11
233.907685
 21
504.122885
 31
0.0
  0
LINE
  5
517
330
1F
100
AcDbEntity
  8
LC-001-100-D00-0
 62
     7
370
    50
100
AcDbLine
 10
234.907687
 20
519.722885
 30
0.0
 11
233.90767
 21
518.722885
 31
0.0
  0
LINE
  5
518
330
1F
100
AcDbEntity
  8
LC-001-100-D00-0
 62
     7
370
    50
100
AcDbLine
 10
240.907699
 20
519.722885
 30
0.0
 11
234.907687
 21
519.722885
 31
0.0
  0
LINE
  5
519
330
1F
100
AcDbEntity
  8
LC-001-100-D00-0
 62
     7
370
    50
100
AcDbLine
 10
241.907686
 20
518.722885
 30
0.0
 11
240.907699
 21
519.722885
 31
0.0
  0
LINE
  5
51A
330
1F
100
AcDbEntity
  8
LC-001-100-D00-0
 62
     7
370
    50
100
AcDbLine
 10
241.907685
 20
504.122885
 30
0.0
 11
241.907686
 21
518.722885
 31
0.0
  0
ARC
  5
51B
330
1F
100
AcDbEntity
  8
LC-001-100-D00-0
 62
     7
370
    50
100
AcDbCircle
 10
242.907685
 20
502.622885
 30
0.0
 40
1.802775637731711
100
AcDbArc
 50
123.690068
 51
236.309932
  0
LINE
  5
51C
330
1F
100
AcDbEntity
  8
LC-001-100-D00-0
 62
     7
370
    50
100
AcDbLine
 10
242.40768
 20
501.122886
 30
0.0
 11
241.907685
 21
501.122885
 31
0.0
  0
LINE
  5
51D
330
1F
100
AcDbEntity
  8
LC-001-100-D00-0
 62
     7
370
    50
100
AcDbLine
 10
242.40768
 20
501.122886
 30
0.0
 11
242.40768
 21
499.722885
 31
0.0
  0
LINE
  5
51E
330
1F
100
AcDbEntity
  8
LC-001-100-D00-0
 62
     7
370
    50
100
AcDbLine
 10
242.40768
 20
499.722885
 30
0.0
 11
390.074372
 21
499.722885
 31
0.0
  0
LINE
  5
51F
330
1F
100
AcDbEntity
  8
LC-001-100-D00-0
 62
     7
370
    50
100
AcDbLine
 10
390.074372
 20
499.722885
 30
0.0
 11
390.074372
 21
501.122886
 31
0.0
  0
LINE
  5
520
330
1F
100
AcDbEntity
  8
LC-001-100-D00-0
 62
     7
370
    50
100
AcDbLine
 10
390.574351
 20
501.122885
 30
0.0
 11
390.074372
 21
501.122886
 31
0.0
  0
ARC
  5
521
330
1F
100
AcDbEntity
  8
LC-001-100-D00-0
 62
     7
370
    50
100
AcDbCircle
 10
389.574351
 20
502.622885
 30
0.0
 40
1.802775637731963
100
AcDbArc
 50
303.690068
 51
56.309932
  0
LINE
  5
522
330
1F
100
AcDbEntity
  8
LC-001-100-D00-0
 62
     7
370
    50
100
AcDbLine
 10
390.574336
 20
518.722885
 30
0.0
 11
390.574351
 21
504.122885
 31
0.0
  0
LINE
  5
523
330
1F
100
AcDbEntity
  8
LC-001-100-D00-0
 62
     7
370
    50
100
AcDbLine
 10
391.574323
 20
519.722885
 30
0.0
 11
390.574336
 21
518.722885
 31
0.0
  0
LINE
  5
524
330
1F
100
AcDbEntity
  8
LC-001-100-D00-0
 62
     7
370
    50
100
AcDbLine
 10
397.574365
 20
519.722885
 30
0.0
 11
391.574323
 21
519.722885
 31
0.0
  0
LINE
  5
525
330
1F
100
AcDbEntity
  8
LC-001-100-D00-0
 62
     7
370
    50
100
AcDbLine
 10
398.574352
 20
518.722885
 30
0.0
 11
397.574365
 21
519.722885
 31
0.0
  0
LINE
  5
526
330
1F
100
AcDbEntity
  8
LC-001-100-D00-0
 62
     7
370
    50
100
AcDbLine
 10
398.574351
 20
504.122885
 30
0.0
 11
398.574352
 21
518.722885
 31
0.0
  0
ARC
  5
527
330
1F
100
AcDbEntity
  8
LC-001-100-D00-0
 62
     7
370
    50
100
AcDbCircle
 10
399.574351
 20
502.622885
 30
0.0
 40
1.802775637732026
100
AcDbArc
 50
123.690068
 51
236.309932
  0
LINE
  5
528
330
1F
100
AcDbEntity
  8
LC-001-100-D00-0
 62
     7
370
    50
100
AcDbLine
 10
399.074376
 20
501.122886
 30
0.0
 11
398.574351
 21
501.122885
 31
0.0
  0
LINE
  5
529
330
1F
100
AcDbEntity
  8
LC-001-100-D00-0
 62
     7
370
    50
100
AcDbLine
 10
399.074376
 20
501.122886
 30
0.0
 11
399.074376
 21
499.722885
 31
0.0
  0
LINE
  5
52A
330
1F
100
AcDbEntity
  8
LC-001-100-D00-0
 62
     7
370
    50
100
AcDbLine
 10
399.074376
 20
499.722885
 30
0.0
 11
416.574351
 21
499.722885
 31
0.0
  0
ARC
  5
52B
330
1F
100
AcDbEntity
  8
LC-001-100-D00-0
 62
     7
370
    50
100
AcDbCircle
 10
416.574351
 20
507.722885
 30
0.0
 40
8.000000000000114
100
AcDbArc
 50
270.0
 51
0.0
  0
LINE
  5
52C
330
1F
100
AcDbEntity
  8
LC-001-100-D00-0
 62
     7
370
    50
100
AcDbLine
 10
424.574351
 20
507.722885
 30
0.0
 11
424.574351
 21
517.222885
 31
0.0
  0
ARC
  5
52D
330
1F
100
AcDbEntity
  8
LC-001-100-D00-0
 62
     7
370
    50
100
AcDbCircle
 10
427.574351
 20
517.222885
 30
0.0
 40
3.0
100
AcDbArc
 50
90.0
 51
180.0
  0
LINE
  5
52E
330
1F
100
AcDbEntity
  8
LC-001-100-D00-0
 62
     7
370
    50
100
AcDbLine
 10
474.574328
 20
520.222885
 30
0.0
 11
427.574351
 21
520.222885
 31
0.0
  0
LINE
  5
52F
330
1F
100
AcDbEntity
  8
LC-001-100-D00-0
 62
     7
370
    50
100
AcDbLine
 10
474.574328
 20
518.722885
 30
0.0
 11
474.574328
 21
520.222885
 31
0.0
  0
LINE
  5
530
330
1F
100
AcDbEntity
  8
LC-001-100-D00-0
 62
     7
370
    50
100
AcDbLine
 10
474.574328
 20
518.722885
 30
0.0
 11
427.574351
 21
518.722885
 31
0.0
  0
LINE
  5
531
330
1F
100
AcDbEntity
  8
LC-001-100-D00-0
 62
     7
370
    50
100
AcDbLine
 10
-131.031765
 20
494.722885
 30
0.0
 11
-117.625649
 21
494.722885
 31
0.0
  0
LINE
  5
532
330
1F
100
AcDbEntity
  8
LC-001-100-D00-0
 62
     7
370
    50
100
AcDbLine
 10
-120.125649
 20
488.222885
 30
0.0
 11
-120.175649
 21
488.222885
 31
0.0
  0
LINE
  5
533
330
1F
100
AcDbEntity
  8
LC-001-100-D00-0
 62
     7
370
    50
100
AcDbLine
 10
-230.675649
 20
488.222885
 30
0.0
 11
-230.725649
 21
488.222885
 31
0.0
  0
LINE
  5
534
330
1F
100
AcDbEntity
  8
LC-001-100-D00-0
 62
     7
370
    50
100
AcDbLine
 10
-230.725649
 20
488.222885
 30
0.0
 11
-230.725649
 21
492.222885
 31
0.0
  0
LINE
  5
535
330
1F
100
AcDbEntity
  8
LC-001-100-D00-0
 62
     7
370
    50
100
AcDbLine
 10
-232.225649
 20
488.222884
 30
0.0
 11
-232.225649
 21
492.222885
 31
0.0
  0
LINE
  5
536
330
1F
100
AcDbEntity
  8
LC-001-100-D00-0
 62
     7
370
    50
100
AcDbLine
 10
-592.758983
 20
518.722885
 30
0.0
 11
-592.758982
 21
504.122885
 31
0.0
  0
LINE
  5
537
330
1F
100
AcDbEntity
  8
LC-001-100-D00-0
 62
     7
370
    50
100
AcDbLine
 10
-591.758996
 20
519.722885
 30
0.0
 11
-592.758983
 21
518.722885
 31
0.0
  0
LINE
  5
538
330
1F
100
AcDbEntity
  8
LC-001-100-D00-0
 62
     7
370
    50
100
AcDbLine
 10
-585.758984
 20
519.722885
 30
0.0
 11
-591.758996
 21
519.722885
 31
0.0
  0
LINE
  5
539
330
1F
100
AcDbEntity
  8
LC-001-100-D00-0
 62
     7
370
    50
100
AcDbLine
 10
-584.758967
 20
518.722885
 30
0.0
 11
-585.758984
 21
519.722885
 31
0.0
  0
LINE
  5
53A
330
1F
100
AcDbEntity
  8
LC-001-100-D00-0
 62
     7
370
    50
100
AcDbLine
 10
-584.758982
 20
504.122885
 30
0.0
 11
-584.758967
 21
518.722885
 31
0.0
  0
ARC
  5
53B
330
1F
100
AcDbEntity
  8
LC-001-100-D00-0
 62
     7
370
    50
100
AcDbCircle
 10
-583.758982
 20
502.622885
 30
0.0
 40
1.802775637731932
100
AcDbArc
 50
123.690068
 51
236.309932
  0
LINE
  5
53C
330
1F
100
AcDbEntity
  8
LC-001-100-D00-0
 62
     7
370
    50
100
AcDbLine
 10
-584.258974
 20
501.122886
 30
0.0
 11
-584.758982
 21
501.122885
 31
0.0
  0
LINE
  5
53D
330
1F
100
AcDbEntity
  8
LC-001-100-D00-0
 62
     7
370
    50
100
AcDbLine
 10
-584.258974
 20
501.122886
 30
0.0
 11
-584.258974
 21
499.722885
 31
0.0
  0
LINE
  5
53E
330
1F
100
AcDbEntity
  8
LC-001-100-D00-0
 62
     7
370
    50
100
AcDbLine
 10
-584.258974
 20
499.722885
 30
0.0
 11
-436.592311
 21
499.722885
 31
0.0
  0
LINE
  5
53F
330
1F
100
AcDbEntity
  8
LC-001-100-D00-0
 62
     7
370
    50
100
AcDbLine
 10
-436.592311
 20
499.722885
 30
0.0
 11
-436.592311
 21
501.122886
 31
0.0
  0
LINE
  5
540
330
1F
100
AcDbEntity
  8
LC-001-100-D00-0
 62
     7
370
    50
100
AcDbLine
 10
-436.092315
 20
501.122885
 30
0.0
 11
-436.592311
 21
501.122886
 31
0.0
  0
ARC
  5
541
330
1F
100
AcDbEntity
  8
LC-001-100-D00-0
 62
     7
370
    50
100
AcDbCircle
 10
-437.092315
 20
502.622885
 30
0.0
 40
1.802775637731963
100
AcDbArc
 50
303.690068
 51
56.309932
  0
LINE
  5
542
330
1F
100
AcDbEntity
  8
LC-001-100-D00-0
 62
     7
370
    50
100
AcDbLine
 10
-436.092317
 20
518.722885
 30
0.0
 11
-436.092315
 21
504.122885
 31
0.0
  0
LINE
  5
543
330
1F
100
AcDbEntity
  8
LC-001-100-D00-0
 62
     7
370
    50
100
AcDbLine
 10
-435.09233
 20
519.722885
 30
0.0
 11
-436.092317
 21
518.722885
 31
0.0
  0
LINE
  5
544
330
1F
100
AcDbEntity
  8
LC-001-100-D00-0
 62
     7
370
    50
100
AcDbLine
 10
-429.092318
 20
519.722885
 30
0.0
 11
-435.09233
 21
519.722885
 31
0.0
  0
LINE
  5
545
330
1F
100
AcDbEntity
  8
LC-001-100-D00-0
 62
     7
370
    50
100
AcDbLine
 10
-428.092301
 20
518.722885
 30
0.0
 11
-429.092318
 21
519.722885
 31
0.0
  0
LINE
  5
546
330
1F
100
AcDbEntity
  8
LC-001-100-D00-0
 62
     7
370
    50
100
AcDbLine
 10
-428.092315
 20
504.122885
 30
0.0
 11
-428.092301
 21
518.722885
 31
0.0
  0
ARC
  5
547
330
1F
100
AcDbEntity
  8
LC-001-100-D00-0
 62
     7
370
    50
100
AcDbCircle
 10
-427.092315
 20
502.622885
 30
0.0
 40
1.802775637731995
100
AcDbArc
 50
123.690068
 51
236.309932
  0
LINE
  5
548
330
1F
100
AcDbEntity
  8
LC-001-100-D00-0
 62
     7
370
    50
100
AcDbLine
 10
-427.592307
 20
501.122886
 30
0.0
 11
-428.092315
 21
501.122885
 31
0.0
  0
LINE
  5
549
330
1F
100
AcDbEntity
  8
LC-001-100-D00-0
 62
     7
370
    50
100
AcDbLine
 10
-427.592307
 20
501.122886
 30
0.0
 11
-427.592307
 21
499.722885
 31
0.0
  0
LINE
  5
54A
330
1F
100
AcDbEntity
  8
LC-001-100-D00-0
 62
     7
370
    50
100
AcDbLine
 10
-427.592307
 20
499.722885
 30
0.0
 11
-279.925652
 21
499.722885
 31
0.0
  0
LINE
  5
54B
330
1F
100
AcDbEntity
  8
LC-001-100-D00-0
 62
     7
370
    50
100
AcDbLine
 10
-279.925652
 20
499.722885
 30
0.0
 11
-279.925652
 21
501.122886
 31
0.0
  0
LINE
  5
54C
330
1F
100
AcDbEntity
  8
LC-001-100-D00-0
 62
     7
370
    50
100
AcDbLine
 10
-279.425649
 20
501.122885
 30
0.0
 11
-279.925652
 21
501.122886
 31
0.0
  0
ARC
  5
54D
330
1F
100
AcDbEntity
  8
LC-001-100-D00-0
 62
     7
370
    50
100
AcDbCircle
 10
-280.425649
 20
502.622885
 30
0.0
 40
1.802775637731963
100
AcDbArc
 50
303.690068
 51
56.309932
  0
LINE
  5
54E
330
1F
100
AcDbEntity
  8
LC-001-100-D00-0
 62
     7
370
    50
100
AcDbLine
 10
-279.425651
 20
518.722885
 30
0.0
 11
-279.425649
 21
504.122885
 31
0.0
  0
LINE
  5
54F
330
1F
100
AcDbEntity
  8
LC-001-100-D00-0
 62
     7
370
    50
100
AcDbLine
 10
-278.425649
 20
519.722885
 30
0.0
 11
-279.425651
 21
518.722885
 31
0.0
  0
LINE
  5
550
330
1F
100
AcDbEntity
  8
LC-001-100-D00-0
 62
     7
370
    50
100
AcDbLine
 10
-272.425652
 20
519.722885
 30
0.0
 11
-278.425649
 21
519.722885
 31
0.0
  0
LINE
  5
551
330
1F
100
AcDbEntity
  8
LC-001-100-D00-0
 62
     7
370
    50
100
AcDbLine
 10
-271.425649
 20
518.722885
 30
0.0
 11
-272.425652
 21
519.722885
 31
0.0
  0
LINE
  5
552
330
1F
100
AcDbEntity
  8
LC-001-100-D00-0
 62
     7
370
    50
100
AcDbLine
 10
-271.425649
 20
504.122885
 30
0.0
 11
-271.425649
 21
518.722885
 31
0.0
  0
ARC
  5
553
330
1F
100
AcDbEntity
  8
LC-001-100-D00-0
 62
     7
370
    50
100
AcDbCircle
 10
-270.425649
 20
502.622885
 30
0.0
 40
1.802775637731868
100
AcDbArc
 50
123.690068
 51
236.309932
  0
LINE
  5
554
330
1F
100
AcDbEntity
  8
LC-001-100-D00-0
 62
     7
370
    50
100
AcDbLine
 10
-270.925648
 20
501.122886
 30
0.0
 11
-271.425649
 21
501.122885
 31
0.0
  0
LINE
  5
555
330
1F
100
AcDbEntity
  8
LC-001-100-D00-0
 62
     7
370
    50
100
AcDbLine
 10
-270.925648
 20
501.122886
 30
0.0
 11
-270.925648
 21
499.722885
 31
0.0
  0
LINE
  5
556
330
1F
100
AcDbEntity
  8
LC-001-100-D00-0
 62
     7
370
    50
100
AcDbLine
 10
-270.925648
 20
499.722885
 30
0.0
 11
-269.415034
 21
499.722885
 31
0.0
  0
ARC
  5
557
330
1F
100
AcDbEntity
  8
LC-001-100-D00-0
 62
     7
370
    50
100
AcDbCircle
 10
-269.415034
 20
495.722885
 30
0.0
 40
3.999999999999983
100
AcDbArc
 50
75.0
 51
90.0
  0
LINE
  5
558
330
1F
100
AcDbEntity
  8
LC-001-100-D00-0
 62
     7
370
    50
100
AcDbLine
 10
-250.546086
 20
494.808071
 30
0.0
 11
-268.379758
 21
499.586589
 31
0.0
  0
ARC
  5
559
330
1F
100
AcDbEntity
  8
LC-001-100-D00-0
 62
     7
370
    50
100
AcDbCircle
 10
-249.899039
 20
497.222885
 30
0.0
 40
2.500000000000281
100
AcDbArc
 50
255.0
 51
270.0
  0
LINE
  5
55A
330
1F
100
AcDbEntity
  8
LC-001-100-D00-0
 62
     7
370
    50
100
AcDbLine
 10
-244.502857
 20
494.722886
 30
0.0
 11
-249.899039
 21
494.722885
 31
0.0
  0
LINE
  5
55B
330
1F
100
AcDbEntity
  8
LC-001-100-D00-0
 62
     7
370
    50
100
AcDbLine
 10
-244.502857
 20
494.622886
 30
0.0
 11
-244.502857
 21
494.722886
 31
0.0
  0
LINE
  5
55C
330
1F
100
AcDbEntity
  8
LC-001-100-D00-0
 62
     7
370
    50
100
AcDbLine
 10
-243.979022
 20
494.622886
 30
0.0
 11
-244.502857
 21
494.622886
 31
0.0
  0
LINE
  5
55D
330
1F
100
AcDbEntity
  8
LC-001-100-D00-0
 62
     7
370
    50
100
AcDbLine
 10
-243.979022
 20
494.722886
 30
0.0
 11
-243.979022
 21
494.622886
 31
0.0
  0
LINE
  5
55E
330
1F
100
AcDbEntity
  8
LC-001-100-D00-0
 62
     7
370
    50
100
AcDbLine
 10
-243.284777
 20
494.722886
 30
0.0
 11
-243.979022
 21
494.722886
 31
0.0
  0
LINE
  5
55F
330
1F
100
AcDbEntity
  8
LC-001-100-D00-0
 62
     7
370
    50
100
AcDbLine
 10
-243.284777
 20
494.622886
 30
0.0
 11
-243.284777
 21
494.722886
 31
0.0
  0
LINE
  5
560
330
1F
100
AcDbEntity
  8
LC-001-100-D00-0
 62
     7
370
    50
100
AcDbLine
 10
-242.760427
 20
494.622886
 30
0.0
 11
-243.284777
 21
494.622886
 31
0.0
  0
LINE
  5
561
330
1F
100
AcDbEntity
  8
LC-001-100-D00-0
 62
     7
370
    50
100
AcDbLine
 10
-242.760427
 20
494.722886
 30
0.0
 11
-242.760427
 21
494.622886
 31
0.0
  0
LINE
  5
562
330
1F
100
AcDbEntity
  8
LC-001-100-D00-0
 62
     7
370
    50
100
AcDbLine
 10
-233.225649
 20
494.722885
 30
0.0
 11
-242.760427
 21
494.722886
 31
0.0
  0
ARC
  5
563
330
1F
100
AcDbEntity
  8
LC-001-100-D00-0
 62
     7
370
    50
100
AcDbCircle
 10
-233.225649
 20
492.222885
 30
0.0
 40
2.500000000000171
100
AcDbArc
 50
0.0
 51
90.0
  0
LINE
  5
564
330
1F
100
AcDbEntity
  8
LC-001-100-D00-0
 62
     7
370
    50
100
AcDbLine
 10
-230.725649
 20
488.222885
 30
0.0
 11
-232.225649
 21
488.222884
 31
0.0
  0
ARC
  5
565
330
1F
100
AcDbEntity
  8
LC-001-100-D00-0
 62
     7
370
    50
100
AcDbCircle
 10
-233.225649
 20
492.222885
 30
0.0
 40
1.000000000000171
100
AcDbArc
 50
0.0
 51
90.0
  0
LINE
  5
566
330
1F
100
AcDbEntity
  8
LC-001-100-D00-0
 62
     7
370
    50
100
AcDbLine
 10
-233.225649
 20
493.222885
 30
0.0
 11
-249.899039
 21
493.222885
 31
0.0
  0
ARC
  5
567
330
1F
100
AcDbEntity
  8
LC-001-100-D00-0
 62
     7
370
    50
100
AcDbCircle
 10
-249.899039
 20
497.222885
 30
0.0
 40
4.000000000000341
100
AcDbArc
 50
255.0
 51
270.0
  0
LINE
  5
568
330
1F
100
AcDbEntity
  8
LC-001-100-D00-0
 62
     7
370
    50
100
AcDbLine
 10
-250.934315
 20
493.359182
 30
0.0
 11
-268.767986
 21
498.1377
 31
0.0
  0
ARC
  5
569
330
1F
100
AcDbEntity
  8
LC-001-100-D00-0
 62
     7
370
    50
100
AcDbCircle
 10
-269.415034
 20
495.722885
 30
0.0
 40
2.499999999999981
100
AcDbArc
 50
75.0
 51
90.0
  0
LINE
  5
56A
330
1F
100
AcDbEntity
  8
LC-001-100-D00-0
 62
     7
370
    50
100
AcDbLine
 10
-767.425649
 20
498.222885
 30
0.0
 11
-269.415034
 21
498.222885
 31
0.0
  0
ARC
  5
56B
330
1F
100
AcDbEntity
  8
LC-001-100-D00-0
 62
     7
370
    50
100
AcDbCircle
 10
-767.425649
 20
507.722885
 30
0.0
 40
9.500000000000227
100
AcDbArc
 50
180.0
 51
270.0
  0
LINE
  5
56C
330
1F
100
AcDbEntity
  8
LC-001-100-D00-0
 62
     7
370
    50
100
AcDbLine
 10
-776.925649
 20
517.222885
 30
0.0
 11
-776.925649
 21
507.722885
 31
0.0
  0
ARC
  5
56D
330
1F
100
AcDbEntity
  8
LC-001-100-D00-0
 62
     7
370
    50
100
AcDbCircle
 10
-778.425649
 20
517.222885
 30
0.0
 40
1.500000000000341
100
AcDbArc
 50
0.0
 51
90.0
  0
LINE
  5
56E
330
1F
100
AcDbEntity
  8
LC-001-100-D00-0
 62
     7
370
    50
100
AcDbLine
 10
-825.425625
 20
520.222885
 30
0.0
 11
-825.425625
 21
518.722885
 31
0.0
  0
ARC
  5
56F
330
1F
100
AcDbEntity
  8
LC-001-100-D00-0
 62
     7
370
    50
100
AcDbCircle
 10
-778.425649
 20
517.222885
 30
0.0
 40
3.0
100
AcDbArc
 50
0.0
 51
90.0
  0
LINE
  5
570
330
1F
100
AcDbEntity
  8
LC-001-100-D00-0
 62
     7
370
    50
100
AcDbLine
 10
-775.425649
 20
517.222885
 30
0.0
 11
-775.425649
 21
507.722885
 31
0.0
  0
ARC
  5
571
330
1F
100
AcDbEntity
  8
LC-001-100-D00-0
 62
     7
370
    50
100
AcDbCircle
 10
-767.425649
 20
507.722885
 30
0.0
 40
8.000000000000227
100
AcDbArc
 50
180.0
 51
270.0
  0
LINE
  5
572
330
1F
100
AcDbEntity
  8
LC-001-100-D00-0
 62
     7
370
    50
100
AcDbLine
 10
-767.425649
 20
499.722885
 30
0.0
 11
-749.925673
 21
499.722885
 31
0.0
  0
LINE
  5
573
330
1F
100
AcDbEntity
  8
LC-001-100-D00-0
 62
     7
370
    50
100
AcDbLine
 10
-749.925673
 20
499.722885
 30
0.0
 11
-749.925673
 21
501.122886
 31
0.0
  0
LINE
  5
574
330
1F
100
AcDbEntity
  8
LC-001-100-D00-0
 62
     7
370
    50
100
AcDbLine
 10
-749.425649
 20
501.122885
 30
0.0
 11
-749.925673
 21
501.122886
 31
0.0
  0
ARC
  5
575
330
1F
100
AcDbEntity
  8
LC-001-100-D00-0
 62
     7
370
    50
100
AcDbCircle
 10
-750.425649
 20
502.622885
 30
0.0
 40
1.802775637732026
100
AcDbArc
 50
303.690068
 51
56.309932
  0
LINE
  5
576
330
1F
100
AcDbEntity
  8
LC-001-100-D00-0
 62
     7
370
    50
100
AcDbLine
 10
-749.42565
 20
518.722885
 30
0.0
 11
-749.425649
 21
504.122885
 31
0.0
  0
LINE
  5
577
330
1F
100
AcDbEntity
  8
LC-001-100-D00-0
 62
     7
370
    50
100
AcDbLine
 10
-748.425662
 20
519.722885
 30
0.0
 11
-749.42565
 21
518.722885
 31
0.0
  0
LINE
  5
578
330
1F
100
AcDbEntity
  8
LC-001-100-D00-0
 62
     7
370
    50
100
AcDbLine
 10
-742.425621
 20
519.722885
 30
0.0
 11
-748.425662
 21
519.722885
 31
0.0
  0
LINE
  5
579
330
1F
100
AcDbEntity
  8
LC-001-100-D00-0
 62
     7
370
    50
100
AcDbLine
 10
-741.425633
 20
518.722885
 30
0.0
 11
-742.425621
 21
519.722885
 31
0.0
  0
LINE
  5
57A
330
1F
100
AcDbEntity
  8
LC-001-100-D00-0
 62
     7
370
    50
100
AcDbLine
 10
-741.425649
 20
504.122885
 30
0.0
 11
-741.425633
 21
518.722885
 31
0.0
  0
ARC
  5
57B
330
1F
100
AcDbEntity
  8
LC-001-100-D00-0
 62
     7
370
    50
100
AcDbCircle
 10
-740.425649
 20
502.622885
 30
0.0
 40
1.802775637731995
100
AcDbArc
 50
123.690068
 51
236.309932
  0
LINE
  5
57C
330
1F
100
AcDbEntity
  8
LC-001-100-D00-0
 62
     7
370
    50
100
AcDbLine
 10
-740.92567
 20
501.122886
 30
0.0
 11
-741.425649
 21
501.122885
 31
0.0
  0
LINE
  5
57D
330
1F
100
AcDbEntity
  8
LC-001-100-D00-0
 62
     7
370
    50
100
AcDbLine
 10
-740.92567
 20
501.122886
 30
0.0
 11
-740.92567
 21
499.722885
 31
0.0
  0
LINE
  5
57E
330
1F
100
AcDbEntity
  8
LC-001-100-D00-0
 62
     7
370
    50
100
AcDbLine
 10
-740.92567
 20
499.722885
 30
0.0
 11
-593.258977
 21
499.722885
 31
0.0
  0
LINE
  5
57F
330
1F
100
AcDbEntity
  8
LC-001-100-D00-0
 62
     7
370
    50
100
AcDbLine
 10
-593.258977
 20
499.722885
 30
0.0
 11
-593.258977
 21
501.122886
 31
0.0
  0
LINE
  5
580
330
1F
100
AcDbEntity
  8
LC-001-100-D00-0
 62
     7
370
    50
100
AcDbLine
 10
-592.758982
 20
501.122885
 30
0.0
 11
-593.258977
 21
501.122886
 31
0.0
  0
ARC
  5
581
330
1F
100
AcDbEntity
  8
LC-001-100-D00-0
 62
     7
370
    50
100
AcDbCircle
 10
-593.758982
 20
502.622885
 30
0.0
 40
1.802775637732026
100
AcDbArc
 50
303.690068
 51
56.309932
  0
LINE
  5
582
330
1F
100
AcDbEntity
  8
LC-001-100-D00-0
 62
     7
370
    50
100
AcDbLine
 10
-778.425649
 20
518.722885
 30
0.0
 11
-825.425625
 21
518.722885
 31
0.0
  0
LINE
  5
583
330
1F
100
AcDbEntity
  8
LC-001-100-D00-0
 62
     7
370
    50
100
AcDbLine
 10
-778.425649
 20
520.222885
 30
0.0
 11
-825.425625
 21
520.222885
 31
0.0
  0
LINE
  5
584
330
1F
100
AcDbEntity
  8
LC-001-100-D00-0
 62
     7
370
    50
100
AcDbLine
 10
-219.819532
 20
494.722885
 30
0.0
 11
-233.225649
 21
494.722885
 31
0.0
  0
LINE
  5
585
330
1F
100
AcDbEntity
  8
LC-001-100-D00-0
 62
     7
370
    50
100
AcDbLine
 10
-243.284777
 20
494.722886
 30
0.0
 11
-242.760427
 21
494.722886
 31
0.0
  0
LINE
  5
586
330
1F
100
AcDbEntity
  8
LC-001-100-D00-0
 62
     7
370
    50
100
AcDbLine
 10
-244.502857
 20
494.722886
 30
0.0
 11
-243.979022
 21
494.722886
 31
0.0
  0
ELLIPSE
  5
587
330
1F
100
AcDbEntity
  8
LC-001-100-D00-0
 62
     7
370
    50
100
AcDbEllipse
 10
279.596169
 20
495.722885
 30
0.0
 11
0.0
 21
-2.499999999999773
 31
0.0
210
0.0
220
0.0
230
1.0
 40
0.027578
 41
0.0
 42
0.3217505544005586
  0
ELLIPSE
  5
588
330
1F
100
AcDbEntity
  8
LC-001-100-D00-0
 62
     7
370
    50
100
AcDbEllipse
 10
-630.447466
 20
495.722885
 30
0.0
 11
0.0
 21
-2.50000004577614
 31
0.0
210
0.0
220
0.0
230
1.0
 40
0.027578
 41
5.961434752782516
 42
6.283185307177938
  0
LINE
  5
589
330
1F
100
AcDbEntity
  8
LC-001-100-D00-0
 62
     7
370
    50
100
AcDbLine
 10
279.574364
 20
498.094233
 30
0.0
 11
279.574364
 21
493.428845
 31
0.0
  0
LINE
  5
58A
330
1F
100
AcDbEntity
  8
LC-001-100-D00-0
 62
     7
370
    50
100
AcDbLine
 10
-630.425662
 20
498.094233
 30
0.0
 11
-630.425662
 21
493.428845
 31
0.0
  0
INSERT
  5
594
330
1F
100
AcDbEntity
  8
LC-001-100-D00-0
 62
     7
370
    50
100
AcDbBlockReference
  2
KLON18
 10
0.0
 20
0.0
 30
0.0
  0
INSERT
  5
59E
330
1F
100
AcDbEntity
  8
LC-001-100-D00-0
 62
     7
370
    50
100
AcDbBlockReference
  2
KLON19
 10
0.0
 20
0.0
 30
0.0
  0
LINE
  5
59F
330
1F
100
AcDbEntity
  8
LC-001-100-D00-0
 62
     7
370
    50
100
AcDbLine
 10
279.574335
 20
493.222885
 30
0.0
 11
279.574305
 21
493.428152
 31
0.0
  0
LINE
  5
5A0
330
1F
100
AcDbEntity
  8
LC-001-100-D00-0
 62
     7
370
    50
100
AcDbLine
 10
279.574364
 20
493.222885
 30
0.0
 11
407.482028
 21
497.89105
 31
0.0
  0
LINE
  5
5A1
330
1F
100
AcDbEntity
  8
LC-001-100-D00-0
 62
     7
370
    50
100
AcDbLine
 10
279.574335
 20
493.222885
 30
0.0
 11
279.574335
 21
493.222885
 31
0.0
  0
LINE
  5
5A2
330
1F
100
AcDbEntity
  8
LC-001-100-D00-0
 62
     7
370
    50
100
AcDbLine
 10
-630.425632
 20
493.222885
 30
0.0
 11
-630.425602
 21
493.428152
 31
0.0
  0
LINE
  5
5A3
330
1F
100
AcDbEntity
  8
LC-001-100-D00-0
 62
     7
370
    50
100
AcDbLine
 10
-630.425662
 20
493.222885
 30
0.0
 11
-758.333325
 21
497.89105
 31
0.0
  0
LINE
  5
5A4
330
1F
100
AcDbEntity
  8
LC-001-100-D00-0
 62
     7
370
    50
100
AcDbLine
 10
-630.425632
 20
493.222885
 30
0.0
 11
-630.425632
 21
493.222885
 31
0.0
  0
LINE
  5
5A5
330
1F
100
AcDbEntity
  8
LC-001-100-D00-0
 62
     7
370
    50
100
AcDbLine
 10
-133.639492
 20
486.222885
 30
0.0
 11
-131.246945
 21
486.222885
 31
0.0
  0
LINE
  5
5A6
330
1F
100
AcDbEntity
  8
LC-001-100-D00-0
 62
     7
370
    50
100
AcDbLine
 10
-130.275733
 20
484.722885
 30
0.0
 11
-130.180147
 21
484.730946
 31
0.0
  0
LINE
  5
5A7
330
1F
100
AcDbEntity
  8
LC-001-100-D00-0
 62
     7
370
    50
100
AcDbLine
 10
-130.275733
 20
484.722885
 30
0.0
 11
-133.639492
 21
484.722885
 31
0.0
  0
LINE
  5
5A8
330
1F
100
AcDbEntity
  8
LC-001-100-D00-0
 62
     7
370
    50
100
AcDbLine
 10
-220.671151
 20
484.730946
 30
0.0
 11
-220.575564
 21
484.722885
 31
0.0
  0
LINE
  5
5A9
330
1F
100
AcDbEntity
  8
LC-001-100-D00-0
 62
     7
370
    50
100
AcDbLine
 10
-219.604352
 20
486.222885
 30
0.0
 11
-217.211805
 21
486.222885
 31
0.0
  0
LINE
  5
5AA
330
1F
100
AcDbEntity
  8
LC-001-100-D00-0
 62
     7
370
    50
100
AcDbLine
 10
-217.211805
 20
484.722885
 30
0.0
 11
-220.575564
 21
484.722885
 31
0.0
  0
LINE
  5
5AB
330
1F
100
AcDbEntity
  8
LC-001-100-D00-0
 62
     7
370
    50
100
AcDbLine
 10
-133.639492
 20
484.722885
 30
0.0
 11
-134.41642
 21
484.722885
 31
0.0
  0
LINE
  5
5AC
330
1F
100
AcDbEntity
  8
LC-001-100-D00-0
 62
     7
370
    50
100
AcDbLine
 10
-133.639492
 20
486.222885
 30
0.0
 11
-134.41642
 21
486.222885
 31
0.0
  0
LINE
  5
5AD
330
1F
100
AcDbEntity
  8
LC-001-100-D00-0
 62
     7
370
    50
100
AcDbLine
 10
-217.211805
 20
486.222885
 30
0.0
 11
-216.434877
 21
486.222885
 31
0.0
  0
LINE
  5
5AE
330
1F
100
AcDbEntity
  8
LC-001-100-D00-0
 62
     7
370
    50
100
AcDbLine
 10
-217.211805
 20
484.722885
 30
0.0
 11
-216.434877
 21
484.722885
 31
0.0
  0
LINE
  5
5AF
330
1F
100
AcDbEntity
  8
LC-001-100-D00-0
 62
     7
370
    50
100
AcDbLine
 10
-100.952259
 20
493.222885
 30
0.0
 11
-98.851658
 21
493.222885
 31
0.0
  0
LINE
  5
5B0
330
1F
100
AcDbEntity
  8
LC-001-100-D00-0
 62
     7
370
    50
100
AcDbLine
 10
-249.899039
 20
493.222885
 30
0.0
 11
-251.999639
 21
493.222885
 31
0.0
  0
LINE
  5
5B1
330
1F
100
AcDbEntity
  8
LC-001-100-D00-0
 62
     7
370
    50
100
AcDbLine
 10
-134.41642
 20
484.722885
 30
0.0
 11
-135.711234
 21
484.722885
 31
0.0
  0
LINE
  5
5B2
330
1F
100
AcDbEntity
  8
LC-001-100-D00-0
 62
     7
370
    50
100
AcDbLine
 10
-135.695302
 20
486.222885
 30
0.0
 11
-134.41642
 21
486.222885
 31
0.0
  0
LINE
  5
5B3
330
1F
100
AcDbEntity
  8
LC-001-100-D00-0
 62
     7
370
    50
100
AcDbLine
 10
-216.434877
 20
486.222885
 30
0.0
 11
-215.155995
 21
486.222885
 31
0.0
  0
LINE
  5
5B4
330
1F
100
AcDbEntity
  8
LC-001-100-D00-0
 62
     7
370
    50
100
AcDbLine
 10
-215.140064
 20
484.722885
 30
0.0
 11
-216.434877
 21
484.722885
 31
0.0
  0
LINE
  5
5B5
330
1F
100
AcDbEntity
  8
LC-001-100-D00-0
 62
     7
370
    50
100
AcDbLine
 10
-98.851658
 20
493.222885
 30
0.0
 11
279.574335
 21
493.222885
 31
0.0
  0
LINE
  5
5B6
330
1F
100
AcDbEntity
  8
LC-001-100-D00-0
 62
     7
370
    50
100
AcDbLine
 10
-251.999639
 20
493.222885
 30
0.0
 11
-630.425632
 21
493.222885
 31
0.0
  0
ARC
  5
5B7
330
1F
100
AcDbEntity
  8
LC-001-100-D00-0
 62
     7
370
    50
100
AcDbCircle
 10
-130.910021
 20
486.157037
 30
0.0
 40
1.602014939990804
100
AcDbArc
 50
297.103406
 51
2.355668
  0
INSERT
  5
5C0
330
1F
100
AcDbEntity
  8
LC-001-100-D00-0
 62
     7
370
    50
100
AcDbBlockReference
  2
KLON20
 10
0.0
 20
0.0
 30
0.0
  0
INSERT
  5
5CC
330
1F
100
AcDbEntity
  8
LC-001-100-D00-0
 62
     7
370
    50
100
AcDbBlockReference
  2
KLON21
 10
0.0
 20
0.0
 30
0.0
  0
INSERT
  5
5D8
330
1F
100
AcDbEntity
  8
LC-001-100-D00-0
 62
     7
370
    50
100
AcDbBlockReference
  2
KLON22
 10
0.0
 20
0.0
 30
0.0
  0
LINE
  5
5D9
330
1F
100
AcDbEntity
  8
LC-001-100-D00-0
 62
     7
370
    50
100
AcDbLine
 10
422.074351
 20
520.222885
 30
0.0
 11
427.574351
 21
520.222885
 31
0.0
  0
LINE
  5
5DA
330
1F
100
AcDbEntity
  8
LC-001-100-D00-0
 62
     7
370
    50
100
AcDbLine
 10
-772.925649
 20
520.222885
 30
0.0
 11
-778.425649
 21
520.222885
 31
0.0
  0
LINE
  5
5DB
330
1F
100
AcDbEntity
  8
LC-001-100-D00-0
 62
     7
370
    50
100
AcDbLine
 10
422.074351
 20
520.222885
 30
0.0
 11
411.824351
 21
520.222885
 31
0.0
  0
LINE
  5
5DC
330
1F
100
AcDbEntity
  8
LC-001-100-D00-0
 62
     7
370
    50
100
AcDbLine
 10
377.324351
 20
520.222885
 30
0.0
 11
255.157685
 21
520.222885
 31
0.0
  0
LINE
  5
5DD
330
1F
100
AcDbEntity
  8
LC-001-100-D00-0
 62
     7
370
    50
100
AcDbLine
 10
220.657685
 20
520.222885
 30
0.0
 11
98.491018
 21
520.222885
 31
0.0
  0
LINE
  5
5DE
330
1F
100
AcDbEntity
  8
LC-001-100-D00-0
 62
     7
370
    50
100
AcDbLine
 10
63.991018
 20
520.222885
 30
0.0
 11
-58.175649
 21
520.222885
 31
0.0
  0
LINE
  5
5DF
330
1F
100
AcDbEntity
  8
LC-001-100-D00-0
 62
     7
370
    50
100
AcDbLine
 10
-92.675649
 20
520.222885
 30
0.0
 11
-258.175649
 21
520.222885
 31
0.0
  0
LINE
  5
5E0
330
1F
100
AcDbEntity
  8
LC-001-100-D00-0
 62
     7
370
    50
100
AcDbLine
 10
-292.675649
 20
520.222885
 30
0.0
 11
-414.842315
 21
520.222885
 31
0.0
  0
LINE
  5
5E1
330
1F
100
AcDbEntity
  8
LC-001-100-D00-0
 62
     7
370
    50
100
AcDbLine
 10
-449.342315
 20
520.222885
 30
0.0
 11
-571.508982
 21
520.222885
 31
0.0
  0
LINE
  5
5E2
330
1F
100
AcDbEntity
  8
LC-001-100-D00-0
 62
     7
370
    50
100
AcDbLine
 10
-606.008982
 20
520.222885
 30
0.0
 11
-728.175649
 21
520.222885
 31
0.0
  0
LINE
  5
5E3
330
1F
100
AcDbEntity
  8
LC-001-100-D00-0
 62
     7
370
    50
100
AcDbLine
 10
-762.675649
 20
520.222885
 30
0.0
 11
-772.925649
 21
520.222885
 31
0.0
  0
ARC
  5
5E4
330
1F
100
AcDbEntity
  8
LC-001-100-D00-0
 62
     7
370
    50
100
AcDbCircle
 10
161.674351
 20
493.622885
 30
0.0
 40
2.00000000000019
100
AcDbArc
 50
191.536959
 51
270.0
  0
LINE
  5
5E5
330
1F
100
AcDbEntity
  8
LC-001-100-D00-0
 62
     7
370
    50
100
AcDbLine
 10
161.674351
 20
491.622885
 30
0.0
 11
187.474351
 21
491.622885
 31
0.0
  0
ARC
  5
5E6
330
1F
100
AcDbEntity
  8
LC-001-100-D00-0
 62
     7
370
    50
100
AcDbCircle
 10
187.474351
 20
493.622885
 30
0.0
 40
1.999999999999773
100
AcDbArc
 50
270.0
 51
348.463041
  0
ARC
  5
5E7
330
1F
100
AcDbEntity
  8
LC-001-100-D00-0
 62
     7
370
    50
100
AcDbCircle
 10
187.474351
 20
493.622885
 30
0.0
 40
4.000000000000114
100
AcDbArc
 50
270.0
 51
354.26083
  0
LINE
  5
5E8
330
1F
100
AcDbEntity
  8
LC-001-100-D00-0
 62
     7
370
    50
100
AcDbLine
 10
187.474351
 20
489.622885
 30
0.0
 11
161.674351
 21
489.622885
 31
0.0
  0
ARC
  5
5E9
330
1F
100
AcDbEntity
  8
LC-001-100-D00-0
 62
     7
370
    50
100
AcDbCircle
 10
161.674351
 20
493.622885
 30
0.0
 40
4.000000000000078
100
AcDbArc
 50
185.73917
 51
270.0
  0
ARC
  5
5EA
330
1F
100
AcDbEntity
  8
LC-001-100-D00-0
 62
     7
370
    50
100
AcDbCircle
 10
-512.525649
 20
493.622885
 30
0.0
 40
4.000000000000114
100
AcDbArc
 50
270.0
 51
354.26083
  0
LINE
  5
5EB
330
1F
100
AcDbEntity
  8
LC-001-100-D00-0
 62
     7
370
    50
100
AcDbLine
 10
-538.325649
 20
489.622885
 30
0.0
 11
-512.525649
 21
489.622885
 31
0.0
  0
ARC
  5
5EC
330
1F
100
AcDbEntity
  8
LC-001-100-D00-0
 62
     7
370
    50
100
AcDbCircle
 10
-538.325649
 20
493.622885
 30
0.0
 40
3.999999999999937
100
AcDbArc
 50
185.73917
 51
270.0
  0
ARC
  5
5ED
330
1F
100
AcDbEntity
  8
LC-001-100-D00-0
 62
     7
370
    50
100
AcDbCircle
 10
-538.325649
 20
493.622885
 30
0.0
 40
1.999999999999843
100
AcDbArc
 50
191.536959
 51
270.0
  0
LINE
  5
5EE
330
1F
100
AcDbEntity
  8
LC-001-100-D00-0
 62
     7
370
    50
100
AcDbLine
 10
-512.525649
 20
491.622885
 30
0.0
 11
-538.325649
 21
491.622885
 31
0.0
  0
ARC
  5
5EF
330
1F
100
AcDbEntity
  8
LC-001-100-D00-0
 62
     7
370
    50
100
AcDbCircle
 10
-512.525649
 20
493.622885
 30
0.0
 40
2.000000000000341
100
AcDbArc
 50
270.0
 51
348.463041
  0
LINE
  5
5F0
330
1F
100
AcDbEntity
  8
LC-001-100-D00-0
 62
     7
370
    50
100
AcDbLine
 10
176.410079
 20
393.72289
 30
0.0
 11
165.732414
 21
393.72289
 31
0.0
  0
LINE
  5
5F1
330
1F
100
AcDbEntity
  8
LC-001-100-D00-0
 62
     7
370
    50
100
AcDbLine
 10
176.410079
 20
393.72289
 30
0.0
 11
183.442235
 21
393.72289
 31
0.0
  0
LINE
  5
5F2
330
1F
100
AcDbEntity
  8
LC-001-100-D00-0
 62
     7
370
    50
100
AcDbLine
 10
165.274069
 20
385.722885
 30
0.0
 11
165.074351
 21
385.722885
 31
0.0
  0
LINE
  5
5F3
330
1F
100
AcDbEntity
  8
LC-001-100-D00-0
 62
     7
370
    50
100
AcDbLine
 10
184.074351
 20
385.722885
 30
0.0
 11
165.274069
 21
385.722885
 31
0.0
  0
LINE
  5
5F4
330
1F
100
AcDbEntity
  8
LC-001-100-D00-0
 62
     7
370
    50
100
AcDbLine
 10
-523.589909
 20
393.72289
 30
0.0
 11
-534.267575
 21
393.72289
 31
0.0
  0
LINE
  5
5F5
330
1F
100
AcDbEntity
  8
LC-001-100-D00-0
 62
     7
370
    50
100
AcDbLine
 10
-523.589909
 20
393.72289
 30
0.0
 11
-516.557753
 21
393.72289
 31
0.0
  0
LINE
  5
5F6
330
1F
100
AcDbEntity
  8
LC-001-100-D00-0
 62
     7
370
    50
100
AcDbLine
 10
-534.725931
 20
385.722885
 30
0.0
 11
-534.925649
 21
385.722885
 31
0.0
  0
LINE
  5
5F7
330
1F
100
AcDbEntity
  8
LC-001-100-D00-0
 62
     7
370
    50
100
AcDbLine
 10
-515.925649
 20
385.722885
 30
0.0
 11
-534.725931
 21
385.722885
 31
0.0
  0
LINE
  5
5F8
330
1F
100
AcDbEntity
  8
LC-001-100-D00-0
 62
     7
370
    50
100
AcDbLine
 10
171.6876
 20
462.722885
 30
0.0
 11
165.625422
 21
462.722885
 31
0.0
  0
LINE
  5
5F9
330
1F
100
AcDbEntity
  8
LC-001-100-D00-0
 62
     7
370
    50
100
AcDbLine
 10
183.574351
 20
487.722885
 30
0.0
 11
177.461118
 21
487.722887
 31
0.0
  0
LINE
  5
5FA
330
1F
100
AcDbEntity
  8
LC-001-100-D00-0
 62
     7
370
    50
100
AcDbLine
 10
171.687603
 20
487.722887
 30
0.0
 11
165.574351
 21
487.722885
 31
0.0
  0
LINE
  5
5FB
330
1F
100
AcDbEntity
  8
LC-001-100-D00-0
 62
     7
370
    50
100
AcDbLine
 10
177.461103
 20
462.722885
 30
0.0
 11
171.6876
 21
462.722885
 31
0.0
  0
LINE
  5
5FC
330
1F
100
AcDbEntity
  8
LC-001-100-D00-0
 62
     7
370
    50
100
AcDbLine
 10
159.574351
 20
487.722885
 30
0.0
 11
159.574351
 21
489.722885
 31
0.0
  0
LINE
  5
5FD
330
1F
100
AcDbEntity
  8
LC-001-100-D00-0
 62
     7
370
    50
100
AcDbLine
 10
159.574351
 20
489.722885
 30
0.0
 11
160.785532
 21
489.722885
 31
0.0
  0
LINE
  5
5FE
330
1F
100
AcDbEntity
  8
LC-001-100-D00-0
 62
     7
370
    50
100
AcDbLine
 10
165.574351
 20
487.722885
 30
0.0
 11
159.574351
 21
487.722885
 31
0.0
  0
LINE
  5
5FF
330
1F
100
AcDbEntity
  8
LC-001-100-D00-0
 62
     7
370
    50
100
AcDbLine
 10
188.363171
 20
489.722885
 30
0.0
 11
189.574351
 21
489.722885
 31
0.0
  0
LINE
  5
600
330
1F
100
AcDbEntity
  8
LC-001-100-D00-0
 62
     7
370
    50
100
AcDbLine
 10
189.574351
 20
489.722885
 30
0.0
 11
189.574351
 21
487.722885
 31
0.0
  0
LINE
  5
601
330
1F
100
AcDbEntity
  8
LC-001-100-D00-0
 62
     7
370
    50
100
AcDbLine
 10
189.574351
 20
487.722885
 30
0.0
 11
183.574351
 21
487.722885
 31
0.0
  0
LINE
  5
602
330
1F
100
AcDbEntity
  8
LC-001-100-D00-0
 62
     7
370
    50
100
AcDbLine
 10
183.523281
 20
462.722885
 30
0.0
 11
177.461103
 21
462.722885
 31
0.0
  0
LINE
  5
603
330
1F
100
AcDbEntity
  8
LC-001-100-D00-0
 62
     7
370
    50
100
AcDbLine
 10
186.410032
 20
462.722885
 30
0.0
 11
183.523281
 21
462.722885
 31
0.0
  0
LINE
  5
604
330
1F
100
AcDbEntity
  8
LC-001-100-D00-0
 62
     7
370
    50
100
AcDbLine
 10
165.625422
 20
462.722885
 30
0.0
 11
162.738671
 21
462.722885
 31
0.0
  0
LINE
  5
605
330
1F
100
AcDbEntity
  8
LC-001-100-D00-0
 62
     7
370
    50
100
AcDbLine
 10
187.347854
 20
462.722885
 30
0.0
 11
186.410032
 21
462.722885
 31
0.0
  0
LINE
  5
606
330
1F
100
AcDbEntity
  8
LC-001-100-D00-0
 62
     7
370
    50
100
AcDbLine
 10
162.738671
 20
462.722885
 30
0.0
 11
161.800849
 21
462.722885
 31
0.0
  0
LINE
  5
607
330
1F
100
AcDbEntity
  8
LC-001-100-D00-0
 62
     7
370
    50
100
AcDbLine
 10
-528.3124
 20
491.722885
 30
0.0
 11
-534.374578
 21
491.722885
 31
0.0
  0
LINE
  5
608
330
1F
100
AcDbEntity
  8
LC-001-100-D00-0
 62
     7
370
    50
100
AcDbLine
 10
-522.538897
 20
491.722885
 30
0.0
 11
-528.3124
 21
491.722885
 31
0.0
  0
LINE
  5
609
330
1F
100
AcDbEntity
  8
LC-001-100-D00-0
 62
     7
370
    50
100
AcDbLine
 10
-516.476719
 20
491.722885
 30
0.0
 11
-522.538897
 21
491.722885
 31
0.0
  0
LINE
  5
60A
330
1F
100
AcDbEntity
  8
LC-001-100-D00-0
 62
     7
370
    50
100
AcDbLine
 10
-513.589968
 20
491.722885
 30
0.0
 11
-516.476719
 21
491.722885
 31
0.0
  0
LINE
  5
60B
330
1F
100
AcDbEntity
  8
LC-001-100-D00-0
 62
     7
370
    50
100
AcDbLine
 10
-534.374578
 20
491.722885
 30
0.0
 11
-537.261329
 21
491.722885
 31
0.0
  0
LINE
  5
60C
330
1F
100
AcDbEntity
  8
LC-001-100-D00-0
 62
     7
370
    50
100
AcDbLine
 10
-512.652146
 20
491.722885
 30
0.0
 11
-513.589968
 21
491.722885
 31
0.0
  0
LINE
  5
60D
330
1F
100
AcDbEntity
  8
LC-001-100-D00-0
 62
     7
370
    50
100
AcDbLine
 10
-537.261329
 20
491.722885
 30
0.0
 11
-538.199151
 21
491.722885
 31
0.0
  0
LINE
  5
60E
330
1F
100
AcDbEntity
  8
LC-001-100-D00-0
 62
     7
370
    50
100
AcDbLine
 10
-528.3124
 20
462.722885
 30
0.0
 11
-534.374578
 21
462.722885
 31
0.0
  0
LINE
  5
60F
330
1F
100
AcDbEntity
  8
LC-001-100-D00-0
 62
     7
370
    50
100
AcDbLine
 10
-516.425649
 20
487.722885
 30
0.0
 11
-522.5389
 21
487.722887
 31
0.0
  0
LINE
  5
610
330
1F
100
AcDbEntity
  8
LC-001-100-D00-0
 62
     7
370
    50
100
AcDbLine
 10
-528.312415
 20
487.722887
 30
0.0
 11
-534.425649
 21
487.722885
 31
0.0
  0
LINE
  5
611
330
1F
100
AcDbEntity
  8
LC-001-100-D00-0
 62
     7
370
    50
100
AcDbLine
 10
-522.538897
 20
462.722885
 30
0.0
 11
-528.3124
 21
462.722885
 31
0.0
  0
LINE
  5
612
330
1F
100
AcDbEntity
  8
LC-001-100-D00-0
 62
     7
370
    50
100
AcDbLine
 10
-540.425649
 20
487.722885
 30
0.0
 11
-540.425649
 21
489.722885
 31
0.0
  0
LINE
  5
613
330
1F
100
AcDbEntity
  8
LC-001-100-D00-0
 62
     7
370
    50
100
AcDbLine
 10
-540.425649
 20
489.722885
 30
0.0
 11
-539.214468
 21
489.722885
 31
0.0
  0
LINE
  5
614
330
1F
100
AcDbEntity
  8
LC-001-100-D00-0
 62
     7
370
    50
100
AcDbLine
 10
-534.425649
 20
487.722885
 30
0.0
 11
-540.425649
 21
487.722885
 31
0.0
  0
LINE
  5
615
330
1F
100
AcDbEntity
  8
LC-001-100-D00-0
 62
     7
370
    50
100
AcDbLine
 10
-511.636829
 20
489.722885
 30
0.0
 11
-510.425649
 21
489.722885
 31
0.0
  0
LINE
  5
616
330
1F
100
AcDbEntity
  8
LC-001-100-D00-0
 62
     7
370
    50
100
AcDbLine
 10
-510.425649
 20
489.722885
 30
0.0
 11
-510.425649
 21
487.722885
 31
0.0
  0
LINE
  5
617
330
1F
100
AcDbEntity
  8
LC-001-100-D00-0
 62
     7
370
    50
100
AcDbLine
 10
-510.425649
 20
487.722885
 30
0.0
 11
-516.425649
 21
487.722885
 31
0.0
  0
LINE
  5
618
330
1F
100
AcDbEntity
  8
LC-001-100-D00-0
 62
     7
370
    50
100
AcDbLine
 10
-516.476719
 20
462.722885
 30
0.0
 11
-522.538897
 21
462.722885
 31
0.0
  0
LINE
  5
619
330
1F
100
AcDbEntity
  8
LC-001-100-D00-0
 62
     7
370
    50
100
AcDbLine
 10
-513.589968
 20
462.722885
 30
0.0
 11
-516.476719
 21
462.722885
 31
0.0
  0
LINE
  5
61A
330
1F
100
AcDbEntity
  8
LC-001-100-D00-0
 62
     7
370
    50
100
AcDbLine
 10
-534.374578
 20
462.722885
 30
0.0
 11
-537.261329
 21
462.722885
 31
0.0
  0
LINE
  5
61B
330
1F
100
AcDbEntity
  8
LC-001-100-D00-0
 62
     7
370
    50
100
AcDbLine
 10
-512.652146
 20
462.722885
 30
0.0
 11
-513.589968
 21
462.722885
 31
0.0
  0
LINE
  5
61C
330
1F
100
AcDbEntity
  8
LC-001-100-D00-0
 62
     7
370
    50
100
AcDbLine
 10
-537.261329
 20
462.722885
 30
0.0
 11
-538.199151
 21
462.722885
 31
0.0
  0
LINE
  5
61D
330
1F
100
AcDbEntity
  8
LC-001-100-D00-0
 62
     7
370
    50
100
AcDbLine
 10
171.6876
 20
491.722885
 30
0.0
 11
165.625422
 21
491.722885
 31
0.0
  0
LINE
  5
61E
330
1F
100
AcDbEntity
  8
LC-001-100-D00-0
 62
     7
370
    50
100
AcDbLine
 10
177.461103
 20
491.722885
 30
0.0
 11
171.6876
 21
491.722885
 31
0.0
  0
LINE
  5
61F
330
1F
100
AcDbEntity
  8
LC-001-100-D00-0
 62
     7
370
    50
100
AcDbLine
 10
183.523281
 20
491.722885
 30
0.0
 11
177.461103
 21
491.722885
 31
0.0
  0
LINE
  5
620
330
1F
100
AcDbEntity
  8
LC-001-100-D00-0
 62
     7
370
    50
100
AcDbLine
 10
186.410032
 20
491.722885
 30
0.0
 11
183.523281
 21
491.722885
 31
0.0
  0
LINE
  5
621
330
1F
100
AcDbEntity
  8
LC-001-100-D00-0
 62
     7
370
    50
100
AcDbLine
 10
165.625422
 20
491.722885
 30
0.0
 11
162.738671
 21
491.722885
 31
0.0
  0
LINE
  5
622
330
1F
100
AcDbEntity
  8
LC-001-100-D00-0
 62
     7
370
    50
100
AcDbLine
 10
187.347854
 20
491.722885
 30
0.0
 11
186.410032
 21
491.722885
 31
0.0
  0
LINE
  5
623
330
1F
100
AcDbEntity
  8
LC-001-100-D00-0
 62
     7
370
    50
100
AcDbLine
 10
162.738671
 20
491.722885
 30
0.0
 11
161.800849
 21
491.722885
 31
0.0
  0
LINE
  5
624
330
1F
100
AcDbEntity
  8
LC-001-100-D00-0
 62
     7
370
    50
100
AcDbLine
 10
-535.425649
 20
408.722885
 30
0.0
 11
-515.425649
 21
408.722885
 31
0.0
  0
LINE
  5
625
330
1F
100
AcDbEntity
  8
LC-001-100-D00-0
 62
     7
370
    50
100
AcDbLine
 10
-535.425649
 20
405.222885
 30
0.0
 11
-515.425649
 21
405.222885
 31
0.0
  0
LINE
  5
626
330
1F
100
AcDbEntity
  8
LC-001-100-D00-0
 62
     7
370
    50
100
AcDbLine
 10
-535.215419
 20
394.722885
 30
0.0
 11
-515.425649
 21
394.722885
 31
0.0
  0
LINE
  5
627
330
1F
100
AcDbEntity
  8
LC-001-100-D00-0
 62
     7
370
    50
100
AcDbLine
 10
-535.425649
 20
394.722885
 30
0.0
 11
-535.215419
 21
394.722885
 31
0.0
  0
LINE
  5
628
330
1F
100
AcDbEntity
  8
LC-001-100-D00-0
 62
     7
370
    50
100
AcDbLine
 10
-534.236442
 20
393.722885
 30
0.0
 11
-534.425649
 21
393.722885
 31
0.0
  0
LINE
  5
629
330
1F
100
AcDbEntity
  8
LC-001-100-D00-0
 62
     7
370
    50
100
AcDbLine
 10
-516.425649
 20
393.722885
 30
0.0
 11
-534.236442
 21
393.722885
 31
0.0
  0
LINE
  5
62A
330
1F
100
AcDbEntity
  8
LC-001-100-D00-0
 62
     7
370
    50
100
AcDbLine
 10
164.574351
 20
408.722885
 30
0.0
 11
184.574351
 21
408.722885
 31
0.0
  0
LINE
  5
62B
330
1F
100
AcDbEntity
  8
LC-001-100-D00-0
 62
     7
370
    50
100
AcDbLine
 10
164.574351
 20
405.222885
 30
0.0
 11
184.574351
 21
405.222885
 31
0.0
  0
LINE
  5
62C
330
1F
100
AcDbEntity
  8
LC-001-100-D00-0
 62
     7
370
    50
100
AcDbLine
 10
164.784581
 20
394.722885
 30
0.0
 11
184.574351
 21
394.722885
 31
0.0
  0
LINE
  5
62D
330
1F
100
AcDbEntity
  8
LC-001-100-D00-0
 62
     7
370
    50
100
AcDbLine
 10
164.574351
 20
394.722885
 30
0.0
 11
164.784581
 21
394.722885
 31
0.0
  0
LINE
  5
62E
330
1F
100
AcDbEntity
  8
LC-001-100-D00-0
 62
     7
370
    50
100
AcDbLine
 10
165.763558
 20
393.722885
 30
0.0
 11
165.574351
 21
393.722885
 31
0.0
  0
LINE
  5
62F
330
1F
100
AcDbEntity
  8
LC-001-100-D00-0
 62
     7
370
    50
100
AcDbLine
 10
183.574351
 20
393.722885
 30
0.0
 11
165.763558
 21
393.722885
 31
0.0
  0
DIMENSION
  5
630
330
1F
100
AcDbEntity
  8
LC-001-100-D00-0
 62
     7
370
    25
100
AcDbDimension
  2
*D24
 10
-825.425649
 20
655.354885
 30
0.0
 11
-172.291513
 21
710.354885
 31
0.0
 70
   160
  1
1300
 71
     5
 42
1300.0
  3
LC-DIM-L-0100-02-02
100
AcDbAlignedDimension
 13
474.574351
 23
520.222885
 33
0.0
 14
-825.425649
 24
520.222885
 34
0.0
100
AcDbRotatedDimension
  0
DIMENSION
  5
63D
330
1F
100
AcDbEntity
  8
LC-001-100-D00-0
 62
     7
370
    25
100
AcDbDimension
  2
*D25
 10
-775.425649
 20
557.906793
 30
0.0
 11
-178.294239
 21
612.906793
 31
0.0
 70
   160
  1
1200
 71
     5
 42
1200.0
  3
LC-DIM-L-0100-02-02
100
AcDbAlignedDimension
 13
424.574351
 23
517.222885
 33
0.0
 14
-775.425649
 24
517.222885
 34
0.0
100
AcDbRotatedDimension
  0
DIMENSION
  5
64A
330
1F
100
AcDbEntity
  8
LC-001-100-D00-0
 62
     7
370
    25
100
AcDbDimension
  2
*D26
 10
-313.156594
 20
478.722885
 30
0.0
 11
-368.156594
 21
452.725021
 31
0.0
 70
   160
  1
50
 71
     5
 42
50.4
 53
90.0
  3
LC-DIM-L-0100-02-02
100
AcDbAlignedDimension
 13
-204.425649
 23
428.322885
 33
0.0
 14
-210.505044
 24
478.722885
 34
0.0
 50
90.0
100
AcDbRotatedDimension
  0
DIMENSION
  5
659
330
1F
100
AcDbEntity
  8
LC-001-100-D00-0
 62
     7
370
    25
100
AcDbDimension
  2
*D27
 10
-101.425649
 20
306.082885
 30
0.0
 11
-187.768626
 21
361.082885
 31
0.0
 70
   160
  1
148
 71
     5
 42
148.0
  3
LC-DIM-L-0100-02-02
100
AcDbAlignedDimension
 13
-249.425649
 23
429.222885
 33
0.0
 14
-101.425649
 24
469.472885
 34
0.0
100
AcDbRotatedDimension
  0
DIMENSION
  5
666
330
1F
100
AcDbEntity
  8
LC-001-100-D00-0
 62
     7
370
    25
100
AcDbDimension
  2
*D28
 10
34.074148
 20
209.854885
 30
0.0
 11
-113.478488
 21
264.854885
 31
0.0
 70
   160
  1
284
 71
     5
 42
283.499797
  3
LC-DIM-L-0100-02-02
100
AcDbAlignedDimension
 13
-249.425649
 23
429.222885
 33
0.0
 14
34.074148
 24
418.660708
 34
0.0
100
AcDbRotatedDimension
  0
DIMENSION
  5
673
330
1F
100
AcDbEntity
  8
LC-001-100-D00-0
 62
     7
370
    25
100
AcDbDimension
  2
*D29
 10
124.869039
 20
417.722885
 30
0.0
 11
69.869039
 21
391.618885
 31
0.0
 70
   160
  1
DN50
 71
     5
 42
50.0
 53
90.0
  3
LC-DIM-L-0100-02-02
100
AcDbAlignedDimension
 13
30.574148
 23
467.722885
 33
0.0
 14
30.574148
 24
417.722885
 34
0.0
 50
90.0
100
AcDbRotatedDimension
  0
DIMENSION
  5
681
330
1F
100
AcDbEntity
  8
LC-001-100-D00-0
 62
     7
370
    25
100
AcDbDimension
  2
*D30
 10
509.433132
 20
442.722885
 30
0.0
 11
454.433132
 21
481.420012
 31
0.0
 70
   160
  1
77,5
 71
     5
 42
77.5
 53
90.0
  3
LC-DIM-L-0100-02-02
100
AcDbAlignedDimension
 13
474.574351
 23
520.222885
 33
0.0
 14
42.574148
 24
442.722885
 34
0.0
 50
90.0
100
AcDbRotatedDimension
  0
DIMENSION
  5
690
330
1F
100
AcDbEntity
  8
LC-001-100-D00-0
 62
     7
370
    25
100
AcDbDimension
  2
*D31
 10
-689.09009
 20
410.222885
 30
0.0
 11
-744.09009
 21
401.422885
 31
0.0
 70
   160
  1
110
 71
     5
 42
110.0
 53
90.0
  3
LC-DIM-L-0100-02-02
100
AcDbAlignedDimension
 13
-825.425649
 23
520.222885
 33
0.0
 14
-229.443529
 24
410.222885
 34
0.0
 50
90.0
100
AcDbRotatedDimension
  0
DIMENSION
  5
69E
330
1F
100
AcDbEntity
  8
LC-001-100-D00-0
 62
     7
370
    25
100
AcDbDimension
  2
*D32
 10
668.630703
 20
385.722885
 30
0.0
 11
613.630703
 21
245.497885
 31
0.0
 70
   160
  1
110-129,5
 71
     5
 42
134.5
 53
90.0
  3
LC-DIM-L-0100-02-02
100
AcDbAlignedDimension
 13
474.574351
 23
520.222885
 33
0.0
 14
184.074351
 24
385.722885
 34
0.0
 50
90.0
100
AcDbRotatedDimension
  0
INSERT
  5
6CA
330
1F
100
AcDbEntity
  8
LC-001-100-D00-0
 62
     7
370
    50
100
AcDbBlockReference
  2
KLON23
 10
0.0
 20
0.0
 30
0.0
  0
INSERT
  5
6E8
330
1F
100
AcDbEntity
  8
LC-001-100-D00-0
 62
     7
370
    50
100
AcDbBlockReference
  2
KLON24
 10
0.0
 20
0.0
 30
0.0
  0
INSERT
  5
6F4
330
1F
100
AcDbEntity
  8
LC-001-100-D00-0
 62
     7
370
    50
100
AcDbBlockReference
  2
KLON25
 10
0.0
 20
0.0
 30
0.0
  0
INSERT
  5
6FB
330
1F
100
AcDbEntity
  8
LC-001-100-D00-0
 62
     7
370
    50
100
AcDbBlockReference
  2
KLON26
 10
0.0
 20
0.0
 30
0.0
  0
INSERT
  5
702
330
1F
100
AcDbEntity
  8
LC-001-100-D00-0
 62
     7
370
    50
100
AcDbBlockReference
  2
KLON27
 10
0.0
 20
0.0
 30
0.0
  0
INSERT
  5
709
330
1F
100
AcDbEntity
  8
LC-001-100-D00-0
 62
     7
370
    50
100
AcDbBlockReference
  2
KLON28
 10
0.0
 20
0.0
 30
0.0
  0
INSERT
  5
710
330
1F
100
AcDbEntity
  8
LC-001-100-D00-0
 62
     7
370
    50
100
AcDbBlockReference
  2
KLON29
 10
0.0
 20
0.0
 30
0.0
  0
LINE
  5
711
330
1F
100
AcDbEntity
  8
LC-001-100-D00-0
 62
     7
370
    50
100
AcDbLine
 10
-240.425649
 20
491.950081
 30
0.0
 11
-239.152844
 21
493.222885
 31
0.0
  0
LINE
  5
712
330
1F
100
AcDbEntity
  8
LC-001-100-D00-0
 62
     7
370
    50
100
AcDbLine
 10
-111.449007
 20
486.222885
 30
0.0
 11
-104.449008
 21
493.222885
 31
0.0
  0
INSERT
  5
718
330
1F
100
AcDbEntity
  8
LC-001-100-D00-0
 62
     7
370
    50
100
AcDbBlockReference
  2
KLON30
 10
0.0
 20
0.0
 30
0.0
  0
INSERT
  5
725
330
1F
100
AcDbEntity
  8
LC-001-100-D00-0
 62
     7
370
    50
100
AcDbBlockReference
  2
KLON31
 10
0.0
 20
0.0
 30
0.0
  0
INSERT
  5
72B
330
1F
100
AcDbEntity
  8
LC-001-100-D00-0
 62
     7
370
    50
100
AcDbBlockReference
  2
KLON32
 10
0.0
 20
0.0
 30
0.0
  0
LINE
  5
72C
330
1F
100
AcDbEntity
  8
LC-001-100-D00-0
 62
     7
370
    50
100
AcDbLine
 10
-69.508241
 20
501.222885
 30
0.0
 11
-69.074796
 21
501.65633
 31
0.0
  0
LINE
  5
72D
330
1F
100
AcDbEntity
  8
LC-001-100-D00-0
 62
     7
370
    50
100
AcDbLine
 10
-85.175649
 20
512.496246
 30
0.0
 11
-79.325649
 21
518.346246
 31
0.0
  0
INSERT
  5
733
330
1F
100
AcDbEntity
  8
LC-001-100-D00-0
 62
     7
370
    50
100
AcDbBlockReference
  2
KLON33
 10
0.0
 20
0.0
 30
0.0
  0
LINE
  5
734
330
1F
100
AcDbEntity
  8
LC-001-100-D00-0
 62
     7
370
    50
100
AcDbLine
 10
388.484805
 20
501.222885
 30
0.0
 11
391.174351
 21
503.912432
 31
0.0
  0
LINE
  5
735
330
1F
100
AcDbEntity
  8
LC-001-100-D00-0
 62
     7
370
    50
100
AcDbLine
 10
376.324351
 20
516.0032
 30
0.0
 11
380.544036
 21
520.222885
 31
0.0
  0
LINE
  5
736
330
1F
100
AcDbEntity
  8
LC-001-100-D00-0
 62
     7
370
    50
100
AcDbLine
 10
398.474351
 20
511.212433
 30
0.0
 11
407.484803
 21
520.222885
 31
0.0
  0
LINE
  5
737
330
1F
100
AcDbEntity
  8
LC-001-100-D00-0
 62
     7
370
    50
100
AcDbLine
 10
71.491018
 20
507.518308
 30
0.0
 11
77.341018
 21
513.368308
 31
0.0
  0
LINE
  5
738
330
1F
100
AcDbEntity
  8
LC-001-100-D00-0
 62
     7
370
    50
100
AcDbLine
 10
-742.025649
 20
502.224662
 30
0.0
 11
-740.225649
 21
504.024662
 31
0.0
  0
LINE
  5
739
330
1F
100
AcDbEntity
  8
LC-001-100-D00-0
 62
     7
370
    50
100
AcDbLine
 10
-755.175649
 20
516.01543
 30
0.0
 11
-750.968194
 21
520.222885
 31
0.0
  0
INSERT
  5
73F
330
1F
100
AcDbEntity
  8
LC-001-100-D00-0
 62
     7
370
    50
100
AcDbBlockReference
  2
KLON34
 10
0.0
 20
0.0
 30
0.0
  0
LINE
  5
740
330
1F
100
AcDbEntity
  8
LC-001-100-D00-0
 62
     7
370
    50
100
AcDbLine
 10
-441.842315
 20
506.059554
 30
0.0
 11
-435.992315
 21
511.909555
 31
0.0
  0
LINE
  5
741
330
1F
100
AcDbEntity
  8
LC-001-100-D00-0
 62
     7
370
    50
100
AcDbLine
 10
-428.192315
 20
519.709555
 30
0.0
 11
-427.678985
 21
520.222885
 31
0.0
  0
LINE
  5
742
330
1F
100
AcDbEntity
  8
LC-001-100-D00-0
 62
     7
370
    50
100
AcDbLine
 10
232.513436
 20
506.896121
 30
0.0
 11
234.173942
 21
508.556628
 31
0.0
  0
LINE
  5
743
330
1F
100
AcDbEntity
  8
LC-001-100-D00-0
 62
     7
370
    50
100
AcDbLine
 10
228.157685
 20
502.54037
 30
0.0
 11
232.621232
 21
507.003917
 31
0.0
  0
LINE
  5
744
330
1F
100
AcDbEntity
  8
LC-001-100-D00-0
 62
     7
370
    50
100
AcDbLine
 10
241.807685
 20
516.190371
 30
0.0
 11
245.840199
 21
520.222885
 31
0.0
  0
LINE
  5
745
330
1F
100
AcDbEntity
  8
LC-001-100-D00-0
 62
     7
370
    50
100
AcDbLine
 10
-280.625649
 20
505.631617
 30
0.0
 11
-278.825649
 21
507.431617
 31
0.0
  0
INSERT
  5
74B
330
1F
100
AcDbEntity
  8
LC-001-100-D00-0
 62
     7
370
    50
100
AcDbBlockReference
  2
KLON35
 10
0.0
 20
0.0
 30
0.0
  0
LINE
  5
74C
330
1F
100
AcDbEntity
  8
LC-001-100-D00-0
 62
     7
370
    50
100
AcDbLine
 10
-271.525649
 20
514.731617
 30
0.0
 11
-266.034381
 21
520.222885
 31
0.0
  0
LINE
  5
74D
330
1F
100
AcDbEntity
  8
LC-001-100-D00-0
 62
     7
370
    50
100
AcDbLine
 10
-598.508982
 20
511.037492
 30
0.0
 11
-592.658982
 21
516.887493
 31
0.0
  0
LINE
  5
74E
330
1F
100
AcDbEntity
  8
LC-001-100-D00-0
 62
     7
370
    50
100
AcDbLine
 10
-581.382821
 20
501.222885
 30
0.0
 11
-579.008982
 21
503.596724
 31
0.0
  0
LINE
  5
74F
330
1F
100
AcDbEntity
  8
LC-001-100-D00-0
  6
DASHDOT
 62
     7
370
    25
100
AcDbLine
 10
394.574351
 20
490.222885
 30
0.0
 11
394.574351
 21
528.222885
 31
0.0
  0
LINE
  5
750
330
1F
100
AcDbEntity
  8
LC-001-100-D00-0
  6
DASHDOT
 62
     7
370
    25
100
AcDbLine
 10
237.907685
 20
490.222885
 30
0.0
 11
237.907685
 21
528.222885
 31
0.0
  0
LINE
  5
751
330
1F
100
AcDbEntity
  8
LC-001-100-D00-0
  6
DASHDOT
 62
     7
370
    25
100
AcDbLine
 10
81.241018
 20
490.222885
 30
0.0
 11
81.241018
 21
528.222885
 31
0.0
  0
LINE
  5
752
330
1F
100
AcDbEntity
  8
LC-001-100-D00-0
  6
DASHDOT
 62
     7
370
    25
100
AcDbLine
 10
174.574351
 20
396.722885
 30
0.0
 11
174.574351
 21
524.722885
 31
0.0
  0
LINE
  5
753
330
1F
100
AcDbEntity
  8
LC-001-100-D00-0
  6
DASHDOT
 62
     7
370
    25
100
AcDbLine
 10
42.574148
 20
442.722885
 30
0.0
 11
-64.450867
 21
442.722885
 31
0.0
  0
LINE
  5
754
330
1F
100
AcDbEntity
  8
LC-001-100-D00-0
  6
DASHDOT
 62
     7
370
    25
100
AcDbLine
 10
-75.425649
 20
490.222885
 30
0.0
 11
-75.425649
 21
528.222885
 31
0.0
  0
LINE
  5
755
330
1F
100
AcDbEntity
  8
LC-001-100-D00-0
  6
DASHDOT
 62
     7
370
    25
100
AcDbLine
 10
-175.425649
 20
490.722885
 30
0.0
 11
-175.425649
 21
405.722885
 31
0.0
  0
LINE
  5
756
330
1F
100
AcDbEntity
  8
LC-001-100-D00-0
  6
DASHDOT
 62
     7
370
    25
100
AcDbLine
 10
-275.425649
 20
490.222885
 30
0.0
 11
-275.425649
 21
528.222885
 31
0.0
  0
LINE
  5
757
330
1F
100
AcDbEntity
  8
LC-001-100-D00-0
  6
DASHDOT
 62
     7
370
    25
100
AcDbLine
 10
-432.092315
 20
490.222885
 30
0.0
 11
-432.092315
 21
528.222885
 31
0.0
  0
LINE
  5
758
330
1F
100
AcDbEntity
  8
LC-001-100-D00-0
  6
DASHDOT
 62
     7
370
    25
100
AcDbLine
 10
-525.425649
 20
396.722885
 30
0.0
 11
-525.425649
 21
524.722885
 31
0.0
  0
LINE
  5
759
330
1F
100
AcDbEntity
  8
LC-001-100-D00-0
  6
DASHDOT
 62
     7
370
    25
100
AcDbLine
 10
-588.758982
 20
490.222885
 30
0.0
 11
-588.758982
 21
528.222885
 31
0.0
  0
LINE
  5
75A
330
1F
100
AcDbEntity
  8
LC-001-100-D00-0
  6
DASHDOT
 62
     7
370
    25
100
AcDbLine
 10
-745.425649
 20
490.222885
 30
0.0
 11
-745.425649
 21
528.222885
 31
0.0
  0
ENDSEC
  0
SECTION
  2
OBJECTS
  0
DICTIONARY
  5
C
330
0
100
AcDbDictionary
281
     1
  3
ACAD_GROUP
350
D
  3
ACAD_LAYOUT
350
1A
  3
ACAD_MLINESTYLE
350
17
  3
ACAD_PLOTSETTINGS
350
19
  3
ACAD_PLOTSTYLENAME
350
E
  0
DICTIONARY
  5
D
102
{ACAD_REACTORS
330
C
102
}
330
C
100
AcDbDictionary
281
     1
  0
DICTIONARY
  5
1A
102
{ACAD_REACTORS
330
C
102
}
330
C
100
AcDbDictionary
281
     1
  3
Layout1
350
1E
  3
Layout2
350
26
  3
Model
350
22
  0
DICTIONARY
  5
17
102
{ACAD_REACTORS
330
C
102
}
330
C
100
AcDbDictionary
281
     1
  3
Standard
350
18
  0
DICTIONARY
  5
19
102
{ACAD_REACTORS
330
C
102
}
330
C
100
AcDbDictionary
281
     1
  0
ACDBDICTIONARYWDFLT
  5
E
102
{ACAD_REACTORS
330
C
102
}
330
C
100
AcDbDictionary
281
     1
  3
Normal
350
F
100
AcDbDictionaryWithDefault
340
F
  0
LAYOUT
  5
1E
102
{ACAD_REACTORS
330
1A
102
}
330
1A
100
AcDbPlotSettings
  1

  2

  4

  6

 40
0.0
 41
0.0
 42
0.0
 43
0.0
 44
0.0
 45
0.0
 46
0.0
 47
0.0
 48
0.0
 49
0.0
140
0.0
141
0.0
142
1.0
143
1.0
 70
   688
 72
     0
 73
     0
 74
     5
  7

 75
    16
147
1.0
148
0.0
149
0.0
100
AcDbLayout
  1
Layout1
 70
     1
 71
     1
 10
-847.253883
 20
-611.347115
 11
1252.746117
 21
873.652885
 12
0.0
 22
0.0
 32
0.0
 14
-847.253883
 24
-611.347115
 34
0.0
 15
1252.746117
 25
873.652885
 35
0.0
146
0.0
 13
0.0
 23
0.0
 33
0.0
 16
1.0
 26
0.0
 36
0.0
 17
0.0
 27
1.0
 37
0.0
 76
     0
330
1B
  0
LAYOUT
  5
26
102
{ACAD_REACTORS
330
1A
102
}
330
1A
100
AcDbPlotSettings
  1

  2

  4

  6

 40
0.0
 41
0.0
 42
0.0
 43
0.0
 44
0.0
 45
0.0
 46
0.0
 47
0.0
 48
0.0
 49
0.0
140
0.0
141
0.0
142
1.0
143
1.0
 70
   688
 72
     0
 73
     0
 74
     5
  7

 75
    16
147
1.0
148
0.0
149
0.0
100
AcDbLayout
  1
Layout2
 70
     1
 71
     2
 10
0.0
 20
0.0
 11
0.0
 21
0.0
 12
0.0
 22
0.0
 32
0.0
 14
0.0
 24
0.0
 34
0.0
 15
0.0
 25
0.0
 35
0.0
146
0.0
 13
0.0
 23
0.0
 33
0.0
 16
1.0
 26
0.0
 36
0.0
 17
0.0
 27
1.0
 37
0.0
 76
     0
330
23
  0
LAYOUT
  5
22
102
{ACAD_REACTORS
330
1A
102
}
330
1A
100
AcDbPlotSettings
  1

  2

  4

  6

 40
0.0
 41
0.0
 42
0.0
 43
0.0
 44
0.0
 45
0.0
 46
0.0
 47
0.0
 48
0.0
 49
0.0
140
0.0
141
0.0
142
1.0
143
1.0
 70
  1776
 72
     0
 73
     0
 74
     0
  7

 75
     0
147
1.0
148
0.0
149
0.0
100
AcDbLayout
  1
Model
 70
     1
 71
     0
 10
-847.253883
 20
-611.347115
 11
1252.746117
 21
873.652885
 12
0.0
 22
0.0
 32
0.0
 14
-847.253883
 24
-611.347115
 34
0.0
 15
1252.746117
 25
873.652885
 35
0.0
146
0.0
 13
0.0
 23
0.0
 33
0.0
 16
1.0
 26
0.0
 36
0.0
 17
0.0
 27
1.0
 37
0.0
 76
     0
330
1F
  0
MLINESTYLE
  5
18
102
{ACAD_REACTORS
330
17
102
}
330
17
100
AcDbMlineStyle
  2
Standard
 70
     0
  3

 62
   256
 51
90.0
 52
90.0
 71
     2
 49
0.5
 62
   256
  6
BYLAYER
 49
-0.5
 62
   256
  6
BYLAYER
  0
ACDBPLACEHOLDER
  5
F
102
{ACAD_REACTORS
330
E
102
}
330
E
  0
ENDSEC
  0
EOF
