  0
SECTION
  2
HEADER
  9
$ACADVER
  1
AC1015
  9
$ACADMAINTVER
 70
     6
  9
$DWGCODEPAGE
  3
ANSI_1252
  9
$INSBASE
 10
0.0
 20
0.0
 30
0.0
  9
$EXTMIN
 10
-854.561439
 20
-613.515114
 30
0.0
  9
$EXTMAX
 10
1245.438561
 20
871.484886
 30
0.0
  9
$LIMMIN
 10
-854.561439
 20
-613.515114
  9
$LIMMAX
 10
1245.438561
 20
871.484886
  9
$ORTHOMODE
 70
     0
  9
$REGENMODE
 70
     1
  9
$FILLMODE
 70
     1
  9
$QTEXTMODE
 70
     0
  9
$MIRRTEXT
 70
     1
  9
$LTSCALE
 40
5.0
  9
$ATTMODE
 70
     1
  9
$TEXTSIZE
 40
2.5
  9
$TRACEWID
 40
1.0
  9
$TEXTSTYLE
  7
Standard
  9
$CLAYER
  8
0
  9
$CELTYPE
  6
ByLayer
  9
$CECOLOR
 62
     7
  9
$CELTSCALE
 40
1.0
  9
$DISPSILH
 70
     0
  9
$DIMSCALE
 40
5.0
  9
$DIMASZ
 40
3.5
  9
$DIMEXO
 40
0.625
  9
$DIMDLI
 40
3.75
  9
$DIMRND
 40
0.0
  9
$DIMDLE
 40
0.0
  9
$DIMEXE
 40
1.25
  9
$DIMTP
 40
0.0
  9
$DIMTM
 40
0.0
  9
$DIMTXT
 40
3.5
  9
$DIMCEN
 40
2.5
  9
$DIMTSZ
 40
0.0
  9
$DIMTOL
 70
     0
  9
$DIMLIM
 70
     0
  9
$DIMTIH
 70
     0
  9
$DIMTOH
 70
     0
  9
$DIMSE1
 70
     0
  9
$DIMSE2
 70
     0
  9
$DIMTAD
 70
     1
  9
$DIMZIN
 70
     8
  9
$DIMBLK
  1

  9
$DIMASO
 70
     1
  9
$DIMSHO
 70
     1
  9
$DIMPOST
  1

  9
$DIMAPOST
  1

  9
$DIMALT
 70
     0
  9
$DIMALTD
 70
     3
  9
$DIMALTF
 40
0.03937
  9
$DIMLFAC
 40
1.0
  9
$DIMTOFL
 70
     1
  9
$DIMTVP
 40
0.0
  9
$DIMTIX
 70
     0
  9
$DIMSOXD
 70
     0
  9
$DIMSAH
 70
     0
  9
$DIMBLK1
  1

  9
$DIMBLK2
  1

  9
$DIMSTYLE
  2
ISO-25
  9
$DIMCLRD
 70
     0
  9
$DIMCLRE
 70
     0
  9
$DIMCLRT
 70
     0
  9
$DIMTFAC
 40
1.0
  9
$DIMGAP
 40
0.625
  9
$DIMJUST
 70
     0
  9
$DIMSD1
 70
     0
  9
$DIMSD2
 70
     0
  9
$DIMTOLJ
 70
     0
  9
$DIMTZIN
 70
     8
  9
$DIMALTZ
 70
     0
  9
$DIMALTTZ
 70
     0
  9
$DIMUPT
 70
     0
  9
$DIMDEC
 70
     2
  9
$DIMTDEC
 70
     2
  9
$DIMALTU
 70
     2
  9
$DIMALTTD
 70
     3
  9
$DIMTXSTY
  7
Standard
  9
$DIMAUNIT
 70
     0
  9
$DIMADEC
 70
     0
  9
$DIMALTRND
 40
0.0
  9
$DIMAZIN
 70
     0
  9
$DIMDSEP
 70
    44
  9
$DIMATFIT
 70
     3
  9
$DIMFRAC
 70
     0
  9
$DIMLDRBLK
  1

  9
$DIMLUNIT
 70
     2
  9
$DIMLWD
 70
    -2
  9
$DIMLWE
 70
    -2
  9
$DIMTMOVE
 70
     0
  9
$LUNITS
 70
     2
  9
$LUPREC
 70
     4
  9
$SKETCHINC
 40
1.0
  9
$FILLETRAD
 40
10.0
  9
$AUNITS
 70
     0
  9
$AUPREC
 70
     0
  9
$MENU
  1
.
  9
$ELEVATION
 40
0.0
  9
$PELEVATION
 40
0.0
  9
$THICKNESS
 40
0.0
  9
$LIMCHECK
 70
     0
  9
$CHAMFERA
 40
10.0
  9
$CHAMFERB
 40
10.0
  9
$CHAMFERC
 40
20.0
  9
$CHAMFERD
 40
0.0
  9
$SKPOLY
 70
     0
  9
$TDCREATE
 40
2456014.410880602
  9
$TDUCREATE
 40
2456014.327547269
  9
$TDUPDATE
 40
2456014.410880614
  9
$TDUUPDATE
 40
2456014.32754728
  9
$TDINDWG
 40
0.0000000116
  9
$TDUSRTIMER
 40
0.0000000116
  9
$USRTIMER
 70
     1
  9
$ANGBASE
 50
0.0
  9
$ANGDIR
 70
     0
  9
$PDMODE
 70
     0
  9
$PDSIZE
 40
0.0
  9
$PLINEWID
 40
0.0
  9
$SPLFRAME
 70
     0
  9
$SPLINETYPE
 70
     6
  9
$SPLINESEGS
 70
     8
  9
$HANDSEED
  5
6B3
  9
$SURFTAB1
 70
     6
  9
$SURFTAB2
 70
     6
  9
$SURFTYPE
 70
     6
  9
$SURFU
 70
     6
  9
$SURFV
 70
     6
  9
$UCSBASE
  2

  9
$UCSNAME
  2

  9
$UCSORG
 10
0.0
 20
0.0
 30
0.0
  9
$UCSXDIR
 10
1.0
 20
0.0
 30
0.0
  9
$UCSYDIR
 10
0.0
 20
1.0
 30
0.0
  9
$UCSORTHOREF
  2

  9
$UCSORTHOVIEW
 70
     0
  9
$UCSORGTOP
 10
0.0
 20
0.0
 30
0.0
  9
$UCSORGBOTTOM
 10
0.0
 20
0.0
 30
0.0
  9
$UCSORGLEFT
 10
0.0
 20
0.0
 30
0.0
  9
$UCSORGRIGHT
 10
0.0
 20
0.0
 30
0.0
  9
$UCSORGFRONT
 10
0.0
 20
0.0
 30
0.0
  9
$UCSORGBACK
 10
0.0
 20
0.0
 30
0.0
  9
$PUCSBASE
  2

  9
$PUCSNAME
  2

  9
$PUCSORG
 10
0.0
 20
0.0
 30
0.0
  9
$PUCSXDIR
 10
1.0
 20
0.0
 30
0.0
  9
$PUCSYDIR
 10
0.0
 20
1.0
 30
0.0
  9
$PUCSORTHOREF
  2

  9
$PUCSORTHOVIEW
 70
     0
  9
$PUCSORGTOP
 10
0.0
 20
0.0
 30
0.0
  9
$PUCSORGBOTTOM
 10
0.0
 20
0.0
 30
0.0
  9
$PUCSORGLEFT
 10
0.0
 20
0.0
 30
0.0
  9
$PUCSORGRIGHT
 10
0.0
 20
0.0
 30
0.0
  9
$PUCSORGFRONT
 10
0.0
 20
0.0
 30
0.0
  9
$PUCSORGBACK
 10
0.0
 20
0.0
 30
0.0
  9
$USERI1
 70
     0
  9
$USERI2
 70
     0
  9
$USERI3
 70
     0
  9
$USERI4
 70
     0
  9
$USERI5
 70
     0
  9
$USERR1
 40
0.0
  9
$USERR2
 40
0.0
  9
$USERR3
 40
0.0
  9
$USERR4
 40
0.0
  9
$USERR5
 40
0.0
  9
$WORLDVIEW
 70
     1
  9
$SHADEDGE
 70
     3
  9
$SHADEDIF
 70
    70
  9
$TILEMODE
 70
     1
  9
$MAXACTVP
 70
    64
  9
$PINSBASE
 10
0.0
 20
0.0
 30
0.0
  9
$PLIMCHECK
 70
     0
  9
$PEXTMIN
 10
-854.561439
 20
-613.515114
 30
0.0
  9
$PEXTMAX
 10
1245.438561
 20
871.484886
 30
0.0
  9
$PLIMMIN
 10
-854.561439
 20
-613.515114
  9
$PLIMMAX
 10
1245.438561
 20
871.484886
  9
$UNITMODE
 70
     0
  9
$VISRETAIN
 70
     1
  9
$PLINEGEN
 70
     0
  9
$PSLTSCALE
 70
     1
  9
$TREEDEPTH
 70
  3020
  9
$CMLSTYLE
  2
Standard
  9
$CMLJUST
 70
     0
  9
$CMLSCALE
 40
20.0
  9
$PROXYGRAPHICS
 70
     1
  9
$MEASUREMENT
 70
     1
  9
$CELWEIGHT
370
    -1
  9
$ENDCAPS
280
     0
  9
$JOINSTYLE
280
     0
  9
$LWDISPLAY
290
     0
  9
$INSUNITS
 70
     4
  9
$HYPERLINKBASE
  1

  9
$STYLESHEET
  1

  9
$XEDIT
290
     1
  9
$CEPSNTYPE
380
     0
  9
$PSTYLEMODE
290
     1
  9
$FINGERPRINTGUID
  2
{FAEB1C30-E019-11D5-929B-00C0DF256EC4}
  9
$VERSIONGUID
  2
{FAEB1C32-E019-11D5-929B-00C0DF256EC4}
  9
$EXTNAMES
290
     1
  9
$PSVPSCALE
 40
0.0
  9
$OLESTARTUP
290
     0
  0
ENDSEC
  0
SECTION
  2
CLASSES
  0
CLASS
  1
ACDBDICTIONARYWDFLT
  2
AcDbDictionaryWithDefault
  3
ObjectDBX Classes
 90
        0
280
     0
281
     0
  0
CLASS
  1
ACDBPLACEHOLDER
  2
AcDbPlaceHolder
  3
ObjectDBX Classes
 90
        0
280
     0
281
     0
  0
CLASS
  1
LAYOUT
  2
AcDbLayout
  3
ObjectDBX Classes
 90
        0
280
     0
281
     0
  0
ENDSEC
  0
SECTION
  2
TABLES
  0
TABLE
  2
VPORT
  5
8
330
0
100
AcDbSymbolTable
 70
     2
  0
VPORT
  5
29
330
8
100
AcDbSymbolTableRecord
100
AcDbViewportTableRecord
  2
*ACTIVE
 70
     0
 10
0.0
 20
0.0
 11
1.0
 21
1.0
 12
195.438561
 22
128.984886
 13
0.0
 23
0.0
 14
1.0
 24
1.0
 15
0.0
 25
0.0
 16
0.0
 26
0.0
 36
1.0
 17
0.0
 27
0.0
 37
0.0
 40
1485.0
 41
1.414141
 42
50.0
 43
0.0
 44
0.0
 50
0.0
 51
0.0
 71
    16
 72
   100
 73
     1
 74
     0
 75
     0
 76
     0
 77
     0
 78
     0
281
     0
 65
     0
110
0.0
120
0.0
130
0.0
111
1.0
121
0.0
131
0.0
112
0.0
122
1.0
132
0.0
 79
     0
146
0.0
  0
ENDTAB
  0
TABLE
  2
LTYPE
  5
5
330
0
100
AcDbSymbolTable
 70
     3
  0
LTYPE
  5
14
330
5
100
AcDbSymbolTableRecord
100
AcDbLinetypeTableRecord
  2
ByBlock
 70
     0
  3

 72
    65
 73
     0
 40
0.0
  0
LTYPE
  5
15
330
5
100
AcDbSymbolTableRecord
100
AcDbLinetypeTableRecord
  2
ByLayer
 70
     0
  3

 72
    65
 73
     0
 40
0.0
  0
LTYPE
  5
16
330
5
100
AcDbSymbolTableRecord
100
AcDbLinetypeTableRecord
  2
Continuous
 70
     0
  3
Solid line
 72
    65
 73
     0
 40
0.0
  0
LTYPE
  5
2A
330
5
100
AcDbSymbolTableRecord
100
AcDbLinetypeTableRecord
  2
DASHED
 70
     0
  3
__ __ __ __ __
 72
    65
 73
     2
 40
6.25
 49
5.0
 74
     4
 75
     0
340
0
 46
1.0
 50
0.0
 44
0.0
 45
0.0
 49
-1.25
 74
     4
 75
     0
340
0
 46
1.0
 50
0.0
 44
0.0
 45
0.0
  0
LTYPE
  5
163
330
5
100
AcDbSymbolTableRecord
100
AcDbLinetypeTableRecord
  2
DASHDOT
 70
     0
  3
__ . __ . __ . __ . __
 72
    65
 73
     4
 40
7.5
 49
5.0
 74
     4
 75
     0
340
0
 46
1.0
 50
0.0
 44
0.0
 45
0.0
 49
-1.25
 74
     4
 75
     0
340
0
 46
1.0
 50
0.0
 44
0.0
 45
0.0
 49
0.0
 74
     4
 75
     0
340
0
 46
1.0
 50
0.0
 44
0.0
 45
0.0
 49
-1.25
 74
     4
 75
     0
340
0
 46
1.0
 50
0.0
 44
0.0
 45
0.0
  0
ENDTAB
  0
TABLE
  2
LAYER
  5
2
330
0
100
AcDbSymbolTable
 70
     7
  0
LAYER
  5
10
330
2
100
AcDbSymbolTableRecord
100
AcDbLayerTableRecord
  2
0
 70
     0
 62
     7
  6
Continuous
370
    -3
390
F
  0
LAYER
  5
2B
330
2
100
AcDbSymbolTableRecord
100
AcDbLayerTableRecord
  2
LC-INFO-1-5-mm-A3-0
 70
     1
 62
     7
  6
ByBlock
370
    -3
390
F
  0
LAYER
  5
2C
330
2
100
AcDbSymbolTableRecord
100
AcDbLayerTableRecord
  2
LC-CUT-HIDDEN
 70
     0
 62
     7
  6
DASHED
370
    -3
390
F
  0
LAYER
  5
2D
330
2
100
AcDbSymbolTableRecord
100
AcDbLayerTableRecord
  2
LC-VIEWPORT
 70
     0
 62
     7
  6
ByBlock
370
    -3
390
F
  0
LAYER
  5
2E
330
2
100
AcDbSymbolTableRecord
100
AcDbLayerTableRecord
  2
LC-3D-HIDDEN
 70
     0
 62
     9
  6
DASHED
370
    -3
390
F
  0
LAYER
  5
30
330
2
100
AcDbSymbolTableRecord
100
AcDbLayerTableRecord
  2
LC-001-100-D00-0
 70
     0
 62
     1
  6
ByBlock
370
    -3
390
F
  0
LAYER
  5
156
330
2
100
AcDbSymbolTableRecord
100
AcDbLayerTableRecord
  2
Defpoints
 70
     0
 62
     7
  6
Continuous
290
     0
370
    -3
390
F
  0
ENDTAB
  0
TABLE
  2
STYLE
  5
3
330
0
100
AcDbSymbolTable
 70
     3
  0
STYLE
  5
11
330
3
100
AcDbSymbolTableRecord
100
AcDbTextStyleTableRecord
  2
Standard
 70
     0
 40
0.0
 41
1.0
 50
0.0
 71
     0
 42
2.5
  3
txt
  4

  0
STYLE
  5
2F
330
3
100
AcDbSymbolTableRecord
100
AcDbTextStyleTableRecord
  2
LCTX15-400-0-0-Arial
 70
     0
 40
0.0
 41
0.8
 50
0.0
 71
     0
 42
3.5
  3

  4

1001
ACAD
1000
Arial
1071
 16777218
  0
STYLE
  5
153
330
3
100
AcDbSymbolTableRecord
100
AcDbTextStyleTableRecord
  2
LCTX15-400-0-0pDIN-Schrift
 70
     0
 40
2.5
 41
0.8
 50
15.0
 71
     0
 42
3.5
  3
STANDARD
  4

  0
ENDTAB
  0
TABLE
  2
VIEW
  5
6
330
0
100
AcDbSymbolTable
 70
     0
  0
ENDTAB
  0
TABLE
  2
UCS
  5
7
330
0
100
AcDbSymbolTable
 70
     0
  0
ENDTAB
  0
TABLE
  2
APPID
  5
9
330
0
100
AcDbSymbolTable
 70
     1
  0
APPID
  5
12
330
9
100
AcDbSymbolTableRecord
100
AcDbRegAppTableRecord
  2
ACAD
 70
     0
  0
ENDTAB
  0
TABLE
  2
DIMSTYLE
  5
A
330
0
100
AcDbSymbolTable
 70
     2
100
AcDbDimStyleTable
  0
DIMSTYLE
105
27
330
A
100
AcDbSymbolTableRecord
100
AcDbDimStyleTableRecord
  2
ISO-25
 70
     0
 41
2.5
 42
0.625
 43
3.75
 44
1.25
 73
     0
 74
     0
 77
     1
 78
     8
140
2.5
141
2.5
143
0.03937
147
0.625
171
     3
172
     1
271
     2
272
     2
274
     3
278
    44
283
     0
284
     8
340
11
  0
DIMSTYLE
105
154
102
{ACAD_REACTORS
330
155
330
576
330
583
330
590
330
59F
330
5AC
330
5B9
330
5C7
330
5D5
330
5E4
102
}
330
A
100
AcDbSymbolTableRecord
100
AcDbDimStyleTableRecord
  2
LC-DIM-L-0100-02-02
 70
     0
 40
5.0
 41
10.0
 42
0.0
 43
7.5
 44
1.8
 73
     0
 74
     0
 77
     1
 78
     8
 79
     2
140
10.0
141
0.0
146
0.71
147
1.5
176
     2
177
     2
178
     2
179
     2
271
     2
278
    44
289
     1
340
153
  0
ENDTAB
  0
TABLE
  2
BLOCK_RECORD
  5
1
330
0
100
AcDbSymbolTable
 70
    49
  0
BLOCK_RECORD
  5
1F
330
1
100
AcDbSymbolTableRecord
100
AcDbBlockTableRecord
  2
*Model_Space
340
22
  0
BLOCK_RECORD
  5
1B
330
1
100
AcDbSymbolTableRecord
100
AcDbBlockTableRecord
  2
*Paper_Space
340
1E
  0
BLOCK_RECORD
  5
23
330
1
100
AcDbSymbolTableRecord
100
AcDbBlockTableRecord
  2
*Paper_Space0
340
26
  0
BLOCK_RECORD
  5
49
330
1
100
AcDbSymbolTableRecord
100
AcDbBlockTableRecord
  2
KLON1
340
0
102
{BLKREFS
331
50
102
}
  0
BLOCK_RECORD
  5
52
330
1
100
AcDbSymbolTableRecord
100
AcDbBlockTableRecord
  2
KLON2
340
0
102
{BLKREFS
331
57
102
}
  0
BLOCK_RECORD
  5
58
330
1
100
AcDbSymbolTableRecord
100
AcDbBlockTableRecord
  2
KLON3
340
0
102
{BLKREFS
331
5D
102
}
  0
BLOCK_RECORD
  5
5E
330
1
100
AcDbSymbolTableRecord
100
AcDbBlockTableRecord
  2
KLON4
340
0
102
{BLKREFS
331
63
102
}
  0
BLOCK_RECORD
  5
65
330
1
100
AcDbSymbolTableRecord
100
AcDbBlockTableRecord
  2
KLON5
340
0
102
{BLKREFS
331
6C
102
}
  0
BLOCK_RECORD
  5
6F
330
1
100
AcDbSymbolTableRecord
100
AcDbBlockTableRecord
  2
KLON6
340
0
102
{BLKREFS
331
74
102
}
  0
BLOCK_RECORD
  5
82
330
1
100
AcDbSymbolTableRecord
100
AcDbBlockTableRecord
  2
KLON7
340
0
102
{BLKREFS
331
87
102
}
  0
BLOCK_RECORD
  5
88
330
1
100
AcDbSymbolTableRecord
100
AcDbBlockTableRecord
  2
KLON8
340
0
102
{BLKREFS
331
8D
102
}
  0
BLOCK_RECORD
  5
8F
330
1
100
AcDbSymbolTableRecord
100
AcDbBlockTableRecord
  2
KLON9
340
0
102
{BLKREFS
331
95
102
}
  0
BLOCK_RECORD
  5
96
330
1
100
AcDbSymbolTableRecord
100
AcDbBlockTableRecord
  2
KLON10
340
0
102
{BLKREFS
331
9B
102
}
  0
BLOCK_RECORD
  5
9C
330
1
100
AcDbSymbolTableRecord
100
AcDbBlockTableRecord
  2
KLON11
340
0
102
{BLKREFS
331
A2
102
}
  0
BLOCK_RECORD
  5
A3
330
1
100
AcDbSymbolTableRecord
100
AcDbBlockTableRecord
  2
KLON12
340
0
102
{BLKREFS
331
A9
102
}
  0
BLOCK_RECORD
  5
AA
330
1
100
AcDbSymbolTableRecord
100
AcDbBlockTableRecord
  2
KLON13
340
0
102
{BLKREFS
331
B0
102
}
  0
BLOCK_RECORD
  5
B1
330
1
100
AcDbSymbolTableRecord
100
AcDbBlockTableRecord
  2
KLON14
340
0
102
{BLKREFS
331
B6
102
}
  0
BLOCK_RECORD
  5
157
330
1
100
AcDbSymbolTableRecord
100
AcDbBlockTableRecord
  2
*D15
340
0
  0
BLOCK_RECORD
  5
377
330
1
100
AcDbSymbolTableRecord
100
AcDbBlockTableRecord
  2
KLON15
340
0
102
{BLKREFS
331
387
102
}
  0
BLOCK_RECORD
  5
388
330
1
100
AcDbSymbolTableRecord
100
AcDbBlockTableRecord
  2
KLON16
340
0
102
{BLKREFS
331
39B
102
}
  0
BLOCK_RECORD
  5
39F
330
1
100
AcDbSymbolTableRecord
100
AcDbBlockTableRecord
  2
KLON17
340
0
102
{BLKREFS
331
3A4
102
}
  0
BLOCK_RECORD
  5
4D1
330
1
100
AcDbSymbolTableRecord
100
AcDbBlockTableRecord
  2
KLON18
340
0
102
{BLKREFS
331
4DA
102
}
  0
BLOCK_RECORD
  5
4DB
330
1
100
AcDbSymbolTableRecord
100
AcDbBlockTableRecord
  2
KLON19
340
0
102
{BLKREFS
331
4E4
102
}
  0
BLOCK_RECORD
  5
4FC
330
1
100
AcDbSymbolTableRecord
100
AcDbBlockTableRecord
  2
KLON20
340
0
102
{BLKREFS
331
504
102
}
  0
BLOCK_RECORD
  5
505
330
1
100
AcDbSymbolTableRecord
100
AcDbBlockTableRecord
  2
KLON21
340
0
102
{BLKREFS
331
511
102
}
  0
BLOCK_RECORD
  5
512
330
1
100
AcDbSymbolTableRecord
100
AcDbBlockTableRecord
  2
KLON22
340
0
102
{BLKREFS
331
51E
102
}
  0
BLOCK_RECORD
  5
577
330
1
100
AcDbSymbolTableRecord
100
AcDbBlockTableRecord
  2
*D24
340
0
  0
BLOCK_RECORD
  5
584
330
1
100
AcDbSymbolTableRecord
100
AcDbBlockTableRecord
  2
*D25
340
0
  0
BLOCK_RECORD
  5
591
330
1
100
AcDbSymbolTableRecord
100
AcDbBlockTableRecord
  2
*D26
340
0
  0
BLOCK_RECORD
  5
5A0
330
1
100
AcDbSymbolTableRecord
100
AcDbBlockTableRecord
  2
*D27
340
0
  0
BLOCK_RECORD
  5
5AD
330
1
100
AcDbSymbolTableRecord
100
AcDbBlockTableRecord
  2
*D28
340
0
  0
BLOCK_RECORD
  5
5BA
330
1
100
AcDbSymbolTableRecord
100
AcDbBlockTableRecord
  2
*D29
340
0
  0
BLOCK_RECORD
  5
5C8
330
1
100
AcDbSymbolTableRecord
100
AcDbBlockTableRecord
  2
*D30
340
0
  0
BLOCK_RECORD
  5
5D6
330
1
100
AcDbSymbolTableRecord
100
AcDbBlockTableRecord
  2
*D31
340
0
  0
BLOCK_RECORD
  5
5E5
330
1
100
AcDbSymbolTableRecord
100
AcDbBlockTableRecord
  2
*D32
340
0
  0
BLOCK_RECORD
  5
5F2
330
1
100
AcDbSymbolTableRecord
100
AcDbBlockTableRecord
  2
KLON23
340
0
102
{BLKREFS
331
600
102
}
  0
BLOCK_RECORD
  5
601
330
1
100
AcDbSymbolTableRecord
100
AcDbBlockTableRecord
  2
KLON24
340
0
102
{BLKREFS
331
607
102
}
  0
BLOCK_RECORD
  5
608
330
1
100
AcDbSymbolTableRecord
100
AcDbBlockTableRecord
  2
KLON25
340
0
102
{BLKREFS
331
60E
102
}
  0
BLOCK_RECORD
  5
60F
330
1
100
AcDbSymbolTableRecord
100
AcDbBlockTableRecord
  2
KLON26
340
0
102
{BLKREFS
331
62B
102
}
  0
BLOCK_RECORD
  5
62C
330
1
100
AcDbSymbolTableRecord
100
AcDbBlockTableRecord
  2
KLON27
340
0
102
{BLKREFS
331
648
102
}
  0
BLOCK_RECORD
  5
649
330
1
100
AcDbSymbolTableRecord
100
AcDbBlockTableRecord
  2
KLON28
340
0
102
{BLKREFS
331
650
102
}
  0
BLOCK_RECORD
  5
651
330
1
100
AcDbSymbolTableRecord
100
AcDbBlockTableRecord
  2
KLON29
340
0
102
{BLKREFS
331
659
102
}
  0
BLOCK_RECORD
  5
65C
330
1
100
AcDbSymbolTableRecord
100
AcDbBlockTableRecord
  2
KLON30
340
0
102
{BLKREFS
331
661
102
}
  0
BLOCK_RECORD
  5
662
330
1
100
AcDbSymbolTableRecord
100
AcDbBlockTableRecord
  2
KLON31
340
0
102
{BLKREFS
331
670
102
}
  0
BLOCK_RECORD
  5
671
330
1
100
AcDbSymbolTableRecord
100
AcDbBlockTableRecord
  2
KLON32
340
0
102
{BLKREFS
331
677
102
}
  0
BLOCK_RECORD
  5
67A
330
1
100
AcDbSymbolTableRecord
100
AcDbBlockTableRecord
  2
KLON33
340
0
102
{BLKREFS
331
67F
102
}
  0
BLOCK_RECORD
  5
682
330
1
100
AcDbSymbolTableRecord
100
AcDbBlockTableRecord
  2
KLON34
340
0
102
{BLKREFS
331
687
102
}
  0
BLOCK_RECORD
  5
689
330
1
100
AcDbSymbolTableRecord
100
AcDbBlockTableRecord
  2
KLON35
340
0
102
{BLKREFS
331
68E
102
}
  0
BLOCK_RECORD
  5
692
330
1
100
AcDbSymbolTableRecord
100
AcDbBlockTableRecord
  2
KLON36
340
0
102
{BLKREFS
331
697
102
}
  0
BLOCK_RECORD
  5
699
330
1
100
AcDbSymbolTableRecord
100
AcDbBlockTableRecord
  2
KLON37
340
0
102
{BLKREFS
331
69F
102
}
  0
BLOCK_RECORD
  5
6A2
330
1
100
AcDbSymbolTableRecord
100
AcDbBlockTableRecord
  2
KLON38
340
0
102
{BLKREFS
331
6A7
102
}
  0
ENDTAB
  0
ENDSEC
  0
SECTION
  2
BLOCKS
  0
BLOCK
  5
20
330
1F
100
AcDbEntity
  8
0
100
AcDbBlockBegin
  2
*Model_Space
 70
     0
 71
     0
 10
0.0
 20
0.0
 30
0.0
  3
*Model_Space
  1

  0
ENDBLK
  5
21
330
1F
100
AcDbEntity
  8
0
100
AcDbBlockEnd
  0
BLOCK
  5
1C
330
1B
100
AcDbEntity
 67
     1
  8
0
100
AcDbBlockBegin
  2
*Paper_Space
 70
     0
 71
     0
 10
0.0
 20
0.0
 30
0.0
  3
*Paper_Space
  1

  0
ENDBLK
  5
1D
330
1B
100
AcDbEntity
 67
     1
  8
0
100
AcDbBlockEnd
  0
BLOCK
  5
24
330
23
100
AcDbEntity
  8
0
100
AcDbBlockBegin
  2
*Paper_Space0
 70
     0
 71
     0
 10
0.0
 20
0.0
 30
0.0
  3
*Paper_Space0
  1

  0
ENDBLK
  5
25
330
23
100
AcDbEntity
  8
0
100
AcDbBlockEnd
  0
BLOCK
  5
4A
330
49
100
AcDbEntity
  8
0
100
AcDbBlockBegin
  2
KLON1
 70
     0
 71
     0
 10
0.0
 20
0.0
 30
0.0
  3
KLON1
  1

  4
KLON1
  0
LINE
  5
4C
330
49
100
AcDbEntity
  8
LC-001-100-D00-0
 62
     7
370
    15
100
AcDbLine
 10
303.626604
 20
73.731205
 30
0.0
 11
303.63924
 21
73.650324
 31
0.0
  0
LINE
  5
4D
330
49
100
AcDbEntity
  8
LC-001-100-D00-0
 62
     7
370
    15
100
AcDbLine
 10
303.63924
 20
73.650324
 30
0.0
 11
303.648031
 21
73.594115
 31
0.0
  0
LINE
  5
4E
330
49
100
AcDbEntity
  8
LC-001-100-D00-0
 62
     7
370
    15
100
AcDbLine
 10
303.648031
 20
73.594115
 30
0.0
 11
303.650565
 21
73.578016
 31
0.0
  0
LINE
  5
4F
330
49
100
AcDbEntity
  8
LC-001-100-D00-0
 62
     7
370
    15
100
AcDbLine
 10
303.650565
 20
73.578016
 30
0.0
 11
303.6528
 21
73.563731
 31
0.0
  0
ENDBLK
  5
4B
330
49
100
AcDbEntity
  8
0
100
AcDbBlockEnd
  0
BLOCK
  5
53
330
52
100
AcDbEntity
  8
0
100
AcDbBlockBegin
  2
KLON2
 70
     0
 71
     0
 10
0.0
 20
0.0
 30
0.0
  3
KLON2
  1

  4
KLON2
  0
LINE
  5
55
330
52
100
AcDbEntity
  8
LC-001-100-D00-0
 62
     7
370
    15
100
AcDbLine
 10
303.626604
 20
84.893897
 30
0.0
 11
303.637183
 21
84.899807
 31
0.0
  0
LINE
  5
56
330
52
100
AcDbEntity
  8
LC-001-100-D00-0
 62
     7
370
    15
100
AcDbLine
 10
303.637183
 20
84.899807
 30
0.0
 11
303.6528
 21
84.908535
 31
0.0
  0
ENDBLK
  5
54
330
52
100
AcDbEntity
  8
0
100
AcDbBlockEnd
  0
BLOCK
  5
59
330
58
100
AcDbEntity
  8
0
100
AcDbBlockBegin
  2
KLON3
 70
     0
 71
     0
 10
0.0
 20
0.0
 30
0.0
  3
KLON3
  1

  4
KLON3
  0
LINE
  5
5B
330
58
100
AcDbEntity
  8
LC-001-100-D00-0
 62
     7
370
    15
100
AcDbLine
 10
303.626604
 20
37.908537
 30
0.0
 11
303.634024
 21
37.870364
 31
0.0
  0
LINE
  5
5C
330
58
100
AcDbEntity
  8
LC-001-100-D00-0
 62
     7
370
    15
100
AcDbLine
 10
303.634024
 20
37.870364
 30
0.0
 11
303.6528
 21
37.837879
 31
0.0
  0
ENDBLK
  5
5A
330
58
100
AcDbEntity
  8
0
100
AcDbBlockEnd
  0
BLOCK
  5
5F
330
5E
100
AcDbEntity
  8
0
100
AcDbBlockBegin
  2
KLON4
 70
     0
 71
     0
 10
0.0
 20
0.0
 30
0.0
  3
KLON4
  1

  4
KLON4
  0
LINE
  5
61
330
5E
100
AcDbEntity
  8
LC-001-100-D00-0
 62
     7
370
    15
100
AcDbLine
 10
-680.321031
 20
84.893897
 30
0.0
 11
-680.331611
 21
84.899807
 31
0.0
  0
LINE
  5
62
330
5E
100
AcDbEntity
  8
LC-001-100-D00-0
 62
     7
370
    15
100
AcDbLine
 10
-680.331611
 20
84.899807
 30
0.0
 11
-680.347227
 21
84.908535
 31
0.0
  0
ENDBLK
  5
60
330
5E
100
AcDbEntity
  8
0
100
AcDbBlockEnd
  0
BLOCK
  5
66
330
65
100
AcDbEntity
  8
0
100
AcDbBlockBegin
  2
KLON5
 70
     0
 71
     0
 10
0.0
 20
0.0
 30
0.0
  3
KLON5
  1

  4
KLON5
  0
LINE
  5
68
330
65
100
AcDbEntity
  8
LC-001-100-D00-0
 62
     7
370
    15
100
AcDbLine
 10
-680.321031
 20
73.731205
 30
0.0
 11
-680.333667
 21
73.650324
 31
0.0
  0
LINE
  5
69
330
65
100
AcDbEntity
  8
LC-001-100-D00-0
 62
     7
370
    15
100
AcDbLine
 10
-680.333667
 20
73.650324
 30
0.0
 11
-680.342459
 21
73.594115
 31
0.0
  0
LINE
  5
6A
330
65
100
AcDbEntity
  8
LC-001-100-D00-0
 62
     7
370
    15
100
AcDbLine
 10
-680.342459
 20
73.594115
 30
0.0
 11
-680.344992
 21
73.578016
 31
0.0
  0
LINE
  5
6B
330
65
100
AcDbEntity
  8
LC-001-100-D00-0
 62
     7
370
    15
100
AcDbLine
 10
-680.344992
 20
73.578016
 30
0.0
 11
-680.347227
 21
73.563731
 31
0.0
  0
ENDBLK
  5
67
330
65
100
AcDbEntity
  8
0
100
AcDbBlockEnd
  0
BLOCK
  5
70
330
6F
100
AcDbEntity
  8
0
100
AcDbBlockBegin
  2
KLON6
 70
     0
 71
     0
 10
0.0
 20
0.0
 30
0.0
  3
KLON6
  1

  4
KLON6
  0
LINE
  5
72
330
6F
100
AcDbEntity
  8
LC-001-100-D00-0
 62
     7
370
    15
100
AcDbLine
 10
-680.321031
 20
37.908537
 30
0.0
 11
-680.328452
 21
37.870364
 31
0.0
  0
LINE
  5
73
330
6F
100
AcDbEntity
  8
LC-001-100-D00-0
 62
     7
370
    15
100
AcDbLine
 10
-680.328452
 20
37.870364
 30
0.0
 11
-680.347227
 21
37.837879
 31
0.0
  0
ENDBLK
  5
71
330
6F
100
AcDbEntity
  8
0
100
AcDbBlockEnd
  0
BLOCK
  5
83
330
82
100
AcDbEntity
  8
0
100
AcDbBlockBegin
  2
KLON7
 70
     0
 71
     0
 10
0.0
 20
0.0
 30
0.0
  3
KLON7
  1

  4
KLON7
  0
LINE
  5
85
330
82
100
AcDbEntity
  8
LC-001-100-D00-0
 62
     7
370
    15
100
AcDbLine
 10
303.598083
 20
49.075127
 30
0.0
 11
303.614236
 21
49.081211
 31
0.0
  0
LINE
  5
86
330
82
100
AcDbEntity
  8
LC-001-100-D00-0
 62
     7
370
    15
100
AcDbLine
 10
303.614236
 20
49.081211
 30
0.0
 11
303.626604
 21
49.085867
 31
0.0
  0
ENDBLK
  5
84
330
82
100
AcDbEntity
  8
0
100
AcDbBlockEnd
  0
BLOCK
  5
89
330
88
100
AcDbEntity
  8
0
100
AcDbBlockBegin
  2
KLON8
 70
     0
 71
     0
 10
0.0
 20
0.0
 30
0.0
  3
KLON8
  1

  4
KLON8
  0
LINE
  5
8B
330
88
100
AcDbEntity
  8
LC-001-100-D00-0
 62
     7
370
    15
100
AcDbLine
 10
-680.29251
 20
49.075127
 30
0.0
 11
-680.308663
 21
49.081211
 31
0.0
  0
LINE
  5
8C
330
88
100
AcDbEntity
  8
LC-001-100-D00-0
 62
     7
370
    15
100
AcDbLine
 10
-680.308663
 20
49.081211
 30
0.0
 11
-680.321031
 21
49.085867
 31
0.0
  0
ENDBLK
  5
8A
330
88
100
AcDbEntity
  8
0
100
AcDbBlockEnd
  0
BLOCK
  5
90
330
8F
100
AcDbEntity
  8
0
100
AcDbBlockBegin
  2
KLON9
 70
     0
 71
     0
 10
0.0
 20
0.0
 30
0.0
  3
KLON9
  1

  4
KLON9
  0
LINE
  5
92
330
8F
100
AcDbEntity
  8
LC-001-100-D00-0
 62
     7
370
    15
100
AcDbLine
 10
166.639722
 20
55.549319
 30
0.0
 11
166.651136
 21
55.962793
 31
0.0
  0
LINE
  5
93
330
8F
100
AcDbEntity
  8
LC-001-100-D00-0
 62
     7
370
    15
100
AcDbLine
 10
166.651136
 20
55.962793
 30
0.0
 11
166.662789
 21
56.386051
 31
0.0
  0
LINE
  5
94
330
8F
100
AcDbEntity
  8
LC-001-100-D00-0
 62
     7
370
    15
100
AcDbLine
 10
166.662789
 20
56.386051
 30
0.0
 11
166.674591
 21
56.81423
 31
0.0
  0
ENDBLK
  5
91
330
8F
100
AcDbEntity
  8
0
100
AcDbBlockEnd
  0
BLOCK
  5
97
330
96
100
AcDbEntity
  8
0
100
AcDbBlockBegin
  2
KLON10
 70
     0
 71
     0
 10
0.0
 20
0.0
 30
0.0
  3
KLON10
  1

  4
KLON10
  0
LINE
  5
99
330
96
100
AcDbEntity
  8
LC-001-100-D00-0
 62
     7
370
    15
100
AcDbLine
 10
303.598083
 20
73.741945
 30
0.0
 11
303.614236
 21
73.735861
 31
0.0
  0
LINE
  5
9A
330
96
100
AcDbEntity
  8
LC-001-100-D00-0
 62
     7
370
    15
100
AcDbLine
 10
303.614236
 20
73.735861
 30
0.0
 11
303.626604
 21
73.731205
 31
0.0
  0
ENDBLK
  5
98
330
96
100
AcDbEntity
  8
0
100
AcDbBlockEnd
  0
BLOCK
  5
9D
330
9C
100
AcDbEntity
  8
0
100
AcDbBlockBegin
  2
KLON11
 70
     0
 71
     0
 10
0.0
 20
0.0
 30
0.0
  3
KLON11
  1

  4
KLON11
  0
LINE
  5
9F
330
9C
100
AcDbEntity
  8
LC-001-100-D00-0
 62
     7
370
    15
100
AcDbLine
 10
166.674591
 20
66.002842
 30
0.0
 11
166.662789
 21
66.431021
 31
0.0
  0
LINE
  5
A0
330
9C
100
AcDbEntity
  8
LC-001-100-D00-0
 62
     7
370
    15
100
AcDbLine
 10
166.662789
 20
66.431021
 30
0.0
 11
166.651136
 21
66.854279
 31
0.0
  0
LINE
  5
A1
330
9C
100
AcDbEntity
  8
LC-001-100-D00-0
 62
     7
370
    15
100
AcDbLine
 10
166.651136
 20
66.854279
 30
0.0
 11
166.639722
 21
67.267753
 31
0.0
  0
ENDBLK
  5
9E
330
9C
100
AcDbEntity
  8
0
100
AcDbBlockEnd
  0
BLOCK
  5
A4
330
A3
100
AcDbEntity
  8
0
100
AcDbBlockBegin
  2
KLON12
 70
     0
 71
     0
 10
0.0
 20
0.0
 30
0.0
  3
KLON12
  1

  4
KLON12
  0
LINE
  5
A6
330
A3
100
AcDbEntity
  8
LC-001-100-D00-0
 62
     7
370
    15
100
AcDbLine
 10
-543.33415
 20
55.549319
 30
0.0
 11
-543.345564
 21
55.962793
 31
0.0
  0
LINE
  5
A7
330
A3
100
AcDbEntity
  8
LC-001-100-D00-0
 62
     7
370
    15
100
AcDbLine
 10
-543.345564
 20
55.962793
 30
0.0
 11
-543.357217
 21
56.386051
 31
0.0
  0
LINE
  5
A8
330
A3
100
AcDbEntity
  8
LC-001-100-D00-0
 62
     7
370
    15
100
AcDbLine
 10
-543.357217
 20
56.386051
 30
0.0
 11
-543.369018
 21
56.81423
 31
0.0
  0
ENDBLK
  5
A5
330
A3
100
AcDbEntity
  8
0
100
AcDbBlockEnd
  0
BLOCK
  5
AB
330
AA
100
AcDbEntity
  8
0
100
AcDbBlockBegin
  2
KLON13
 70
     0
 71
     0
 10
0.0
 20
0.0
 30
0.0
  3
KLON13
  1

  4
KLON13
  0
LINE
  5
AD
330
AA
100
AcDbEntity
  8
LC-001-100-D00-0
 62
     7
370
    15
100
AcDbLine
 10
-543.369018
 20
66.002842
 30
0.0
 11
-543.357217
 21
66.431021
 31
0.0
  0
LINE
  5
AE
330
AA
100
AcDbEntity
  8
LC-001-100-D00-0
 62
     7
370
    15
100
AcDbLine
 10
-543.357217
 20
66.431021
 30
0.0
 11
-543.345564
 21
66.854279
 31
0.0
  0
LINE
  5
AF
330
AA
100
AcDbEntity
  8
LC-001-100-D00-0
 62
     7
370
    15
100
AcDbLine
 10
-543.345564
 20
66.854279
 30
0.0
 11
-543.33415
 21
67.267753
 31
0.0
  0
ENDBLK
  5
AC
330
AA
100
AcDbEntity
  8
0
100
AcDbBlockEnd
  0
BLOCK
  5
B2
330
B1
100
AcDbEntity
  8
0
100
AcDbBlockBegin
  2
KLON14
 70
     0
 71
     0
 10
0.0
 20
0.0
 30
0.0
  3
KLON14
  1

  4
KLON14
  0
LINE
  5
B4
330
B1
100
AcDbEntity
  8
LC-001-100-D00-0
 62
     7
370
    15
100
AcDbLine
 10
-680.29251
 20
73.741945
 30
0.0
 11
-680.308663
 21
73.735861
 31
0.0
  0
LINE
  5
B5
330
B1
100
AcDbEntity
  8
LC-001-100-D00-0
 62
     7
370
    15
100
AcDbLine
 10
-680.308663
 20
73.735861
 30
0.0
 11
-680.321031
 21
73.731205
 31
0.0
  0
ENDBLK
  5
B3
330
B1
100
AcDbEntity
  8
0
100
AcDbBlockEnd
  0
BLOCK
  5
161
330
157
100
AcDbEntity
  8
0
100
AcDbBlockBegin
  2
*D15
 70
     1
 71
     0
 10
0.0
 20
0.0
 30
0.0
  3
*D15
  1

  0
LINE
  5
158
330
157
100
AcDbEntity
  8
LC-001-100-D00-0
 62
     2
370
    -2
100
AcDbLine
 10
356.652786
 20
138.908536
 30
0.0
 11
470.128986
 21
138.908536
 31
0.0
  0
LINE
  5
159
330
157
100
AcDbEntity
  8
LC-001-100-D00-0
 62
     2
370
    -2
100
AcDbLine
 10
356.652786
 20
-16.091464
 30
0.0
 11
470.128986
 21
-16.091464
 31
0.0
  0
LINE
  5
15A
330
157
100
AcDbEntity
  8
LC-001-100-D00-0
 62
     2
370
    -2
100
AcDbLine
 10
461.128986
 20
88.908536
 30
0.0
 11
461.128986
 21
33.908536
 31
0.0
  0
SOLID
  5
15B
330
157
100
AcDbEntity
  8
LC-001-100-D00-0
 62
     2
100
AcDbTrace
 10
469.462319
 20
88.908536
 30
0.0
 11
452.795652
 21
88.908536
 31
0.0
 12
461.128986
 22
138.908536
 32
0.0
 13
461.128986
 23
138.908536
 33
0.0
  0
SOLID
  5
15C
330
157
100
AcDbEntity
  8
LC-001-100-D00-0
 62
     2
100
AcDbTrace
 10
452.795652
 20
33.908536
 30
0.0
 11
469.462319
 21
33.908536
 31
0.0
 12
461.128986
 22
-16.091464
 32
0.0
 13
461.128986
 23
-16.091464
 33
0.0
  0
MTEXT
  5
15D
330
157
100
AcDbEntity
  8
LC-001-100-D00-0
 62
     2
100
AcDbMText
 10
406.128986
 20
59.189886
 30
0.0
 40
50.0
 41
0.0
 71
     5
 72
     1
  1
\A1;155
  7
LCTX15-400-0-0pDIN-Schrift
 11
6.123031769111886E-17
 21
1.0
 31
0.0
 73
     1
 44
1.0
  0
POINT
  5
15E
330
157
100
AcDbEntity
  8
Defpoints
 62
     0
100
AcDbPoint
 10
356.652786
 20
138.908536
 30
0.0
  0
POINT
  5
15F
330
157
100
AcDbEntity
  8
Defpoints
 62
     0
100
AcDbPoint
 10
356.652786
 20
-16.091464
 30
0.0
  0
POINT
  5
160
330
157
100
AcDbEntity
  8
Defpoints
 62
     0
100
AcDbPoint
 10
461.128986
 20
-16.091464
 30
0.0
  0
ENDBLK
  5
162
330
157
100
AcDbEntity
  8
0
100
AcDbBlockEnd
  0
BLOCK
  5
378
330
377
100
AcDbEntity
  8
0
100
AcDbBlockBegin
  2
KLON15
 70
     0
 71
     0
 10
0.0
 20
0.0
 30
0.0
  3
KLON15
  1

  4
KLON15
  0
LINE
  5
37A
330
377
100
AcDbEntity
  8
LC-001-100-D00-0
 62
     7
370
    15
100
AcDbLine
 10
-114.347201
 20
404.774841
 30
0.0
 11
-114.349928
 21
404.774879
 31
0.0
  0
LINE
  5
37B
330
377
100
AcDbEntity
  8
LC-001-100-D00-0
 62
     7
370
    15
100
AcDbLine
 10
-114.349928
 20
404.774879
 30
0.0
 11
-114.35451
 21
404.775072
 31
0.0
  0
LINE
  5
37C
330
377
100
AcDbEntity
  8
LC-001-100-D00-0
 62
     7
370
    15
100
AcDbLine
 10
-114.35451
 20
404.775072
 30
0.0
 11
-114.363384
 21
404.775907
 31
0.0
  0
LINE
  5
37D
330
377
100
AcDbEntity
  8
LC-001-100-D00-0
 62
     7
370
    15
100
AcDbLine
 10
-114.363384
 20
404.775907
 30
0.0
 11
-114.365663
 21
404.776212
 31
0.0
  0
LINE
  5
37E
330
377
100
AcDbEntity
  8
LC-001-100-D00-0
 62
     7
370
    15
100
AcDbLine
 10
-114.365663
 20
404.776212
 30
0.0
 11
-114.366237
 21
404.776294
 31
0.0
  0
LINE
  5
37F
330
377
100
AcDbEntity
  8
LC-001-100-D00-0
 62
     7
370
    15
100
AcDbLine
 10
-114.366237
 20
404.776294
 30
0.0
 11
-114.366379
 21
404.776316
 31
0.0
  0
LINE
  5
380
330
377
100
AcDbEntity
  8
LC-001-100-D00-0
 62
     7
370
    15
100
AcDbLine
 10
-114.366379
 20
404.776316
 30
0.0
 11
-114.485558
 21
404.825587
 31
0.0
  0
LINE
  5
381
330
377
100
AcDbEntity
  8
LC-001-100-D00-0
 62
     7
370
    15
100
AcDbLine
 10
-114.485558
 20
404.825587
 30
0.0
 11
-115.326162
 21
405.638483
 31
0.0
  0
LINE
  5
382
330
377
100
AcDbEntity
  8
LC-001-100-D00-0
 62
     7
370
    15
100
AcDbLine
 10
-115.326162
 20
405.638483
 30
0.0
 11
-116.414841
 21
406.963807
 31
0.0
  0
LINE
  5
383
330
377
100
AcDbEntity
  8
LC-001-100-D00-0
 62
     7
370
    15
100
AcDbLine
 10
-116.414841
 20
406.963807
 30
0.0
 11
-117.840704
 21
408.866968
 31
0.0
  0
LINE
  5
384
330
377
100
AcDbEntity
  8
LC-001-100-D00-0
 62
     7
370
    15
100
AcDbLine
 10
-117.840704
 20
408.866968
 30
0.0
 11
-119.893048
 21
411.832627
 31
0.0
  0
LINE
  5
385
330
377
100
AcDbEntity
  8
LC-001-100-D00-0
 62
     7
370
    15
100
AcDbLine
 10
-119.893048
 20
411.832627
 30
0.0
 11
-122.263718
 21
415.473957
 31
0.0
  0
LINE
  5
386
330
377
100
AcDbEntity
  8
LC-001-100-D00-0
 62
     7
370
    15
100
AcDbLine
 10
-122.263718
 20
415.473957
 30
0.0
 11
-122.371908
 21
415.640336
 31
0.0
  0
ENDBLK
  5
379
330
377
100
AcDbEntity
  8
0
100
AcDbBlockEnd
  0
BLOCK
  5
389
330
388
100
AcDbEntity
  8
0
100
AcDbBlockBegin
  2
KLON16
 70
     0
 71
     0
 10
0.0
 20
0.0
 30
0.0
  3
KLON16
  1

  4
KLON16
  0
LINE
  5
38B
330
388
100
AcDbEntity
  8
LC-001-100-D00-0
 62
     7
370
    15
100
AcDbLine
 10
-122.371908
 20
415.640336
 30
0.0
 11
-123.113517
 21
418.018889
 31
0.0
  0
LINE
  5
38C
330
388
100
AcDbEntity
  8
LC-001-100-D00-0
 62
     7
370
    15
100
AcDbLine
 10
-123.113517
 20
418.018889
 30
0.0
 11
-123.748254
 21
420.599316
 31
0.0
  0
LINE
  5
38D
330
388
100
AcDbEntity
  8
LC-001-100-D00-0
 62
     7
370
    15
100
AcDbLine
 10
-123.748254
 20
420.599316
 30
0.0
 11
-124.267463
 21
423.731495
 31
0.0
  0
LINE
  5
38E
330
388
100
AcDbEntity
  8
LC-001-100-D00-0
 62
     7
370
    15
100
AcDbLine
 10
-124.267463
 20
423.731495
 30
0.0
 11
-124.504302
 21
427.068372
 31
0.0
  0
LINE
  5
38F
330
388
100
AcDbEntity
  8
LC-001-100-D00-0
 62
     7
370
    15
100
AcDbLine
 10
-124.504302
 20
427.068372
 30
0.0
 11
-124.413382
 21
430.338141
 31
0.0
  0
LINE
  5
390
330
388
100
AcDbEntity
  8
LC-001-100-D00-0
 62
     7
370
    15
100
AcDbLine
 10
-124.413382
 20
430.338141
 30
0.0
 11
-124.001566
 21
433.629517
 31
0.0
  0
LINE
  5
391
330
388
100
AcDbEntity
  8
LC-001-100-D00-0
 62
     7
370
    15
100
AcDbLine
 10
-124.001566
 20
433.629517
 30
0.0
 11
-123.357672
 21
436.622303
 31
0.0
  0
LINE
  5
392
330
388
100
AcDbEntity
  8
LC-001-100-D00-0
 62
     7
370
    15
100
AcDbLine
 10
-123.357672
 20
436.622303
 30
0.0
 11
-122.519042
 21
439.472232
 31
0.0
  0
LINE
  5
393
330
388
100
AcDbEntity
  8
LC-001-100-D00-0
 62
     7
370
    15
100
AcDbLine
 10
-122.519042
 20
439.472232
 30
0.0
 11
-121.451382
 21
442.383256
 31
0.0
  0
LINE
  5
394
330
388
100
AcDbEntity
  8
LC-001-100-D00-0
 62
     7
370
    15
100
AcDbLine
 10
-121.451382
 20
442.383256
 30
0.0
 11
-120.327506
 21
444.993362
 31
0.0
  0
LINE
  5
395
330
388
100
AcDbEntity
  8
LC-001-100-D00-0
 62
     7
370
    15
100
AcDbLine
 10
-120.327506
 20
444.993362
 30
0.0
 11
-119.179089
 21
447.370071
 31
0.0
  0
LINE
  5
396
330
388
100
AcDbEntity
  8
LC-001-100-D00-0
 62
     7
370
    15
100
AcDbLine
 10
-119.179089
 20
447.370071
 30
0.0
 11
-118.207272
 21
449.224186
 31
0.0
  0
LINE
  5
397
330
388
100
AcDbEntity
  8
LC-001-100-D00-0
 62
     7
370
    15
100
AcDbLine
 10
-118.207272
 20
449.224186
 30
0.0
 11
-117.665034
 21
450.210456
 31
0.0
  0
LINE
  5
398
330
388
100
AcDbEntity
  8
LC-001-100-D00-0
 62
     7
370
    15
100
AcDbLine
 10
-117.665034
 20
450.210456
 30
0.0
 11
-117.378335
 21
450.719983
 31
0.0
  0
LINE
  5
399
330
388
100
AcDbEntity
  8
LC-001-100-D00-0
 62
     7
370
    15
100
AcDbLine
 10
-117.378335
 20
450.719983
 30
0.0
 11
-117.347475
 21
450.774361
 31
0.0
  0
LINE
  5
39A
330
388
100
AcDbEntity
  8
LC-001-100-D00-0
 62
     7
370
    15
100
AcDbLine
 10
-117.347475
 20
450.774361
 30
0.0
 11
-117.3472
 21
450.774845
 31
0.0
  0
ENDBLK
  5
38A
330
388
100
AcDbEntity
  8
0
100
AcDbBlockEnd
  0
BLOCK
  5
3A0
330
39F
100
AcDbEntity
  8
0
100
AcDbBlockBegin
  2
KLON17
 70
     0
 71
     0
 10
0.0
 20
0.0
 30
0.0
  3
KLON17
  1

  4
KLON17
  0
LINE
  5
3A2
330
39F
100
AcDbEntity
  8
LC-001-100-D00-0
 62
     7
370
    15
100
AcDbLine
 10
-123.02975
 20
414.274846
 30
0.0
 11
-123.02297
 21
414.289121
 31
0.0
  0
LINE
  5
3A3
330
39F
100
AcDbEntity
  8
LC-001-100-D00-0
 62
     7
370
    15
100
AcDbLine
 10
-123.02297
 20
414.289121
 30
0.0
 11
-122.371908
 21
415.640336
 31
0.0
  0
ENDBLK
  5
3A1
330
39F
100
AcDbEntity
  8
0
100
AcDbBlockEnd
  0
BLOCK
  5
4D2
330
4D1
100
AcDbEntity
  8
0
100
AcDbBlockBegin
  2
KLON18
 70
     0
 71
     0
 10
0.0
 20
0.0
 30
0.0
  3
KLON18
  1

  4
KLON18
  0
LINE
  5
4D4
330
4D1
100
AcDbEntity
  8
LC-001-100-D00-0
 62
     7
370
    15
100
AcDbLine
 10
294.560481
 20
482.943008
 30
0.0
 11
297.116805
 21
483.036304
 31
0.0
  0
LINE
  5
4D5
330
4D1
100
AcDbEntity
  8
LC-001-100-D00-0
 62
     7
370
    15
100
AcDbLine
 10
297.116805
 20
483.036304
 30
0.0
 11
299.262602
 21
483.114617
 31
0.0
  0
LINE
  5
4D6
330
4D1
100
AcDbEntity
  8
LC-001-100-D00-0
 62
     7
370
    15
100
AcDbLine
 10
299.262602
 20
483.114617
 30
0.0
 11
300.992716
 21
483.177761
 31
0.0
  0
LINE
  5
4D7
330
4D1
100
AcDbEntity
  8
LC-001-100-D00-0
 62
     7
370
    15
100
AcDbLine
 10
300.992716
 20
483.177761
 30
0.0
 11
302.303065
 21
483.225583
 31
0.0
  0
LINE
  5
4D8
330
4D1
100
AcDbEntity
  8
LC-001-100-D00-0
 62
     7
370
    15
100
AcDbLine
 10
302.303065
 20
483.225583
 30
0.0
 11
303.190459
 21
483.25797
 31
0.0
  0
LINE
  5
4D9
330
4D1
100
AcDbEntity
  8
LC-001-100-D00-0
 62
     7
370
    15
100
AcDbLine
 10
303.190459
 20
483.25797
 30
0.0
 11
303.652812
 21
483.274844
 31
0.0
  0
ENDBLK
  5
4D3
330
4D1
100
AcDbEntity
  8
0
100
AcDbBlockEnd
  0
BLOCK
  5
4DC
330
4DB
100
AcDbEntity
  8
0
100
AcDbBlockBegin
  2
KLON19
 70
     0
 71
     0
 10
0.0
 20
0.0
 30
0.0
  3
KLON19
  1

  4
KLON19
  0
LINE
  5
4DE
330
4DB
100
AcDbEntity
  8
LC-001-100-D00-0
 62
     7
370
    15
100
AcDbLine
 10
-671.254884
 20
482.943008
 30
0.0
 11
-673.811208
 21
483.036304
 31
0.0
  0
LINE
  5
4DF
330
4DB
100
AcDbEntity
  8
LC-001-100-D00-0
 62
     7
370
    15
100
AcDbLine
 10
-673.811208
 20
483.036304
 30
0.0
 11
-675.957006
 21
483.114617
 31
0.0
  0
LINE
  5
4E0
330
4DB
100
AcDbEntity
  8
LC-001-100-D00-0
 62
     7
370
    15
100
AcDbLine
 10
-675.957006
 20
483.114617
 30
0.0
 11
-677.68712
 21
483.177761
 31
0.0
  0
LINE
  5
4E1
330
4DB
100
AcDbEntity
  8
LC-001-100-D00-0
 62
     7
370
    15
100
AcDbLine
 10
-677.68712
 20
483.177761
 30
0.0
 11
-678.997468
 21
483.225583
 31
0.0
  0
LINE
  5
4E2
330
4DB
100
AcDbEntity
  8
LC-001-100-D00-0
 62
     7
370
    15
100
AcDbLine
 10
-678.997468
 20
483.225583
 30
0.0
 11
-679.884862
 21
483.25797
 31
0.0
  0
LINE
  5
4E3
330
4DB
100
AcDbEntity
  8
LC-001-100-D00-0
 62
     7
370
    15
100
AcDbLine
 10
-679.884862
 20
483.25797
 30
0.0
 11
-680.347215
 21
483.274844
 31
0.0
  0
ENDBLK
  5
4DD
330
4DB
100
AcDbEntity
  8
0
100
AcDbBlockEnd
  0
BLOCK
  5
4FD
330
4FC
100
AcDbEntity
  8
0
100
AcDbBlockBegin
  2
KLON20
 70
     0
 71
     0
 10
0.0
 20
0.0
 30
0.0
  3
KLON20
  1

  4
KLON20
  0
LINE
  5
4FF
330
4FC
100
AcDbEntity
  8
LC-001-100-D00-0
 62
     7
370
    15
100
AcDbLine
 10
-234.466817
 20
471.274842
 30
0.0
 11
-234.453287
 21
471.116137
 31
0.0
  0
LINE
  5
500
330
4FC
100
AcDbEntity
  8
LC-001-100-D00-0
 62
     7
370
    15
100
AcDbLine
 10
-234.453287
 20
471.116137
 30
0.0
 11
-234.291364
 21
470.531717
 31
0.0
  0
LINE
  5
501
330
4FC
100
AcDbEntity
  8
LC-001-100-D00-0
 62
     7
370
    15
100
AcDbLine
 10
-234.291364
 20
470.531717
 30
0.0
 11
-234.041497
 21
470.085413
 31
0.0
  0
LINE
  5
502
330
4FC
100
AcDbEntity
  8
LC-001-100-D00-0
 62
     7
370
    15
100
AcDbLine
 10
-234.041497
 20
470.085413
 30
0.0
 11
-233.730197
 21
469.826661
 31
0.0
  0
LINE
  5
503
330
4FC
100
AcDbEntity
  8
LC-001-100-D00-0
 62
     7
370
    15
100
AcDbLine
 10
-233.730197
 20
469.826661
 30
0.0
 11
-233.592704
 21
469.782904
 31
0.0
  0
ENDBLK
  5
4FE
330
4FC
100
AcDbEntity
  8
0
100
AcDbBlockEnd
  0
BLOCK
  5
506
330
505
100
AcDbEntity
  8
0
100
AcDbBlockBegin
  2
KLON21
 70
     0
 71
     0
 10
0.0
 20
0.0
 30
0.0
  3
KLON21
  1

  4
KLON21
  0
LINE
  5
508
330
505
100
AcDbEntity
  8
LC-001-100-D00-0
 62
     7
370
    15
100
AcDbLine
 10
303.625423
 20
484.774843
 30
0.0
 11
303.624738
 21
484.812824
 31
0.0
  0
LINE
  5
509
330
505
100
AcDbEntity
  8
LC-001-100-D00-0
 62
     7
370
    15
100
AcDbLine
 10
303.624738
 20
484.812824
 30
0.0
 11
303.622682
 21
484.925611
 31
0.0
  0
LINE
  5
50A
330
505
100
AcDbEntity
  8
LC-001-100-D00-0
 62
     7
370
    15
100
AcDbLine
 10
303.622682
 20
484.925611
 30
0.0
 11
303.619314
 21
485.10978
 31
0.0
  0
LINE
  5
50B
330
505
100
AcDbEntity
  8
LC-001-100-D00-0
 62
     7
370
    15
100
AcDbLine
 10
303.619314
 20
485.10978
 30
0.0
 11
303.614754
 21
485.359732
 31
0.0
  0
LINE
  5
50C
330
505
100
AcDbEntity
  8
LC-001-100-D00-0
 62
     7
370
    15
100
AcDbLine
 10
303.614754
 20
485.359732
 30
0.0
 11
303.609151
 21
485.667875
 31
0.0
  0
LINE
  5
50D
330
505
100
AcDbEntity
  8
LC-001-100-D00-0
 62
     7
370
    15
100
AcDbLine
 10
303.609151
 20
485.667875
 30
0.0
 11
303.602625
 21
486.024844
 31
0.0
  0
LINE
  5
50E
330
505
100
AcDbEntity
  8
LC-001-100-D00-0
 62
     7
370
    15
100
AcDbLine
 10
303.602625
 20
486.024844
 30
0.0
 11
303.595442
 21
486.419794
 31
0.0
  0
LINE
  5
50F
330
505
100
AcDbEntity
  8
LC-001-100-D00-0
 62
     7
370
    15
100
AcDbLine
 10
303.595442
 20
486.419794
 30
0.0
 11
303.587753
 21
486.840723
 31
0.0
  0
LINE
  5
510
330
505
100
AcDbEntity
  8
LC-001-100-D00-0
 62
     7
370
    15
100
AcDbLine
 10
303.587753
 20
486.840723
 30
0.0
 11
303.579826
 21
487.274845
 31
0.0
  0
ENDBLK
  5
507
330
505
100
AcDbEntity
  8
0
100
AcDbBlockEnd
  0
BLOCK
  5
513
330
512
100
AcDbEntity
  8
0
100
AcDbBlockBegin
  2
KLON22
 70
     0
 71
     0
 10
0.0
 20
0.0
 30
0.0
  3
KLON22
  1

  4
KLON22
  0
LINE
  5
515
330
512
100
AcDbEntity
  8
LC-001-100-D00-0
 62
     7
370
    15
100
AcDbLine
 10
-680.319827
 20
484.774843
 30
0.0
 11
-680.319142
 21
484.812824
 31
0.0
  0
LINE
  5
516
330
512
100
AcDbEntity
  8
LC-001-100-D00-0
 62
     7
370
    15
100
AcDbLine
 10
-680.319142
 20
484.812824
 30
0.0
 11
-680.317085
 21
484.925611
 31
0.0
  0
LINE
  5
517
330
512
100
AcDbEntity
  8
LC-001-100-D00-0
 62
     7
370
    15
100
AcDbLine
 10
-680.317085
 20
484.925611
 30
0.0
 11
-680.313718
 21
485.10978
 31
0.0
  0
LINE
  5
518
330
512
100
AcDbEntity
  8
LC-001-100-D00-0
 62
     7
370
    15
100
AcDbLine
 10
-680.313718
 20
485.10978
 30
0.0
 11
-680.309158
 21
485.359732
 31
0.0
  0
LINE
  5
519
330
512
100
AcDbEntity
  8
LC-001-100-D00-0
 62
     7
370
    15
100
AcDbLine
 10
-680.309158
 20
485.359732
 30
0.0
 11
-680.303555
 21
485.667875
 31
0.0
  0
LINE
  5
51A
330
512
100
AcDbEntity
  8
LC-001-100-D00-0
 62
     7
370
    15
100
AcDbLine
 10
-680.303555
 20
485.667875
 30
0.0
 11
-680.297028
 21
486.024844
 31
0.0
  0
LINE
  5
51B
330
512
100
AcDbEntity
  8
LC-001-100-D00-0
 62
     7
370
    15
100
AcDbLine
 10
-680.297028
 20
486.024844
 30
0.0
 11
-680.289846
 21
486.419794
 31
0.0
  0
LINE
  5
51C
330
512
100
AcDbEntity
  8
LC-001-100-D00-0
 62
     7
370
    15
100
AcDbLine
 10
-680.289846
 20
486.419794
 30
0.0
 11
-680.282157
 21
486.840723
 31
0.0
  0
LINE
  5
51D
330
512
100
AcDbEntity
  8
LC-001-100-D00-0
 62
     7
370
    15
100
AcDbLine
 10
-680.282157
 20
486.840723
 30
0.0
 11
-680.27423
 21
487.274845
 31
0.0
  0
ENDBLK
  5
514
330
512
100
AcDbEntity
  8
0
100
AcDbBlockEnd
  0
BLOCK
  5
581
330
577
100
AcDbEntity
  8
0
100
AcDbBlockBegin
  2
*D24
 70
     1
 71
     0
 10
0.0
 20
0.0
 30
0.0
  3
*D24
  1

  0
LINE
  5
578
330
577
100
AcDbEntity
  8
LC-001-100-D00-0
 62
     2
370
    -2
100
AcDbLine
 10
361.652798
 20
505.274844
 30
0.0
 11
361.652798
 21
623.579886
 31
0.0
  0
LINE
  5
579
330
577
100
AcDbEntity
  8
LC-001-100-D00-0
 62
     2
370
    -2
100
AcDbLine
 10
-738.347202
 20
505.274844
 30
0.0
 11
-738.347202
 21
623.579886
 31
0.0
  0
LINE
  5
57A
330
577
100
AcDbEntity
  8
LC-001-100-D00-0
 62
     2
370
    -2
100
AcDbLine
 10
311.652798
 20
614.579886
 30
0.0
 11
-688.347202
 21
614.579886
 31
0.0
  0
SOLID
  5
57B
330
577
100
AcDbEntity
  8
LC-001-100-D00-0
 62
     2
100
AcDbTrace
 10
311.652798
 20
606.246553
 30
0.0
 11
311.652798
 21
622.91322
 31
0.0
 12
361.652798
 22
614.579886
 32
0.0
 13
361.652798
 23
614.579886
 33
0.0
  0
SOLID
  5
57C
330
577
100
AcDbEntity
  8
LC-001-100-D00-0
 62
     2
100
AcDbTrace
 10
-688.347202
 20
622.91322
 30
0.0
 11
-688.347202
 21
606.246553
 31
0.0
 12
-738.347202
 22
614.579886
 32
0.0
 13
-738.347202
 23
614.579886
 33
0.0
  0
MTEXT
  5
57D
330
577
100
AcDbEntity
  8
LC-001-100-D00-0
 62
     2
100
AcDbMText
 10
-188.909722
 20
669.579886
 30
0.0
 40
50.0
 41
0.0
 71
     5
 72
     1
  1
\A1;1100
  7
LCTX15-400-0-0pDIN-Schrift
 73
     1
 44
1.0
  0
POINT
  5
57E
330
577
100
AcDbEntity
  8
Defpoints
 62
     0
100
AcDbPoint
 10
361.652798
 20
505.274844
 30
0.0
  0
POINT
  5
57F
330
577
100
AcDbEntity
  8
Defpoints
 62
     0
100
AcDbPoint
 10
-738.347202
 20
505.274844
 30
0.0
  0
POINT
  5
580
330
577
100
AcDbEntity
  8
Defpoints
 62
     0
100
AcDbPoint
 10
-738.347202
 20
614.579886
 30
0.0
  0
ENDBLK
  5
582
330
577
100
AcDbEntity
  8
0
100
AcDbBlockEnd
  0
BLOCK
  5
58E
330
584
100
AcDbEntity
  8
0
100
AcDbBlockBegin
  2
*D25
 70
     1
 71
     0
 10
0.0
 20
0.0
 30
0.0
  3
*D25
  1

  0
LINE
  5
585
330
584
100
AcDbEntity
  8
LC-001-100-D00-0
 62
     2
370
    -2
100
AcDbLine
 10
-688.347202
 20
502.274844
 30
0.0
 11
-688.347202
 21
549.932732
 31
0.0
  0
LINE
  5
586
330
584
100
AcDbEntity
  8
LC-001-100-D00-0
 62
     2
370
    -2
100
AcDbLine
 10
311.652798
 20
502.274844
 30
0.0
 11
311.652798
 21
549.932732
 31
0.0
  0
LINE
  5
587
330
584
100
AcDbEntity
  8
LC-001-100-D00-0
 62
     2
370
    -2
100
AcDbLine
 10
-638.347202
 20
540.932732
 30
0.0
 11
261.652798
 21
540.932732
 31
0.0
  0
SOLID
  5
588
330
584
100
AcDbEntity
  8
LC-001-100-D00-0
 62
     2
100
AcDbTrace
 10
-638.347202
 20
549.266066
 30
0.0
 11
-638.347202
 21
532.599399
 31
0.0
 12
-688.347202
 22
540.932732
 32
0.0
 13
-688.347202
 23
540.932732
 33
0.0
  0
SOLID
  5
589
330
584
100
AcDbEntity
  8
LC-001-100-D00-0
 62
     2
100
AcDbTrace
 10
261.652798
 20
532.599399
 30
0.0
 11
261.652798
 21
549.266066
 31
0.0
 12
311.652798
 22
540.932732
 32
0.0
 13
311.652798
 23
540.932732
 33
0.0
  0
MTEXT
  5
58A
330
584
100
AcDbEntity
  8
LC-001-100-D00-0
 62
     2
100
AcDbMText
 10
-187.889031
 20
595.932732
 30
0.0
 40
50.0
 41
0.0
 71
     5
 72
     1
  1
\A1;1000
  7
LCTX15-400-0-0pDIN-Schrift
 73
     1
 44
1.0
  0
POINT
  5
58B
330
584
100
AcDbEntity
  8
Defpoints
 62
     0
100
AcDbPoint
 10
-688.347202
 20
502.274844
 30
0.0
  0
POINT
  5
58C
330
584
100
AcDbEntity
  8
Defpoints
 62
     0
100
AcDbPoint
 10
311.652798
 20
502.274844
 30
0.0
  0
POINT
  5
58D
330
584
100
AcDbEntity
  8
Defpoints
 62
     0
100
AcDbPoint
 10
311.652798
 20
540.932732
 30
0.0
  0
ENDBLK
  5
58F
330
584
100
AcDbEntity
  8
0
100
AcDbBlockEnd
  0
BLOCK
  5
59D
330
591
100
AcDbEntity
  8
0
100
AcDbBlockBegin
  2
*D26
 70
     1
 71
     0
 10
0.0
 20
0.0
 30
0.0
  3
*D26
  1

  0
LINE
  5
592
330
591
100
AcDbEntity
  8
LC-001-100-D00-0
 62
     2
370
    -2
100
AcDbLine
 10
-217.347202
 20
413.374844
 30
0.0
 11
-356.84217
 21
413.374844
 31
0.0
  0
LINE
  5
593
330
591
100
AcDbEntity
  8
LC-001-100-D00-0
 62
     2
370
    -2
100
AcDbLine
 10
-227.840081
 20
463.774844
 30
0.0
 11
-356.84217
 21
463.774844
 31
0.0
  0
LINE
  5
594
330
591
100
AcDbEntity
  8
LC-001-100-D00-0
 62
     2
370
    -2
100
AcDbLine
 10
-347.84217
 20
363.374844
 30
0.0
 11
-347.84217
 21
313.374844
 31
0.0
  0
LINE
  5
595
330
591
100
AcDbEntity
  8
LC-001-100-D00-0
 62
     2
370
    -2
100
AcDbLine
 10
-347.84217
 20
513.774844
 30
0.0
 11
-347.84217
 21
563.774844
 31
0.0
  0
LINE
  5
596
330
591
100
AcDbEntity
  8
LC-001-100-D00-0
 62
     2
370
    -2
100
AcDbLine
 10
-347.84217
 20
413.374844
 30
0.0
 11
-347.84217
 21
463.774844
 31
0.0
  0
SOLID
  5
597
330
591
100
AcDbEntity
  8
LC-001-100-D00-0
 62
     2
100
AcDbTrace
 10
-339.508837
 20
363.374844
 30
0.0
 11
-356.175503
 21
363.374844
 31
0.0
 12
-347.84217
 22
413.374844
 32
0.0
 13
-347.84217
 23
413.374844
 33
0.0
  0
SOLID
  5
598
330
591
100
AcDbEntity
  8
LC-001-100-D00-0
 62
     2
100
AcDbTrace
 10
-356.175503
 20
513.774844
 30
0.0
 11
-339.508837
 21
513.774844
 31
0.0
 12
-347.84217
 22
463.774844
 32
0.0
 13
-347.84217
 23
463.774844
 33
0.0
  0
MTEXT
  5
599
330
591
100
AcDbEntity
  8
LC-001-100-D00-0
 62
     2
100
AcDbMText
 10
-402.84217
 20
436.565034
 30
0.0
 40
50.0
 41
0.0
 71
     5
 72
     1
  1
\A1;50
  7
LCTX15-400-0-0pDIN-Schrift
 11
6.123031769111886E-17
 21
1.0
 31
0.0
 73
     1
 44
1.0
  0
POINT
  5
59A
330
591
100
AcDbEntity
  8
Defpoints
 62
     0
100
AcDbPoint
 10
-217.347202
 20
413.374844
 30
0.0
  0
POINT
  5
59B
330
591
100
AcDbEntity
  8
Defpoints
 62
     0
100
AcDbPoint
 10
-227.840081
 20
463.774844
 30
0.0
  0
POINT
  5
59C
330
591
100
AcDbEntity
  8
Defpoints
 62
     0
100
AcDbPoint
 10
-347.84217
 20
463.774844
 30
0.0
  0
ENDBLK
  5
59E
330
591
100
AcDbEntity
  8
0
100
AcDbBlockEnd
  0
BLOCK
  5
5AA
330
5A0
100
AcDbEntity
  8
0
100
AcDbBlockBegin
  2
*D27
 70
     1
 71
     0
 10
0.0
 20
0.0
 30
0.0
  3
*D27
  1

  0
LINE
  5
5A1
330
5A0
100
AcDbEntity
  8
LC-001-100-D00-0
 62
     2
370
    -2
100
AcDbLine
 10
-262.347202
 20
414.274844
 30
0.0
 11
-262.347202
 21
298.184886
 31
0.0
  0
LINE
  5
5A2
330
5A0
100
AcDbEntity
  8
LC-001-100-D00-0
 62
     2
370
    -2
100
AcDbLine
 10
-114.347202
 20
454.524844
 30
0.0
 11
-114.347202
 21
298.184886
 31
0.0
  0
LINE
  5
5A3
330
5A0
100
AcDbEntity
  8
LC-001-100-D00-0
 62
     2
370
    -2
100
AcDbLine
 10
-212.347202
 20
307.184886
 30
0.0
 11
-164.347202
 21
307.184886
 31
0.0
  0
SOLID
  5
5A4
330
5A0
100
AcDbEntity
  8
LC-001-100-D00-0
 62
     2
100
AcDbTrace
 10
-212.347202
 20
315.51822
 30
0.0
 11
-212.347202
 21
298.851553
 31
0.0
 12
-262.347202
 22
307.184886
 32
0.0
 13
-262.347202
 23
307.184886
 33
0.0
  0
SOLID
  5
5A5
330
5A0
100
AcDbEntity
  8
LC-001-100-D00-0
 62
     2
100
AcDbTrace
 10
-164.347202
 20
298.851553
 30
0.0
 11
-164.347202
 21
315.51822
 31
0.0
 12
-114.347202
 22
307.184886
 32
0.0
 13
-114.347202
 23
307.184886
 33
0.0
  0
MTEXT
  5
5A6
330
5A0
100
AcDbEntity
  8
LC-001-100-D00-0
 62
     2
100
AcDbMText
 10
-201.807316
 20
362.184886
 30
0.0
 40
50.0
 41
0.0
 71
     5
 72
     1
  1
\A1;148
  7
LCTX15-400-0-0pDIN-Schrift
 73
     1
 44
1.0
  0
POINT
  5
5A7
330
5A0
100
AcDbEntity
  8
Defpoints
 62
     0
100
AcDbPoint
 10
-262.347202
 20
414.274844
 30
0.0
  0
POINT
  5
5A8
330
5A0
100
AcDbEntity
  8
Defpoints
 62
     0
100
AcDbPoint
 10
-114.347202
 20
454.524844
 30
0.0
  0
POINT
  5
5A9
330
5A0
100
AcDbEntity
  8
Defpoints
 62
     0
100
AcDbPoint
 10
-114.347202
 20
307.184886
 30
0.0
  0
ENDBLK
  5
5AB
330
5A0
100
AcDbEntity
  8
0
100
AcDbBlockEnd
  0
BLOCK
  5
5B7
330
5AD
100
AcDbEntity
  8
0
100
AcDbBlockBegin
  2
*D28
 70
     1
 71
     0
 10
0.0
 20
0.0
 30
0.0
  3
*D28
  1

  0
LINE
  5
5AE
330
5AD
100
AcDbEntity
  8
LC-001-100-D00-0
 62
     2
370
    -2
100
AcDbLine
 10
-262.347202
 20
414.274844
 30
0.0
 11
-262.347202
 21
217.994886
 31
0.0
  0
LINE
  5
5AF
330
5AD
100
AcDbEntity
  8
LC-001-100-D00-0
 62
     2
370
    -2
100
AcDbLine
 10
21.152595
 20
403.712666
 30
0.0
 11
21.152595
 21
217.994886
 31
0.0
  0
LINE
  5
5B0
330
5AD
100
AcDbEntity
  8
LC-001-100-D00-0
 62
     2
370
    -2
100
AcDbLine
 10
-212.347202
 20
226.994886
 30
0.0
 11
-28.847405
 21
226.994886
 31
0.0
  0
SOLID
  5
5B1
330
5AD
100
AcDbEntity
  8
LC-001-100-D00-0
 62
     2
100
AcDbTrace
 10
-212.347202
 20
235.32822
 30
0.0
 11
-212.347202
 21
218.661553
 31
0.0
 12
-262.347202
 22
226.994886
 32
0.0
 13
-262.347202
 23
226.994886
 33
0.0
  0
SOLID
  5
5B2
330
5AD
100
AcDbEntity
  8
LC-001-100-D00-0
 62
     2
100
AcDbTrace
 10
-28.847405
 20
218.661553
 30
0.0
 11
-28.847405
 21
235.32822
 31
0.0
 12
21.152595
 22
226.994886
 32
0.0
 13
21.152595
 23
226.994886
 33
0.0
  0
MTEXT
  5
5B3
330
5AD
100
AcDbEntity
  8
LC-001-100-D00-0
 62
     2
100
AcDbMText
 10
-139.898867
 20
281.994886
 30
0.0
 40
50.0
 41
0.0
 71
     5
 72
     1
  1
\A1;284
  7
LCTX15-400-0-0pDIN-Schrift
 73
     1
 44
1.0
  0
POINT
  5
5B4
330
5AD
100
AcDbEntity
  8
Defpoints
 62
     0
100
AcDbPoint
 10
-262.347202
 20
414.274844
 30
0.0
  0
POINT
  5
5B5
330
5AD
100
AcDbEntity
  8
Defpoints
 62
     0
100
AcDbPoint
 10
21.152595
 20
403.712666
 30
0.0
  0
POINT
  5
5B6
330
5AD
100
AcDbEntity
  8
Defpoints
 62
     0
100
AcDbPoint
 10
21.152595
 20
226.994886
 30
0.0
  0
ENDBLK
  5
5B8
330
5AD
100
AcDbEntity
  8
0
100
AcDbBlockEnd
  0
BLOCK
  5
5C5
330
5BA
100
AcDbEntity
  8
0
100
AcDbBlockBegin
  2
*D29
 70
     1
 71
     0
 10
0.0
 20
0.0
 30
0.0
  3
*D29
  1

  0
LINE
  5
5BB
330
5BA
100
AcDbEntity
  8
LC-001-100-D00-0
 62
     2
370
    -2
100
AcDbLine
 10
17.652595
 20
452.774844
 30
0.0
 11
134.791557
 21
452.774844
 31
0.0
  0
LINE
  5
5BC
330
5BA
100
AcDbEntity
  8
LC-001-100-D00-0
 62
     2
370
    -2
100
AcDbLine
 10
17.652595
 20
402.774844
 30
0.0
 11
134.791557
 21
402.774844
 31
0.0
  0
LINE
  5
5BD
330
5BA
100
AcDbEntity
  8
LC-001-100-D00-0
 62
     2
370
    -2
100
AcDbLine
 10
125.791557
 20
502.774844
 30
0.0
 11
125.791557
 21
552.774844
 31
0.0
  0
LINE
  5
5BE
330
5BA
100
AcDbEntity
  8
LC-001-100-D00-0
 62
     2
370
    -2
100
AcDbLine
 10
125.791557
 20
352.774844
 30
0.0
 11
125.791557
 21
292.628534
 31
0.0
  0
SOLID
  5
5BF
330
5BA
100
AcDbEntity
  8
LC-001-100-D00-0
 62
     2
100
AcDbTrace
 10
117.458223
 20
502.774844
 30
0.0
 11
134.12489
 21
502.774844
 31
0.0
 12
125.791557
 22
452.774844
 32
0.0
 13
125.791557
 23
452.774844
 33
0.0
  0
SOLID
  5
5C0
330
5BA
100
AcDbEntity
  8
LC-001-100-D00-0
 62
     2
100
AcDbTrace
 10
134.12489
 20
352.774844
 30
0.0
 11
117.458223
 21
352.774844
 31
0.0
 12
125.791557
 22
402.774844
 32
0.0
 13
125.791557
 23
402.774844
 33
0.0
  0
MTEXT
  5
5C1
330
5BA
100
AcDbEntity
  8
LC-001-100-D00-0
 62
     2
100
AcDbMText
 10
70.791557
 20
376.979886
 30
0.0
 40
50.0
 41
0.0
 71
     5
 72
     1
  1
\A1;DN50
  7
LCTX15-400-0-0pDIN-Schrift
 11
6.123031769111886E-17
 21
1.0
 31
0.0
 73
     1
 44
1.0
  0
POINT
  5
5C2
330
5BA
100
AcDbEntity
  8
Defpoints
 62
     0
100
AcDbPoint
 10
17.652595
 20
452.774844
 30
0.0
  0
POINT
  5
5C3
330
5BA
100
AcDbEntity
  8
Defpoints
 62
     0
100
AcDbPoint
 10
17.652595
 20
402.774844
 30
0.0
  0
POINT
  5
5C4
330
5BA
100
AcDbEntity
  8
Defpoints
 62
     0
100
AcDbPoint
 10
125.791557
 20
402.774844
 30
0.0
  0
ENDBLK
  5
5C6
330
5BA
100
AcDbEntity
  8
0
100
AcDbBlockEnd
  0
BLOCK
  5
5D3
330
5C8
100
AcDbEntity
  8
0
100
AcDbBlockBegin
  2
*D30
 70
     1
 71
     0
 10
0.0
 20
0.0
 30
0.0
  3
*D30
  1

  0
LINE
  5
5C9
330
5C8
100
AcDbEntity
  8
LC-001-100-D00-0
 62
     2
370
    -2
100
AcDbLine
 10
361.652798
 20
505.274844
 30
0.0
 11
397.902462
 21
505.274844
 31
0.0
  0
LINE
  5
5CA
330
5C8
100
AcDbEntity
  8
LC-001-100-D00-0
 62
     2
370
    -2
100
AcDbLine
 10
27.652595
 20
427.774844
 30
0.0
 11
397.902462
 21
427.774844
 31
0.0
  0
LINE
  5
5CB
330
5C8
100
AcDbEntity
  8
LC-001-100-D00-0
 62
     2
370
    -2
100
AcDbLine
 10
388.902462
 20
555.274844
 30
0.0
 11
388.902462
 21
605.274844
 31
0.0
  0
LINE
  5
5CC
330
5C8
100
AcDbEntity
  8
LC-001-100-D00-0
 62
     2
370
    -2
100
AcDbLine
 10
388.902462
 20
377.774844
 30
0.0
 11
388.902462
 21
224.383061
 31
0.0
  0
SOLID
  5
5CD
330
5C8
100
AcDbEntity
  8
LC-001-100-D00-0
 62
     2
100
AcDbTrace
 10
380.569129
 20
555.274844
 30
0.0
 11
397.235796
 21
555.274844
 31
0.0
 12
388.902462
 22
505.274844
 32
0.0
 13
388.902462
 23
505.274844
 33
0.0
  0
SOLID
  5
5CE
330
5C8
100
AcDbEntity
  8
LC-001-100-D00-0
 62
     2
100
AcDbTrace
 10
397.235796
 20
377.774844
 30
0.0
 11
380.569129
 21
377.774844
 31
0.0
 12
388.902462
 22
427.774844
 32
0.0
 13
388.902462
 23
427.774844
 33
0.0
  0
MTEXT
  5
5CF
330
5C8
100
AcDbEntity
  8
LC-001-100-D00-0
 62
     2
100
AcDbMText
 10
333.902462
 20
293.819886
 30
0.0
 40
50.0
 41
0.0
 71
     5
 72
     1
  1
\A1;77,5
  7
LCTX15-400-0-0pDIN-Schrift
 11
6.123031769111886E-17
 21
1.0
 31
0.0
 73
     1
 44
1.0
  0
POINT
  5
5D0
330
5C8
100
AcDbEntity
  8
Defpoints
 62
     0
100
AcDbPoint
 10
361.652798
 20
505.274844
 30
0.0
  0
POINT
  5
5D1
330
5C8
100
AcDbEntity
  8
Defpoints
 62
     0
100
AcDbPoint
 10
27.652595
 20
427.774844
 30
0.0
  0
POINT
  5
5D2
330
5C8
100
AcDbEntity
  8
Defpoints
 62
     0
100
AcDbPoint
 10
388.902462
 20
427.774844
 30
0.0
  0
ENDBLK
  5
5D4
330
5C8
100
AcDbEntity
  8
0
100
AcDbBlockEnd
  0
BLOCK
  5
5E2
330
5D6
100
AcDbEntity
  8
0
100
AcDbBlockBegin
  2
*D31
 70
     1
 71
     0
 10
0.0
 20
0.0
 30
0.0
  3
*D31
  1

  0
LINE
  5
5D7
330
5D6
100
AcDbEntity
  8
LC-001-100-D00-0
 62
     2
370
    -2
100
AcDbLine
 10
-738.347202
 20
505.274844
 30
0.0
 11
-761.303796
 21
505.274844
 31
0.0
  0
LINE
  5
5D8
330
5D6
100
AcDbEntity
  8
LC-001-100-D00-0
 62
     2
370
    -2
100
AcDbLine
 10
-242.365082
 20
395.274844
 30
0.0
 11
-761.303796
 21
395.274844
 31
0.0
  0
LINE
  5
5D9
330
5D6
100
AcDbEntity
  8
LC-001-100-D00-0
 62
     2
370
    -2
100
AcDbLine
 10
-752.303796
 20
555.274844
 30
0.0
 11
-752.303796
 21
605.274844
 31
0.0
  0
LINE
  5
5DA
330
5D6
100
AcDbEntity
  8
LC-001-100-D00-0
 62
     2
370
    -2
100
AcDbLine
 10
-752.303796
 20
345.274844
 30
0.0
 11
-752.303796
 21
295.274844
 31
0.0
  0
LINE
  5
5DB
330
5D6
100
AcDbEntity
  8
LC-001-100-D00-0
 62
     2
370
    -2
100
AcDbLine
 10
-752.303796
 20
505.274844
 30
0.0
 11
-752.303796
 21
395.274844
 31
0.0
  0
SOLID
  5
5DC
330
5D6
100
AcDbEntity
  8
LC-001-100-D00-0
 62
     2
100
AcDbTrace
 10
-760.63713
 20
555.274844
 30
0.0
 11
-743.970463
 21
555.274844
 31
0.0
 12
-752.303796
 22
505.274844
 32
0.0
 13
-752.303796
 23
505.274844
 33
0.0
  0
SOLID
  5
5DD
330
5D6
100
AcDbEntity
  8
LC-001-100-D00-0
 62
     2
100
AcDbTrace
 10
-743.970463
 20
345.274844
 30
0.0
 11
-760.63713
 21
345.274844
 31
0.0
 12
-752.303796
 22
395.274844
 32
0.0
 13
-752.303796
 23
395.274844
 33
0.0
  0
MTEXT
  5
5DE
330
5D6
100
AcDbEntity
  8
LC-001-100-D00-0
 62
     2
100
AcDbMText
 10
-807.303796
 20
431.924886
 30
0.0
 40
50.0
 41
0.0
 71
     5
 72
     1
  1
\A1;110
  7
LCTX15-400-0-0pDIN-Schrift
 11
6.123031769111886E-17
 21
1.0
 31
0.0
 73
     1
 44
1.0
  0
POINT
  5
5DF
330
5D6
100
AcDbEntity
  8
Defpoints
 62
     0
100
AcDbPoint
 10
-738.347202
 20
505.274844
 30
0.0
  0
POINT
  5
5E0
330
5D6
100
AcDbEntity
  8
Defpoints
 62
     0
100
AcDbPoint
 10
-242.365082
 20
395.274844
 30
0.0
  0
POINT
  5
5E1
330
5D6
100
AcDbEntity
  8
Defpoints
 62
     0
100
AcDbPoint
 10
-752.303796
 20
395.274844
 30
0.0
  0
ENDBLK
  5
5E3
330
5D6
100
AcDbEntity
  8
0
100
AcDbBlockEnd
  0
BLOCK
  5
5F0
330
5E5
100
AcDbEntity
  8
0
100
AcDbBlockBegin
  2
*D32
 70
     1
 71
     0
 10
0.0
 20
0.0
 30
0.0
  3
*D32
  1

  0
LINE
  5
5E6
330
5E5
100
AcDbEntity
  8
LC-001-100-D00-0
 62
     2
370
    -2
100
AcDbLine
 10
361.652798
 20
505.274844
 30
0.0
 11
552.673583
 21
505.274844
 31
0.0
  0
LINE
  5
5E7
330
5E5
100
AcDbEntity
  8
LC-001-100-D00-0
 62
     2
370
    -2
100
AcDbLine
 10
171.152798
 20
370.774844
 30
0.0
 11
552.673583
 21
370.774844
 31
0.0
  0
LINE
  5
5E8
330
5E5
100
AcDbEntity
  8
LC-001-100-D00-0
 62
     2
370
    -2
100
AcDbLine
 10
543.673583
 20
455.274844
 30
0.0
 11
543.673583
 21
420.774844
 31
0.0
  0
LINE
  5
5E9
330
5E5
100
AcDbEntity
  8
LC-001-100-D00-0
 62
     2
370
    -2
100
AcDbLine
 10
543.673583
 20
370.774844
 30
0.0
 11
543.673583
 21
192.580204
 31
0.0
  0
SOLID
  5
5EA
330
5E5
100
AcDbEntity
  8
LC-001-100-D00-0
 62
     2
100
AcDbTrace
 10
552.006917
 20
455.274844
 30
0.0
 11
535.34025
 21
455.274844
 31
0.0
 12
543.673583
 22
505.274844
 32
0.0
 13
543.673583
 23
505.274844
 33
0.0
  0
SOLID
  5
5EB
330
5E5
100
AcDbEntity
  8
LC-001-100-D00-0
 62
     2
100
AcDbTrace
 10
535.34025
 20
420.774844
 30
0.0
 11
552.006917
 21
420.774844
 31
0.0
 12
543.673583
 22
370.774844
 32
0.0
 13
543.673583
 23
370.774844
 33
0.0
  0
MTEXT
  5
5EC
330
5E5
100
AcDbEntity
  8
LC-001-100-D00-0
 62
     2
100
AcDbMText
 10
488.673583
 20
359.159886
 30
0.0
 40
50.0
 41
0.0
 71
     5
 72
     1
  1
\A1;110-129,5
  7
LCTX15-400-0-0pDIN-Schrift
 11
6.123031769111886E-17
 21
1.0
 31
0.0
 73
     1
 44
1.0
  0
POINT
  5
5ED
330
5E5
100
AcDbEntity
  8
Defpoints
 62
     0
100
AcDbPoint
 10
361.652798
 20
505.274844
 30
0.0
  0
POINT
  5
5EE
330
5E5
100
AcDbEntity
  8
Defpoints
 62
     0
100
AcDbPoint
 10
171.152798
 20
370.774844
 30
0.0
  0
POINT
  5
5EF
330
5E5
100
AcDbEntity
  8
Defpoints
 62
     0
100
AcDbPoint
 10
543.673583
 20
370.774844
 30
0.0
  0
ENDBLK
  5
5F1
330
5E5
100
AcDbEntity
  8
0
100
AcDbBlockEnd
  0
BLOCK
  5
5F3
330
5F2
100
AcDbEntity
  8
0
100
AcDbBlockBegin
  2
KLON23
 70
     0
 71
     0
 10
0.0
 20
0.0
 30
0.0
  3
KLON23
  1

  4
KLON23
  0
LINE
  5
5F5
330
5F2
100
AcDbEntity
  8
LC-001-100-D00-0
 62
     7
370
    25
100
AcDbLine
 10
-160.706916
 20
397.774844
 30
0.0
 11
-159.206916
 21
399.274844
 31
0.0
  0
LINE
  5
5F6
330
5F2
100
AcDbEntity
  8
LC-001-100-D00-0
 62
     7
370
    25
100
AcDbLine
 10
-148.847202
 20
409.634558
 30
0.0
 11
-147.347202
 21
411.134558
 31
0.0
  0
LINE
  5
5F7
330
5F2
100
AcDbEntity
  8
LC-001-100-D00-0
 62
     7
370
    25
100
AcDbLine
 10
-183.157555
 20
397.774844
 30
0.0
 11
-181.657555
 21
399.274844
 31
0.0
  0
LINE
  5
5F8
330
5F2
100
AcDbEntity
  8
LC-001-100-D00-0
 62
     7
370
    25
100
AcDbLine
 10
-148.847202
 20
432.085199
 30
0.0
 11
-147.347202
 21
433.5852
 31
0.0
  0
LINE
  5
5F9
330
5F2
100
AcDbEntity
  8
LC-001-100-D00-0
 62
     7
370
    25
100
AcDbLine
 10
-205.608194
 20
397.774844
 30
0.0
 11
-204.108195
 21
399.274844
 31
0.0
  0
LINE
  5
5FA
330
5F2
100
AcDbEntity
  8
LC-001-100-D00-0
 62
     7
370
    25
100
AcDbLine
 10
-148.847202
 20
454.535841
 30
0.0
 11
-147.347202
 21
456.035841
 31
0.0
  0
LINE
  5
5FB
330
5F2
100
AcDbEntity
  8
LC-001-100-D00-0
 62
     7
370
    25
100
AcDbLine
 10
-227.17937
 20
398.654307
 30
0.0
 11
-226.092584
 21
399.741094
 31
0.0
  0
LINE
  5
5FC
330
5F2
100
AcDbEntity
  8
LC-001-100-D00-0
 62
     7
370
    25
100
AcDbLine
 10
-229.347202
 20
418.937117
 30
0.0
 11
-227.847202
 21
420.437117
 31
0.0
  0
LINE
  5
5FD
330
5F2
100
AcDbEntity
  8
LC-001-100-D00-0
 62
     7
370
    25
100
AcDbLine
 10
-229.347202
 20
441.387758
 30
0.0
 11
-227.847202
 21
442.887758
 31
0.0
  0
LINE
  5
5FE
330
5F2
100
AcDbEntity
  8
LC-001-100-D00-0
 62
     7
370
    25
100
AcDbLine
 10
-229.383827
 20
463.801774
 30
0.0
 11
-228.002281
 21
465.18332
 31
0.0
  0
LINE
  5
5FF
330
5F2
100
AcDbEntity
  8
LC-001-100-D00-0
 62
     7
370
    25
100
AcDbLine
 10
-243.597202
 20
472.039039
 30
0.0
 11
-242.361397
 21
473.274844
 31
0.0
  0
ENDBLK
  5
5F4
330
5F2
100
AcDbEntity
  8
0
100
AcDbBlockEnd
  0
BLOCK
  5
602
330
601
100
AcDbEntity
  8
0
100
AcDbBlockBegin
  2
KLON24
 70
     0
 71
     0
 10
0.0
 20
0.0
 30
0.0
  3
KLON24
  1

  4
KLON24
  0
LINE
  5
604
330
601
100
AcDbEntity
  8
LC-001-100-D00-0
 62
     7
370
    25
100
AcDbLine
 10
4.296278
 20
450.524844
 30
0.0
 11
6.546278
 21
452.774844
 31
0.0
  0
LINE
  5
605
330
601
100
AcDbEntity
  8
LC-001-100-D00-0
 62
     7
370
    25
100
AcDbLine
 10
-79.368516
 20
456.662607
 30
0.0
 11
-77.287851
 21
458.743273
 31
0.0
  0
LINE
  5
606
330
601
100
AcDbEntity
  8
LC-001-100-D00-0
 62
     7
370
    25
100
AcDbLine
 10
-63.055659
 20
450.524844
 30
0.0
 11
-60.805659
 21
452.774844
 31
0.0
  0
ENDBLK
  5
603
330
601
100
AcDbEntity
  8
0
100
AcDbBlockEnd
  0
BLOCK
  5
609
330
608
100
AcDbEntity
  8
0
100
AcDbBlockBegin
  2
KLON25
 70
     0
 71
     0
 10
0.0
 20
0.0
 30
0.0
  3
KLON25
  1

  4
KLON25
  0
LINE
  5
60B
330
608
100
AcDbEntity
  8
LC-001-100-D00-0
 62
     7
370
    25
100
AcDbLine
 10
-43.453718
 20
402.774844
 30
0.0
 11
-41.203719
 21
405.024844
 31
0.0
  0
LINE
  5
60C
330
608
100
AcDbEntity
  8
LC-001-100-D00-0
 62
     7
370
    25
100
AcDbLine
 10
-21.003078
 20
402.774844
 30
0.0
 11
-18.753079
 21
405.024844
 31
0.0
  0
LINE
  5
60D
330
608
100
AcDbEntity
  8
LC-001-100-D00-0
 62
     7
370
    25
100
AcDbLine
 10
1.447562
 20
402.774844
 30
0.0
 11
3.697561
 21
405.024844
 31
0.0
  0
ENDBLK
  5
60A
330
608
100
AcDbEntity
  8
0
100
AcDbBlockEnd
  0
BLOCK
  5
610
330
60F
100
AcDbEntity
  8
0
100
AcDbBlockBegin
  2
KLON26
 70
     0
 71
     0
 10
0.0
 20
0.0
 30
0.0
  3
KLON26
  1

  4
KLON26
  0
LINE
  5
612
330
60F
100
AcDbEntity
  8
LC-001-100-D00-0
 62
     7
370
    25
100
AcDbLine
 10
349.404587
 20
503.774844
 30
0.0
 11
350.904587
 21
505.274844
 31
0.0
  0
LINE
  5
613
330
60F
100
AcDbEntity
  8
LC-001-100-D00-0
 62
     7
370
    25
100
AcDbLine
 10
307.10237
 20
483.923265
 30
0.0
 11
312.504378
 21
489.325272
 31
0.0
  0
LINE
  5
614
330
60F
100
AcDbEntity
  8
LC-001-100-D00-0
 62
     7
370
    25
100
AcDbLine
 10
326.953948
 20
503.774844
 30
0.0
 11
328.453948
 21
505.274844
 31
0.0
  0
LINE
  5
615
330
60F
100
AcDbEntity
  8
LC-001-100-D00-0
 62
     7
370
    25
100
AcDbLine
 10
284.00331
 20
483.274844
 30
0.0
 11
286.152798
 21
485.424332
 31
0.0
  0
LINE
  5
616
330
60F
100
AcDbEntity
  8
LC-001-100-D00-0
 62
     7
370
    25
100
AcDbLine
 10
261.55267
 20
483.274844
 30
0.0
 11
263.05267
 21
484.774844
 31
0.0
  0
LINE
  5
617
330
60F
100
AcDbEntity
  8
LC-001-100-D00-0
 62
     7
370
    25
100
AcDbLine
 10
277.652798
 20
499.374973
 30
0.0
 11
283.052669
 21
504.774844
 31
0.0
  0
LINE
  5
618
330
60F
100
AcDbEntity
  8
LC-001-100-D00-0
 62
     7
370
    25
100
AcDbLine
 10
239.102031
 20
483.274844
 30
0.0
 11
240.602031
 21
484.774844
 31
0.0
  0
LINE
  5
619
330
60F
100
AcDbEntity
  8
LC-001-100-D00-0
 62
     7
370
    25
100
AcDbLine
 10
216.651391
 20
483.274844
 30
0.0
 11
218.151391
 21
484.774844
 31
0.0
  0
LINE
  5
61A
330
60F
100
AcDbEntity
  8
LC-001-100-D00-0
 62
     7
370
    25
100
AcDbLine
 10
194.200752
 20
483.274844
 30
0.0
 11
195.700752
 21
484.774844
 31
0.0
  0
LINE
  5
61B
330
60F
100
AcDbEntity
  8
LC-001-100-D00-0
 62
     7
370
    25
100
AcDbLine
 10
171.750113
 20
483.274844
 30
0.0
 11
173.250112
 21
484.774844
 31
0.0
  0
LINE
  5
61C
330
60F
100
AcDbEntity
  8
LC-001-100-D00-0
 62
     7
370
    25
100
AcDbLine
 10
149.299473
 20
483.274844
 30
0.0
 11
150.799473
 21
484.774844
 31
0.0
  0
LINE
  5
61D
330
60F
100
AcDbEntity
  8
LC-001-100-D00-0
 62
     7
370
    25
100
AcDbLine
 10
126.848834
 20
483.274844
 30
0.0
 11
128.348833
 21
484.774844
 31
0.0
  0
LINE
  5
61E
330
60F
100
AcDbEntity
  8
LC-001-100-D00-0
 62
     7
370
    25
100
AcDbLine
 10
104.398194
 20
483.274844
 30
0.0
 11
105.898194
 21
484.774844
 31
0.0
  0
LINE
  5
61F
330
60F
100
AcDbEntity
  8
LC-001-100-D00-0
 62
     7
370
    25
100
AcDbLine
 10
81.947555
 20
483.274844
 30
0.0
 11
83.447554
 21
484.774844
 31
0.0
  0
LINE
  5
620
330
60F
100
AcDbEntity
  8
LC-001-100-D00-0
 62
     7
370
    25
100
AcDbLine
 10
92.652798
 20
493.980088
 30
0.0
 11
100.652798
 21
501.980089
 31
0.0
  0
LINE
  5
621
330
60F
100
AcDbEntity
  8
LC-001-100-D00-0
 62
     7
370
    25
100
AcDbLine
 10
59.496915
 20
483.274844
 30
0.0
 11
60.996915
 21
484.774844
 31
0.0
  0
LINE
  5
622
330
60F
100
AcDbEntity
  8
LC-001-100-D00-0
 62
     7
370
    25
100
AcDbLine
 10
37.046276
 20
483.274844
 30
0.0
 11
38.546276
 21
484.774844
 31
0.0
  0
LINE
  5
623
330
60F
100
AcDbEntity
  8
LC-001-100-D00-0
 62
     7
370
    25
100
AcDbLine
 10
14.595636
 20
483.274844
 30
0.0
 11
16.095636
 21
484.774844
 31
0.0
  0
LINE
  5
624
330
60F
100
AcDbEntity
  8
LC-001-100-D00-0
 62
     7
370
    25
100
AcDbLine
 10
-7.855003
 20
483.274844
 30
0.0
 11
-6.355003
 21
484.774844
 31
0.0
  0
LINE
  5
625
330
60F
100
AcDbEntity
  8
LC-001-100-D00-0
 62
     7
370
    25
100
AcDbLine
 10
-30.305643
 20
483.274844
 30
0.0
 11
-28.805643
 21
484.774844
 31
0.0
  0
LINE
  5
626
330
60F
100
AcDbEntity
  8
LC-001-100-D00-0
 62
     7
370
    25
100
AcDbLine
 10
-52.756282
 20
483.274844
 30
0.0
 11
-51.256282
 21
484.774844
 31
0.0
  0
LINE
  5
627
330
60F
100
AcDbEntity
  8
LC-001-100-D00-0
 62
     7
370
    25
100
AcDbLine
 10
-75.206922
 20
483.274844
 30
0.0
 11
-73.706922
 21
484.774844
 31
0.0
  0
LINE
  5
628
330
60F
100
AcDbEntity
  8
LC-001-100-D00-0
 62
     7
370
    25
100
AcDbLine
 10
-98.744881
 20
482.187524
 30
0.0
 11
-96.623561
 21
484.308844
 31
0.0
  0
LINE
  5
629
330
60F
100
AcDbEntity
  8
LC-001-100-D00-0
 62
     7
370
    25
100
AcDbLine
 10
-92.028415
 20
488.90399
 30
0.0
 11
-84.347202
 21
496.585204
 31
0.0
  0
LINE
  5
62A
330
60F
100
AcDbEntity
  8
LC-001-100-D00-0
 62
     7
370
    25
100
AcDbLine
 10
-125.1082
 20
478.274844
 30
0.0
 11
-123.6082
 21
479.774844
 31
0.0
  0
ENDBLK
  5
611
330
60F
100
AcDbEntity
  8
0
100
AcDbBlockEnd
  0
BLOCK
  5
62D
330
62C
100
AcDbEntity
  8
0
100
AcDbBlockBegin
  2
KLON27
 70
     0
 71
     0
 10
0.0
 20
0.0
 30
0.0
  3
KLON27
  1

  4
KLON27
  0
LINE
  5
62F
330
62C
100
AcDbEntity
  8
LC-001-100-D00-0
 62
     7
370
    25
100
AcDbLine
 10
-259.812037
 20
478.274844
 30
0.0
 11
-258.312037
 21
479.774844
 31
0.0
  0
LINE
  5
630
330
62C
100
AcDbEntity
  8
LC-001-100-D00-0
 62
     7
370
    25
100
AcDbLine
 10
-278.265367
 20
482.272154
 30
0.0
 11
-277.040622
 21
483.496899
 31
0.0
  0
LINE
  5
631
330
62C
100
AcDbEntity
  8
LC-001-100-D00-0
 62
     7
370
    25
100
AcDbLine
 10
-299.713317
 20
483.274844
 30
0.0
 11
-298.213317
 21
484.774844
 31
0.0
  0
LINE
  5
632
330
62C
100
AcDbEntity
  8
LC-001-100-D00-0
 62
     7
370
    25
100
AcDbLine
 10
-292.347202
 20
490.640959
 30
0.0
 11
-284.347202
 21
498.64096
 31
0.0
  0
LINE
  5
633
330
62C
100
AcDbEntity
  8
LC-001-100-D00-0
 62
     7
370
    25
100
AcDbLine
 10
-322.163956
 20
483.274844
 30
0.0
 11
-320.663956
 21
484.774844
 31
0.0
  0
LINE
  5
634
330
62C
100
AcDbEntity
  8
LC-001-100-D00-0
 62
     7
370
    25
100
AcDbLine
 10
-344.614596
 20
483.274844
 30
0.0
 11
-343.114596
 21
484.774844
 31
0.0
  0
LINE
  5
635
330
62C
100
AcDbEntity
  8
LC-001-100-D00-0
 62
     7
370
    25
100
AcDbLine
 10
-367.065235
 20
483.274844
 30
0.0
 11
-365.565235
 21
484.774844
 31
0.0
  0
LINE
  5
636
330
62C
100
AcDbEntity
  8
LC-001-100-D00-0
 62
     7
370
    25
100
AcDbLine
 10
-389.515875
 20
483.274844
 30
0.0
 11
-388.015875
 21
484.774844
 31
0.0
  0
LINE
  5
637
330
62C
100
AcDbEntity
  8
LC-001-100-D00-0
 62
     7
370
    25
100
AcDbLine
 10
-411.966514
 20
483.274844
 30
0.0
 11
-410.466514
 21
484.774844
 31
0.0
  0
LINE
  5
638
330
62C
100
AcDbEntity
  8
LC-001-100-D00-0
 62
     7
370
    25
100
AcDbLine
 10
-434.417153
 20
483.274844
 30
0.0
 11
-432.917154
 21
484.774844
 31
0.0
  0
LINE
  5
639
330
62C
100
AcDbEntity
  8
LC-001-100-D00-0
 62
     7
370
    25
100
AcDbLine
 10
-456.867793
 20
483.274844
 30
0.0
 11
-455.367793
 21
484.774844
 31
0.0
  0
LINE
  5
63A
330
62C
100
AcDbEntity
  8
LC-001-100-D00-0
 62
     7
370
    25
100
AcDbLine
 10
-479.318432
 20
483.274844
 30
0.0
 11
-469.347202
 21
493.246075
 31
0.0
  0
LINE
  5
63B
330
62C
100
AcDbEntity
  8
LC-001-100-D00-0
 62
     7
370
    25
100
AcDbLine
 10
-501.769072
 20
483.274844
 30
0.0
 11
-500.269072
 21
484.774844
 31
0.0
  0
LINE
  5
63C
330
62C
100
AcDbEntity
  8
LC-001-100-D00-0
 62
     7
370
    25
100
AcDbLine
 10
-524.219711
 20
483.274844
 30
0.0
 11
-522.719712
 21
484.774844
 31
0.0
  0
LINE
  5
63D
330
62C
100
AcDbEntity
  8
LC-001-100-D00-0
 62
     7
370
    25
100
AcDbLine
 10
-546.670351
 20
483.274844
 30
0.0
 11
-545.170351
 21
484.774844
 31
0.0
  0
LINE
  5
63E
330
62C
100
AcDbEntity
  8
LC-001-100-D00-0
 62
     7
370
    25
100
AcDbLine
 10
-569.12099
 20
483.274844
 30
0.0
 11
-567.62099
 21
484.774844
 31
0.0
  0
LINE
  5
63F
330
62C
100
AcDbEntity
  8
LC-001-100-D00-0
 62
     7
370
    25
100
AcDbLine
 10
-591.57163
 20
483.274844
 30
0.0
 11
-590.07163
 21
484.774844
 31
0.0
  0
LINE
  5
640
330
62C
100
AcDbEntity
  8
LC-001-100-D00-0
 62
     7
370
    25
100
AcDbLine
 10
-614.022269
 20
483.274844
 30
0.0
 11
-612.522269
 21
484.774844
 31
0.0
  0
LINE
  5
641
330
62C
100
AcDbEntity
  8
LC-001-100-D00-0
 62
     7
370
    25
100
AcDbLine
 10
-636.472909
 20
483.274844
 30
0.0
 11
-634.972909
 21
484.774844
 31
0.0
  0
LINE
  5
642
330
62C
100
AcDbEntity
  8
LC-001-100-D00-0
 62
     7
370
    25
100
AcDbLine
 10
-658.923548
 20
483.274844
 30
0.0
 11
-655.066327
 21
487.132065
 31
0.0
  0
LINE
  5
643
330
62C
100
AcDbEntity
  8
LC-001-100-D00-0
 62
     7
370
    25
100
AcDbLine
 10
-681.323852
 20
483.32518
 30
0.0
 11
-679.874188
 21
484.774844
 31
0.0
  0
LINE
  5
644
330
62C
100
AcDbEntity
  8
LC-001-100-D00-0
 62
     7
370
    25
100
AcDbLine
 10
-662.347202
 20
502.301831
 30
0.0
 11
-659.874189
 21
504.774844
 31
0.0
  0
LINE
  5
645
330
62C
100
AcDbEntity
  8
LC-001-100-D00-0
 62
     7
370
    25
100
AcDbLine
 10
-689.847202
 20
497.25247
 30
0.0
 11
-688.347202
 21
498.75247
 31
0.0
  0
LINE
  5
646
330
62C
100
AcDbEntity
  8
LC-001-100-D00-0
 62
     7
370
    25
100
AcDbLine
 10
-705.775468
 20
503.774844
 30
0.0
 11
-704.275468
 21
505.274844
 31
0.0
  0
LINE
  5
647
330
62C
100
AcDbEntity
  8
LC-001-100-D00-0
 62
     7
370
    25
100
AcDbLine
 10
-728.226108
 20
503.774844
 30
0.0
 11
-726.726108
 21
505.274844
 31
0.0
  0
ENDBLK
  5
62E
330
62C
100
AcDbEntity
  8
0
100
AcDbBlockEnd
  0
BLOCK
  5
64A
330
649
100
AcDbEntity
  8
0
100
AcDbBlockBegin
  2
KLON28
 70
     0
 71
     0
 10
0.0
 20
0.0
 30
0.0
  3
KLON28
  1

  4
KLON28
  0
LINE
  5
64C
330
649
100
AcDbEntity
  8
LC-001-100-D00-0
 62
     7
370
    25
100
AcDbLine
 10
-160.847202
 20
420.085199
 30
0.0
 11
-159.347202
 21
421.585199
 31
0.0
  0
LINE
  5
64D
330
649
100
AcDbEntity
  8
LC-001-100-D00-0
 62
     7
370
    25
100
AcDbLine
 10
-160.847202
 20
442.53584
 30
0.0
 11
-159.347202
 21
444.03584
 31
0.0
  0
LINE
  5
64E
330
649
100
AcDbEntity
  8
LC-001-100-D00-0
 62
     7
370
    25
100
AcDbLine
 10
-160.847202
 20
464.986481
 30
0.0
 11
-158.475551
 21
467.358132
 31
0.0
  0
LINE
  5
64F
330
649
100
AcDbEntity
  8
LC-001-100-D00-0
 62
     7
370
    25
100
AcDbLine
 10
-153.430491
 20
472.403193
 30
0.0
 11
-146.55884
 21
479.274844
 31
0.0
  0
ENDBLK
  5
64B
330
649
100
AcDbEntity
  8
0
100
AcDbBlockEnd
  0
BLOCK
  5
652
330
651
100
AcDbEntity
  8
0
100
AcDbBlockBegin
  2
KLON29
 70
     0
 71
     0
 10
0.0
 20
0.0
 30
0.0
  3
KLON29
  1

  4
KLON29
  0
LINE
  5
654
330
651
100
AcDbEntity
  8
LC-001-100-D00-0
 62
     7
370
    25
100
AcDbLine
 10
-217.347202
 20
430.937118
 30
0.0
 11
-215.847202
 21
432.437118
 31
0.0
  0
LINE
  5
655
330
651
100
AcDbEntity
  8
LC-001-100-D00-0
 62
     7
370
    25
100
AcDbLine
 10
-217.347202
 20
453.387759
 30
0.0
 11
-215.847202
 21
454.887759
 31
0.0
  0
LINE
  5
656
330
651
100
AcDbEntity
  8
LC-001-100-D00-0
 62
     7
370
    25
100
AcDbLine
 10
-221.675057
 20
471.510545
 30
0.0
 11
-215.848181
 21
477.337421
 31
0.0
  0
LINE
  5
657
330
651
100
AcDbEntity
  8
LC-001-100-D00-0
 62
     7
370
    25
100
AcDbLine
 10
-242.361397
 20
473.274844
 30
0.0
 11
-241.361397
 21
474.274844
 31
0.0
  0
LINE
  5
658
330
651
100
AcDbEntity
  8
LC-001-100-D00-0
 62
     7
370
    25
100
AcDbLine
 10
-240.847202
 20
474.789039
 30
0.0
 11
-236.361398
 21
479.274844
 31
0.0
  0
ENDBLK
  5
653
330
651
100
AcDbEntity
  8
0
100
AcDbBlockEnd
  0
BLOCK
  5
65D
330
65C
100
AcDbEntity
  8
0
100
AcDbBlockBegin
  2
KLON30
 70
     0
 71
     0
 10
0.0
 20
0.0
 30
0.0
  3
KLON30
  1

  4
KLON30
  0
LINE
  5
65F
330
65C
100
AcDbEntity
  8
LC-001-100-D00-0
 62
     7
370
    25
100
AcDbLine
 10
-261.111396
 20
454.524844
 30
0.0
 11
-259.347202
 21
456.289038
 31
0.0
  0
LINE
  5
660
330
65C
100
AcDbEntity
  8
LC-001-100-D00-0
 62
     7
370
    25
100
AcDbLine
 10
-262.347202
 20
475.739679
 30
0.0
 11
-259.812037
 21
478.274844
 31
0.0
  0
ENDBLK
  5
65E
330
65C
100
AcDbEntity
  8
0
100
AcDbBlockEnd
  0
BLOCK
  5
663
330
662
100
AcDbEntity
  8
0
100
AcDbBlockBegin
  2
KLON31
 70
     0
 71
     0
 10
0.0
 20
0.0
 30
0.0
  3
KLON31
  1

  4
KLON31
  0
LINE
  5
665
330
662
100
AcDbEntity
  8
LC-001-100-D00-0
 62
     7
370
    25
100
AcDbLine
 10
-92.22087
 20
398.908971
 30
0.0
 11
-86.354998
 21
404.774844
 31
0.0
  0
LINE
  5
666
330
662
100
AcDbEntity
  8
LC-001-100-D00-0
 62
     7
370
    25
100
AcDbLine
 10
-111.805637
 20
401.774844
 30
0.0
 11
-108.805637
 21
404.774844
 31
0.0
  0
LINE
  5
667
330
662
100
AcDbEntity
  8
LC-001-100-D00-0
 62
     7
370
    25
100
AcDbLine
 10
-140.756276
 20
395.274844
 30
0.0
 11
-137.756276
 21
398.274844
 31
0.0
  0
LINE
  5
668
330
662
100
AcDbEntity
  8
LC-001-100-D00-0
 62
     7
370
    25
100
AcDbLine
 10
-163.206915
 20
395.274844
 30
0.0
 11
-160.206916
 21
398.274844
 31
0.0
  0
LINE
  5
669
330
662
100
AcDbEntity
  8
LC-001-100-D00-0
 62
     7
370
    25
100
AcDbLine
 10
-185.657555
 20
395.274844
 30
0.0
 11
-182.657555
 21
398.274844
 31
0.0
  0
LINE
  5
66A
330
662
100
AcDbEntity
  8
LC-001-100-D00-0
 62
     7
370
    25
100
AcDbLine
 10
-208.108194
 20
395.274844
 30
0.0
 11
-205.108195
 21
398.274844
 31
0.0
  0
LINE
  5
66B
330
662
100
AcDbEntity
  8
LC-001-100-D00-0
 62
     7
370
    25
100
AcDbLine
 10
-230.558834
 20
395.274844
 30
0.0
 11
-227.558834
 21
398.274844
 31
0.0
  0
LINE
  5
66C
330
662
100
AcDbEntity
  8
LC-001-100-D00-0
 62
     7
370
    25
100
AcDbLine
 10
-248.789408
 20
399.494909
 30
0.0
 11
-246.334014
 21
401.950303
 31
0.0
  0
LINE
  5
66D
330
662
100
AcDbEntity
  8
LC-001-100-D00-0
 62
     7
370
    25
100
AcDbLine
 10
-261.350752
 20
409.384206
 30
0.0
 11
-259.00108
 21
411.733877
 31
0.0
  0
LINE
  5
66E
330
662
100
AcDbEntity
  8
LC-001-100-D00-0
 62
     7
370
    25
100
AcDbLine
 10
-262.347202
 20
430.838397
 30
0.0
 11
-259.347202
 21
433.838397
 31
0.0
  0
LINE
  5
66F
330
662
100
AcDbEntity
  8
LC-001-100-D00-0
 62
     7
370
    25
100
AcDbLine
 10
-262.347202
 20
453.289038
 30
0.0
 11
-261.111396
 21
454.524844
 31
0.0
  0
ENDBLK
  5
664
330
662
100
AcDbEntity
  8
0
100
AcDbBlockEnd
  0
BLOCK
  5
672
330
671
100
AcDbEntity
  8
0
100
AcDbBlockBegin
  2
KLON32
 70
     0
 71
     0
 10
0.0
 20
0.0
 30
0.0
  3
KLON32
  1

  4
KLON32
  0
LINE
  5
674
330
671
100
AcDbEntity
  8
LC-001-100-D00-0
 62
     7
370
    25
100
AcDbLine
 10
-85.25628
 20
450.774844
 30
0.0
 11
-79.41019
 21
456.620934
 31
0.0
  0
LINE
  5
675
330
671
100
AcDbEntity
  8
LC-001-100-D00-0
 62
     7
370
    25
100
AcDbLine
 10
-107.706919
 20
450.774844
 30
0.0
 11
-104.70692
 21
453.774844
 31
0.0
  0
LINE
  5
676
330
671
100
AcDbEntity
  8
LC-001-100-D00-0
 62
     7
370
    25
100
AcDbLine
 10
-103.347202
 20
455.134562
 30
0.0
 11
-103.20692
 21
455.274844
 31
0.0
  0
ENDBLK
  5
673
330
671
100
AcDbEntity
  8
0
100
AcDbBlockEnd
  0
BLOCK
  5
67B
330
67A
100
AcDbEntity
  8
0
100
AcDbBlockBegin
  2
KLON33
 70
     0
 71
     0
 10
0.0
 20
0.0
 30
0.0
  3
KLON33
  1

  4
KLON33
  0
LINE
  5
67D
330
67A
100
AcDbEntity
  8
LC-001-100-D00-0
 62
     7
370
    25
100
AcDbLine
 10
-653.147202
 20
489.051191
 30
0.0
 11
-648.597202
 21
493.601191
 31
0.0
  0
LINE
  5
67E
330
67A
100
AcDbEntity
  8
LC-001-100-D00-0
 62
     7
370
    25
100
AcDbLine
 10
-643.097202
 20
499.101191
 30
0.0
 11
-640.097202
 21
502.101192
 31
0.0
  0
ENDBLK
  5
67C
330
67A
100
AcDbEntity
  8
0
100
AcDbBlockEnd
  0
BLOCK
  5
683
330
682
100
AcDbEntity
  8
0
100
AcDbBlockBegin
  2
KLON34
 70
     0
 71
     0
 10
0.0
 20
0.0
 30
0.0
  3
KLON34
  1

  4
KLON34
  0
LINE
  5
685
330
682
100
AcDbEntity
  8
LC-001-100-D00-0
 62
     7
370
    25
100
AcDbLine
 10
-468.318433
 20
494.274844
 30
0.0
 11
-463.597202
 21
498.996076
 31
0.0
  0
LINE
  5
686
330
682
100
AcDbEntity
  8
LC-001-100-D00-0
 62
     7
370
    25
100
AcDbLine
 10
-460.318434
 20
502.274844
 30
0.0
 11
-457.318434
 21
505.274844
 31
0.0
  0
ENDBLK
  5
684
330
682
100
AcDbEntity
  8
0
100
AcDbBlockEnd
  0
BLOCK
  5
68A
330
689
100
AcDbEntity
  8
0
100
AcDbBlockBegin
  2
KLON35
 70
     0
 71
     0
 10
0.0
 20
0.0
 30
0.0
  3
KLON35
  1

  4
KLON35
  0
LINE
  5
68C
330
689
100
AcDbEntity
  8
LC-001-100-D00-0
 62
     7
370
    25
100
AcDbLine
 10
-105.108202
 20
498.274844
 30
0.0
 11
-103.597202
 21
499.785844
 31
0.0
  0
LINE
  5
68D
330
689
100
AcDbEntity
  8
LC-001-100-D00-0
 62
     7
370
    25
100
AcDbLine
 10
-101.108202
 20
502.274844
 30
0.0
 11
-98.108202
 21
505.274844
 31
0.0
  0
ENDBLK
  5
68B
330
689
100
AcDbEntity
  8
0
100
AcDbBlockEnd
  0
BLOCK
  5
693
330
692
100
AcDbEntity
  8
0
100
AcDbBlockBegin
  2
KLON36
 70
     0
 71
     0
 10
0.0
 20
0.0
 30
0.0
  3
KLON36
  1

  4
KLON36
  0
LINE
  5
695
330
692
100
AcDbEntity
  8
LC-001-100-D00-0
 62
     7
370
    25
100
AcDbLine
 10
288.003651
 20
487.275185
 30
0.0
 11
291.402798
 21
490.674333
 31
0.0
  0
LINE
  5
696
330
692
100
AcDbEntity
  8
LC-001-100-D00-0
 62
     7
370
    25
100
AcDbLine
 10
299.003309
 20
498.274844
 30
0.0
 11
299.902798
 21
499.174333
 31
0.0
  0
ENDBLK
  5
694
330
692
100
AcDbEntity
  8
0
100
AcDbBlockEnd
  0
BLOCK
  5
69A
330
699
100
AcDbEntity
  8
0
100
AcDbBlockBegin
  2
KLON37
 70
     0
 71
     0
 10
0.0
 20
0.0
 30
0.0
  3
KLON37
  1

  4
KLON37
  0
LINE
  5
69C
330
699
100
AcDbEntity
  8
LC-001-100-D00-0
 62
     7
370
    25
100
AcDbLine
 10
-296.713317
 20
486.274844
 30
0.0
 11
-293.547202
 21
489.440959
 31
0.0
  0
LINE
  5
69D
330
699
100
AcDbEntity
  8
LC-001-100-D00-0
 62
     7
370
    25
100
AcDbLine
 10
-306.597202
 20
498.841599
 30
0.0
 11
-303.597202
 21
501.841599
 31
0.0
  0
LINE
  5
69E
330
699
100
AcDbEntity
  8
LC-001-100-D00-0
 62
     7
370
    25
100
AcDbLine
 10
-303.163957
 20
502.274844
 30
0.0
 11
-300.163958
 21
505.274844
 31
0.0
  0
ENDBLK
  5
69B
330
699
100
AcDbEntity
  8
0
100
AcDbBlockEnd
  0
BLOCK
  5
6A3
330
6A2
100
AcDbEntity
  8
0
100
AcDbBlockBegin
  2
KLON38
 70
     0
 71
     0
 10
0.0
 20
0.0
 30
0.0
  3
KLON38
  1

  4
KLON38
  0
LINE
  5
6A5
330
6A2
100
AcDbEntity
  8
LC-001-100-D00-0
 62
     7
370
    25
100
AcDbLine
 10
86.902798
 20
488.230088
 30
0.0
 11
90.947554
 21
492.274844
 31
0.0
  0
LINE
  5
6A6
330
6A2
100
AcDbEntity
  8
LC-001-100-D00-0
 62
     7
370
    25
100
AcDbLine
 10
78.402798
 20
502.180728
 30
0.0
 11
81.496913
 21
505.274844
 31
0.0
  0
ENDBLK
  5
6A4
330
6A2
100
AcDbEntity
  8
0
100
AcDbBlockEnd
  0
ENDSEC
  0
SECTION
  2
ENTITIES
  0
ARC
  5
31
330
1F
100
AcDbEntity
  8
LC-001-100-D00-0
 62
     7
370
    50
100
AcDbCircle
 10
309.152786
 20
84.908536
 30
0.0
 40
2.5
100
AcDbArc
 50
0.0
 51
90.0
  0
ARC
  5
32
330
1F
100
AcDbEntity
  8
LC-001-100-D00-0
 62
     7
370
    50
100
AcDbCircle
 10
309.152786
 20
37.908536
 30
0.0
 40
2.5
100
AcDbArc
 50
270.0
 51
0.0
  0
LINE
  5
33
330
1F
100
AcDbEntity
  8
LC-001-100-D00-0
 62
     7
370
    50
100
AcDbLine
 10
311.652786
 20
37.908536
 30
0.0
 11
311.652786
 21
84.908536
 31
0.0
  0
LINE
  5
34
330
1F
100
AcDbEntity
  8
LC-001-100-D00-0
 62
     7
370
    50
100
AcDbLine
 10
309.152786
 20
35.408536
 30
0.0
 11
-685.847214
 21
35.408536
 31
0.0
  0
LINE
  5
35
330
1F
100
AcDbEntity
  8
LC-001-100-D00-0
 62
     7
370
    50
100
AcDbLine
 10
-685.847214
 20
87.408536
 30
0.0
 11
309.152786
 21
87.408536
 31
0.0
  0
ARC
  5
36
330
1F
100
AcDbEntity
  8
LC-001-100-D00-0
 62
     7
370
    50
100
AcDbCircle
 10
-685.847214
 20
84.908536
 30
0.0
 40
2.5
100
AcDbArc
 50
90.0
 51
180.0
  0
ARC
  5
37
330
1F
100
AcDbEntity
  8
LC-001-100-D00-0
 62
     7
370
    50
100
AcDbCircle
 10
-685.847214
 20
37.908536
 30
0.0
 40
2.5
100
AcDbArc
 50
180.0
 51
270.0
  0
LINE
  5
38
330
1F
100
AcDbEntity
  8
LC-001-100-D00-0
 62
     7
370
    50
100
AcDbLine
 10
-688.347214
 20
37.908536
 30
0.0
 11
-688.347214
 21
84.908536
 31
0.0
  0
ARC
  5
39
330
1F
100
AcDbEntity
  8
LC-001-100-D00-0
 62
     7
370
    50
100
AcDbCircle
 10
-733.347214
 20
133.908536
 30
0.0
 40
5.0
100
AcDbArc
 50
90.0
 51
180.0
  0
LINE
  5
3A
330
1F
100
AcDbEntity
  8
LC-001-100-D00-0
 62
     7
370
    50
100
AcDbLine
 10
356.652786
 20
138.908536
 30
0.0
 11
-733.347214
 21
138.908536
 31
0.0
  0
ARC
  5
3B
330
1F
100
AcDbEntity
  8
LC-001-100-D00-0
 62
     7
370
    50
100
AcDbCircle
 10
356.652786
 20
133.908536
 30
0.0
 40
5.000000000000227
100
AcDbArc
 50
0.0
 51
90.0
  0
LINE
  5
3C
330
1F
100
AcDbEntity
  8
LC-001-100-D00-0
 62
     7
370
    50
100
AcDbLine
 10
361.652786
 20
133.908536
 30
0.0
 11
361.652786
 21
-11.091464
 31
0.0
  0
ARC
  5
3D
330
1F
100
AcDbEntity
  8
LC-001-100-D00-0
 62
     7
370
    50
100
AcDbCircle
 10
356.652786
 20
-11.091464
 30
0.0
 40
5.0
100
AcDbArc
 50
270.0
 51
0.0
  0
LINE
  5
3E
330
1F
100
AcDbEntity
  8
LC-001-100-D00-0
 62
     7
370
    50
100
AcDbLine
 10
-733.347214
 20
-16.091464
 30
0.0
 11
356.652786
 21
-16.091464
 31
0.0
  0
ARC
  5
3F
330
1F
100
AcDbEntity
  8
LC-001-100-D00-0
 62
     7
370
    50
100
AcDbCircle
 10
-733.347214
 20
-11.091464
 30
0.0
 40
5.0
100
AcDbArc
 50
180.0
 51
270.0
  0
LINE
  5
40
330
1F
100
AcDbEntity
  8
LC-001-100-D00-0
 62
     7
370
    50
100
AcDbLine
 10
-738.347214
 20
133.908536
 30
0.0
 11
-738.347214
 21
-11.091464
 31
0.0
  0
CIRCLE
  5
41
330
1F
100
AcDbEntity
  8
LC-001-100-D00-0
 62
     7
370
    50
100
AcDbCircle
 10
281.652786
 20
61.408536
 30
0.0
 40
3.000000000000114
  0
CIRCLE
  5
42
330
1F
100
AcDbEntity
  8
LC-001-100-D00-0
 62
     7
370
    50
100
AcDbCircle
 10
96.652786
 20
61.408536
 30
0.0
 40
3.000000000000114
  0
CIRCLE
  5
43
330
1F
100
AcDbEntity
  8
LC-001-100-D00-0
 62
     7
370
    50
100
AcDbCircle
 10
-88.347214
 20
61.408536
 30
0.0
 40
3.000000000000114
  0
CIRCLE
  5
44
330
1F
100
AcDbEntity
  8
LC-001-100-D00-0
 62
     7
370
    50
100
AcDbCircle
 10
-288.347214
 20
61.408536
 30
0.0
 40
3.000000000000114
  0
CIRCLE
  5
45
330
1F
100
AcDbEntity
  8
LC-001-100-D00-0
 62
     7
370
    50
100
AcDbCircle
 10
-473.347214
 20
61.408536
 30
0.0
 40
2.999999999999773
  0
CIRCLE
  5
46
330
1F
100
AcDbEntity
  8
LC-001-100-D00-0
 62
     7
370
    50
100
AcDbCircle
 10
-658.347214
 20
61.408536
 30
0.0
 40
2.999999999999773
  0
LINE
  5
47
330
1F
100
AcDbEntity
  8
LC-001-100-D00-0
 62
     7
370
    50
100
AcDbLine
 10
303.626604
 20
49.085867
 30
0.0
 11
303.626604
 21
37.908537
 31
0.0
  0
ARC
  5
48
330
1F
100
AcDbEntity
  8
LC-001-100-D00-0
 62
     7
370
    50
100
AcDbCircle
 10
1307.63331
 20
-107.874685
 30
0.0
 40
1016.201791348746
100
AcDbArc
 50
171.105076
 51
171.114633
  0
INSERT
  5
50
330
1F
100
AcDbEntity
  8
LC-001-100-D00-0
 62
     7
370
    50
100
AcDbBlockReference
  2
KLON1
 10
0.0
 20
0.0
 30
0.0
  0
LINE
  5
51
330
1F
100
AcDbEntity
  8
LC-001-100-D00-0
 62
     7
370
    50
100
AcDbLine
 10
303.626604
 20
84.893897
 30
0.0
 11
303.626604
 21
73.731205
 31
0.0
  0
INSERT
  5
57
330
1F
100
AcDbEntity
  8
LC-001-100-D00-0
 62
     7
370
    50
100
AcDbBlockReference
  2
KLON2
 10
0.0
 20
0.0
 30
0.0
  0
INSERT
  5
5D
330
1F
100
AcDbEntity
  8
LC-001-100-D00-0
 62
     7
370
    50
100
AcDbBlockReference
  2
KLON3
 10
0.0
 20
0.0
 30
0.0
  0
INSERT
  5
63
330
1F
100
AcDbEntity
  8
LC-001-100-D00-0
 62
     7
370
    50
100
AcDbBlockReference
  2
KLON4
 10
0.0
 20
0.0
 30
0.0
  0
LINE
  5
64
330
1F
100
AcDbEntity
  8
LC-001-100-D00-0
 62
     7
370
    50
100
AcDbLine
 10
-680.321031
 20
84.893897
 30
0.0
 11
-680.321031
 21
73.731205
 31
0.0
  0
INSERT
  5
6C
330
1F
100
AcDbEntity
  8
LC-001-100-D00-0
 62
     7
370
    50
100
AcDbBlockReference
  2
KLON5
 10
0.0
 20
0.0
 30
0.0
  0
ARC
  5
6D
330
1F
100
AcDbEntity
  8
LC-001-100-D00-0
 62
     7
370
    50
100
AcDbCircle
 10
-1684.327702
 20
-107.874679
 30
0.0
 40
1016.201755852224
100
AcDbArc
 50
8.885367
 51
8.894924
  0
LINE
  5
6E
330
1F
100
AcDbEntity
  8
LC-001-100-D00-0
 62
     7
370
    50
100
AcDbLine
 10
-680.321031
 20
49.085867
 30
0.0
 11
-680.321031
 21
37.908537
 31
0.0
  0
INSERT
  5
74
330
1F
100
AcDbEntity
  8
LC-001-100-D00-0
 62
     7
370
    50
100
AcDbBlockReference
  2
KLON6
 10
0.0
 20
0.0
 30
0.0
  0
ELLIPSE
  5
75
330
1F
100
AcDbEntity
  8
LC-001-100-D00-0
 62
     7
370
    50
100
AcDbEllipse
 10
303.579818
 20
37.908536
 30
0.0
 11
0.0
 21
-2.499999526977494
 31
0.0
210
0.0
220
0.0
230
1.0
 40
0.018242
 41
3.141592653593532
 42
4.712388980377414
  0
ELLIPSE
  5
76
330
1F
100
AcDbEntity
  8
LC-001-100-D00-0
 62
     7
370
    50
100
AcDbEllipse
 10
372.125423
 20
37.908536
 30
0.0
 11
68.499999986934
 21
0.0
 31
0.0
210
0.0
220
0.0
230
1.0
 40
0.036496
 41
3.141592653597615
 42
3.169858841660824
  0
ELLIPSE
  5
77
330
1F
100
AcDbEntity
  8
LC-001-100-D00-0
 62
     7
370
    50
100
AcDbEllipse
 10
166.579818
 20
37.908536
 30
0.0
 11
0.0
 21
-2.5
 31
0.0
210
0.0
220
0.0
230
1.0
 40
0.018242
 41
3.141592653590417
 42
4.712388980380872
  0
ELLIPSE
  5
78
330
1F
100
AcDbEntity
  8
LC-001-100-D00-0
 62
     7
370
    50
100
AcDbEllipse
 10
-680.274245
 20
37.908536
 30
0.0
 11
0.0
 21
-2.499999633789036
 31
0.0
210
0.0
220
0.0
230
1.0
 40
0.018242
 41
1.570796326802221
 42
3.141592653597272
  0
ELLIPSE
  5
79
330
1F
100
AcDbEntity
  8
LC-001-100-D00-0
 62
     7
370
    50
100
AcDbEllipse
 10
-543.274245
 20
37.908536
 30
0.0
 11
0.0
 21
-2.5
 31
0.0
210
0.0
220
0.0
230
1.0
 40
0.018242
 41
1.570796326798577
 42
3.141592653597272
  0
ELLIPSE
  5
7A
330
1F
100
AcDbEntity
  8
LC-001-100-D00-0
 62
     7
370
    50
100
AcDbEllipse
 10
-748.819851
 20
37.908536
 30
0.0
 11
68.50000000000263
 21
0.0
 31
0.0
210
0.0
220
0.0
230
1.0
 40
0.036496
 41
6.25491911910949
 42
6.283185307179586
  0
ELLIPSE
  5
7B
330
1F
100
AcDbEntity
  8
LC-001-100-D00-0
 62
     7
370
    50
100
AcDbEllipse
 10
372.125423
 20
84.908536
 30
0.0
 11
68.49999999999949
 21
0.0
 31
0.0
210
0.0
220
0.0
230
1.0
 40
0.036496
 41
3.141592653589793
 42
3.147448628039453
  0
ELLIPSE
  5
7C
330
1F
100
AcDbEntity
  8
LC-001-100-D00-0
 62
     7
370
    50
100
AcDbEllipse
 10
303.579818
 20
84.908536
 30
0.0
 11
0.0
 21
-2.499998535155821
 31
0.0
210
0.0
220
0.0
230
1.0
 40
0.018242
 41
4.712388980384588
 42
6.283185335722679
  0
ELLIPSE
  5
7D
330
1F
100
AcDbEntity
  8
LC-001-100-D00-0
 62
     7
370
    50
100
AcDbEllipse
 10
-748.819851
 20
84.908536
 30
0.0
 11
68.50000000000583
 21
0.0
 31
0.0
210
0.0
220
0.0
230
1.0
 40
0.036496
 41
6.277329332730558
 42
6.283185307179581
  0
ELLIPSE
  5
7E
330
1F
100
AcDbEntity
  8
LC-001-100-D00-0
 62
     7
370
    50
100
AcDbEllipse
 10
-680.274245
 20
84.908536
 30
0.0
 11
0.0
 21
-2.499999877929684
 31
0.0
210
0.0
220
0.0
230
1.0
 40
0.018242
 41
6.283185278611581
 42
7.853981633974534
  0
ELLIPSE
  5
7F
330
1F
100
AcDbEntity
  8
LC-001-100-D00-0
 62
     7
370
    50
100
AcDbEllipse
 10
166.579818
 20
84.908536
 30
0.0
 11
0.0
 21
-2.499999755859363
 31
0.0
210
0.0
220
0.0
230
0.9999999999999999
 40
0.018242
 41
4.712388980388237
 42
6.283185319339686
  0
ELLIPSE
  5
80
330
1F
100
AcDbEntity
  8
LC-001-100-D00-0
 62
     7
370
    50
100
AcDbEllipse
 10
-543.274245
 20
84.908536
 30
0.0
 11
0.0
 21
-2.5
 31
0.0
210
0.0
220
0.0
230
1.0
 40
0.018242
 41
6.283185295007024
 42
7.853981633970708
  0
LINE
  5
81
330
1F
100
AcDbEntity
  8
LC-001-100-D00-0
 62
     7
370
    50
100
AcDbLine
 10
166.625417
 20
37.908537
 30
0.0
 11
166.625417
 21
40.759053
 31
0.0
  0
INSERT
  5
87
330
1F
100
AcDbEntity
  8
LC-001-100-D00-0
 62
     7
370
    50
100
AcDbBlockReference
  2
KLON7
 10
0.0
 20
0.0
 30
0.0
  0
INSERT
  5
8D
330
1F
100
AcDbEntity
  8
LC-001-100-D00-0
 62
     7
370
    50
100
AcDbBlockReference
  2
KLON8
 10
0.0
 20
0.0
 30
0.0
  0
LINE
  5
8E
330
1F
100
AcDbEntity
  8
LC-001-100-D00-0
 62
     7
370
    50
100
AcDbLine
 10
-543.319844
 20
37.908537
 30
0.0
 11
-543.319844
 21
40.759053
 31
0.0
  0
INSERT
  5
95
330
1F
100
AcDbEntity
  8
LC-001-100-D00-0
 62
     7
370
    50
100
AcDbBlockReference
  2
KLON9
 10
0.0
 20
0.0
 30
0.0
  0
INSERT
  5
9B
330
1F
100
AcDbEntity
  8
LC-001-100-D00-0
 62
     7
370
    50
100
AcDbBlockReference
  2
KLON10
 10
0.0
 20
0.0
 30
0.0
  0
INSERT
  5
A2
330
1F
100
AcDbEntity
  8
LC-001-100-D00-0
 62
     7
370
    50
100
AcDbBlockReference
  2
KLON11
 10
0.0
 20
0.0
 30
0.0
  0
INSERT
  5
A9
330
1F
100
AcDbEntity
  8
LC-001-100-D00-0
 62
     7
370
    50
100
AcDbBlockReference
  2
KLON12
 10
0.0
 20
0.0
 30
0.0
  0
INSERT
  5
B0
330
1F
100
AcDbEntity
  8
LC-001-100-D00-0
 62
     7
370
    50
100
AcDbBlockReference
  2
KLON13
 10
0.0
 20
0.0
 30
0.0
  0
INSERT
  5
B6
330
1F
100
AcDbEntity
  8
LC-001-100-D00-0
 62
     7
370
    50
100
AcDbBlockReference
  2
KLON14
 10
0.0
 20
0.0
 30
0.0
  0
LINE
  5
B7
330
1F
100
AcDbEntity
  8
LC-001-100-D00-0
 62
     7
370
    50
100
AcDbLine
 10
166.625417
 20
82.05802
 30
0.0
 11
166.625417
 21
84.908535
 31
0.0
  0
LINE
  5
B8
330
1F
100
AcDbEntity
  8
LC-001-100-D00-0
 62
     7
370
    50
100
AcDbLine
 10
-543.319844
 20
82.05802
 30
0.0
 11
-543.319844
 21
84.908535
 31
0.0
  0
LINE
  5
B9
330
1F
100
AcDbEntity
  8
LC-001-100-D00-0
 62
     7
370
    50
100
AcDbLine
 10
166.639692
 20
41.552858
 30
0.0
 11
166.639692
 21
55.547585
 31
0.0
  0
ELLIPSE
  5
BA
330
1F
100
AcDbEntity
  8
LC-001-100-D00-0
 62
     7
370
    15
100
AcDbEllipse
 10
180.463968
 20
173.959526
 30
0.0
 11
28.64933019244423
 21
1.713494941355897
 31
0.0
210
0.0
220
0.0
230
1.0
 40
0.016531
 41
6.280994665930988
 42
6.282196627508237
  0
ELLIPSE
  5
BB
330
1F
100
AcDbEntity
  8
LC-001-100-D00-0
 62
     7
370
    15
100
AcDbEllipse
 10
180.463968
 20
185.327849
 30
0.0
 11
28.64933023137837
 21
-1.713494943684462
 31
0.0
210
0.0
220
0.0
230
1.0
 40
0.016531
 41
0.0009886796639725
 42
0.0021906412414069
  0
LINE
  5
BC
330
1F
100
AcDbEntity
  8
LC-001-100-D00-0
 62
     7
370
    50
100
AcDbLine
 10
166.639692
 20
67.269487
 30
0.0
 11
166.639692
 21
81.264214
 31
0.0
  0
ELLIPSE
  5
BD
330
1F
100
AcDbEntity
  8
LC-001-100-D00-0
 62
     7
370
    15
100
AcDbEllipse
 10
95.767892
 20
173.959526
 30
0.0
 11
28.64933020576391
 21
-1.713494942152473
 31
0.0
210
0.0
220
0.0
230
1.0
 40
0.016531
 41
3.142581333254658
 42
3.143783294832189
  0
LINE
  5
BE
330
1F
100
AcDbEntity
  8
LC-001-100-D00-0
 62
     7
370
    50
100
AcDbLine
 10
-543.33412
 20
41.552858
 30
0.0
 11
-543.33412
 21
55.547585
 31
0.0
  0
ELLIPSE
  5
BF
330
1F
100
AcDbEntity
  8
LC-001-100-D00-0
 62
     7
370
    15
100
AcDbEllipse
 10
95.767892
 20
185.327849
 30
0.0
 11
28.64933025426056
 21
1.713494945053085
 31
0.0
210
0.0
220
0.0
230
1.0
 40
0.016531
 41
3.13940201234609
 42
3.140603973923569
  0
LINE
  5
C0
330
1F
100
AcDbEntity
  8
LC-001-100-D00-0
 62
     7
370
    50
100
AcDbLine
 10
-543.33412
 20
67.269487
 30
0.0
 11
-543.33412
 21
81.264214
 31
0.0
  0
LINE
  5
C1
330
1F
100
AcDbEntity
  8
LC-001-100-D00-0
 62
     7
370
    50
100
AcDbLine
 10
166.625417
 20
40.759425
 30
0.0
 11
166.639603
 21
41.549995
 31
0.0
  0
LINE
  5
C2
330
1F
100
AcDbEntity
  8
LC-001-100-D00-0
 62
     7
370
    50
100
AcDbLine
 10
166.625417
 20
82.057647
 30
0.0
 11
166.639603
 21
81.267077
 31
0.0
  0
LINE
  5
C3
330
1F
100
AcDbEntity
  8
LC-001-100-D00-0
 62
     7
370
    50
100
AcDbLine
 10
-543.319844
 20
40.759425
 30
0.0
 11
-543.33403
 21
41.549995
 31
0.0
  0
LINE
  5
C4
330
1F
100
AcDbEntity
  8
LC-001-100-D00-0
 62
     7
370
    50
100
AcDbLine
 10
-543.319844
 20
82.057647
 30
0.0
 11
-543.33403
 21
81.267077
 31
0.0
  0
ARC
  5
C5
330
1F
100
AcDbEntity
  8
LC-001-100-D00-0
 62
     7
370
    50
100
AcDbCircle
 10
-157.847222
 20
61.408556
 30
0.0
 40
24.80002105913775
100
AcDbArc
 50
270.0
 51
300.592807
  0
ARC
  5
C6
330
1F
100
AcDbEntity
  8
LC-001-100-D00-0
 62
     7
370
    50
100
AcDbCircle
 10
-218.847206
 20
61.408556
 30
0.0
 40
24.80002105913768
100
AcDbArc
 50
239.407193
 51
270.0
  0
ARC
  5
C7
330
1F
100
AcDbEntity
  8
LC-001-100-D00-0
 62
     7
370
    50
100
AcDbCircle
 10
-157.847219
 20
61.408523
 30
0.0
 40
24.80001358063619
100
AcDbArc
 50
59.407188
 51
90.0
  0
ARC
  5
C8
330
1F
100
AcDbEntity
  8
LC-001-100-D00-0
 62
     7
370
    50
100
AcDbCircle
 10
-218.847208
 20
61.408523
 30
0.0
 40
24.80001358063646
100
AcDbArc
 50
90.0
 51
120.592812
  0
LINE
  5
C9
330
1F
100
AcDbEntity
  8
LC-001-100-D00-0
 62
     7
370
    50
100
AcDbLine
 10
-218.847214
 20
86.208537
 30
0.0
 11
-157.847213
 21
86.208537
 31
0.0
  0
LINE
  5
CA
330
1F
100
AcDbEntity
  8
LC-001-100-D00-0
 62
     7
370
    50
100
AcDbLine
 10
-157.847213
 20
36.608535
 30
0.0
 11
-218.847214
 21
36.608535
 31
0.0
  0
LINE
  5
CB
330
1F
100
AcDbEntity
  8
LC-001-100-D00-0
 62
     7
370
    50
100
AcDbLine
 10
-255.180047
 20
64.847439
 30
0.0
 11
-255.171903
 21
64.479547
 31
0.0
  0
LINE
  5
CC
330
1F
100
AcDbEntity
  8
LC-001-100-D00-0
 62
     7
370
    50
100
AcDbLine
 10
-256.291323
 20
65.640408
 30
0.0
 11
-255.180047
 21
64.847439
 31
0.0
  0
LINE
  5
CD
330
1F
100
AcDbEntity
  8
LC-001-100-D00-0
 62
     7
370
    50
100
AcDbLine
 10
-255.180047
 20
66.433377
 30
0.0
 11
-256.291323
 21
65.640408
 31
0.0
  0
LINE
  5
CE
330
1F
100
AcDbEntity
  8
LC-001-100-D00-0
 62
     7
370
    50
100
AcDbLine
 10
-255.180047
 20
66.807075
 30
0.0
 11
-255.180047
 21
66.433377
 31
0.0
  0
LINE
  5
CF
330
1F
100
AcDbEntity
  8
LC-001-100-D00-0
 62
     7
370
    50
100
AcDbLine
 10
-256.553546
 20
65.827607
 30
0.0
 11
-255.180047
 21
66.807075
 31
0.0
  0
LINE
  5
D0
330
1F
100
AcDbEntity
  8
LC-001-100-D00-0
 62
     7
370
    50
100
AcDbLine
 10
-257.737742
 20
66.672459
 30
0.0
 11
-256.553546
 21
65.827607
 31
0.0
  0
LINE
  5
D1
330
1F
100
AcDbEntity
  8
LC-001-100-D00-0
 62
     7
370
    50
100
AcDbLine
 10
-257.737742
 20
66.298761
 30
0.0
 11
-257.737742
 21
66.672459
 31
0.0
  0
LINE
  5
D2
330
1F
100
AcDbEntity
  8
LC-001-100-D00-0
 62
     7
370
    50
100
AcDbLine
 10
-256.815062
 20
65.640408
 30
0.0
 11
-257.737742
 21
66.298761
 31
0.0
  0
LINE
  5
D3
330
1F
100
AcDbEntity
  8
LC-001-100-D00-0
 62
     7
370
    50
100
AcDbLine
 10
-257.737742
 20
64.982055
 30
0.0
 11
-256.815062
 21
65.640408
 31
0.0
  0
LINE
  5
D4
330
1F
100
AcDbEntity
  8
LC-001-100-D00-0
 62
     7
370
    50
100
AcDbLine
 10
-257.737742
 20
64.608356
 30
0.0
 11
-257.737742
 21
64.982055
 31
0.0
  0
LINE
  5
D5
330
1F
100
AcDbEntity
  8
LC-001-100-D00-0
 62
     7
370
    50
100
AcDbLine
 10
-256.553546
 20
65.453909
 30
0.0
 11
-257.737742
 21
64.608356
 31
0.0
  0
LINE
  5
D6
330
1F
100
AcDbEntity
  8
LC-001-100-D00-0
 62
     7
370
    50
100
AcDbLine
 10
-255.171903
 20
64.479547
 30
0.0
 11
-256.553546
 21
65.453909
 31
0.0
  0
LINE
  5
D7
330
1F
100
AcDbEntity
  8
LC-001-100-D00-0
 62
     7
370
    50
100
AcDbLine
 10
-255.180047
 20
60.180772
 30
0.0
 11
-255.171903
 21
59.812881
 31
0.0
  0
LINE
  5
D8
330
1F
100
AcDbEntity
  8
LC-001-100-D00-0
 62
     7
370
    50
100
AcDbLine
 10
-256.291323
 20
60.973741
 30
0.0
 11
-255.180047
 21
60.180772
 31
0.0
  0
LINE
  5
D9
330
1F
100
AcDbEntity
  8
LC-001-100-D00-0
 62
     7
370
    50
100
AcDbLine
 10
-255.180047
 20
61.76671
 30
0.0
 11
-256.291323
 21
60.973741
 31
0.0
  0
LINE
  5
DA
330
1F
100
AcDbEntity
  8
LC-001-100-D00-0
 62
     7
370
    50
100
AcDbLine
 10
-255.180047
 20
62.140408
 30
0.0
 11
-255.180047
 21
61.76671
 31
0.0
  0
LINE
  5
DB
330
1F
100
AcDbEntity
  8
LC-001-100-D00-0
 62
     7
370
    50
100
AcDbLine
 10
-256.553546
 20
61.160941
 30
0.0
 11
-255.180047
 21
62.140408
 31
0.0
  0
LINE
  5
DC
330
1F
100
AcDbEntity
  8
LC-001-100-D00-0
 62
     7
370
    50
100
AcDbLine
 10
-257.737742
 20
62.005792
 30
0.0
 11
-256.553546
 21
61.160941
 31
0.0
  0
LINE
  5
DD
330
1F
100
AcDbEntity
  8
LC-001-100-D00-0
 62
     7
370
    50
100
AcDbLine
 10
-257.737742
 20
61.632095
 30
0.0
 11
-257.737742
 21
62.005792
 31
0.0
  0
LINE
  5
DE
330
1F
100
AcDbEntity
  8
LC-001-100-D00-0
 62
     7
370
    50
100
AcDbLine
 10
-256.815062
 20
60.973741
 30
0.0
 11
-257.737742
 21
61.632095
 31
0.0
  0
LINE
  5
DF
330
1F
100
AcDbEntity
  8
LC-001-100-D00-0
 62
     7
370
    50
100
AcDbLine
 10
-257.737742
 20
60.315388
 30
0.0
 11
-256.815062
 21
60.973741
 31
0.0
  0
LINE
  5
E0
330
1F
100
AcDbEntity
  8
LC-001-100-D00-0
 62
     7
370
    50
100
AcDbLine
 10
-257.737742
 20
59.94169
 30
0.0
 11
-257.737742
 21
60.315388
 31
0.0
  0
LINE
  5
E1
330
1F
100
AcDbEntity
  8
LC-001-100-D00-0
 62
     7
370
    50
100
AcDbLine
 10
-256.553546
 20
60.787243
 30
0.0
 11
-257.737742
 21
59.94169
 31
0.0
  0
LINE
  5
E2
330
1F
100
AcDbEntity
  8
LC-001-100-D00-0
 62
     7
370
    50
100
AcDbLine
 10
-255.171903
 20
59.812881
 30
0.0
 11
-256.553546
 21
60.787243
 31
0.0
  0
LINE
  5
E3
330
1F
100
AcDbEntity
  8
LC-001-100-D00-0
 62
     7
370
    50
100
AcDbLine
 10
-255.180047
 20
55.514106
 30
0.0
 11
-255.171903
 21
55.146214
 31
0.0
  0
LINE
  5
E4
330
1F
100
AcDbEntity
  8
LC-001-100-D00-0
 62
     7
370
    50
100
AcDbLine
 10
-256.291323
 20
56.307075
 30
0.0
 11
-255.180047
 21
55.514106
 31
0.0
  0
LINE
  5
E5
330
1F
100
AcDbEntity
  8
LC-001-100-D00-0
 62
     7
370
    50
100
AcDbLine
 10
-255.180047
 20
57.100043
 30
0.0
 11
-256.291323
 21
56.307075
 31
0.0
  0
LINE
  5
E6
330
1F
100
AcDbEntity
  8
LC-001-100-D00-0
 62
     7
370
    50
100
AcDbLine
 10
-255.180047
 20
57.473741
 30
0.0
 11
-255.180047
 21
57.100043
 31
0.0
  0
LINE
  5
E7
330
1F
100
AcDbEntity
  8
LC-001-100-D00-0
 62
     7
370
    50
100
AcDbLine
 10
-256.553546
 20
56.494274
 30
0.0
 11
-255.180047
 21
57.473741
 31
0.0
  0
LINE
  5
E8
330
1F
100
AcDbEntity
  8
LC-001-100-D00-0
 62
     7
370
    50
100
AcDbLine
 10
-257.737742
 20
57.339126
 30
0.0
 11
-256.553546
 21
56.494274
 31
0.0
  0
LINE
  5
E9
330
1F
100
AcDbEntity
  8
LC-001-100-D00-0
 62
     7
370
    50
100
AcDbLine
 10
-257.737742
 20
56.965428
 30
0.0
 11
-257.737742
 21
57.339126
 31
0.0
  0
LINE
  5
EA
330
1F
100
AcDbEntity
  8
LC-001-100-D00-0
 62
     7
370
    50
100
AcDbLine
 10
-256.815062
 20
56.307075
 30
0.0
 11
-257.737742
 21
56.965428
 31
0.0
  0
LINE
  5
EB
330
1F
100
AcDbEntity
  8
LC-001-100-D00-0
 62
     7
370
    50
100
AcDbLine
 10
-257.737742
 20
55.648721
 30
0.0
 11
-256.815062
 21
56.307075
 31
0.0
  0
LINE
  5
EC
330
1F
100
AcDbEntity
  8
LC-001-100-D00-0
 62
     7
370
    50
100
AcDbLine
 10
-257.737742
 20
55.275023
 30
0.0
 11
-257.737742
 21
55.648721
 31
0.0
  0
LINE
  5
ED
330
1F
100
AcDbEntity
  8
LC-001-100-D00-0
 62
     7
370
    50
100
AcDbLine
 10
-256.553546
 20
56.120576
 30
0.0
 11
-257.737742
 21
55.275023
 31
0.0
  0
LINE
  5
EE
330
1F
100
AcDbEntity
  8
LC-001-100-D00-0
 62
     7
370
    50
100
AcDbLine
 10
-255.171903
 20
55.146214
 30
0.0
 11
-256.553546
 21
56.120576
 31
0.0
  0
LINE
  5
EF
330
1F
100
AcDbEntity
  8
LC-001-100-D00-0
 62
     7
370
    50
100
AcDbLine
 10
-255.180047
 20
53.180772
 30
0.0
 11
-255.180047
 21
52.807075
 31
0.0
  0
LINE
  5
F0
330
1F
100
AcDbEntity
  8
LC-001-100-D00-0
 62
     7
370
    50
100
AcDbLine
 10
-256.291323
 20
53.973741
 30
0.0
 11
-255.180047
 21
53.180772
 31
0.0
  0
LINE
  5
F1
330
1F
100
AcDbEntity
  8
LC-001-100-D00-0
 62
     7
370
    50
100
AcDbLine
 10
-255.180047
 20
54.76671
 30
0.0
 11
-256.291323
 21
53.973741
 31
0.0
  0
LINE
  5
F2
330
1F
100
AcDbEntity
  8
LC-001-100-D00-0
 62
     7
370
    50
100
AcDbLine
 10
-255.180047
 20
55.140408
 30
0.0
 11
-255.180047
 21
54.76671
 31
0.0
  0
LINE
  5
F3
330
1F
100
AcDbEntity
  8
LC-001-100-D00-0
 62
     7
370
    50
100
AcDbLine
 10
-256.553546
 20
54.160941
 30
0.0
 11
-255.180047
 21
55.140408
 31
0.0
  0
LINE
  5
F4
330
1F
100
AcDbEntity
  8
LC-001-100-D00-0
 62
     7
370
    50
100
AcDbLine
 10
-257.737742
 20
55.005793
 30
0.0
 11
-256.553546
 21
54.160941
 31
0.0
  0
LINE
  5
F5
330
1F
100
AcDbEntity
  8
LC-001-100-D00-0
 62
     7
370
    50
100
AcDbLine
 10
-257.737742
 20
54.632095
 30
0.0
 11
-257.737742
 21
55.005793
 31
0.0
  0
LINE
  5
F6
330
1F
100
AcDbEntity
  8
LC-001-100-D00-0
 62
     7
370
    50
100
AcDbLine
 10
-256.815062
 20
53.973741
 30
0.0
 11
-257.737742
 21
54.632095
 31
0.0
  0
LINE
  5
F7
330
1F
100
AcDbEntity
  8
LC-001-100-D00-0
 62
     7
370
    50
100
AcDbLine
 10
-257.737742
 20
53.315388
 30
0.0
 11
-256.815062
 21
53.973741
 31
0.0
  0
LINE
  5
F8
330
1F
100
AcDbEntity
  8
LC-001-100-D00-0
 62
     7
370
    50
100
AcDbLine
 10
-257.737742
 20
52.94169
 30
0.0
 11
-257.737742
 21
53.315388
 31
0.0
  0
LINE
  5
F9
330
1F
100
AcDbEntity
  8
LC-001-100-D00-0
 62
     7
370
    50
100
AcDbLine
 10
-256.553546
 20
53.787243
 30
0.0
 11
-257.737742
 21
52.94169
 31
0.0
  0
LINE
  5
FA
330
1F
100
AcDbEntity
  8
LC-001-100-D00-0
 62
     7
370
    50
100
AcDbLine
 10
-255.180047
 20
52.807075
 30
0.0
 11
-256.553546
 21
53.787243
 31
0.0
  0
LINE
  5
FB
330
1F
100
AcDbEntity
  8
LC-001-100-D00-0
 62
     7
370
    50
100
AcDbLine
 10
-255.180047
 20
57.847439
 30
0.0
 11
-255.171903
 21
57.479547
 31
0.0
  0
LINE
  5
FC
330
1F
100
AcDbEntity
  8
LC-001-100-D00-0
 62
     7
370
    50
100
AcDbLine
 10
-256.291323
 20
58.640408
 30
0.0
 11
-255.180047
 21
57.847439
 31
0.0
  0
LINE
  5
FD
330
1F
100
AcDbEntity
  8
LC-001-100-D00-0
 62
     7
370
    50
100
AcDbLine
 10
-255.180047
 20
59.433377
 30
0.0
 11
-256.291323
 21
58.640408
 31
0.0
  0
LINE
  5
FE
330
1F
100
AcDbEntity
  8
LC-001-100-D00-0
 62
     7
370
    50
100
AcDbLine
 10
-255.180047
 20
59.807075
 30
0.0
 11
-255.180047
 21
59.433377
 31
0.0
  0
LINE
  5
FF
330
1F
100
AcDbEntity
  8
LC-001-100-D00-0
 62
     7
370
    50
100
AcDbLine
 10
-256.553546
 20
58.827607
 30
0.0
 11
-255.180047
 21
59.807075
 31
0.0
  0
LINE
  5
100
330
1F
100
AcDbEntity
  8
LC-001-100-D00-0
 62
     7
370
    50
100
AcDbLine
 10
-257.737742
 20
59.672459
 30
0.0
 11
-256.553546
 21
58.827607
 31
0.0
  0
LINE
  5
101
330
1F
100
AcDbEntity
  8
LC-001-100-D00-0
 62
     7
370
    50
100
AcDbLine
 10
-257.737742
 20
59.298761
 30
0.0
 11
-257.737742
 21
59.672459
 31
0.0
  0
LINE
  5
102
330
1F
100
AcDbEntity
  8
LC-001-100-D00-0
 62
     7
370
    50
100
AcDbLine
 10
-256.815062
 20
58.640408
 30
0.0
 11
-257.737742
 21
59.298761
 31
0.0
  0
LINE
  5
103
330
1F
100
AcDbEntity
  8
LC-001-100-D00-0
 62
     7
370
    50
100
AcDbLine
 10
-257.737742
 20
57.982055
 30
0.0
 11
-256.815062
 21
58.640408
 31
0.0
  0
LINE
  5
104
330
1F
100
AcDbEntity
  8
LC-001-100-D00-0
 62
     7
370
    50
100
AcDbLine
 10
-257.737742
 20
57.608357
 30
0.0
 11
-257.737742
 21
57.982055
 31
0.0
  0
LINE
  5
105
330
1F
100
AcDbEntity
  8
LC-001-100-D00-0
 62
     7
370
    50
100
AcDbLine
 10
-256.553546
 20
58.453909
 30
0.0
 11
-257.737742
 21
57.608357
 31
0.0
  0
LINE
  5
106
330
1F
100
AcDbEntity
  8
LC-001-100-D00-0
 62
     7
370
    50
100
AcDbLine
 10
-255.171903
 20
57.479547
 30
0.0
 11
-256.553546
 21
58.453909
 31
0.0
  0
LINE
  5
107
330
1F
100
AcDbEntity
  8
LC-001-100-D00-0
 62
     7
370
    50
100
AcDbLine
 10
-255.180047
 20
62.514106
 30
0.0
 11
-255.171903
 21
62.146214
 31
0.0
  0
LINE
  5
108
330
1F
100
AcDbEntity
  8
LC-001-100-D00-0
 62
     7
370
    50
100
AcDbLine
 10
-256.291323
 20
63.307075
 30
0.0
 11
-255.180047
 21
62.514106
 31
0.0
  0
LINE
  5
109
330
1F
100
AcDbEntity
  8
LC-001-100-D00-0
 62
     7
370
    50
100
AcDbLine
 10
-255.180047
 20
64.100043
 30
0.0
 11
-256.291323
 21
63.307075
 31
0.0
  0
LINE
  5
10A
330
1F
100
AcDbEntity
  8
LC-001-100-D00-0
 62
     7
370
    50
100
AcDbLine
 10
-255.180047
 20
64.473741
 30
0.0
 11
-255.180047
 21
64.100043
 31
0.0
  0
LINE
  5
10B
330
1F
100
AcDbEntity
  8
LC-001-100-D00-0
 62
     7
370
    50
100
AcDbLine
 10
-256.553546
 20
63.494274
 30
0.0
 11
-255.180047
 21
64.473741
 31
0.0
  0
LINE
  5
10C
330
1F
100
AcDbEntity
  8
LC-001-100-D00-0
 62
     7
370
    50
100
AcDbLine
 10
-257.737742
 20
64.339126
 30
0.0
 11
-256.553546
 21
63.494274
 31
0.0
  0
LINE
  5
10D
330
1F
100
AcDbEntity
  8
LC-001-100-D00-0
 62
     7
370
    50
100
AcDbLine
 10
-257.737742
 20
63.965428
 30
0.0
 11
-257.737742
 21
64.339126
 31
0.0
  0
LINE
  5
10E
330
1F
100
AcDbEntity
  8
LC-001-100-D00-0
 62
     7
370
    50
100
AcDbLine
 10
-256.815062
 20
63.307075
 30
0.0
 11
-257.737742
 21
63.965428
 31
0.0
  0
LINE
  5
10F
330
1F
100
AcDbEntity
  8
LC-001-100-D00-0
 62
     7
370
    50
100
AcDbLine
 10
-257.737742
 20
62.648721
 30
0.0
 11
-256.815062
 21
63.307075
 31
0.0
  0
LINE
  5
110
330
1F
100
AcDbEntity
  8
LC-001-100-D00-0
 62
     7
370
    50
100
AcDbLine
 10
-257.737742
 20
62.275023
 30
0.0
 11
-257.737742
 21
62.648721
 31
0.0
  0
LINE
  5
111
330
1F
100
AcDbEntity
  8
LC-001-100-D00-0
 62
     7
370
    50
100
AcDbLine
 10
-256.553546
 20
63.120576
 30
0.0
 11
-257.737742
 21
62.275023
 31
0.0
  0
LINE
  5
112
330
1F
100
AcDbEntity
  8
LC-001-100-D00-0
 62
     7
370
    50
100
AcDbLine
 10
-255.171903
 20
62.146214
 30
0.0
 11
-256.553546
 21
63.120576
 31
0.0
  0
ARC
  5
113
330
1F
100
AcDbEntity
  8
LC-001-100-D00-0
 62
     7
370
    50
100
AcDbCircle
 10
-157.847214
 20
61.408536
 30
0.0
 40
24.79999999999453
100
AcDbArc
 50
300.592814
 51
59.407186
  0
ARC
  5
114
330
1F
100
AcDbEntity
  8
LC-001-100-D00-0
 62
     7
370
    50
100
AcDbCircle
 10
-218.847214
 20
61.408536
 30
0.0
 40
24.79999999999465
100
AcDbArc
 50
120.592814
 51
239.407186
  0
LINE
  5
115
330
1F
100
AcDbEntity
  8
LC-001-100-D00-0
 62
     7
370
    50
100
AcDbLine
 10
114.902786
 20
74.658536
 30
0.0
 11
114.902786
 21
48.158536
 31
0.0
  0
ARC
  5
116
330
1F
100
AcDbEntity
  8
LC-001-100-D00-0
 62
     7
370
    50
100
AcDbCircle
 10
109.902786
 20
74.658536
 30
0.0
 40
5.0
100
AcDbArc
 50
0.0
 51
90.0
  0
ARC
  5
117
330
1F
100
AcDbEntity
  8
LC-001-100-D00-0
 62
     7
370
    50
100
AcDbCircle
 10
109.902786
 20
48.158536
 30
0.0
 40
5.0
100
AcDbArc
 50
270.0
 51
0.0
  0
CIRCLE
  5
118
330
1F
100
AcDbEntity
  8
LC-001-100-D00-0
 62
     7
370
    50
100
AcDbCircle
 10
96.652786
 20
61.408536
 30
0.0
 40
3.899999999999864
  0
LINE
  5
119
330
1F
100
AcDbEntity
  8
LC-001-100-D00-0
 62
     7
370
    50
100
AcDbLine
 10
109.902786
 20
43.158536
 30
0.0
 11
83.402786
 21
43.158536
 31
0.0
  0
LINE
  5
11A
330
1F
100
AcDbEntity
  8
LC-001-100-D00-0
 62
     7
370
    50
100
AcDbLine
 10
83.402786
 20
79.658536
 30
0.0
 11
109.902786
 21
79.658536
 31
0.0
  0
ARC
  5
11B
330
1F
100
AcDbEntity
  8
LC-001-100-D00-0
 62
     7
370
    50
100
AcDbCircle
 10
83.402786
 20
48.158536
 30
0.0
 40
5.0
100
AcDbArc
 50
180.0
 51
270.0
  0
ARC
  5
11C
330
1F
100
AcDbEntity
  8
LC-001-100-D00-0
 62
     7
370
    50
100
AcDbCircle
 10
83.402786
 20
74.658536
 30
0.0
 40
5.0
100
AcDbArc
 50
90.0
 51
180.0
  0
LINE
  5
11D
330
1F
100
AcDbEntity
  8
LC-001-100-D00-0
 62
     7
370
    50
100
AcDbLine
 10
78.402786
 20
48.158536
 30
0.0
 11
78.402786
 21
74.658536
 31
0.0
  0
ARC
  5
11E
330
1F
100
AcDbEntity
  8
LC-001-100-D00-0
 62
     7
370
    50
100
AcDbCircle
 10
-460.097214
 20
48.158536
 30
0.0
 40
5.0
100
AcDbArc
 50
270.0
 51
0.0
  0
LINE
  5
11F
330
1F
100
AcDbEntity
  8
LC-001-100-D00-0
 62
     7
370
    50
100
AcDbLine
 10
-455.097214
 20
74.658536
 30
0.0
 11
-455.097214
 21
48.158536
 31
0.0
  0
ARC
  5
120
330
1F
100
AcDbEntity
  8
LC-001-100-D00-0
 62
     7
370
    50
100
AcDbCircle
 10
-460.097214
 20
74.658536
 30
0.0
 40
5.0
100
AcDbArc
 50
0.0
 51
90.0
  0
CIRCLE
  5
121
330
1F
100
AcDbEntity
  8
LC-001-100-D00-0
 62
     7
370
    50
100
AcDbCircle
 10
-473.347214
 20
61.408536
 30
0.0
 40
3.899999999999864
  0
LINE
  5
122
330
1F
100
AcDbEntity
  8
LC-001-100-D00-0
 62
     7
370
    50
100
AcDbLine
 10
-486.597214
 20
79.658536
 30
0.0
 11
-460.097214
 21
79.658536
 31
0.0
  0
LINE
  5
123
330
1F
100
AcDbEntity
  8
LC-001-100-D00-0
 62
     7
370
    50
100
AcDbLine
 10
-460.097214
 20
43.158536
 30
0.0
 11
-486.597214
 21
43.158536
 31
0.0
  0
ARC
  5
124
330
1F
100
AcDbEntity
  8
LC-001-100-D00-0
 62
     7
370
    50
100
AcDbCircle
 10
-486.597214
 20
48.158536
 30
0.0
 40
5.0
100
AcDbArc
 50
180.0
 51
270.0
  0
ARC
  5
125
330
1F
100
AcDbEntity
  8
LC-001-100-D00-0
 62
     7
370
    50
100
AcDbCircle
 10
-486.597214
 20
74.658536
 30
0.0
 40
5.0
100
AcDbArc
 50
90.0
 51
180.0
  0
LINE
  5
126
330
1F
100
AcDbEntity
  8
LC-001-100-D00-0
 62
     7
370
    50
100
AcDbLine
 10
-491.597214
 20
48.158536
 30
0.0
 11
-491.597214
 21
74.658536
 31
0.0
  0
ARC
  5
127
330
1F
100
AcDbEntity
  8
LC-001-100-D00-0
 62
     7
370
    50
100
AcDbCircle
 10
-75.097214
 20
74.658536
 30
0.0
 40
5.0
100
AcDbArc
 50
0.0
 51
90.0
  0
LINE
  5
128
330
1F
100
AcDbEntity
  8
LC-001-100-D00-0
 62
     7
370
    50
100
AcDbLine
 10
-70.097214
 20
74.658536
 30
0.0
 11
-70.097214
 21
48.158536
 31
0.0
  0
ARC
  5
129
330
1F
100
AcDbEntity
  8
LC-001-100-D00-0
 62
     7
370
    50
100
AcDbCircle
 10
-75.097214
 20
48.158536
 30
0.0
 40
5.0
100
AcDbArc
 50
270.0
 51
0.0
  0
CIRCLE
  5
12A
330
1F
100
AcDbEntity
  8
LC-001-100-D00-0
 62
     7
370
    50
100
AcDbCircle
 10
-88.347214
 20
61.408536
 30
0.0
 40
3.899999999999864
  0
LINE
  5
12B
330
1F
100
AcDbEntity
  8
LC-001-100-D00-0
 62
     7
370
    50
100
AcDbLine
 10
-75.097214
 20
43.158536
 30
0.0
 11
-101.597214
 21
43.158536
 31
0.0
  0
LINE
  5
12C
330
1F
100
AcDbEntity
  8
LC-001-100-D00-0
 62
     7
370
    50
100
AcDbLine
 10
-101.597214
 20
79.658536
 30
0.0
 11
-75.097214
 21
79.658536
 31
0.0
  0
ARC
  5
12D
330
1F
100
AcDbEntity
  8
LC-001-100-D00-0
 62
     7
370
    50
100
AcDbCircle
 10
-101.597214
 20
74.658536
 30
0.0
 40
5.0
100
AcDbArc
 50
90.0
 51
180.0
  0
ARC
  5
12E
330
1F
100
AcDbEntity
  8
LC-001-100-D00-0
 62
     7
370
    50
100
AcDbCircle
 10
-101.597214
 20
48.158536
 30
0.0
 40
5.0
100
AcDbArc
 50
180.0
 51
270.0
  0
LINE
  5
12F
330
1F
100
AcDbEntity
  8
LC-001-100-D00-0
 62
     7
370
    50
100
AcDbLine
 10
-106.597214
 20
48.158536
 30
0.0
 11
-106.597214
 21
74.658536
 31
0.0
  0
LINE
  5
130
330
1F
100
AcDbEntity
  8
LC-001-100-D00-0
 62
     7
370
    50
100
AcDbLine
 10
-270.097214
 20
74.658536
 30
0.0
 11
-270.097214
 21
48.158536
 31
0.0
  0
ARC
  5
131
330
1F
100
AcDbEntity
  8
LC-001-100-D00-0
 62
     7
370
    50
100
AcDbCircle
 10
-275.097214
 20
48.158536
 30
0.0
 40
5.0
100
AcDbArc
 50
270.0
 51
0.0
  0
ARC
  5
132
330
1F
100
AcDbEntity
  8
LC-001-100-D00-0
 62
     7
370
    50
100
AcDbCircle
 10
-275.097214
 20
74.658536
 30
0.0
 40
5.0
100
AcDbArc
 50
0.0
 51
90.0
  0
CIRCLE
  5
133
330
1F
100
AcDbEntity
  8
LC-001-100-D00-0
 62
     7
370
    50
100
AcDbCircle
 10
-288.347214
 20
61.408536
 30
0.0
 40
3.899999999999864
  0
LINE
  5
134
330
1F
100
AcDbEntity
  8
LC-001-100-D00-0
 62
     7
370
    50
100
AcDbLine
 10
-275.097214
 20
43.158536
 30
0.0
 11
-301.597214
 21
43.158536
 31
0.0
  0
LINE
  5
135
330
1F
100
AcDbEntity
  8
LC-001-100-D00-0
 62
     7
370
    50
100
AcDbLine
 10
-301.597214
 20
79.658536
 30
0.0
 11
-275.097214
 21
79.658536
 31
0.0
  0
ARC
  5
136
330
1F
100
AcDbEntity
  8
LC-001-100-D00-0
 62
     7
370
    50
100
AcDbCircle
 10
-301.597214
 20
48.158536
 30
0.0
 40
5.0
100
AcDbArc
 50
180.0
 51
270.0
  0
ARC
  5
137
330
1F
100
AcDbEntity
  8
LC-001-100-D00-0
 62
     7
370
    50
100
AcDbCircle
 10
-301.597214
 20
74.658536
 30
0.0
 40
5.0
100
AcDbArc
 50
90.0
 51
180.0
  0
LINE
  5
138
330
1F
100
AcDbEntity
  8
LC-001-100-D00-0
 62
     7
370
    50
100
AcDbLine
 10
-306.597214
 20
48.158536
 30
0.0
 11
-306.597214
 21
74.658536
 31
0.0
  0
ARC
  5
139
330
1F
100
AcDbEntity
  8
LC-001-100-D00-0
 62
     7
370
    50
100
AcDbCircle
 10
-645.097214
 20
48.158536
 30
0.0
 40
5.0
100
AcDbArc
 50
270.0
 51
0.0
  0
ARC
  5
13A
330
1F
100
AcDbEntity
  8
LC-001-100-D00-0
 62
     7
370
    50
100
AcDbCircle
 10
-645.097214
 20
74.658536
 30
0.0
 40
5.0
100
AcDbArc
 50
0.0
 51
90.0
  0
LINE
  5
13B
330
1F
100
AcDbEntity
  8
LC-001-100-D00-0
 62
     7
370
    50
100
AcDbLine
 10
-640.097214
 20
74.658536
 30
0.0
 11
-640.097214
 21
48.158536
 31
0.0
  0
CIRCLE
  5
13C
330
1F
100
AcDbEntity
  8
LC-001-100-D00-0
 62
     7
370
    50
100
AcDbCircle
 10
-658.347214
 20
61.408536
 30
0.0
 40
3.899999999999864
  0
LINE
  5
13D
330
1F
100
AcDbEntity
  8
LC-001-100-D00-0
 62
     7
370
    50
100
AcDbLine
 10
-645.097214
 20
43.158536
 30
0.0
 11
-671.597214
 21
43.158536
 31
0.0
  0
LINE
  5
13E
330
1F
100
AcDbEntity
  8
LC-001-100-D00-0
 62
     7
370
    50
100
AcDbLine
 10
-671.597214
 20
79.658536
 30
0.0
 11
-645.097214
 21
79.658536
 31
0.0
  0
ARC
  5
13F
330
1F
100
AcDbEntity
  8
LC-001-100-D00-0
 62
     7
370
    50
100
AcDbCircle
 10
-671.597214
 20
74.658536
 30
0.0
 40
5.0
100
AcDbArc
 50
90.0
 51
180.0
  0
ARC
  5
140
330
1F
100
AcDbEntity
  8
LC-001-100-D00-0
 62
     7
370
    50
100
AcDbCircle
 10
-671.597214
 20
48.158536
 30
0.0
 40
5.0
100
AcDbArc
 50
180.0
 51
270.0
  0
LINE
  5
141
330
1F
100
AcDbEntity
  8
LC-001-100-D00-0
 62
     7
370
    50
100
AcDbLine
 10
-676.597214
 20
48.158536
 30
0.0
 11
-676.597214
 21
74.658536
 31
0.0
  0
LINE
  5
142
330
1F
100
AcDbEntity
  8
LC-001-100-D00-0
 62
     7
370
    50
100
AcDbLine
 10
299.902786
 20
74.658536
 30
0.0
 11
299.902786
 21
48.158536
 31
0.0
  0
ARC
  5
143
330
1F
100
AcDbEntity
  8
LC-001-100-D00-0
 62
     7
370
    50
100
AcDbCircle
 10
294.902786
 20
74.658536
 30
0.0
 40
5.0
100
AcDbArc
 50
0.0
 51
90.0
  0
ARC
  5
144
330
1F
100
AcDbEntity
  8
LC-001-100-D00-0
 62
     7
370
    50
100
AcDbCircle
 10
294.902786
 20
48.158536
 30
0.0
 40
5.0
100
AcDbArc
 50
270.0
 51
0.0
  0
CIRCLE
  5
145
330
1F
100
AcDbEntity
  8
LC-001-100-D00-0
 62
     7
370
    50
100
AcDbCircle
 10
281.652786
 20
61.408536
 30
0.0
 40
3.899999999999864
  0
LINE
  5
146
330
1F
100
AcDbEntity
  8
LC-001-100-D00-0
 62
     7
370
    50
100
AcDbLine
 10
294.902786
 20
43.158536
 30
0.0
 11
268.402786
 21
43.158536
 31
0.0
  0
LINE
  5
147
330
1F
100
AcDbEntity
  8
LC-001-100-D00-0
 62
     7
370
    50
100
AcDbLine
 10
268.402786
 20
79.658536
 30
0.0
 11
294.902786
 21
79.658536
 31
0.0
  0
ARC
  5
148
330
1F
100
AcDbEntity
  8
LC-001-100-D00-0
 62
     7
370
    50
100
AcDbCircle
 10
268.402786
 20
74.658536
 30
0.0
 40
5.0
100
AcDbArc
 50
90.0
 51
180.0
  0
ARC
  5
149
330
1F
100
AcDbEntity
  8
LC-001-100-D00-0
 62
     7
370
    50
100
AcDbCircle
 10
268.402786
 20
48.158536
 30
0.0
 40
5.0
100
AcDbArc
 50
180.0
 51
270.0
  0
LINE
  5
14A
330
1F
100
AcDbEntity
  8
LC-001-100-D00-0
 62
     7
370
    50
100
AcDbLine
 10
263.402786
 20
48.158536
 30
0.0
 11
263.402786
 21
74.658536
 31
0.0
  0
LINE
  5
14B
330
1F
100
AcDbEntity
  8
LC-001-100-D00-0
 62
     7
370
    50
100
AcDbLine
 10
-218.847214
 20
37.408536
 30
0.0
 11
-157.847214
 21
37.408536
 31
0.0
  0
ARC
  5
14C
330
1F
100
AcDbEntity
  8
LC-001-100-D00-0
 62
     7
370
    50
100
AcDbCircle
 10
-218.847214
 20
61.408536
 30
0.0
 40
24.0
100
AcDbArc
 50
90.0
 51
270.0
  0
LINE
  5
14D
330
1F
100
AcDbEntity
  8
LC-001-100-D00-0
 62
     7
370
    50
100
AcDbLine
 10
-157.847214
 20
85.408536
 30
0.0
 11
-218.847214
 21
85.408536
 31
0.0
  0
ARC
  5
14E
330
1F
100
AcDbEntity
  8
LC-001-100-D00-0
 62
     7
370
    50
100
AcDbCircle
 10
-157.847214
 20
61.408536
 30
0.0
 40
24.0
100
AcDbArc
 50
270.0
 51
90.0
  0
ARC
  5
14F
330
1F
100
AcDbEntity
  8
LC-001-100-D00-0
 62
     7
370
    50
100
AcDbCircle
 10
-176.847214
 20
61.408536
 30
0.0
 40
16.00000000000023
100
AcDbArc
 50
270.0
 51
90.0
  0
LINE
  5
150
330
1F
100
AcDbEntity
  8
LC-001-100-D00-0
 62
     7
370
    50
100
AcDbLine
 10
-199.847214
 20
45.408536
 30
0.0
 11
-176.847214
 21
45.408536
 31
0.0
  0
LINE
  5
151
330
1F
100
AcDbEntity
  8
LC-001-100-D00-0
 62
     7
370
    50
100
AcDbLine
 10
-176.847214
 20
77.408536
 30
0.0
 11
-199.847214
 21
77.408536
 31
0.0
  0
ARC
  5
152
330
1F
100
AcDbEntity
  8
LC-001-100-D00-0
 62
     7
370
    50
100
AcDbCircle
 10
-199.847214
 20
61.408536
 30
0.0
 40
16.00000000000023
100
AcDbArc
 50
90.0
 51
270.0
  0
DIMENSION
  5
155
330
1F
100
AcDbEntity
  8
LC-001-100-D00-0
 62
     7
370
    25
100
AcDbDimension
  2
*D15
 10
461.128986
 20
-16.091464
 30
0.0
 11
406.128986
 21
59.189886
 31
0.0
 70
   160
  1
155
 71
     5
 42
155.0
 53
90.0
  3
LC-DIM-L-0100-02-02
100
AcDbAlignedDimension
 13
356.652786
 23
138.908536
 33
0.0
 14
356.652786
 24
-16.091464
 34
0.0
 50
90.0
100
AcDbRotatedDimension
  0
LINE
  5
164
330
1F
100
AcDbEntity
  8
LC-001-100-D00-0
  6
DASHDOT
 62
     7
370
    25
100
AcDbLine
 10
-743.347214
 20
61.408536
 30
0.0
 11
366.652786
 21
61.408536
 31
0.0
  0
LINE
  5
165
330
1F
100
AcDbEntity
  8
LC-001-100-D00-0
  6
DASHDOT
 62
     7
370
    25
100
AcDbLine
 10
-188.347214
 20
143.908536
 30
0.0
 11
-188.347214
 21
-21.091464
 31
0.0
  0
LINE
  5
166
330
1F
100
AcDbEntity
  8
LC-001-100-D00-0
 62
     7
370
    50
100
AcDbLine
 10
-133.097202
 20
473.134858
 30
0.0
 11
-131.297202
 21
473.134858
 31
0.0
  0
LINE
  5
167
330
1F
100
AcDbEntity
  8
LC-001-100-D00-0
 62
     7
370
    50
100
AcDbLine
 10
-245.397202
 20
473.134858
 30
0.0
 11
-243.597202
 21
473.134858
 31
0.0
  0
LINE
  5
168
330
1F
100
AcDbEntity
  8
LC-001-100-D00-0
 62
     7
370
    50
100
AcDbLine
 10
-75.099406
 20
400.774844
 30
0.0
 11
-75.099406
 21
402.557765
 31
0.0
  0
LINE
  5
169
330
1F
100
AcDbEntity
  8
LC-001-100-D00-0
 62
     7
370
    50
100
AcDbLine
 10
-75.099406
 20
452.991923
 30
0.0
 11
-75.099406
 21
454.774844
 31
0.0
  0
LINE
  5
16A
330
1F
100
AcDbEntity
  8
LC-001-100-D00-0
 62
     7
370
    50
100
AcDbLine
 10
-79.099406
 20
454.774844
 30
0.0
 11
-79.099406
 21
452.991923
 31
0.0
  0
LINE
  5
16B
330
1F
100
AcDbEntity
  8
LC-001-100-D00-0
 62
     7
370
    50
100
AcDbLine
 10
-79.099406
 20
402.557765
 30
0.0
 11
-79.099406
 21
400.774844
 31
0.0
  0
LINE
  5
16C
330
1F
100
AcDbEntity
  8
LC-001-100-D00-0
 62
     7
370
    50
100
AcDbLine
 10
-148.632787
 20
471.274844
 30
0.0
 11
-148.632787
 21
469.774844
 31
0.0
  0
LINE
  5
16D
330
1F
100
AcDbEntity
  8
LC-001-100-D00-0
 62
     7
370
    50
100
AcDbLine
 10
-228.061617
 20
469.774844
 30
0.0
 11
-228.061617
 21
471.274844
 31
0.0
  0
ARC
  5
16E
330
1F
100
AcDbEntity
  8
LC-001-100-D00-0
 62
     7
370
    50
100
AcDbCircle
 10
-547.347202
 20
378.274844
 30
0.0
 40
0.5000000000004548
100
AcDbArc
 50
90.0
 51
180.0
  0
ARC
  5
16F
330
1F
100
AcDbEntity
  8
LC-001-100-D00-0
 62
     7
370
    50
100
AcDbCircle
 10
-529.347202
 20
378.274844
 30
0.0
 40
0.5000000000002274
100
AcDbArc
 50
0.0
 51
90.0
  0
LINE
  5
170
330
1F
100
AcDbEntity
  8
LC-001-100-D00-0
 62
     7
370
    50
100
AcDbLine
 10
-547.847202
 20
378.274844
 30
0.0
 11
-547.847202
 21
370.774844
 31
0.0
  0
LINE
  5
171
330
1F
100
AcDbEntity
  8
LC-001-100-D00-0
 62
     7
370
    50
100
AcDbLine
 10
-528.847202
 20
370.774844
 30
0.0
 11
-528.847202
 21
378.274844
 31
0.0
  0
ARC
  5
172
330
1F
100
AcDbEntity
  8
LC-001-100-D00-0
 62
     7
370
    50
100
AcDbCircle
 10
152.652798
 20
378.274844
 30
0.0
 40
0.5
100
AcDbArc
 50
90.0
 51
180.0
  0
ARC
  5
173
330
1F
100
AcDbEntity
  8
LC-001-100-D00-0
 62
     7
370
    50
100
AcDbCircle
 10
170.652798
 20
378.274844
 30
0.0
 40
0.5000000000002274
100
AcDbArc
 50
0.0
 51
90.0
  0
LINE
  5
174
330
1F
100
AcDbEntity
  8
LC-001-100-D00-0
 62
     7
370
    50
100
AcDbLine
 10
152.152798
 20
378.274844
 30
0.0
 11
152.152798
 21
370.774844
 31
0.0
  0
LINE
  5
175
330
1F
100
AcDbEntity
  8
LC-001-100-D00-0
 62
     7
370
    50
100
AcDbLine
 10
171.152798
 20
370.774844
 30
0.0
 11
171.152798
 21
378.274844
 31
0.0
  0
LINE
  5
176
330
1F
100
AcDbEntity
  8
LC-001-100-D00-0
 62
     7
370
    50
100
AcDbLine
 10
-525.573699
 20
476.774844
 30
0.0
 11
-525.573712
 21
478.274843
 31
0.0
  0
LINE
  5
177
330
1F
100
AcDbEntity
  8
LC-001-100-D00-0
 62
     7
370
    50
100
AcDbLine
 10
-551.12071
 20
478.558548
 30
0.0
 11
-551.120705
 21
476.774844
 31
0.0
  0
LINE
  5
178
330
1F
100
AcDbEntity
  8
LC-001-100-D00-0
 62
     7
370
    50
100
AcDbLine
 10
-525.573699
 20
447.774844
 30
0.0
 11
-525.573712
 21
472.774845
 31
0.0
  0
LINE
  5
179
330
1F
100
AcDbEntity
  8
LC-001-100-D00-0
 62
     7
370
    50
100
AcDbLine
 10
-551.12071
 20
472.774845
 30
0.0
 11
-551.120705
 21
447.774844
 31
0.0
  0
LINE
  5
17A
330
1F
100
AcDbEntity
  8
LC-001-100-D00-0
 62
     7
370
    50
100
AcDbLine
 10
174.426301
 20
447.774844
 30
0.0
 11
174.426306
 21
472.774845
 31
0.0
  0
LINE
  5
17B
330
1F
100
AcDbEntity
  8
LC-001-100-D00-0
 62
     7
370
    50
100
AcDbLine
 10
148.879308
 20
472.774845
 30
0.0
 11
148.879295
 21
447.774844
 31
0.0
  0
LINE
  5
17C
330
1F
100
AcDbEntity
  8
LC-001-100-D00-0
 62
     7
370
    50
100
AcDbLine
 10
174.426301
 20
476.774844
 30
0.0
 11
174.426306
 21
478.558548
 31
0.0
  0
LINE
  5
17D
330
1F
100
AcDbEntity
  8
LC-001-100-D00-0
 62
     7
370
    50
100
AcDbLine
 10
148.879308
 20
478.274843
 30
0.0
 11
148.879295
 21
476.774844
 31
0.0
  0
LINE
  5
17E
330
1F
100
AcDbEntity
  8
LC-001-100-D00-0
 62
     7
370
    50
100
AcDbLine
 10
-548.347216
 20
476.774844
 30
0.0
 11
-548.347216
 21
476.674844
 31
0.0
  0
LINE
  5
17F
330
1F
100
AcDbEntity
  8
LC-001-100-D00-0
 62
     7
370
    50
100
AcDbLine
 10
-548.347216
 20
447.774843
 30
0.0
 11
-548.347202
 21
393.774844
 31
0.0
  0
LINE
  5
180
330
1F
100
AcDbEntity
  8
LC-001-100-D00-0
 62
     7
370
    50
100
AcDbLine
 10
-528.347202
 20
393.774844
 30
0.0
 11
-528.347205
 21
447.774843
 31
0.0
  0
LINE
  5
181
330
1F
100
AcDbEntity
  8
LC-001-100-D00-0
 62
     7
370
    50
100
AcDbLine
 10
-528.347205
 20
476.674844
 30
0.0
 11
-528.347205
 21
476.774844
 31
0.0
  0
LINE
  5
182
330
1F
100
AcDbEntity
  8
LC-001-100-D00-0
 62
     7
370
    50
100
AcDbLine
 10
-548.347202
 20
390.274844
 30
0.0
 11
-548.347202
 21
379.774844
 31
0.0
  0
LINE
  5
183
330
1F
100
AcDbEntity
  8
LC-001-100-D00-0
 62
     7
370
    50
100
AcDbLine
 10
-528.347202
 20
379.774844
 30
0.0
 11
-528.347202
 21
390.274844
 31
0.0
  0
LINE
  5
184
330
1F
100
AcDbEntity
  8
LC-001-100-D00-0
 62
     7
370
    50
100
AcDbLine
 10
-548.347202
 20
379.774844
 30
0.0
 11
-547.347202
 21
378.774844
 31
0.0
  0
LINE
  5
185
330
1F
100
AcDbEntity
  8
LC-001-100-D00-0
 62
     7
370
    50
100
AcDbLine
 10
-529.347202
 20
378.774844
 30
0.0
 11
-528.347202
 21
379.774844
 31
0.0
  0
LINE
  5
186
330
1F
100
AcDbEntity
  8
LC-001-100-D00-0
 62
     7
370
    50
100
AcDbLine
 10
-546.247195
 20
393.774841
 30
0.0
 11
-546.247195
 21
390.274842
 31
0.0
  0
LINE
  5
187
330
1F
100
AcDbEntity
  8
LC-001-100-D00-0
 62
     7
370
    50
100
AcDbLine
 10
-530.447196
 20
390.274842
 30
0.0
 11
-530.447196
 21
393.774841
 31
0.0
  0
LINE
  5
188
330
1F
100
AcDbEntity
  8
LC-001-100-D00-0
 62
     7
370
    50
100
AcDbLine
 10
151.652802
 20
476.774844
 30
0.0
 11
151.652802
 21
476.674844
 31
0.0
  0
LINE
  5
189
330
1F
100
AcDbEntity
  8
LC-001-100-D00-0
 62
     7
370
    50
100
AcDbLine
 10
151.652802
 20
447.774843
 30
0.0
 11
151.652798
 21
393.774844
 31
0.0
  0
LINE
  5
18A
330
1F
100
AcDbEntity
  8
LC-001-100-D00-0
 62
     7
370
    50
100
AcDbLine
 10
171.652798
 20
393.774844
 30
0.0
 11
171.652812
 21
447.774843
 31
0.0
  0
LINE
  5
18B
330
1F
100
AcDbEntity
  8
LC-001-100-D00-0
 62
     7
370
    50
100
AcDbLine
 10
171.652812
 20
476.674844
 30
0.0
 11
171.652812
 21
476.774844
 31
0.0
  0
LINE
  5
18C
330
1F
100
AcDbEntity
  8
LC-001-100-D00-0
 62
     7
370
    50
100
AcDbLine
 10
151.652798
 20
390.274844
 30
0.0
 11
151.652798
 21
379.774844
 31
0.0
  0
LINE
  5
18D
330
1F
100
AcDbEntity
  8
LC-001-100-D00-0
 62
     7
370
    50
100
AcDbLine
 10
171.652798
 20
379.774844
 30
0.0
 11
171.652798
 21
390.274844
 31
0.0
  0
LINE
  5
18E
330
1F
100
AcDbEntity
  8
LC-001-100-D00-0
 62
     7
370
    50
100
AcDbLine
 10
151.652798
 20
379.774844
 30
0.0
 11
152.652798
 21
378.774844
 31
0.0
  0
LINE
  5
18F
330
1F
100
AcDbEntity
  8
LC-001-100-D00-0
 62
     7
370
    50
100
AcDbLine
 10
170.652798
 20
378.774844
 30
0.0
 11
171.652798
 21
379.774844
 31
0.0
  0
LINE
  5
190
330
1F
100
AcDbEntity
  8
LC-001-100-D00-0
 62
     7
370
    50
100
AcDbLine
 10
153.752793
 20
393.774841
 30
0.0
 11
153.752793
 21
390.274842
 31
0.0
  0
LINE
  5
191
330
1F
100
AcDbEntity
  8
LC-001-100-D00-0
 62
     7
370
    50
100
AcDbLine
 10
169.552792
 20
390.274842
 30
0.0
 11
169.552792
 21
393.774841
 31
0.0
  0
LINE
  5
192
330
1F
100
AcDbEntity
  8
LC-001-100-D00-0
 62
     7
370
    50
100
AcDbLine
 10
-468.147202
 20
489.04361
 30
0.0
 11
-468.147202
 21
491.506077
 31
0.0
  0
ARC
  5
193
330
1F
100
AcDbEntity
  8
LC-001-100-D00-0
 62
     7
370
    50
100
AcDbCircle
 10
-467.547202
 20
489.04361
 30
0.0
 40
0.6000000000001933
100
AcDbArc
 50
180.0
 51
255.0
  0
LINE
  5
194
330
1F
100
AcDbEntity
  8
LC-001-100-D00-0
 62
     7
370
    50
100
AcDbLine
 10
-466.996353
 20
488.274843
 30
0.0
 11
-467.702493
 21
488.464055
 31
0.0
  0
LINE
  5
195
330
1F
100
AcDbEntity
  8
LC-001-100-D00-0
 62
     7
370
    50
100
AcDbLine
 10
-466.996353
 20
488.274843
 30
0.0
 11
-466.996353
 21
486.274844
 31
0.0
  0
LINE
  5
196
330
1F
100
AcDbEntity
  8
LC-001-100-D00-0
 62
     7
370
    50
100
AcDbLine
 10
-469.947202
 20
487.274844
 30
0.0
 11
-468.947202
 21
486.274844
 31
0.0
  0
LINE
  5
197
330
1F
100
AcDbEntity
  8
LC-001-100-D00-0
 62
     7
370
    50
100
AcDbLine
 10
-469.947202
 20
487.274844
 30
0.0
 11
-469.9472
 21
493.274844
 31
0.0
  0
LINE
  5
198
330
1F
100
AcDbEntity
  8
LC-001-100-D00-0
 62
     7
370
    50
100
AcDbLine
 10
-468.947213
 20
494.274844
 30
0.0
 11
-469.9472
 21
493.274844
 31
0.0
  0
LINE
  5
199
330
1F
100
AcDbEntity
  8
LC-001-100-D00-0
 62
     7
370
    50
100
AcDbLine
 10
-466.996353
 20
494.274844
 30
0.0
 11
-466.996353
 21
492.274844
 31
0.0
  0
LINE
  5
19A
330
1F
100
AcDbEntity
  8
LC-001-100-D00-0
 62
     7
370
    50
100
AcDbLine
 10
-467.702493
 20
492.085633
 30
0.0
 11
-466.996353
 21
492.274844
 31
0.0
  0
ARC
  5
19B
330
1F
100
AcDbEntity
  8
LC-001-100-D00-0
 62
     7
370
    50
100
AcDbCircle
 10
-467.547202
 20
491.506077
 30
0.0
 40
0.5999999999998689
100
AcDbArc
 50
105.0
 51
180.0
  0
LINE
  5
19C
330
1F
100
AcDbEntity
  8
LC-001-100-D00-0
 62
     7
370
    50
100
AcDbLine
 10
-468.947202
 20
486.274844
 30
0.0
 11
-466.996353
 21
486.274844
 31
0.0
  0
LINE
  5
19D
330
1F
100
AcDbEntity
  8
LC-001-100-D00-0
 62
     7
370
    50
100
AcDbLine
 10
-468.947213
 20
494.274844
 30
0.0
 11
-466.996353
 21
494.274844
 31
0.0
  0
LINE
  5
19E
330
1F
100
AcDbEntity
  8
LC-001-100-D00-0
 62
     7
370
    50
100
AcDbLine
 10
-478.547202
 20
491.506077
 30
0.0
 11
-478.547202
 21
489.04361
 31
0.0
  0
LINE
  5
19F
330
1F
100
AcDbEntity
  8
LC-001-100-D00-0
 62
     7
370
    50
100
AcDbLine
 10
-476.747196
 20
493.274844
 30
0.0
 11
-477.747213
 21
494.274844
 31
0.0
  0
LINE
  5
1A0
330
1F
100
AcDbEntity
  8
LC-001-100-D00-0
 62
     7
370
    50
100
AcDbLine
 10
-476.747196
 20
493.274844
 30
0.0
 11
-476.747202
 21
487.274844
 31
0.0
  0
LINE
  5
1A1
330
1F
100
AcDbEntity
  8
LC-001-100-D00-0
 62
     7
370
    50
100
AcDbLine
 10
-477.747202
 20
486.274844
 30
0.0
 11
-476.747202
 21
487.274844
 31
0.0
  0
LINE
  5
1A2
330
1F
100
AcDbEntity
  8
LC-001-100-D00-0
 62
     7
370
    50
100
AcDbLine
 10
-479.698043
 20
488.274843
 30
0.0
 11
-479.698043
 21
486.274844
 31
0.0
  0
LINE
  5
1A3
330
1F
100
AcDbEntity
  8
LC-001-100-D00-0
 62
     7
370
    50
100
AcDbLine
 10
-478.99191
 20
488.464055
 30
0.0
 11
-479.698043
 21
488.274843
 31
0.0
  0
ARC
  5
1A4
330
1F
100
AcDbEntity
  8
LC-001-100-D00-0
 62
     7
370
    50
100
AcDbCircle
 10
-479.147202
 20
489.04361
 30
0.0
 40
0.5999999999998836
100
AcDbArc
 50
285.0
 51
0.0
  0
ARC
  5
1A5
330
1F
100
AcDbEntity
  8
LC-001-100-D00-0
 62
     7
370
    50
100
AcDbCircle
 10
-479.147202
 20
491.506077
 30
0.0
 40
0.6000000000000227
100
AcDbArc
 50
0.0
 51
75.0
  0
LINE
  5
1A6
330
1F
100
AcDbEntity
  8
LC-001-100-D00-0
 62
     7
370
    50
100
AcDbLine
 10
-479.698043
 20
492.274844
 30
0.0
 11
-478.99191
 21
492.085633
 31
0.0
  0
LINE
  5
1A7
330
1F
100
AcDbEntity
  8
LC-001-100-D00-0
 62
     7
370
    50
100
AcDbLine
 10
-479.698043
 20
494.274844
 30
0.0
 11
-479.698043
 21
492.274844
 31
0.0
  0
LINE
  5
1A8
330
1F
100
AcDbEntity
  8
LC-001-100-D00-0
 62
     7
370
    50
100
AcDbLine
 10
-479.698043
 20
486.274844
 30
0.0
 11
-477.747202
 21
486.274844
 31
0.0
  0
LINE
  5
1A9
330
1F
100
AcDbEntity
  8
LC-001-100-D00-0
 62
     7
370
    50
100
AcDbLine
 10
-479.698043
 20
494.274844
 30
0.0
 11
-477.747213
 21
494.274844
 31
0.0
  0
LINE
  5
1AA
330
1F
100
AcDbEntity
  8
LC-001-100-D00-0
 62
     7
370
    50
100
AcDbLine
 10
-476.747202
 20
487.274844
 30
0.0
 11
-476.589362
 21
487.274844
 31
0.0
  0
LINE
  5
1AB
330
1F
100
AcDbEntity
  8
LC-001-100-D00-0
 62
     7
370
    50
100
AcDbLine
 10
-470.105041
 20
487.274844
 30
0.0
 11
-469.947202
 21
487.274844
 31
0.0
  0
LINE
  5
1AC
330
1F
100
AcDbEntity
  8
LC-001-100-D00-0
 62
     7
370
    50
100
AcDbLine
 10
-468.947202
 20
486.274844
 30
0.0
 11
-469.482984
 21
486.274844
 31
0.0
  0
LINE
  5
1AD
330
1F
100
AcDbEntity
  8
LC-001-100-D00-0
 62
     7
370
    50
100
AcDbLine
 10
-477.21142
 20
486.274844
 30
0.0
 11
-477.747202
 21
486.274844
 31
0.0
  0
LINE
  5
1AE
330
1F
100
AcDbEntity
  8
LC-001-100-D00-0
 62
     7
370
    50
100
AcDbLine
 10
-466.996353
 20
494.274844
 30
0.0
 11
-469.447207
 21
494.274844
 31
0.0
  0
LINE
  5
1AF
330
1F
100
AcDbEntity
  8
LC-001-100-D00-0
 62
     7
370
    50
100
AcDbLine
 10
-469.447207
 20
494.274844
 30
0.0
 11
-469.447202
 21
505.274844
 31
0.0
  0
LINE
  5
1B0
330
1F
100
AcDbEntity
  8
LC-001-100-D00-0
 62
     7
370
    50
100
AcDbLine
 10
-469.447202
 20
505.274844
 30
0.0
 11
-456.097202
 21
505.274844
 31
0.0
  0
ARC
  5
1B1
330
1F
100
AcDbEntity
  8
LC-001-100-D00-0
 62
     7
370
    50
100
AcDbCircle
 10
-456.097202
 20
504.274844
 30
0.0
 40
1.0
100
AcDbArc
 50
0.0
 51
90.0
  0
LINE
  5
1B2
330
1F
100
AcDbEntity
  8
LC-001-100-D00-0
 62
     7
370
    50
100
AcDbLine
 10
-455.097202
 20
504.274844
 30
0.0
 11
-455.09721
 21
498.274844
 31
0.0
  0
LINE
  5
1B3
330
1F
100
AcDbEntity
  8
LC-001-100-D00-0
 62
     7
370
    50
100
AcDbLine
 10
-458.097202
 20
498.274844
 30
0.0
 11
-455.09721
 21
498.274844
 31
0.0
  0
LINE
  5
1B4
330
1F
100
AcDbEntity
  8
LC-001-100-D00-0
 62
     7
370
    50
100
AcDbLine
 10
-458.097202
 20
498.274844
 30
0.0
 11
-458.097201
 21
502.274844
 31
0.0
  0
LINE
  5
1B5
330
1F
100
AcDbEntity
  8
LC-001-100-D00-0
 62
     7
370
    50
100
AcDbLine
 10
-462.597202
 20
502.274844
 30
0.0
 11
-458.097201
 21
502.274844
 31
0.0
  0
ARC
  5
1B6
330
1F
100
AcDbEntity
  8
LC-001-100-D00-0
 62
     7
370
    50
100
AcDbCircle
 10
-462.597202
 20
501.274844
 30
0.0
 40
1.0
100
AcDbArc
 50
90.0
 51
180.0
  0
LINE
  5
1B7
330
1F
100
AcDbEntity
  8
LC-001-100-D00-0
 62
     7
370
    50
100
AcDbLine
 10
-463.597202
 20
487.274844
 30
0.0
 11
-463.597202
 21
501.274844
 31
0.0
  0
ARC
  5
1B8
330
1F
100
AcDbEntity
  8
LC-001-100-D00-0
 62
     7
370
    50
100
AcDbCircle
 10
-464.597202
 20
487.274844
 30
0.0
 40
1.0
100
AcDbArc
 50
270.0
 51
0.0
  0
LINE
  5
1B9
330
1F
100
AcDbEntity
  8
LC-001-100-D00-0
 62
     7
370
    50
100
AcDbLine
 10
-464.597202
 20
486.274844
 30
0.0
 11
-466.996353
 21
486.274844
 31
0.0
  0
LINE
  5
1BA
330
1F
100
AcDbEntity
  8
LC-001-100-D00-0
 62
     7
370
    50
100
AcDbLine
 10
-466.996353
 20
488.274843
 30
0.0
 11
-466.996353
 21
486.274844
 31
0.0
  0
LINE
  5
1BB
330
1F
100
AcDbEntity
  8
LC-001-100-D00-0
 62
     7
370
    50
100
AcDbLine
 10
-467.647202
 20
488.274844
 30
0.0
 11
-466.996353
 21
488.274843
 31
0.0
  0
ARC
  5
1BC
330
1F
100
AcDbEntity
  8
LC-001-100-D00-0
 62
     7
370
    50
100
AcDbCircle
 10
-467.647202
 20
488.774844
 30
0.0
 40
0.5000000000001137
100
AcDbArc
 50
180.0
 51
270.0
  0
LINE
  5
1BD
330
1F
100
AcDbEntity
  8
LC-001-100-D00-0
 62
     7
370
    50
100
AcDbLine
 10
-468.147202
 20
491.774844
 30
0.0
 11
-468.147202
 21
488.774844
 31
0.0
  0
ARC
  5
1BE
330
1F
100
AcDbEntity
  8
LC-001-100-D00-0
 62
     7
370
    50
100
AcDbCircle
 10
-467.647202
 20
491.774844
 30
0.0
 40
0.5
100
AcDbArc
 50
90.0
 51
180.0
  0
LINE
  5
1BF
330
1F
100
AcDbEntity
  8
LC-001-100-D00-0
 62
     7
370
    50
100
AcDbLine
 10
-466.996353
 20
492.274844
 30
0.0
 11
-467.647202
 21
492.274844
 31
0.0
  0
LINE
  5
1C0
330
1F
100
AcDbEntity
  8
LC-001-100-D00-0
 62
     7
370
    50
100
AcDbLine
 10
-466.996353
 20
494.274844
 30
0.0
 11
-466.996353
 21
492.274844
 31
0.0
  0
ARC
  5
1C1
330
1F
100
AcDbEntity
  8
LC-001-100-D00-0
 62
     7
370
    50
100
AcDbCircle
 10
-484.097202
 20
501.274844
 30
0.0
 40
0.9999999999998863
100
AcDbArc
 50
0.0
 51
90.0
  0
ARC
  5
1C2
330
1F
100
AcDbEntity
  8
LC-001-100-D00-0
 62
     7
370
    50
100
AcDbCircle
 10
-482.097202
 20
487.274844
 30
0.0
 40
1.0
100
AcDbArc
 50
180.0
 51
270.0
  0
LINE
  5
1C3
330
1F
100
AcDbEntity
  8
LC-001-100-D00-0
 62
     7
370
    50
100
AcDbLine
 10
-483.097202
 20
501.274844
 30
0.0
 11
-483.097202
 21
487.274844
 31
0.0
  0
LINE
  5
1C4
330
1F
100
AcDbEntity
  8
LC-001-100-D00-0
 62
     7
370
    50
100
AcDbLine
 10
-478.547202
 20
488.774844
 30
0.0
 11
-478.547202
 21
491.774844
 31
0.0
  0
LINE
  5
1C5
330
1F
100
AcDbEntity
  8
LC-001-100-D00-0
 62
     7
370
    50
100
AcDbLine
 10
-477.247202
 20
505.274844
 30
0.0
 11
-477.24719
 21
494.274844
 31
0.0
  0
LINE
  5
1C6
330
1F
100
AcDbEntity
  8
LC-001-100-D00-0
 62
     7
370
    50
100
AcDbLine
 10
-477.247202
 20
505.274844
 30
0.0
 11
-469.447202
 21
505.274844
 31
0.0
  0
LINE
  5
1C7
330
1F
100
AcDbEntity
  8
LC-001-100-D00-0
 62
     7
370
    50
100
AcDbLine
 10
-479.698043
 20
488.274843
 30
0.0
 11
-479.698043
 21
486.274844
 31
0.0
  0
LINE
  5
1C8
330
1F
100
AcDbEntity
  8
LC-001-100-D00-0
 62
     7
370
    50
100
AcDbLine
 10
-479.698043
 20
494.274844
 30
0.0
 11
-479.698043
 21
492.274844
 31
0.0
  0
ARC
  5
1C9
330
1F
100
AcDbEntity
  8
LC-001-100-D00-0
 62
     7
370
    50
100
AcDbCircle
 10
-479.047202
 20
488.774844
 30
0.0
 40
0.5
100
AcDbArc
 50
270.0
 51
0.0
  0
LINE
  5
1CA
330
1F
100
AcDbEntity
  8
LC-001-100-D00-0
 62
     7
370
    50
100
AcDbLine
 10
-479.698043
 20
488.274843
 30
0.0
 11
-479.047202
 21
488.274844
 31
0.0
  0
LINE
  5
1CB
330
1F
100
AcDbEntity
  8
LC-001-100-D00-0
 62
     7
370
    50
100
AcDbLine
 10
-488.597196
 20
502.274844
 30
0.0
 11
-488.597202
 21
498.274844
 31
0.0
  0
LINE
  5
1CC
330
1F
100
AcDbEntity
  8
LC-001-100-D00-0
 62
     7
370
    50
100
AcDbLine
 10
-491.597217
 20
498.274844
 30
0.0
 11
-491.597202
 21
504.274844
 31
0.0
  0
ARC
  5
1CD
330
1F
100
AcDbEntity
  8
LC-001-100-D00-0
 62
     7
370
    50
100
AcDbCircle
 10
-490.597202
 20
504.274844
 30
0.0
 40
0.9999999999997726
100
AcDbArc
 50
90.0
 51
180.0
  0
LINE
  5
1CE
330
1F
100
AcDbEntity
  8
LC-001-100-D00-0
 62
     7
370
    50
100
AcDbLine
 10
-479.047202
 20
492.274844
 30
0.0
 11
-479.698043
 21
492.274844
 31
0.0
  0
ARC
  5
1CF
330
1F
100
AcDbEntity
  8
LC-001-100-D00-0
 62
     7
370
    50
100
AcDbCircle
 10
-479.047202
 20
491.774844
 30
0.0
 40
0.5000000000000568
100
AcDbArc
 50
0.0
 51
90.0
  0
LINE
  5
1D0
330
1F
100
AcDbEntity
  8
LC-001-100-D00-0
 62
     7
370
    50
100
AcDbLine
 10
-477.24719
 20
494.274844
 30
0.0
 11
-479.698043
 21
494.274844
 31
0.0
  0
LINE
  5
1D1
330
1F
100
AcDbEntity
  8
LC-001-100-D00-0
 62
     7
370
    50
100
AcDbLine
 10
-479.698043
 20
486.274844
 30
0.0
 11
-482.097202
 21
486.274844
 31
0.0
  0
LINE
  5
1D2
330
1F
100
AcDbEntity
  8
LC-001-100-D00-0
 62
     7
370
    50
100
AcDbLine
 10
-488.597196
 20
502.274844
 30
0.0
 11
-484.097202
 21
502.274844
 31
0.0
  0
LINE
  5
1D3
330
1F
100
AcDbEntity
  8
LC-001-100-D00-0
 62
     7
370
    50
100
AcDbLine
 10
-491.597217
 20
498.274844
 30
0.0
 11
-488.597202
 21
498.274844
 31
0.0
  0
LINE
  5
1D4
330
1F
100
AcDbEntity
  8
LC-001-100-D00-0
 62
     7
370
    50
100
AcDbLine
 10
-490.597202
 20
505.274844
 30
0.0
 11
-477.247202
 21
505.274844
 31
0.0
  0
LINE
  5
1D5
330
1F
100
AcDbEntity
  8
LC-001-100-D00-0
 62
     7
370
    50
100
AcDbLine
 10
-460.097202
 20
498.274844
 30
0.0
 11
-458.097202
 21
498.274844
 31
0.0
  0
LINE
  5
1D6
330
1F
100
AcDbEntity
  8
LC-001-100-D00-0
 62
     7
370
    50
100
AcDbLine
 10
-488.597202
 20
498.274844
 30
0.0
 11
-486.597202
 21
498.274844
 31
0.0
  0
LINE
  5
1D7
330
1F
100
AcDbEntity
  8
LC-001-100-D00-0
 62
     7
370
    50
100
AcDbLine
 10
-486.597202
 20
498.274844
 30
0.0
 11
-483.097207
 21
498.274844
 31
0.0
  0
LINE
  5
1D8
330
1F
100
AcDbEntity
  8
LC-001-100-D00-0
 62
     7
370
    50
100
AcDbLine
 10
-463.59719
 20
498.274844
 30
0.0
 11
-460.097202
 21
498.274844
 31
0.0
  0
LINE
  5
1D9
330
1F
100
AcDbEntity
  8
LC-001-100-D00-0
 62
     7
370
    50
100
AcDbLine
 10
101.852798
 20
489.04361
 30
0.0
 11
101.852798
 21
491.506077
 31
0.0
  0
ARC
  5
1DA
330
1F
100
AcDbEntity
  8
LC-001-100-D00-0
 62
     7
370
    50
100
AcDbCircle
 10
102.452798
 20
489.04361
 30
0.0
 40
0.6000000000002501
100
AcDbArc
 50
180.0
 51
255.0
  0
LINE
  5
1DB
330
1F
100
AcDbEntity
  8
LC-001-100-D00-0
 62
     7
370
    50
100
AcDbLine
 10
103.00364
 20
488.274843
 30
0.0
 11
102.297507
 21
488.464055
 31
0.0
  0
LINE
  5
1DC
330
1F
100
AcDbEntity
  8
LC-001-100-D00-0
 62
     7
370
    50
100
AcDbLine
 10
103.00364
 20
488.274843
 30
0.0
 11
103.00364
 21
486.274844
 31
0.0
  0
LINE
  5
1DD
330
1F
100
AcDbEntity
  8
LC-001-100-D00-0
 62
     7
370
    50
100
AcDbLine
 10
100.052798
 20
487.274844
 30
0.0
 11
101.052798
 21
486.274844
 31
0.0
  0
LINE
  5
1DE
330
1F
100
AcDbEntity
  8
LC-001-100-D00-0
 62
     7
370
    50
100
AcDbLine
 10
100.052798
 20
487.274844
 30
0.0
 11
100.052793
 21
493.274844
 31
0.0
  0
LINE
  5
1DF
330
1F
100
AcDbEntity
  8
LC-001-100-D00-0
 62
     7
370
    50
100
AcDbLine
 10
101.052809
 20
494.274844
 30
0.0
 11
100.052793
 21
493.274844
 31
0.0
  0
LINE
  5
1E0
330
1F
100
AcDbEntity
  8
LC-001-100-D00-0
 62
     7
370
    50
100
AcDbLine
 10
103.00364
 20
494.274844
 30
0.0
 11
103.00364
 21
492.274844
 31
0.0
  0
LINE
  5
1E1
330
1F
100
AcDbEntity
  8
LC-001-100-D00-0
 62
     7
370
    50
100
AcDbLine
 10
102.297507
 20
492.085633
 30
0.0
 11
103.00364
 21
492.274844
 31
0.0
  0
ARC
  5
1E2
330
1F
100
AcDbEntity
  8
LC-001-100-D00-0
 62
     7
370
    50
100
AcDbCircle
 10
102.452798
 20
491.506077
 30
0.0
 40
0.5999999999998983
100
AcDbArc
 50
105.0
 51
180.0
  0
LINE
  5
1E3
330
1F
100
AcDbEntity
  8
LC-001-100-D00-0
 62
     7
370
    50
100
AcDbLine
 10
101.052798
 20
486.274844
 30
0.0
 11
103.00364
 21
486.274844
 31
0.0
  0
LINE
  5
1E4
330
1F
100
AcDbEntity
  8
LC-001-100-D00-0
 62
     7
370
    50
100
AcDbLine
 10
101.052809
 20
494.274844
 30
0.0
 11
103.00364
 21
494.274844
 31
0.0
  0
LINE
  5
1E5
330
1F
100
AcDbEntity
  8
LC-001-100-D00-0
 62
     7
370
    50
100
AcDbLine
 10
91.452798
 20
491.506077
 30
0.0
 11
91.452798
 21
489.04361
 31
0.0
  0
LINE
  5
1E6
330
1F
100
AcDbEntity
  8
LC-001-100-D00-0
 62
     7
370
    50
100
AcDbLine
 10
93.252797
 20
493.274844
 30
0.0
 11
92.25281
 21
494.274844
 31
0.0
  0
LINE
  5
1E7
330
1F
100
AcDbEntity
  8
LC-001-100-D00-0
 62
     7
370
    50
100
AcDbLine
 10
93.252797
 20
493.274844
 30
0.0
 11
93.252798
 21
487.274844
 31
0.0
  0
LINE
  5
1E8
330
1F
100
AcDbEntity
  8
LC-001-100-D00-0
 62
     7
370
    50
100
AcDbLine
 10
92.252798
 20
486.274844
 30
0.0
 11
93.252798
 21
487.274844
 31
0.0
  0
LINE
  5
1E9
330
1F
100
AcDbEntity
  8
LC-001-100-D00-0
 62
     7
370
    50
100
AcDbLine
 10
90.301949
 20
488.274843
 30
0.0
 11
90.301949
 21
486.274844
 31
0.0
  0
LINE
  5
1EA
330
1F
100
AcDbEntity
  8
LC-001-100-D00-0
 62
     7
370
    50
100
AcDbLine
 10
91.00809
 20
488.464055
 30
0.0
 11
90.301949
 21
488.274843
 31
0.0
  0
ARC
  5
1EB
330
1F
100
AcDbEntity
  8
LC-001-100-D00-0
 62
     7
370
    50
100
AcDbCircle
 10
90.852798
 20
489.04361
 30
0.0
 40
0.6000000000003376
100
AcDbArc
 50
285.0
 51
0.0
  0
ARC
  5
1EC
330
1F
100
AcDbEntity
  8
LC-001-100-D00-0
 62
     7
370
    50
100
AcDbCircle
 10
90.852798
 20
491.506077
 30
0.0
 40
0.6000000000000227
100
AcDbArc
 50
0.0
 51
75.0
  0
LINE
  5
1ED
330
1F
100
AcDbEntity
  8
LC-001-100-D00-0
 62
     7
370
    50
100
AcDbLine
 10
90.301949
 20
492.274844
 30
0.0
 11
91.00809
 21
492.085633
 31
0.0
  0
LINE
  5
1EE
330
1F
100
AcDbEntity
  8
LC-001-100-D00-0
 62
     7
370
    50
100
AcDbLine
 10
90.301949
 20
494.274844
 30
0.0
 11
90.301949
 21
492.274844
 31
0.0
  0
LINE
  5
1EF
330
1F
100
AcDbEntity
  8
LC-001-100-D00-0
 62
     7
370
    50
100
AcDbLine
 10
90.301949
 20
486.274844
 30
0.0
 11
92.252798
 21
486.274844
 31
0.0
  0
LINE
  5
1F0
330
1F
100
AcDbEntity
  8
LC-001-100-D00-0
 62
     7
370
    50
100
AcDbLine
 10
90.301949
 20
494.274844
 30
0.0
 11
92.25281
 21
494.274844
 31
0.0
  0
LINE
  5
1F1
330
1F
100
AcDbEntity
  8
LC-001-100-D00-0
 62
     7
370
    50
100
AcDbLine
 10
93.252798
 20
487.274844
 30
0.0
 11
93.410638
 21
487.274844
 31
0.0
  0
LINE
  5
1F2
330
1F
100
AcDbEntity
  8
LC-001-100-D00-0
 62
     7
370
    50
100
AcDbLine
 10
99.894959
 20
487.274844
 30
0.0
 11
100.052798
 21
487.274844
 31
0.0
  0
LINE
  5
1F3
330
1F
100
AcDbEntity
  8
LC-001-100-D00-0
 62
     7
370
    50
100
AcDbLine
 10
101.052798
 20
486.274844
 30
0.0
 11
100.517016
 21
486.274844
 31
0.0
  0
LINE
  5
1F4
330
1F
100
AcDbEntity
  8
LC-001-100-D00-0
 62
     7
370
    50
100
AcDbLine
 10
92.78858
 20
486.274844
 30
0.0
 11
92.252798
 21
486.274844
 31
0.0
  0
LINE
  5
1F5
330
1F
100
AcDbEntity
  8
LC-001-100-D00-0
 62
     7
370
    50
100
AcDbLine
 10
103.00364
 20
494.274844
 30
0.0
 11
100.552786
 21
494.274844
 31
0.0
  0
LINE
  5
1F6
330
1F
100
AcDbEntity
  8
LC-001-100-D00-0
 62
     7
370
    50
100
AcDbLine
 10
100.552786
 20
494.274844
 30
0.0
 11
100.552798
 21
505.274844
 31
0.0
  0
LINE
  5
1F7
330
1F
100
AcDbEntity
  8
LC-001-100-D00-0
 62
     7
370
    50
100
AcDbLine
 10
100.552798
 20
505.274844
 30
0.0
 11
113.902798
 21
505.274844
 31
0.0
  0
ARC
  5
1F8
330
1F
100
AcDbEntity
  8
LC-001-100-D00-0
 62
     7
370
    50
100
AcDbCircle
 10
113.902798
 20
504.274844
 30
0.0
 40
1.0
100
AcDbArc
 50
0.0
 51
90.0
  0
LINE
  5
1F9
330
1F
100
AcDbEntity
  8
LC-001-100-D00-0
 62
     7
370
    50
100
AcDbLine
 10
114.902798
 20
504.274844
 30
0.0
 11
114.902813
 21
498.274844
 31
0.0
  0
LINE
  5
1FA
330
1F
100
AcDbEntity
  8
LC-001-100-D00-0
 62
     7
370
    50
100
AcDbLine
 10
111.902798
 20
498.274844
 30
0.0
 11
114.902813
 21
498.274844
 31
0.0
  0
LINE
  5
1FB
330
1F
100
AcDbEntity
  8
LC-001-100-D00-0
 62
     7
370
    50
100
AcDbLine
 10
111.902798
 20
498.274844
 30
0.0
 11
111.902792
 21
502.274844
 31
0.0
  0
LINE
  5
1FC
330
1F
100
AcDbEntity
  8
LC-001-100-D00-0
 62
     7
370
    50
100
AcDbLine
 10
107.402798
 20
502.274844
 30
0.0
 11
111.902792
 21
502.274844
 31
0.0
  0
ARC
  5
1FD
330
1F
100
AcDbEntity
  8
LC-001-100-D00-0
 62
     7
370
    50
100
AcDbCircle
 10
107.402798
 20
501.274844
 30
0.0
 40
1.0
100
AcDbArc
 50
90.0
 51
180.0
  0
LINE
  5
1FE
330
1F
100
AcDbEntity
  8
LC-001-100-D00-0
 62
     7
370
    50
100
AcDbLine
 10
106.402798
 20
487.274844
 30
0.0
 11
106.402798
 21
501.274844
 31
0.0
  0
ARC
  5
1FF
330
1F
100
AcDbEntity
  8
LC-001-100-D00-0
 62
     7
370
    50
100
AcDbCircle
 10
105.402798
 20
487.274844
 30
0.0
 40
1.0
100
AcDbArc
 50
270.0
 51
0.0
  0
LINE
  5
200
330
1F
100
AcDbEntity
  8
LC-001-100-D00-0
 62
     7
370
    50
100
AcDbLine
 10
105.402798
 20
486.274844
 30
0.0
 11
103.00364
 21
486.274844
 31
0.0
  0
LINE
  5
201
330
1F
100
AcDbEntity
  8
LC-001-100-D00-0
 62
     7
370
    50
100
AcDbLine
 10
103.00364
 20
488.274843
 30
0.0
 11
103.00364
 21
486.274844
 31
0.0
  0
LINE
  5
202
330
1F
100
AcDbEntity
  8
LC-001-100-D00-0
 62
     7
370
    50
100
AcDbLine
 10
102.352798
 20
488.274844
 30
0.0
 11
103.00364
 21
488.274843
 31
0.0
  0
ARC
  5
203
330
1F
100
AcDbEntity
  8
LC-001-100-D00-0
 62
     7
370
    50
100
AcDbCircle
 10
102.352798
 20
488.774844
 30
0.0
 40
0.5000000000003411
100
AcDbArc
 50
180.0
 51
270.0
  0
LINE
  5
204
330
1F
100
AcDbEntity
  8
LC-001-100-D00-0
 62
     7
370
    50
100
AcDbLine
 10
101.852798
 20
491.774844
 30
0.0
 11
101.852798
 21
488.774844
 31
0.0
  0
ARC
  5
205
330
1F
100
AcDbEntity
  8
LC-001-100-D00-0
 62
     7
370
    50
100
AcDbCircle
 10
102.352798
 20
491.774844
 30
0.0
 40
0.4999999999997726
100
AcDbArc
 50
90.0
 51
180.0
  0
LINE
  5
206
330
1F
100
AcDbEntity
  8
LC-001-100-D00-0
 62
     7
370
    50
100
AcDbLine
 10
103.00364
 20
492.274844
 30
0.0
 11
102.352798
 21
492.274844
 31
0.0
  0
LINE
  5
207
330
1F
100
AcDbEntity
  8
LC-001-100-D00-0
 62
     7
370
    50
100
AcDbLine
 10
103.00364
 20
494.274844
 30
0.0
 11
103.00364
 21
492.274844
 31
0.0
  0
ARC
  5
208
330
1F
100
AcDbEntity
  8
LC-001-100-D00-0
 62
     7
370
    50
100
AcDbCircle
 10
85.902798
 20
501.274844
 30
0.0
 40
0.9999999999998863
100
AcDbArc
 50
0.0
 51
90.0
  0
ARC
  5
209
330
1F
100
AcDbEntity
  8
LC-001-100-D00-0
 62
     7
370
    50
100
AcDbCircle
 10
87.902798
 20
487.274844
 30
0.0
 40
1.000000000000114
100
AcDbArc
 50
180.0
 51
270.0
  0
LINE
  5
20A
330
1F
100
AcDbEntity
  8
LC-001-100-D00-0
 62
     7
370
    50
100
AcDbLine
 10
86.902798
 20
501.274844
 30
0.0
 11
86.902798
 21
487.274844
 31
0.0
  0
LINE
  5
20B
330
1F
100
AcDbEntity
  8
LC-001-100-D00-0
 62
     7
370
    50
100
AcDbLine
 10
91.452798
 20
488.774844
 30
0.0
 11
91.452798
 21
491.774844
 31
0.0
  0
LINE
  5
20C
330
1F
100
AcDbEntity
  8
LC-001-100-D00-0
 62
     7
370
    50
100
AcDbLine
 10
92.752798
 20
505.274844
 30
0.0
 11
92.752803
 21
494.274844
 31
0.0
  0
LINE
  5
20D
330
1F
100
AcDbEntity
  8
LC-001-100-D00-0
 62
     7
370
    50
100
AcDbLine
 10
92.752798
 20
505.274844
 30
0.0
 11
100.552798
 21
505.274844
 31
0.0
  0
LINE
  5
20E
330
1F
100
AcDbEntity
  8
LC-001-100-D00-0
 62
     7
370
    50
100
AcDbLine
 10
90.301949
 20
488.274843
 30
0.0
 11
90.301949
 21
486.274844
 31
0.0
  0
LINE
  5
20F
330
1F
100
AcDbEntity
  8
LC-001-100-D00-0
 62
     7
370
    50
100
AcDbLine
 10
90.301949
 20
494.274844
 30
0.0
 11
90.301949
 21
492.274844
 31
0.0
  0
ARC
  5
210
330
1F
100
AcDbEntity
  8
LC-001-100-D00-0
 62
     7
370
    50
100
AcDbCircle
 10
90.952798
 20
488.774844
 30
0.0
 40
0.5000000000004548
100
AcDbArc
 50
270.0
 51
0.0
  0
LINE
  5
211
330
1F
100
AcDbEntity
  8
LC-001-100-D00-0
 62
     7
370
    50
100
AcDbLine
 10
90.301949
 20
488.274843
 30
0.0
 11
90.952798
 21
488.274844
 31
0.0
  0
LINE
  5
212
330
1F
100
AcDbEntity
  8
LC-001-100-D00-0
 62
     7
370
    50
100
AcDbLine
 10
81.402797
 20
502.274844
 30
0.0
 11
81.402798
 21
498.274844
 31
0.0
  0
LINE
  5
213
330
1F
100
AcDbEntity
  8
LC-001-100-D00-0
 62
     7
370
    50
100
AcDbLine
 10
78.402806
 20
498.274844
 30
0.0
 11
78.402798
 21
504.274844
 31
0.0
  0
ARC
  5
214
330
1F
100
AcDbEntity
  8
LC-001-100-D00-0
 62
     7
370
    50
100
AcDbCircle
 10
79.402798
 20
504.274844
 30
0.0
 40
0.9999999999997726
100
AcDbArc
 50
90.0
 51
180.0
  0
LINE
  5
215
330
1F
100
AcDbEntity
  8
LC-001-100-D00-0
 62
     7
370
    50
100
AcDbLine
 10
90.952798
 20
492.274844
 30
0.0
 11
90.301949
 21
492.274844
 31
0.0
  0
ARC
  5
216
330
1F
100
AcDbEntity
  8
LC-001-100-D00-0
 62
     7
370
    50
100
AcDbCircle
 10
90.952798
 20
491.774844
 30
0.0
 40
0.5000000000001137
100
AcDbArc
 50
0.0
 51
90.0
  0
LINE
  5
217
330
1F
100
AcDbEntity
  8
LC-001-100-D00-0
 62
     7
370
    50
100
AcDbLine
 10
92.752803
 20
494.274844
 30
0.0
 11
90.301949
 21
494.274844
 31
0.0
  0
LINE
  5
218
330
1F
100
AcDbEntity
  8
LC-001-100-D00-0
 62
     7
370
    50
100
AcDbLine
 10
90.301949
 20
486.274844
 30
0.0
 11
87.902798
 21
486.274844
 31
0.0
  0
LINE
  5
219
330
1F
100
AcDbEntity
  8
LC-001-100-D00-0
 62
     7
370
    50
100
AcDbLine
 10
81.402797
 20
502.274844
 30
0.0
 11
85.902798
 21
502.274844
 31
0.0
  0
LINE
  5
21A
330
1F
100
AcDbEntity
  8
LC-001-100-D00-0
 62
     7
370
    50
100
AcDbLine
 10
78.402806
 20
498.274844
 30
0.0
 11
81.402798
 21
498.274844
 31
0.0
  0
LINE
  5
21B
330
1F
100
AcDbEntity
  8
LC-001-100-D00-0
 62
     7
370
    50
100
AcDbLine
 10
79.402798
 20
505.274844
 30
0.0
 11
92.752798
 21
505.274844
 31
0.0
  0
LINE
  5
21C
330
1F
100
AcDbEntity
  8
LC-001-100-D00-0
 62
     7
370
    50
100
AcDbLine
 10
109.902798
 20
498.274844
 30
0.0
 11
111.902798
 21
498.274844
 31
0.0
  0
LINE
  5
21D
330
1F
100
AcDbEntity
  8
LC-001-100-D00-0
 62
     7
370
    50
100
AcDbLine
 10
81.402798
 20
498.274844
 30
0.0
 11
83.402798
 21
498.274844
 31
0.0
  0
LINE
  5
21E
330
1F
100
AcDbEntity
  8
LC-001-100-D00-0
 62
     7
370
    50
100
AcDbLine
 10
83.402798
 20
498.274844
 30
0.0
 11
86.902786
 21
498.274844
 31
0.0
  0
LINE
  5
21F
330
1F
100
AcDbEntity
  8
LC-001-100-D00-0
 62
     7
370
    50
100
AcDbLine
 10
106.402803
 20
498.274844
 30
0.0
 11
109.902798
 21
498.274844
 31
0.0
  0
LINE
  5
220
330
1F
100
AcDbEntity
  8
LC-001-100-D00-0
 62
     7
370
    50
100
AcDbLine
 10
-653.147202
 20
489.04361
 30
0.0
 11
-653.147202
 21
491.506077
 31
0.0
  0
ARC
  5
221
330
1F
100
AcDbEntity
  8
LC-001-100-D00-0
 62
     7
370
    50
100
AcDbCircle
 10
-652.547202
 20
489.04361
 30
0.0
 40
0.6000000000002501
100
AcDbArc
 50
180.0
 51
255.0
  0
LINE
  5
222
330
1F
100
AcDbEntity
  8
LC-001-100-D00-0
 62
     7
370
    50
100
AcDbLine
 10
-651.996356
 20
488.274843
 30
0.0
 11
-652.702493
 21
488.464055
 31
0.0
  0
LINE
  5
223
330
1F
100
AcDbEntity
  8
LC-001-100-D00-0
 62
     7
370
    50
100
AcDbLine
 10
-651.996356
 20
488.274843
 30
0.0
 11
-651.996356
 21
486.274844
 31
0.0
  0
LINE
  5
224
330
1F
100
AcDbEntity
  8
LC-001-100-D00-0
 62
     7
370
    50
100
AcDbLine
 10
-654.947202
 20
487.274844
 30
0.0
 11
-653.947202
 21
486.274844
 31
0.0
  0
LINE
  5
225
330
1F
100
AcDbEntity
  8
LC-001-100-D00-0
 62
     7
370
    50
100
AcDbLine
 10
-654.947202
 20
487.274844
 30
0.0
 11
-654.947203
 21
493.274844
 31
0.0
  0
LINE
  5
226
330
1F
100
AcDbEntity
  8
LC-001-100-D00-0
 62
     7
370
    50
100
AcDbLine
 10
-653.947216
 20
494.274844
 30
0.0
 11
-654.947203
 21
493.274844
 31
0.0
  0
LINE
  5
227
330
1F
100
AcDbEntity
  8
LC-001-100-D00-0
 62
     7
370
    50
100
AcDbLine
 10
-651.996356
 20
494.274844
 30
0.0
 11
-651.996356
 21
492.274844
 31
0.0
  0
LINE
  5
228
330
1F
100
AcDbEntity
  8
LC-001-100-D00-0
 62
     7
370
    50
100
AcDbLine
 10
-652.702493
 20
492.085633
 30
0.0
 11
-651.996356
 21
492.274844
 31
0.0
  0
ARC
  5
229
330
1F
100
AcDbEntity
  8
LC-001-100-D00-0
 62
     7
370
    50
100
AcDbCircle
 10
-652.547202
 20
491.506077
 30
0.0
 40
0.5999999999998983
100
AcDbArc
 50
105.0
 51
180.0
  0
LINE
  5
22A
330
1F
100
AcDbEntity
  8
LC-001-100-D00-0
 62
     7
370
    50
100
AcDbLine
 10
-653.947202
 20
486.274844
 30
0.0
 11
-651.996356
 21
486.274844
 31
0.0
  0
LINE
  5
22B
330
1F
100
AcDbEntity
  8
LC-001-100-D00-0
 62
     7
370
    50
100
AcDbLine
 10
-653.947216
 20
494.274844
 30
0.0
 11
-651.996356
 21
494.274844
 31
0.0
  0
LINE
  5
22C
330
1F
100
AcDbEntity
  8
LC-001-100-D00-0
 62
     7
370
    50
100
AcDbLine
 10
-663.547202
 20
491.506077
 30
0.0
 11
-663.547202
 21
489.04361
 31
0.0
  0
LINE
  5
22D
330
1F
100
AcDbEntity
  8
LC-001-100-D00-0
 62
     7
370
    50
100
AcDbLine
 10
-661.747199
 20
493.274844
 30
0.0
 11
-662.747216
 21
494.274844
 31
0.0
  0
LINE
  5
22E
330
1F
100
AcDbEntity
  8
LC-001-100-D00-0
 62
     7
370
    50
100
AcDbLine
 10
-661.747199
 20
493.274844
 30
0.0
 11
-661.747202
 21
487.274844
 31
0.0
  0
LINE
  5
22F
330
1F
100
AcDbEntity
  8
LC-001-100-D00-0
 62
     7
370
    50
100
AcDbLine
 10
-662.747202
 20
486.274844
 30
0.0
 11
-661.747202
 21
487.274844
 31
0.0
  0
LINE
  5
230
330
1F
100
AcDbEntity
  8
LC-001-100-D00-0
 62
     7
370
    50
100
AcDbLine
 10
-664.698046
 20
488.274843
 30
0.0
 11
-664.698046
 21
486.274844
 31
0.0
  0
LINE
  5
231
330
1F
100
AcDbEntity
  8
LC-001-100-D00-0
 62
     7
370
    50
100
AcDbLine
 10
-663.99191
 20
488.464055
 30
0.0
 11
-664.698046
 21
488.274843
 31
0.0
  0
ARC
  5
232
330
1F
100
AcDbEntity
  8
LC-001-100-D00-0
 62
     7
370
    50
100
AcDbCircle
 10
-664.147202
 20
489.04361
 30
0.0
 40
0.5999999999998689
100
AcDbArc
 50
285.0
 51
0.0
  0
ARC
  5
233
330
1F
100
AcDbEntity
  8
LC-001-100-D00-0
 62
     7
370
    50
100
AcDbCircle
 10
-664.147202
 20
491.506077
 30
0.0
 40
0.6000000000000227
100
AcDbArc
 50
0.0
 51
75.0
  0
LINE
  5
234
330
1F
100
AcDbEntity
  8
LC-001-100-D00-0
 62
     7
370
    50
100
AcDbLine
 10
-664.698046
 20
492.274844
 30
0.0
 11
-663.99191
 21
492.085633
 31
0.0
  0
LINE
  5
235
330
1F
100
AcDbEntity
  8
LC-001-100-D00-0
 62
     7
370
    50
100
AcDbLine
 10
-664.698046
 20
494.274844
 30
0.0
 11
-664.698046
 21
492.274844
 31
0.0
  0
LINE
  5
236
330
1F
100
AcDbEntity
  8
LC-001-100-D00-0
 62
     7
370
    50
100
AcDbLine
 10
-664.698046
 20
486.274844
 30
0.0
 11
-662.747202
 21
486.274844
 31
0.0
  0
LINE
  5
237
330
1F
100
AcDbEntity
  8
LC-001-100-D00-0
 62
     7
370
    50
100
AcDbLine
 10
-664.698046
 20
494.274844
 30
0.0
 11
-662.747216
 21
494.274844
 31
0.0
  0
LINE
  5
238
330
1F
100
AcDbEntity
  8
LC-001-100-D00-0
 62
     7
370
    50
100
AcDbLine
 10
-661.747202
 20
487.274844
 30
0.0
 11
-661.589362
 21
487.274844
 31
0.0
  0
LINE
  5
239
330
1F
100
AcDbEntity
  8
LC-001-100-D00-0
 62
     7
370
    50
100
AcDbLine
 10
-655.105041
 20
487.274844
 30
0.0
 11
-654.947202
 21
487.274844
 31
0.0
  0
LINE
  5
23A
330
1F
100
AcDbEntity
  8
LC-001-100-D00-0
 62
     7
370
    50
100
AcDbLine
 10
-653.947202
 20
486.274844
 30
0.0
 11
-654.482984
 21
486.274844
 31
0.0
  0
LINE
  5
23B
330
1F
100
AcDbEntity
  8
LC-001-100-D00-0
 62
     7
370
    50
100
AcDbLine
 10
-662.21142
 20
486.274844
 30
0.0
 11
-662.747202
 21
486.274844
 31
0.0
  0
LINE
  5
23C
330
1F
100
AcDbEntity
  8
LC-001-100-D00-0
 62
     7
370
    50
100
AcDbLine
 10
-651.996356
 20
494.274844
 30
0.0
 11
-654.447209
 21
494.274844
 31
0.0
  0
LINE
  5
23D
330
1F
100
AcDbEntity
  8
LC-001-100-D00-0
 62
     7
370
    50
100
AcDbLine
 10
-654.447209
 20
494.274844
 30
0.0
 11
-654.447202
 21
505.274844
 31
0.0
  0
LINE
  5
23E
330
1F
100
AcDbEntity
  8
LC-001-100-D00-0
 62
     7
370
    50
100
AcDbLine
 10
-654.447202
 20
505.274844
 30
0.0
 11
-641.097202
 21
505.274844
 31
0.0
  0
ARC
  5
23F
330
1F
100
AcDbEntity
  8
LC-001-100-D00-0
 62
     7
370
    50
100
AcDbCircle
 10
-641.097202
 20
504.274844
 30
0.0
 40
1.0
100
AcDbArc
 50
0.0
 51
90.0
  0
LINE
  5
240
330
1F
100
AcDbEntity
  8
LC-001-100-D00-0
 62
     7
370
    50
100
AcDbLine
 10
-640.097202
 20
504.274844
 30
0.0
 11
-640.097212
 21
498.274844
 31
0.0
  0
LINE
  5
241
330
1F
100
AcDbEntity
  8
LC-001-100-D00-0
 62
     7
370
    50
100
AcDbLine
 10
-643.097202
 20
498.274844
 30
0.0
 11
-640.097212
 21
498.274844
 31
0.0
  0
LINE
  5
242
330
1F
100
AcDbEntity
  8
LC-001-100-D00-0
 62
     7
370
    50
100
AcDbLine
 10
-643.097202
 20
498.274844
 30
0.0
 11
-643.097203
 21
502.274844
 31
0.0
  0
LINE
  5
243
330
1F
100
AcDbEntity
  8
LC-001-100-D00-0
 62
     7
370
    50
100
AcDbLine
 10
-647.597202
 20
502.274844
 30
0.0
 11
-643.097203
 21
502.274844
 31
0.0
  0
ARC
  5
244
330
1F
100
AcDbEntity
  8
LC-001-100-D00-0
 62
     7
370
    50
100
AcDbCircle
 10
-647.597202
 20
501.274844
 30
0.0
 40
1.0
100
AcDbArc
 50
90.0
 51
180.0
  0
LINE
  5
245
330
1F
100
AcDbEntity
  8
LC-001-100-D00-0
 62
     7
370
    50
100
AcDbLine
 10
-648.597202
 20
487.274844
 30
0.0
 11
-648.597202
 21
501.274844
 31
0.0
  0
ARC
  5
246
330
1F
100
AcDbEntity
  8
LC-001-100-D00-0
 62
     7
370
    50
100
AcDbCircle
 10
-649.597202
 20
487.274844
 30
0.0
 40
1.0
100
AcDbArc
 50
270.0
 51
0.0
  0
LINE
  5
247
330
1F
100
AcDbEntity
  8
LC-001-100-D00-0
 62
     7
370
    50
100
AcDbLine
 10
-649.597202
 20
486.274844
 30
0.0
 11
-651.996356
 21
486.274844
 31
0.0
  0
LINE
  5
248
330
1F
100
AcDbEntity
  8
LC-001-100-D00-0
 62
     7
370
    50
100
AcDbLine
 10
-651.996356
 20
488.274843
 30
0.0
 11
-651.996356
 21
486.274844
 31
0.0
  0
LINE
  5
249
330
1F
100
AcDbEntity
  8
LC-001-100-D00-0
 62
     7
370
    50
100
AcDbLine
 10
-652.647202
 20
488.274844
 30
0.0
 11
-651.996356
 21
488.274843
 31
0.0
  0
ARC
  5
24A
330
1F
100
AcDbEntity
  8
LC-001-100-D00-0
 62
     7
370
    50
100
AcDbCircle
 10
-652.647202
 20
488.774844
 30
0.0
 40
0.5000000000001137
100
AcDbArc
 50
180.0
 51
270.0
  0
LINE
  5
24B
330
1F
100
AcDbEntity
  8
LC-001-100-D00-0
 62
     7
370
    50
100
AcDbLine
 10
-653.147202
 20
491.774844
 30
0.0
 11
-653.147202
 21
488.774844
 31
0.0
  0
ARC
  5
24C
330
1F
100
AcDbEntity
  8
LC-001-100-D00-0
 62
     7
370
    50
100
AcDbCircle
 10
-652.647202
 20
491.774844
 30
0.0
 40
0.5
100
AcDbArc
 50
90.0
 51
180.0
  0
LINE
  5
24D
330
1F
100
AcDbEntity
  8
LC-001-100-D00-0
 62
     7
370
    50
100
AcDbLine
 10
-651.996356
 20
492.274844
 30
0.0
 11
-652.647202
 21
492.274844
 31
0.0
  0
LINE
  5
24E
330
1F
100
AcDbEntity
  8
LC-001-100-D00-0
 62
     7
370
    50
100
AcDbLine
 10
-651.996356
 20
494.274844
 30
0.0
 11
-651.996356
 21
492.274844
 31
0.0
  0
ARC
  5
24F
330
1F
100
AcDbEntity
  8
LC-001-100-D00-0
 62
     7
370
    50
100
AcDbCircle
 10
-669.097202
 20
501.274844
 30
0.0
 40
1.0
100
AcDbArc
 50
0.0
 51
90.0
  0
ARC
  5
250
330
1F
100
AcDbEntity
  8
LC-001-100-D00-0
 62
     7
370
    50
100
AcDbCircle
 10
-667.097202
 20
487.274844
 30
0.0
 40
1.0
100
AcDbArc
 50
180.0
 51
270.0
  0
LINE
  5
251
330
1F
100
AcDbEntity
  8
LC-001-100-D00-0
 62
     7
370
    50
100
AcDbLine
 10
-668.097202
 20
501.274844
 30
0.0
 11
-668.097202
 21
487.274844
 31
0.0
  0
LINE
  5
252
330
1F
100
AcDbEntity
  8
LC-001-100-D00-0
 62
     7
370
    50
100
AcDbLine
 10
-663.547202
 20
488.774844
 30
0.0
 11
-663.547202
 21
491.774844
 31
0.0
  0
LINE
  5
253
330
1F
100
AcDbEntity
  8
LC-001-100-D00-0
 62
     7
370
    50
100
AcDbLine
 10
-662.247202
 20
505.274844
 30
0.0
 11
-662.247192
 21
494.274844
 31
0.0
  0
LINE
  5
254
330
1F
100
AcDbEntity
  8
LC-001-100-D00-0
 62
     7
370
    50
100
AcDbLine
 10
-662.247202
 20
505.274844
 30
0.0
 11
-654.447202
 21
505.274844
 31
0.0
  0
LINE
  5
255
330
1F
100
AcDbEntity
  8
LC-001-100-D00-0
 62
     7
370
    50
100
AcDbLine
 10
-664.698046
 20
488.274843
 30
0.0
 11
-664.698046
 21
486.274844
 31
0.0
  0
LINE
  5
256
330
1F
100
AcDbEntity
  8
LC-001-100-D00-0
 62
     7
370
    50
100
AcDbLine
 10
-664.698046
 20
494.274844
 30
0.0
 11
-664.698046
 21
492.274844
 31
0.0
  0
ARC
  5
257
330
1F
100
AcDbEntity
  8
LC-001-100-D00-0
 62
     7
370
    50
100
AcDbCircle
 10
-664.047202
 20
488.774844
 30
0.0
 40
0.5
100
AcDbArc
 50
270.0
 51
0.0
  0
LINE
  5
258
330
1F
100
AcDbEntity
  8
LC-001-100-D00-0
 62
     7
370
    50
100
AcDbLine
 10
-664.698046
 20
488.274843
 30
0.0
 11
-664.047202
 21
488.274844
 31
0.0
  0
LINE
  5
259
330
1F
100
AcDbEntity
  8
LC-001-100-D00-0
 62
     7
370
    50
100
AcDbLine
 10
-673.597198
 20
502.274844
 30
0.0
 11
-673.597202
 21
498.274844
 31
0.0
  0
LINE
  5
25A
330
1F
100
AcDbEntity
  8
LC-001-100-D00-0
 62
     7
370
    50
100
AcDbLine
 10
-676.597189
 20
498.274844
 30
0.0
 11
-676.597202
 21
504.274844
 31
0.0
  0
ARC
  5
25B
330
1F
100
AcDbEntity
  8
LC-001-100-D00-0
 62
     7
370
    50
100
AcDbCircle
 10
-675.597202
 20
504.274844
 30
0.0
 40
0.9999999999997726
100
AcDbArc
 50
90.0
 51
180.0
  0
LINE
  5
25C
330
1F
100
AcDbEntity
  8
LC-001-100-D00-0
 62
     7
370
    50
100
AcDbLine
 10
-664.047202
 20
492.274844
 30
0.0
 11
-664.698046
 21
492.274844
 31
0.0
  0
ARC
  5
25D
330
1F
100
AcDbEntity
  8
LC-001-100-D00-0
 62
     7
370
    50
100
AcDbCircle
 10
-664.047202
 20
491.774844
 30
0.0
 40
0.5
100
AcDbArc
 50
0.0
 51
90.0
  0
LINE
  5
25E
330
1F
100
AcDbEntity
  8
LC-001-100-D00-0
 62
     7
370
    50
100
AcDbLine
 10
-676.597189
 20
498.274844
 30
0.0
 11
-673.597202
 21
498.274844
 31
0.0
  0
LINE
  5
25F
330
1F
100
AcDbEntity
  8
LC-001-100-D00-0
 62
     7
370
    50
100
AcDbLine
 10
-662.247192
 20
494.274844
 30
0.0
 11
-664.698046
 21
494.274844
 31
0.0
  0
LINE
  5
260
330
1F
100
AcDbEntity
  8
LC-001-100-D00-0
 62
     7
370
    50
100
AcDbLine
 10
-664.698046
 20
486.274844
 30
0.0
 11
-667.097202
 21
486.274844
 31
0.0
  0
LINE
  5
261
330
1F
100
AcDbEntity
  8
LC-001-100-D00-0
 62
     7
370
    50
100
AcDbLine
 10
-673.597198
 20
502.274844
 30
0.0
 11
-669.097202
 21
502.274844
 31
0.0
  0
LINE
  5
262
330
1F
100
AcDbEntity
  8
LC-001-100-D00-0
 62
     7
370
    50
100
AcDbLine
 10
-675.597202
 20
505.274844
 30
0.0
 11
-662.247202
 21
505.274844
 31
0.0
  0
LINE
  5
263
330
1F
100
AcDbEntity
  8
LC-001-100-D00-0
 62
     7
370
    50
100
AcDbLine
 10
-645.097202
 20
498.274844
 30
0.0
 11
-643.097202
 21
498.274844
 31
0.0
  0
LINE
  5
264
330
1F
100
AcDbEntity
  8
LC-001-100-D00-0
 62
     7
370
    50
100
AcDbLine
 10
-673.597202
 20
498.274844
 30
0.0
 11
-671.597202
 21
498.274844
 31
0.0
  0
LINE
  5
265
330
1F
100
AcDbEntity
  8
LC-001-100-D00-0
 62
     7
370
    50
100
AcDbLine
 10
-671.597202
 20
498.274844
 30
0.0
 11
-668.097209
 21
498.274844
 31
0.0
  0
LINE
  5
266
330
1F
100
AcDbEntity
  8
LC-001-100-D00-0
 62
     7
370
    50
100
AcDbLine
 10
-648.597192
 20
498.274844
 30
0.0
 11
-645.097202
 21
498.274844
 31
0.0
  0
LINE
  5
267
330
1F
100
AcDbEntity
  8
LC-001-100-D00-0
 62
     7
370
    50
100
AcDbLine
 10
-283.147202
 20
489.04361
 30
0.0
 11
-283.147202
 21
491.506077
 31
0.0
  0
ARC
  5
268
330
1F
100
AcDbEntity
  8
LC-001-100-D00-0
 62
     7
370
    50
100
AcDbCircle
 10
-282.547202
 20
489.04361
 30
0.0
 40
0.6000000000002501
100
AcDbArc
 50
180.0
 51
255.0
  0
LINE
  5
269
330
1F
100
AcDbEntity
  8
LC-001-100-D00-0
 62
     7
370
    50
100
AcDbLine
 10
-281.996351
 20
488.274843
 30
0.0
 11
-282.702493
 21
488.464055
 31
0.0
  0
LINE
  5
26A
330
1F
100
AcDbEntity
  8
LC-001-100-D00-0
 62
     7
370
    50
100
AcDbLine
 10
-281.996351
 20
488.274843
 30
0.0
 11
-281.996351
 21
486.274844
 31
0.0
  0
LINE
  5
26B
330
1F
100
AcDbEntity
  8
LC-001-100-D00-0
 62
     7
370
    50
100
AcDbLine
 10
-284.947202
 20
487.274844
 30
0.0
 11
-283.947202
 21
486.274844
 31
0.0
  0
LINE
  5
26C
330
1F
100
AcDbEntity
  8
LC-001-100-D00-0
 62
     7
370
    50
100
AcDbLine
 10
-284.947202
 20
487.274844
 30
0.0
 11
-284.947205
 21
493.274844
 31
0.0
  0
LINE
  5
26D
330
1F
100
AcDbEntity
  8
LC-001-100-D00-0
 62
     7
370
    50
100
AcDbLine
 10
-283.947203
 20
494.274844
 30
0.0
 11
-284.947205
 21
493.274844
 31
0.0
  0
LINE
  5
26E
330
1F
100
AcDbEntity
  8
LC-001-100-D00-0
 62
     7
370
    50
100
AcDbLine
 10
-281.996351
 20
494.274844
 30
0.0
 11
-281.996351
 21
492.274844
 31
0.0
  0
LINE
  5
26F
330
1F
100
AcDbEntity
  8
LC-001-100-D00-0
 62
     7
370
    50
100
AcDbLine
 10
-282.702493
 20
492.085633
 30
0.0
 11
-281.996351
 21
492.274844
 31
0.0
  0
ARC
  5
270
330
1F
100
AcDbEntity
  8
LC-001-100-D00-0
 62
     7
370
    50
100
AcDbCircle
 10
-282.547202
 20
491.506077
 30
0.0
 40
0.5999999999998689
100
AcDbArc
 50
105.0
 51
180.0
  0
LINE
  5
271
330
1F
100
AcDbEntity
  8
LC-001-100-D00-0
 62
     7
370
    50
100
AcDbLine
 10
-283.947202
 20
486.274844
 30
0.0
 11
-281.996351
 21
486.274844
 31
0.0
  0
LINE
  5
272
330
1F
100
AcDbEntity
  8
LC-001-100-D00-0
 62
     7
370
    50
100
AcDbLine
 10
-283.947203
 20
494.274844
 30
0.0
 11
-281.996351
 21
494.274844
 31
0.0
  0
LINE
  5
273
330
1F
100
AcDbEntity
  8
LC-001-100-D00-0
 62
     7
370
    50
100
AcDbLine
 10
-293.547202
 20
491.506077
 30
0.0
 11
-293.547202
 21
489.04361
 31
0.0
  0
LINE
  5
274
330
1F
100
AcDbEntity
  8
LC-001-100-D00-0
 62
     7
370
    50
100
AcDbLine
 10
-291.747201
 20
493.274844
 30
0.0
 11
-292.747203
 21
494.274844
 31
0.0
  0
LINE
  5
275
330
1F
100
AcDbEntity
  8
LC-001-100-D00-0
 62
     7
370
    50
100
AcDbLine
 10
-291.747201
 20
493.274844
 30
0.0
 11
-291.747202
 21
487.274844
 31
0.0
  0
LINE
  5
276
330
1F
100
AcDbEntity
  8
LC-001-100-D00-0
 62
     7
370
    50
100
AcDbLine
 10
-292.747202
 20
486.274844
 30
0.0
 11
-291.747202
 21
487.274844
 31
0.0
  0
LINE
  5
277
330
1F
100
AcDbEntity
  8
LC-001-100-D00-0
 62
     7
370
    50
100
AcDbLine
 10
-294.698056
 20
488.274843
 30
0.0
 11
-294.698056
 21
486.274844
 31
0.0
  0
LINE
  5
278
330
1F
100
AcDbEntity
  8
LC-001-100-D00-0
 62
     7
370
    50
100
AcDbLine
 10
-293.99191
 20
488.464055
 30
0.0
 11
-294.698056
 21
488.274843
 31
0.0
  0
ARC
  5
279
330
1F
100
AcDbEntity
  8
LC-001-100-D00-0
 62
     7
370
    50
100
AcDbCircle
 10
-294.147202
 20
489.04361
 30
0.0
 40
0.6000000000003376
100
AcDbArc
 50
285.0
 51
0.0
  0
ARC
  5
27A
330
1F
100
AcDbEntity
  8
LC-001-100-D00-0
 62
     7
370
    50
100
AcDbCircle
 10
-294.147202
 20
491.506077
 30
0.0
 40
0.6000000000000227
100
AcDbArc
 50
0.0
 51
75.0
  0
LINE
  5
27B
330
1F
100
AcDbEntity
  8
LC-001-100-D00-0
 62
     7
370
    50
100
AcDbLine
 10
-294.698056
 20
492.274844
 30
0.0
 11
-293.99191
 21
492.085633
 31
0.0
  0
LINE
  5
27C
330
1F
100
AcDbEntity
  8
LC-001-100-D00-0
 62
     7
370
    50
100
AcDbLine
 10
-294.698056
 20
494.274844
 30
0.0
 11
-294.698056
 21
492.274844
 31
0.0
  0
LINE
  5
27D
330
1F
100
AcDbEntity
  8
LC-001-100-D00-0
 62
     7
370
    50
100
AcDbLine
 10
-294.698056
 20
486.274844
 30
0.0
 11
-292.747202
 21
486.274844
 31
0.0
  0
LINE
  5
27E
330
1F
100
AcDbEntity
  8
LC-001-100-D00-0
 62
     7
370
    50
100
AcDbLine
 10
-294.698056
 20
494.274844
 30
0.0
 11
-292.747203
 21
494.274844
 31
0.0
  0
LINE
  5
27F
330
1F
100
AcDbEntity
  8
LC-001-100-D00-0
 62
     7
370
    50
100
AcDbLine
 10
-291.747202
 20
487.274844
 30
0.0
 11
-291.589362
 21
487.274844
 31
0.0
  0
LINE
  5
280
330
1F
100
AcDbEntity
  8
LC-001-100-D00-0
 62
     7
370
    50
100
AcDbLine
 10
-285.105041
 20
487.274844
 30
0.0
 11
-284.947202
 21
487.274844
 31
0.0
  0
LINE
  5
281
330
1F
100
AcDbEntity
  8
LC-001-100-D00-0
 62
     7
370
    50
100
AcDbLine
 10
-283.947202
 20
486.274844
 30
0.0
 11
-284.482984
 21
486.274844
 31
0.0
  0
LINE
  5
282
330
1F
100
AcDbEntity
  8
LC-001-100-D00-0
 62
     7
370
    50
100
AcDbLine
 10
-292.21142
 20
486.274844
 30
0.0
 11
-292.747202
 21
486.274844
 31
0.0
  0
LINE
  5
283
330
1F
100
AcDbEntity
  8
LC-001-100-D00-0
 62
     7
370
    50
100
AcDbLine
 10
-281.996351
 20
494.274844
 30
0.0
 11
-284.447204
 21
494.274844
 31
0.0
  0
LINE
  5
284
330
1F
100
AcDbEntity
  8
LC-001-100-D00-0
 62
     7
370
    50
100
AcDbLine
 10
-284.447204
 20
494.274844
 30
0.0
 11
-284.447202
 21
505.274844
 31
0.0
  0
LINE
  5
285
330
1F
100
AcDbEntity
  8
LC-001-100-D00-0
 62
     7
370
    50
100
AcDbLine
 10
-284.447202
 20
505.274844
 30
0.0
 11
-271.097202
 21
505.274844
 31
0.0
  0
ARC
  5
286
330
1F
100
AcDbEntity
  8
LC-001-100-D00-0
 62
     7
370
    50
100
AcDbCircle
 10
-271.097202
 20
504.274844
 30
0.0
 40
1.0
100
AcDbArc
 50
0.0
 51
90.0
  0
LINE
  5
287
330
1F
100
AcDbEntity
  8
LC-001-100-D00-0
 62
     7
370
    50
100
AcDbLine
 10
-270.097202
 20
504.274844
 30
0.0
 11
-270.0972
 21
498.274844
 31
0.0
  0
LINE
  5
288
330
1F
100
AcDbEntity
  8
LC-001-100-D00-0
 62
     7
370
    50
100
AcDbLine
 10
-273.097202
 20
498.274844
 30
0.0
 11
-270.0972
 21
498.274844
 31
0.0
  0
LINE
  5
289
330
1F
100
AcDbEntity
  8
LC-001-100-D00-0
 62
     7
370
    50
100
AcDbLine
 10
-273.097202
 20
498.274844
 30
0.0
 11
-273.097198
 21
502.274844
 31
0.0
  0
LINE
  5
28A
330
1F
100
AcDbEntity
  8
LC-001-100-D00-0
 62
     7
370
    50
100
AcDbLine
 10
-277.597202
 20
502.274844
 30
0.0
 11
-273.097198
 21
502.274844
 31
0.0
  0
ARC
  5
28B
330
1F
100
AcDbEntity
  8
LC-001-100-D00-0
 62
     7
370
    50
100
AcDbCircle
 10
-277.597202
 20
501.274844
 30
0.0
 40
1.0
100
AcDbArc
 50
90.0
 51
180.0
  0
LINE
  5
28C
330
1F
100
AcDbEntity
  8
LC-001-100-D00-0
 62
     7
370
    50
100
AcDbLine
 10
-278.597202
 20
487.274844
 30
0.0
 11
-278.597202
 21
501.274844
 31
0.0
  0
ARC
  5
28D
330
1F
100
AcDbEntity
  8
LC-001-100-D00-0
 62
     7
370
    50
100
AcDbCircle
 10
-279.597202
 20
487.274844
 30
0.0
 40
1.0
100
AcDbArc
 50
270.0
 51
0.0
  0
LINE
  5
28E
330
1F
100
AcDbEntity
  8
LC-001-100-D00-0
 62
     7
370
    50
100
AcDbLine
 10
-279.597202
 20
486.274844
 30
0.0
 11
-281.996351
 21
486.274844
 31
0.0
  0
LINE
  5
28F
330
1F
100
AcDbEntity
  8
LC-001-100-D00-0
 62
     7
370
    50
100
AcDbLine
 10
-281.996351
 20
488.274843
 30
0.0
 11
-281.996351
 21
486.274844
 31
0.0
  0
LINE
  5
290
330
1F
100
AcDbEntity
  8
LC-001-100-D00-0
 62
     7
370
    50
100
AcDbLine
 10
-282.647202
 20
488.274844
 30
0.0
 11
-281.996351
 21
488.274843
 31
0.0
  0
ARC
  5
291
330
1F
100
AcDbEntity
  8
LC-001-100-D00-0
 62
     7
370
    50
100
AcDbCircle
 10
-282.647202
 20
488.774844
 30
0.0
 40
0.5000000000001137
100
AcDbArc
 50
180.0
 51
270.0
  0
LINE
  5
292
330
1F
100
AcDbEntity
  8
LC-001-100-D00-0
 62
     7
370
    50
100
AcDbLine
 10
-283.147202
 20
491.774844
 30
0.0
 11
-283.147202
 21
488.774844
 31
0.0
  0
ARC
  5
293
330
1F
100
AcDbEntity
  8
LC-001-100-D00-0
 62
     7
370
    50
100
AcDbCircle
 10
-282.647202
 20
491.774844
 30
0.0
 40
0.5
100
AcDbArc
 50
90.0
 51
180.0
  0
LINE
  5
294
330
1F
100
AcDbEntity
  8
LC-001-100-D00-0
 62
     7
370
    50
100
AcDbLine
 10
-281.996351
 20
492.274844
 30
0.0
 11
-282.647202
 21
492.274844
 31
0.0
  0
LINE
  5
295
330
1F
100
AcDbEntity
  8
LC-001-100-D00-0
 62
     7
370
    50
100
AcDbLine
 10
-281.996351
 20
494.274844
 30
0.0
 11
-281.996351
 21
492.274844
 31
0.0
  0
ARC
  5
296
330
1F
100
AcDbEntity
  8
LC-001-100-D00-0
 62
     7
370
    50
100
AcDbCircle
 10
-299.097202
 20
501.274844
 30
0.0
 40
1.0
100
AcDbArc
 50
0.0
 51
90.0
  0
ARC
  5
297
330
1F
100
AcDbEntity
  8
LC-001-100-D00-0
 62
     7
370
    50
100
AcDbCircle
 10
-297.097202
 20
487.274844
 30
0.0
 40
1.0
100
AcDbArc
 50
180.0
 51
270.0
  0
LINE
  5
298
330
1F
100
AcDbEntity
  8
LC-001-100-D00-0
 62
     7
370
    50
100
AcDbLine
 10
-298.097202
 20
501.274844
 30
0.0
 11
-298.097202
 21
487.274844
 31
0.0
  0
LINE
  5
299
330
1F
100
AcDbEntity
  8
LC-001-100-D00-0
 62
     7
370
    50
100
AcDbLine
 10
-293.547202
 20
488.774844
 30
0.0
 11
-293.547202
 21
491.774844
 31
0.0
  0
LINE
  5
29A
330
1F
100
AcDbEntity
  8
LC-001-100-D00-0
 62
     7
370
    50
100
AcDbLine
 10
-292.247202
 20
505.274844
 30
0.0
 11
-292.247202
 21
494.274844
 31
0.0
  0
LINE
  5
29B
330
1F
100
AcDbEntity
  8
LC-001-100-D00-0
 62
     7
370
    50
100
AcDbLine
 10
-292.247202
 20
505.274844
 30
0.0
 11
-284.447202
 21
505.274844
 31
0.0
  0
LINE
  5
29C
330
1F
100
AcDbEntity
  8
LC-001-100-D00-0
 62
     7
370
    50
100
AcDbLine
 10
-294.698056
 20
488.274843
 30
0.0
 11
-294.698056
 21
486.274844
 31
0.0
  0
LINE
  5
29D
330
1F
100
AcDbEntity
  8
LC-001-100-D00-0
 62
     7
370
    50
100
AcDbLine
 10
-294.698056
 20
494.274844
 30
0.0
 11
-294.698056
 21
492.274844
 31
0.0
  0
ARC
  5
29E
330
1F
100
AcDbEntity
  8
LC-001-100-D00-0
 62
     7
370
    50
100
AcDbCircle
 10
-294.047202
 20
488.774844
 30
0.0
 40
0.5
100
AcDbArc
 50
270.0
 51
0.0
  0
LINE
  5
29F
330
1F
100
AcDbEntity
  8
LC-001-100-D00-0
 62
     7
370
    50
100
AcDbLine
 10
-294.698056
 20
488.274843
 30
0.0
 11
-294.047202
 21
488.274844
 31
0.0
  0
LINE
  5
2A0
330
1F
100
AcDbEntity
  8
LC-001-100-D00-0
 62
     7
370
    50
100
AcDbLine
 10
-303.597201
 20
502.274844
 30
0.0
 11
-303.597202
 21
498.274844
 31
0.0
  0
LINE
  5
2A1
330
1F
100
AcDbEntity
  8
LC-001-100-D00-0
 62
     7
370
    50
100
AcDbLine
 10
-306.597199
 20
498.274844
 30
0.0
 11
-306.597202
 21
504.274844
 31
0.0
  0
ARC
  5
2A2
330
1F
100
AcDbEntity
  8
LC-001-100-D00-0
 62
     7
370
    50
100
AcDbCircle
 10
-305.597202
 20
504.274844
 30
0.0
 40
0.9999999999997726
100
AcDbArc
 50
90.0
 51
180.0
  0
LINE
  5
2A3
330
1F
100
AcDbEntity
  8
LC-001-100-D00-0
 62
     7
370
    50
100
AcDbLine
 10
-294.047202
 20
492.274844
 30
0.0
 11
-294.698056
 21
492.274844
 31
0.0
  0
ARC
  5
2A4
330
1F
100
AcDbEntity
  8
LC-001-100-D00-0
 62
     7
370
    50
100
AcDbCircle
 10
-294.047202
 20
491.774844
 30
0.0
 40
0.5000000000001137
100
AcDbArc
 50
0.0
 51
90.0
  0
LINE
  5
2A5
330
1F
100
AcDbEntity
  8
LC-001-100-D00-0
 62
     7
370
    50
100
AcDbLine
 10
-292.247202
 20
494.274844
 30
0.0
 11
-294.698056
 21
494.274844
 31
0.0
  0
LINE
  5
2A6
330
1F
100
AcDbEntity
  8
LC-001-100-D00-0
 62
     7
370
    50
100
AcDbLine
 10
-294.698056
 20
486.274844
 30
0.0
 11
-297.097202
 21
486.274844
 31
0.0
  0
LINE
  5
2A7
330
1F
100
AcDbEntity
  8
LC-001-100-D00-0
 62
     7
370
    50
100
AcDbLine
 10
-303.597201
 20
502.274844
 30
0.0
 11
-299.097202
 21
502.274844
 31
0.0
  0
LINE
  5
2A8
330
1F
100
AcDbEntity
  8
LC-001-100-D00-0
 62
     7
370
    50
100
AcDbLine
 10
-305.597202
 20
505.274844
 30
0.0
 11
-292.247202
 21
505.274844
 31
0.0
  0
LINE
  5
2A9
330
1F
100
AcDbEntity
  8
LC-001-100-D00-0
 62
     7
370
    50
100
AcDbLine
 10
-306.597199
 20
498.274844
 30
0.0
 11
-303.597202
 21
498.274844
 31
0.0
  0
LINE
  5
2AA
330
1F
100
AcDbEntity
  8
LC-001-100-D00-0
 62
     7
370
    50
100
AcDbLine
 10
-275.097202
 20
498.274844
 30
0.0
 11
-273.097202
 21
498.274844
 31
0.0
  0
LINE
  5
2AB
330
1F
100
AcDbEntity
  8
LC-001-100-D00-0
 62
     7
370
    50
100
AcDbLine
 10
-303.597202
 20
498.274844
 30
0.0
 11
-301.597202
 21
498.274844
 31
0.0
  0
LINE
  5
2AC
330
1F
100
AcDbEntity
  8
LC-001-100-D00-0
 62
     7
370
    50
100
AcDbLine
 10
-301.597202
 20
498.274844
 30
0.0
 11
-298.097204
 21
498.274844
 31
0.0
  0
LINE
  5
2AD
330
1F
100
AcDbEntity
  8
LC-001-100-D00-0
 62
     7
370
    50
100
AcDbLine
 10
-278.597202
 20
498.274844
 30
0.0
 11
-275.097202
 21
498.274844
 31
0.0
  0
LINE
  5
2AE
330
1F
100
AcDbEntity
  8
LC-001-100-D00-0
 62
     7
370
    50
100
AcDbLine
 10
286.852798
 20
489.04361
 30
0.0
 11
286.852798
 21
491.506077
 31
0.0
  0
ARC
  5
2AF
330
1F
100
AcDbEntity
  8
LC-001-100-D00-0
 62
     7
370
    50
100
AcDbCircle
 10
287.452798
 20
489.04361
 30
0.0
 40
0.6000000000003638
100
AcDbArc
 50
180.0
 51
255.0
  0
LINE
  5
2B0
330
1F
100
AcDbEntity
  8
LC-001-100-D00-0
 62
     7
370
    50
100
AcDbLine
 10
288.003642
 20
488.274843
 30
0.0
 11
287.297507
 21
488.464055
 31
0.0
  0
LINE
  5
2B1
330
1F
100
AcDbEntity
  8
LC-001-100-D00-0
 62
     7
370
    50
100
AcDbLine
 10
288.003642
 20
488.274843
 30
0.0
 11
288.003642
 21
486.274844
 31
0.0
  0
LINE
  5
2B2
330
1F
100
AcDbEntity
  8
LC-001-100-D00-0
 62
     7
370
    50
100
AcDbLine
 10
285.052798
 20
487.274844
 30
0.0
 11
286.052798
 21
486.274844
 31
0.0
  0
LINE
  5
2B3
330
1F
100
AcDbEntity
  8
LC-001-100-D00-0
 62
     7
370
    50
100
AcDbLine
 10
285.052798
 20
487.274844
 30
0.0
 11
285.052795
 21
493.274844
 31
0.0
  0
LINE
  5
2B4
330
1F
100
AcDbEntity
  8
LC-001-100-D00-0
 62
     7
370
    50
100
AcDbLine
 10
286.052812
 20
494.274844
 30
0.0
 11
285.052795
 21
493.274844
 31
0.0
  0
LINE
  5
2B5
330
1F
100
AcDbEntity
  8
LC-001-100-D00-0
 62
     7
370
    50
100
AcDbLine
 10
288.003642
 20
494.274844
 30
0.0
 11
288.003642
 21
492.274844
 31
0.0
  0
LINE
  5
2B6
330
1F
100
AcDbEntity
  8
LC-001-100-D00-0
 62
     7
370
    50
100
AcDbLine
 10
287.297507
 20
492.085633
 30
0.0
 11
288.003642
 21
492.274844
 31
0.0
  0
ARC
  5
2B7
330
1F
100
AcDbEntity
  8
LC-001-100-D00-0
 62
     7
370
    50
100
AcDbCircle
 10
287.452798
 20
491.506077
 30
0.0
 40
0.5999999999998689
100
AcDbArc
 50
105.0
 51
180.0
  0
LINE
  5
2B8
330
1F
100
AcDbEntity
  8
LC-001-100-D00-0
 62
     7
370
    50
100
AcDbLine
 10
286.052798
 20
486.274844
 30
0.0
 11
288.003642
 21
486.274844
 31
0.0
  0
LINE
  5
2B9
330
1F
100
AcDbEntity
  8
LC-001-100-D00-0
 62
     7
370
    50
100
AcDbLine
 10
286.052812
 20
494.274844
 30
0.0
 11
288.003642
 21
494.274844
 31
0.0
  0
LINE
  5
2BA
330
1F
100
AcDbEntity
  8
LC-001-100-D00-0
 62
     7
370
    50
100
AcDbLine
 10
276.452798
 20
491.506077
 30
0.0
 11
276.452798
 21
489.04361
 31
0.0
  0
LINE
  5
2BB
330
1F
100
AcDbEntity
  8
LC-001-100-D00-0
 62
     7
370
    50
100
AcDbLine
 10
278.252799
 20
493.274844
 30
0.0
 11
277.252812
 21
494.274844
 31
0.0
  0
LINE
  5
2BC
330
1F
100
AcDbEntity
  8
LC-001-100-D00-0
 62
     7
370
    50
100
AcDbLine
 10
278.252799
 20
493.274844
 30
0.0
 11
278.252798
 21
487.274844
 31
0.0
  0
LINE
  5
2BD
330
1F
100
AcDbEntity
  8
LC-001-100-D00-0
 62
     7
370
    50
100
AcDbLine
 10
277.252798
 20
486.274844
 30
0.0
 11
278.252798
 21
487.274844
 31
0.0
  0
LINE
  5
2BE
330
1F
100
AcDbEntity
  8
LC-001-100-D00-0
 62
     7
370
    50
100
AcDbLine
 10
275.301952
 20
488.274843
 30
0.0
 11
275.301952
 21
486.274844
 31
0.0
  0
LINE
  5
2BF
330
1F
100
AcDbEntity
  8
LC-001-100-D00-0
 62
     7
370
    50
100
AcDbLine
 10
276.00809
 20
488.464055
 30
0.0
 11
275.301952
 21
488.274843
 31
0.0
  0
ARC
  5
2C0
330
1F
100
AcDbEntity
  8
LC-001-100-D00-0
 62
     7
370
    50
100
AcDbCircle
 10
275.852798
 20
489.04361
 30
0.0
 40
0.6000000000003082
100
AcDbArc
 50
285.0
 51
0.0
  0
ARC
  5
2C1
330
1F
100
AcDbEntity
  8
LC-001-100-D00-0
 62
     7
370
    50
100
AcDbCircle
 10
275.852798
 20
491.506077
 30
0.0
 40
0.5999999999999091
100
AcDbArc
 50
0.0
 51
75.0
  0
LINE
  5
2C2
330
1F
100
AcDbEntity
  8
LC-001-100-D00-0
 62
     7
370
    50
100
AcDbLine
 10
275.301952
 20
492.274844
 30
0.0
 11
276.00809
 21
492.085633
 31
0.0
  0
LINE
  5
2C3
330
1F
100
AcDbEntity
  8
LC-001-100-D00-0
 62
     7
370
    50
100
AcDbLine
 10
275.301952
 20
494.274844
 30
0.0
 11
275.301952
 21
492.274844
 31
0.0
  0
LINE
  5
2C4
330
1F
100
AcDbEntity
  8
LC-001-100-D00-0
 62
     7
370
    50
100
AcDbLine
 10
275.301952
 20
486.274844
 30
0.0
 11
277.252798
 21
486.274844
 31
0.0
  0
LINE
  5
2C5
330
1F
100
AcDbEntity
  8
LC-001-100-D00-0
 62
     7
370
    50
100
AcDbLine
 10
275.301952
 20
494.274844
 30
0.0
 11
277.252812
 21
494.274844
 31
0.0
  0
LINE
  5
2C6
330
1F
100
AcDbEntity
  8
LC-001-100-D00-0
 62
     7
370
    50
100
AcDbLine
 10
278.252798
 20
487.274844
 30
0.0
 11
278.410638
 21
487.274844
 31
0.0
  0
LINE
  5
2C7
330
1F
100
AcDbEntity
  8
LC-001-100-D00-0
 62
     7
370
    50
100
AcDbLine
 10
284.894959
 20
487.274844
 30
0.0
 11
285.052798
 21
487.274844
 31
0.0
  0
LINE
  5
2C8
330
1F
100
AcDbEntity
  8
LC-001-100-D00-0
 62
     7
370
    50
100
AcDbLine
 10
286.052798
 20
486.274844
 30
0.0
 11
285.517016
 21
486.274844
 31
0.0
  0
LINE
  5
2C9
330
1F
100
AcDbEntity
  8
LC-001-100-D00-0
 62
     7
370
    50
100
AcDbLine
 10
277.78858
 20
486.274844
 30
0.0
 11
277.252798
 21
486.274844
 31
0.0
  0
LINE
  5
2CA
330
1F
100
AcDbEntity
  8
LC-001-100-D00-0
 62
     7
370
    50
100
AcDbLine
 10
288.003642
 20
494.274844
 30
0.0
 11
285.552788
 21
494.274844
 31
0.0
  0
LINE
  5
2CB
330
1F
100
AcDbEntity
  8
LC-001-100-D00-0
 62
     7
370
    50
100
AcDbLine
 10
285.552788
 20
494.274844
 30
0.0
 11
285.552798
 21
505.274844
 31
0.0
  0
LINE
  5
2CC
330
1F
100
AcDbEntity
  8
LC-001-100-D00-0
 62
     7
370
    50
100
AcDbLine
 10
285.552798
 20
505.274844
 30
0.0
 11
298.902798
 21
505.274844
 31
0.0
  0
ARC
  5
2CD
330
1F
100
AcDbEntity
  8
LC-001-100-D00-0
 62
     7
370
    50
100
AcDbCircle
 10
298.902798
 20
504.274844
 30
0.0
 40
1.0
100
AcDbArc
 50
0.0
 51
90.0
  0
LINE
  5
2CE
330
1F
100
AcDbEntity
  8
LC-001-100-D00-0
 62
     7
370
    50
100
AcDbLine
 10
299.902798
 20
504.274844
 30
0.0
 11
299.902786
 21
498.274844
 31
0.0
  0
LINE
  5
2CF
330
1F
100
AcDbEntity
  8
LC-001-100-D00-0
 62
     7
370
    50
100
AcDbLine
 10
296.902798
 20
498.274844
 30
0.0
 11
299.902786
 21
498.274844
 31
0.0
  0
LINE
  5
2D0
330
1F
100
AcDbEntity
  8
LC-001-100-D00-0
 62
     7
370
    50
100
AcDbLine
 10
296.902798
 20
498.274844
 30
0.0
 11
296.902794
 21
502.274844
 31
0.0
  0
LINE
  5
2D1
330
1F
100
AcDbEntity
  8
LC-001-100-D00-0
 62
     7
370
    50
100
AcDbLine
 10
292.402798
 20
502.274844
 30
0.0
 11
296.902794
 21
502.274844
 31
0.0
  0
ARC
  5
2D2
330
1F
100
AcDbEntity
  8
LC-001-100-D00-0
 62
     7
370
    50
100
AcDbCircle
 10
292.402798
 20
501.274844
 30
0.0
 40
1.000000000000227
100
AcDbArc
 50
90.0
 51
180.0
  0
LINE
  5
2D3
330
1F
100
AcDbEntity
  8
LC-001-100-D00-0
 62
     7
370
    50
100
AcDbLine
 10
291.402798
 20
487.274844
 30
0.0
 11
291.402798
 21
501.274844
 31
0.0
  0
ARC
  5
2D4
330
1F
100
AcDbEntity
  8
LC-001-100-D00-0
 62
     7
370
    50
100
AcDbCircle
 10
290.402798
 20
487.274844
 30
0.0
 40
1.0
100
AcDbArc
 50
270.0
 51
0.0
  0
LINE
  5
2D5
330
1F
100
AcDbEntity
  8
LC-001-100-D00-0
 62
     7
370
    50
100
AcDbLine
 10
290.402798
 20
486.274844
 30
0.0
 11
288.003642
 21
486.274844
 31
0.0
  0
LINE
  5
2D6
330
1F
100
AcDbEntity
  8
LC-001-100-D00-0
 62
     7
370
    50
100
AcDbLine
 10
288.003642
 20
488.274843
 30
0.0
 11
288.003642
 21
486.274844
 31
0.0
  0
LINE
  5
2D7
330
1F
100
AcDbEntity
  8
LC-001-100-D00-0
 62
     7
370
    50
100
AcDbLine
 10
287.352798
 20
488.274844
 30
0.0
 11
288.003642
 21
488.274843
 31
0.0
  0
ARC
  5
2D8
330
1F
100
AcDbEntity
  8
LC-001-100-D00-0
 62
     7
370
    50
100
AcDbCircle
 10
287.352798
 20
488.774844
 30
0.0
 40
0.5000000000002274
100
AcDbArc
 50
180.0
 51
270.0
  0
LINE
  5
2D9
330
1F
100
AcDbEntity
  8
LC-001-100-D00-0
 62
     7
370
    50
100
AcDbLine
 10
286.852798
 20
491.774844
 30
0.0
 11
286.852798
 21
488.774844
 31
0.0
  0
ARC
  5
2DA
330
1F
100
AcDbEntity
  8
LC-001-100-D00-0
 62
     7
370
    50
100
AcDbCircle
 10
287.352798
 20
491.774844
 30
0.0
 40
0.4999999999997726
100
AcDbArc
 50
90.0
 51
180.0
  0
LINE
  5
2DB
330
1F
100
AcDbEntity
  8
LC-001-100-D00-0
 62
     7
370
    50
100
AcDbLine
 10
288.003642
 20
492.274844
 30
0.0
 11
287.352798
 21
492.274844
 31
0.0
  0
LINE
  5
2DC
330
1F
100
AcDbEntity
  8
LC-001-100-D00-0
 62
     7
370
    50
100
AcDbLine
 10
288.003642
 20
494.274844
 30
0.0
 11
288.003642
 21
492.274844
 31
0.0
  0
ARC
  5
2DD
330
1F
100
AcDbEntity
  8
LC-001-100-D00-0
 62
     7
370
    50
100
AcDbCircle
 10
270.902798
 20
501.274844
 30
0.0
 40
1.0
100
AcDbArc
 50
0.0
 51
90.0
  0
ARC
  5
2DE
330
1F
100
AcDbEntity
  8
LC-001-100-D00-0
 62
     7
370
    50
100
AcDbCircle
 10
272.902798
 20
487.274844
 30
0.0
 40
1.0
100
AcDbArc
 50
180.0
 51
270.0
  0
LINE
  5
2DF
330
1F
100
AcDbEntity
  8
LC-001-100-D00-0
 62
     7
370
    50
100
AcDbLine
 10
271.902798
 20
501.274844
 30
0.0
 11
271.902798
 21
487.274844
 31
0.0
  0
LINE
  5
2E0
330
1F
100
AcDbEntity
  8
LC-001-100-D00-0
 62
     7
370
    50
100
AcDbLine
 10
276.452798
 20
488.774844
 30
0.0
 11
276.452798
 21
491.774844
 31
0.0
  0
LINE
  5
2E1
330
1F
100
AcDbEntity
  8
LC-001-100-D00-0
 62
     7
370
    50
100
AcDbLine
 10
277.752798
 20
505.274844
 30
0.0
 11
277.752805
 21
494.274844
 31
0.0
  0
LINE
  5
2E2
330
1F
100
AcDbEntity
  8
LC-001-100-D00-0
 62
     7
370
    50
100
AcDbLine
 10
277.752798
 20
505.274844
 30
0.0
 11
285.552798
 21
505.274844
 31
0.0
  0
LINE
  5
2E3
330
1F
100
AcDbEntity
  8
LC-001-100-D00-0
 62
     7
370
    50
100
AcDbLine
 10
275.301952
 20
488.274843
 30
0.0
 11
275.301952
 21
486.274844
 31
0.0
  0
LINE
  5
2E4
330
1F
100
AcDbEntity
  8
LC-001-100-D00-0
 62
     7
370
    50
100
AcDbLine
 10
275.301952
 20
494.274844
 30
0.0
 11
275.301952
 21
492.274844
 31
0.0
  0
ARC
  5
2E5
330
1F
100
AcDbEntity
  8
LC-001-100-D00-0
 62
     7
370
    50
100
AcDbCircle
 10
275.952798
 20
488.774844
 30
0.0
 40
0.5000000000004548
100
AcDbArc
 50
270.0
 51
0.0
  0
LINE
  5
2E6
330
1F
100
AcDbEntity
  8
LC-001-100-D00-0
 62
     7
370
    50
100
AcDbLine
 10
275.301952
 20
488.274843
 30
0.0
 11
275.952798
 21
488.274844
 31
0.0
  0
LINE
  5
2E7
330
1F
100
AcDbEntity
  8
LC-001-100-D00-0
 62
     7
370
    50
100
AcDbLine
 10
266.4028
 20
502.274844
 30
0.0
 11
266.402798
 21
498.274844
 31
0.0
  0
LINE
  5
2E8
330
1F
100
AcDbEntity
  8
LC-001-100-D00-0
 62
     7
370
    50
100
AcDbLine
 10
263.402808
 20
498.274844
 30
0.0
 11
263.402798
 21
504.274844
 31
0.0
  0
ARC
  5
2E9
330
1F
100
AcDbEntity
  8
LC-001-100-D00-0
 62
     7
370
    50
100
AcDbCircle
 10
264.402798
 20
504.274844
 30
0.0
 40
1.0
100
AcDbArc
 50
90.0
 51
180.0
  0
LINE
  5
2EA
330
1F
100
AcDbEntity
  8
LC-001-100-D00-0
 62
     7
370
    50
100
AcDbLine
 10
275.952798
 20
492.274844
 30
0.0
 11
275.301952
 21
492.274844
 31
0.0
  0
ARC
  5
2EB
330
1F
100
AcDbEntity
  8
LC-001-100-D00-0
 62
     7
370
    50
100
AcDbCircle
 10
275.952798
 20
491.774844
 30
0.0
 40
0.5
100
AcDbArc
 50
0.0
 51
90.0
  0
LINE
  5
2EC
330
1F
100
AcDbEntity
  8
LC-001-100-D00-0
 62
     7
370
    50
100
AcDbLine
 10
263.402808
 20
498.274844
 30
0.0
 11
266.402798
 21
498.274844
 31
0.0
  0
LINE
  5
2ED
330
1F
100
AcDbEntity
  8
LC-001-100-D00-0
 62
     7
370
    50
100
AcDbLine
 10
277.752805
 20
494.274844
 30
0.0
 11
275.301952
 21
494.274844
 31
0.0
  0
LINE
  5
2EE
330
1F
100
AcDbEntity
  8
LC-001-100-D00-0
 62
     7
370
    50
100
AcDbLine
 10
275.301952
 20
486.274844
 30
0.0
 11
272.902798
 21
486.274844
 31
0.0
  0
LINE
  5
2EF
330
1F
100
AcDbEntity
  8
LC-001-100-D00-0
 62
     7
370
    50
100
AcDbLine
 10
266.4028
 20
502.274844
 30
0.0
 11
270.902798
 21
502.274844
 31
0.0
  0
LINE
  5
2F0
330
1F
100
AcDbEntity
  8
LC-001-100-D00-0
 62
     7
370
    50
100
AcDbLine
 10
264.402798
 20
505.274844
 30
0.0
 11
277.752798
 21
505.274844
 31
0.0
  0
LINE
  5
2F1
330
1F
100
AcDbEntity
  8
LC-001-100-D00-0
 62
     7
370
    50
100
AcDbLine
 10
294.902798
 20
498.274844
 30
0.0
 11
296.902798
 21
498.274844
 31
0.0
  0
LINE
  5
2F2
330
1F
100
AcDbEntity
  8
LC-001-100-D00-0
 62
     7
370
    50
100
AcDbLine
 10
266.402798
 20
498.274844
 30
0.0
 11
268.402798
 21
498.274844
 31
0.0
  0
LINE
  5
2F3
330
1F
100
AcDbEntity
  8
LC-001-100-D00-0
 62
     7
370
    50
100
AcDbLine
 10
268.402798
 20
498.274844
 30
0.0
 11
271.902788
 21
498.274844
 31
0.0
  0
LINE
  5
2F4
330
1F
100
AcDbEntity
  8
LC-001-100-D00-0
 62
     7
370
    50
100
AcDbLine
 10
291.402806
 20
498.274844
 30
0.0
 11
294.902798
 21
498.274844
 31
0.0
  0
LINE
  5
2F5
330
1F
100
AcDbEntity
  8
LC-001-100-D00-0
 62
     7
370
    50
100
AcDbLine
 10
-83.147202
 20
489.04361
 30
0.0
 11
-83.147202
 21
491.506077
 31
0.0
  0
ARC
  5
2F6
330
1F
100
AcDbEntity
  8
LC-001-100-D00-0
 62
     7
370
    50
100
AcDbCircle
 10
-82.547202
 20
489.04361
 30
0.0
 40
0.6000000000002501
100
AcDbArc
 50
180.0
 51
255.0
  0
LINE
  5
2F7
330
1F
100
AcDbEntity
  8
LC-001-100-D00-0
 62
     7
370
    50
100
AcDbLine
 10
-81.996348
 20
488.274843
 30
0.0
 11
-82.702493
 21
488.464055
 31
0.0
  0
LINE
  5
2F8
330
1F
100
AcDbEntity
  8
LC-001-100-D00-0
 62
     7
370
    50
100
AcDbLine
 10
-81.996348
 20
488.274843
 30
0.0
 11
-81.996348
 21
486.274844
 31
0.0
  0
LINE
  5
2F9
330
1F
100
AcDbEntity
  8
LC-001-100-D00-0
 62
     7
370
    50
100
AcDbLine
 10
-84.947202
 20
487.274844
 30
0.0
 11
-83.947202
 21
486.274844
 31
0.0
  0
LINE
  5
2FA
330
1F
100
AcDbEntity
  8
LC-001-100-D00-0
 62
     7
370
    50
100
AcDbLine
 10
-84.947202
 20
487.274844
 30
0.0
 11
-84.947202
 21
493.274844
 31
0.0
  0
LINE
  5
2FB
330
1F
100
AcDbEntity
  8
LC-001-100-D00-0
 62
     7
370
    50
100
AcDbLine
 10
-83.9472
 20
494.274844
 30
0.0
 11
-84.947202
 21
493.274844
 31
0.0
  0
LINE
  5
2FC
330
1F
100
AcDbEntity
  8
LC-001-100-D00-0
 62
     7
370
    50
100
AcDbLine
 10
-81.996348
 20
494.274844
 30
0.0
 11
-81.996348
 21
492.274844
 31
0.0
  0
LINE
  5
2FD
330
1F
100
AcDbEntity
  8
LC-001-100-D00-0
 62
     7
370
    50
100
AcDbLine
 10
-82.702493
 20
492.085633
 30
0.0
 11
-81.996348
 21
492.274844
 31
0.0
  0
ARC
  5
2FE
330
1F
100
AcDbEntity
  8
LC-001-100-D00-0
 62
     7
370
    50
100
AcDbCircle
 10
-82.547202
 20
491.506077
 30
0.0
 40
0.5999999999998983
100
AcDbArc
 50
105.0
 51
180.0
  0
LINE
  5
2FF
330
1F
100
AcDbEntity
  8
LC-001-100-D00-0
 62
     7
370
    50
100
AcDbLine
 10
-83.947202
 20
486.274844
 30
0.0
 11
-81.996348
 21
486.274844
 31
0.0
  0
LINE
  5
300
330
1F
100
AcDbEntity
  8
LC-001-100-D00-0
 62
     7
370
    50
100
AcDbLine
 10
-83.9472
 20
494.274844
 30
0.0
 11
-81.996348
 21
494.274844
 31
0.0
  0
LINE
  5
301
330
1F
100
AcDbEntity
  8
LC-001-100-D00-0
 62
     7
370
    50
100
AcDbLine
 10
-93.547202
 20
491.506077
 30
0.0
 11
-93.547202
 21
489.04361
 31
0.0
  0
LINE
  5
302
330
1F
100
AcDbEntity
  8
LC-001-100-D00-0
 62
     7
370
    50
100
AcDbLine
 10
-91.747198
 20
493.274844
 30
0.0
 11
-92.7472
 21
494.274844
 31
0.0
  0
LINE
  5
303
330
1F
100
AcDbEntity
  8
LC-001-100-D00-0
 62
     7
370
    50
100
AcDbLine
 10
-91.747198
 20
493.274844
 30
0.0
 11
-91.747202
 21
487.274844
 31
0.0
  0
LINE
  5
304
330
1F
100
AcDbEntity
  8
LC-001-100-D00-0
 62
     7
370
    50
100
AcDbLine
 10
-92.747202
 20
486.274844
 30
0.0
 11
-91.747202
 21
487.274844
 31
0.0
  0
LINE
  5
305
330
1F
100
AcDbEntity
  8
LC-001-100-D00-0
 62
     7
370
    50
100
AcDbLine
 10
-94.698053
 20
488.274843
 30
0.0
 11
-94.698053
 21
486.274844
 31
0.0
  0
LINE
  5
306
330
1F
100
AcDbEntity
  8
LC-001-100-D00-0
 62
     7
370
    50
100
AcDbLine
 10
-93.99191
 20
488.464055
 30
0.0
 11
-94.698053
 21
488.274843
 31
0.0
  0
ARC
  5
307
330
1F
100
AcDbEntity
  8
LC-001-100-D00-0
 62
     7
370
    50
100
AcDbCircle
 10
-94.147202
 20
489.04361
 30
0.0
 40
0.6000000000003376
100
AcDbArc
 50
285.0
 51
0.0
  0
ARC
  5
308
330
1F
100
AcDbEntity
  8
LC-001-100-D00-0
 62
     7
370
    50
100
AcDbCircle
 10
-94.147202
 20
491.506077
 30
0.0
 40
0.6000000000000227
100
AcDbArc
 50
0.0
 51
75.0
  0
LINE
  5
309
330
1F
100
AcDbEntity
  8
LC-001-100-D00-0
 62
     7
370
    50
100
AcDbLine
 10
-94.698053
 20
492.274844
 30
0.0
 11
-93.99191
 21
492.085633
 31
0.0
  0
LINE
  5
30A
330
1F
100
AcDbEntity
  8
LC-001-100-D00-0
 62
     7
370
    50
100
AcDbLine
 10
-94.698053
 20
494.274844
 30
0.0
 11
-94.698053
 21
492.274844
 31
0.0
  0
LINE
  5
30B
330
1F
100
AcDbEntity
  8
LC-001-100-D00-0
 62
     7
370
    50
100
AcDbLine
 10
-94.698053
 20
486.274844
 30
0.0
 11
-92.747202
 21
486.274844
 31
0.0
  0
LINE
  5
30C
330
1F
100
AcDbEntity
  8
LC-001-100-D00-0
 62
     7
370
    50
100
AcDbLine
 10
-94.698053
 20
494.274844
 30
0.0
 11
-92.7472
 21
494.274844
 31
0.0
  0
LINE
  5
30D
330
1F
100
AcDbEntity
  8
LC-001-100-D00-0
 62
     7
370
    50
100
AcDbLine
 10
-91.747202
 20
487.274844
 30
0.0
 11
-91.589362
 21
487.274844
 31
0.0
  0
LINE
  5
30E
330
1F
100
AcDbEntity
  8
LC-001-100-D00-0
 62
     7
370
    50
100
AcDbLine
 10
-85.105041
 20
487.274844
 30
0.0
 11
-84.947202
 21
487.274844
 31
0.0
  0
LINE
  5
30F
330
1F
100
AcDbEntity
  8
LC-001-100-D00-0
 62
     7
370
    50
100
AcDbLine
 10
-83.947202
 20
486.274844
 30
0.0
 11
-84.482984
 21
486.274844
 31
0.0
  0
LINE
  5
310
330
1F
100
AcDbEntity
  8
LC-001-100-D00-0
 62
     7
370
    50
100
AcDbLine
 10
-92.21142
 20
486.274844
 30
0.0
 11
-92.747202
 21
486.274844
 31
0.0
  0
LINE
  5
311
330
1F
100
AcDbEntity
  8
LC-001-100-D00-0
 62
     7
370
    50
100
AcDbLine
 10
-81.996348
 20
494.274844
 30
0.0
 11
-84.447201
 21
494.274844
 31
0.0
  0
LINE
  5
312
330
1F
100
AcDbEntity
  8
LC-001-100-D00-0
 62
     7
370
    50
100
AcDbLine
 10
-84.447201
 20
494.274844
 30
0.0
 11
-84.447202
 21
505.274844
 31
0.0
  0
LINE
  5
313
330
1F
100
AcDbEntity
  8
LC-001-100-D00-0
 62
     7
370
    50
100
AcDbLine
 10
-84.447202
 20
505.274844
 30
0.0
 11
-71.097202
 21
505.274844
 31
0.0
  0
ARC
  5
314
330
1F
100
AcDbEntity
  8
LC-001-100-D00-0
 62
     7
370
    50
100
AcDbCircle
 10
-71.097202
 20
504.274844
 30
0.0
 40
1.0
100
AcDbArc
 50
0.0
 51
90.0
  0
LINE
  5
315
330
1F
100
AcDbEntity
  8
LC-001-100-D00-0
 62
     7
370
    50
100
AcDbLine
 10
-70.097202
 20
504.274844
 30
0.0
 11
-70.097204
 21
498.274844
 31
0.0
  0
LINE
  5
316
330
1F
100
AcDbEntity
  8
LC-001-100-D00-0
 62
     7
370
    50
100
AcDbLine
 10
-73.097202
 20
498.274844
 30
0.0
 11
-70.097204
 21
498.274844
 31
0.0
  0
LINE
  5
317
330
1F
100
AcDbEntity
  8
LC-001-100-D00-0
 62
     7
370
    50
100
AcDbLine
 10
-73.097202
 20
498.274844
 30
0.0
 11
-73.097203
 21
502.274844
 31
0.0
  0
LINE
  5
318
330
1F
100
AcDbEntity
  8
LC-001-100-D00-0
 62
     7
370
    50
100
AcDbLine
 10
-77.597202
 20
502.274844
 30
0.0
 11
-73.097203
 21
502.274844
 31
0.0
  0
ARC
  5
319
330
1F
100
AcDbEntity
  8
LC-001-100-D00-0
 62
     7
370
    50
100
AcDbCircle
 10
-77.597202
 20
501.274844
 30
0.0
 40
1.000000000000227
100
AcDbArc
 50
90.0
 51
180.0
  0
LINE
  5
31A
330
1F
100
AcDbEntity
  8
LC-001-100-D00-0
 62
     7
370
    50
100
AcDbLine
 10
-78.597202
 20
487.274844
 30
0.0
 11
-78.597202
 21
501.274844
 31
0.0
  0
ARC
  5
31B
330
1F
100
AcDbEntity
  8
LC-001-100-D00-0
 62
     7
370
    50
100
AcDbCircle
 10
-79.597202
 20
487.274844
 30
0.0
 40
1.0
100
AcDbArc
 50
270.0
 51
0.0
  0
LINE
  5
31C
330
1F
100
AcDbEntity
  8
LC-001-100-D00-0
 62
     7
370
    50
100
AcDbLine
 10
-79.597202
 20
486.274844
 30
0.0
 11
-81.996348
 21
486.274844
 31
0.0
  0
LINE
  5
31D
330
1F
100
AcDbEntity
  8
LC-001-100-D00-0
 62
     7
370
    50
100
AcDbLine
 10
-81.996348
 20
488.274843
 30
0.0
 11
-81.996348
 21
486.274844
 31
0.0
  0
LINE
  5
31E
330
1F
100
AcDbEntity
  8
LC-001-100-D00-0
 62
     7
370
    50
100
AcDbLine
 10
-82.647202
 20
488.274844
 30
0.0
 11
-81.996348
 21
488.274843
 31
0.0
  0
ARC
  5
31F
330
1F
100
AcDbEntity
  8
LC-001-100-D00-0
 62
     7
370
    50
100
AcDbCircle
 10
-82.647202
 20
488.774844
 30
0.0
 40
0.5000000000001137
100
AcDbArc
 50
180.0
 51
270.0
  0
LINE
  5
320
330
1F
100
AcDbEntity
  8
LC-001-100-D00-0
 62
     7
370
    50
100
AcDbLine
 10
-83.147202
 20
491.774844
 30
0.0
 11
-83.147202
 21
488.774844
 31
0.0
  0
ARC
  5
321
330
1F
100
AcDbEntity
  8
LC-001-100-D00-0
 62
     7
370
    50
100
AcDbCircle
 10
-82.647202
 20
491.774844
 30
0.0
 40
0.4999999999997726
100
AcDbArc
 50
90.0
 51
180.0
  0
LINE
  5
322
330
1F
100
AcDbEntity
  8
LC-001-100-D00-0
 62
     7
370
    50
100
AcDbLine
 10
-81.996348
 20
492.274844
 30
0.0
 11
-82.647202
 21
492.274844
 31
0.0
  0
LINE
  5
323
330
1F
100
AcDbEntity
  8
LC-001-100-D00-0
 62
     7
370
    50
100
AcDbLine
 10
-81.996348
 20
494.274844
 30
0.0
 11
-81.996348
 21
492.274844
 31
0.0
  0
ARC
  5
324
330
1F
100
AcDbEntity
  8
LC-001-100-D00-0
 62
     7
370
    50
100
AcDbCircle
 10
-99.097202
 20
501.274844
 30
0.0
 40
1.0
100
AcDbArc
 50
0.0
 51
90.0
  0
ARC
  5
325
330
1F
100
AcDbEntity
  8
LC-001-100-D00-0
 62
     7
370
    50
100
AcDbCircle
 10
-97.097202
 20
487.274844
 30
0.0
 40
1.0
100
AcDbArc
 50
180.0
 51
270.0
  0
LINE
  5
326
330
1F
100
AcDbEntity
  8
LC-001-100-D00-0
 62
     7
370
    50
100
AcDbLine
 10
-98.097202
 20
501.274844
 30
0.0
 11
-98.097202
 21
487.274844
 31
0.0
  0
LINE
  5
327
330
1F
100
AcDbEntity
  8
LC-001-100-D00-0
 62
     7
370
    50
100
AcDbLine
 10
-93.547202
 20
488.774844
 30
0.0
 11
-93.547202
 21
491.774844
 31
0.0
  0
LINE
  5
328
330
1F
100
AcDbEntity
  8
LC-001-100-D00-0
 62
     7
370
    50
100
AcDbLine
 10
-92.247202
 20
505.274844
 30
0.0
 11
-92.247199
 21
494.274844
 31
0.0
  0
LINE
  5
329
330
1F
100
AcDbEntity
  8
LC-001-100-D00-0
 62
     7
370
    50
100
AcDbLine
 10
-92.247202
 20
505.274844
 30
0.0
 11
-84.447202
 21
505.274844
 31
0.0
  0
LINE
  5
32A
330
1F
100
AcDbEntity
  8
LC-001-100-D00-0
 62
     7
370
    50
100
AcDbLine
 10
-94.698053
 20
488.274843
 30
0.0
 11
-94.698053
 21
486.274844
 31
0.0
  0
LINE
  5
32B
330
1F
100
AcDbEntity
  8
LC-001-100-D00-0
 62
     7
370
    50
100
AcDbLine
 10
-94.698053
 20
494.274844
 30
0.0
 11
-94.698053
 21
492.274844
 31
0.0
  0
ARC
  5
32C
330
1F
100
AcDbEntity
  8
LC-001-100-D00-0
 62
     7
370
    50
100
AcDbCircle
 10
-94.047202
 20
488.774844
 30
0.0
 40
0.5
100
AcDbArc
 50
270.0
 51
0.0
  0
LINE
  5
32D
330
1F
100
AcDbEntity
  8
LC-001-100-D00-0
 62
     7
370
    50
100
AcDbLine
 10
-94.698053
 20
488.274843
 30
0.0
 11
-94.047202
 21
488.274844
 31
0.0
  0
LINE
  5
32E
330
1F
100
AcDbEntity
  8
LC-001-100-D00-0
 62
     7
370
    50
100
AcDbLine
 10
-103.597205
 20
502.274844
 30
0.0
 11
-103.597202
 21
498.274844
 31
0.0
  0
LINE
  5
32F
330
1F
100
AcDbEntity
  8
LC-001-100-D00-0
 62
     7
370
    50
100
AcDbLine
 10
-106.597204
 20
498.274844
 30
0.0
 11
-106.597202
 21
504.274844
 31
0.0
  0
ARC
  5
330
330
1F
100
AcDbEntity
  8
LC-001-100-D00-0
 62
     7
370
    50
100
AcDbCircle
 10
-105.597202
 20
504.274844
 30
0.0
 40
1.0
100
AcDbArc
 50
90.0
 51
180.0
  0
LINE
  5
331
330
1F
100
AcDbEntity
  8
LC-001-100-D00-0
 62
     7
370
    50
100
AcDbLine
 10
-94.047202
 20
492.274844
 30
0.0
 11
-94.698053
 21
492.274844
 31
0.0
  0
ARC
  5
332
330
1F
100
AcDbEntity
  8
LC-001-100-D00-0
 62
     7
370
    50
100
AcDbCircle
 10
-94.047202
 20
491.774844
 30
0.0
 40
0.5000000000001137
100
AcDbArc
 50
0.0
 51
90.0
  0
LINE
  5
333
330
1F
100
AcDbEntity
  8
LC-001-100-D00-0
 62
     7
370
    50
100
AcDbLine
 10
-92.247199
 20
494.274844
 30
0.0
 11
-94.698053
 21
494.274844
 31
0.0
  0
LINE
  5
334
330
1F
100
AcDbEntity
  8
LC-001-100-D00-0
 62
     7
370
    50
100
AcDbLine
 10
-94.698053
 20
486.274844
 30
0.0
 11
-97.097202
 21
486.274844
 31
0.0
  0
LINE
  5
335
330
1F
100
AcDbEntity
  8
LC-001-100-D00-0
 62
     7
370
    50
100
AcDbLine
 10
-103.597205
 20
502.274844
 30
0.0
 11
-99.097202
 21
502.274844
 31
0.0
  0
LINE
  5
336
330
1F
100
AcDbEntity
  8
LC-001-100-D00-0
 62
     7
370
    50
100
AcDbLine
 10
-105.597202
 20
505.274844
 30
0.0
 11
-92.247202
 21
505.274844
 31
0.0
  0
LINE
  5
337
330
1F
100
AcDbEntity
  8
LC-001-100-D00-0
 62
     7
370
    50
100
AcDbLine
 10
-106.597204
 20
498.274844
 30
0.0
 11
-103.597202
 21
498.274844
 31
0.0
  0
LINE
  5
338
330
1F
100
AcDbEntity
  8
LC-001-100-D00-0
 62
     7
370
    50
100
AcDbLine
 10
-75.097202
 20
498.274844
 30
0.0
 11
-73.097202
 21
498.274844
 31
0.0
  0
LINE
  5
339
330
1F
100
AcDbEntity
  8
LC-001-100-D00-0
 62
     7
370
    50
100
AcDbLine
 10
-103.597202
 20
498.274844
 30
0.0
 11
-101.597202
 21
498.274844
 31
0.0
  0
LINE
  5
33A
330
1F
100
AcDbEntity
  8
LC-001-100-D00-0
 62
     7
370
    50
100
AcDbLine
 10
-101.597202
 20
498.274844
 30
0.0
 11
-98.097201
 21
498.274844
 31
0.0
  0
LINE
  5
33B
330
1F
100
AcDbEntity
  8
LC-001-100-D00-0
 62
     7
370
    50
100
AcDbLine
 10
-78.597199
 20
498.274844
 30
0.0
 11
-75.097202
 21
498.274844
 31
0.0
  0
LINE
  5
33C
330
1F
100
AcDbEntity
  8
LC-001-100-D00-0
 62
     7
370
    50
100
AcDbLine
 10
-129.847202
 20
475.431927
 30
0.0
 11
-129.557285
 21
475.340845
 31
0.0
  0
LINE
  5
33D
330
1F
100
AcDbEntity
  8
LC-001-100-D00-0
 62
     7
370
    50
100
AcDbLine
 10
-131.034816
 20
473.289415
 30
0.0
 11
-129.847202
 21
475.431927
 31
0.0
  0
ARC
  5
33E
330
1F
100
AcDbEntity
  8
LC-001-100-D00-0
 62
     7
370
    50
100
AcDbCircle
 10
-131.297202
 20
473.434858
 30
0.0
 40
0.3000000000001819
100
AcDbArc
 50
180.0
 51
331.0
  0
LINE
  5
33F
330
1F
100
AcDbEntity
  8
LC-001-100-D00-0
 62
     7
370
    50
100
AcDbLine
 10
-131.597202
 20
475.975098
 30
0.0
 11
-131.597202
 21
473.434858
 31
0.0
  0
ARC
  5
340
330
1F
100
AcDbEntity
  8
LC-001-100-D00-0
 62
     7
370
    50
100
AcDbCircle
 10
-129.597202
 20
475.975098
 30
0.0
 40
1.999999999999872
100
AcDbArc
 50
113.962489
 51
180.0
  0
LINE
  5
341
330
1F
100
AcDbEntity
  8
LC-001-100-D00-0
 62
     7
370
    50
100
AcDbLine
 10
-129.541126
 20
478.188655
 30
0.0
 11
-130.409479
 21
477.802721
 31
0.0
  0
ARC
  5
342
330
1F
100
AcDbEntity
  8
LC-001-100-D00-0
 62
     7
370
    50
100
AcDbCircle
 10
-129.134987
 20
477.274844
 30
0.0
 40
1.000000000000227
100
AcDbArc
 50
90.0
 51
113.962489
  0
LINE
  5
343
330
1F
100
AcDbEntity
  8
LC-001-100-D00-0
 62
     7
370
    50
100
AcDbLine
 10
-123.347204
 20
478.274843
 30
0.0
 11
-123.347204
 21
474.274844
 31
0.0
  0
LINE
  5
344
330
1F
100
AcDbEntity
  8
LC-001-100-D00-0
 62
     7
370
    50
100
AcDbLine
 10
-129.347202
 20
475.054637
 30
0.0
 11
-129.347202
 21
474.274844
 31
0.0
  0
ARC
  5
345
330
1F
100
AcDbEntity
  8
LC-001-100-D00-0
 62
     7
370
    50
100
AcDbCircle
 10
-129.647202
 20
475.054637
 30
0.0
 40
0.2999999999999545
100
AcDbArc
 50
0.0
 51
72.558995
  0
LINE
  5
346
330
1F
100
AcDbEntity
  8
LC-001-100-D00-0
 62
     7
370
    50
100
AcDbLine
 10
-123.347204
 20
478.274843
 30
0.0
 11
-129.134987
 21
478.274844
 31
0.0
  0
LINE
  5
347
330
1F
100
AcDbEntity
  8
LC-001-100-D00-0
 62
     7
370
    50
100
AcDbLine
 10
-123.347204
 20
474.274844
 30
0.0
 11
-129.347202
 21
474.274844
 31
0.0
  0
LINE
  5
348
330
1F
100
AcDbEntity
  8
LC-001-100-D00-0
 62
     7
370
    50
100
AcDbLine
 10
-129.347202
 20
474.274844
 30
0.0
 11
-130.488584
 21
474.274844
 31
0.0
  0
LINE
  5
349
330
1F
100
AcDbEntity
  8
LC-001-100-D00-0
 62
     7
370
    50
100
AcDbLine
 10
-129.89769
 20
475.340845
 30
0.0
 11
-129.557285
 21
475.340845
 31
0.0
  0
LINE
  5
34A
330
1F
100
AcDbEntity
  8
LC-001-100-D00-0
 62
     7
370
    50
100
AcDbLine
 10
-247.347202
 20
474.274844
 30
0.0
 11
-247.347202
 21
475.054637
 31
0.0
  0
LINE
  5
34B
330
1F
100
AcDbEntity
  8
LC-001-100-D00-0
 62
     7
370
    50
100
AcDbLine
 10
-246.20582
 20
474.274844
 30
0.0
 11
-247.347202
 21
474.274844
 31
0.0
  0
LINE
  5
34C
330
1F
100
AcDbEntity
  8
LC-001-100-D00-0
 62
     7
370
    50
100
AcDbLine
 10
-246.847201
 20
475.431927
 30
0.0
 11
-245.659588
 21
473.289415
 31
0.0
  0
LINE
  5
34D
330
1F
100
AcDbEntity
  8
LC-001-100-D00-0
 62
     7
370
    50
100
AcDbLine
 10
-247.137119
 20
475.340845
 30
0.0
 11
-246.796714
 21
475.340845
 31
0.0
  0
LINE
  5
34E
330
1F
100
AcDbEntity
  8
LC-001-100-D00-0
 62
     7
370
    50
100
AcDbLine
 10
-247.137119
 20
475.340845
 30
0.0
 11
-246.847201
 21
475.431927
 31
0.0
  0
ARC
  5
34F
330
1F
100
AcDbEntity
  8
LC-001-100-D00-0
 62
     7
370
    50
100
AcDbCircle
 10
-245.397202
 20
473.434858
 30
0.0
 40
0.2999999999998435
100
AcDbArc
 50
209.0
 51
0.0
  0
ARC
  5
350
330
1F
100
AcDbEntity
  8
LC-001-100-D00-0
 62
     7
370
    50
100
AcDbCircle
 10
-247.047202
 20
475.054637
 30
0.0
 40
0.3000000000001272
100
AcDbArc
 50
107.441005
 51
180.0
  0
ARC
  5
351
330
1F
100
AcDbEntity
  8
LC-001-100-D00-0
 62
     7
370
    50
100
AcDbCircle
 10
-247.097202
 20
475.975098
 30
0.0
 40
2.0
100
AcDbArc
 50
0.0
 51
66.037511
  0
LINE
  5
352
330
1F
100
AcDbEntity
  8
LC-001-100-D00-0
 62
     7
370
    50
100
AcDbLine
 10
-245.097202
 20
473.434858
 30
0.0
 11
-245.097202
 21
475.975098
 31
0.0
  0
ARC
  5
353
330
1F
100
AcDbEntity
  8
LC-001-100-D00-0
 62
     7
370
    50
100
AcDbCircle
 10
-247.559416
 20
477.274844
 30
0.0
 40
1.000000000000213
100
AcDbArc
 50
66.037511
 51
90.0
  0
LINE
  5
354
330
1F
100
AcDbEntity
  8
LC-001-100-D00-0
 62
     7
370
    50
100
AcDbLine
 10
-246.284925
 20
477.802721
 30
0.0
 11
-247.153278
 21
478.188655
 31
0.0
  0
LINE
  5
355
330
1F
100
AcDbEntity
  8
LC-001-100-D00-0
 62
     7
370
    50
100
AcDbLine
 10
-253.347199
 20
474.274844
 30
0.0
 11
-253.347199
 21
478.274843
 31
0.0
  0
LINE
  5
356
330
1F
100
AcDbEntity
  8
LC-001-100-D00-0
 62
     7
370
    50
100
AcDbLine
 10
-247.559416
 20
478.274844
 30
0.0
 11
-253.347199
 21
478.274843
 31
0.0
  0
LINE
  5
357
330
1F
100
AcDbEntity
  8
LC-001-100-D00-0
 62
     7
370
    50
100
AcDbLine
 10
-247.347202
 20
474.274844
 30
0.0
 11
-253.347199
 21
474.274844
 31
0.0
  0
LINE
  5
358
330
1F
100
AcDbEntity
  8
LC-001-100-D00-0
 62
     7
370
    50
100
AcDbLine
 10
-114.347201
 20
478.274843
 30
0.0
 11
-114.347201
 21
454.524845
 31
0.0
  0
LINE
  5
359
330
1F
100
AcDbEntity
  8
LC-001-100-D00-0
 62
     7
370
    50
100
AcDbLine
 10
-117.3472
 20
475.274844
 30
0.0
 11
-117.347202
 21
454.524844
 31
0.0
  0
LINE
  5
35A
330
1F
100
AcDbEntity
  8
LC-001-100-D00-0
 62
     7
370
    50
100
AcDbLine
 10
-120.347198
 20
475.274844
 30
0.0
 11
-120.347198
 21
471.274842
 31
0.0
  0
LINE
  5
35B
330
1F
100
AcDbEntity
  8
LC-001-100-D00-0
 62
     7
370
    50
100
AcDbLine
 10
-126.347202
 20
471.274844
 30
0.0
 11
-120.347198
 21
471.274842
 31
0.0
  0
LINE
  5
35C
330
1F
100
AcDbEntity
  8
LC-001-100-D00-0
 62
     7
370
    50
100
AcDbLine
 10
-126.347203
 20
474.274844
 30
0.0
 11
-126.347202
 21
471.274844
 31
0.0
  0
LINE
  5
35D
330
1F
100
AcDbEntity
  8
LC-001-100-D00-0
 62
     7
370
    50
100
AcDbLine
 10
-123.347204
 20
474.274844
 30
0.0
 11
-126.347203
 21
474.274844
 31
0.0
  0
LINE
  5
35E
330
1F
100
AcDbEntity
  8
LC-001-100-D00-0
 62
     7
370
    50
100
AcDbLine
 10
-123.347204
 20
474.274844
 30
0.0
 11
-123.347204
 21
478.274843
 31
0.0
  0
LINE
  5
35F
330
1F
100
AcDbEntity
  8
LC-001-100-D00-0
 62
     7
370
    50
100
AcDbLine
 10
-120.347198
 20
475.274844
 30
0.0
 11
-117.3472
 21
475.274844
 31
0.0
  0
LINE
  5
360
330
1F
100
AcDbEntity
  8
LC-001-100-D00-0
 62
     7
370
    50
100
AcDbLine
 10
-114.347201
 20
478.274843
 30
0.0
 11
-123.347204
 21
478.274843
 31
0.0
  0
LINE
  5
361
330
1F
100
AcDbEntity
  8
LC-001-100-D00-0
 62
     7
370
    50
100
AcDbLine
 10
-117.347202
 20
454.524844
 30
0.0
 11
-114.347201
 21
454.524845
 31
0.0
  0
LINE
  5
362
330
1F
100
AcDbEntity
  8
LC-001-100-D00-0
 62
     7
370
    50
100
AcDbLine
 10
-138.046794
 20
454.524844
 30
0.0
 11
-117.347202
 21
454.524844
 31
0.0
  0
LINE
  5
363
330
1F
100
AcDbEntity
  8
LC-001-100-D00-0
 62
     7
370
    50
100
AcDbLine
 10
-133.097202
 20
471.274844
 30
0.0
 11
-126.347202
 21
471.274844
 31
0.0
  0
LINE
  5
364
330
1F
100
AcDbEntity
  8
LC-001-100-D00-0
 62
     7
370
    50
100
AcDbLine
 10
-250.347202
 20
471.274844
 30
0.0
 11
-250.347201
 21
474.274844
 31
0.0
  0
LINE
  5
365
330
1F
100
AcDbEntity
  8
LC-001-100-D00-0
 62
     7
370
    50
100
AcDbLine
 10
-250.347202
 20
471.274844
 30
0.0
 11
-243.597202
 21
471.274844
 31
0.0
  0
LINE
  5
366
330
1F
100
AcDbEntity
  8
LC-001-100-D00-0
 62
     7
370
    50
100
AcDbLine
 10
-253.347199
 20
478.274843
 30
0.0
 11
-253.347199
 21
474.274844
 31
0.0
  0
LINE
  5
367
330
1F
100
AcDbEntity
  8
LC-001-100-D00-0
 62
     7
370
    50
100
AcDbLine
 10
-256.347206
 20
471.274842
 30
0.0
 11
-256.347206
 21
475.274844
 31
0.0
  0
LINE
  5
368
330
1F
100
AcDbEntity
  8
LC-001-100-D00-0
 62
     7
370
    50
100
AcDbLine
 10
-259.347202
 20
454.524844
 30
0.0
 11
-259.347204
 21
475.274844
 31
0.0
  0
LINE
  5
369
330
1F
100
AcDbEntity
  8
LC-001-100-D00-0
 62
     7
370
    50
100
AcDbLine
 10
-259.347202
 20
454.524844
 30
0.0
 11
-238.647609
 21
454.524844
 31
0.0
  0
LINE
  5
36A
330
1F
100
AcDbEntity
  8
LC-001-100-D00-0
 62
     7
370
    50
100
AcDbLine
 10
-262.347203
 20
454.524845
 30
0.0
 11
-262.347203
 21
478.274843
 31
0.0
  0
LINE
  5
36B
330
1F
100
AcDbEntity
  8
LC-001-100-D00-0
 62
     7
370
    50
100
AcDbLine
 10
-250.347201
 20
474.274844
 30
0.0
 11
-253.347199
 21
474.274844
 31
0.0
  0
LINE
  5
36C
330
1F
100
AcDbEntity
  8
LC-001-100-D00-0
 62
     7
370
    50
100
AcDbLine
 10
-256.347206
 20
471.274842
 30
0.0
 11
-250.347202
 21
471.274844
 31
0.0
  0
LINE
  5
36D
330
1F
100
AcDbEntity
  8
LC-001-100-D00-0
 62
     7
370
    50
100
AcDbLine
 10
-259.347204
 20
475.274844
 30
0.0
 11
-256.347206
 21
475.274844
 31
0.0
  0
LINE
  5
36E
330
1F
100
AcDbEntity
  8
LC-001-100-D00-0
 62
     7
370
    50
100
AcDbLine
 10
-253.347199
 20
478.274843
 30
0.0
 11
-262.347203
 21
478.274843
 31
0.0
  0
LINE
  5
36F
330
1F
100
AcDbEntity
  8
LC-001-100-D00-0
 62
     7
370
    50
100
AcDbLine
 10
-262.347203
 20
454.524845
 30
0.0
 11
-259.347202
 21
454.524844
 31
0.0
  0
LINE
  5
370
330
1F
100
AcDbEntity
  8
LC-001-100-D00-0
 62
     7
370
    50
100
AcDbLine
 10
-146.358077
 20
454.524844
 30
0.0
 11
-138.046794
 21
454.524844
 31
0.0
  0
LINE
  5
371
330
1F
100
AcDbEntity
  8
LC-001-100-D00-0
 62
     7
370
    50
100
AcDbLine
 10
-238.647609
 20
454.524844
 30
0.0
 11
-230.336327
 21
454.524844
 31
0.0
  0
LINE
  5
372
330
1F
100
AcDbEntity
  8
LC-001-100-D00-0
 62
     7
370
    50
100
AcDbLine
 10
-230.336327
 20
454.524844
 30
0.0
 11
-229.347203
 21
454.524845
 31
0.0
  0
LINE
  5
373
330
1F
100
AcDbEntity
  8
LC-001-100-D00-0
 62
     7
370
    50
100
AcDbLine
 10
-147.347201
 20
454.524845
 30
0.0
 11
-146.358077
 21
454.524844
 31
0.0
  0
LINE
  5
374
330
1F
100
AcDbEntity
  8
LC-001-100-D00-0
 62
     7
370
    50
100
AcDbLine
 10
-114.347201
 20
453.774844
 30
0.0
 11
-103.347201
 21
453.774844
 31
0.0
  0
LINE
  5
375
330
1F
100
AcDbEntity
  8
LC-001-100-D00-0
 62
     7
370
    50
100
AcDbLine
 10
-103.347201
 20
401.774843
 30
0.0
 11
-114.347201
 21
401.774843
 31
0.0
  0
LINE
  5
376
330
1F
100
AcDbEntity
  8
LC-001-100-D00-0
 62
     7
370
    50
100
AcDbLine
 10
-114.347201
 20
454.524845
 30
0.0
 11
-114.347201
 21
453.774844
 31
0.0
  0
INSERT
  5
387
330
1F
100
AcDbEntity
  8
LC-001-100-D00-0
 62
     7
370
    50
100
AcDbBlockReference
  2
KLON15
 10
0.0
 20
0.0
 30
0.0
  0
INSERT
  5
39B
330
1F
100
AcDbEntity
  8
LC-001-100-D00-0
 62
     7
370
    50
100
AcDbBlockReference
  2
KLON16
 10
0.0
 20
0.0
 30
0.0
  0
LINE
  5
39C
330
1F
100
AcDbEntity
  8
LC-001-100-D00-0
 62
     7
370
    50
100
AcDbLine
 10
-117.3472
 20
450.774845
 30
0.0
 11
-75.450016
 21
450.774844
 31
0.0
  0
LINE
  5
39D
330
1F
100
AcDbEntity
  8
LC-001-100-D00-0
 62
     7
370
    50
100
AcDbLine
 10
-75.450016
 20
404.774844
 30
0.0
 11
-75.450016
 21
450.774844
 31
0.0
  0
LINE
  5
39E
330
1F
100
AcDbEntity
  8
LC-001-100-D00-0
 62
     7
370
    50
100
AcDbLine
 10
-75.450016
 20
404.774844
 30
0.0
 11
-114.347201
 21
404.774841
 31
0.0
  0
INSERT
  5
3A4
330
1F
100
AcDbEntity
  8
LC-001-100-D00-0
 62
     7
370
    50
100
AcDbBlockReference
  2
KLON17
 10
0.0
 20
0.0
 30
0.0
  0
LINE
  5
3A5
330
1F
100
AcDbEntity
  8
LC-001-100-D00-0
 62
     7
370
    50
100
AcDbLine
 10
-117.347202
 20
454.524844
 30
0.0
 11
-138.046794
 21
454.524844
 31
0.0
  0
LINE
  5
3A6
330
1F
100
AcDbEntity
  8
LC-001-100-D00-0
 62
     7
370
    50
100
AcDbLine
 10
-117.347202
 20
454.524844
 30
0.0
 11
-117.3472
 21
450.774845
 31
0.0
  0
LINE
  5
3A7
330
1F
100
AcDbEntity
  8
LC-001-100-D00-0
 62
     7
370
    50
100
AcDbLine
 10
-127.347202
 20
401.774844
 30
0.0
 11
-114.347201
 21
401.774843
 31
0.0
  0
ARC
  5
3A8
330
1F
100
AcDbEntity
  8
LC-001-100-D00-0
 62
     7
370
    50
100
AcDbCircle
 10
-134.329322
 20
402.274844
 30
0.0
 40
7.0
100
AcDbArc
 50
270.0
 51
355.903956
  0
LINE
  5
3A9
330
1F
100
AcDbEntity
  8
LC-001-100-D00-0
 62
     7
370
    50
100
AcDbLine
 10
-134.329322
 20
395.274844
 30
0.0
 11
-242.365082
 21
395.274844
 31
0.0
  0
ARC
  5
3AA
330
1F
100
AcDbEntity
  8
LC-001-100-D00-0
 62
     7
370
    50
100
AcDbCircle
 10
-242.365082
 20
402.274844
 30
0.0
 40
6.999999999999959
100
AcDbArc
 50
184.096044
 51
270.0
  0
LINE
  5
3AB
330
1F
100
AcDbEntity
  8
LC-001-100-D00-0
 62
     7
370
    50
100
AcDbLine
 10
-249.847202
 20
401.774844
 30
0.0
 11
-249.347202
 21
401.774844
 31
0.0
  0
ARC
  5
3AC
330
1F
100
AcDbEntity
  8
LC-001-100-D00-0
 62
     7
370
    50
100
AcDbCircle
 10
-249.847202
 20
414.274844
 30
0.0
 40
12.5
100
AcDbArc
 50
180.0
 51
270.0
  0
LINE
  5
3AD
330
1F
100
AcDbEntity
  8
LC-001-100-D00-0
 62
     7
370
    50
100
AcDbLine
 10
-262.347202
 20
414.274844
 30
0.0
 11
-262.347203
 21
454.524845
 31
0.0
  0
LINE
  5
3AE
330
1F
100
AcDbEntity
  8
LC-001-100-D00-0
 62
     7
370
    50
100
AcDbLine
 10
-262.347203
 20
454.524845
 30
0.0
 11
-259.347202
 21
454.524844
 31
0.0
  0
LINE
  5
3AF
330
1F
100
AcDbEntity
  8
LC-001-100-D00-0
 62
     7
370
    50
100
AcDbLine
 10
-259.347202
 20
414.274844
 30
0.0
 11
-259.347202
 21
454.524844
 31
0.0
  0
ARC
  5
3B0
330
1F
100
AcDbEntity
  8
LC-001-100-D00-0
 62
     7
370
    50
100
AcDbCircle
 10
-249.847202
 20
414.274844
 30
0.0
 40
9.5
100
AcDbArc
 50
180.0
 51
270.0
  0
LINE
  5
3B1
330
1F
100
AcDbEntity
  8
LC-001-100-D00-0
 62
     7
370
    50
100
AcDbLine
 10
-249.847202
 20
404.774844
 30
0.0
 11
-247.347202
 21
404.774844
 31
0.0
  0
ARC
  5
3B2
330
1F
100
AcDbEntity
  8
LC-001-100-D00-0
 62
     7
370
    50
100
AcDbCircle
 10
-247.347202
 20
403.774844
 30
0.0
 40
1.0
100
AcDbArc
 50
0.0
 51
90.0
  0
LINE
  5
3B3
330
1F
100
AcDbEntity
  8
LC-001-100-D00-0
 62
     7
370
    50
100
AcDbLine
 10
-246.347202
 20
403.774844
 30
0.0
 11
-246.347202
 21
402.274844
 31
0.0
  0
ARC
  5
3B4
330
1F
100
AcDbEntity
  8
LC-001-100-D00-0
 62
     7
370
    50
100
AcDbCircle
 10
-242.347202
 20
402.274844
 30
0.0
 40
4.0
100
AcDbArc
 50
180.0
 51
270.0
  0
LINE
  5
3B5
330
1F
100
AcDbEntity
  8
LC-001-100-D00-0
 62
     7
370
    50
100
AcDbLine
 10
-134.347202
 20
398.274844
 30
0.0
 11
-242.347202
 21
398.274844
 31
0.0
  0
ARC
  5
3B6
330
1F
100
AcDbEntity
  8
LC-001-100-D00-0
 62
     7
370
    50
100
AcDbCircle
 10
-134.347202
 20
402.274844
 30
0.0
 40
4.0
100
AcDbArc
 50
270.0
 51
0.0
  0
LINE
  5
3B7
330
1F
100
AcDbEntity
  8
LC-001-100-D00-0
 62
     7
370
    50
100
AcDbLine
 10
-130.347202
 20
402.274844
 30
0.0
 11
-130.347202
 21
403.774844
 31
0.0
  0
ARC
  5
3B8
330
1F
100
AcDbEntity
  8
LC-001-100-D00-0
 62
     7
370
    50
100
AcDbCircle
 10
-129.347202
 20
403.774844
 30
0.0
 40
1.000000000000227
100
AcDbArc
 50
90.0
 51
180.0
  0
LINE
  5
3B9
330
1F
100
AcDbEntity
  8
LC-001-100-D00-0
 62
     7
370
    50
100
AcDbLine
 10
-129.347202
 20
404.774844
 30
0.0
 11
-114.347201
 21
404.774841
 31
0.0
  0
LINE
  5
3BA
330
1F
100
AcDbEntity
  8
LC-001-100-D00-0
 62
     7
370
    50
100
AcDbLine
 10
-69.850016
 20
403.274328
 30
0.0
 11
-75.450016
 21
404.774844
 31
0.0
  0
LINE
  5
3BB
330
1F
100
AcDbEntity
  8
LC-001-100-D00-0
 62
     7
370
    50
100
AcDbLine
 10
-69.850016
 20
402.840589
 30
0.0
 11
-69.850016
 21
403.274328
 31
0.0
  0
ARC
  5
3BC
330
1F
100
AcDbEntity
  8
LC-001-100-D00-0
 62
     7
370
    50
100
AcDbCircle
 10
-70.349974
 20
402.840589
 30
0.0
 40
0.4999578796802225
100
AcDbArc
 50
301.198872
 51
0.0
  0
ARC
  5
3BD
330
1F
100
AcDbEntity
  8
LC-001-100-D00-0
 62
     7
370
    50
100
AcDbCircle
 10
-85.448698
 20
427.772654
 30
0.0
 40
29.64750216706054
100
AcDbArc
 50
292.382556
 51
301.198872
  0
ARC
  5
3BE
330
1F
100
AcDbEntity
  8
LC-001-100-D00-0
 62
     7
370
    50
100
AcDbCircle
 10
-74.349638
 20
400.821027
 30
0.0
 40
0.4999578796799824
100
AcDbArc
 50
180.0
 51
292.382556
  0
LINE
  5
3BF
330
1F
100
AcDbEntity
  8
LC-001-100-D00-0
 62
     7
370
    50
100
AcDbLine
 10
-74.849595
 20
402.124886
 30
0.0
 11
-74.849595
 21
400.821027
 31
0.0
  0
ARC
  5
3C0
330
1F
100
AcDbEntity
  8
LC-001-100-D00-0
 62
     7
370
    50
100
AcDbCircle
 10
-75.349553
 20
402.124886
 30
0.0
 40
0.4999578796802098
100
AcDbArc
 50
0.0
 51
90.0
  0
LINE
  5
3C1
330
1F
100
AcDbEntity
  8
LC-001-100-D00-0
 62
     7
370
    50
100
AcDbLine
 10
-78.849258
 20
402.624844
 30
0.0
 11
-75.349553
 21
402.624844
 31
0.0
  0
ARC
  5
3C2
330
1F
100
AcDbEntity
  8
LC-001-100-D00-0
 62
     7
370
    50
100
AcDbCircle
 10
-78.849258
 20
402.124886
 30
0.0
 40
0.4999578796803235
100
AcDbArc
 50
90.0
 51
180.0
  0
LINE
  5
3C3
330
1F
100
AcDbEntity
  8
LC-001-100-D00-0
 62
     7
370
    50
100
AcDbLine
 10
-79.349216
 20
399.168025
 30
0.0
 11
-79.349216
 21
402.124886
 31
0.0
  0
ARC
  5
3C4
330
1F
100
AcDbEntity
  8
LC-001-100-D00-0
 62
     7
370
    50
100
AcDbCircle
 10
-79.849174
 20
399.168025
 30
0.0
 40
0.4999578796801373
100
AcDbArc
 50
281.075925
 51
0.0
  0
ARC
  5
3C5
330
1F
100
AcDbEntity
  8
LC-001-100-D00-0
 62
     7
370
    50
100
AcDbCircle
 10
-85.448698
 20
427.772654
 30
0.0
 40
29.64750432250018
100
AcDbArc
 50
241.270296
 51
281.075925
  0
LINE
  5
3C6
330
1F
100
AcDbEntity
  8
LC-001-100-D00-0
 62
     7
370
    50
100
AcDbLine
 10
-100.847404
 20
401.774843
 30
0.0
 11
-99.699607
 21
401.774844
 31
0.0
  0
LINE
  5
3C7
330
1F
100
AcDbEntity
  8
LC-001-100-D00-0
 62
     7
370
    50
100
AcDbLine
 10
-100.847404
 20
400.274847
 30
0.0
 11
-100.847404
 21
401.774843
 31
0.0
  0
LINE
  5
3C8
330
1F
100
AcDbEntity
  8
LC-001-100-D00-0
 62
     7
370
    50
100
AcDbLine
 10
-103.347201
 20
400.274847
 30
0.0
 11
-100.847404
 21
400.274847
 31
0.0
  0
LINE
  5
3C9
330
1F
100
AcDbEntity
  8
LC-001-100-D00-0
 62
     7
370
    50
100
AcDbLine
 10
-103.347201
 20
401.774843
 30
0.0
 11
-103.347201
 21
400.274847
 31
0.0
  0
ARC
  5
3CA
330
1F
100
AcDbEntity
  8
LC-001-100-D00-0
 62
     7
370
    50
100
AcDbCircle
 10
-85.448698
 20
427.777034
 30
0.0
 40
29.647502167061
100
AcDbArc
 50
58.801128
 51
67.617444
  0
ARC
  5
3CB
330
1F
100
AcDbEntity
  8
LC-001-100-D00-0
 62
     7
370
    50
100
AcDbCircle
 10
-70.349974
 20
452.709099
 30
0.0
 40
0.4999578796799824
100
AcDbArc
 50
0.0
 51
58.801128
  0
ARC
  5
3CC
330
1F
100
AcDbEntity
  8
LC-001-100-D00-0
 62
     7
370
    50
100
AcDbCircle
 10
-75.349553
 20
453.424802
 30
0.0
 40
0.4999578796800961
100
AcDbArc
 50
270.0
 51
0.0
  0
LINE
  5
3CD
330
1F
100
AcDbEntity
  8
LC-001-100-D00-0
 62
     7
370
    50
100
AcDbLine
 10
-74.849595
 20
454.728661
 30
0.0
 11
-74.849595
 21
453.424802
 31
0.0
  0
ARC
  5
3CE
330
1F
100
AcDbEntity
  8
LC-001-100-D00-0
 62
     7
370
    50
100
AcDbCircle
 10
-74.349638
 20
454.728661
 30
0.0
 40
0.4999578796797767
100
AcDbArc
 50
67.617444
 51
180.0
  0
LINE
  5
3CF
330
1F
100
AcDbEntity
  8
LC-001-100-D00-0
 62
     7
370
    50
100
AcDbLine
 10
-69.850016
 20
452.275359
 30
0.0
 11
-69.850016
 21
452.709099
 31
0.0
  0
LINE
  5
3D0
330
1F
100
AcDbEntity
  8
LC-001-100-D00-0
 62
     7
370
    50
100
AcDbLine
 10
-75.450016
 20
450.774844
 30
0.0
 11
-69.850016
 21
452.275359
 31
0.0
  0
LINE
  5
3D1
330
1F
100
AcDbEntity
  8
LC-001-100-D00-0
 62
     7
370
    50
100
AcDbLine
 10
-117.347202
 20
454.524844
 30
0.0
 11
-114.347201
 21
454.524845
 31
0.0
  0
LINE
  5
3D2
330
1F
100
AcDbEntity
  8
LC-001-100-D00-0
 62
     7
370
    50
100
AcDbLine
 10
-103.347201
 20
455.274843
 30
0.0
 11
-103.347201
 21
453.774844
 31
0.0
  0
LINE
  5
3D3
330
1F
100
AcDbEntity
  8
LC-001-100-D00-0
 62
     7
370
    50
100
AcDbLine
 10
-100.847405
 20
455.274844
 30
0.0
 11
-103.347201
 21
455.274843
 31
0.0
  0
ARC
  5
3D4
330
1F
100
AcDbEntity
  8
LC-001-100-D00-0
 62
     7
370
    50
100
AcDbCircle
 10
-85.485113
 20
427.774844
 30
0.0
 40
31.5000000000002
100
AcDbArc
 50
105.394857
 51
119.188982
  0
LINE
  5
3D5
330
1F
100
AcDbEntity
  8
LC-001-100-D00-0
 62
     7
370
    50
100
AcDbLine
 10
-93.847405
 20
458.1446
 30
0.0
 11
-93.847405
 21
456.210047
 31
0.0
  0
ARC
  5
3D6
330
1F
100
AcDbEntity
  8
LC-001-100-D00-0
 62
     7
370
    50
100
AcDbCircle
 10
-85.448698
 20
427.777034
 30
0.0
 40
29.6475043225005
100
AcDbArc
 50
78.924075
 51
106.456389
  0
ARC
  5
3D7
330
1F
100
AcDbEntity
  8
LC-001-100-D00-0
 62
     7
370
    50
100
AcDbCircle
 10
-79.849174
 20
456.381663
 30
0.0
 40
0.4999578796803235
100
AcDbArc
 50
0.0
 51
78.924075
  0
LINE
  5
3D8
330
1F
100
AcDbEntity
  8
LC-001-100-D00-0
 62
     7
370
    50
100
AcDbLine
 10
-79.349216
 20
453.424802
 30
0.0
 11
-79.349216
 21
456.381663
 31
0.0
  0
ARC
  5
3D9
330
1F
100
AcDbEntity
  8
LC-001-100-D00-0
 62
     7
370
    50
100
AcDbCircle
 10
-78.849258
 20
453.424802
 30
0.0
 40
0.4999578796798687
100
AcDbArc
 50
180.0
 51
270.0
  0
LINE
  5
3DA
330
1F
100
AcDbEntity
  8
LC-001-100-D00-0
 62
     7
370
    50
100
AcDbLine
 10
-75.349553
 20
452.924844
 30
0.0
 11
-78.849258
 21
452.924844
 31
0.0
  0
LINE
  5
3DB
330
1F
100
AcDbEntity
  8
LC-001-100-D00-0
 62
     7
370
    50
100
AcDbLine
 10
-69.850016
 20
452.275359
 30
0.0
 11
-69.850016
 21
403.274328
 31
0.0
  0
LINE
  5
3DC
330
1F
100
AcDbEntity
  8
LC-001-100-D00-0
 62
     7
370
    50
100
AcDbLine
 10
-143.913582
 20
404.774844
 30
0.0
 11
-129.347202
 21
404.774844
 31
0.0
  0
LINE
  5
3DD
330
1F
100
AcDbEntity
  8
LC-001-100-D00-0
 62
     7
370
    50
100
AcDbLine
 10
-247.347202
 20
404.774844
 30
0.0
 11
-232.780822
 21
404.774844
 31
0.0
  0
LINE
  5
3DE
330
1F
100
AcDbEntity
  8
LC-001-100-D00-0
 62
     7
370
    50
100
AcDbLine
 10
-238.647609
 20
454.524844
 30
0.0
 11
-259.347202
 21
454.524844
 31
0.0
  0
LINE
  5
3DF
330
1F
100
AcDbEntity
  8
LC-001-100-D00-0
 62
     7
370
    50
100
AcDbLine
 10
-146.358077
 20
404.774844
 30
0.0
 11
-143.913582
 21
404.774844
 31
0.0
  0
LINE
  5
3E0
330
1F
100
AcDbEntity
  8
LC-001-100-D00-0
 62
     7
370
    50
100
AcDbLine
 10
-232.780822
 20
404.774844
 30
0.0
 11
-230.336327
 21
404.774844
 31
0.0
  0
LINE
  5
3E1
330
1F
100
AcDbEntity
  8
LC-001-100-D00-0
 62
     7
370
    50
100
AcDbLine
 10
-230.336327
 20
404.774844
 30
0.0
 11
-229.347203
 21
404.774841
 31
0.0
  0
LINE
  5
3E2
330
1F
100
AcDbEntity
  8
LC-001-100-D00-0
 62
     7
370
    50
100
AcDbLine
 10
-147.347201
 20
404.774841
 30
0.0
 11
-146.358077
 21
404.774844
 31
0.0
  0
LINE
  5
3E3
330
1F
100
AcDbEntity
  8
LC-001-100-D00-0
 62
     7
370
    50
100
AcDbLine
 10
-138.046794
 20
454.524844
 30
0.0
 11
-146.358077
 21
454.524844
 31
0.0
  0
LINE
  5
3E4
330
1F
100
AcDbEntity
  8
LC-001-100-D00-0
 62
     7
370
    50
100
AcDbLine
 10
-230.336327
 20
454.524844
 30
0.0
 11
-238.647609
 21
454.524844
 31
0.0
  0
LINE
  5
3E5
330
1F
100
AcDbEntity
  8
LC-001-100-D00-0
 62
     7
370
    50
100
AcDbLine
 10
-146.358077
 20
454.524844
 30
0.0
 11
-147.347201
 21
454.524845
 31
0.0
  0
LINE
  5
3E6
330
1F
100
AcDbEntity
  8
LC-001-100-D00-0
 62
     7
370
    50
100
AcDbLine
 10
-229.347203
 20
454.524845
 30
0.0
 11
-230.336327
 21
454.524844
 31
0.0
  0
CIRCLE
  5
3E7
330
1F
100
AcDbEntity
  8
LC-001-100-D00-0
 62
     7
370
    50
100
AcDbCircle
 10
-134.097202
 20
476.024844
 30
0.0
 40
1.750000000000114
  0
CIRCLE
  5
3E8
330
1F
100
AcDbEntity
  8
LC-001-100-D00-0
 62
     7
370
    50
100
AcDbCircle
 10
-242.597202
 20
476.024844
 30
0.0
 40
1.750000000000114
  0
LINE
  5
3E9
330
1F
100
AcDbEntity
  8
LC-001-100-D00-0
 62
     7
370
    50
100
AcDbLine
 10
-133.847203
 20
477.774844
 30
0.0
 11
-133.847203
 21
479.274843
 31
0.0
  0
LINE
  5
3EA
330
1F
100
AcDbEntity
  8
LC-001-100-D00-0
 62
     7
370
    50
100
AcDbLine
 10
-135.847203
 20
477.774844
 30
0.0
 11
-133.847203
 21
477.774844
 31
0.0
  0
LINE
  5
3EB
330
1F
100
AcDbEntity
  8
LC-001-100-D00-0
 62
     7
370
    50
100
AcDbLine
 10
-135.847203
 20
477.774844
 30
0.0
 11
-135.847203
 21
474.274844
 31
0.0
  0
LINE
  5
3EC
330
1F
100
AcDbEntity
  8
LC-001-100-D00-0
 62
     7
370
    50
100
AcDbLine
 10
-135.847203
 20
474.274844
 30
0.0
 11
-133.847203
 21
474.274844
 31
0.0
  0
LINE
  5
3ED
330
1F
100
AcDbEntity
  8
LC-001-100-D00-0
 62
     7
370
    50
100
AcDbLine
 10
-133.847203
 20
474.274844
 30
0.0
 11
-133.847203
 21
473.274842
 31
0.0
  0
LINE
  5
3EE
330
1F
100
AcDbEntity
  8
LC-001-100-D00-0
 62
     7
370
    50
100
AcDbLine
 10
-149.347202
 20
473.274844
 30
0.0
 11
-133.847203
 21
473.274842
 31
0.0
  0
ARC
  5
3EF
330
1F
100
AcDbEntity
  8
LC-001-100-D00-0
 62
     7
370
    50
100
AcDbCircle
 10
-149.347202
 20
463.274844
 30
0.0
 40
10.0
100
AcDbArc
 50
90.0
 51
180.0
  0
LINE
  5
3F0
330
1F
100
AcDbEntity
  8
LC-001-100-D00-0
 62
     7
370
    50
100
AcDbLine
 10
-159.347202
 20
463.274844
 30
0.0
 11
-159.347203
 21
413.374845
 31
0.0
  0
LINE
  5
3F1
330
1F
100
AcDbEntity
  8
LC-001-100-D00-0
 62
     7
370
    50
100
AcDbLine
 10
-160.847202
 20
413.374844
 30
0.0
 11
-159.347203
 21
413.374845
 31
0.0
  0
LINE
  5
3F2
330
1F
100
AcDbEntity
  8
LC-001-100-D00-0
 62
     7
370
    50
100
AcDbLine
 10
-160.847202
 20
477.274844
 30
0.0
 11
-160.847202
 21
413.374844
 31
0.0
  0
ARC
  5
3F3
330
1F
100
AcDbEntity
  8
LC-001-100-D00-0
 62
     7
370
    50
100
AcDbCircle
 10
-158.847202
 20
477.274844
 30
0.0
 40
2.000000000000227
100
AcDbArc
 50
90.0
 51
180.0
  0
LINE
  5
3F4
330
1F
100
AcDbEntity
  8
LC-001-100-D00-0
 62
     7
370
    50
100
AcDbLine
 10
-158.847202
 20
479.274844
 30
0.0
 11
-133.847203
 21
479.274843
 31
0.0
  0
LINE
  5
3F5
330
1F
100
AcDbEntity
  8
LC-001-100-D00-0
 62
     7
370
    50
100
AcDbLine
 10
-176.847202
 20
479.274844
 30
0.0
 11
-158.847202
 21
479.274844
 31
0.0
  0
LINE
  5
3F6
330
1F
100
AcDbEntity
  8
LC-001-100-D00-0
 62
     7
370
    50
100
AcDbLine
 10
-176.847202
 20
413.374844
 30
0.0
 11
-160.847202
 21
413.374844
 31
0.0
  0
LINE
  5
3F7
330
1F
100
AcDbEntity
  8
LC-001-100-D00-0
 62
     7
370
    50
100
AcDbLine
 10
-217.347201
 20
413.374845
 30
0.0
 11
-217.347202
 21
463.274844
 31
0.0
  0
ARC
  5
3F8
330
1F
100
AcDbEntity
  8
LC-001-100-D00-0
 62
     7
370
    50
100
AcDbCircle
 10
-217.847202
 20
477.274844
 30
0.0
 40
2.000000000000114
100
AcDbArc
 50
0.0
 51
90.0
  0
LINE
  5
3F9
330
1F
100
AcDbEntity
  8
LC-001-100-D00-0
 62
     7
370
    50
100
AcDbLine
 10
-217.847202
 20
479.274844
 30
0.0
 11
-199.847202
 21
479.274844
 31
0.0
  0
LINE
  5
3FA
330
1F
100
AcDbEntity
  8
LC-001-100-D00-0
 62
     7
370
    50
100
AcDbLine
 10
-215.847202
 20
413.374844
 30
0.0
 11
-215.847202
 21
477.274844
 31
0.0
  0
LINE
  5
3FB
330
1F
100
AcDbEntity
  8
LC-001-100-D00-0
 62
     7
370
    50
100
AcDbLine
 10
-215.847202
 20
413.374844
 30
0.0
 11
-199.847202
 21
413.374844
 31
0.0
  0
ARC
  5
3FC
330
1F
100
AcDbEntity
  8
LC-001-100-D00-0
 62
     7
370
    50
100
AcDbCircle
 10
-227.347202
 20
463.274844
 30
0.0
 40
10.0
100
AcDbArc
 50
0.0
 51
90.0
  0
LINE
  5
3FD
330
1F
100
AcDbEntity
  8
LC-001-100-D00-0
 62
     7
370
    50
100
AcDbLine
 10
-242.847201
 20
473.274842
 30
0.0
 11
-242.847201
 21
474.274844
 31
0.0
  0
LINE
  5
3FE
330
1F
100
AcDbEntity
  8
LC-001-100-D00-0
 62
     7
370
    50
100
AcDbLine
 10
-240.8472
 20
474.274844
 30
0.0
 11
-240.8472
 21
477.774844
 31
0.0
  0
LINE
  5
3FF
330
1F
100
AcDbEntity
  8
LC-001-100-D00-0
 62
     7
370
    50
100
AcDbLine
 10
-242.847201
 20
479.274843
 30
0.0
 11
-242.847201
 21
477.774844
 31
0.0
  0
LINE
  5
400
330
1F
100
AcDbEntity
  8
LC-001-100-D00-0
 62
     7
370
    50
100
AcDbLine
 10
-217.347201
 20
413.374845
 30
0.0
 11
-215.847202
 21
413.374844
 31
0.0
  0
LINE
  5
401
330
1F
100
AcDbEntity
  8
LC-001-100-D00-0
 62
     7
370
    50
100
AcDbLine
 10
-242.847201
 20
474.274844
 30
0.0
 11
-240.8472
 21
474.274844
 31
0.0
  0
LINE
  5
402
330
1F
100
AcDbEntity
  8
LC-001-100-D00-0
 62
     7
370
    50
100
AcDbLine
 10
-242.847201
 20
477.774844
 30
0.0
 11
-240.8472
 21
477.774844
 31
0.0
  0
LINE
  5
403
330
1F
100
AcDbEntity
  8
LC-001-100-D00-0
 62
     7
370
    50
100
AcDbLine
 10
-242.847201
 20
473.274842
 30
0.0
 11
-227.347202
 21
473.274844
 31
0.0
  0
LINE
  5
404
330
1F
100
AcDbEntity
  8
LC-001-100-D00-0
 62
     7
370
    50
100
AcDbLine
 10
-242.847201
 20
479.274843
 30
0.0
 11
-217.847202
 21
479.274844
 31
0.0
  0
LINE
  5
405
330
1F
100
AcDbEntity
  8
LC-001-100-D00-0
 62
     7
370
    50
100
AcDbLine
 10
-199.847202
 20
479.274844
 30
0.0
 11
-176.847202
 21
479.274844
 31
0.0
  0
LINE
  5
406
330
1F
100
AcDbEntity
  8
LC-001-100-D00-0
 62
     7
370
    50
100
AcDbLine
 10
-199.847202
 20
413.374844
 30
0.0
 11
-176.847202
 21
413.374844
 31
0.0
  0
LINE
  5
407
330
1F
100
AcDbEntity
  8
LC-001-100-D00-0
 62
     7
370
    50
100
AcDbLine
 10
-229.347203
 20
463.774845
 30
0.0
 11
-239.282887
 21
471.080495
 31
0.0
  0
ARC
  5
408
330
1F
100
AcDbEntity
  8
LC-001-100-D00-0
 62
     7
370
    50
100
AcDbCircle
 10
-239.875278
 20
470.274844
 30
0.0
 40
1.000000000000197
100
AcDbArc
 50
53.673174
 51
90.0
  0
LINE
  5
409
330
1F
100
AcDbEntity
  8
LC-001-100-D00-0
 62
     7
370
    50
100
AcDbLine
 10
-243.597202
 20
471.274844
 30
0.0
 11
-239.875278
 21
471.274844
 31
0.0
  0
LINE
  5
40A
330
1F
100
AcDbEntity
  8
LC-001-100-D00-0
 62
     7
370
    50
100
AcDbLine
 10
-243.597202
 20
471.274844
 30
0.0
 11
-243.597202
 21
473.274844
 31
0.0
  0
LINE
  5
40B
330
1F
100
AcDbEntity
  8
LC-001-100-D00-0
 62
     7
370
    50
100
AcDbLine
 10
-243.597202
 20
473.274844
 30
0.0
 11
-239.875278
 21
473.274844
 31
0.0
  0
ARC
  5
40C
330
1F
100
AcDbEntity
  8
LC-001-100-D00-0
 62
     7
370
    50
100
AcDbCircle
 10
-239.875278
 20
470.274844
 30
0.0
 40
3.000000000000226
100
AcDbArc
 50
53.673174
 51
90.0
  0
LINE
  5
40D
330
1F
100
AcDbEntity
  8
LC-001-100-D00-0
 62
     7
370
    50
100
AcDbLine
 10
-238.098106
 20
472.691797
 30
0.0
 11
-228.254811
 21
465.45408
 31
0.0
  0
ARC
  5
40E
330
1F
100
AcDbEntity
  8
LC-001-100-D00-0
 62
     7
370
    50
100
AcDbCircle
 10
-228.847202
 20
464.648429
 30
0.0
 40
1.000000000000114
100
AcDbArc
 50
0.0
 51
53.673174
  0
LINE
  5
40F
330
1F
100
AcDbEntity
  8
LC-001-100-D00-0
 62
     7
370
    50
100
AcDbLine
 10
-227.847202
 20
402.774844
 30
0.0
 11
-227.847202
 21
464.648429
 31
0.0
  0
ARC
  5
410
330
1F
100
AcDbEntity
  8
LC-001-100-D00-0
 62
     7
370
    50
100
AcDbCircle
 10
-224.347202
 20
402.774844
 30
0.0
 40
3.500000000000114
100
AcDbArc
 50
180.0
 51
270.0
  0
LINE
  5
411
330
1F
100
AcDbEntity
  8
LC-001-100-D00-0
 62
     7
370
    50
100
AcDbLine
 10
-152.347202
 20
399.274844
 30
0.0
 11
-224.347202
 21
399.274844
 31
0.0
  0
ARC
  5
412
330
1F
100
AcDbEntity
  8
LC-001-100-D00-0
 62
     7
370
    50
100
AcDbCircle
 10
-152.347202
 20
402.774844
 30
0.0
 40
3.5
100
AcDbArc
 50
270.0
 51
0.0
  0
LINE
  5
413
330
1F
100
AcDbEntity
  8
LC-001-100-D00-0
 62
     7
370
    50
100
AcDbLine
 10
-148.847202
 20
464.648429
 30
0.0
 11
-148.847202
 21
402.774844
 31
0.0
  0
ARC
  5
414
330
1F
100
AcDbEntity
  8
LC-001-100-D00-0
 62
     7
370
    50
100
AcDbCircle
 10
-147.847202
 20
464.648429
 30
0.0
 40
0.9999999999999467
100
AcDbArc
 50
126.326826
 51
180.0
  0
LINE
  5
415
330
1F
100
AcDbEntity
  8
LC-001-100-D00-0
 62
     7
370
    50
100
AcDbLine
 10
-138.596297
 20
472.691797
 30
0.0
 11
-148.439592
 21
465.45408
 31
0.0
  0
ARC
  5
416
330
1F
100
AcDbEntity
  8
LC-001-100-D00-0
 62
     7
370
    50
100
AcDbCircle
 10
-136.819126
 20
470.274844
 30
0.0
 40
3.000000000000227
100
AcDbArc
 50
90.0
 51
126.326826
  0
LINE
  5
417
330
1F
100
AcDbEntity
  8
LC-001-100-D00-0
 62
     7
370
    50
100
AcDbLine
 10
-136.819126
 20
473.274844
 30
0.0
 11
-133.097202
 21
473.274844
 31
0.0
  0
LINE
  5
418
330
1F
100
AcDbEntity
  8
LC-001-100-D00-0
 62
     7
370
    50
100
AcDbLine
 10
-133.097202
 20
473.274844
 30
0.0
 11
-133.097202
 21
471.274844
 31
0.0
  0
LINE
  5
419
330
1F
100
AcDbEntity
  8
LC-001-100-D00-0
 62
     7
370
    50
100
AcDbLine
 10
-136.819126
 20
471.274844
 30
0.0
 11
-133.097202
 21
471.274844
 31
0.0
  0
ARC
  5
41A
330
1F
100
AcDbEntity
  8
LC-001-100-D00-0
 62
     7
370
    50
100
AcDbCircle
 10
-136.819126
 20
470.274844
 30
0.0
 40
1.0
100
AcDbArc
 50
90.0
 51
126.326826
  0
LINE
  5
41B
330
1F
100
AcDbEntity
  8
LC-001-100-D00-0
 62
     7
370
    50
100
AcDbLine
 10
-147.347201
 20
463.774845
 30
0.0
 11
-137.411516
 21
471.080495
 31
0.0
  0
LINE
  5
41C
330
1F
100
AcDbEntity
  8
LC-001-100-D00-0
 62
     7
370
    50
100
AcDbLine
 10
-147.347201
 20
463.774845
 30
0.0
 11
-147.347202
 21
402.774844
 31
0.0
  0
ARC
  5
41D
330
1F
100
AcDbEntity
  8
LC-001-100-D00-0
 62
     7
370
    50
100
AcDbCircle
 10
-152.347202
 20
402.774844
 30
0.0
 40
5.0
100
AcDbArc
 50
270.0
 51
0.0
  0
LINE
  5
41E
330
1F
100
AcDbEntity
  8
LC-001-100-D00-0
 62
     7
370
    50
100
AcDbLine
 10
-152.347202
 20
397.774844
 30
0.0
 11
-224.347202
 21
397.774844
 31
0.0
  0
ARC
  5
41F
330
1F
100
AcDbEntity
  8
LC-001-100-D00-0
 62
     7
370
    50
100
AcDbCircle
 10
-224.347202
 20
402.774844
 30
0.0
 40
5.0
100
AcDbArc
 50
180.0
 51
270.0
  0
LINE
  5
420
330
1F
100
AcDbEntity
  8
LC-001-100-D00-0
 62
     7
370
    50
100
AcDbLine
 10
-229.347202
 20
402.774844
 30
0.0
 11
-229.347203
 21
463.774845
 31
0.0
  0
LINE
  5
421
330
1F
100
AcDbEntity
  8
LC-001-100-D00-0
 62
     7
370
    50
100
AcDbLine
 10
-148.854323
 20
463.774844
 30
0.0
 11
-153.267806
 21
463.774844
 31
0.0
  0
LINE
  5
422
330
1F
100
AcDbEntity
  8
LC-001-100-D00-0
 62
     7
370
    50
100
AcDbLine
 10
-148.854323
 20
464.643062
 30
0.0
 11
-148.854323
 21
463.774844
 31
0.0
  0
ARC
  5
423
330
1F
100
AcDbEntity
  8
LC-001-100-D00-0
 62
     7
370
    50
100
AcDbCircle
 10
-147.853949
 20
464.643003
 30
0.0
 40
1.0003735734447
100
AcDbArc
 50
126.325165
 51
180.0
  0
LINE
  5
424
330
1F
100
AcDbEntity
  8
LC-001-100-D00-0
 62
     7
370
    50
100
AcDbLine
 10
-148.446538
 20
465.448972
 30
0.0
 11
-148.439592
 21
465.45408
 31
0.0
  0
LINE
  5
425
330
1F
100
AcDbEntity
  8
LC-001-100-D00-0
 62
     7
370
    50
100
AcDbLine
 10
-227.840081
 20
464.643062
 30
0.0
 11
-227.840081
 21
463.774844
 31
0.0
  0
LINE
  5
426
330
1F
100
AcDbEntity
  8
LC-001-100-D00-0
 62
     7
370
    50
100
AcDbLine
 10
-223.426597
 20
463.774844
 30
0.0
 11
-227.840081
 21
463.774844
 31
0.0
  0
ARC
  5
427
330
1F
100
AcDbEntity
  8
LC-001-100-D00-0
 62
     7
370
    50
100
AcDbCircle
 10
-228.840428
 20
464.643016
 30
0.0
 40
1.000347039121039
100
AcDbArc
 50
0.0
 51
53.675603
  0
LINE
  5
428
330
1F
100
AcDbEntity
  8
LC-001-100-D00-0
 62
     7
370
    50
100
AcDbLine
 10
-155.418836
 20
471.220613
 30
0.0
 11
-155.418836
 21
463.774845
 31
0.0
  0
LINE
  5
429
330
1F
100
AcDbEntity
  8
LC-001-100-D00-0
 62
     7
370
    50
100
AcDbLine
 10
-155.418837
 20
471.274844
 30
0.0
 11
-148.632787
 21
471.274844
 31
0.0
  0
LINE
  5
42A
330
1F
100
AcDbEntity
  8
LC-001-100-D00-0
 62
     7
370
    50
100
AcDbLine
 10
-144.168499
 20
471.274844
 30
0.0
 11
-140.523353
 21
471.274844
 31
0.0
  0
LINE
  5
42B
330
1F
100
AcDbEntity
  8
LC-001-100-D00-0
 62
     7
370
    50
100
AcDbLine
 10
-221.275568
 20
471.220613
 30
0.0
 11
-221.275568
 21
463.774845
 31
0.0
  0
LINE
  5
42C
330
1F
100
AcDbEntity
  8
LC-001-100-D00-0
 62
     7
370
    50
100
AcDbLine
 10
-236.17105
 20
471.274844
 30
0.0
 11
-232.525905
 21
471.274844
 31
0.0
  0
LINE
  5
42D
330
1F
100
AcDbEntity
  8
LC-001-100-D00-0
 62
     7
370
    50
100
AcDbLine
 10
-228.061617
 20
471.274844
 30
0.0
 11
-221.275566
 21
471.274844
 31
0.0
  0
LINE
  5
42E
330
1F
100
AcDbEntity
  8
LC-001-100-D00-0
 62
     7
370
    50
100
AcDbLine
 10
-153.267806
 20
463.774844
 30
0.0
 11
-159.334694
 21
463.774844
 31
0.0
  0
LINE
  5
42F
330
1F
100
AcDbEntity
  8
LC-001-100-D00-0
 62
     7
370
    50
100
AcDbLine
 10
-217.35971
 20
463.774844
 30
0.0
 11
-223.426597
 21
463.774844
 31
0.0
  0
ARC
  5
430
330
1F
100
AcDbEntity
  8
LC-001-100-D00-0
 62
     7
370
    50
100
AcDbCircle
 10
-85.347405
 20
427.774844
 30
0.0
 40
32.00000000000007
100
AcDbArc
 50
51.375167
 51
90.0
  0
LINE
  5
431
330
1F
100
AcDbEntity
  8
LC-001-100-D00-0
 62
     7
370
    50
100
AcDbLine
 10
-65.372421
 20
452.774844
 30
0.0
 11
17.65259
 21
452.774845
 31
0.0
  0
LINE
  5
432
330
1F
100
AcDbEntity
  8
LC-001-100-D00-0
 62
     7
370
    50
100
AcDbLine
 10
17.65259
 20
452.774845
 30
0.0
 11
21.152589
 21
451.837022
 31
0.0
  0
LINE
  5
433
330
1F
100
AcDbEntity
  8
LC-001-100-D00-0
 62
     7
370
    50
100
AcDbLine
 10
21.152589
 20
451.837022
 30
0.0
 11
21.152595
 21
450.524844
 31
0.0
  0
LINE
  5
434
330
1F
100
AcDbEntity
  8
LC-001-100-D00-0
 62
     7
370
    50
100
AcDbLine
 10
21.152595
 20
450.524844
 30
0.0
 11
-66.567429
 21
450.524844
 31
0.0
  0
ARC
  5
435
330
1F
100
AcDbEntity
  8
LC-001-100-D00-0
 62
     7
370
    50
100
AcDbCircle
 10
-85.347405
 20
427.774844
 30
0.0
 40
29.50000000000029
100
AcDbArc
 50
50.46055
 51
104.235124
  0
ARC
  5
436
330
1F
100
AcDbEntity
  8
LC-001-100-D00-0
 62
     7
370
    50
100
AcDbCircle
 10
-92.847405
 20
457.338335
 30
0.0
 40
1.0
100
AcDbArc
 50
180.0
 51
284.235124
  0
LINE
  5
437
330
1F
100
AcDbEntity
  8
LC-001-100-D00-0
 62
     7
370
    50
100
AcDbLine
 10
-93.847405
 20
457.338335
 30
0.0
 11
-93.847405
 21
459.774845
 31
0.0
  0
LINE
  5
438
330
1F
100
AcDbEntity
  8
LC-001-100-D00-0
 62
     7
370
    50
100
AcDbLine
 10
-93.847405
 20
459.774845
 30
0.0
 11
-85.347405
 21
459.774844
 31
0.0
  0
LINE
  5
439
330
1F
100
AcDbEntity
  8
LC-001-100-D00-0
 62
     7
370
    50
100
AcDbLine
 10
-93.847405
 20
395.774845
 30
0.0
 11
-93.847405
 21
398.211353
 31
0.0
  0
ARC
  5
43A
330
1F
100
AcDbEntity
  8
LC-001-100-D00-0
 62
     7
370
    50
100
AcDbCircle
 10
-92.847405
 20
398.211353
 30
0.0
 40
0.9999999999998909
100
AcDbArc
 50
75.764876
 51
180.0
  0
ARC
  5
43B
330
1F
100
AcDbEntity
  8
LC-001-100-D00-0
 62
     7
370
    50
100
AcDbCircle
 10
-85.347405
 20
427.774844
 30
0.0
 40
29.50000000000022
100
AcDbArc
 50
255.764876
 51
309.53945
  0
LINE
  5
43C
330
1F
100
AcDbEntity
  8
LC-001-100-D00-0
 62
     7
370
    50
100
AcDbLine
 10
-66.567429
 20
405.024844
 30
0.0
 11
21.152595
 21
405.024844
 31
0.0
  0
LINE
  5
43D
330
1F
100
AcDbEntity
  8
LC-001-100-D00-0
 62
     7
370
    50
100
AcDbLine
 10
21.152595
 20
405.024844
 30
0.0
 11
21.152589
 21
403.712664
 31
0.0
  0
LINE
  5
43E
330
1F
100
AcDbEntity
  8
LC-001-100-D00-0
 62
     7
370
    50
100
AcDbLine
 10
21.152589
 20
403.712664
 30
0.0
 11
17.65259
 21
402.774845
 31
0.0
  0
LINE
  5
43F
330
1F
100
AcDbEntity
  8
LC-001-100-D00-0
 62
     7
370
    50
100
AcDbLine
 10
17.65259
 20
402.774845
 30
0.0
 11
-65.372421
 21
402.774844
 31
0.0
  0
ARC
  5
440
330
1F
100
AcDbEntity
  8
LC-001-100-D00-0
 62
     7
370
    50
100
AcDbCircle
 10
-85.347405
 20
427.774844
 30
0.0
 40
32.00000000000023
100
AcDbArc
 50
270.0
 51
308.624833
  0
LINE
  5
441
330
1F
100
AcDbEntity
  8
LC-001-100-D00-0
 62
     7
370
    50
100
AcDbLine
 10
-85.347405
 20
395.774844
 30
0.0
 11
-93.847405
 21
395.774845
 31
0.0
  0
LINE
  5
442
330
1F
100
AcDbEntity
  8
LC-001-100-D00-0
 62
     7
370
    50
100
AcDbLine
 10
21.152595
 20
450.524844
 30
0.0
 11
21.152595
 21
405.024844
 31
0.0
  0
LINE
  5
443
330
1F
100
AcDbEntity
  8
LC-001-100-D00-0
 62
     7
370
    50
100
AcDbLine
 10
-66.567429
 20
450.524844
 30
0.0
 11
-66.567429
 21
405.024844
 31
0.0
  0
LINE
  5
444
330
1F
100
AcDbEntity
  8
LC-001-100-D00-0
 62
     7
370
    50
100
AcDbLine
 10
-93.847405
 20
399.339641
 30
0.0
 11
-93.847405
 21
398.211353
 31
0.0
  0
CIRCLE
  5
445
330
1F
100
AcDbEntity
  8
LC-001-100-D00-0
 62
     7
370
    50
100
AcDbCircle
 10
-77.099406
 20
454.774844
 30
0.0
 40
1.999999999999886
  0
CIRCLE
  5
446
330
1F
100
AcDbEntity
  8
LC-001-100-D00-0
 62
     7
370
    50
100
AcDbCircle
 10
-77.099406
 20
400.774844
 30
0.0
 40
2.000000000000114
  0
LINE
  5
447
330
1F
100
AcDbEntity
  8
LC-001-100-D00-0
 62
     7
370
    50
100
AcDbLine
 10
-95.004864
 20
483.189658
 30
0.0
 11
-112.838536
 21
478.41114
 31
0.0
  0
ARC
  5
448
330
1F
100
AcDbEntity
  8
LC-001-100-D00-0
 62
     7
370
    50
100
AcDbCircle
 10
-113.873812
 20
482.274844
 30
0.0
 40
3.999999999999773
100
AcDbArc
 50
270.0
 51
285.0
  0
LINE
  5
449
330
1F
100
AcDbEntity
  8
LC-001-100-D00-0
 62
     7
370
    50
100
AcDbLine
 10
-113.873812
 20
478.274844
 30
0.0
 11
-130.547202
 21
478.274844
 31
0.0
  0
ARC
  5
44A
330
1F
100
AcDbEntity
  8
LC-001-100-D00-0
 62
     7
370
    50
100
AcDbCircle
 10
-130.547202
 20
477.274844
 30
0.0
 40
1.000000000000227
100
AcDbArc
 50
90.0
 51
180.0
  0
LINE
  5
44B
330
1F
100
AcDbEntity
  8
LC-001-100-D00-0
 62
     7
370
    50
100
AcDbLine
 10
-131.547202
 20
477.274844
 30
0.0
 11
-131.547201
 21
473.274842
 31
0.0
  0
LINE
  5
44C
330
1F
100
AcDbEntity
  8
LC-001-100-D00-0
 62
     7
370
    50
100
AcDbLine
 10
-131.547201
 20
473.274842
 30
0.0
 11
-133.047202
 21
473.274844
 31
0.0
  0
LINE
  5
44D
330
1F
100
AcDbEntity
  8
LC-001-100-D00-0
 62
     7
370
    50
100
AcDbLine
 10
-133.047202
 20
477.274844
 30
0.0
 11
-133.047202
 21
473.274844
 31
0.0
  0
ARC
  5
44E
330
1F
100
AcDbEntity
  8
LC-001-100-D00-0
 62
     7
370
    50
100
AcDbCircle
 10
-130.547202
 20
477.274844
 30
0.0
 40
2.5
100
AcDbArc
 50
90.0
 51
180.0
  0
LINE
  5
44F
330
1F
100
AcDbEntity
  8
LC-001-100-D00-0
 62
     7
370
    50
100
AcDbLine
 10
-113.873812
 20
479.774844
 30
0.0
 11
-130.547202
 21
479.774844
 31
0.0
  0
ARC
  5
450
330
1F
100
AcDbEntity
  8
LC-001-100-D00-0
 62
     7
370
    50
100
AcDbCircle
 10
-113.873812
 20
482.274844
 30
0.0
 40
2.5
100
AcDbArc
 50
270.0
 51
285.0
  0
LINE
  5
451
330
1F
100
AcDbEntity
  8
LC-001-100-D00-0
 62
     7
370
    50
100
AcDbLine
 10
-95.393093
 20
484.638547
 30
0.0
 11
-113.226764
 21
479.860029
 31
0.0
  0
ARC
  5
452
330
1F
100
AcDbEntity
  8
LC-001-100-D00-0
 62
     7
370
    50
100
AcDbCircle
 10
-94.357817
 20
480.774844
 30
0.0
 40
4.0
100
AcDbArc
 50
90.0
 51
105.0
  0
LINE
  5
453
330
1F
100
AcDbEntity
  8
LC-001-100-D00-0
 62
     7
370
    50
100
AcDbLine
 10
-94.357817
 20
484.774844
 30
0.0
 11
-92.847202
 21
484.774843
 31
0.0
  0
LINE
  5
454
330
1F
100
AcDbEntity
  8
LC-001-100-D00-0
 62
     7
370
    50
100
AcDbLine
 10
-92.847202
 20
484.774843
 30
0.0
 11
-92.847202
 21
486.174845
 31
0.0
  0
LINE
  5
455
330
1F
100
AcDbEntity
  8
LC-001-100-D00-0
 62
     7
370
    50
100
AcDbLine
 10
-92.347202
 20
486.174844
 30
0.0
 11
-92.847202
 21
486.174845
 31
0.0
  0
ARC
  5
456
330
1F
100
AcDbEntity
  8
LC-001-100-D00-0
 62
     7
370
    50
100
AcDbCircle
 10
-93.347202
 20
487.674844
 30
0.0
 40
1.802775637731679
100
AcDbArc
 50
303.690068
 51
56.309932
  0
LINE
  5
457
330
1F
100
AcDbEntity
  8
LC-001-100-D00-0
 62
     7
370
    50
100
AcDbLine
 10
-92.347201
 20
503.774844
 30
0.0
 11
-92.347202
 21
489.174844
 31
0.0
  0
LINE
  5
458
330
1F
100
AcDbEntity
  8
LC-001-100-D00-0
 62
     7
370
    50
100
AcDbLine
 10
-91.347199
 20
504.774844
 30
0.0
 11
-92.347201
 21
503.774844
 31
0.0
  0
LINE
  5
459
330
1F
100
AcDbEntity
  8
LC-001-100-D00-0
 62
     7
370
    50
100
AcDbLine
 10
-85.347202
 20
504.774844
 30
0.0
 11
-91.347199
 21
504.774844
 31
0.0
  0
LINE
  5
45A
330
1F
100
AcDbEntity
  8
LC-001-100-D00-0
 62
     7
370
    50
100
AcDbLine
 10
-84.3472
 20
503.774844
 30
0.0
 11
-85.347202
 21
504.774844
 31
0.0
  0
LINE
  5
45B
330
1F
100
AcDbEntity
  8
LC-001-100-D00-0
 62
     7
370
    50
100
AcDbLine
 10
-84.347202
 20
489.174844
 30
0.0
 11
-84.3472
 21
503.774844
 31
0.0
  0
ARC
  5
45C
330
1F
100
AcDbEntity
  8
LC-001-100-D00-0
 62
     7
370
    50
100
AcDbCircle
 10
-83.347202
 20
487.674844
 30
0.0
 40
1.802775637732058
100
AcDbArc
 50
123.690068
 51
236.309932
  0
LINE
  5
45D
330
1F
100
AcDbEntity
  8
LC-001-100-D00-0
 62
     7
370
    50
100
AcDbLine
 10
-83.847199
 20
486.174845
 30
0.0
 11
-84.347202
 21
486.174844
 31
0.0
  0
LINE
  5
45E
330
1F
100
AcDbEntity
  8
LC-001-100-D00-0
 62
     7
370
    50
100
AcDbLine
 10
-83.847199
 20
486.174845
 30
0.0
 11
-83.847199
 21
484.774843
 31
0.0
  0
LINE
  5
45F
330
1F
100
AcDbEntity
  8
LC-001-100-D00-0
 62
     7
370
    50
100
AcDbLine
 10
-83.847199
 20
484.774843
 30
0.0
 11
92.152793
 21
484.774843
 31
0.0
  0
LINE
  5
460
330
1F
100
AcDbEntity
  8
LC-001-100-D00-0
 62
     7
370
    50
100
AcDbLine
 10
92.152793
 20
484.774843
 30
0.0
 11
92.152793
 21
486.174845
 31
0.0
  0
LINE
  5
461
330
1F
100
AcDbEntity
  8
LC-001-100-D00-0
 62
     7
370
    50
100
AcDbLine
 10
92.652798
 20
486.174844
 30
0.0
 11
92.152793
 21
486.174845
 31
0.0
  0
ARC
  5
462
330
1F
100
AcDbEntity
  8
LC-001-100-D00-0
 62
     7
370
    50
100
AcDbCircle
 10
91.652798
 20
487.674844
 30
0.0
 40
1.802775637732058
100
AcDbArc
 50
303.690068
 51
56.309932
  0
LINE
  5
463
330
1F
100
AcDbEntity
  8
LC-001-100-D00-0
 62
     7
370
    50
100
AcDbLine
 10
92.652786
 20
503.774844
 30
0.0
 11
92.652798
 21
489.174844
 31
0.0
  0
LINE
  5
464
330
1F
100
AcDbEntity
  8
LC-001-100-D00-0
 62
     7
370
    50
100
AcDbLine
 10
93.652803
 20
504.774844
 30
0.0
 11
92.652786
 21
503.774844
 31
0.0
  0
LINE
  5
465
330
1F
100
AcDbEntity
  8
LC-001-100-D00-0
 62
     7
370
    50
100
AcDbLine
 10
99.652786
 20
504.774844
 30
0.0
 11
93.652803
 21
504.774844
 31
0.0
  0
LINE
  5
466
330
1F
100
AcDbEntity
  8
LC-001-100-D00-0
 62
     7
370
    50
100
AcDbLine
 10
100.652803
 20
503.774844
 30
0.0
 11
99.652786
 21
504.774844
 31
0.0
  0
LINE
  5
467
330
1F
100
AcDbEntity
  8
LC-001-100-D00-0
 62
     7
370
    50
100
AcDbLine
 10
100.652798
 20
489.174844
 30
0.0
 11
100.652803
 21
503.774844
 31
0.0
  0
ARC
  5
468
330
1F
100
AcDbEntity
  8
LC-001-100-D00-0
 62
     7
370
    50
100
AcDbCircle
 10
101.652798
 20
487.674844
 30
0.0
 40
1.802775637732058
100
AcDbArc
 50
123.690068
 51
236.309932
  0
LINE
  5
469
330
1F
100
AcDbEntity
  8
LC-001-100-D00-0
 62
     7
370
    50
100
AcDbLine
 10
101.152796
 20
486.174845
 30
0.0
 11
100.652798
 21
486.174844
 31
0.0
  0
LINE
  5
46A
330
1F
100
AcDbEntity
  8
LC-001-100-D00-0
 62
     7
370
    50
100
AcDbLine
 10
101.152796
 20
486.174845
 30
0.0
 11
101.152796
 21
484.774843
 31
0.0
  0
LINE
  5
46B
330
1F
100
AcDbEntity
  8
LC-001-100-D00-0
 62
     7
370
    50
100
AcDbLine
 10
101.152796
 20
484.774843
 30
0.0
 11
277.152795
 21
484.774843
 31
0.0
  0
LINE
  5
46C
330
1F
100
AcDbEntity
  8
LC-001-100-D00-0
 62
     7
370
    50
100
AcDbLine
 10
277.152795
 20
484.774843
 30
0.0
 11
277.152795
 21
486.174845
 31
0.0
  0
LINE
  5
46D
330
1F
100
AcDbEntity
  8
LC-001-100-D00-0
 62
     7
370
    50
100
AcDbLine
 10
277.652798
 20
486.174844
 30
0.0
 11
277.152795
 21
486.174845
 31
0.0
  0
ARC
  5
46E
330
1F
100
AcDbEntity
  8
LC-001-100-D00-0
 62
     7
370
    50
100
AcDbCircle
 10
276.652798
 20
487.674844
 30
0.0
 40
1.802775637731679
100
AcDbArc
 50
303.690068
 51
56.309932
  0
LINE
  5
46F
330
1F
100
AcDbEntity
  8
LC-001-100-D00-0
 62
     7
370
    50
100
AcDbLine
 10
277.652789
 20
503.774844
 30
0.0
 11
277.652798
 21
489.174844
 31
0.0
  0
LINE
  5
470
330
1F
100
AcDbEntity
  8
LC-001-100-D00-0
 62
     7
370
    50
100
AcDbLine
 10
278.652806
 20
504.774844
 30
0.0
 11
277.652789
 21
503.774844
 31
0.0
  0
LINE
  5
471
330
1F
100
AcDbEntity
  8
LC-001-100-D00-0
 62
     7
370
    50
100
AcDbLine
 10
284.652788
 20
504.774844
 30
0.0
 11
278.652806
 21
504.774844
 31
0.0
  0
LINE
  5
472
330
1F
100
AcDbEntity
  8
LC-001-100-D00-0
 62
     7
370
    50
100
AcDbLine
 10
285.652805
 20
503.774844
 30
0.0
 11
284.652788
 21
504.774844
 31
0.0
  0
LINE
  5
473
330
1F
100
AcDbEntity
  8
LC-001-100-D00-0
 62
     7
370
    50
100
AcDbLine
 10
285.652798
 20
489.174844
 30
0.0
 11
285.652805
 21
503.774844
 31
0.0
  0
ARC
  5
474
330
1F
100
AcDbEntity
  8
LC-001-100-D00-0
 62
     7
370
    50
100
AcDbCircle
 10
286.652798
 20
487.674844
 30
0.0
 40
1.802775637731868
100
AcDbArc
 50
123.690068
 51
236.309932
  0
LINE
  5
475
330
1F
100
AcDbEntity
  8
LC-001-100-D00-0
 62
     7
370
    50
100
AcDbLine
 10
286.152799
 20
486.174845
 30
0.0
 11
285.652798
 21
486.174844
 31
0.0
  0
LINE
  5
476
330
1F
100
AcDbEntity
  8
LC-001-100-D00-0
 62
     7
370
    50
100
AcDbLine
 10
286.152799
 20
486.174845
 30
0.0
 11
286.152799
 21
484.774843
 31
0.0
  0
LINE
  5
477
330
1F
100
AcDbEntity
  8
LC-001-100-D00-0
 62
     7
370
    50
100
AcDbLine
 10
286.152799
 20
484.774843
 30
0.0
 11
303.652798
 21
484.774844
 31
0.0
  0
ARC
  5
478
330
1F
100
AcDbEntity
  8
LC-001-100-D00-0
 62
     7
370
    50
100
AcDbCircle
 10
303.652798
 20
492.774844
 30
0.0
 40
8.0
100
AcDbArc
 50
270.0
 51
0.0
  0
LINE
  5
479
330
1F
100
AcDbEntity
  8
LC-001-100-D00-0
 62
     7
370
    50
100
AcDbLine
 10
311.652798
 20
492.774844
 30
0.0
 11
311.652798
 21
502.274844
 31
0.0
  0
ARC
  5
47A
330
1F
100
AcDbEntity
  8
LC-001-100-D00-0
 62
     7
370
    50
100
AcDbCircle
 10
314.652798
 20
502.274844
 30
0.0
 40
3.0
100
AcDbArc
 50
90.0
 51
180.0
  0
LINE
  5
47B
330
1F
100
AcDbEntity
  8
LC-001-100-D00-0
 62
     7
370
    50
100
AcDbLine
 10
361.65281
 20
505.274844
 30
0.0
 11
314.652798
 21
505.274844
 31
0.0
  0
LINE
  5
47C
330
1F
100
AcDbEntity
  8
LC-001-100-D00-0
 62
     7
370
    50
100
AcDbLine
 10
361.65281
 20
503.774844
 30
0.0
 11
361.65281
 21
505.274844
 31
0.0
  0
LINE
  5
47D
330
1F
100
AcDbEntity
  8
LC-001-100-D00-0
 62
     7
370
    50
100
AcDbLine
 10
361.65281
 20
503.774844
 30
0.0
 11
314.652798
 21
503.774844
 31
0.0
  0
ARC
  5
47E
330
1F
100
AcDbEntity
  8
LC-001-100-D00-0
 62
     7
370
    50
100
AcDbCircle
 10
314.652798
 20
502.274844
 30
0.0
 40
1.500000000000455
100
AcDbArc
 50
90.0
 51
180.0
  0
LINE
  5
47F
330
1F
100
AcDbEntity
  8
LC-001-100-D00-0
 62
     7
370
    50
100
AcDbLine
 10
313.152798
 20
492.774844
 30
0.0
 11
313.152798
 21
502.274844
 31
0.0
  0
ARC
  5
480
330
1F
100
AcDbEntity
  8
LC-001-100-D00-0
 62
     7
370
    50
100
AcDbCircle
 10
303.652798
 20
492.774844
 30
0.0
 40
9.5
100
AcDbArc
 50
270.0
 51
0.0
  0
LINE
  5
481
330
1F
100
AcDbEntity
  8
LC-001-100-D00-0
 62
     7
370
    50
100
AcDbLine
 10
-94.357817
 20
483.274844
 30
0.0
 11
303.652798
 21
483.274844
 31
0.0
  0
ARC
  5
482
330
1F
100
AcDbEntity
  8
LC-001-100-D00-0
 62
     7
370
    50
100
AcDbCircle
 10
-94.357817
 20
480.774844
 30
0.0
 40
2.5
100
AcDbArc
 50
90.0
 51
105.0
  0
LINE
  5
483
330
1F
100
AcDbEntity
  8
LC-001-100-D00-0
 62
     7
370
    50
100
AcDbLine
 10
-143.953318
 20
479.774844
 30
0.0
 11
-130.547202
 21
479.774844
 31
0.0
  0
LINE
  5
484
330
1F
100
AcDbEntity
  8
LC-001-100-D00-0
 62
     7
370
    50
100
AcDbLine
 10
-133.047202
 20
473.274844
 30
0.0
 11
-133.097202
 21
473.274844
 31
0.0
  0
LINE
  5
485
330
1F
100
AcDbEntity
  8
LC-001-100-D00-0
 62
     7
370
    50
100
AcDbLine
 10
-245.147202
 20
473.274842
 30
0.0
 11
-245.147202
 21
477.274844
 31
0.0
  0
LINE
  5
486
330
1F
100
AcDbEntity
  8
LC-001-100-D00-0
 62
     7
370
    50
100
AcDbLine
 10
-243.597202
 20
473.274844
 30
0.0
 11
-243.647202
 21
473.274844
 31
0.0
  0
LINE
  5
487
330
1F
100
AcDbEntity
  8
LC-001-100-D00-0
 62
     7
370
    50
100
AcDbLine
 10
-243.647202
 20
473.274844
 30
0.0
 11
-243.647202
 21
477.274844
 31
0.0
  0
LINE
  5
488
330
1F
100
AcDbEntity
  8
LC-001-100-D00-0
 62
     7
370
    50
100
AcDbLine
 10
-653.847199
 20
486.174845
 30
0.0
 11
-654.347202
 21
486.174844
 31
0.0
  0
LINE
  5
489
330
1F
100
AcDbEntity
  8
LC-001-100-D00-0
 62
     7
370
    50
100
AcDbLine
 10
-653.847199
 20
486.174845
 30
0.0
 11
-653.847199
 21
484.774843
 31
0.0
  0
LINE
  5
48A
330
1F
100
AcDbEntity
  8
LC-001-100-D00-0
 62
     7
370
    50
100
AcDbLine
 10
-653.847199
 20
484.774843
 30
0.0
 11
-477.8472
 21
484.774843
 31
0.0
  0
LINE
  5
48B
330
1F
100
AcDbEntity
  8
LC-001-100-D00-0
 62
     7
370
    50
100
AcDbLine
 10
-477.8472
 20
484.774843
 30
0.0
 11
-477.8472
 21
486.174845
 31
0.0
  0
LINE
  5
48C
330
1F
100
AcDbEntity
  8
LC-001-100-D00-0
 62
     7
370
    50
100
AcDbLine
 10
-477.347202
 20
486.174844
 30
0.0
 11
-477.8472
 21
486.174845
 31
0.0
  0
ARC
  5
48D
330
1F
100
AcDbEntity
  8
LC-001-100-D00-0
 62
     7
370
    50
100
AcDbCircle
 10
-478.347202
 20
487.674844
 30
0.0
 40
1.802775637732121
100
AcDbArc
 50
303.690068
 51
56.309932
  0
LINE
  5
48E
330
1F
100
AcDbEntity
  8
LC-001-100-D00-0
 62
     7
370
    50
100
AcDbLine
 10
-477.347206
 20
503.774844
 30
0.0
 11
-477.347202
 21
489.174844
 31
0.0
  0
LINE
  5
48F
330
1F
100
AcDbEntity
  8
LC-001-100-D00-0
 62
     7
370
    50
100
AcDbLine
 10
-476.347189
 20
504.774844
 30
0.0
 11
-477.347206
 21
503.774844
 31
0.0
  0
LINE
  5
490
330
1F
100
AcDbEntity
  8
LC-001-100-D00-0
 62
     7
370
    50
100
AcDbLine
 10
-470.347207
 20
504.774844
 30
0.0
 11
-476.347189
 21
504.774844
 31
0.0
  0
LINE
  5
491
330
1F
100
AcDbEntity
  8
LC-001-100-D00-0
 62
     7
370
    50
100
AcDbLine
 10
-469.34719
 20
503.774844
 30
0.0
 11
-470.347207
 21
504.774844
 31
0.0
  0
LINE
  5
492
330
1F
100
AcDbEntity
  8
LC-001-100-D00-0
 62
     7
370
    50
100
AcDbLine
 10
-469.347202
 20
489.174844
 30
0.0
 11
-469.34719
 21
503.774844
 31
0.0
  0
ARC
  5
493
330
1F
100
AcDbEntity
  8
LC-001-100-D00-0
 62
     7
370
    50
100
AcDbCircle
 10
-468.347202
 20
487.674844
 30
0.0
 40
1.802775637732121
100
AcDbArc
 50
123.690068
 51
236.309932
  0
LINE
  5
494
330
1F
100
AcDbEntity
  8
LC-001-100-D00-0
 62
     7
370
    50
100
AcDbLine
 10
-468.847197
 20
486.174845
 30
0.0
 11
-469.347202
 21
486.174844
 31
0.0
  0
LINE
  5
495
330
1F
100
AcDbEntity
  8
LC-001-100-D00-0
 62
     7
370
    50
100
AcDbLine
 10
-468.847197
 20
486.174845
 30
0.0
 11
-468.847197
 21
484.774843
 31
0.0
  0
LINE
  5
496
330
1F
100
AcDbEntity
  8
LC-001-100-D00-0
 62
     7
370
    50
100
AcDbLine
 10
-468.847197
 20
484.774843
 30
0.0
 11
-292.847205
 21
484.774843
 31
0.0
  0
LINE
  5
497
330
1F
100
AcDbEntity
  8
LC-001-100-D00-0
 62
     7
370
    50
100
AcDbLine
 10
-292.847205
 20
484.774843
 30
0.0
 11
-292.847205
 21
486.174845
 31
0.0
  0
LINE
  5
498
330
1F
100
AcDbEntity
  8
LC-001-100-D00-0
 62
     7
370
    50
100
AcDbLine
 10
-292.347202
 20
486.174844
 30
0.0
 11
-292.847205
 21
486.174845
 31
0.0
  0
ARC
  5
499
330
1F
100
AcDbEntity
  8
LC-001-100-D00-0
 62
     7
370
    50
100
AcDbCircle
 10
-293.347202
 20
487.674844
 30
0.0
 40
1.802775637732121
100
AcDbArc
 50
303.690068
 51
56.309932
  0
LINE
  5
49A
330
1F
100
AcDbEntity
  8
LC-001-100-D00-0
 62
     7
370
    50
100
AcDbLine
 10
-292.347204
 20
503.774844
 30
0.0
 11
-292.347202
 21
489.174844
 31
0.0
  0
LINE
  5
49B
330
1F
100
AcDbEntity
  8
LC-001-100-D00-0
 62
     7
370
    50
100
AcDbLine
 10
-291.347202
 20
504.774844
 30
0.0
 11
-292.347204
 21
503.774844
 31
0.0
  0
LINE
  5
49C
330
1F
100
AcDbEntity
  8
LC-001-100-D00-0
 62
     7
370
    50
100
AcDbLine
 10
-285.347205
 20
504.774844
 30
0.0
 11
-291.347202
 21
504.774844
 31
0.0
  0
LINE
  5
49D
330
1F
100
AcDbEntity
  8
LC-001-100-D00-0
 62
     7
370
    50
100
AcDbLine
 10
-284.347203
 20
503.774844
 30
0.0
 11
-285.347205
 21
504.774844
 31
0.0
  0
LINE
  5
49E
330
1F
100
AcDbEntity
  8
LC-001-100-D00-0
 62
     7
370
    50
100
AcDbLine
 10
-284.347202
 20
489.174844
 30
0.0
 11
-284.347203
 21
503.774844
 31
0.0
  0
ARC
  5
49F
330
1F
100
AcDbEntity
  8
LC-001-100-D00-0
 62
     7
370
    50
100
AcDbCircle
 10
-283.347202
 20
487.674844
 30
0.0
 40
1.802775637732121
100
AcDbArc
 50
123.690068
 51
236.309932
  0
LINE
  5
4A0
330
1F
100
AcDbEntity
  8
LC-001-100-D00-0
 62
     7
370
    50
100
AcDbLine
 10
-283.847202
 20
486.174845
 30
0.0
 11
-284.347202
 21
486.174844
 31
0.0
  0
LINE
  5
4A1
330
1F
100
AcDbEntity
  8
LC-001-100-D00-0
 62
     7
370
    50
100
AcDbLine
 10
-283.847202
 20
486.174845
 30
0.0
 11
-283.847202
 21
484.774843
 31
0.0
  0
LINE
  5
4A2
330
1F
100
AcDbEntity
  8
LC-001-100-D00-0
 62
     7
370
    50
100
AcDbLine
 10
-283.847202
 20
484.774843
 30
0.0
 11
-282.336587
 21
484.774844
 31
0.0
  0
ARC
  5
4A3
330
1F
100
AcDbEntity
  8
LC-001-100-D00-0
 62
     7
370
    50
100
AcDbCircle
 10
-282.336587
 20
480.774844
 30
0.0
 40
4.000000000000092
100
AcDbArc
 50
75.0
 51
90.0
  0
LINE
  5
4A4
330
1F
100
AcDbEntity
  8
LC-001-100-D00-0
 62
     7
370
    50
100
AcDbLine
 10
-263.467639
 20
479.860029
 30
0.0
 11
-281.301311
 21
484.638547
 31
0.0
  0
ARC
  5
4A5
330
1F
100
AcDbEntity
  8
LC-001-100-D00-0
 62
     7
370
    50
100
AcDbCircle
 10
-262.820592
 20
482.274844
 30
0.0
 40
2.500000000000062
100
AcDbArc
 50
255.0
 51
270.0
  0
LINE
  5
4A6
330
1F
100
AcDbEntity
  8
LC-001-100-D00-0
 62
     7
370
    50
100
AcDbLine
 10
-257.42441
 20
479.774844
 30
0.0
 11
-262.820592
 21
479.774844
 31
0.0
  0
LINE
  5
4A7
330
1F
100
AcDbEntity
  8
LC-001-100-D00-0
 62
     7
370
    50
100
AcDbLine
 10
-257.42441
 20
479.674844
 30
0.0
 11
-257.42441
 21
479.774844
 31
0.0
  0
LINE
  5
4A8
330
1F
100
AcDbEntity
  8
LC-001-100-D00-0
 62
     7
370
    50
100
AcDbLine
 10
-256.900575
 20
479.674844
 30
0.0
 11
-257.42441
 21
479.674844
 31
0.0
  0
LINE
  5
4A9
330
1F
100
AcDbEntity
  8
LC-001-100-D00-0
 62
     7
370
    50
100
AcDbLine
 10
-256.900575
 20
479.774844
 30
0.0
 11
-256.900575
 21
479.674844
 31
0.0
  0
LINE
  5
4AA
330
1F
100
AcDbEntity
  8
LC-001-100-D00-0
 62
     7
370
    50
100
AcDbLine
 10
-256.20633
 20
479.774844
 30
0.0
 11
-256.900575
 21
479.774844
 31
0.0
  0
LINE
  5
4AB
330
1F
100
AcDbEntity
  8
LC-001-100-D00-0
 62
     7
370
    50
100
AcDbLine
 10
-256.20633
 20
479.674844
 30
0.0
 11
-256.20633
 21
479.774844
 31
0.0
  0
LINE
  5
4AC
330
1F
100
AcDbEntity
  8
LC-001-100-D00-0
 62
     7
370
    50
100
AcDbLine
 10
-255.68198
 20
479.674844
 30
0.0
 11
-256.20633
 21
479.674844
 31
0.0
  0
LINE
  5
4AD
330
1F
100
AcDbEntity
  8
LC-001-100-D00-0
 62
     7
370
    50
100
AcDbLine
 10
-255.68198
 20
479.774844
 30
0.0
 11
-255.68198
 21
479.674844
 31
0.0
  0
LINE
  5
4AE
330
1F
100
AcDbEntity
  8
LC-001-100-D00-0
 62
     7
370
    50
100
AcDbLine
 10
-246.147202
 20
479.774844
 30
0.0
 11
-255.68198
 21
479.774844
 31
0.0
  0
ARC
  5
4AF
330
1F
100
AcDbEntity
  8
LC-001-100-D00-0
 62
     7
370
    50
100
AcDbCircle
 10
-246.147202
 20
477.274844
 30
0.0
 40
2.5
100
AcDbArc
 50
0.0
 51
90.0
  0
LINE
  5
4B0
330
1F
100
AcDbEntity
  8
LC-001-100-D00-0
 62
     7
370
    50
100
AcDbLine
 10
-243.647202
 20
473.274844
 30
0.0
 11
-245.147202
 21
473.274842
 31
0.0
  0
ARC
  5
4B1
330
1F
100
AcDbEntity
  8
LC-001-100-D00-0
 62
     7
370
    50
100
AcDbCircle
 10
-246.147202
 20
477.274844
 30
0.0
 40
1.000000000000227
100
AcDbArc
 50
0.0
 51
90.0
  0
LINE
  5
4B2
330
1F
100
AcDbEntity
  8
LC-001-100-D00-0
 62
     7
370
    50
100
AcDbLine
 10
-246.147202
 20
478.274844
 30
0.0
 11
-262.820592
 21
478.274844
 31
0.0
  0
ARC
  5
4B3
330
1F
100
AcDbEntity
  8
LC-001-100-D00-0
 62
     7
370
    50
100
AcDbCircle
 10
-262.820592
 20
482.274844
 30
0.0
 40
3.999999999999653
100
AcDbArc
 50
255.0
 51
270.0
  0
LINE
  5
4B4
330
1F
100
AcDbEntity
  8
LC-001-100-D00-0
 62
     7
370
    50
100
AcDbLine
 10
-263.855868
 20
478.41114
 30
0.0
 11
-281.68954
 21
483.189658
 31
0.0
  0
ARC
  5
4B5
330
1F
100
AcDbEntity
  8
LC-001-100-D00-0
 62
     7
370
    50
100
AcDbCircle
 10
-282.336587
 20
480.774844
 30
0.0
 40
2.500000000000062
100
AcDbArc
 50
75.0
 51
90.0
  0
LINE
  5
4B6
330
1F
100
AcDbEntity
  8
LC-001-100-D00-0
 62
     7
370
    50
100
AcDbLine
 10
-680.347202
 20
483.274844
 30
0.0
 11
-282.336587
 21
483.274844
 31
0.0
  0
ARC
  5
4B7
330
1F
100
AcDbEntity
  8
LC-001-100-D00-0
 62
     7
370
    50
100
AcDbCircle
 10
-680.347202
 20
492.774844
 30
0.0
 40
9.500000000000227
100
AcDbArc
 50
180.0
 51
270.0
  0
LINE
  5
4B8
330
1F
100
AcDbEntity
  8
LC-001-100-D00-0
 62
     7
370
    50
100
AcDbLine
 10
-689.847202
 20
502.274844
 30
0.0
 11
-689.847202
 21
492.774844
 31
0.0
  0
ARC
  5
4B9
330
1F
100
AcDbEntity
  8
LC-001-100-D00-0
 62
     7
370
    50
100
AcDbCircle
 10
-691.347202
 20
502.274844
 30
0.0
 40
1.500000000000227
100
AcDbArc
 50
0.0
 51
90.0
  0
LINE
  5
4BA
330
1F
100
AcDbEntity
  8
LC-001-100-D00-0
 62
     7
370
    50
100
AcDbLine
 10
-738.347214
 20
505.274844
 30
0.0
 11
-738.347214
 21
503.774844
 31
0.0
  0
ARC
  5
4BB
330
1F
100
AcDbEntity
  8
LC-001-100-D00-0
 62
     7
370
    50
100
AcDbCircle
 10
-691.347202
 20
502.274844
 30
0.0
 40
3.0
100
AcDbArc
 50
0.0
 51
90.0
  0
LINE
  5
4BC
330
1F
100
AcDbEntity
  8
LC-001-100-D00-0
 62
     7
370
    50
100
AcDbLine
 10
-688.347202
 20
502.274844
 30
0.0
 11
-688.347202
 21
492.774844
 31
0.0
  0
ARC
  5
4BD
330
1F
100
AcDbEntity
  8
LC-001-100-D00-0
 62
     7
370
    50
100
AcDbCircle
 10
-680.347202
 20
492.774844
 30
0.0
 40
8.000000000000114
100
AcDbArc
 50
180.0
 51
270.0
  0
LINE
  5
4BE
330
1F
100
AcDbEntity
  8
LC-001-100-D00-0
 62
     7
370
    50
100
AcDbLine
 10
-680.347202
 20
484.774844
 30
0.0
 11
-662.847202
 21
484.774843
 31
0.0
  0
LINE
  5
4BF
330
1F
100
AcDbEntity
  8
LC-001-100-D00-0
 62
     7
370
    50
100
AcDbLine
 10
-662.847202
 20
484.774843
 30
0.0
 11
-662.847202
 21
486.174845
 31
0.0
  0
LINE
  5
4C0
330
1F
100
AcDbEntity
  8
LC-001-100-D00-0
 62
     7
370
    50
100
AcDbLine
 10
-662.347202
 20
486.174844
 30
0.0
 11
-662.847202
 21
486.174845
 31
0.0
  0
ARC
  5
4C1
330
1F
100
AcDbEntity
  8
LC-001-100-D00-0
 62
     7
370
    50
100
AcDbCircle
 10
-663.347202
 20
487.674844
 30
0.0
 40
1.802775637731679
100
AcDbArc
 50
303.690068
 51
56.309932
  0
LINE
  5
4C2
330
1F
100
AcDbEntity
  8
LC-001-100-D00-0
 62
     7
370
    50
100
AcDbLine
 10
-662.347209
 20
503.774844
 30
0.0
 11
-662.347202
 21
489.174844
 31
0.0
  0
LINE
  5
4C3
330
1F
100
AcDbEntity
  8
LC-001-100-D00-0
 62
     7
370
    50
100
AcDbLine
 10
-661.347192
 20
504.774844
 30
0.0
 11
-662.347209
 21
503.774844
 31
0.0
  0
LINE
  5
4C4
330
1F
100
AcDbEntity
  8
LC-001-100-D00-0
 62
     7
370
    50
100
AcDbLine
 10
-655.347209
 20
504.774844
 30
0.0
 11
-661.347192
 21
504.774844
 31
0.0
  0
LINE
  5
4C5
330
1F
100
AcDbEntity
  8
LC-001-100-D00-0
 62
     7
370
    50
100
AcDbLine
 10
-654.347193
 20
503.774844
 30
0.0
 11
-655.347209
 21
504.774844
 31
0.0
  0
LINE
  5
4C6
330
1F
100
AcDbEntity
  8
LC-001-100-D00-0
 62
     7
370
    50
100
AcDbLine
 10
-654.347202
 20
489.174844
 30
0.0
 11
-654.347193
 21
503.774844
 31
0.0
  0
ARC
  5
4C7
330
1F
100
AcDbEntity
  8
LC-001-100-D00-0
 62
     7
370
    50
100
AcDbCircle
 10
-653.347202
 20
487.674844
 30
0.0
 40
1.802775637731868
100
AcDbArc
 50
123.690068
 51
236.309932
  0
LINE
  5
4C8
330
1F
100
AcDbEntity
  8
LC-001-100-D00-0
 62
     7
370
    50
100
AcDbLine
 10
-691.347202
 20
505.274844
 30
0.0
 11
-738.347214
 21
505.274844
 31
0.0
  0
LINE
  5
4C9
330
1F
100
AcDbEntity
  8
LC-001-100-D00-0
 62
     7
370
    50
100
AcDbLine
 10
-691.347202
 20
503.774844
 30
0.0
 11
-738.347214
 21
503.774844
 31
0.0
  0
LINE
  5
4CA
330
1F
100
AcDbEntity
  8
LC-001-100-D00-0
 62
     7
370
    50
100
AcDbLine
 10
-232.741085
 20
479.774844
 30
0.0
 11
-246.147202
 21
479.774844
 31
0.0
  0
LINE
  5
4CB
330
1F
100
AcDbEntity
  8
LC-001-100-D00-0
 62
     7
370
    50
100
AcDbLine
 10
-256.20633
 20
479.774844
 30
0.0
 11
-255.68198
 21
479.774844
 31
0.0
  0
LINE
  5
4CC
330
1F
100
AcDbEntity
  8
LC-001-100-D00-0
 62
     7
370
    50
100
AcDbLine
 10
-257.42441
 20
479.774844
 30
0.0
 11
-256.900575
 21
479.774844
 31
0.0
  0
ELLIPSE
  5
4CD
330
1F
100
AcDbEntity
  8
LC-001-100-D00-0
 62
     7
370
    50
100
AcDbEllipse
 10
166.674615
 20
480.774844
 30
0.0
 11
0.0
 21
-2.500000185966485
 31
0.0
210
0.0
220
0.0
230
1.0
 40
0.027578
 41
0.0000000000070082
 42
0.3217505544030621
  0
ELLIPSE
  5
4CE
330
1F
100
AcDbEntity
  8
LC-001-100-D00-0
 62
     7
370
    50
100
AcDbEllipse
 10
-543.369019
 20
480.774844
 30
0.0
 11
0.0
 21
-2.5
 31
0.0
210
0.0
220
0.0
230
0.9999999999999999
 40
0.027578
 41
5.961434752782523
 42
6.283185307179586
  0
LINE
  5
4CF
330
1F
100
AcDbEntity
  8
LC-001-100-D00-0
 62
     7
370
    50
100
AcDbLine
 10
166.652787
 20
483.146191
 30
0.0
 11
166.652787
 21
478.480803
 31
0.0
  0
LINE
  5
4D0
330
1F
100
AcDbEntity
  8
LC-001-100-D00-0
 62
     7
370
    50
100
AcDbLine
 10
-543.347191
 20
483.146191
 30
0.0
 11
-543.347191
 21
478.480803
 31
0.0
  0
INSERT
  5
4DA
330
1F
100
AcDbEntity
  8
LC-001-100-D00-0
 62
     7
370
    50
100
AcDbBlockReference
  2
KLON18
 10
0.0
 20
0.0
 30
0.0
  0
INSERT
  5
4E4
330
1F
100
AcDbEntity
  8
LC-001-100-D00-0
 62
     7
370
    50
100
AcDbBlockReference
  2
KLON19
 10
0.0
 20
0.0
 30
0.0
  0
LINE
  5
4E5
330
1F
100
AcDbEntity
  8
LC-001-100-D00-0
 62
     7
370
    50
100
AcDbLine
 10
166.652787
 20
478.274843
 30
0.0
 11
166.652758
 21
478.48011
 31
0.0
  0
LINE
  5
4E6
330
1F
100
AcDbEntity
  8
LC-001-100-D00-0
 62
     7
370
    50
100
AcDbLine
 10
166.652787
 20
478.274843
 30
0.0
 11
294.560481
 21
482.943008
 31
0.0
  0
LINE
  5
4E7
330
1F
100
AcDbEntity
  8
LC-001-100-D00-0
 62
     7
370
    50
100
AcDbLine
 10
-543.347191
 20
478.274843
 30
0.0
 11
-543.347161
 21
478.48011
 31
0.0
  0
LINE
  5
4E8
330
1F
100
AcDbEntity
  8
LC-001-100-D00-0
 62
     7
370
    50
100
AcDbLine
 10
-543.347191
 20
478.274843
 30
0.0
 11
-671.254884
 21
482.943008
 31
0.0
  0
LINE
  5
4E9
330
1F
100
AcDbEntity
  8
LC-001-100-D00-0
 62
     7
370
    50
100
AcDbLine
 10
-146.561045
 20
471.274844
 30
0.0
 11
-144.168499
 21
471.274844
 31
0.0
  0
LINE
  5
4EA
330
1F
100
AcDbEntity
  8
LC-001-100-D00-0
 62
     7
370
    50
100
AcDbLine
 10
-143.197287
 20
469.774844
 30
0.0
 11
-143.1017
 21
469.782904
 31
0.0
  0
LINE
  5
4EB
330
1F
100
AcDbEntity
  8
LC-001-100-D00-0
 62
     7
370
    50
100
AcDbLine
 10
-143.197287
 20
469.774844
 30
0.0
 11
-146.561045
 21
469.774844
 31
0.0
  0
LINE
  5
4EC
330
1F
100
AcDbEntity
  8
LC-001-100-D00-0
 62
     7
370
    50
100
AcDbLine
 10
-233.592704
 20
469.782904
 30
0.0
 11
-233.497117
 21
469.774844
 31
0.0
  0
LINE
  5
4ED
330
1F
100
AcDbEntity
  8
LC-001-100-D00-0
 62
     7
370
    50
100
AcDbLine
 10
-232.525905
 20
471.274844
 30
0.0
 11
-230.133358
 21
471.274844
 31
0.0
  0
LINE
  5
4EE
330
1F
100
AcDbEntity
  8
LC-001-100-D00-0
 62
     7
370
    50
100
AcDbLine
 10
-230.133358
 20
469.774844
 30
0.0
 11
-233.497117
 21
469.774844
 31
0.0
  0
LINE
  5
4EF
330
1F
100
AcDbEntity
  8
LC-001-100-D00-0
 62
     7
370
    50
100
AcDbLine
 10
-146.561045
 20
469.774844
 30
0.0
 11
-147.337974
 21
469.774844
 31
0.0
  0
LINE
  5
4F0
330
1F
100
AcDbEntity
  8
LC-001-100-D00-0
 62
     7
370
    50
100
AcDbLine
 10
-146.561045
 20
471.274844
 30
0.0
 11
-147.337974
 21
471.274844
 31
0.0
  0
LINE
  5
4F1
330
1F
100
AcDbEntity
  8
LC-001-100-D00-0
 62
     7
370
    50
100
AcDbLine
 10
-230.133358
 20
471.274844
 30
0.0
 11
-229.35643
 21
471.274844
 31
0.0
  0
LINE
  5
4F2
330
1F
100
AcDbEntity
  8
LC-001-100-D00-0
 62
     7
370
    50
100
AcDbLine
 10
-230.133358
 20
469.774844
 30
0.0
 11
-229.35643
 21
469.774844
 31
0.0
  0
LINE
  5
4F3
330
1F
100
AcDbEntity
  8
LC-001-100-D00-0
 62
     7
370
    50
100
AcDbLine
 10
-113.873812
 20
478.274844
 30
0.0
 11
-111.773212
 21
478.274843
 31
0.0
  0
LINE
  5
4F4
330
1F
100
AcDbEntity
  8
LC-001-100-D00-0
 62
     7
370
    50
100
AcDbLine
 10
-262.820592
 20
478.274844
 30
0.0
 11
-264.921192
 21
478.274843
 31
0.0
  0
LINE
  5
4F5
330
1F
100
AcDbEntity
  8
LC-001-100-D00-0
 62
     7
370
    50
100
AcDbLine
 10
-147.337974
 20
469.774844
 30
0.0
 11
-148.632787
 21
469.774844
 31
0.0
  0
LINE
  5
4F6
330
1F
100
AcDbEntity
  8
LC-001-100-D00-0
 62
     7
370
    50
100
AcDbLine
 10
-148.616856
 20
471.274844
 30
0.0
 11
-147.337974
 21
471.274844
 31
0.0
  0
LINE
  5
4F7
330
1F
100
AcDbEntity
  8
LC-001-100-D00-0
 62
     7
370
    50
100
AcDbLine
 10
-229.35643
 20
471.274844
 30
0.0
 11
-228.077548
 21
471.274844
 31
0.0
  0
LINE
  5
4F8
330
1F
100
AcDbEntity
  8
LC-001-100-D00-0
 62
     7
370
    50
100
AcDbLine
 10
-228.061617
 20
469.774844
 30
0.0
 11
-229.35643
 21
469.774844
 31
0.0
  0
LINE
  5
4F9
330
1F
100
AcDbEntity
  8
LC-001-100-D00-0
 62
     7
370
    50
100
AcDbLine
 10
-111.773212
 20
478.274843
 30
0.0
 11
166.652787
 21
478.274843
 31
0.0
  0
LINE
  5
4FA
330
1F
100
AcDbEntity
  8
LC-001-100-D00-0
 62
     7
370
    50
100
AcDbLine
 10
-264.921192
 20
478.274843
 30
0.0
 11
-543.347191
 21
478.274843
 31
0.0
  0
ARC
  5
4FB
330
1F
100
AcDbEntity
  8
LC-001-100-D00-0
 62
     7
370
    50
100
AcDbCircle
 10
-143.831574
 20
471.208995
 30
0.0
 40
1.602014939990599
100
AcDbArc
 50
297.103406
 51
2.355668
  0
INSERT
  5
504
330
1F
100
AcDbEntity
  8
LC-001-100-D00-0
 62
     7
370
    50
100
AcDbBlockReference
  2
KLON20
 10
0.0
 20
0.0
 30
0.0
  0
INSERT
  5
511
330
1F
100
AcDbEntity
  8
LC-001-100-D00-0
 62
     7
370
    50
100
AcDbBlockReference
  2
KLON21
 10
0.0
 20
0.0
 30
0.0
  0
INSERT
  5
51E
330
1F
100
AcDbEntity
  8
LC-001-100-D00-0
 62
     7
370
    50
100
AcDbBlockReference
  2
KLON22
 10
0.0
 20
0.0
 30
0.0
  0
LINE
  5
51F
330
1F
100
AcDbEntity
  8
LC-001-100-D00-0
 62
     7
370
    50
100
AcDbLine
 10
309.152798
 20
505.274844
 30
0.0
 11
314.652798
 21
505.274844
 31
0.0
  0
LINE
  5
520
330
1F
100
AcDbEntity
  8
LC-001-100-D00-0
 62
     7
370
    50
100
AcDbLine
 10
-685.847202
 20
505.274844
 30
0.0
 11
-691.347202
 21
505.274844
 31
0.0
  0
LINE
  5
521
330
1F
100
AcDbEntity
  8
LC-001-100-D00-0
 62
     7
370
    50
100
AcDbLine
 10
309.152798
 20
505.274844
 30
0.0
 11
298.902798
 21
505.274844
 31
0.0
  0
LINE
  5
522
330
1F
100
AcDbEntity
  8
LC-001-100-D00-0
 62
     7
370
    50
100
AcDbLine
 10
264.402798
 20
505.274844
 30
0.0
 11
113.902798
 21
505.274844
 31
0.0
  0
LINE
  5
523
330
1F
100
AcDbEntity
  8
LC-001-100-D00-0
 62
     7
370
    50
100
AcDbLine
 10
79.402798
 20
505.274844
 30
0.0
 11
-71.097202
 21
505.274844
 31
0.0
  0
LINE
  5
524
330
1F
100
AcDbEntity
  8
LC-001-100-D00-0
 62
     7
370
    50
100
AcDbLine
 10
-105.597202
 20
505.274844
 30
0.0
 11
-271.097202
 21
505.274844
 31
0.0
  0
LINE
  5
525
330
1F
100
AcDbEntity
  8
LC-001-100-D00-0
 62
     7
370
    50
100
AcDbLine
 10
-305.597202
 20
505.274844
 30
0.0
 11
-456.097202
 21
505.274844
 31
0.0
  0
LINE
  5
526
330
1F
100
AcDbEntity
  8
LC-001-100-D00-0
 62
     7
370
    50
100
AcDbLine
 10
-490.597202
 20
505.274844
 30
0.0
 11
-641.097202
 21
505.274844
 31
0.0
  0
LINE
  5
527
330
1F
100
AcDbEntity
  8
LC-001-100-D00-0
 62
     7
370
    50
100
AcDbLine
 10
-675.597202
 20
505.274844
 30
0.0
 11
-685.847202
 21
505.274844
 31
0.0
  0
ARC
  5
528
330
1F
100
AcDbEntity
  8
LC-001-100-D00-0
 62
     7
370
    50
100
AcDbCircle
 10
148.752798
 20
478.674844
 30
0.0
 40
2.000000000000134
100
AcDbArc
 50
191.536959
 51
270.0
  0
LINE
  5
529
330
1F
100
AcDbEntity
  8
LC-001-100-D00-0
 62
     7
370
    50
100
AcDbLine
 10
148.752798
 20
476.674844
 30
0.0
 11
174.552798
 21
476.674844
 31
0.0
  0
ARC
  5
52A
330
1F
100
AcDbEntity
  8
LC-001-100-D00-0
 62
     7
370
    50
100
AcDbCircle
 10
174.552798
 20
478.674844
 30
0.0
 40
2.000000000000227
100
AcDbArc
 50
270.0
 51
0.0
  0
LINE
  5
52B
330
1F
100
AcDbEntity
  8
LC-001-100-D00-0
 62
     7
370
    50
100
AcDbLine
 10
178.552795
 20
478.70915
 30
0.0
 11
178.552798
 21
478.674844
 31
0.0
  0
ARC
  5
52C
330
1F
100
AcDbEntity
  8
LC-001-100-D00-0
 62
     7
370
    50
100
AcDbCircle
 10
174.552798
 20
478.674844
 30
0.0
 40
4.0
100
AcDbArc
 50
270.0
 51
0.0
  0
LINE
  5
52D
330
1F
100
AcDbEntity
  8
LC-001-100-D00-0
 62
     7
370
    50
100
AcDbLine
 10
174.552798
 20
474.674844
 30
0.0
 11
148.752798
 21
474.674844
 31
0.0
  0
ARC
  5
52E
330
1F
100
AcDbEntity
  8
LC-001-100-D00-0
 62
     7
370
    50
100
AcDbCircle
 10
148.752798
 20
478.674844
 30
0.0
 40
4.000000000000028
100
AcDbArc
 50
185.73917
 51
270.0
  0
ARC
  5
52F
330
1F
100
AcDbEntity
  8
LC-001-100-D00-0
 62
     7
370
    50
100
AcDbCircle
 10
-525.447202
 20
478.674844
 30
0.0
 40
4.0
100
AcDbArc
 50
270.0
 51
354.26083
  0
LINE
  5
530
330
1F
100
AcDbEntity
  8
LC-001-100-D00-0
 62
     7
370
    50
100
AcDbLine
 10
-551.247202
 20
474.674844
 30
0.0
 11
-525.447202
 21
474.674844
 31
0.0
  0
ARC
  5
531
330
1F
100
AcDbEntity
  8
LC-001-100-D00-0
 62
     7
370
    50
100
AcDbCircle
 10
-551.247202
 20
478.674844
 30
0.0
 40
4.0
100
AcDbArc
 50
180.0
 51
270.0
  0
LINE
  5
532
330
1F
100
AcDbEntity
  8
LC-001-100-D00-0
 62
     7
370
    50
100
AcDbLine
 10
-555.247199
 20
478.70915
 30
0.0
 11
-555.247202
 21
478.674844
 31
0.0
  0
ARC
  5
533
330
1F
100
AcDbEntity
  8
LC-001-100-D00-0
 62
     7
370
    50
100
AcDbCircle
 10
-551.247202
 20
478.674844
 30
0.0
 40
2.000000000000114
100
AcDbArc
 50
180.0
 51
270.0
  0
LINE
  5
534
330
1F
100
AcDbEntity
  8
LC-001-100-D00-0
 62
     7
370
    50
100
AcDbLine
 10
-525.447202
 20
476.674844
 30
0.0
 11
-551.247202
 21
476.674844
 31
0.0
  0
ARC
  5
535
330
1F
100
AcDbEntity
  8
LC-001-100-D00-0
 62
     7
370
    50
100
AcDbCircle
 10
-525.447202
 20
478.674844
 30
0.0
 40
2.000000000000227
100
AcDbArc
 50
270.0
 51
348.463041
  0
LINE
  5
536
330
1F
100
AcDbEntity
  8
LC-001-100-D00-0
 62
     7
370
    50
100
AcDbLine
 10
-536.511462
 20
378.774848
 30
0.0
 11
-547.189128
 21
378.774848
 31
0.0
  0
LINE
  5
537
330
1F
100
AcDbEntity
  8
LC-001-100-D00-0
 62
     7
370
    50
100
AcDbLine
 10
-536.511462
 20
378.774848
 30
0.0
 11
-529.479306
 21
378.774848
 31
0.0
  0
LINE
  5
538
330
1F
100
AcDbEntity
  8
LC-001-100-D00-0
 62
     7
370
    50
100
AcDbLine
 10
-547.647484
 20
370.774844
 30
0.0
 11
-547.847202
 21
370.774844
 31
0.0
  0
LINE
  5
539
330
1F
100
AcDbEntity
  8
LC-001-100-D00-0
 62
     7
370
    50
100
AcDbLine
 10
-528.847202
 20
370.774844
 30
0.0
 11
-547.647484
 21
370.774844
 31
0.0
  0
LINE
  5
53A
330
1F
100
AcDbEntity
  8
LC-001-100-D00-0
 62
     7
370
    50
100
AcDbLine
 10
163.488526
 20
378.774848
 30
0.0
 11
152.81086
 21
378.774848
 31
0.0
  0
LINE
  5
53B
330
1F
100
AcDbEntity
  8
LC-001-100-D00-0
 62
     7
370
    50
100
AcDbLine
 10
163.488526
 20
378.774848
 30
0.0
 11
170.520682
 21
378.774848
 31
0.0
  0
LINE
  5
53C
330
1F
100
AcDbEntity
  8
LC-001-100-D00-0
 62
     7
370
    50
100
AcDbLine
 10
152.352516
 20
370.774844
 30
0.0
 11
152.152798
 21
370.774844
 31
0.0
  0
LINE
  5
53D
330
1F
100
AcDbEntity
  8
LC-001-100-D00-0
 62
     7
370
    50
100
AcDbLine
 10
171.152798
 20
370.774844
 30
0.0
 11
152.352516
 21
370.774844
 31
0.0
  0
LINE
  5
53E
330
1F
100
AcDbEntity
  8
LC-001-100-D00-0
 62
     7
370
    50
100
AcDbLine
 10
-541.233953
 20
476.774844
 30
0.0
 11
-547.296131
 21
476.774844
 31
0.0
  0
LINE
  5
53F
330
1F
100
AcDbEntity
  8
LC-001-100-D00-0
 62
     7
370
    50
100
AcDbLine
 10
-535.46045
 20
476.774844
 30
0.0
 11
-541.233953
 21
476.774844
 31
0.0
  0
LINE
  5
540
330
1F
100
AcDbEntity
  8
LC-001-100-D00-0
 62
     7
370
    50
100
AcDbLine
 10
-529.398273
 20
476.774844
 30
0.0
 11
-535.46045
 21
476.774844
 31
0.0
  0
LINE
  5
541
330
1F
100
AcDbEntity
  8
LC-001-100-D00-0
 62
     7
370
    50
100
AcDbLine
 10
-526.511521
 20
476.774844
 30
0.0
 11
-529.398273
 21
476.774844
 31
0.0
  0
LINE
  5
542
330
1F
100
AcDbEntity
  8
LC-001-100-D00-0
 62
     7
370
    50
100
AcDbLine
 10
-547.296131
 20
476.774844
 30
0.0
 11
-550.182882
 21
476.774844
 31
0.0
  0
LINE
  5
543
330
1F
100
AcDbEntity
  8
LC-001-100-D00-0
 62
     7
370
    50
100
AcDbLine
 10
-525.573699
 20
476.774844
 30
0.0
 11
-526.511521
 21
476.774844
 31
0.0
  0
LINE
  5
544
330
1F
100
AcDbEntity
  8
LC-001-100-D00-0
 62
     7
370
    50
100
AcDbLine
 10
-550.182882
 20
476.774844
 30
0.0
 11
-551.120705
 21
476.774844
 31
0.0
  0
LINE
  5
545
330
1F
100
AcDbEntity
  8
LC-001-100-D00-0
 62
     7
370
    50
100
AcDbLine
 10
-541.233953
 20
447.774844
 30
0.0
 11
-547.296131
 21
447.774844
 31
0.0
  0
LINE
  5
546
330
1F
100
AcDbEntity
  8
LC-001-100-D00-0
 62
     7
370
    50
100
AcDbLine
 10
-529.347202
 20
472.774844
 30
0.0
 11
-535.460454
 21
472.774845
 31
0.0
  0
LINE
  5
547
330
1F
100
AcDbEntity
  8
LC-001-100-D00-0
 62
     7
370
    50
100
AcDbLine
 10
-541.233968
 20
472.774845
 30
0.0
 11
-547.347202
 21
472.774844
 31
0.0
  0
LINE
  5
548
330
1F
100
AcDbEntity
  8
LC-001-100-D00-0
 62
     7
370
    50
100
AcDbLine
 10
-535.46045
 20
447.774844
 30
0.0
 11
-541.233953
 21
447.774844
 31
0.0
  0
LINE
  5
549
330
1F
100
AcDbEntity
  8
LC-001-100-D00-0
 62
     7
370
    50
100
AcDbLine
 10
-524.558382
 20
474.774844
 30
0.0
 11
-523.347202
 21
474.774844
 31
0.0
  0
LINE
  5
54A
330
1F
100
AcDbEntity
  8
LC-001-100-D00-0
 62
     7
370
    50
100
AcDbLine
 10
-523.347202
 20
474.774844
 30
0.0
 11
-523.347202
 21
472.774844
 31
0.0
  0
LINE
  5
54B
330
1F
100
AcDbEntity
  8
LC-001-100-D00-0
 62
     7
370
    50
100
AcDbLine
 10
-523.347202
 20
472.774844
 30
0.0
 11
-529.347202
 21
472.774844
 31
0.0
  0
LINE
  5
54C
330
1F
100
AcDbEntity
  8
LC-001-100-D00-0
 62
     7
370
    50
100
AcDbLine
 10
-553.347202
 20
472.774844
 30
0.0
 11
-553.347202
 21
474.774844
 31
0.0
  0
LINE
  5
54D
330
1F
100
AcDbEntity
  8
LC-001-100-D00-0
 62
     7
370
    50
100
AcDbLine
 10
-553.347202
 20
474.774844
 30
0.0
 11
-552.136021
 21
474.774844
 31
0.0
  0
LINE
  5
54E
330
1F
100
AcDbEntity
  8
LC-001-100-D00-0
 62
     7
370
    50
100
AcDbLine
 10
-547.347202
 20
472.774844
 30
0.0
 11
-553.347202
 21
472.774844
 31
0.0
  0
LINE
  5
54F
330
1F
100
AcDbEntity
  8
LC-001-100-D00-0
 62
     7
370
    50
100
AcDbLine
 10
-529.398273
 20
447.774844
 30
0.0
 11
-535.46045
 21
447.774844
 31
0.0
  0
LINE
  5
550
330
1F
100
AcDbEntity
  8
LC-001-100-D00-0
 62
     7
370
    50
100
AcDbLine
 10
-526.511521
 20
447.774844
 30
0.0
 11
-529.398273
 21
447.774844
 31
0.0
  0
LINE
  5
551
330
1F
100
AcDbEntity
  8
LC-001-100-D00-0
 62
     7
370
    50
100
AcDbLine
 10
-547.296131
 20
447.774844
 30
0.0
 11
-550.182882
 21
447.774844
 31
0.0
  0
LINE
  5
552
330
1F
100
AcDbEntity
  8
LC-001-100-D00-0
 62
     7
370
    50
100
AcDbLine
 10
-525.573699
 20
447.774844
 30
0.0
 11
-526.511521
 21
447.774844
 31
0.0
  0
LINE
  5
553
330
1F
100
AcDbEntity
  8
LC-001-100-D00-0
 62
     7
370
    50
100
AcDbLine
 10
-550.182882
 20
447.774844
 30
0.0
 11
-551.120705
 21
447.774844
 31
0.0
  0
LINE
  5
554
330
1F
100
AcDbEntity
  8
LC-001-100-D00-0
 62
     7
370
    50
100
AcDbLine
 10
158.766047
 20
447.774844
 30
0.0
 11
152.703869
 21
447.774844
 31
0.0
  0
LINE
  5
555
330
1F
100
AcDbEntity
  8
LC-001-100-D00-0
 62
     7
370
    50
100
AcDbLine
 10
170.652798
 20
472.774844
 30
0.0
 11
164.539564
 21
472.774845
 31
0.0
  0
LINE
  5
556
330
1F
100
AcDbEntity
  8
LC-001-100-D00-0
 62
     7
370
    50
100
AcDbLine
 10
158.76605
 20
472.774845
 30
0.0
 11
152.652798
 21
472.774844
 31
0.0
  0
LINE
  5
557
330
1F
100
AcDbEntity
  8
LC-001-100-D00-0
 62
     7
370
    50
100
AcDbLine
 10
164.53955
 20
447.774844
 30
0.0
 11
158.766047
 21
447.774844
 31
0.0
  0
LINE
  5
558
330
1F
100
AcDbEntity
  8
LC-001-100-D00-0
 62
     7
370
    50
100
AcDbLine
 10
176.652798
 20
474.774844
 30
0.0
 11
176.652798
 21
472.774844
 31
0.0
  0
LINE
  5
559
330
1F
100
AcDbEntity
  8
LC-001-100-D00-0
 62
     7
370
    50
100
AcDbLine
 10
175.441618
 20
474.774844
 30
0.0
 11
176.652798
 21
474.774844
 31
0.0
  0
LINE
  5
55A
330
1F
100
AcDbEntity
  8
LC-001-100-D00-0
 62
     7
370
    50
100
AcDbLine
 10
176.652798
 20
472.774844
 30
0.0
 11
170.652798
 21
472.774844
 31
0.0
  0
LINE
  5
55B
330
1F
100
AcDbEntity
  8
LC-001-100-D00-0
 62
     7
370
    50
100
AcDbLine
 10
146.652798
 20
472.774844
 30
0.0
 11
146.652798
 21
474.774844
 31
0.0
  0
LINE
  5
55C
330
1F
100
AcDbEntity
  8
LC-001-100-D00-0
 62
     7
370
    50
100
AcDbLine
 10
146.652798
 20
474.774844
 30
0.0
 11
147.863979
 21
474.774844
 31
0.0
  0
LINE
  5
55D
330
1F
100
AcDbEntity
  8
LC-001-100-D00-0
 62
     7
370
    50
100
AcDbLine
 10
152.652798
 20
472.774844
 30
0.0
 11
146.652798
 21
472.774844
 31
0.0
  0
LINE
  5
55E
330
1F
100
AcDbEntity
  8
LC-001-100-D00-0
 62
     7
370
    50
100
AcDbLine
 10
170.601727
 20
447.774844
 30
0.0
 11
164.53955
 21
447.774844
 31
0.0
  0
LINE
  5
55F
330
1F
100
AcDbEntity
  8
LC-001-100-D00-0
 62
     7
370
    50
100
AcDbLine
 10
173.488479
 20
447.774844
 30
0.0
 11
170.601727
 21
447.774844
 31
0.0
  0
LINE
  5
560
330
1F
100
AcDbEntity
  8
LC-001-100-D00-0
 62
     7
370
    50
100
AcDbLine
 10
152.703869
 20
447.774844
 30
0.0
 11
149.817118
 21
447.774844
 31
0.0
  0
LINE
  5
561
330
1F
100
AcDbEntity
  8
LC-001-100-D00-0
 62
     7
370
    50
100
AcDbLine
 10
174.426301
 20
447.774844
 30
0.0
 11
173.488479
 21
447.774844
 31
0.0
  0
LINE
  5
562
330
1F
100
AcDbEntity
  8
LC-001-100-D00-0
 62
     7
370
    50
100
AcDbLine
 10
149.817118
 20
447.774844
 30
0.0
 11
148.879295
 21
447.774844
 31
0.0
  0
LINE
  5
563
330
1F
100
AcDbEntity
  8
LC-001-100-D00-0
 62
     7
370
    50
100
AcDbLine
 10
158.766047
 20
476.774844
 30
0.0
 11
152.703869
 21
476.774844
 31
0.0
  0
LINE
  5
564
330
1F
100
AcDbEntity
  8
LC-001-100-D00-0
 62
     7
370
    50
100
AcDbLine
 10
164.53955
 20
476.774844
 30
0.0
 11
158.766047
 21
476.774844
 31
0.0
  0
LINE
  5
565
330
1F
100
AcDbEntity
  8
LC-001-100-D00-0
 62
     7
370
    50
100
AcDbLine
 10
170.601727
 20
476.774844
 30
0.0
 11
164.53955
 21
476.774844
 31
0.0
  0
LINE
  5
566
330
1F
100
AcDbEntity
  8
LC-001-100-D00-0
 62
     7
370
    50
100
AcDbLine
 10
173.488479
 20
476.774844
 30
0.0
 11
170.601727
 21
476.774844
 31
0.0
  0
LINE
  5
567
330
1F
100
AcDbEntity
  8
LC-001-100-D00-0
 62
     7
370
    50
100
AcDbLine
 10
152.703869
 20
476.774844
 30
0.0
 11
149.817118
 21
476.774844
 31
0.0
  0
LINE
  5
568
330
1F
100
AcDbEntity
  8
LC-001-100-D00-0
 62
     7
370
    50
100
AcDbLine
 10
174.426301
 20
476.774844
 30
0.0
 11
173.488479
 21
476.774844
 31
0.0
  0
LINE
  5
569
330
1F
100
AcDbEntity
  8
LC-001-100-D00-0
 62
     7
370
    50
100
AcDbLine
 10
149.817118
 20
476.774844
 30
0.0
 11
148.879295
 21
476.774844
 31
0.0
  0
LINE
  5
56A
330
1F
100
AcDbEntity
  8
LC-001-100-D00-0
 62
     7
370
    50
100
AcDbLine
 10
-548.347202
 20
393.774844
 30
0.0
 11
-528.347202
 21
393.774844
 31
0.0
  0
LINE
  5
56B
330
1F
100
AcDbEntity
  8
LC-001-100-D00-0
 62
     7
370
    50
100
AcDbLine
 10
-548.136972
 20
379.774844
 30
0.0
 11
-528.347202
 21
379.774844
 31
0.0
  0
LINE
  5
56C
330
1F
100
AcDbEntity
  8
LC-001-100-D00-0
 62
     7
370
    50
100
AcDbLine
 10
-548.347202
 20
379.774844
 30
0.0
 11
-548.136972
 21
379.774844
 31
0.0
  0
LINE
  5
56D
330
1F
100
AcDbEntity
  8
LC-001-100-D00-0
 62
     7
370
    50
100
AcDbLine
 10
-548.347202
 20
390.274844
 30
0.0
 11
-528.347202
 21
390.274844
 31
0.0
  0
LINE
  5
56E
330
1F
100
AcDbEntity
  8
LC-001-100-D00-0
 62
     7
370
    50
100
AcDbLine
 10
-547.157995
 20
378.774844
 30
0.0
 11
-547.347202
 21
378.774844
 31
0.0
  0
LINE
  5
56F
330
1F
100
AcDbEntity
  8
LC-001-100-D00-0
 62
     7
370
    50
100
AcDbLine
 10
-529.347202
 20
378.774844
 30
0.0
 11
-547.157995
 21
378.774844
 31
0.0
  0
LINE
  5
570
330
1F
100
AcDbEntity
  8
LC-001-100-D00-0
 62
     7
370
    50
100
AcDbLine
 10
151.652798
 20
393.774844
 30
0.0
 11
171.652798
 21
393.774844
 31
0.0
  0
LINE
  5
571
330
1F
100
AcDbEntity
  8
LC-001-100-D00-0
 62
     7
370
    50
100
AcDbLine
 10
151.652798
 20
390.274844
 30
0.0
 11
171.652798
 21
390.274844
 31
0.0
  0
LINE
  5
572
330
1F
100
AcDbEntity
  8
LC-001-100-D00-0
 62
     7
370
    50
100
AcDbLine
 10
151.863028
 20
379.774844
 30
0.0
 11
171.652798
 21
379.774844
 31
0.0
  0
LINE
  5
573
330
1F
100
AcDbEntity
  8
LC-001-100-D00-0
 62
     7
370
    50
100
AcDbLine
 10
151.652798
 20
379.774844
 30
0.0
 11
151.863028
 21
379.774844
 31
0.0
  0
LINE
  5
574
330
1F
100
AcDbEntity
  8
LC-001-100-D00-0
 62
     7
370
    50
100
AcDbLine
 10
152.842005
 20
378.774844
 30
0.0
 11
152.652798
 21
378.774844
 31
0.0
  0
LINE
  5
575
330
1F
100
AcDbEntity
  8
LC-001-100-D00-0
 62
     7
370
    50
100
AcDbLine
 10
170.652798
 20
378.774844
 30
0.0
 11
152.842005
 21
378.774844
 31
0.0
  0
DIMENSION
  5
576
330
1F
100
AcDbEntity
  8
LC-001-100-D00-0
 62
     7
370
    25
100
AcDbDimension
  2
*D24
 10
-738.347202
 20
614.579886
 30
0.0
 11
-188.909722
 21
669.579886
 31
0.0
 70
   160
  1
1100
 71
     5
 42
1100.0
  3
LC-DIM-L-0100-02-02
100
AcDbAlignedDimension
 13
361.652798
 23
505.274844
 33
0.0
 14
-738.347202
 24
505.274844
 34
0.0
100
AcDbRotatedDimension
  0
DIMENSION
  5
583
330
1F
100
AcDbEntity
  8
LC-001-100-D00-0
 62
     7
370
    25
100
AcDbDimension
  2
*D25
 10
311.652798
 20
540.932732
 30
0.0
 11
-187.889031
 21
595.932732
 31
0.0
 70
   160
  1
1000
 71
     5
 42
1000.0
  3
LC-DIM-L-0100-02-02
100
AcDbAlignedDimension
 13
-688.347202
 23
502.274844
 33
0.0
 14
311.652798
 24
502.274844
 34
0.0
100
AcDbRotatedDimension
  0
DIMENSION
  5
590
330
1F
100
AcDbEntity
  8
LC-001-100-D00-0
 62
     7
370
    25
100
AcDbDimension
  2
*D26
 10
-347.84217
 20
463.774844
 30
0.0
 11
-402.84217
 21
436.565034
 31
0.0
 70
   160
  1
50
 71
     5
 42
50.4
 53
90.0
  3
LC-DIM-L-0100-02-02
100
AcDbAlignedDimension
 13
-217.347202
 23
413.374844
 33
0.0
 14
-227.840081
 24
463.774844
 34
0.0
 50
90.0
100
AcDbRotatedDimension
  0
DIMENSION
  5
59F
330
1F
100
AcDbEntity
  8
LC-001-100-D00-0
 62
     7
370
    25
100
AcDbDimension
  2
*D27
 10
-114.347202
 20
307.184886
 30
0.0
 11
-201.807316
 21
362.184886
 31
0.0
 70
   160
  1
148
 71
     5
 42
148.0
  3
LC-DIM-L-0100-02-02
100
AcDbAlignedDimension
 13
-262.347202
 23
414.274844
 33
0.0
 14
-114.347202
 24
454.524844
 34
0.0
100
AcDbRotatedDimension
  0
DIMENSION
  5
5AC
330
1F
100
AcDbEntity
  8
LC-001-100-D00-0
 62
     7
370
    25
100
AcDbDimension
  2
*D28
 10
21.152595
 20
226.994886
 30
0.0
 11
-139.898867
 21
281.994886
 31
0.0
 70
   160
  1
284
 71
     5
 42
283.499797
  3
LC-DIM-L-0100-02-02
100
AcDbAlignedDimension
 13
-262.347202
 23
414.274844
 33
0.0
 14
21.152595
 24
403.712666
 34
0.0
100
AcDbRotatedDimension
  0
DIMENSION
  5
5B9
330
1F
100
AcDbEntity
  8
LC-001-100-D00-0
 62
     7
370
    25
100
AcDbDimension
  2
*D29
 10
125.791557
 20
402.774844
 30
0.0
 11
70.791557
 21
376.979886
 31
0.0
 70
   160
  1
DN50
 71
     5
 42
50.0
 53
90.0
  3
LC-DIM-L-0100-02-02
100
AcDbAlignedDimension
 13
17.652595
 23
452.774844
 33
0.0
 14
17.652595
 24
402.774844
 34
0.0
 50
90.0
100
AcDbRotatedDimension
  0
DIMENSION
  5
5C7
330
1F
100
AcDbEntity
  8
LC-001-100-D00-0
 62
     7
370
    25
100
AcDbDimension
  2
*D30
 10
388.902462
 20
427.774844
 30
0.0
 11
333.902462
 21
293.819886
 31
0.0
 70
   160
  1
77,5
 71
     5
 42
77.5
 53
90.0
  3
LC-DIM-L-0100-02-02
100
AcDbAlignedDimension
 13
361.652798
 23
505.274844
 33
0.0
 14
27.652595
 24
427.774844
 34
0.0
 50
90.0
100
AcDbRotatedDimension
  0
DIMENSION
  5
5D5
330
1F
100
AcDbEntity
  8
LC-001-100-D00-0
 62
     7
370
    25
100
AcDbDimension
  2
*D31
 10
-752.303796
 20
395.274844
 30
0.0
 11
-807.303796
 21
431.924886
 31
0.0
 70
   160
  1
110
 71
     5
 42
110.0
 53
90.0
  3
LC-DIM-L-0100-02-02
100
AcDbAlignedDimension
 13
-738.347202
 23
505.274844
 33
0.0
 14
-242.365082
 24
395.274844
 34
0.0
 50
90.0
100
AcDbRotatedDimension
  0
DIMENSION
  5
5E4
330
1F
100
AcDbEntity
  8
LC-001-100-D00-0
 62
     7
370
    25
100
AcDbDimension
  2
*D32
 10
543.673583
 20
370.774844
 30
0.0
 11
488.673583
 21
359.159886
 31
0.0
 70
   160
  1
110-129,5
 71
     5
 42
134.5
 53
90.0
  3
LC-DIM-L-0100-02-02
100
AcDbAlignedDimension
 13
361.652798
 23
505.274844
 33
0.0
 14
171.152798
 24
370.774844
 34
0.0
 50
90.0
100
AcDbRotatedDimension
  0
INSERT
  5
600
330
1F
100
AcDbEntity
  8
LC-001-100-D00-0
 62
     7
370
    25
100
AcDbBlockReference
  2
KLON23
 10
0.0
 20
0.0
 30
0.0
  0
INSERT
  5
607
330
1F
100
AcDbEntity
  8
LC-001-100-D00-0
 62
     7
370
    25
100
AcDbBlockReference
  2
KLON24
 10
0.0
 20
0.0
 30
0.0
  0
INSERT
  5
60E
330
1F
100
AcDbEntity
  8
LC-001-100-D00-0
 62
     7
370
    25
100
AcDbBlockReference
  2
KLON25
 10
0.0
 20
0.0
 30
0.0
  0
INSERT
  5
62B
330
1F
100
AcDbEntity
  8
LC-001-100-D00-0
 62
     7
370
    25
100
AcDbBlockReference
  2
KLON26
 10
0.0
 20
0.0
 30
0.0
  0
INSERT
  5
648
330
1F
100
AcDbEntity
  8
LC-001-100-D00-0
 62
     7
370
    25
100
AcDbBlockReference
  2
KLON27
 10
0.0
 20
0.0
 30
0.0
  0
INSERT
  5
650
330
1F
100
AcDbEntity
  8
LC-001-100-D00-0
 62
     7
370
    25
100
AcDbBlockReference
  2
KLON28
 10
0.0
 20
0.0
 30
0.0
  0
INSERT
  5
659
330
1F
100
AcDbEntity
  8
LC-001-100-D00-0
 62
     7
370
    25
100
AcDbBlockReference
  2
KLON29
 10
0.0
 20
0.0
 30
0.0
  0
LINE
  5
65A
330
1F
100
AcDbEntity
  8
LC-001-100-D00-0
 62
     7
370
    25
100
AcDbLine
 10
-129.1082
 20
474.274844
 30
0.0
 11
-125.1082
 21
478.274844
 31
0.0
  0
LINE
  5
65B
330
1F
100
AcDbEntity
  8
LC-001-100-D00-0
 62
     7
370
    25
100
AcDbLine
 10
-117.347202
 20
463.585202
 30
0.0
 11
-114.347202
 21
466.585202
 31
0.0
  0
INSERT
  5
661
330
1F
100
AcDbEntity
  8
LC-001-100-D00-0
 62
     7
370
    25
100
AcDbBlockReference
  2
KLON30
 10
0.0
 20
0.0
 30
0.0
  0
INSERT
  5
670
330
1F
100
AcDbEntity
  8
LC-001-100-D00-0
 62
     7
370
    25
100
AcDbBlockReference
  2
KLON31
 10
0.0
 20
0.0
 30
0.0
  0
INSERT
  5
677
330
1F
100
AcDbEntity
  8
LC-001-100-D00-0
 62
     7
370
    25
100
AcDbBlockReference
  2
KLON32
 10
0.0
 20
0.0
 30
0.0
  0
LINE
  5
678
330
1F
100
AcDbEntity
  8
LC-001-100-D00-0
 62
     7
370
    50
100
AcDbLine
 10
-654.935375
 20
487.263017
 30
0.0
 11
-653.147202
 21
489.051191
 31
0.0
  0
LINE
  5
679
330
1F
100
AcDbEntity
  8
LC-001-100-D00-0
 62
     7
370
    25
100
AcDbLine
 10
-668.097202
 20
496.551831
 30
0.0
 11
-662.247202
 21
502.401831
 31
0.0
  0
INSERT
  5
67F
330
1F
100
AcDbEntity
  8
LC-001-100-D00-0
 62
     7
370
    25
100
AcDbBlockReference
  2
KLON33
 10
0.0
 20
0.0
 30
0.0
  0
LINE
  5
680
330
1F
100
AcDbEntity
  8
LC-001-100-D00-0
 62
     7
370
    50
100
AcDbLine
 10
-469.947202
 20
492.646075
 30
0.0
 11
-468.318433
 21
494.274844
 31
0.0
  0
LINE
  5
681
330
1F
100
AcDbEntity
  8
LC-001-100-D00-0
 62
     7
370
    25
100
AcDbLine
 10
-483.245327
 20
501.79859
 30
0.0
 11
-479.769074
 21
505.274844
 31
0.0
  0
INSERT
  5
687
330
1F
100
AcDbEntity
  8
LC-001-100-D00-0
 62
     7
370
    25
100
AcDbBlockReference
  2
KLON34
 10
0.0
 20
0.0
 30
0.0
  0
LINE
  5
688
330
1F
100
AcDbEntity
  8
LC-001-100-D00-0
 62
     7
370
    50
100
AcDbLine
 10
-94.657561
 20
486.274844
 30
0.0
 11
-91.747202
 21
489.185204
 31
0.0
  0
INSERT
  5
68E
330
1F
100
AcDbEntity
  8
LC-001-100-D00-0
 62
     7
370
    25
100
AcDbBlockReference
  2
KLON35
 10
0.0
 20
0.0
 30
0.0
  0
LINE
  5
68F
330
1F
100
AcDbEntity
  8
LC-001-100-D00-0
 62
     7
370
    25
100
AcDbLine
 10
-84.447202
 20
496.485204
 30
0.0
 11
-75.657563
 21
505.274844
 31
0.0
  0
LINE
  5
690
330
1F
100
AcDbEntity
  8
LC-001-100-D00-0
 62
     7
370
    50
100
AcDbLine
 10
287.00331
 20
486.274844
 30
0.0
 11
288.003651
 21
487.275185
 31
0.0
  0
LINE
  5
691
330
1F
100
AcDbEntity
  8
LC-001-100-D00-0
 62
     7
370
    25
100
AcDbLine
 10
271.902798
 20
493.624972
 30
0.0
 11
277.752798
 21
499.474973
 31
0.0
  0
INSERT
  5
697
330
1F
100
AcDbEntity
  8
LC-001-100-D00-0
 62
     7
370
    25
100
AcDbBlockReference
  2
KLON36
 10
0.0
 20
0.0
 30
0.0
  0
LINE
  5
698
330
1F
100
AcDbEntity
  8
LC-001-100-D00-0
 62
     7
370
    50
100
AcDbLine
 10
-293.547202
 20
489.440959
 30
0.0
 11
-291.747202
 21
491.240959
 31
0.0
  0
INSERT
  5
69F
330
1F
100
AcDbEntity
  8
LC-001-100-D00-0
 62
     7
370
    25
100
AcDbBlockReference
  2
KLON37
 10
0.0
 20
0.0
 30
0.0
  0
LINE
  5
6A0
330
1F
100
AcDbEntity
  8
LC-001-100-D00-0
 62
     7
370
    25
100
AcDbLine
 10
-284.447202
 20
498.54096
 30
0.0
 11
-277.713318
 21
505.274844
 31
0.0
  0
LINE
  5
6A1
330
1F
100
AcDbEntity
  8
LC-001-100-D00-0
 62
     7
370
    50
100
AcDbLine
 10
90.811121
 20
492.138411
 30
0.0
 11
92.600176
 21
493.927466
 31
0.0
  0
INSERT
  5
6A7
330
1F
100
AcDbEntity
  8
LC-001-100-D00-0
 62
     7
370
    25
100
AcDbBlockReference
  2
KLON38
 10
0.0
 20
0.0
 30
0.0
  0
LINE
  5
6A8
330
1F
100
AcDbEntity
  8
LC-001-100-D00-0
 62
     7
370
    25
100
AcDbLine
 10
100.552798
 20
501.880089
 30
0.0
 11
103.947553
 21
505.274844
 31
0.0
  0
LINE
  5
6A9
330
1F
100
AcDbEntity
  8
LC-001-100-D00-0
  6
DASHDOT
 62
     7
370
    25
100
AcDbLine
 10
161.652798
 20
383.774844
 30
0.0
 11
161.652798
 21
507.774844
 31
0.0
  0
LINE
  5
6AA
330
1F
100
AcDbEntity
  8
LC-001-100-D00-0
  6
DASHDOT
 62
     7
370
    25
100
AcDbLine
 10
27.652595
 20
427.774844
 30
0.0
 11
-75.372421
 21
427.774844
 31
0.0
  0
LINE
  5
6AB
330
1F
100
AcDbEntity
  8
LC-001-100-D00-0
  6
DASHDOT
 62
     7
370
    25
100
AcDbLine
 10
-538.347202
 20
383.774844
 30
0.0
 11
-538.347202
 21
507.774844
 31
0.0
  0
LINE
  5
6AC
330
1F
100
AcDbEntity
  8
LC-001-100-D00-0
  6
DASHDOT
 62
     7
370
    25
100
AcDbLine
 10
-658.347202
 20
477.274844
 30
0.0
 11
-658.347202
 21
511.274844
 31
0.0
  0
LINE
  5
6AD
330
1F
100
AcDbEntity
  8
LC-001-100-D00-0
  6
DASHDOT
 62
     7
370
    25
100
AcDbLine
 10
-473.347202
 20
477.274844
 30
0.0
 11
-473.347202
 21
511.274844
 31
0.0
  0
LINE
  5
6AE
330
1F
100
AcDbEntity
  8
LC-001-100-D00-0
  6
DASHDOT
 62
     7
370
    25
100
AcDbLine
 10
-288.347202
 20
477.274844
 30
0.0
 11
-288.347202
 21
511.274844
 31
0.0
  0
LINE
  5
6AF
330
1F
100
AcDbEntity
  8
LC-001-100-D00-0
  6
DASHDOT
 62
     7
370
    25
100
AcDbLine
 10
-188.347202
 20
505.274844
 30
0.0
 11
-188.347202
 21
392.774844
 31
0.0
  0
LINE
  5
6B0
330
1F
100
AcDbEntity
  8
LC-001-100-D00-0
  6
DASHDOT
 62
     7
370
    25
100
AcDbLine
 10
-88.347202
 20
477.274844
 30
0.0
 11
-88.347202
 21
511.274844
 31
0.0
  0
LINE
  5
6B1
330
1F
100
AcDbEntity
  8
LC-001-100-D00-0
  6
DASHDOT
 62
     7
370
    25
100
AcDbLine
 10
96.652798
 20
477.274844
 30
0.0
 11
96.652798
 21
511.274844
 31
0.0
  0
LINE
  5
6B2
330
1F
100
AcDbEntity
  8
LC-001-100-D00-0
  6
DASHDOT
 62
     7
370
    25
100
AcDbLine
 10
281.652798
 20
477.274844
 30
0.0
 11
281.652798
 21
511.274844
 31
0.0
  0
ENDSEC
  0
SECTION
  2
OBJECTS
  0
DICTIONARY
  5
C
330
0
100
AcDbDictionary
281
     1
  3
ACAD_GROUP
350
D
  3
ACAD_LAYOUT
350
1A
  3
ACAD_MLINESTYLE
350
17
  3
ACAD_PLOTSETTINGS
350
19
  3
ACAD_PLOTSTYLENAME
350
E
  0
DICTIONARY
  5
D
102
{ACAD_REACTORS
330
C
102
}
330
C
100
AcDbDictionary
281
     1
  0
DICTIONARY
  5
1A
102
{ACAD_REACTORS
330
C
102
}
330
C
100
AcDbDictionary
281
     1
  3
Layout1
350
1E
  3
Layout2
350
26
  3
Model
350
22
  0
DICTIONARY
  5
17
102
{ACAD_REACTORS
330
C
102
}
330
C
100
AcDbDictionary
281
     1
  3
Standard
350
18
  0
DICTIONARY
  5
19
102
{ACAD_REACTORS
330
C
102
}
330
C
100
AcDbDictionary
281
     1
  0
ACDBDICTIONARYWDFLT
  5
E
102
{ACAD_REACTORS
330
C
102
}
330
C
100
AcDbDictionary
281
     1
  3
Normal
350
F
100
AcDbDictionaryWithDefault
340
F
  0
LAYOUT
  5
1E
102
{ACAD_REACTORS
330
1A
102
}
330
1A
100
AcDbPlotSettings
  1

  2

  4

  6

 40
0.0
 41
0.0
 42
0.0
 43
0.0
 44
0.0
 45
0.0
 46
0.0
 47
0.0
 48
0.0
 49
0.0
140
0.0
141
0.0
142
1.0
143
1.0
 70
   688
 72
     0
 73
     0
 74
     5
  7

 75
    16
147
1.0
148
0.0
149
0.0
100
AcDbLayout
  1
Layout1
 70
     1
 71
     1
 10
-854.561439
 20
-613.515114
 11
1245.438561
 21
871.484886
 12
0.0
 22
0.0
 32
0.0
 14
-854.561439
 24
-613.515114
 34
0.0
 15
1245.438561
 25
871.484886
 35
0.0
146
0.0
 13
0.0
 23
0.0
 33
0.0
 16
1.0
 26
0.0
 36
0.0
 17
0.0
 27
1.0
 37
0.0
 76
     0
330
1B
  0
LAYOUT
  5
26
102
{ACAD_REACTORS
330
1A
102
}
330
1A
100
AcDbPlotSettings
  1

  2

  4

  6

 40
0.0
 41
0.0
 42
0.0
 43
0.0
 44
0.0
 45
0.0
 46
0.0
 47
0.0
 48
0.0
 49
0.0
140
0.0
141
0.0
142
1.0
143
1.0
 70
   688
 72
     0
 73
     0
 74
     5
  7

 75
    16
147
1.0
148
0.0
149
0.0
100
AcDbLayout
  1
Layout2
 70
     1
 71
     2
 10
0.0
 20
0.0
 11
0.0
 21
0.0
 12
0.0
 22
0.0
 32
0.0
 14
0.0
 24
0.0
 34
0.0
 15
0.0
 25
0.0
 35
0.0
146
0.0
 13
0.0
 23
0.0
 33
0.0
 16
1.0
 26
0.0
 36
0.0
 17
0.0
 27
1.0
 37
0.0
 76
     0
330
23
  0
LAYOUT
  5
22
102
{ACAD_REACTORS
330
1A
102
}
330
1A
100
AcDbPlotSettings
  1

  2

  4

  6

 40
0.0
 41
0.0
 42
0.0
 43
0.0
 44
0.0
 45
0.0
 46
0.0
 47
0.0
 48
0.0
 49
0.0
140
0.0
141
0.0
142
1.0
143
1.0
 70
  1776
 72
     0
 73
     0
 74
     0
  7

 75
     0
147
1.0
148
0.0
149
0.0
100
AcDbLayout
  1
Model
 70
     1
 71
     0
 10
-854.561439
 20
-613.515114
 11
1245.438561
 21
871.484886
 12
0.0
 22
0.0
 32
0.0
 14
-854.561439
 24
-613.515114
 34
0.0
 15
1245.438561
 25
871.484886
 35
0.0
146
0.0
 13
0.0
 23
0.0
 33
0.0
 16
1.0
 26
0.0
 36
0.0
 17
0.0
 27
1.0
 37
0.0
 76
     0
330
1F
  0
MLINESTYLE
  5
18
102
{ACAD_REACTORS
330
17
102
}
330
17
100
AcDbMlineStyle
  2
Standard
 70
     0
  3

 62
   256
 51
90.0
 52
90.0
 71
     2
 49
0.5
 62
   256
  6
BYLAYER
 49
-0.5
 62
   256
  6
BYLAYER
  0
ACDBPLACEHOLDER
  5
F
102
{ACAD_REACTORS
330
E
102
}
330
E
  0
ENDSEC
  0
EOF
