  0
SECTION
  2
HEADER
  9
$ACADVER
  1
AC1015
  9
$ACADMAINTVER
 70
     6
  9
$DWGCODEPAGE
  3
ANSI_1252
  9
$INSBASE
 10
0.0
 20
0.0
 30
0.0
  9
$EXTMIN
 10
-853.789913
 20
-619.237317
 30
0.0
  9
$EXTMAX
 10
1246.210087
 20
865.762683
 30
0.0
  9
$LIMMIN
 10
-853.789913
 20
-619.237317
  9
$LIMMAX
 10
1246.210087
 20
865.762683
  9
$ORTHOMODE
 70
     0
  9
$REGENMODE
 70
     1
  9
$FILLMODE
 70
     1
  9
$QTEXTMODE
 70
     0
  9
$MIRRTEXT
 70
     1
  9
$LTSCALE
 40
5.0
  9
$ATTMODE
 70
     1
  9
$TEXTSIZE
 40
2.5
  9
$TRACEWID
 40
1.0
  9
$TEXTSTYLE
  7
Standard
  9
$CLAYER
  8
0
  9
$CELTYPE
  6
ByLayer
  9
$CECOLOR
 62
     7
  9
$CELTSCALE
 40
1.0
  9
$DISPSILH
 70
     0
  9
$DIMSCALE
 40
5.0
  9
$DIMASZ
 40
3.5
  9
$DIMEXO
 40
0.625
  9
$DIMDLI
 40
3.75
  9
$DIMRND
 40
0.0
  9
$DIMDLE
 40
0.0
  9
$DIMEXE
 40
1.25
  9
$DIMTP
 40
0.0
  9
$DIMTM
 40
0.0
  9
$DIMTXT
 40
3.5
  9
$DIMCEN
 40
2.5
  9
$DIMTSZ
 40
0.0
  9
$DIMTOL
 70
     0
  9
$DIMLIM
 70
     0
  9
$DIMTIH
 70
     0
  9
$DIMTOH
 70
     0
  9
$DIMSE1
 70
     0
  9
$DIMSE2
 70
     0
  9
$DIMTAD
 70
     1
  9
$DIMZIN
 70
     8
  9
$DIMBLK
  1

  9
$DIMASO
 70
     1
  9
$DIMSHO
 70
     1
  9
$DIMPOST
  1

  9
$DIMAPOST
  1

  9
$DIMALT
 70
     0
  9
$DIMALTD
 70
     3
  9
$DIMALTF
 40
0.03937
  9
$DIMLFAC
 40
1.0
  9
$DIMTOFL
 70
     1
  9
$DIMTVP
 40
0.0
  9
$DIMTIX
 70
     0
  9
$DIMSOXD
 70
     0
  9
$DIMSAH
 70
     0
  9
$DIMBLK1
  1

  9
$DIMBLK2
  1

  9
$DIMSTYLE
  2
ISO-25
  9
$DIMCLRD
 70
     0
  9
$DIMCLRE
 70
     0
  9
$DIMCLRT
 70
     0
  9
$DIMTFAC
 40
1.0
  9
$DIMGAP
 40
0.625
  9
$DIMJUST
 70
     0
  9
$DIMSD1
 70
     0
  9
$DIMSD2
 70
     0
  9
$DIMTOLJ
 70
     0
  9
$DIMTZIN
 70
     8
  9
$DIMALTZ
 70
     0
  9
$DIMALTTZ
 70
     0
  9
$DIMUPT
 70
     0
  9
$DIMDEC
 70
     2
  9
$DIMTDEC
 70
     2
  9
$DIMALTU
 70
     2
  9
$DIMALTTD
 70
     3
  9
$DIMTXSTY
  7
Standard
  9
$DIMAUNIT
 70
     0
  9
$DIMADEC
 70
     0
  9
$DIMALTRND
 40
0.0
  9
$DIMAZIN
 70
     0
  9
$DIMDSEP
 70
    44
  9
$DIMATFIT
 70
     3
  9
$DIMFRAC
 70
     0
  9
$DIMLDRBLK
  1

  9
$DIMLUNIT
 70
     2
  9
$DIMLWD
 70
    -2
  9
$DIMLWE
 70
    -2
  9
$DIMTMOVE
 70
     0
  9
$LUNITS
 70
     2
  9
$LUPREC
 70
     4
  9
$SKETCHINC
 40
1.0
  9
$FILLETRAD
 40
10.0
  9
$AUNITS
 70
     0
  9
$AUPREC
 70
     0
  9
$MENU
  1
.
  9
$ELEVATION
 40
0.0
  9
$PELEVATION
 40
0.0
  9
$THICKNESS
 40
0.0
  9
$LIMCHECK
 70
     0
  9
$CHAMFERA
 40
10.0
  9
$CHAMFERB
 40
10.0
  9
$CHAMFERC
 40
20.0
  9
$CHAMFERD
 40
0.0
  9
$SKPOLY
 70
     0
  9
$TDCREATE
 40
2456014.410039884
  9
$TDUCREATE
 40
2456014.326706551
  9
$TDUPDATE
 40
2456014.410039896
  9
$TDUUPDATE
 40
2456014.326706563
  9
$TDINDWG
 40
0.0000000116
  9
$TDUSRTIMER
 40
0.0000000116
  9
$USRTIMER
 70
     1
  9
$ANGBASE
 50
0.0
  9
$ANGDIR
 70
     0
  9
$PDMODE
 70
     0
  9
$PDSIZE
 40
0.0
  9
$PLINEWID
 40
0.0
  9
$SPLFRAME
 70
     0
  9
$SPLINETYPE
 70
     6
  9
$SPLINESEGS
 70
     8
  9
$HANDSEED
  5
6C1
  9
$SURFTAB1
 70
     6
  9
$SURFTAB2
 70
     6
  9
$SURFTYPE
 70
     6
  9
$SURFU
 70
     6
  9
$SURFV
 70
     6
  9
$UCSBASE
  2

  9
$UCSNAME
  2

  9
$UCSORG
 10
0.0
 20
0.0
 30
0.0
  9
$UCSXDIR
 10
1.0
 20
0.0
 30
0.0
  9
$UCSYDIR
 10
0.0
 20
1.0
 30
0.0
  9
$UCSORTHOREF
  2

  9
$UCSORTHOVIEW
 70
     0
  9
$UCSORGTOP
 10
0.0
 20
0.0
 30
0.0
  9
$UCSORGBOTTOM
 10
0.0
 20
0.0
 30
0.0
  9
$UCSORGLEFT
 10
0.0
 20
0.0
 30
0.0
  9
$UCSORGRIGHT
 10
0.0
 20
0.0
 30
0.0
  9
$UCSORGFRONT
 10
0.0
 20
0.0
 30
0.0
  9
$UCSORGBACK
 10
0.0
 20
0.0
 30
0.0
  9
$PUCSBASE
  2

  9
$PUCSNAME
  2

  9
$PUCSORG
 10
0.0
 20
0.0
 30
0.0
  9
$PUCSXDIR
 10
1.0
 20
0.0
 30
0.0
  9
$PUCSYDIR
 10
0.0
 20
1.0
 30
0.0
  9
$PUCSORTHOREF
  2

  9
$PUCSORTHOVIEW
 70
     0
  9
$PUCSORGTOP
 10
0.0
 20
0.0
 30
0.0
  9
$PUCSORGBOTTOM
 10
0.0
 20
0.0
 30
0.0
  9
$PUCSORGLEFT
 10
0.0
 20
0.0
 30
0.0
  9
$PUCSORGRIGHT
 10
0.0
 20
0.0
 30
0.0
  9
$PUCSORGFRONT
 10
0.0
 20
0.0
 30
0.0
  9
$PUCSORGBACK
 10
0.0
 20
0.0
 30
0.0
  9
$USERI1
 70
     0
  9
$USERI2
 70
     0
  9
$USERI3
 70
     0
  9
$USERI4
 70
     0
  9
$USERI5
 70
     0
  9
$USERR1
 40
0.0
  9
$USERR2
 40
0.0
  9
$USERR3
 40
0.0
  9
$USERR4
 40
0.0
  9
$USERR5
 40
0.0
  9
$WORLDVIEW
 70
     1
  9
$SHADEDGE
 70
     3
  9
$SHADEDIF
 70
    70
  9
$TILEMODE
 70
     1
  9
$MAXACTVP
 70
    64
  9
$PINSBASE
 10
0.0
 20
0.0
 30
0.0
  9
$PLIMCHECK
 70
     0
  9
$PEXTMIN
 10
-853.789913
 20
-619.237317
 30
0.0
  9
$PEXTMAX
 10
1246.210087
 20
865.762683
 30
0.0
  9
$PLIMMIN
 10
-853.789913
 20
-619.237317
  9
$PLIMMAX
 10
1246.210087
 20
865.762683
  9
$UNITMODE
 70
     0
  9
$VISRETAIN
 70
     1
  9
$PLINEGEN
 70
     0
  9
$PSLTSCALE
 70
     1
  9
$TREEDEPTH
 70
  3020
  9
$CMLSTYLE
  2
Standard
  9
$CMLJUST
 70
     0
  9
$CMLSCALE
 40
20.0
  9
$PROXYGRAPHICS
 70
     1
  9
$MEASUREMENT
 70
     1
  9
$CELWEIGHT
370
    -1
  9
$ENDCAPS
280
     0
  9
$JOINSTYLE
280
     0
  9
$LWDISPLAY
290
     0
  9
$INSUNITS
 70
     4
  9
$HYPERLINKBASE
  1

  9
$STYLESHEET
  1

  9
$XEDIT
290
     1
  9
$CEPSNTYPE
380
     0
  9
$PSTYLEMODE
290
     1
  9
$FINGERPRINTGUID
  2
{FAEB1C30-E019-11D5-929B-00C0DF256EC4}
  9
$VERSIONGUID
  2
{FAEB1C32-E019-11D5-929B-00C0DF256EC4}
  9
$EXTNAMES
290
     1
  9
$PSVPSCALE
 40
0.0
  9
$OLESTARTUP
290
     0
  0
ENDSEC
  0
SECTION
  2
CLASSES
  0
CLASS
  1
ACDBDICTIONARYWDFLT
  2
AcDbDictionaryWithDefault
  3
ObjectDBX Classes
 90
        0
280
     0
281
     0
  0
CLASS
  1
ACDBPLACEHOLDER
  2
AcDbPlaceHolder
  3
ObjectDBX Classes
 90
        0
280
     0
281
     0
  0
CLASS
  1
LAYOUT
  2
AcDbLayout
  3
ObjectDBX Classes
 90
        0
280
     0
281
     0
  0
ENDSEC
  0
SECTION
  2
TABLES
  0
TABLE
  2
VPORT
  5
8
330
0
100
AcDbSymbolTable
 70
     2
  0
VPORT
  5
29
330
8
100
AcDbSymbolTableRecord
100
AcDbViewportTableRecord
  2
*ACTIVE
 70
     0
 10
0.0
 20
0.0
 11
1.0
 21
1.0
 12
196.210087
 22
123.262683
 13
0.0
 23
0.0
 14
1.0
 24
1.0
 15
0.0
 25
0.0
 16
0.0
 26
0.0
 36
1.0
 17
0.0
 27
0.0
 37
0.0
 40
1485.0
 41
1.414141
 42
50.0
 43
0.0
 44
0.0
 50
0.0
 51
0.0
 71
    16
 72
   100
 73
     1
 74
     0
 75
     0
 76
     0
 77
     0
 78
     0
281
     0
 65
     0
110
0.0
120
0.0
130
0.0
111
1.0
121
0.0
131
0.0
112
0.0
122
1.0
132
0.0
 79
     0
146
0.0
  0
ENDTAB
  0
TABLE
  2
LTYPE
  5
5
330
0
100
AcDbSymbolTable
 70
     3
  0
LTYPE
  5
14
330
5
100
AcDbSymbolTableRecord
100
AcDbLinetypeTableRecord
  2
ByBlock
 70
     0
  3

 72
    65
 73
     0
 40
0.0
  0
LTYPE
  5
15
330
5
100
AcDbSymbolTableRecord
100
AcDbLinetypeTableRecord
  2
ByLayer
 70
     0
  3

 72
    65
 73
     0
 40
0.0
  0
LTYPE
  5
16
330
5
100
AcDbSymbolTableRecord
100
AcDbLinetypeTableRecord
  2
Continuous
 70
     0
  3
Solid line
 72
    65
 73
     0
 40
0.0
  0
LTYPE
  5
2A
330
5
100
AcDbSymbolTableRecord
100
AcDbLinetypeTableRecord
  2
DASHED
 70
     0
  3
__ __ __ __ __
 72
    65
 73
     2
 40
6.25
 49
5.0
 74
     4
 75
     0
340
0
 46
1.0
 50
0.0
 44
0.0
 45
0.0
 49
-1.25
 74
     4
 75
     0
340
0
 46
1.0
 50
0.0
 44
0.0
 45
0.0
  0
LTYPE
  5
163
330
5
100
AcDbSymbolTableRecord
100
AcDbLinetypeTableRecord
  2
DASHDOT
 70
     0
  3
__ . __ . __ . __ . __
 72
    65
 73
     4
 40
7.5
 49
5.0
 74
     4
 75
     0
340
0
 46
1.0
 50
0.0
 44
0.0
 45
0.0
 49
-1.25
 74
     4
 75
     0
340
0
 46
1.0
 50
0.0
 44
0.0
 45
0.0
 49
0.0
 74
     4
 75
     0
340
0
 46
1.0
 50
0.0
 44
0.0
 45
0.0
 49
-1.25
 74
     4
 75
     0
340
0
 46
1.0
 50
0.0
 44
0.0
 45
0.0
  0
ENDTAB
  0
TABLE
  2
LAYER
  5
2
330
0
100
AcDbSymbolTable
 70
     7
  0
LAYER
  5
10
330
2
100
AcDbSymbolTableRecord
100
AcDbLayerTableRecord
  2
0
 70
     0
 62
     7
  6
Continuous
370
    -3
390
F
  0
LAYER
  5
2B
330
2
100
AcDbSymbolTableRecord
100
AcDbLayerTableRecord
  2
LC-INFO-1-5-mm-A3-0
 70
     1
 62
     7
  6
ByBlock
370
    -3
390
F
  0
LAYER
  5
2C
330
2
100
AcDbSymbolTableRecord
100
AcDbLayerTableRecord
  2
LC-CUT-HIDDEN
 70
     0
 62
     7
  6
DASHED
370
    -3
390
F
  0
LAYER
  5
2D
330
2
100
AcDbSymbolTableRecord
100
AcDbLayerTableRecord
  2
LC-VIEWPORT
 70
     0
 62
     7
  6
ByBlock
370
    -3
390
F
  0
LAYER
  5
2E
330
2
100
AcDbSymbolTableRecord
100
AcDbLayerTableRecord
  2
LC-3D-HIDDEN
 70
     0
 62
     9
  6
DASHED
370
    -3
390
F
  0
LAYER
  5
30
330
2
100
AcDbSymbolTableRecord
100
AcDbLayerTableRecord
  2
LC-001-100-D00-0
 70
     0
 62
     1
  6
ByBlock
370
    -3
390
F
  0
LAYER
  5
156
330
2
100
AcDbSymbolTableRecord
100
AcDbLayerTableRecord
  2
Defpoints
 70
     0
 62
     7
  6
Continuous
290
     0
370
    -3
390
F
  0
ENDTAB
  0
TABLE
  2
STYLE
  5
3
330
0
100
AcDbSymbolTable
 70
     3
  0
STYLE
  5
11
330
3
100
AcDbSymbolTableRecord
100
AcDbTextStyleTableRecord
  2
Standard
 70
     0
 40
0.0
 41
1.0
 50
0.0
 71
     0
 42
2.5
  3
txt
  4

  0
STYLE
  5
2F
330
3
100
AcDbSymbolTableRecord
100
AcDbTextStyleTableRecord
  2
LCTX15-400-0-0-Arial
 70
     0
 40
0.0
 41
0.8
 50
0.0
 71
     0
 42
3.5
  3

  4

1001
ACAD
1000
Arial
1071
 16777218
  0
STYLE
  5
153
330
3
100
AcDbSymbolTableRecord
100
AcDbTextStyleTableRecord
  2
LCTX15-400-0-0pDIN-Schrift
 70
     0
 40
2.5
 41
0.8
 50
15.0
 71
     0
 42
3.5
  3
STANDARD
  4

  0
ENDTAB
  0
TABLE
  2
VIEW
  5
6
330
0
100
AcDbSymbolTable
 70
     0
  0
ENDTAB
  0
TABLE
  2
UCS
  5
7
330
0
100
AcDbSymbolTable
 70
     0
  0
ENDTAB
  0
TABLE
  2
APPID
  5
9
330
0
100
AcDbSymbolTable
 70
     1
  0
APPID
  5
12
330
9
100
AcDbSymbolTableRecord
100
AcDbRegAppTableRecord
  2
ACAD
 70
     0
  0
ENDTAB
  0
TABLE
  2
DIMSTYLE
  5
A
330
0
100
AcDbSymbolTable
 70
     2
100
AcDbDimStyleTable
  0
DIMSTYLE
105
27
330
A
100
AcDbSymbolTableRecord
100
AcDbDimStyleTableRecord
  2
ISO-25
 70
     0
 41
2.5
 42
0.625
 43
3.75
 44
1.25
 73
     0
 74
     0
 77
     1
 78
     8
140
2.5
141
2.5
143
0.03937
147
0.625
171
     3
172
     1
271
     2
272
     2
274
     3
278
    44
283
     0
284
     8
340
11
  0
DIMSTYLE
105
154
102
{ACAD_REACTORS
330
155
330
57E
330
58B
330
598
330
5A6
330
5B3
330
5C0
330
5CF
330
5DD
330
5EC
102
}
330
A
100
AcDbSymbolTableRecord
100
AcDbDimStyleTableRecord
  2
LC-DIM-L-0100-02-02
 70
     0
 40
5.0
 41
10.0
 42
0.0
 43
7.5
 44
1.8
 73
     0
 74
     0
 77
     1
 78
     8
 79
     2
140
10.0
141
0.0
146
0.71
147
1.5
176
     2
177
     2
178
     2
179
     2
271
     2
278
    44
289
     1
340
153
  0
ENDTAB
  0
TABLE
  2
BLOCK_RECORD
  5
1
330
0
100
AcDbSymbolTable
 70
    51
  0
BLOCK_RECORD
  5
1F
330
1
100
AcDbSymbolTableRecord
100
AcDbBlockTableRecord
  2
*Model_Space
340
22
  0
BLOCK_RECORD
  5
1B
330
1
100
AcDbSymbolTableRecord
100
AcDbBlockTableRecord
  2
*Paper_Space
340
1E
  0
BLOCK_RECORD
  5
23
330
1
100
AcDbSymbolTableRecord
100
AcDbBlockTableRecord
  2
*Paper_Space0
340
26
  0
BLOCK_RECORD
  5
49
330
1
100
AcDbSymbolTableRecord
100
AcDbBlockTableRecord
  2
KLON1
340
0
102
{BLKREFS
331
50
102
}
  0
BLOCK_RECORD
  5
52
330
1
100
AcDbSymbolTableRecord
100
AcDbBlockTableRecord
  2
KLON2
340
0
102
{BLKREFS
331
57
102
}
  0
BLOCK_RECORD
  5
58
330
1
100
AcDbSymbolTableRecord
100
AcDbBlockTableRecord
  2
KLON3
340
0
102
{BLKREFS
331
5D
102
}
  0
BLOCK_RECORD
  5
5E
330
1
100
AcDbSymbolTableRecord
100
AcDbBlockTableRecord
  2
KLON4
340
0
102
{BLKREFS
331
63
102
}
  0
BLOCK_RECORD
  5
65
330
1
100
AcDbSymbolTableRecord
100
AcDbBlockTableRecord
  2
KLON5
340
0
102
{BLKREFS
331
6C
102
}
  0
BLOCK_RECORD
  5
6F
330
1
100
AcDbSymbolTableRecord
100
AcDbBlockTableRecord
  2
KLON6
340
0
102
{BLKREFS
331
74
102
}
  0
BLOCK_RECORD
  5
82
330
1
100
AcDbSymbolTableRecord
100
AcDbBlockTableRecord
  2
KLON7
340
0
102
{BLKREFS
331
87
102
}
  0
BLOCK_RECORD
  5
88
330
1
100
AcDbSymbolTableRecord
100
AcDbBlockTableRecord
  2
KLON8
340
0
102
{BLKREFS
331
8D
102
}
  0
BLOCK_RECORD
  5
8F
330
1
100
AcDbSymbolTableRecord
100
AcDbBlockTableRecord
  2
KLON9
340
0
102
{BLKREFS
331
95
102
}
  0
BLOCK_RECORD
  5
96
330
1
100
AcDbSymbolTableRecord
100
AcDbBlockTableRecord
  2
KLON10
340
0
102
{BLKREFS
331
9B
102
}
  0
BLOCK_RECORD
  5
9C
330
1
100
AcDbSymbolTableRecord
100
AcDbBlockTableRecord
  2
KLON11
340
0
102
{BLKREFS
331
A2
102
}
  0
BLOCK_RECORD
  5
A3
330
1
100
AcDbSymbolTableRecord
100
AcDbBlockTableRecord
  2
KLON12
340
0
102
{BLKREFS
331
A9
102
}
  0
BLOCK_RECORD
  5
AA
330
1
100
AcDbSymbolTableRecord
100
AcDbBlockTableRecord
  2
KLON13
340
0
102
{BLKREFS
331
B0
102
}
  0
BLOCK_RECORD
  5
B1
330
1
100
AcDbSymbolTableRecord
100
AcDbBlockTableRecord
  2
KLON14
340
0
102
{BLKREFS
331
B6
102
}
  0
BLOCK_RECORD
  5
157
330
1
100
AcDbSymbolTableRecord
100
AcDbBlockTableRecord
  2
*D15
340
0
  0
BLOCK_RECORD
  5
377
330
1
100
AcDbSymbolTableRecord
100
AcDbBlockTableRecord
  2
KLON15
340
0
102
{BLKREFS
331
387
102
}
  0
BLOCK_RECORD
  5
388
330
1
100
AcDbSymbolTableRecord
100
AcDbBlockTableRecord
  2
KLON16
340
0
102
{BLKREFS
331
39B
102
}
  0
BLOCK_RECORD
  5
39F
330
1
100
AcDbSymbolTableRecord
100
AcDbBlockTableRecord
  2
KLON17
340
0
102
{BLKREFS
331
3A4
102
}
  0
BLOCK_RECORD
  5
4D1
330
1
100
AcDbSymbolTableRecord
100
AcDbBlockTableRecord
  2
KLON18
340
0
102
{BLKREFS
331
4DA
102
}
  0
BLOCK_RECORD
  5
4DB
330
1
100
AcDbSymbolTableRecord
100
AcDbBlockTableRecord
  2
KLON19
340
0
102
{BLKREFS
331
4E4
102
}
  0
BLOCK_RECORD
  5
4FE
330
1
100
AcDbSymbolTableRecord
100
AcDbBlockTableRecord
  2
KLON20
340
0
102
{BLKREFS
331
506
102
}
  0
BLOCK_RECORD
  5
507
330
1
100
AcDbSymbolTableRecord
100
AcDbBlockTableRecord
  2
KLON21
340
0
102
{BLKREFS
331
513
102
}
  0
BLOCK_RECORD
  5
514
330
1
100
AcDbSymbolTableRecord
100
AcDbBlockTableRecord
  2
KLON22
340
0
102
{BLKREFS
331
520
102
}
  0
BLOCK_RECORD
  5
57F
330
1
100
AcDbSymbolTableRecord
100
AcDbBlockTableRecord
  2
*D24
340
0
  0
BLOCK_RECORD
  5
58C
330
1
100
AcDbSymbolTableRecord
100
AcDbBlockTableRecord
  2
*D25
340
0
  0
BLOCK_RECORD
  5
599
330
1
100
AcDbSymbolTableRecord
100
AcDbBlockTableRecord
  2
*D26
340
0
  0
BLOCK_RECORD
  5
5A7
330
1
100
AcDbSymbolTableRecord
100
AcDbBlockTableRecord
  2
*D27
340
0
  0
BLOCK_RECORD
  5
5B4
330
1
100
AcDbSymbolTableRecord
100
AcDbBlockTableRecord
  2
*D28
340
0
  0
BLOCK_RECORD
  5
5C1
330
1
100
AcDbSymbolTableRecord
100
AcDbBlockTableRecord
  2
*D29
340
0
  0
BLOCK_RECORD
  5
5D0
330
1
100
AcDbSymbolTableRecord
100
AcDbBlockTableRecord
  2
*D30
340
0
  0
BLOCK_RECORD
  5
5DE
330
1
100
AcDbSymbolTableRecord
100
AcDbBlockTableRecord
  2
*D31
340
0
  0
BLOCK_RECORD
  5
5ED
330
1
100
AcDbSymbolTableRecord
100
AcDbBlockTableRecord
  2
*D32
340
0
  0
BLOCK_RECORD
  5
5FB
330
1
100
AcDbSymbolTableRecord
100
AcDbBlockTableRecord
  2
KLON23
340
0
102
{BLKREFS
331
600
102
}
  0
BLOCK_RECORD
  5
601
330
1
100
AcDbSymbolTableRecord
100
AcDbBlockTableRecord
  2
KLON24
340
0
102
{BLKREFS
331
60F
102
}
  0
BLOCK_RECORD
  5
610
330
1
100
AcDbSymbolTableRecord
100
AcDbBlockTableRecord
  2
KLON25
340
0
102
{BLKREFS
331
616
102
}
  0
BLOCK_RECORD
  5
617
330
1
100
AcDbSymbolTableRecord
100
AcDbBlockTableRecord
  2
KLON26
340
0
102
{BLKREFS
331
630
102
}
  0
BLOCK_RECORD
  5
631
330
1
100
AcDbSymbolTableRecord
100
AcDbBlockTableRecord
  2
KLON27
340
0
102
{BLKREFS
331
64B
102
}
  0
BLOCK_RECORD
  5
64C
330
1
100
AcDbSymbolTableRecord
100
AcDbBlockTableRecord
  2
KLON28
340
0
102
{BLKREFS
331
652
102
}
  0
BLOCK_RECORD
  5
653
330
1
100
AcDbSymbolTableRecord
100
AcDbBlockTableRecord
  2
KLON29
340
0
102
{BLKREFS
331
65A
102
}
  0
BLOCK_RECORD
  5
65B
330
1
100
AcDbSymbolTableRecord
100
AcDbBlockTableRecord
  2
KLON30
340
0
102
{BLKREFS
331
662
102
}
  0
BLOCK_RECORD
  5
663
330
1
100
AcDbSymbolTableRecord
100
AcDbBlockTableRecord
  2
KLON31
340
0
102
{BLKREFS
331
66A
102
}
  0
BLOCK_RECORD
  5
66B
330
1
100
AcDbSymbolTableRecord
100
AcDbBlockTableRecord
  2
KLON32
340
0
102
{BLKREFS
331
679
102
}
  0
BLOCK_RECORD
  5
67C
330
1
100
AcDbSymbolTableRecord
100
AcDbBlockTableRecord
  2
KLON33
340
0
102
{BLKREFS
331
681
102
}
  0
BLOCK_RECORD
  5
683
330
1
100
AcDbSymbolTableRecord
100
AcDbBlockTableRecord
  2
KLON34
340
0
102
{BLKREFS
331
688
102
}
  0
BLOCK_RECORD
  5
689
330
1
100
AcDbSymbolTableRecord
100
AcDbBlockTableRecord
  2
KLON35
340
0
102
{BLKREFS
331
68E
102
}
  0
BLOCK_RECORD
  5
68F
330
1
100
AcDbSymbolTableRecord
100
AcDbBlockTableRecord
  2
KLON36
340
0
102
{BLKREFS
331
694
102
}
  0
BLOCK_RECORD
  5
695
330
1
100
AcDbSymbolTableRecord
100
AcDbBlockTableRecord
  2
KLON37
340
0
102
{BLKREFS
331
69C
102
}
  0
BLOCK_RECORD
  5
6A0
330
1
100
AcDbSymbolTableRecord
100
AcDbBlockTableRecord
  2
KLON38
340
0
102
{BLKREFS
331
6A5
102
}
  0
BLOCK_RECORD
  5
6A7
330
1
100
AcDbSymbolTableRecord
100
AcDbBlockTableRecord
  2
KLON39
340
0
102
{BLKREFS
331
6AD
102
}
  0
BLOCK_RECORD
  5
6B0
330
1
100
AcDbSymbolTableRecord
100
AcDbBlockTableRecord
  2
KLON40
340
0
102
{BLKREFS
331
6B5
102
}
  0
ENDTAB
  0
ENDSEC
  0
SECTION
  2
BLOCKS
  0
BLOCK
  5
20
330
1F
100
AcDbEntity
  8
0
100
AcDbBlockBegin
  2
*Model_Space
 70
     0
 71
     0
 10
0.0
 20
0.0
 30
0.0
  3
*Model_Space
  1

  0
ENDBLK
  5
21
330
1F
100
AcDbEntity
  8
0
100
AcDbBlockEnd
  0
BLOCK
  5
1C
330
1B
100
AcDbEntity
 67
     1
  8
0
100
AcDbBlockBegin
  2
*Paper_Space
 70
     0
 71
     0
 10
0.0
 20
0.0
 30
0.0
  3
*Paper_Space
  1

  0
ENDBLK
  5
1D
330
1B
100
AcDbEntity
 67
     1
  8
0
100
AcDbBlockEnd
  0
BLOCK
  5
24
330
23
100
AcDbEntity
  8
0
100
AcDbBlockBegin
  2
*Paper_Space0
 70
     0
 71
     0
 10
0.0
 20
0.0
 30
0.0
  3
*Paper_Space0
  1

  0
ENDBLK
  5
25
330
23
100
AcDbEntity
  8
0
100
AcDbBlockEnd
  0
BLOCK
  5
4A
330
49
100
AcDbEntity
  8
0
100
AcDbBlockBegin
  2
KLON1
 70
     0
 71
     0
 10
0.0
 20
0.0
 30
0.0
  3
KLON1
  1

  4
KLON1
  0
LINE
  5
4C
330
49
100
AcDbEntity
  8
LC-001-100-D00-0
 62
     7
370
    15
100
AcDbLine
 10
217.295722
 20
32.333633
 30
0.0
 11
217.308388
 21
32.252753
 31
0.0
  0
LINE
  5
4D
330
49
100
AcDbEntity
  8
LC-001-100-D00-0
 62
     7
370
    15
100
AcDbLine
 10
217.308388
 20
32.252753
 30
0.0
 11
217.31718
 21
32.196544
 31
0.0
  0
LINE
  5
4E
330
49
100
AcDbEntity
  8
LC-001-100-D00-0
 62
     7
370
    15
100
AcDbLine
 10
217.31718
 20
32.196544
 30
0.0
 11
217.319684
 21
32.180445
 31
0.0
  0
LINE
  5
4F
330
49
100
AcDbEntity
  8
LC-001-100-D00-0
 62
     7
370
    15
100
AcDbLine
 10
217.319684
 20
32.180445
 30
0.0
 11
217.321919
 21
32.166159
 31
0.0
  0
ENDBLK
  5
4B
330
49
100
AcDbEntity
  8
0
100
AcDbBlockEnd
  0
BLOCK
  5
53
330
52
100
AcDbEntity
  8
0
100
AcDbBlockBegin
  2
KLON2
 70
     0
 71
     0
 10
0.0
 20
0.0
 30
0.0
  3
KLON2
  1

  4
KLON2
  0
LINE
  5
55
330
52
100
AcDbEntity
  8
LC-001-100-D00-0
 62
     7
370
    15
100
AcDbLine
 10
217.295722
 20
43.496325
 30
0.0
 11
217.306302
 21
43.502235
 31
0.0
  0
LINE
  5
56
330
52
100
AcDbEntity
  8
LC-001-100-D00-0
 62
     7
370
    15
100
AcDbLine
 10
217.306302
 20
43.502235
 30
0.0
 11
217.321919
 21
43.510964
 31
0.0
  0
ENDBLK
  5
54
330
52
100
AcDbEntity
  8
0
100
AcDbBlockEnd
  0
BLOCK
  5
59
330
58
100
AcDbEntity
  8
0
100
AcDbBlockBegin
  2
KLON3
 70
     0
 71
     0
 10
0.0
 20
0.0
 30
0.0
  3
KLON3
  1

  4
KLON3
  0
LINE
  5
5B
330
58
100
AcDbEntity
  8
LC-001-100-D00-0
 62
     7
370
    15
100
AcDbLine
 10
217.295722
 20
-3.489035
 30
0.0
 11
217.303143
 21
-3.527208
 31
0.0
  0
LINE
  5
5C
330
58
100
AcDbEntity
  8
LC-001-100-D00-0
 62
     7
370
    15
100
AcDbLine
 10
217.303143
 20
-3.527208
 30
0.0
 11
217.321919
 21
-3.559692
 31
0.0
  0
ENDBLK
  5
5A
330
58
100
AcDbEntity
  8
0
100
AcDbBlockEnd
  0
BLOCK
  5
5F
330
5E
100
AcDbEntity
  8
0
100
AcDbBlockBegin
  2
KLON4
 70
     0
 71
     0
 10
0.0
 20
0.0
 30
0.0
  3
KLON4
  1

  4
KLON4
  0
LINE
  5
61
330
5E
100
AcDbEntity
  8
LC-001-100-D00-0
 62
     7
370
    15
100
AcDbLine
 10
-666.651888
 20
43.496325
 30
0.0
 11
-666.662468
 21
43.502235
 31
0.0
  0
LINE
  5
62
330
5E
100
AcDbEntity
  8
LC-001-100-D00-0
 62
     7
370
    15
100
AcDbLine
 10
-666.662468
 20
43.502235
 30
0.0
 11
-666.678085
 21
43.510964
 31
0.0
  0
ENDBLK
  5
60
330
5E
100
AcDbEntity
  8
0
100
AcDbBlockEnd
  0
BLOCK
  5
66
330
65
100
AcDbEntity
  8
0
100
AcDbBlockBegin
  2
KLON5
 70
     0
 71
     0
 10
0.0
 20
0.0
 30
0.0
  3
KLON5
  1

  4
KLON5
  0
LINE
  5
68
330
65
100
AcDbEntity
  8
LC-001-100-D00-0
 62
     7
370
    15
100
AcDbLine
 10
-666.651888
 20
32.333633
 30
0.0
 11
-666.664554
 21
32.252753
 31
0.0
  0
LINE
  5
69
330
65
100
AcDbEntity
  8
LC-001-100-D00-0
 62
     7
370
    15
100
AcDbLine
 10
-666.664554
 20
32.252753
 30
0.0
 11
-666.673346
 21
32.196544
 31
0.0
  0
LINE
  5
6A
330
65
100
AcDbEntity
  8
LC-001-100-D00-0
 62
     7
370
    15
100
AcDbLine
 10
-666.673346
 20
32.196544
 30
0.0
 11
-666.675849
 21
32.180445
 31
0.0
  0
LINE
  5
6B
330
65
100
AcDbEntity
  8
LC-001-100-D00-0
 62
     7
370
    15
100
AcDbLine
 10
-666.675849
 20
32.180445
 30
0.0
 11
-666.678085
 21
32.166159
 31
0.0
  0
ENDBLK
  5
67
330
65
100
AcDbEntity
  8
0
100
AcDbBlockEnd
  0
BLOCK
  5
70
330
6F
100
AcDbEntity
  8
0
100
AcDbBlockBegin
  2
KLON6
 70
     0
 71
     0
 10
0.0
 20
0.0
 30
0.0
  3
KLON6
  1

  4
KLON6
  0
LINE
  5
72
330
6F
100
AcDbEntity
  8
LC-001-100-D00-0
 62
     7
370
    15
100
AcDbLine
 10
-666.651888
 20
-3.489035
 30
0.0
 11
-666.659309
 21
-3.527208
 31
0.0
  0
LINE
  5
73
330
6F
100
AcDbEntity
  8
LC-001-100-D00-0
 62
     7
370
    15
100
AcDbLine
 10
-666.659309
 20
-3.527208
 30
0.0
 11
-666.678085
 21
-3.559692
 31
0.0
  0
ENDBLK
  5
71
330
6F
100
AcDbEntity
  8
0
100
AcDbBlockEnd
  0
BLOCK
  5
83
330
82
100
AcDbEntity
  8
0
100
AcDbBlockBegin
  2
KLON7
 70
     0
 71
     0
 10
0.0
 20
0.0
 30
0.0
  3
KLON7
  1

  4
KLON7
  0
LINE
  5
85
330
82
100
AcDbEntity
  8
LC-001-100-D00-0
 62
     7
370
    15
100
AcDbLine
 10
217.267202
 20
7.677556
 30
0.0
 11
217.283355
 21
7.68364
 31
0.0
  0
LINE
  5
86
330
82
100
AcDbEntity
  8
LC-001-100-D00-0
 62
     7
370
    15
100
AcDbLine
 10
217.283355
 20
7.68364
 30
0.0
 11
217.295722
 21
7.688296
 31
0.0
  0
ENDBLK
  5
84
330
82
100
AcDbEntity
  8
0
100
AcDbBlockEnd
  0
BLOCK
  5
89
330
88
100
AcDbEntity
  8
0
100
AcDbBlockBegin
  2
KLON8
 70
     0
 71
     0
 10
0.0
 20
0.0
 30
0.0
  3
KLON8
  1

  4
KLON8
  0
LINE
  5
8B
330
88
100
AcDbEntity
  8
LC-001-100-D00-0
 62
     7
370
    15
100
AcDbLine
 10
-666.623368
 20
7.677556
 30
0.0
 11
-666.63952
 21
7.68364
 31
0.0
  0
LINE
  5
8C
330
88
100
AcDbEntity
  8
LC-001-100-D00-0
 62
     7
370
    15
100
AcDbLine
 10
-666.63952
 20
7.68364
 30
0.0
 11
-666.651888
 21
7.688296
 31
0.0
  0
ENDBLK
  5
8A
330
88
100
AcDbEntity
  8
0
100
AcDbBlockEnd
  0
BLOCK
  5
90
330
8F
100
AcDbEntity
  8
0
100
AcDbBlockBegin
  2
KLON9
 70
     0
 71
     0
 10
0.0
 20
0.0
 30
0.0
  3
KLON9
  1

  4
KLON9
  0
LINE
  5
92
330
8F
100
AcDbEntity
  8
LC-001-100-D00-0
 62
     7
370
    15
100
AcDbLine
 10
80.308841
 20
14.151747
 30
0.0
 11
80.320255
 21
14.565222
 31
0.0
  0
LINE
  5
93
330
8F
100
AcDbEntity
  8
LC-001-100-D00-0
 62
     7
370
    15
100
AcDbLine
 10
80.320255
 20
14.565222
 30
0.0
 11
80.331938
 21
14.98848
 31
0.0
  0
LINE
  5
94
330
8F
100
AcDbEntity
  8
LC-001-100-D00-0
 62
     7
370
    15
100
AcDbLine
 10
80.331938
 20
14.98848
 30
0.0
 11
80.34374
 21
15.416659
 31
0.0
  0
ENDBLK
  5
91
330
8F
100
AcDbEntity
  8
0
100
AcDbBlockEnd
  0
BLOCK
  5
97
330
96
100
AcDbEntity
  8
0
100
AcDbBlockBegin
  2
KLON10
 70
     0
 71
     0
 10
0.0
 20
0.0
 30
0.0
  3
KLON10
  1

  4
KLON10
  0
LINE
  5
99
330
96
100
AcDbEntity
  8
LC-001-100-D00-0
 62
     7
370
    15
100
AcDbLine
 10
217.267202
 20
32.344373
 30
0.0
 11
217.283355
 21
32.338289
 31
0.0
  0
LINE
  5
9A
330
96
100
AcDbEntity
  8
LC-001-100-D00-0
 62
     7
370
    15
100
AcDbLine
 10
217.283355
 20
32.338289
 30
0.0
 11
217.295722
 21
32.333633
 31
0.0
  0
ENDBLK
  5
98
330
96
100
AcDbEntity
  8
0
100
AcDbBlockEnd
  0
BLOCK
  5
9D
330
9C
100
AcDbEntity
  8
0
100
AcDbBlockBegin
  2
KLON11
 70
     0
 71
     0
 10
0.0
 20
0.0
 30
0.0
  3
KLON11
  1

  4
KLON11
  0
LINE
  5
9F
330
9C
100
AcDbEntity
  8
LC-001-100-D00-0
 62
     7
370
    15
100
AcDbLine
 10
80.34374
 20
24.605271
 30
0.0
 11
80.331938
 21
25.033449
 31
0.0
  0
LINE
  5
A0
330
9C
100
AcDbEntity
  8
LC-001-100-D00-0
 62
     7
370
    15
100
AcDbLine
 10
80.331938
 20
25.033449
 30
0.0
 11
80.320255
 21
25.456707
 31
0.0
  0
LINE
  5
A1
330
9C
100
AcDbEntity
  8
LC-001-100-D00-0
 62
     7
370
    15
100
AcDbLine
 10
80.320255
 20
25.456707
 30
0.0
 11
80.308841
 21
25.870182
 31
0.0
  0
ENDBLK
  5
9E
330
9C
100
AcDbEntity
  8
0
100
AcDbBlockEnd
  0
BLOCK
  5
A4
330
A3
100
AcDbEntity
  8
0
100
AcDbBlockBegin
  2
KLON12
 70
     0
 71
     0
 10
0.0
 20
0.0
 30
0.0
  3
KLON12
  1

  4
KLON12
  0
LINE
  5
A6
330
A3
100
AcDbEntity
  8
LC-001-100-D00-0
 62
     7
370
    15
100
AcDbLine
 10
-529.665007
 20
14.151747
 30
0.0
 11
-529.676421
 21
14.565222
 31
0.0
  0
LINE
  5
A7
330
A3
100
AcDbEntity
  8
LC-001-100-D00-0
 62
     7
370
    15
100
AcDbLine
 10
-529.676421
 20
14.565222
 30
0.0
 11
-529.688104
 21
14.98848
 31
0.0
  0
LINE
  5
A8
330
A3
100
AcDbEntity
  8
LC-001-100-D00-0
 62
     7
370
    15
100
AcDbLine
 10
-529.688104
 20
14.98848
 30
0.0
 11
-529.699905
 21
15.416659
 31
0.0
  0
ENDBLK
  5
A5
330
A3
100
AcDbEntity
  8
0
100
AcDbBlockEnd
  0
BLOCK
  5
AB
330
AA
100
AcDbEntity
  8
0
100
AcDbBlockBegin
  2
KLON13
 70
     0
 71
     0
 10
0.0
 20
0.0
 30
0.0
  3
KLON13
  1

  4
KLON13
  0
LINE
  5
AD
330
AA
100
AcDbEntity
  8
LC-001-100-D00-0
 62
     7
370
    15
100
AcDbLine
 10
-529.699905
 20
24.605271
 30
0.0
 11
-529.688104
 21
25.033449
 31
0.0
  0
LINE
  5
AE
330
AA
100
AcDbEntity
  8
LC-001-100-D00-0
 62
     7
370
    15
100
AcDbLine
 10
-529.688104
 20
25.033449
 30
0.0
 11
-529.676421
 21
25.456707
 31
0.0
  0
LINE
  5
AF
330
AA
100
AcDbEntity
  8
LC-001-100-D00-0
 62
     7
370
    15
100
AcDbLine
 10
-529.676421
 20
25.456707
 30
0.0
 11
-529.665007
 21
25.870182
 31
0.0
  0
ENDBLK
  5
AC
330
AA
100
AcDbEntity
  8
0
100
AcDbBlockEnd
  0
BLOCK
  5
B2
330
B1
100
AcDbEntity
  8
0
100
AcDbBlockBegin
  2
KLON14
 70
     0
 71
     0
 10
0.0
 20
0.0
 30
0.0
  3
KLON14
  1

  4
KLON14
  0
LINE
  5
B4
330
B1
100
AcDbEntity
  8
LC-001-100-D00-0
 62
     7
370
    15
100
AcDbLine
 10
-666.623368
 20
32.344373
 30
0.0
 11
-666.63952
 21
32.338289
 31
0.0
  0
LINE
  5
B5
330
B1
100
AcDbEntity
  8
LC-001-100-D00-0
 62
     7
370
    15
100
AcDbLine
 10
-666.63952
 20
32.338289
 30
0.0
 11
-666.651888
 21
32.333633
 31
0.0
  0
ENDBLK
  5
B3
330
B1
100
AcDbEntity
  8
0
100
AcDbBlockEnd
  0
BLOCK
  5
161
330
157
100
AcDbEntity
  8
0
100
AcDbBlockBegin
  2
*D15
 70
     1
 71
     0
 10
0.0
 20
0.0
 30
0.0
  3
*D15
  1

  0
LINE
  5
158
330
157
100
AcDbEntity
  8
LC-001-100-D00-0
 62
     2
370
    -2
100
AcDbLine
 10
270.321917
 20
97.510965
 30
0.0
 11
370.299282
 21
97.510965
 31
0.0
  0
LINE
  5
159
330
157
100
AcDbEntity
  8
LC-001-100-D00-0
 62
     2
370
    -2
100
AcDbLine
 10
270.321917
 20
-57.489035
 30
0.0
 11
370.299282
 21
-57.489035
 31
0.0
  0
LINE
  5
15A
330
157
100
AcDbEntity
  8
LC-001-100-D00-0
 62
     2
370
    -2
100
AcDbLine
 10
361.299282
 20
47.510965
 30
0.0
 11
361.299282
 21
-7.489035
 31
0.0
  0
SOLID
  5
15B
330
157
100
AcDbEntity
  8
LC-001-100-D00-0
 62
     2
100
AcDbTrace
 10
369.632616
 20
47.510965
 30
0.0
 11
352.965949
 21
47.510965
 31
0.0
 12
361.299282
 22
97.510965
 32
0.0
 13
361.299282
 23
97.510965
 33
0.0
  0
SOLID
  5
15C
330
157
100
AcDbEntity
  8
LC-001-100-D00-0
 62
     2
100
AcDbTrace
 10
352.965949
 20
-7.489035
 30
0.0
 11
369.632616
 21
-7.489035
 31
0.0
 12
361.299282
 22
-57.489035
 32
0.0
 13
361.299282
 23
-57.489035
 33
0.0
  0
MTEXT
  5
15D
330
157
100
AcDbEntity
  8
LC-001-100-D00-0
 62
     2
100
AcDbMText
 10
306.299282
 20
0.007683
 30
0.0
 40
50.0
 41
0.0
 71
     5
 72
     1
  1
\A1;155
  7
LCTX15-400-0-0pDIN-Schrift
 11
6.123031769111886E-17
 21
1.0
 31
0.0
 73
     1
 44
1.0
  0
POINT
  5
15E
330
157
100
AcDbEntity
  8
Defpoints
 62
     0
100
AcDbPoint
 10
270.321917
 20
97.510965
 30
0.0
  0
POINT
  5
15F
330
157
100
AcDbEntity
  8
Defpoints
 62
     0
100
AcDbPoint
 10
270.321917
 20
-57.489035
 30
0.0
  0
POINT
  5
160
330
157
100
AcDbEntity
  8
Defpoints
 62
     0
100
AcDbPoint
 10
361.299282
 20
-57.489035
 30
0.0
  0
ENDBLK
  5
162
330
157
100
AcDbEntity
  8
0
100
AcDbBlockEnd
  0
BLOCK
  5
378
330
377
100
AcDbEntity
  8
0
100
AcDbBlockBegin
  2
KLON15
 70
     0
 71
     0
 10
0.0
 20
0.0
 30
0.0
  3
KLON15
  1

  4
KLON15
  0
LINE
  5
37A
330
377
100
AcDbEntity
  8
LC-001-100-D00-0
 62
     7
370
    15
100
AcDbLine
 10
-150.678082
 20
366.863126
 30
0.0
 11
-150.680809
 21
366.863163
 31
0.0
  0
LINE
  5
37B
330
377
100
AcDbEntity
  8
LC-001-100-D00-0
 62
     7
370
    15
100
AcDbLine
 10
-150.680809
 20
366.863163
 30
0.0
 11
-150.685391
 21
366.863357
 31
0.0
  0
LINE
  5
37C
330
377
100
AcDbEntity
  8
LC-001-100-D00-0
 62
     7
370
    15
100
AcDbLine
 10
-150.685391
 20
366.863357
 30
0.0
 11
-150.694265
 21
366.864191
 31
0.0
  0
LINE
  5
37D
330
377
100
AcDbEntity
  8
LC-001-100-D00-0
 62
     7
370
    15
100
AcDbLine
 10
-150.694265
 20
366.864191
 30
0.0
 11
-150.696545
 21
366.864497
 31
0.0
  0
LINE
  5
37E
330
377
100
AcDbEntity
  8
LC-001-100-D00-0
 62
     7
370
    15
100
AcDbLine
 10
-150.696545
 20
366.864497
 30
0.0
 11
-150.697118
 21
366.864579
 31
0.0
  0
LINE
  5
37F
330
377
100
AcDbEntity
  8
LC-001-100-D00-0
 62
     7
370
    15
100
AcDbLine
 10
-150.697118
 20
366.864579
 30
0.0
 11
-150.69726
 21
366.864601
 31
0.0
  0
LINE
  5
380
330
377
100
AcDbEntity
  8
LC-001-100-D00-0
 62
     7
370
    15
100
AcDbLine
 10
-150.69726
 20
366.864601
 30
0.0
 11
-150.816439
 21
366.913872
 31
0.0
  0
LINE
  5
381
330
377
100
AcDbEntity
  8
LC-001-100-D00-0
 62
     7
370
    15
100
AcDbLine
 10
-150.816439
 20
366.913872
 30
0.0
 11
-151.657044
 21
367.726767
 31
0.0
  0
LINE
  5
382
330
377
100
AcDbEntity
  8
LC-001-100-D00-0
 62
     7
370
    15
100
AcDbLine
 10
-151.657044
 20
367.726767
 30
0.0
 11
-152.745722
 21
369.052091
 31
0.0
  0
LINE
  5
383
330
377
100
AcDbEntity
  8
LC-001-100-D00-0
 62
     7
370
    15
100
AcDbLine
 10
-152.745722
 20
369.052091
 30
0.0
 11
-154.171585
 21
370.955253
 31
0.0
  0
LINE
  5
384
330
377
100
AcDbEntity
  8
LC-001-100-D00-0
 62
     7
370
    15
100
AcDbLine
 10
-154.171585
 20
370.955253
 30
0.0
 11
-156.223929
 21
373.920912
 31
0.0
  0
LINE
  5
385
330
377
100
AcDbEntity
  8
LC-001-100-D00-0
 62
     7
370
    15
100
AcDbLine
 10
-156.223929
 20
373.920912
 30
0.0
 11
-158.5946
 21
377.562242
 31
0.0
  0
LINE
  5
386
330
377
100
AcDbEntity
  8
LC-001-100-D00-0
 62
     7
370
    15
100
AcDbLine
 10
-158.5946
 20
377.562242
 30
0.0
 11
-158.702789
 21
377.72862
 31
0.0
  0
ENDBLK
  5
379
330
377
100
AcDbEntity
  8
0
100
AcDbBlockEnd
  0
BLOCK
  5
389
330
388
100
AcDbEntity
  8
0
100
AcDbBlockBegin
  2
KLON16
 70
     0
 71
     0
 10
0.0
 20
0.0
 30
0.0
  3
KLON16
  1

  4
KLON16
  0
LINE
  5
38B
330
388
100
AcDbEntity
  8
LC-001-100-D00-0
 62
     7
370
    15
100
AcDbLine
 10
-158.702789
 20
377.72862
 30
0.0
 11
-159.444398
 21
380.107174
 31
0.0
  0
LINE
  5
38C
330
388
100
AcDbEntity
  8
LC-001-100-D00-0
 62
     7
370
    15
100
AcDbLine
 10
-159.444398
 20
380.107174
 30
0.0
 11
-160.079135
 21
382.6876
 31
0.0
  0
LINE
  5
38D
330
388
100
AcDbEntity
  8
LC-001-100-D00-0
 62
     7
370
    15
100
AcDbLine
 10
-160.079135
 20
382.6876
 30
0.0
 11
-160.598344
 21
385.81978
 31
0.0
  0
LINE
  5
38E
330
388
100
AcDbEntity
  8
LC-001-100-D00-0
 62
     7
370
    15
100
AcDbLine
 10
-160.598344
 20
385.81978
 30
0.0
 11
-160.835183
 21
389.156656
 31
0.0
  0
LINE
  5
38F
330
388
100
AcDbEntity
  8
LC-001-100-D00-0
 62
     7
370
    15
100
AcDbLine
 10
-160.835183
 20
389.156656
 30
0.0
 11
-160.744263
 21
392.426425
 31
0.0
  0
LINE
  5
390
330
388
100
AcDbEntity
  8
LC-001-100-D00-0
 62
     7
370
    15
100
AcDbLine
 10
-160.744263
 20
392.426425
 30
0.0
 11
-160.332447
 21
395.717801
 31
0.0
  0
LINE
  5
391
330
388
100
AcDbEntity
  8
LC-001-100-D00-0
 62
     7
370
    15
100
AcDbLine
 10
-160.332447
 20
395.717801
 30
0.0
 11
-159.688553
 21
398.710588
 31
0.0
  0
LINE
  5
392
330
388
100
AcDbEntity
  8
LC-001-100-D00-0
 62
     7
370
    15
100
AcDbLine
 10
-159.688553
 20
398.710588
 30
0.0
 11
-158.849923
 21
401.560517
 31
0.0
  0
LINE
  5
393
330
388
100
AcDbEntity
  8
LC-001-100-D00-0
 62
     7
370
    15
100
AcDbLine
 10
-158.849923
 20
401.560517
 30
0.0
 11
-157.782263
 21
404.471541
 31
0.0
  0
LINE
  5
394
330
388
100
AcDbEntity
  8
LC-001-100-D00-0
 62
     7
370
    15
100
AcDbLine
 10
-157.782263
 20
404.471541
 30
0.0
 11
-156.658387
 21
407.081647
 31
0.0
  0
LINE
  5
395
330
388
100
AcDbEntity
  8
LC-001-100-D00-0
 62
     7
370
    15
100
AcDbLine
 10
-156.658387
 20
407.081647
 30
0.0
 11
-155.50997
 21
409.458356
 31
0.0
  0
LINE
  5
396
330
388
100
AcDbEntity
  8
LC-001-100-D00-0
 62
     7
370
    15
100
AcDbLine
 10
-155.50997
 20
409.458356
 30
0.0
 11
-154.538153
 21
411.31247
 31
0.0
  0
LINE
  5
397
330
388
100
AcDbEntity
  8
LC-001-100-D00-0
 62
     7
370
    15
100
AcDbLine
 10
-154.538153
 20
411.31247
 30
0.0
 11
-153.995915
 21
412.298741
 31
0.0
  0
LINE
  5
398
330
388
100
AcDbEntity
  8
LC-001-100-D00-0
 62
     7
370
    15
100
AcDbLine
 10
-153.995915
 20
412.298741
 30
0.0
 11
-153.709217
 21
412.808267
 31
0.0
  0
LINE
  5
399
330
388
100
AcDbEntity
  8
LC-001-100-D00-0
 62
     7
370
    15
100
AcDbLine
 10
-153.709217
 20
412.808267
 30
0.0
 11
-153.678356
 21
412.862645
 31
0.0
  0
LINE
  5
39A
330
388
100
AcDbEntity
  8
LC-001-100-D00-0
 62
     7
370
    15
100
AcDbLine
 10
-153.678356
 20
412.862645
 30
0.0
 11
-153.678081
 21
412.86313
 31
0.0
  0
ENDBLK
  5
38A
330
388
100
AcDbEntity
  8
0
100
AcDbBlockEnd
  0
BLOCK
  5
3A0
330
39F
100
AcDbEntity
  8
0
100
AcDbBlockBegin
  2
KLON17
 70
     0
 71
     0
 10
0.0
 20
0.0
 30
0.0
  3
KLON17
  1

  4
KLON17
  0
LINE
  5
3A2
330
39F
100
AcDbEntity
  8
LC-001-100-D00-0
 62
     7
370
    15
100
AcDbLine
 10
-159.360631
 20
376.36313
 30
0.0
 11
-159.353851
 21
376.377405
 31
0.0
  0
LINE
  5
3A3
330
39F
100
AcDbEntity
  8
LC-001-100-D00-0
 62
     7
370
    15
100
AcDbLine
 10
-159.353851
 20
376.377405
 30
0.0
 11
-158.702789
 21
377.72862
 31
0.0
  0
ENDBLK
  5
3A1
330
39F
100
AcDbEntity
  8
0
100
AcDbBlockEnd
  0
BLOCK
  5
4D2
330
4D1
100
AcDbEntity
  8
0
100
AcDbBlockBegin
  2
KLON18
 70
     0
 71
     0
 10
0.0
 20
0.0
 30
0.0
  3
KLON18
  1

  4
KLON18
  0
LINE
  5
4D4
330
4D1
100
AcDbEntity
  8
LC-001-100-D00-0
 62
     7
370
    15
100
AcDbLine
 10
208.229588
 20
445.031293
 30
0.0
 11
210.785912
 21
445.124589
 31
0.0
  0
LINE
  5
4D5
330
4D1
100
AcDbEntity
  8
LC-001-100-D00-0
 62
     7
370
    15
100
AcDbLine
 10
210.785912
 20
445.124589
 30
0.0
 11
212.931709
 21
445.202902
 31
0.0
  0
LINE
  5
4D6
330
4D1
100
AcDbEntity
  8
LC-001-100-D00-0
 62
     7
370
    15
100
AcDbLine
 10
212.931709
 20
445.202902
 30
0.0
 11
214.661853
 21
445.266046
 31
0.0
  0
LINE
  5
4D7
330
4D1
100
AcDbEntity
  8
LC-001-100-D00-0
 62
     7
370
    15
100
AcDbLine
 10
214.661853
 20
445.266046
 30
0.0
 11
215.972172
 21
445.313867
 31
0.0
  0
LINE
  5
4D8
330
4D1
100
AcDbEntity
  8
LC-001-100-D00-0
 62
     7
370
    15
100
AcDbLine
 10
215.972172
 20
445.313867
 30
0.0
 11
216.859566
 21
445.346255
 31
0.0
  0
LINE
  5
4D9
330
4D1
100
AcDbEntity
  8
LC-001-100-D00-0
 62
     7
370
    15
100
AcDbLine
 10
216.859566
 20
445.346255
 30
0.0
 11
217.321919
 21
445.363128
 31
0.0
  0
ENDBLK
  5
4D3
330
4D1
100
AcDbEntity
  8
0
100
AcDbBlockEnd
  0
BLOCK
  5
4DC
330
4DB
100
AcDbEntity
  8
0
100
AcDbBlockBegin
  2
KLON19
 70
     0
 71
     0
 10
0.0
 20
0.0
 30
0.0
  3
KLON19
  1

  4
KLON19
  0
LINE
  5
4DE
330
4DB
100
AcDbEntity
  8
LC-001-100-D00-0
 62
     7
370
    15
100
AcDbLine
 10
-657.585754
 20
445.031293
 30
0.0
 11
-660.142078
 21
445.124589
 31
0.0
  0
LINE
  5
4DF
330
4DB
100
AcDbEntity
  8
LC-001-100-D00-0
 62
     7
370
    15
100
AcDbLine
 10
-660.142078
 20
445.124589
 30
0.0
 11
-662.287875
 21
445.202902
 31
0.0
  0
LINE
  5
4E0
330
4DB
100
AcDbEntity
  8
LC-001-100-D00-0
 62
     7
370
    15
100
AcDbLine
 10
-662.287875
 20
445.202902
 30
0.0
 11
-664.018019
 21
445.266046
 31
0.0
  0
LINE
  5
4E1
330
4DB
100
AcDbEntity
  8
LC-001-100-D00-0
 62
     7
370
    15
100
AcDbLine
 10
-664.018019
 20
445.266046
 30
0.0
 11
-665.328337
 21
445.313867
 31
0.0
  0
LINE
  5
4E2
330
4DB
100
AcDbEntity
  8
LC-001-100-D00-0
 62
     7
370
    15
100
AcDbLine
 10
-665.328337
 20
445.313867
 30
0.0
 11
-666.215731
 21
445.346255
 31
0.0
  0
LINE
  5
4E3
330
4DB
100
AcDbEntity
  8
LC-001-100-D00-0
 62
     7
370
    15
100
AcDbLine
 10
-666.215731
 20
445.346255
 30
0.0
 11
-666.678085
 21
445.363128
 31
0.0
  0
ENDBLK
  5
4DD
330
4DB
100
AcDbEntity
  8
0
100
AcDbBlockEnd
  0
BLOCK
  5
4FF
330
4FE
100
AcDbEntity
  8
0
100
AcDbBlockBegin
  2
KLON20
 70
     0
 71
     0
 10
0.0
 20
0.0
 30
0.0
  3
KLON20
  1

  4
KLON20
  0
LINE
  5
501
330
4FE
100
AcDbEntity
  8
LC-001-100-D00-0
 62
     7
370
    15
100
AcDbLine
 10
-270.797698
 20
433.363126
 30
0.0
 11
-270.784168
 21
433.204422
 31
0.0
  0
LINE
  5
502
330
4FE
100
AcDbEntity
  8
LC-001-100-D00-0
 62
     7
370
    15
100
AcDbLine
 10
-270.784168
 20
433.204422
 30
0.0
 11
-270.622245
 21
432.620002
 31
0.0
  0
LINE
  5
503
330
4FE
100
AcDbEntity
  8
LC-001-100-D00-0
 62
     7
370
    15
100
AcDbLine
 10
-270.622245
 20
432.620002
 30
0.0
 11
-270.372378
 21
432.173697
 31
0.0
  0
LINE
  5
504
330
4FE
100
AcDbEntity
  8
LC-001-100-D00-0
 62
     7
370
    15
100
AcDbLine
 10
-270.372378
 20
432.173697
 30
0.0
 11
-270.061078
 21
431.914946
 31
0.0
  0
LINE
  5
505
330
4FE
100
AcDbEntity
  8
LC-001-100-D00-0
 62
     7
370
    15
100
AcDbLine
 10
-270.061078
 20
431.914946
 30
0.0
 11
-269.923585
 21
431.871189
 31
0.0
  0
ENDBLK
  5
500
330
4FE
100
AcDbEntity
  8
0
100
AcDbBlockEnd
  0
BLOCK
  5
508
330
507
100
AcDbEntity
  8
0
100
AcDbBlockBegin
  2
KLON21
 70
     0
 71
     0
 10
0.0
 20
0.0
 30
0.0
  3
KLON21
  1

  4
KLON21
  0
LINE
  5
50A
330
507
100
AcDbEntity
  8
LC-001-100-D00-0
 62
     7
370
    15
100
AcDbLine
 10
217.29456
 20
446.863128
 30
0.0
 11
217.293875
 21
446.901109
 31
0.0
  0
LINE
  5
50B
330
507
100
AcDbEntity
  8
LC-001-100-D00-0
 62
     7
370
    15
100
AcDbLine
 10
217.293875
 20
446.901109
 30
0.0
 11
217.291818
 21
447.013896
 31
0.0
  0
LINE
  5
50C
330
507
100
AcDbEntity
  8
LC-001-100-D00-0
 62
     7
370
    15
100
AcDbLine
 10
217.291818
 20
447.013896
 30
0.0
 11
217.288451
 21
447.198065
 31
0.0
  0
LINE
  5
50D
330
507
100
AcDbEntity
  8
LC-001-100-D00-0
 62
     7
370
    15
100
AcDbLine
 10
217.288451
 20
447.198065
 30
0.0
 11
217.283891
 21
447.448017
 31
0.0
  0
LINE
  5
50E
330
507
100
AcDbEntity
  8
LC-001-100-D00-0
 62
     7
370
    15
100
AcDbLine
 10
217.283891
 20
447.448017
 30
0.0
 11
217.278258
 21
447.75616
 31
0.0
  0
LINE
  5
50F
330
507
100
AcDbEntity
  8
LC-001-100-D00-0
 62
     7
370
    15
100
AcDbLine
 10
217.278258
 20
447.75616
 30
0.0
 11
217.271761
 21
448.113128
 31
0.0
  0
LINE
  5
510
330
507
100
AcDbEntity
  8
LC-001-100-D00-0
 62
     7
370
    15
100
AcDbLine
 10
217.271761
 20
448.113128
 30
0.0
 11
217.264549
 21
448.508078
 31
0.0
  0
LINE
  5
511
330
507
100
AcDbEntity
  8
LC-001-100-D00-0
 62
     7
370
    15
100
AcDbLine
 10
217.264549
 20
448.508078
 30
0.0
 11
217.25686
 21
448.929008
 31
0.0
  0
LINE
  5
512
330
507
100
AcDbEntity
  8
LC-001-100-D00-0
 62
     7
370
    15
100
AcDbLine
 10
217.25686
 20
448.929008
 30
0.0
 11
217.248963
 21
449.363129
 31
0.0
  0
ENDBLK
  5
509
330
507
100
AcDbEntity
  8
0
100
AcDbBlockEnd
  0
BLOCK
  5
515
330
514
100
AcDbEntity
  8
0
100
AcDbBlockBegin
  2
KLON22
 70
     0
 71
     0
 10
0.0
 20
0.0
 30
0.0
  3
KLON22
  1

  4
KLON22
  0
LINE
  5
517
330
514
100
AcDbEntity
  8
LC-001-100-D00-0
 62
     7
370
    15
100
AcDbLine
 10
-666.650726
 20
446.863128
 30
0.0
 11
-666.650041
 21
446.901109
 31
0.0
  0
LINE
  5
518
330
514
100
AcDbEntity
  8
LC-001-100-D00-0
 62
     7
370
    15
100
AcDbLine
 10
-666.650041
 20
446.901109
 30
0.0
 11
-666.647984
 21
447.013896
 31
0.0
  0
LINE
  5
519
330
514
100
AcDbEntity
  8
LC-001-100-D00-0
 62
     7
370
    15
100
AcDbLine
 10
-666.647984
 20
447.013896
 30
0.0
 11
-666.644617
 21
447.198065
 31
0.0
  0
LINE
  5
51A
330
514
100
AcDbEntity
  8
LC-001-100-D00-0
 62
     7
370
    15
100
AcDbLine
 10
-666.644617
 20
447.198065
 30
0.0
 11
-666.640057
 21
447.448017
 31
0.0
  0
LINE
  5
51B
330
514
100
AcDbEntity
  8
LC-001-100-D00-0
 62
     7
370
    15
100
AcDbLine
 10
-666.640057
 20
447.448017
 30
0.0
 11
-666.634424
 21
447.75616
 31
0.0
  0
LINE
  5
51C
330
514
100
AcDbEntity
  8
LC-001-100-D00-0
 62
     7
370
    15
100
AcDbLine
 10
-666.634424
 20
447.75616
 30
0.0
 11
-666.627927
 21
448.113128
 31
0.0
  0
LINE
  5
51D
330
514
100
AcDbEntity
  8
LC-001-100-D00-0
 62
     7
370
    15
100
AcDbLine
 10
-666.627927
 20
448.113128
 30
0.0
 11
-666.620715
 21
448.508078
 31
0.0
  0
LINE
  5
51E
330
514
100
AcDbEntity
  8
LC-001-100-D00-0
 62
     7
370
    15
100
AcDbLine
 10
-666.620715
 20
448.508078
 30
0.0
 11
-666.613026
 21
448.929008
 31
0.0
  0
LINE
  5
51F
330
514
100
AcDbEntity
  8
LC-001-100-D00-0
 62
     7
370
    15
100
AcDbLine
 10
-666.613026
 20
448.929008
 30
0.0
 11
-666.605129
 21
449.363129
 31
0.0
  0
ENDBLK
  5
516
330
514
100
AcDbEntity
  8
0
100
AcDbBlockEnd
  0
BLOCK
  5
589
330
57F
100
AcDbEntity
  8
0
100
AcDbBlockBegin
  2
*D24
 70
     1
 71
     0
 10
0.0
 20
0.0
 30
0.0
  3
*D24
  1

  0
LINE
  5
580
330
57F
100
AcDbEntity
  8
LC-001-100-D00-0
 62
     2
370
    -2
100
AcDbLine
 10
275.321917
 20
467.363128
 30
0.0
 11
275.321917
 21
586.672683
 31
0.0
  0
LINE
  5
581
330
57F
100
AcDbEntity
  8
LC-001-100-D00-0
 62
     2
370
    -2
100
AcDbLine
 10
-724.678083
 20
467.363128
 30
0.0
 11
-724.678083
 21
586.672683
 31
0.0
  0
LINE
  5
582
330
57F
100
AcDbEntity
  8
LC-001-100-D00-0
 62
     2
370
    -2
100
AcDbLine
 10
225.321917
 20
577.672683
 30
0.0
 11
-674.678083
 21
577.672683
 31
0.0
  0
SOLID
  5
583
330
57F
100
AcDbEntity
  8
LC-001-100-D00-0
 62
     2
100
AcDbTrace
 10
225.321917
 20
569.339349
 30
0.0
 11
225.321917
 21
586.006016
 31
0.0
 12
275.321917
 22
577.672683
 32
0.0
 13
275.321917
 23
577.672683
 33
0.0
  0
SOLID
  5
584
330
57F
100
AcDbEntity
  8
LC-001-100-D00-0
 62
     2
100
AcDbTrace
 10
-674.678083
 20
586.006016
 30
0.0
 11
-674.678083
 21
569.339349
 31
0.0
 12
-724.678083
 22
577.672683
 32
0.0
 13
-724.678083
 23
577.672683
 33
0.0
  0
MTEXT
  5
585
330
57F
100
AcDbEntity
  8
LC-001-100-D00-0
 62
     2
100
AcDbMText
 10
-224.251459
 20
632.672683
 30
0.0
 40
50.0
 41
0.0
 71
     5
 72
     1
  1
\A1;1000
  7
LCTX15-400-0-0pDIN-Schrift
 73
     1
 44
1.0
  0
POINT
  5
586
330
57F
100
AcDbEntity
  8
Defpoints
 62
     0
100
AcDbPoint
 10
275.321917
 20
467.363128
 30
0.0
  0
POINT
  5
587
330
57F
100
AcDbEntity
  8
Defpoints
 62
     0
100
AcDbPoint
 10
-724.678083
 20
467.363128
 30
0.0
  0
POINT
  5
588
330
57F
100
AcDbEntity
  8
Defpoints
 62
     0
100
AcDbPoint
 10
-724.678083
 20
577.672683
 30
0.0
  0
ENDBLK
  5
58A
330
57F
100
AcDbEntity
  8
0
100
AcDbBlockEnd
  0
BLOCK
  5
596
330
58C
100
AcDbEntity
  8
0
100
AcDbBlockBegin
  2
*D25
 70
     1
 71
     0
 10
0.0
 20
0.0
 30
0.0
  3
*D25
  1

  0
LINE
  5
58D
330
58C
100
AcDbEntity
  8
LC-001-100-D00-0
 62
     2
370
    -2
100
AcDbLine
 10
-674.678083
 20
464.363128
 30
0.0
 11
-674.678083
 21
508.629525
 31
0.0
  0
LINE
  5
58E
330
58C
100
AcDbEntity
  8
LC-001-100-D00-0
 62
     2
370
    -2
100
AcDbLine
 10
225.321917
 20
464.363128
 30
0.0
 11
225.321917
 21
508.629525
 31
0.0
  0
LINE
  5
58F
330
58C
100
AcDbEntity
  8
LC-001-100-D00-0
 62
     2
370
    -2
100
AcDbLine
 10
-624.678083
 20
499.629525
 30
0.0
 11
175.321917
 21
499.629525
 31
0.0
  0
SOLID
  5
590
330
58C
100
AcDbEntity
  8
LC-001-100-D00-0
 62
     2
100
AcDbTrace
 10
-624.678083
 20
507.962858
 30
0.0
 11
-624.678083
 21
491.296192
 31
0.0
 12
-674.678083
 22
499.629525
 32
0.0
 13
-674.678083
 23
499.629525
 33
0.0
  0
SOLID
  5
591
330
58C
100
AcDbEntity
  8
LC-001-100-D00-0
 62
     2
100
AcDbTrace
 10
175.321917
 20
491.296192
 30
0.0
 11
175.321917
 21
507.962858
 31
0.0
 12
225.321917
 22
499.629525
 32
0.0
 13
225.321917
 23
499.629525
 33
0.0
  0
MTEXT
  5
592
330
58C
100
AcDbEntity
  8
LC-001-100-D00-0
 62
     2
100
AcDbMText
 10
-227.826997
 20
554.629525
 30
0.0
 40
50.0
 41
0.0
 71
     5
 72
     1
  1
\A1;900
  7
LCTX15-400-0-0pDIN-Schrift
 73
     1
 44
1.0
  0
POINT
  5
593
330
58C
100
AcDbEntity
  8
Defpoints
 62
     0
100
AcDbPoint
 10
-674.678083
 20
464.363128
 30
0.0
  0
POINT
  5
594
330
58C
100
AcDbEntity
  8
Defpoints
 62
     0
100
AcDbPoint
 10
225.321917
 20
464.363128
 30
0.0
  0
POINT
  5
595
330
58C
100
AcDbEntity
  8
Defpoints
 62
     0
100
AcDbPoint
 10
225.321917
 20
499.629525
 30
0.0
  0
ENDBLK
  5
597
330
58C
100
AcDbEntity
  8
0
100
AcDbBlockEnd
  0
BLOCK
  5
5A4
330
599
100
AcDbEntity
  8
0
100
AcDbBlockBegin
  2
*D26
 70
     1
 71
     0
 10
0.0
 20
0.0
 30
0.0
  3
*D26
  1

  0
LINE
  5
59A
330
599
100
AcDbEntity
  8
LC-001-100-D00-0
 62
     2
370
    -2
100
AcDbLine
 10
-253.678083
 20
375.463128
 30
0.0
 11
-403.499692
 21
375.463128
 31
0.0
  0
LINE
  5
59B
330
599
100
AcDbEntity
  8
LC-001-100-D00-0
 62
     2
370
    -2
100
AcDbLine
 10
-259.757478
 20
425.863128
 30
0.0
 11
-403.499692
 21
425.863128
 31
0.0
  0
LINE
  5
59C
330
599
100
AcDbEntity
  8
LC-001-100-D00-0
 62
     2
370
    -2
100
AcDbLine
 10
-394.499692
 20
475.863128
 30
0.0
 11
-394.499692
 21
525.863128
 31
0.0
  0
LINE
  5
59D
330
599
100
AcDbEntity
  8
LC-001-100-D00-0
 62
     2
370
    -2
100
AcDbLine
 10
-394.499692
 20
325.463128
 30
0.0
 11
-394.499692
 21
247.992279
 31
0.0
  0
SOLID
  5
59E
330
599
100
AcDbEntity
  8
LC-001-100-D00-0
 62
     2
100
AcDbTrace
 10
-386.166358
 20
325.463128
 30
0.0
 11
-402.833025
 21
325.463128
 31
0.0
 12
-394.499692
 22
375.463128
 32
0.0
 13
-394.499692
 23
375.463128
 33
0.0
  0
SOLID
  5
59F
330
599
100
AcDbEntity
  8
LC-001-100-D00-0
 62
     2
100
AcDbTrace
 10
-402.833025
 20
475.863128
 30
0.0
 11
-386.166358
 21
475.863128
 31
0.0
 12
-394.499692
 22
425.863128
 32
0.0
 13
-394.499692
 23
425.863128
 33
0.0
  0
MTEXT
  5
5A0
330
599
100
AcDbEntity
  8
LC-001-100-D00-0
 62
     2
100
AcDbMText
 10
-449.499692
 20
291.067683
 30
0.0
 40
50.0
 41
0.0
 71
     5
 72
     1
  1
\A1;50
  7
LCTX15-400-0-0pDIN-Schrift
 11
6.123031769111886E-17
 21
1.0
 31
0.0
 73
     1
 44
1.0
  0
POINT
  5
5A1
330
599
100
AcDbEntity
  8
Defpoints
 62
     0
100
AcDbPoint
 10
-253.678083
 20
375.463128
 30
0.0
  0
POINT
  5
5A2
330
599
100
AcDbEntity
  8
Defpoints
 62
     0
100
AcDbPoint
 10
-259.757478
 20
425.863128
 30
0.0
  0
POINT
  5
5A3
330
599
100
AcDbEntity
  8
Defpoints
 62
     0
100
AcDbPoint
 10
-394.499692
 20
425.863128
 30
0.0
  0
ENDBLK
  5
5A5
330
599
100
AcDbEntity
  8
0
100
AcDbBlockEnd
  0
BLOCK
  5
5B1
330
5A7
100
AcDbEntity
  8
0
100
AcDbBlockBegin
  2
*D27
 70
     1
 71
     0
 10
0.0
 20
0.0
 30
0.0
  3
*D27
  1

  0
LINE
  5
5A8
330
5A7
100
AcDbEntity
  8
LC-001-100-D00-0
 62
     2
370
    -2
100
AcDbLine
 10
-298.678083
 20
376.363128
 30
0.0
 11
-298.678083
 21
252.367683
 31
0.0
  0
LINE
  5
5A9
330
5A7
100
AcDbEntity
  8
LC-001-100-D00-0
 62
     2
370
    -2
100
AcDbLine
 10
-150.678083
 20
416.613128
 30
0.0
 11
-150.678083
 21
252.367683
 31
0.0
  0
LINE
  5
5AA
330
5A7
100
AcDbEntity
  8
LC-001-100-D00-0
 62
     2
370
    -2
100
AcDbLine
 10
-248.678083
 20
261.367683
 30
0.0
 11
-200.678083
 21
261.367683
 31
0.0
  0
SOLID
  5
5AB
330
5A7
100
AcDbEntity
  8
LC-001-100-D00-0
 62
     2
100
AcDbTrace
 10
-248.678083
 20
269.701016
 30
0.0
 11
-248.678083
 21
253.034349
 31
0.0
 12
-298.678083
 22
261.367683
 32
0.0
 13
-298.678083
 23
261.367683
 33
0.0
  0
SOLID
  5
5AC
330
5A7
100
AcDbEntity
  8
LC-001-100-D00-0
 62
     2
100
AcDbTrace
 10
-200.678083
 20
253.034349
 30
0.0
 11
-200.678083
 21
269.701016
 31
0.0
 12
-150.678083
 22
261.367683
 32
0.0
 13
-150.678083
 23
261.367683
 33
0.0
  0
MTEXT
  5
5AD
330
5A7
100
AcDbEntity
  8
LC-001-100-D00-0
 62
     2
100
AcDbMText
 10
-231.990015
 20
316.367683
 30
0.0
 40
50.0
 41
0.0
 71
     5
 72
     1
  1
\A1;148
  7
LCTX15-400-0-0pDIN-Schrift
 73
     1
 44
1.0
  0
POINT
  5
5AE
330
5A7
100
AcDbEntity
  8
Defpoints
 62
     0
100
AcDbPoint
 10
-298.678083
 20
376.363128
 30
0.0
  0
POINT
  5
5AF
330
5A7
100
AcDbEntity
  8
Defpoints
 62
     0
100
AcDbPoint
 10
-150.678083
 20
416.613128
 30
0.0
  0
POINT
  5
5B0
330
5A7
100
AcDbEntity
  8
Defpoints
 62
     0
100
AcDbPoint
 10
-150.678083
 20
261.367683
 30
0.0
  0
ENDBLK
  5
5B2
330
5A7
100
AcDbEntity
  8
0
100
AcDbBlockEnd
  0
BLOCK
  5
5BE
330
5B4
100
AcDbEntity
  8
0
100
AcDbBlockBegin
  2
*D28
 70
     1
 71
     0
 10
0.0
 20
0.0
 30
0.0
  3
*D28
  1

  0
LINE
  5
5B5
330
5B4
100
AcDbEntity
  8
LC-001-100-D00-0
 62
     2
370
    -2
100
AcDbLine
 10
-298.678083
 20
376.363128
 30
0.0
 11
-298.678083
 21
176.632683
 31
0.0
  0
LINE
  5
5B6
330
5B4
100
AcDbEntity
  8
LC-001-100-D00-0
 62
     2
370
    -2
100
AcDbLine
 10
-15.178286
 20
365.80095
 30
0.0
 11
-15.178286
 21
176.632683
 31
0.0
  0
LINE
  5
5B7
330
5B4
100
AcDbEntity
  8
LC-001-100-D00-0
 62
     2
370
    -2
100
AcDbLine
 10
-248.678083
 20
185.632683
 30
0.0
 11
-65.178286
 21
185.632683
 31
0.0
  0
SOLID
  5
5B8
330
5B4
100
AcDbEntity
  8
LC-001-100-D00-0
 62
     2
100
AcDbTrace
 10
-248.678083
 20
193.966016
 30
0.0
 11
-248.678083
 21
177.299349
 31
0.0
 12
-298.678083
 22
185.632683
 32
0.0
 13
-298.678083
 23
185.632683
 33
0.0
  0
SOLID
  5
5B9
330
5B4
100
AcDbEntity
  8
LC-001-100-D00-0
 62
     2
100
AcDbTrace
 10
-65.178286
 20
177.299349
 30
0.0
 11
-65.178286
 21
193.966016
 31
0.0
 12
-15.178286
 22
185.632683
 32
0.0
 13
-15.178286
 23
185.632683
 33
0.0
  0
MTEXT
  5
5BA
330
5B4
100
AcDbEntity
  8
LC-001-100-D00-0
 62
     2
100
AcDbMText
 10
-154.604454
 20
240.632683
 30
0.0
 40
50.0
 41
0.0
 71
     5
 72
     1
  1
\A1;284
  7
LCTX15-400-0-0pDIN-Schrift
 73
     1
 44
1.0
  0
POINT
  5
5BB
330
5B4
100
AcDbEntity
  8
Defpoints
 62
     0
100
AcDbPoint
 10
-298.678083
 20
376.363128
 30
0.0
  0
POINT
  5
5BC
330
5B4
100
AcDbEntity
  8
Defpoints
 62
     0
100
AcDbPoint
 10
-15.178286
 20
365.80095
 30
0.0
  0
POINT
  5
5BD
330
5B4
100
AcDbEntity
  8
Defpoints
 62
     0
100
AcDbPoint
 10
-15.178286
 20
185.632683
 30
0.0
  0
ENDBLK
  5
5BF
330
5B4
100
AcDbEntity
  8
0
100
AcDbBlockEnd
  0
BLOCK
  5
5CD
330
5C1
100
AcDbEntity
  8
0
100
AcDbBlockBegin
  2
*D29
 70
     1
 71
     0
 10
0.0
 20
0.0
 30
0.0
  3
*D29
  1

  0
LINE
  5
5C2
330
5C1
100
AcDbEntity
  8
LC-001-100-D00-0
 62
     2
370
    -2
100
AcDbLine
 10
-18.678286
 20
414.863128
 30
0.0
 11
81.288031
 21
414.863128
 31
0.0
  0
LINE
  5
5C3
330
5C1
100
AcDbEntity
  8
LC-001-100-D00-0
 62
     2
370
    -2
100
AcDbLine
 10
-18.678286
 20
364.863128
 30
0.0
 11
81.288031
 21
364.863128
 31
0.0
  0
LINE
  5
5C4
330
5C1
100
AcDbEntity
  8
LC-001-100-D00-0
 62
     2
370
    -2
100
AcDbLine
 10
72.288031
 20
464.863128
 30
0.0
 11
72.288031
 21
514.863128
 31
0.0
  0
LINE
  5
5C5
330
5C1
100
AcDbEntity
  8
LC-001-100-D00-0
 62
     2
370
    -2
100
AcDbLine
 10
72.288031
 20
314.863128
 30
0.0
 11
72.288031
 21
264.863128
 31
0.0
  0
LINE
  5
5C6
330
5C1
100
AcDbEntity
  8
LC-001-100-D00-0
 62
     2
370
    -2
100
AcDbLine
 10
72.288031
 20
414.863128
 30
0.0
 11
72.288031
 21
364.863128
 31
0.0
  0
SOLID
  5
5C7
330
5C1
100
AcDbEntity
  8
LC-001-100-D00-0
 62
     2
100
AcDbTrace
 10
63.954698
 20
464.863128
 30
0.0
 11
80.621365
 21
464.863128
 31
0.0
 12
72.288031
 22
414.863128
 32
0.0
 13
72.288031
 23
414.863128
 33
0.0
  0
SOLID
  5
5C8
330
5C1
100
AcDbEntity
  8
LC-001-100-D00-0
 62
     2
100
AcDbTrace
 10
80.621365
 20
314.863128
 30
0.0
 11
63.954698
 21
314.863128
 31
0.0
 12
72.288031
 22
364.863128
 32
0.0
 13
72.288031
 23
364.863128
 33
0.0
  0
MTEXT
  5
5C9
330
5C1
100
AcDbEntity
  8
LC-001-100-D00-0
 62
     2
100
AcDbMText
 10
17.288031
 20
389.680842
 30
0.0
 40
50.0
 41
0.0
 71
     5
 72
     1
  1
\A1;DN50
  7
LCTX15-400-0-0pDIN-Schrift
 11
6.123031769111886E-17
 21
1.0
 31
0.0
 73
     1
 44
1.0
  0
POINT
  5
5CA
330
5C1
100
AcDbEntity
  8
Defpoints
 62
     0
100
AcDbPoint
 10
-18.678286
 20
414.863128
 30
0.0
  0
POINT
  5
5CB
330
5C1
100
AcDbEntity
  8
Defpoints
 62
     0
100
AcDbPoint
 10
-18.678286
 20
364.863128
 30
0.0
  0
POINT
  5
5CC
330
5C1
100
AcDbEntity
  8
Defpoints
 62
     0
100
AcDbPoint
 10
72.288031
 20
364.863128
 30
0.0
  0
ENDBLK
  5
5CE
330
5C1
100
AcDbEntity
  8
0
100
AcDbBlockEnd
  0
BLOCK
  5
5DB
330
5D0
100
AcDbEntity
  8
0
100
AcDbBlockBegin
  2
*D30
 70
     1
 71
     0
 10
0.0
 20
0.0
 30
0.0
  3
*D30
  1

  0
LINE
  5
5D1
330
5D0
100
AcDbEntity
  8
LC-001-100-D00-0
 62
     2
370
    -2
100
AcDbLine
 10
275.321917
 20
467.363128
 30
0.0
 11
305.811315
 21
467.363128
 31
0.0
  0
LINE
  5
5D2
330
5D0
100
AcDbEntity
  8
LC-001-100-D00-0
 62
     2
370
    -2
100
AcDbLine
 10
-8.678286
 20
389.863128
 30
0.0
 11
305.811315
 21
389.863128
 31
0.0
  0
LINE
  5
5D3
330
5D0
100
AcDbEntity
  8
LC-001-100-D00-0
 62
     2
370
    -2
100
AcDbLine
 10
296.811315
 20
517.363128
 30
0.0
 11
296.811315
 21
567.363128
 31
0.0
  0
LINE
  5
5D4
330
5D0
100
AcDbEntity
  8
LC-001-100-D00-0
 62
     2
370
    -2
100
AcDbLine
 10
296.811315
 20
339.863128
 30
0.0
 11
296.811315
 21
185.990858
 31
0.0
  0
SOLID
  5
5D5
330
5D0
100
AcDbEntity
  8
LC-001-100-D00-0
 62
     2
100
AcDbTrace
 10
288.477982
 20
517.363128
 30
0.0
 11
305.144649
 21
517.363128
 31
0.0
 12
296.811315
 22
467.363128
 32
0.0
 13
296.811315
 23
467.363128
 33
0.0
  0
SOLID
  5
5D6
330
5D0
100
AcDbEntity
  8
LC-001-100-D00-0
 62
     2
100
AcDbTrace
 10
305.144649
 20
339.863128
 30
0.0
 11
288.477982
 21
339.863128
 31
0.0
 12
296.811315
 22
389.863128
 32
0.0
 13
296.811315
 23
389.863128
 33
0.0
  0
MTEXT
  5
5D7
330
5D0
100
AcDbEntity
  8
LC-001-100-D00-0
 62
     2
100
AcDbMText
 10
241.811315
 20
255.427683
 30
0.0
 40
50.0
 41
0.0
 71
     5
 72
     1
  1
\A1;77,5
  7
LCTX15-400-0-0pDIN-Schrift
 11
6.123031769111886E-17
 21
1.0
 31
0.0
 73
     1
 44
1.0
  0
POINT
  5
5D8
330
5D0
100
AcDbEntity
  8
Defpoints
 62
     0
100
AcDbPoint
 10
275.321917
 20
467.363128
 30
0.0
  0
POINT
  5
5D9
330
5D0
100
AcDbEntity
  8
Defpoints
 62
     0
100
AcDbPoint
 10
-8.678286
 20
389.863128
 30
0.0
  0
POINT
  5
5DA
330
5D0
100
AcDbEntity
  8
Defpoints
 62
     0
100
AcDbPoint
 10
296.811315
 20
389.863128
 30
0.0
  0
ENDBLK
  5
5DC
330
5D0
100
AcDbEntity
  8
0
100
AcDbBlockEnd
  0
BLOCK
  5
5EA
330
5DE
100
AcDbEntity
  8
0
100
AcDbBlockBegin
  2
*D31
 70
     1
 71
     0
 10
0.0
 20
0.0
 30
0.0
  3
*D31
  1

  0
LINE
  5
5DF
330
5DE
100
AcDbEntity
  8
LC-001-100-D00-0
 62
     2
370
    -2
100
AcDbLine
 10
-723.688958
 20
467.363128
 30
0.0
 11
-773.843259
 21
467.363128
 31
0.0
  0
LINE
  5
5E0
330
5DE
100
AcDbEntity
  8
LC-001-100-D00-0
 62
     2
370
    -2
100
AcDbLine
 10
-277.706838
 20
357.363128
 30
0.0
 11
-773.843259
 21
357.363128
 31
0.0
  0
LINE
  5
5E1
330
5DE
100
AcDbEntity
  8
LC-001-100-D00-0
 62
     2
370
    -2
100
AcDbLine
 10
-764.843259
 20
517.363128
 30
0.0
 11
-764.843259
 21
567.363128
 31
0.0
  0
LINE
  5
5E2
330
5DE
100
AcDbEntity
  8
LC-001-100-D00-0
 62
     2
370
    -2
100
AcDbLine
 10
-764.843259
 20
307.363128
 30
0.0
 11
-764.843259
 21
257.363128
 31
0.0
  0
LINE
  5
5E3
330
5DE
100
AcDbEntity
  8
LC-001-100-D00-0
 62
     2
370
    -2
100
AcDbLine
 10
-764.843259
 20
467.363128
 30
0.0
 11
-764.843259
 21
357.363128
 31
0.0
  0
SOLID
  5
5E4
330
5DE
100
AcDbEntity
  8
LC-001-100-D00-0
 62
     2
100
AcDbTrace
 10
-773.176592
 20
517.363128
 30
0.0
 11
-756.509926
 21
517.363128
 31
0.0
 12
-764.843259
 22
467.363128
 32
0.0
 13
-764.843259
 23
467.363128
 33
0.0
  0
SOLID
  5
5E5
330
5DE
100
AcDbEntity
  8
LC-001-100-D00-0
 62
     2
100
AcDbTrace
 10
-756.509926
 20
307.363128
 30
0.0
 11
-773.176592
 21
307.363128
 31
0.0
 12
-764.843259
 22
357.363128
 32
0.0
 13
-764.843259
 23
357.363128
 33
0.0
  0
MTEXT
  5
5E6
330
5DE
100
AcDbEntity
  8
LC-001-100-D00-0
 62
     2
100
AcDbMText
 10
-819.843259
 20
384.622683
 30
0.0
 40
50.0
 41
0.0
 71
     5
 72
     1
  1
\A1;110
  7
LCTX15-400-0-0pDIN-Schrift
 11
6.123031769111886E-17
 21
1.0
 31
0.0
 73
     1
 44
1.0
  0
POINT
  5
5E7
330
5DE
100
AcDbEntity
  8
Defpoints
 62
     0
100
AcDbPoint
 10
-723.688958
 20
467.363128
 30
0.0
  0
POINT
  5
5E8
330
5DE
100
AcDbEntity
  8
Defpoints
 62
     0
100
AcDbPoint
 10
-277.706838
 20
357.363128
 30
0.0
  0
POINT
  5
5E9
330
5DE
100
AcDbEntity
  8
Defpoints
 62
     0
100
AcDbPoint
 10
-764.843259
 20
357.363128
 30
0.0
  0
ENDBLK
  5
5EB
330
5DE
100
AcDbEntity
  8
0
100
AcDbBlockEnd
  0
BLOCK
  5
5F7
330
5ED
100
AcDbEntity
  8
0
100
AcDbBlockBegin
  2
*D32
 70
     1
 71
     0
 10
0.0
 20
0.0
 30
0.0
  3
*D32
  1

  0
LINE
  5
5EE
330
5ED
100
AcDbEntity
  8
LC-001-100-D00-0
 62
     2
370
    -2
100
AcDbLine
 10
275.321917
 20
467.363128
 30
0.0
 11
481.218586
 21
467.363128
 31
0.0
  0
LINE
  5
5EF
330
5ED
100
AcDbEntity
  8
LC-001-100-D00-0
 62
     2
370
    -2
100
AcDbLine
 10
134.821917
 20
332.863128
 30
0.0
 11
481.218586
 21
332.863128
 31
0.0
  0
LINE
  5
5F0
330
5ED
100
AcDbEntity
  8
LC-001-100-D00-0
 62
     2
370
    -2
100
AcDbLine
 10
472.218586
 20
417.363128
 30
0.0
 11
472.218586
 21
382.863128
 31
0.0
  0
SOLID
  5
5F1
330
5ED
100
AcDbEntity
  8
LC-001-100-D00-0
 62
     2
100
AcDbTrace
 10
480.551919
 20
417.363128
 30
0.0
 11
463.885252
 21
417.363128
 31
0.0
 12
472.218586
 22
467.363128
 32
0.0
 13
472.218586
 23
467.363128
 33
0.0
  0
SOLID
  5
5F2
330
5ED
100
AcDbEntity
  8
LC-001-100-D00-0
 62
     2
100
AcDbTrace
 10
463.885252
 20
382.863128
 30
0.0
 11
480.551919
 21
382.863128
 31
0.0
 12
472.218586
 22
332.863128
 32
0.0
 13
472.218586
 23
332.863128
 33
0.0
  0
MTEXT
  5
5F3
330
5ED
100
AcDbEntity
  8
LC-001-100-D00-0
 62
     2
100
AcDbMText
 10
417.218586
 20
338.587683
 30
0.0
 40
50.0
 41
0.0
 71
     5
 72
     1
  1
\A1;110-129,5
  7
LCTX15-400-0-0pDIN-Schrift
 11
6.123031769111886E-17
 21
1.0
 31
0.0
 73
     1
 44
1.0
  0
POINT
  5
5F4
330
5ED
100
AcDbEntity
  8
Defpoints
 62
     0
100
AcDbPoint
 10
275.321917
 20
467.363128
 30
0.0
  0
POINT
  5
5F5
330
5ED
100
AcDbEntity
  8
Defpoints
 62
     0
100
AcDbPoint
 10
134.821917
 20
332.863128
 30
0.0
  0
POINT
  5
5F6
330
5ED
100
AcDbEntity
  8
Defpoints
 62
     0
100
AcDbPoint
 10
472.218586
 20
332.863128
 30
0.0
  0
ENDBLK
  5
5F8
330
5ED
100
AcDbEntity
  8
0
100
AcDbBlockEnd
  0
BLOCK
  5
5FC
330
5FB
100
AcDbEntity
  8
0
100
AcDbBlockBegin
  2
KLON23
 70
     0
 71
     0
 10
0.0
 20
0.0
 30
0.0
  3
KLON23
  1

  4
KLON23
  0
LINE
  5
5FE
330
5FB
100
AcDbEntity
  8
LC-001-100-D00-0
 62
     7
370
    50
100
AcDbLine
 10
-296.335909
 20
416.613128
 30
0.0
 11
-295.678083
 21
417.270955
 31
0.0
  0
LINE
  5
5FF
330
5FB
100
AcDbEntity
  8
LC-001-100-D00-0
 62
     7
370
    50
100
AcDbLine
 10
-298.678083
 20
436.721596
 30
0.0
 11
-295.036551
 21
440.363128
 31
0.0
  0
ENDBLK
  5
5FD
330
5FB
100
AcDbEntity
  8
0
100
AcDbBlockEnd
  0
BLOCK
  5
602
330
601
100
AcDbEntity
  8
0
100
AcDbBlockBegin
  2
KLON24
 70
     0
 71
     0
 10
0.0
 20
0.0
 30
0.0
  3
KLON24
  1

  4
KLON24
  0
LINE
  5
604
330
601
100
AcDbEntity
  8
LC-001-100-D00-0
 62
     7
370
    50
100
AcDbLine
 10
-127.643511
 20
360.799128
 30
0.0
 11
-121.579511
 21
366.863128
 31
0.0
  0
LINE
  5
605
330
601
100
AcDbEntity
  8
LC-001-100-D00-0
 62
     7
370
    50
100
AcDbLine
 10
-147.03015
 20
363.863128
 30
0.0
 11
-144.03015
 21
366.863128
 31
0.0
  0
LINE
  5
606
330
601
100
AcDbEntity
  8
LC-001-100-D00-0
 62
     7
370
    50
100
AcDbLine
 10
-175.980789
 20
357.363128
 30
0.0
 11
-172.980789
 21
360.363128
 31
0.0
  0
LINE
  5
607
330
601
100
AcDbEntity
  8
LC-001-100-D00-0
 62
     7
370
    50
100
AcDbLine
 10
-198.431429
 20
357.363128
 30
0.0
 11
-195.431429
 21
360.363128
 31
0.0
  0
LINE
  5
608
330
601
100
AcDbEntity
  8
LC-001-100-D00-0
 62
     7
370
    50
100
AcDbLine
 10
-220.882068
 20
357.363128
 30
0.0
 11
-217.882068
 21
360.363128
 31
0.0
  0
LINE
  5
609
330
601
100
AcDbEntity
  8
LC-001-100-D00-0
 62
     7
370
    50
100
AcDbLine
 10
-243.332708
 20
357.363128
 30
0.0
 11
-240.332708
 21
360.363128
 31
0.0
  0
LINE
  5
60A
330
601
100
AcDbEntity
  8
LC-001-100-D00-0
 62
     7
370
    50
100
AcDbLine
 10
-265.783347
 20
357.363128
 30
0.0
 11
-262.783347
 21
360.363128
 31
0.0
  0
LINE
  5
60B
330
601
100
AcDbEntity
  8
LC-001-100-D00-0
 62
     7
370
    50
100
AcDbLine
 10
-284.749283
 20
360.847832
 30
0.0
 11
-282.479294
 21
363.117821
 31
0.0
  0
LINE
  5
60C
330
601
100
AcDbEntity
  8
LC-001-100-D00-0
 62
     7
370
    50
100
AcDbLine
 10
-297.330432
 20
370.717323
 30
0.0
 11
-295.058711
 21
372.989044
 31
0.0
  0
LINE
  5
60D
330
601
100
AcDbEntity
  8
LC-001-100-D00-0
 62
     7
370
    50
100
AcDbLine
 10
-298.678083
 20
391.820313
 30
0.0
 11
-295.678083
 21
394.820314
 31
0.0
  0
LINE
  5
60E
330
601
100
AcDbEntity
  8
LC-001-100-D00-0
 62
     7
370
    50
100
AcDbLine
 10
-298.678083
 20
414.270955
 30
0.0
 11
-296.335909
 21
416.613128
 31
0.0
  0
ENDBLK
  5
603
330
601
100
AcDbEntity
  8
0
100
AcDbBlockEnd
  0
BLOCK
  5
611
330
610
100
AcDbEntity
  8
0
100
AcDbBlockBegin
  2
KLON25
 70
     0
 71
     0
 10
0.0
 20
0.0
 30
0.0
  3
KLON25
  1

  4
KLON25
  0
LINE
  5
613
330
610
100
AcDbEntity
  8
LC-001-100-D00-0
 62
     7
370
    50
100
AcDbLine
 10
-120.480793
 20
412.863128
 30
0.0
 11
-115.680097
 21
417.663824
 31
0.0
  0
LINE
  5
614
330
610
100
AcDbEntity
  8
LC-001-100-D00-0
 62
     7
370
    50
100
AcDbLine
 10
-142.931433
 20
412.863128
 30
0.0
 11
-139.931433
 21
415.863128
 31
0.0
  0
LINE
  5
615
330
610
100
AcDbEntity
  8
LC-001-100-D00-0
 62
     7
370
    50
100
AcDbLine
 10
-139.678083
 20
416.116478
 30
0.0
 11
-138.431433
 21
417.363128
 31
0.0
  0
ENDBLK
  5
612
330
610
100
AcDbEntity
  8
0
100
AcDbBlockEnd
  0
BLOCK
  5
618
330
617
100
AcDbEntity
  8
0
100
AcDbBlockBegin
  2
KLON26
 70
     0
 71
     0
 10
0.0
 20
0.0
 30
0.0
  3
KLON26
  1

  4
KLON26
  0
LINE
  5
61A
330
617
100
AcDbEntity
  8
LC-001-100-D00-0
 62
     7
370
    50
100
AcDbLine
 10
269.278795
 20
465.863128
 30
0.0
 11
270.778795
 21
467.363128
 31
0.0
  0
LINE
  5
61B
330
617
100
AcDbEntity
  8
LC-001-100-D00-0
 62
     7
370
    50
100
AcDbLine
 10
246.828156
 20
465.863128
 30
0.0
 11
248.328156
 21
467.363128
 31
0.0
  0
LINE
  5
61C
330
617
100
AcDbEntity
  8
LC-001-100-D00-0
 62
     7
370
    50
100
AcDbLine
 10
203.877518
 20
445.363128
 30
0.0
 11
205.377518
 21
446.863128
 31
0.0
  0
LINE
  5
61D
330
617
100
AcDbEntity
  8
LC-001-100-D00-0
 62
     7
370
    50
100
AcDbLine
 10
181.426878
 20
445.363128
 30
0.0
 11
182.926878
 21
446.863128
 31
0.0
  0
LINE
  5
61E
330
617
100
AcDbEntity
  8
LC-001-100-D00-0
 62
     7
370
    50
100
AcDbLine
 10
191.321917
 20
455.258168
 30
0.0
 11
199.321917
 21
463.258169
 31
0.0
  0
LINE
  5
61F
330
617
100
AcDbEntity
  8
LC-001-100-D00-0
 62
     7
370
    50
100
AcDbLine
 10
158.976239
 20
445.363128
 30
0.0
 11
160.476239
 21
446.863128
 31
0.0
  0
LINE
  5
620
330
617
100
AcDbEntity
  8
LC-001-100-D00-0
 62
     7
370
    50
100
AcDbLine
 10
136.525599
 20
445.363128
 30
0.0
 11
138.025599
 21
446.863128
 31
0.0
  0
LINE
  5
621
330
617
100
AcDbEntity
  8
LC-001-100-D00-0
 62
     7
370
    50
100
AcDbLine
 10
114.07496
 20
445.363128
 30
0.0
 11
115.57496
 21
446.863128
 31
0.0
  0
LINE
  5
622
330
617
100
AcDbEntity
  8
LC-001-100-D00-0
 62
     7
370
    50
100
AcDbLine
 10
91.62432
 20
445.363128
 30
0.0
 11
93.12432
 21
446.863128
 31
0.0
  0
LINE
  5
623
330
617
100
AcDbEntity
  8
LC-001-100-D00-0
 62
     7
370
    50
100
AcDbLine
 10
69.173681
 20
445.363128
 30
0.0
 11
70.673681
 21
446.863128
 31
0.0
  0
LINE
  5
624
330
617
100
AcDbEntity
  8
LC-001-100-D00-0
 62
     7
370
    50
100
AcDbLine
 10
46.723041
 20
445.363128
 30
0.0
 11
48.223041
 21
446.863128
 31
0.0
  0
LINE
  5
625
330
617
100
AcDbEntity
  8
LC-001-100-D00-0
 62
     7
370
    50
100
AcDbLine
 10
24.272402
 20
445.363128
 30
0.0
 11
25.772402
 21
446.863128
 31
0.0
  0
LINE
  5
626
330
617
100
AcDbEntity
  8
LC-001-100-D00-0
 62
     7
370
    50
100
AcDbLine
 10
31.321917
 20
452.412644
 30
0.0
 11
39.321917
 21
460.412645
 31
0.0
  0
LINE
  5
627
330
617
100
AcDbEntity
  8
LC-001-100-D00-0
 62
     7
370
    50
100
AcDbLine
 10
1.821762
 20
445.363128
 30
0.0
 11
3.321762
 21
446.863128
 31
0.0
  0
LINE
  5
628
330
617
100
AcDbEntity
  8
LC-001-100-D00-0
 62
     7
370
    50
100
AcDbLine
 10
-20.628877
 20
445.363128
 30
0.0
 11
-19.128877
 21
446.863128
 31
0.0
  0
LINE
  5
629
330
617
100
AcDbEntity
  8
LC-001-100-D00-0
 62
     7
370
    50
100
AcDbLine
 10
-43.079517
 20
445.363128
 30
0.0
 11
-41.579517
 21
446.863128
 31
0.0
  0
LINE
  5
62A
330
617
100
AcDbEntity
  8
LC-001-100-D00-0
 62
     7
370
    50
100
AcDbLine
 10
-65.530156
 20
445.363128
 30
0.0
 11
-64.030156
 21
446.863128
 31
0.0
  0
LINE
  5
62B
330
617
100
AcDbEntity
  8
LC-001-100-D00-0
 62
     7
370
    50
100
AcDbLine
 10
-87.980796
 20
445.363128
 30
0.0
 11
-86.480796
 21
446.863128
 31
0.0
  0
LINE
  5
62C
330
617
100
AcDbEntity
  8
LC-001-100-D00-0
 62
     7
370
    50
100
AcDbLine
 10
-110.431435
 20
445.363128
 30
0.0
 11
-108.931435
 21
446.863128
 31
0.0
  0
LINE
  5
62D
330
617
100
AcDbEntity
  8
LC-001-100-D00-0
 62
     7
370
    50
100
AcDbLine
 10
-133.564436
 20
444.680767
 30
0.0
 11
-131.456446
 21
446.788757
 31
0.0
  0
LINE
  5
62E
330
617
100
AcDbEntity
  8
LC-001-100-D00-0
 62
     7
370
    50
100
AcDbLine
 10
-127.954294
 20
450.290909
 30
0.0
 11
-120.678083
 21
457.567121
 31
0.0
  0
LINE
  5
62F
330
617
100
AcDbEntity
  8
LC-001-100-D00-0
 62
     7
370
    50
100
AcDbLine
 10
-160.332714
 20
440.363128
 30
0.0
 11
-158.832714
 21
441.863128
 31
0.0
  0
ENDBLK
  5
619
330
617
100
AcDbEntity
  8
0
100
AcDbBlockEnd
  0
BLOCK
  5
632
330
631
100
AcDbEntity
  8
0
100
AcDbBlockBegin
  2
KLON27
 70
     0
 71
     0
 10
0.0
 20
0.0
 30
0.0
  3
KLON27
  1

  4
KLON27
  0
LINE
  5
634
330
631
100
AcDbEntity
  8
LC-001-100-D00-0
 62
     7
370
    50
100
AcDbLine
 10
-295.036551
 20
440.363128
 30
0.0
 11
-293.636551
 21
441.763128
 31
0.0
  0
LINE
  5
635
330
631
100
AcDbEntity
  8
LC-001-100-D00-0
 62
     7
370
    50
100
AcDbLine
 10
-313.723683
 20
444.126636
 30
0.0
 11
-312.498938
 21
445.35138
 31
0.0
  0
LINE
  5
636
330
631
100
AcDbEntity
  8
LC-001-100-D00-0
 62
     7
370
    50
100
AcDbLine
 10
-334.93783
 20
445.363128
 30
0.0
 11
-333.43783
 21
446.863128
 31
0.0
  0
LINE
  5
637
330
631
100
AcDbEntity
  8
LC-001-100-D00-0
 62
     7
370
    50
100
AcDbLine
 10
-328.678083
 20
451.622876
 30
0.0
 11
-320.678083
 21
459.622876
 31
0.0
  0
LINE
  5
638
330
631
100
AcDbEntity
  8
LC-001-100-D00-0
 62
     7
370
    50
100
AcDbLine
 10
-357.388469
 20
445.363128
 30
0.0
 11
-355.888469
 21
446.863128
 31
0.0
  0
LINE
  5
639
330
631
100
AcDbEntity
  8
LC-001-100-D00-0
 62
     7
370
    50
100
AcDbLine
 10
-379.839109
 20
445.363128
 30
0.0
 11
-378.339109
 21
446.863128
 31
0.0
  0
LINE
  5
63A
330
631
100
AcDbEntity
  8
LC-001-100-D00-0
 62
     7
370
    50
100
AcDbLine
 10
-402.289748
 20
445.363128
 30
0.0
 11
-400.789748
 21
446.863128
 31
0.0
  0
LINE
  5
63B
330
631
100
AcDbEntity
  8
LC-001-100-D00-0
 62
     7
370
    50
100
AcDbLine
 10
-424.740388
 20
445.363128
 30
0.0
 11
-423.240388
 21
446.863128
 31
0.0
  0
LINE
  5
63C
330
631
100
AcDbEntity
  8
LC-001-100-D00-0
 62
     7
370
    50
100
AcDbLine
 10
-447.191027
 20
445.363128
 30
0.0
 11
-445.691027
 21
446.863128
 31
0.0
  0
LINE
  5
63D
330
631
100
AcDbEntity
  8
LC-001-100-D00-0
 62
     7
370
    50
100
AcDbLine
 10
-469.641667
 20
445.363128
 30
0.0
 11
-468.141667
 21
446.863128
 31
0.0
  0
LINE
  5
63E
330
631
100
AcDbEntity
  8
LC-001-100-D00-0
 62
     7
370
    50
100
AcDbLine
 10
-492.092306
 20
445.363128
 30
0.0
 11
-490.592306
 21
446.863128
 31
0.0
  0
LINE
  5
63F
330
631
100
AcDbEntity
  8
LC-001-100-D00-0
 62
     7
370
    50
100
AcDbLine
 10
-487.885712
 20
449.569723
 30
0.0
 11
-480.678083
 21
456.777352
 31
0.0
  0
LINE
  5
640
330
631
100
AcDbEntity
  8
LC-001-100-D00-0
 62
     7
370
    50
100
AcDbLine
 10
-514.542946
 20
445.363128
 30
0.0
 11
-513.042946
 21
446.863128
 31
0.0
  0
LINE
  5
641
330
631
100
AcDbEntity
  8
LC-001-100-D00-0
 62
     7
370
    50
100
AcDbLine
 10
-536.993585
 20
445.363128
 30
0.0
 11
-535.493585
 21
446.863128
 31
0.0
  0
LINE
  5
642
330
631
100
AcDbEntity
  8
LC-001-100-D00-0
 62
     7
370
    50
100
AcDbLine
 10
-559.444225
 20
445.363128
 30
0.0
 11
-557.944225
 21
446.863128
 31
0.0
  0
LINE
  5
643
330
631
100
AcDbEntity
  8
LC-001-100-D00-0
 62
     7
370
    50
100
AcDbLine
 10
-581.894864
 20
445.363128
 30
0.0
 11
-580.394864
 21
446.863128
 31
0.0
  0
LINE
  5
644
330
631
100
AcDbEntity
  8
LC-001-100-D00-0
 62
     7
370
    50
100
AcDbLine
 10
-604.345504
 20
445.363128
 30
0.0
 11
-602.845504
 21
446.863128
 31
0.0
  0
LINE
  5
645
330
631
100
AcDbEntity
  8
LC-001-100-D00-0
 62
     7
370
    50
100
AcDbLine
 10
-626.796143
 20
445.363128
 30
0.0
 11
-625.296143
 21
446.863128
 31
0.0
  0
LINE
  5
646
330
631
100
AcDbEntity
  8
LC-001-100-D00-0
 62
     7
370
    50
100
AcDbLine
 10
-649.246783
 20
445.363128
 30
0.0
 11
-640.678083
 21
453.931829
 31
0.0
  0
LINE
  5
647
330
631
100
AcDbEntity
  8
LC-001-100-D00-0
 62
     7
370
    50
100
AcDbLine
 10
-670.770676
 20
446.289874
 30
0.0
 11
-669.632069
 21
447.428482
 31
0.0
  0
LINE
  5
648
330
631
100
AcDbEntity
  8
LC-001-100-D00-0
 62
     7
370
    50
100
AcDbLine
 10
-676.178083
 20
463.333108
 30
0.0
 11
-674.710208
 21
464.800984
 31
0.0
  0
LINE
  5
649
330
631
100
AcDbEntity
  8
LC-001-100-D00-0
 62
     7
370
    50
100
AcDbLine
 10
-696.098703
 20
465.863128
 30
0.0
 11
-694.598703
 21
467.363128
 31
0.0
  0
LINE
  5
64A
330
631
100
AcDbEntity
  8
LC-001-100-D00-0
 62
     7
370
    50
100
AcDbLine
 10
-718.549342
 20
465.863128
 30
0.0
 11
-717.049342
 21
467.363128
 31
0.0
  0
ENDBLK
  5
633
330
631
100
AcDbEntity
  8
0
100
AcDbBlockEnd
  0
BLOCK
  5
64D
330
64C
100
AcDbEntity
  8
0
100
AcDbBlockBegin
  2
KLON28
 70
     0
 71
     0
 10
0.0
 20
0.0
 30
0.0
  3
KLON28
  1

  4
KLON28
  0
LINE
  5
64F
330
64C
100
AcDbEntity
  8
LC-001-100-D00-0
 62
     7
370
    50
100
AcDbLine
 10
-75.829514
 20
412.613128
 30
0.0
 11
-73.579514
 21
414.863128
 31
0.0
  0
LINE
  5
650
330
64C
100
AcDbEntity
  8
LC-001-100-D00-0
 62
     7
370
    50
100
AcDbLine
 10
-53.378874
 20
412.613128
 30
0.0
 11
-51.128874
 21
414.863128
 31
0.0
  0
LINE
  5
651
330
64C
100
AcDbEntity
  8
LC-001-100-D00-0
 62
     7
370
    50
100
AcDbLine
 10
-30.928234
 20
412.613128
 30
0.0
 11
-28.678234
 21
414.863128
 31
0.0
  0
ENDBLK
  5
64E
330
64C
100
AcDbEntity
  8
0
100
AcDbBlockEnd
  0
BLOCK
  5
654
330
653
100
AcDbEntity
  8
0
100
AcDbBlockBegin
  2
KLON29
 70
     0
 71
     0
 10
0.0
 20
0.0
 30
0.0
  3
KLON29
  1

  4
KLON29
  0
LINE
  5
656
330
653
100
AcDbEntity
  8
LC-001-100-D00-0
 62
     7
370
    50
100
AcDbLine
 10
-130.178286
 20
358.264353
 30
0.0
 11
-127.499466
 21
360.943172
 31
0.0
  0
LINE
  5
657
330
653
100
AcDbEntity
  8
LC-001-100-D00-0
 62
     7
370
    50
100
AcDbLine
 10
-101.128871
 20
364.863128
 30
0.0
 11
-98.878871
 21
367.113128
 31
0.0
  0
LINE
  5
658
330
653
100
AcDbEntity
  8
LC-001-100-D00-0
 62
     7
370
    50
100
AcDbLine
 10
-78.678231
 20
364.863128
 30
0.0
 11
-76.428231
 21
367.113128
 31
0.0
  0
LINE
  5
659
330
653
100
AcDbEntity
  8
LC-001-100-D00-0
 62
     7
370
    50
100
AcDbLine
 10
-56.227611
 20
364.863128
 30
0.0
 11
-53.977611
 21
367.113128
 31
0.0
  0
ENDBLK
  5
655
330
653
100
AcDbEntity
  8
0
100
AcDbBlockEnd
  0
BLOCK
  5
65C
330
65B
100
AcDbEntity
  8
0
100
AcDbBlockBegin
  2
KLON30
 70
     0
 71
     0
 10
0.0
 20
0.0
 30
0.0
  3
KLON30
  1

  4
KLON30
  0
LINE
  5
65E
330
65B
100
AcDbEntity
  8
LC-001-100-D00-0
 62
     7
370
    50
100
AcDbLine
 10
-197.178083
 20
381.067115
 30
0.0
 11
-195.678083
 21
382.567115
 31
0.0
  0
LINE
  5
65F
330
65B
100
AcDbEntity
  8
LC-001-100-D00-0
 62
     7
370
    50
100
AcDbLine
 10
-197.178083
 20
403.517756
 30
0.0
 11
-195.678083
 21
405.017756
 31
0.0
  0
LINE
  5
660
330
65B
100
AcDbEntity
  8
LC-001-100-D00-0
 62
     7
370
    50
100
AcDbLine
 10
-197.178083
 20
425.968398
 30
0.0
 11
-195.386619
 21
427.759862
 31
0.0
  0
LINE
  5
661
330
65B
100
AcDbEntity
  8
LC-001-100-D00-0
 62
     7
370
    50
100
AcDbLine
 10
-188.074817
 20
435.071664
 30
0.0
 11
-181.783353
 21
441.363128
 31
0.0
  0
ENDBLK
  5
65D
330
65B
100
AcDbEntity
  8
0
100
AcDbBlockEnd
  0
BLOCK
  5
664
330
663
100
AcDbEntity
  8
0
100
AcDbBlockBegin
  2
KLON31
 70
     0
 71
     0
 10
0.0
 20
0.0
 30
0.0
  3
KLON31
  1

  4
KLON31
  0
LINE
  5
666
330
663
100
AcDbEntity
  8
LC-001-100-D00-0
 62
     7
370
    50
100
AcDbLine
 10
-253.678083
 20
391.919034
 30
0.0
 11
-252.178083
 21
393.419035
 31
0.0
  0
LINE
  5
667
330
663
100
AcDbEntity
  8
LC-001-100-D00-0
 62
     7
370
    50
100
AcDbLine
 10
-253.678083
 20
414.369676
 30
0.0
 11
-252.178083
 21
415.869676
 31
0.0
  0
LINE
  5
668
330
663
100
AcDbEntity
  8
LC-001-100-D00-0
 62
     7
370
    50
100
AcDbLine
 10
-257.373246
 20
433.125153
 30
0.0
 11
-252.178083
 21
438.320317
 31
0.0
  0
LINE
  5
669
330
663
100
AcDbEntity
  8
LC-001-100-D00-0
 62
     7
370
    50
100
AcDbLine
 10
-277.585911
 20
435.363128
 30
0.0
 11
-271.585911
 21
441.363128
 31
0.0
  0
ENDBLK
  5
665
330
663
100
AcDbEntity
  8
0
100
AcDbBlockEnd
  0
BLOCK
  5
66C
330
66B
100
AcDbEntity
  8
0
100
AcDbBlockBegin
  2
KLON32
 70
     0
 71
     0
 10
0.0
 20
0.0
 30
0.0
  3
KLON32
  1

  4
KLON32
  0
LINE
  5
66E
330
66B
100
AcDbEntity
  8
LC-001-100-D00-0
 62
     7
370
    50
100
AcDbLine
 10
-195.931429
 20
359.863128
 30
0.0
 11
-194.431429
 21
361.363128
 31
0.0
  0
LINE
  5
66F
330
66B
100
AcDbEntity
  8
LC-001-100-D00-0
 62
     7
370
    50
100
AcDbLine
 10
-185.178083
 20
370.616475
 30
0.0
 11
-183.678083
 21
372.116475
 31
0.0
  0
LINE
  5
670
330
66B
100
AcDbEntity
  8
LC-001-100-D00-0
 62
     7
370
    50
100
AcDbLine
 10
-218.382068
 20
359.863128
 30
0.0
 11
-216.882068
 21
361.363128
 31
0.0
  0
LINE
  5
671
330
66B
100
AcDbEntity
  8
LC-001-100-D00-0
 62
     7
370
    50
100
AcDbLine
 10
-185.178083
 20
393.067116
 30
0.0
 11
-183.678083
 21
394.567116
 31
0.0
  0
LINE
  5
672
330
66B
100
AcDbEntity
  8
LC-001-100-D00-0
 62
     7
370
    50
100
AcDbLine
 10
-240.832708
 20
359.863128
 30
0.0
 11
-239.332708
 21
361.363128
 31
0.0
  0
LINE
  5
673
330
66B
100
AcDbEntity
  8
LC-001-100-D00-0
 62
     7
370
    50
100
AcDbLine
 10
-185.178083
 20
415.517757
 30
0.0
 11
-183.678083
 21
417.017757
 31
0.0
  0
LINE
  5
674
330
66B
100
AcDbEntity
  8
LC-001-100-D00-0
 62
     7
370
    50
100
AcDbLine
 10
-262.807322
 20
360.339154
 30
0.0
 11
-261.646658
 21
361.499817
 31
0.0
  0
LINE
  5
675
330
66B
100
AcDbEntity
  8
LC-001-100-D00-0
 62
     7
370
    50
100
AcDbLine
 10
-265.678083
 20
379.919034
 30
0.0
 11
-264.178083
 21
381.419034
 31
0.0
  0
LINE
  5
676
330
66B
100
AcDbEntity
  8
LC-001-100-D00-0
 62
     7
370
    50
100
AcDbLine
 10
-265.678083
 20
402.369675
 30
0.0
 11
-264.178083
 21
403.869675
 31
0.0
  0
LINE
  5
677
330
66B
100
AcDbEntity
  8
LC-001-100-D00-0
 62
     7
370
    50
100
AcDbLine
 10
-265.678083
 20
424.820316
 30
0.0
 11
-264.178083
 21
426.320316
 31
0.0
  0
LINE
  5
678
330
66B
100
AcDbEntity
  8
LC-001-100-D00-0
 62
     7
370
    50
100
AcDbLine
 10
-279.585911
 20
433.363128
 30
0.0
 11
-277.585911
 21
435.363128
 31
0.0
  0
ENDBLK
  5
66D
330
66B
100
AcDbEntity
  8
0
100
AcDbBlockEnd
  0
BLOCK
  5
67D
330
67C
100
AcDbEntity
  8
0
100
AcDbBlockBegin
  2
KLON33
 70
     0
 71
     0
 10
0.0
 20
0.0
 30
0.0
  3
KLON33
  1

  4
KLON33
  0
LINE
  5
67F
330
67C
100
AcDbEntity
  8
LC-001-100-D00-0
 62
     7
370
    50
100
AcDbLine
 10
-480.778083
 20
456.677352
 30
0.0
 11
-474.928083
 21
462.527353
 31
0.0
  0
LINE
  5
680
330
67C
100
AcDbEntity
  8
LC-001-100-D00-0
 62
     7
370
    50
100
AcDbLine
 10
-473.092308
 20
464.363128
 30
0.0
 11
-470.092308
 21
467.363128
 31
0.0
  0
ENDBLK
  5
67E
330
67C
100
AcDbEntity
  8
0
100
AcDbBlockEnd
  0
BLOCK
  5
684
330
683
100
AcDbEntity
  8
0
100
AcDbBlockBegin
  2
KLON34
 70
     0
 71
     0
 10
0.0
 20
0.0
 30
0.0
  3
KLON34
  1

  4
KLON34
  0
LINE
  5
686
330
683
100
AcDbEntity
  8
LC-001-100-D00-0
 62
     7
370
    50
100
AcDbLine
 10
-140.332715
 20
460.363128
 30
0.0
 11
-139.928083
 21
460.767761
 31
0.0
  0
LINE
  5
687
330
683
100
AcDbEntity
  8
LC-001-100-D00-0
 62
     7
370
    50
100
AcDbLine
 10
-136.332715
 20
464.363128
 30
0.0
 11
-133.332716
 21
467.363128
 31
0.0
  0
ENDBLK
  5
685
330
683
100
AcDbEntity
  8
0
100
AcDbBlockEnd
  0
BLOCK
  5
68A
330
689
100
AcDbEntity
  8
0
100
AcDbBlockBegin
  2
KLON35
 70
     0
 71
     0
 10
0.0
 20
0.0
 30
0.0
  3
KLON35
  1

  4
KLON35
  0
LINE
  5
68C
330
689
100
AcDbEntity
  8
LC-001-100-D00-0
 62
     7
370
    50
100
AcDbLine
 10
-120.778083
 20
457.467121
 30
0.0
 11
-114.928083
 21
463.317121
 31
0.0
  0
LINE
  5
68D
330
689
100
AcDbEntity
  8
LC-001-100-D00-0
 62
     7
370
    50
100
AcDbLine
 10
-113.882076
 20
464.363128
 30
0.0
 11
-110.882076
 21
467.363128
 31
0.0
  0
ENDBLK
  5
68B
330
689
100
AcDbEntity
  8
0
100
AcDbBlockEnd
  0
BLOCK
  5
690
330
68F
100
AcDbEntity
  8
0
100
AcDbBlockBegin
  2
KLON36
 70
     0
 71
     0
 10
0.0
 20
0.0
 30
0.0
  3
KLON36
  1

  4
KLON36
  0
LINE
  5
692
330
68F
100
AcDbEntity
  8
LC-001-100-D00-0
 62
     7
370
    50
100
AcDbLine
 10
28.971064
 20
450.061791
 30
0.0
 11
29.382699
 21
450.473425
 31
0.0
  0
LINE
  5
693
330
68F
100
AcDbEntity
  8
LC-001-100-D00-0
 62
     7
370
    50
100
AcDbLine
 10
30.121917
 20
451.212644
 30
0.0
 11
31.921917
 21
453.012644
 31
0.0
  0
ENDBLK
  5
691
330
68F
100
AcDbEntity
  8
0
100
AcDbBlockEnd
  0
BLOCK
  5
696
330
695
100
AcDbEntity
  8
0
100
AcDbBlockBegin
  2
KLON37
 70
     0
 71
     0
 10
0.0
 20
0.0
 30
0.0
  3
KLON37
  1

  4
KLON37
  0
LINE
  5
698
330
695
100
AcDbEntity
  8
LC-001-100-D00-0
 62
     7
370
    50
100
AcDbLine
 10
27.272402
 20
448.363128
 30
0.0
 11
28.971064
 21
450.061791
 31
0.0
  0
LINE
  5
699
330
695
100
AcDbEntity
  8
LC-001-100-D00-0
 62
     7
370
    50
100
AcDbLine
 10
29.272401
 20
450.363128
 30
0.0
 11
30.121917
 21
451.212644
 31
0.0
  0
LINE
  5
69A
330
695
100
AcDbEntity
  8
LC-001-100-D00-0
 62
     7
370
    50
100
AcDbLine
 10
17.071917
 20
460.613284
 30
0.0
 11
20.071917
 21
463.613284
 31
0.0
  0
LINE
  5
69B
330
695
100
AcDbEntity
  8
LC-001-100-D00-0
 62
     7
370
    50
100
AcDbLine
 10
20.821761
 20
464.363128
 30
0.0
 11
23.821761
 21
467.363128
 31
0.0
  0
ENDBLK
  5
697
330
695
100
AcDbEntity
  8
0
100
AcDbBlockEnd
  0
BLOCK
  5
6A1
330
6A0
100
AcDbEntity
  8
0
100
AcDbBlockBegin
  2
KLON38
 70
     0
 71
     0
 10
0.0
 20
0.0
 30
0.0
  3
KLON38
  1

  4
KLON38
  0
LINE
  5
6A3
330
6A0
100
AcDbEntity
  8
LC-001-100-D00-0
 62
     7
370
    50
100
AcDbLine
 10
-638.32723
 20
456.282682
 30
0.0
 11
-634.928083
 21
459.681829
 31
0.0
  0
LINE
  5
6A4
330
6A0
100
AcDbEntity
  8
LC-001-100-D00-0
 62
     7
370
    50
100
AcDbLine
 10
-630.246784
 20
464.363128
 30
0.0
 11
-627.260864
 21
467.349048
 31
0.0
  0
ENDBLK
  5
6A2
330
6A0
100
AcDbEntity
  8
0
100
AcDbBlockEnd
  0
BLOCK
  5
6A8
330
6A7
100
AcDbEntity
  8
0
100
AcDbBlockBegin
  2
KLON39
 70
     0
 71
     0
 10
0.0
 20
0.0
 30
0.0
  3
KLON39
  1

  4
KLON39
  0
LINE
  5
6AA
330
6A7
100
AcDbEntity
  8
LC-001-100-D00-0
 62
     7
370
    50
100
AcDbLine
 10
-331.93783
 20
448.363128
 30
0.0
 11
-331.028936
 21
449.272023
 31
0.0
  0
LINE
  5
6AB
330
6A7
100
AcDbEntity
  8
LC-001-100-D00-0
 62
     7
370
    50
100
AcDbLine
 10
-342.38847
 20
460.363128
 30
0.0
 11
-339.928083
 21
462.823516
 31
0.0
  0
LINE
  5
6AC
330
6A7
100
AcDbEntity
  8
LC-001-100-D00-0
 62
     7
370
    50
100
AcDbLine
 10
-338.388471
 20
464.363128
 30
0.0
 11
-335.388471
 21
467.363128
 31
0.0
  0
ENDBLK
  5
6A9
330
6A7
100
AcDbEntity
  8
0
100
AcDbBlockEnd
  0
BLOCK
  5
6B1
330
6B0
100
AcDbEntity
  8
0
100
AcDbBlockBegin
  2
KLON40
 70
     0
 71
     0
 10
0.0
 20
0.0
 30
0.0
  3
KLON40
  1

  4
KLON40
  0
LINE
  5
6B3
330
6B0
100
AcDbEntity
  8
LC-001-100-D00-0
 62
     7
370
    50
100
AcDbLine
 10
185.571917
 20
449.508168
 30
0.0
 11
190.09338
 21
454.029631
 31
0.0
  0
LINE
  5
6B4
330
6B0
100
AcDbEntity
  8
LC-001-100-D00-0
 62
     7
370
    50
100
AcDbLine
 10
177.071917
 20
463.458808
 30
0.0
 11
180.976237
 21
467.363128
 31
0.0
  0
ENDBLK
  5
6B2
330
6B0
100
AcDbEntity
  8
0
100
AcDbBlockEnd
  0
ENDSEC
  0
SECTION
  2
ENTITIES
  0
ARC
  5
31
330
1F
100
AcDbEntity
  8
LC-001-100-D00-0
 62
     7
370
    50
100
AcDbCircle
 10
222.821917
 20
43.510965
 30
0.0
 40
2.5
100
AcDbArc
 50
0.0
 51
90.0
  0
ARC
  5
32
330
1F
100
AcDbEntity
  8
LC-001-100-D00-0
 62
     7
370
    50
100
AcDbCircle
 10
222.821917
 20
-3.489035
 30
0.0
 40
2.5
100
AcDbArc
 50
270.0
 51
0.0
  0
LINE
  5
33
330
1F
100
AcDbEntity
  8
LC-001-100-D00-0
 62
     7
370
    50
100
AcDbLine
 10
225.321917
 20
-3.489035
 30
0.0
 11
225.321917
 21
43.510965
 31
0.0
  0
LINE
  5
34
330
1F
100
AcDbEntity
  8
LC-001-100-D00-0
 62
     7
370
    50
100
AcDbLine
 10
222.821917
 20
-5.989035
 30
0.0
 11
-672.178083
 21
-5.989035
 31
0.0
  0
LINE
  5
35
330
1F
100
AcDbEntity
  8
LC-001-100-D00-0
 62
     7
370
    50
100
AcDbLine
 10
-672.178083
 20
46.010965
 30
0.0
 11
222.821917
 21
46.010965
 31
0.0
  0
ARC
  5
36
330
1F
100
AcDbEntity
  8
LC-001-100-D00-0
 62
     7
370
    50
100
AcDbCircle
 10
-672.178083
 20
43.510965
 30
0.0
 40
2.5
100
AcDbArc
 50
90.0
 51
180.0
  0
ARC
  5
37
330
1F
100
AcDbEntity
  8
LC-001-100-D00-0
 62
     7
370
    50
100
AcDbCircle
 10
-672.178083
 20
-3.489035
 30
0.0
 40
2.5
100
AcDbArc
 50
180.0
 51
270.0
  0
LINE
  5
38
330
1F
100
AcDbEntity
  8
LC-001-100-D00-0
 62
     7
370
    50
100
AcDbLine
 10
-674.678083
 20
-3.489035
 30
0.0
 11
-674.678083
 21
43.510965
 31
0.0
  0
ARC
  5
39
330
1F
100
AcDbEntity
  8
LC-001-100-D00-0
 62
     7
370
    50
100
AcDbCircle
 10
-719.678083
 20
92.510965
 30
0.0
 40
5.0
100
AcDbArc
 50
90.0
 51
180.0
  0
LINE
  5
3A
330
1F
100
AcDbEntity
  8
LC-001-100-D00-0
 62
     7
370
    50
100
AcDbLine
 10
270.321917
 20
97.510965
 30
0.0
 11
-719.678083
 21
97.510965
 31
0.0
  0
ARC
  5
3B
330
1F
100
AcDbEntity
  8
LC-001-100-D00-0
 62
     7
370
    50
100
AcDbCircle
 10
270.321917
 20
92.510965
 30
0.0
 40
5.0
100
AcDbArc
 50
0.0
 51
90.0
  0
LINE
  5
3C
330
1F
100
AcDbEntity
  8
LC-001-100-D00-0
 62
     7
370
    50
100
AcDbLine
 10
275.321917
 20
92.510965
 30
0.0
 11
275.321917
 21
-52.489035
 31
0.0
  0
ARC
  5
3D
330
1F
100
AcDbEntity
  8
LC-001-100-D00-0
 62
     7
370
    50
100
AcDbCircle
 10
270.321917
 20
-52.489035
 30
0.0
 40
5.0
100
AcDbArc
 50
270.0
 51
0.0
  0
LINE
  5
3E
330
1F
100
AcDbEntity
  8
LC-001-100-D00-0
 62
     7
370
    50
100
AcDbLine
 10
-719.678083
 20
-57.489035
 30
0.0
 11
270.321917
 21
-57.489035
 31
0.0
  0
ARC
  5
3F
330
1F
100
AcDbEntity
  8
LC-001-100-D00-0
 62
     7
370
    50
100
AcDbCircle
 10
-719.678083
 20
-52.489035
 30
0.0
 40
5.0
100
AcDbArc
 50
180.0
 51
270.0
  0
LINE
  5
40
330
1F
100
AcDbEntity
  8
LC-001-100-D00-0
 62
     7
370
    50
100
AcDbLine
 10
-724.678083
 20
92.510965
 30
0.0
 11
-724.678083
 21
-52.489035
 31
0.0
  0
CIRCLE
  5
41
330
1F
100
AcDbEntity
  8
LC-001-100-D00-0
 62
     7
370
    50
100
AcDbCircle
 10
195.321917
 20
20.010965
 30
0.0
 40
2.999999999999773
  0
CIRCLE
  5
42
330
1F
100
AcDbEntity
  8
LC-001-100-D00-0
 62
     7
370
    50
100
AcDbCircle
 10
35.321917
 20
20.010965
 30
0.0
 40
2.999999999999773
  0
CIRCLE
  5
43
330
1F
100
AcDbEntity
  8
LC-001-100-D00-0
 62
     7
370
    50
100
AcDbCircle
 10
-124.678083
 20
20.010965
 30
0.0
 40
2.999999999999773
  0
CIRCLE
  5
44
330
1F
100
AcDbEntity
  8
LC-001-100-D00-0
 62
     7
370
    50
100
AcDbCircle
 10
-324.678083
 20
20.010965
 30
0.0
 40
2.999999999999773
  0
CIRCLE
  5
45
330
1F
100
AcDbEntity
  8
LC-001-100-D00-0
 62
     7
370
    50
100
AcDbCircle
 10
-484.678083
 20
20.010965
 30
0.0
 40
2.999999999999773
  0
CIRCLE
  5
46
330
1F
100
AcDbEntity
  8
LC-001-100-D00-0
 62
     7
370
    50
100
AcDbCircle
 10
-644.678083
 20
20.010965
 30
0.0
 40
3.000000000000114
  0
LINE
  5
47
330
1F
100
AcDbEntity
  8
LC-001-100-D00-0
 62
     7
370
    50
100
AcDbLine
 10
217.295722
 20
7.688296
 30
0.0
 11
217.295722
 21
-3.489035
 31
0.0
  0
ARC
  5
48
330
1F
100
AcDbEntity
  8
LC-001-100-D00-0
 62
     7
370
    50
100
AcDbCircle
 10
980.481884
 20
-111.6032
 30
0.0
 40
772.4529614869407
100
AcDbArc
 50
171.103568
 51
171.116141
  0
INSERT
  5
50
330
1F
100
AcDbEntity
  8
LC-001-100-D00-0
 62
     7
370
    50
100
AcDbBlockReference
  2
KLON1
 10
0.0
 20
0.0
 30
0.0
  0
LINE
  5
51
330
1F
100
AcDbEntity
  8
LC-001-100-D00-0
 62
     7
370
    50
100
AcDbLine
 10
217.295722
 20
43.496325
 30
0.0
 11
217.295722
 21
32.333633
 31
0.0
  0
INSERT
  5
57
330
1F
100
AcDbEntity
  8
LC-001-100-D00-0
 62
     7
370
    50
100
AcDbBlockReference
  2
KLON2
 10
0.0
 20
0.0
 30
0.0
  0
INSERT
  5
5D
330
1F
100
AcDbEntity
  8
LC-001-100-D00-0
 62
     7
370
    50
100
AcDbBlockReference
  2
KLON3
 10
0.0
 20
0.0
 30
0.0
  0
INSERT
  5
63
330
1F
100
AcDbEntity
  8
LC-001-100-D00-0
 62
     7
370
    50
100
AcDbBlockReference
  2
KLON4
 10
0.0
 20
0.0
 30
0.0
  0
LINE
  5
64
330
1F
100
AcDbEntity
  8
LC-001-100-D00-0
 62
     7
370
    50
100
AcDbLine
 10
-666.651888
 20
43.496325
 30
0.0
 11
-666.651888
 21
32.333633
 31
0.0
  0
INSERT
  5
6C
330
1F
100
AcDbEntity
  8
LC-001-100-D00-0
 62
     7
370
    50
100
AcDbBlockReference
  2
KLON5
 10
0.0
 20
0.0
 30
0.0
  0
ARC
  5
6D
330
1F
100
AcDbEntity
  8
LC-001-100-D00-0
 62
     7
370
    50
100
AcDbCircle
 10
-1429.83805
 20
-111.6032
 30
0.0
 40
772.4529614869305
100
AcDbArc
 50
8.883859
 51
8.896432
  0
LINE
  5
6E
330
1F
100
AcDbEntity
  8
LC-001-100-D00-0
 62
     7
370
    50
100
AcDbLine
 10
-666.651888
 20
7.688296
 30
0.0
 11
-666.651888
 21
-3.489035
 31
0.0
  0
INSERT
  5
74
330
1F
100
AcDbEntity
  8
LC-001-100-D00-0
 62
     7
370
    50
100
AcDbBlockReference
  2
KLON6
 10
0.0
 20
0.0
 30
0.0
  0
ELLIPSE
  5
75
330
1F
100
AcDbEntity
  8
LC-001-100-D00-0
 62
     7
370
    50
100
AcDbEllipse
 10
217.248949
 20
-3.489035
 30
0.0
 11
0.0
 21
-2.499999763488758
 31
0.0
210
0.0
220
0.0
230
1.0
 40
0.018242
 41
3.141592653603504
 42
4.712388980377414
  0
ELLIPSE
  5
76
330
1F
100
AcDbEntity
  8
LC-001-100-D00-0
 62
     7
370
    50
100
AcDbEllipse
 10
285.794554
 20
-3.489035
 30
0.0
 11
68.50000000326608
 21
0.0
 31
0.0
210
0.0
220
0.0
230
1.0
 40
0.036496
 41
3.141592653597524
 42
3.169858841660725
  0
ELLIPSE
  5
77
330
1F
100
AcDbEntity
  8
LC-001-100-D00-0
 62
     7
370
    50
100
AcDbEllipse
 10
80.248949
 20
-3.489035
 30
0.0
 11
0.0
 21
-2.499999755859363
 31
0.0
210
0.0
220
0.0
230
0.9999999999999999
 40
0.018242
 41
3.141592653597272
 42
4.712388980381188
  0
ELLIPSE
  5
78
330
1F
100
AcDbEntity
  8
LC-001-100-D00-0
 62
     7
370
    50
100
AcDbEllipse
 10
-666.605115
 20
-3.489035
 30
0.0
 11
0.0
 21
-2.499999847412105
 31
0.0
210
0.0
220
0.0
230
1.0
 40
0.018242
 41
1.570796326802264
 42
3.141592653589793
  0
ELLIPSE
  5
79
330
1F
100
AcDbEntity
  8
LC-001-100-D00-0
 62
     7
370
    50
100
AcDbEllipse
 10
-529.605115
 20
-3.489035
 30
0.0
 11
0.0
 21
-2.5
 31
0.0
210
0.0
220
0.0
230
1.0
 40
0.018242
 41
1.570796326798535
 42
3.1415926535873
  0
ELLIPSE
  5
7A
330
1F
100
AcDbEntity
  8
LC-001-100-D00-0
 62
     7
370
    50
100
AcDbEllipse
 10
-735.15072
 20
-3.489035
 30
0.0
 11
68.49999999305703
 21
0.0
 31
0.0
210
0.0
220
0.0
230
0.9999999999999999
 40
0.036496
 41
6.254919119109309
 42
6.28318530717945
  0
ELLIPSE
  5
7B
330
1F
100
AcDbEntity
  8
LC-001-100-D00-0
 62
     7
370
    50
100
AcDbEllipse
 10
285.794554
 20
43.510965
 30
0.0
 11
68.49999999999965
 21
0.0
 31
0.0
210
0.0
220
0.0
230
1.0
 40
0.036496
 41
3.141592653589793
 42
3.147448628039316
  0
ELLIPSE
  5
7C
330
1F
100
AcDbEntity
  8
LC-001-100-D00-0
 62
     7
370
    50
100
AcDbEllipse
 10
217.248949
 20
43.510965
 30
0.0
 11
0.0
 21
-2.499999519348099
 31
0.0
210
0.0
220
0.0
230
0.9999999999999999
 40
0.018242
 41
4.712388980384778
 42
6.283185334701847
  0
ELLIPSE
  5
7D
330
1F
100
AcDbEntity
  8
LC-001-100-D00-0
 62
     7
370
    50
100
AcDbEllipse
 10
-735.15072
 20
43.510965
 30
0.0
 11
68.49999999999493
 21
0.0
 31
0.0
210
0.0
220
0.0
230
1.0
 40
0.036496
 41
6.27732933273079
 42
6.283185307179586
  0
ELLIPSE
  5
7E
330
1F
100
AcDbEntity
  8
LC-001-100-D00-0
 62
     7
370
    50
100
AcDbEllipse
 10
-666.605115
 20
43.510965
 30
0.0
 11
0.0
 21
-2.499999755859363
 31
0.0
210
0.0
220
0.0
230
0.9999999999999999
 40
0.018242
 41
6.283185279648603
 42
7.853981633974525
  0
ELLIPSE
  5
7F
330
1F
100
AcDbEntity
  8
LC-001-100-D00-0
 62
     7
370
    50
100
AcDbEllipse
 10
80.248949
 20
43.510965
 30
0.0
 11
0.0
 21
-2.5
 31
0.0
210
0.0
220
0.0
230
1.0
 40
0.018242
 41
4.71238898038851
 42
6.283185319793071
  0
ELLIPSE
  5
80
330
1F
100
AcDbEntity
  8
LC-001-100-D00-0
 62
     7
370
    50
100
AcDbEllipse
 10
-529.605115
 20
43.510965
 30
0.0
 11
0.0
 21
-2.500000061035156
 31
0.0
210
0.0
220
0.0
230
1.0
 40
0.018242
 41
6.283185294563298
 42
7.853981633970664
  0
LINE
  5
81
330
1F
100
AcDbEntity
  8
LC-001-100-D00-0
 62
     7
370
    50
100
AcDbLine
 10
80.294566
 20
-3.489035
 30
0.0
 11
80.294566
 21
-0.638519
 31
0.0
  0
INSERT
  5
87
330
1F
100
AcDbEntity
  8
LC-001-100-D00-0
 62
     7
370
    50
100
AcDbBlockReference
  2
KLON7
 10
0.0
 20
0.0
 30
0.0
  0
INSERT
  5
8D
330
1F
100
AcDbEntity
  8
LC-001-100-D00-0
 62
     7
370
    50
100
AcDbBlockReference
  2
KLON8
 10
0.0
 20
0.0
 30
0.0
  0
LINE
  5
8E
330
1F
100
AcDbEntity
  8
LC-001-100-D00-0
 62
     7
370
    50
100
AcDbLine
 10
-529.650732
 20
-3.489035
 30
0.0
 11
-529.650732
 21
-0.638519
 31
0.0
  0
INSERT
  5
95
330
1F
100
AcDbEntity
  8
LC-001-100-D00-0
 62
     7
370
    50
100
AcDbBlockReference
  2
KLON9
 10
0.0
 20
0.0
 30
0.0
  0
INSERT
  5
9B
330
1F
100
AcDbEntity
  8
LC-001-100-D00-0
 62
     7
370
    50
100
AcDbBlockReference
  2
KLON10
 10
0.0
 20
0.0
 30
0.0
  0
INSERT
  5
A2
330
1F
100
AcDbEntity
  8
LC-001-100-D00-0
 62
     7
370
    50
100
AcDbBlockReference
  2
KLON11
 10
0.0
 20
0.0
 30
0.0
  0
INSERT
  5
A9
330
1F
100
AcDbEntity
  8
LC-001-100-D00-0
 62
     7
370
    50
100
AcDbBlockReference
  2
KLON12
 10
0.0
 20
0.0
 30
0.0
  0
INSERT
  5
B0
330
1F
100
AcDbEntity
  8
LC-001-100-D00-0
 62
     7
370
    50
100
AcDbBlockReference
  2
KLON13
 10
0.0
 20
0.0
 30
0.0
  0
INSERT
  5
B6
330
1F
100
AcDbEntity
  8
LC-001-100-D00-0
 62
     7
370
    50
100
AcDbBlockReference
  2
KLON14
 10
0.0
 20
0.0
 30
0.0
  0
LINE
  5
B7
330
1F
100
AcDbEntity
  8
LC-001-100-D00-0
 62
     7
370
    50
100
AcDbLine
 10
80.294566
 20
40.660448
 30
0.0
 11
80.294566
 21
43.510964
 31
0.0
  0
LINE
  5
B8
330
1F
100
AcDbEntity
  8
LC-001-100-D00-0
 62
     7
370
    50
100
AcDbLine
 10
-529.650732
 20
40.660448
 30
0.0
 11
-529.650732
 21
43.510964
 31
0.0
  0
LINE
  5
B9
330
1F
100
AcDbEntity
  8
LC-001-100-D00-0
 62
     7
370
    50
100
AcDbLine
 10
80.308841
 20
0.155286
 30
0.0
 11
80.308841
 21
14.150014
 31
0.0
  0
ELLIPSE
  5
BA
330
1F
100
AcDbEntity
  8
LC-001-100-D00-0
 62
     7
370
    15
100
AcDbEllipse
 10
168.047699
 20
162.087101
 30
0.0
 11
28.64933028158269
 21
1.713494946687143
 31
0.0
210
0.0
220
0.0
230
1.0
 40
0.016531
 41
6.280994665941091
 42
6.282196627518748
  0
ELLIPSE
  5
BB
330
1F
100
AcDbEntity
  8
LC-001-100-D00-0
 62
     7
370
    15
100
AcDbEllipse
 10
168.047699
 20
173.455424
 30
0.0
 11
28.64933032563959
 21
-1.71349494932216
 31
0.0
210
0.0
220
0.0
230
1.0
 40
0.016531
 41
0.0009886796642464
 42
0.0021906412416245
  0
LINE
  5
BC
330
1F
100
AcDbEntity
  8
LC-001-100-D00-0
 62
     7
370
    50
100
AcDbLine
 10
80.308841
 20
25.871915
 30
0.0
 11
80.308841
 21
39.866643
 31
0.0
  0
ELLIPSE
  5
BD
330
1F
100
AcDbEntity
  8
LC-001-100-D00-0
 62
     7
370
    15
100
AcDbEllipse
 10
103.351623
 20
162.087101
 30
0.0
 11
28.64933027133702
 21
-1.713494946074474
 31
0.0
210
0.0
220
0.0
230
1.0
 40
0.016531
 41
3.142581333257065
 42
3.143783294834701
  0
LINE
  5
BE
330
1F
100
AcDbEntity
  8
LC-001-100-D00-0
 62
     7
370
    50
100
AcDbLine
 10
-529.665007
 20
0.155286
 30
0.0
 11
-529.665007
 21
14.150014
 31
0.0
  0
ELLIPSE
  5
BF
330
1F
100
AcDbEntity
  8
LC-001-100-D00-0
 62
     7
370
    15
100
AcDbEllipse
 10
103.351623
 20
173.455424
 30
0.0
 11
28.64933022864605
 21
1.713494943521101
 31
0.0
210
0.0
220
0.0
230
1.0
 40
0.016531
 41
3.139402012347838
 42
3.140603973925381
  0
LINE
  5
C0
330
1F
100
AcDbEntity
  8
LC-001-100-D00-0
 62
     7
370
    50
100
AcDbLine
 10
-529.665007
 20
25.871915
 30
0.0
 11
-529.665007
 21
39.866643
 31
0.0
  0
LINE
  5
C1
330
1F
100
AcDbEntity
  8
LC-001-100-D00-0
 62
     7
370
    50
100
AcDbLine
 10
80.294566
 20
-0.638146
 30
0.0
 11
80.308722
 21
0.152424
 31
0.0
  0
LINE
  5
C2
330
1F
100
AcDbEntity
  8
LC-001-100-D00-0
 62
     7
370
    50
100
AcDbLine
 10
80.294566
 20
40.660075
 30
0.0
 11
80.308722
 21
39.869505
 31
0.0
  0
LINE
  5
C3
330
1F
100
AcDbEntity
  8
LC-001-100-D00-0
 62
     7
370
    50
100
AcDbLine
 10
-529.650732
 20
-0.638146
 30
0.0
 11
-529.664888
 21
0.152424
 31
0.0
  0
LINE
  5
C4
330
1F
100
AcDbEntity
  8
LC-001-100-D00-0
 62
     7
370
    50
100
AcDbLine
 10
-529.650732
 20
40.660075
 30
0.0
 11
-529.664888
 21
39.869505
 31
0.0
  0
ARC
  5
C5
330
1F
100
AcDbEntity
  8
LC-001-100-D00-0
 62
     7
370
    50
100
AcDbCircle
 10
-194.178091
 20
20.010985
 30
0.0
 40
24.80002105913741
100
AcDbArc
 50
270.0
 51
300.592807
  0
ARC
  5
C6
330
1F
100
AcDbEntity
  8
LC-001-100-D00-0
 62
     7
370
    50
100
AcDbCircle
 10
-255.178075
 20
20.010985
 30
0.0
 40
24.80002105913738
100
AcDbArc
 50
239.407193
 51
270.0
  0
ARC
  5
C7
330
1F
100
AcDbEntity
  8
LC-001-100-D00-0
 62
     7
370
    50
100
AcDbCircle
 10
-194.178089
 20
20.010952
 30
0.0
 40
24.80001358063578
100
AcDbArc
 50
59.407188
 51
90.0
  0
ARC
  5
C8
330
1F
100
AcDbEntity
  8
LC-001-100-D00-0
 62
     7
370
    50
100
AcDbCircle
 10
-255.178077
 20
20.010952
 30
0.0
 40
24.80001358063578
100
AcDbArc
 50
90.0
 51
120.592812
  0
LINE
  5
C9
330
1F
100
AcDbEntity
  8
LC-001-100-D00-0
 62
     7
370
    50
100
AcDbLine
 10
-255.178083
 20
44.810965
 30
0.0
 11
-194.178083
 21
44.810965
 31
0.0
  0
LINE
  5
CA
330
1F
100
AcDbEntity
  8
LC-001-100-D00-0
 62
     7
370
    50
100
AcDbLine
 10
-194.178083
 20
-4.789036
 30
0.0
 11
-255.178083
 21
-4.789036
 31
0.0
  0
LINE
  5
CB
330
1F
100
AcDbEntity
  8
LC-001-100-D00-0
 62
     7
370
    50
100
AcDbLine
 10
-291.510916
 20
23.449868
 30
0.0
 11
-291.502772
 21
23.081976
 31
0.0
  0
LINE
  5
CC
330
1F
100
AcDbEntity
  8
LC-001-100-D00-0
 62
     7
370
    50
100
AcDbLine
 10
-292.622192
 20
24.242836
 30
0.0
 11
-291.510916
 21
23.449868
 31
0.0
  0
LINE
  5
CD
330
1F
100
AcDbEntity
  8
LC-001-100-D00-0
 62
     7
370
    50
100
AcDbLine
 10
-291.510916
 20
25.035805
 30
0.0
 11
-292.622192
 21
24.242836
 31
0.0
  0
LINE
  5
CE
330
1F
100
AcDbEntity
  8
LC-001-100-D00-0
 62
     7
370
    50
100
AcDbLine
 10
-291.510916
 20
25.409503
 30
0.0
 11
-291.510916
 21
25.035805
 31
0.0
  0
LINE
  5
CF
330
1F
100
AcDbEntity
  8
LC-001-100-D00-0
 62
     7
370
    50
100
AcDbLine
 10
-292.884416
 20
24.430036
 30
0.0
 11
-291.510916
 21
25.409503
 31
0.0
  0
LINE
  5
D0
330
1F
100
AcDbEntity
  8
LC-001-100-D00-0
 62
     7
370
    50
100
AcDbLine
 10
-294.068611
 20
25.274888
 30
0.0
 11
-292.884416
 21
24.430036
 31
0.0
  0
LINE
  5
D1
330
1F
100
AcDbEntity
  8
LC-001-100-D00-0
 62
     7
370
    50
100
AcDbLine
 10
-294.068611
 20
24.901189
 30
0.0
 11
-294.068611
 21
25.274888
 31
0.0
  0
LINE
  5
D2
330
1F
100
AcDbEntity
  8
LC-001-100-D00-0
 62
     7
370
    50
100
AcDbLine
 10
-293.145931
 20
24.242836
 30
0.0
 11
-294.068611
 21
24.901189
 31
0.0
  0
LINE
  5
D3
330
1F
100
AcDbEntity
  8
LC-001-100-D00-0
 62
     7
370
    50
100
AcDbLine
 10
-294.068611
 20
23.584483
 30
0.0
 11
-293.145931
 21
24.242836
 31
0.0
  0
LINE
  5
D4
330
1F
100
AcDbEntity
  8
LC-001-100-D00-0
 62
     7
370
    50
100
AcDbLine
 10
-294.068611
 20
23.210785
 30
0.0
 11
-294.068611
 21
23.584483
 31
0.0
  0
LINE
  5
D5
330
1F
100
AcDbEntity
  8
LC-001-100-D00-0
 62
     7
370
    50
100
AcDbLine
 10
-292.884416
 20
24.056338
 30
0.0
 11
-294.068611
 21
23.210785
 31
0.0
  0
LINE
  5
D6
330
1F
100
AcDbEntity
  8
LC-001-100-D00-0
 62
     7
370
    50
100
AcDbLine
 10
-291.502772
 20
23.081976
 30
0.0
 11
-292.884416
 21
24.056338
 31
0.0
  0
LINE
  5
D7
330
1F
100
AcDbEntity
  8
LC-001-100-D00-0
 62
     7
370
    50
100
AcDbLine
 10
-291.510916
 20
18.783201
 30
0.0
 11
-291.502772
 21
18.415309
 31
0.0
  0
LINE
  5
D8
330
1F
100
AcDbEntity
  8
LC-001-100-D00-0
 62
     7
370
    50
100
AcDbLine
 10
-292.622192
 20
19.57617
 30
0.0
 11
-291.510916
 21
18.783201
 31
0.0
  0
LINE
  5
D9
330
1F
100
AcDbEntity
  8
LC-001-100-D00-0
 62
     7
370
    50
100
AcDbLine
 10
-291.510916
 20
20.369138
 30
0.0
 11
-292.622192
 21
19.57617
 31
0.0
  0
LINE
  5
DA
330
1F
100
AcDbEntity
  8
LC-001-100-D00-0
 62
     7
370
    50
100
AcDbLine
 10
-291.510916
 20
20.742836
 30
0.0
 11
-291.510916
 21
20.369138
 31
0.0
  0
LINE
  5
DB
330
1F
100
AcDbEntity
  8
LC-001-100-D00-0
 62
     7
370
    50
100
AcDbLine
 10
-292.884416
 20
19.763369
 30
0.0
 11
-291.510916
 21
20.742836
 31
0.0
  0
LINE
  5
DC
330
1F
100
AcDbEntity
  8
LC-001-100-D00-0
 62
     7
370
    50
100
AcDbLine
 10
-294.068611
 20
20.608221
 30
0.0
 11
-292.884416
 21
19.763369
 31
0.0
  0
LINE
  5
DD
330
1F
100
AcDbEntity
  8
LC-001-100-D00-0
 62
     7
370
    50
100
AcDbLine
 10
-294.068611
 20
20.234523
 30
0.0
 11
-294.068611
 21
20.608221
 31
0.0
  0
LINE
  5
DE
330
1F
100
AcDbEntity
  8
LC-001-100-D00-0
 62
     7
370
    50
100
AcDbLine
 10
-293.145931
 20
19.57617
 30
0.0
 11
-294.068611
 21
20.234523
 31
0.0
  0
LINE
  5
DF
330
1F
100
AcDbEntity
  8
LC-001-100-D00-0
 62
     7
370
    50
100
AcDbLine
 10
-294.068611
 20
18.917816
 30
0.0
 11
-293.145931
 21
19.57617
 31
0.0
  0
LINE
  5
E0
330
1F
100
AcDbEntity
  8
LC-001-100-D00-0
 62
     7
370
    50
100
AcDbLine
 10
-294.068611
 20
18.544118
 30
0.0
 11
-294.068611
 21
18.917816
 31
0.0
  0
LINE
  5
E1
330
1F
100
AcDbEntity
  8
LC-001-100-D00-0
 62
     7
370
    50
100
AcDbLine
 10
-292.884416
 20
19.389671
 30
0.0
 11
-294.068611
 21
18.544118
 31
0.0
  0
LINE
  5
E2
330
1F
100
AcDbEntity
  8
LC-001-100-D00-0
 62
     7
370
    50
100
AcDbLine
 10
-291.502772
 20
18.415309
 30
0.0
 11
-292.884416
 21
19.389671
 31
0.0
  0
LINE
  5
E3
330
1F
100
AcDbEntity
  8
LC-001-100-D00-0
 62
     7
370
    50
100
AcDbLine
 10
-291.510916
 20
14.116534
 30
0.0
 11
-291.502772
 21
13.748643
 31
0.0
  0
LINE
  5
E4
330
1F
100
AcDbEntity
  8
LC-001-100-D00-0
 62
     7
370
    50
100
AcDbLine
 10
-292.622192
 20
14.909503
 30
0.0
 11
-291.510916
 21
14.116534
 31
0.0
  0
LINE
  5
E5
330
1F
100
AcDbEntity
  8
LC-001-100-D00-0
 62
     7
370
    50
100
AcDbLine
 10
-291.510916
 20
15.702472
 30
0.0
 11
-292.622192
 21
14.909503
 31
0.0
  0
LINE
  5
E6
330
1F
100
AcDbEntity
  8
LC-001-100-D00-0
 62
     7
370
    50
100
AcDbLine
 10
-291.510916
 20
16.076169
 30
0.0
 11
-291.510916
 21
15.702472
 31
0.0
  0
LINE
  5
E7
330
1F
100
AcDbEntity
  8
LC-001-100-D00-0
 62
     7
370
    50
100
AcDbLine
 10
-292.884416
 20
15.096703
 30
0.0
 11
-291.510916
 21
16.076169
 31
0.0
  0
LINE
  5
E8
330
1F
100
AcDbEntity
  8
LC-001-100-D00-0
 62
     7
370
    50
100
AcDbLine
 10
-294.068611
 20
15.941554
 30
0.0
 11
-292.884416
 21
15.096703
 31
0.0
  0
LINE
  5
E9
330
1F
100
AcDbEntity
  8
LC-001-100-D00-0
 62
     7
370
    50
100
AcDbLine
 10
-294.068611
 20
15.567856
 30
0.0
 11
-294.068611
 21
15.941554
 31
0.0
  0
LINE
  5
EA
330
1F
100
AcDbEntity
  8
LC-001-100-D00-0
 62
     7
370
    50
100
AcDbLine
 10
-293.145931
 20
14.909503
 30
0.0
 11
-294.068611
 21
15.567856
 31
0.0
  0
LINE
  5
EB
330
1F
100
AcDbEntity
  8
LC-001-100-D00-0
 62
     7
370
    50
100
AcDbLine
 10
-294.068611
 20
14.25115
 30
0.0
 11
-293.145931
 21
14.909503
 31
0.0
  0
LINE
  5
EC
330
1F
100
AcDbEntity
  8
LC-001-100-D00-0
 62
     7
370
    50
100
AcDbLine
 10
-294.068611
 20
13.877451
 30
0.0
 11
-294.068611
 21
14.25115
 31
0.0
  0
LINE
  5
ED
330
1F
100
AcDbEntity
  8
LC-001-100-D00-0
 62
     7
370
    50
100
AcDbLine
 10
-292.884416
 20
14.723004
 30
0.0
 11
-294.068611
 21
13.877451
 31
0.0
  0
LINE
  5
EE
330
1F
100
AcDbEntity
  8
LC-001-100-D00-0
 62
     7
370
    50
100
AcDbLine
 10
-291.502772
 20
13.748643
 30
0.0
 11
-292.884416
 21
14.723004
 31
0.0
  0
LINE
  5
EF
330
1F
100
AcDbEntity
  8
LC-001-100-D00-0
 62
     7
370
    50
100
AcDbLine
 10
-291.510916
 20
11.783201
 30
0.0
 11
-291.510916
 21
11.409503
 31
0.0
  0
LINE
  5
F0
330
1F
100
AcDbEntity
  8
LC-001-100-D00-0
 62
     7
370
    50
100
AcDbLine
 10
-292.622192
 20
12.576169
 30
0.0
 11
-291.510916
 21
11.783201
 31
0.0
  0
LINE
  5
F1
330
1F
100
AcDbEntity
  8
LC-001-100-D00-0
 62
     7
370
    50
100
AcDbLine
 10
-291.510916
 20
13.369138
 30
0.0
 11
-292.622192
 21
12.576169
 31
0.0
  0
LINE
  5
F2
330
1F
100
AcDbEntity
  8
LC-001-100-D00-0
 62
     7
370
    50
100
AcDbLine
 10
-291.510916
 20
13.742836
 30
0.0
 11
-291.510916
 21
13.369138
 31
0.0
  0
LINE
  5
F3
330
1F
100
AcDbEntity
  8
LC-001-100-D00-0
 62
     7
370
    50
100
AcDbLine
 10
-292.884416
 20
12.763369
 30
0.0
 11
-291.510916
 21
13.742836
 31
0.0
  0
LINE
  5
F4
330
1F
100
AcDbEntity
  8
LC-001-100-D00-0
 62
     7
370
    50
100
AcDbLine
 10
-294.068611
 20
13.608221
 30
0.0
 11
-292.884416
 21
12.763369
 31
0.0
  0
LINE
  5
F5
330
1F
100
AcDbEntity
  8
LC-001-100-D00-0
 62
     7
370
    50
100
AcDbLine
 10
-294.068611
 20
13.234523
 30
0.0
 11
-294.068611
 21
13.608221
 31
0.0
  0
LINE
  5
F6
330
1F
100
AcDbEntity
  8
LC-001-100-D00-0
 62
     7
370
    50
100
AcDbLine
 10
-293.145931
 20
12.576169
 30
0.0
 11
-294.068611
 21
13.234523
 31
0.0
  0
LINE
  5
F7
330
1F
100
AcDbEntity
  8
LC-001-100-D00-0
 62
     7
370
    50
100
AcDbLine
 10
-294.068611
 20
11.917816
 30
0.0
 11
-293.145931
 21
12.576169
 31
0.0
  0
LINE
  5
F8
330
1F
100
AcDbEntity
  8
LC-001-100-D00-0
 62
     7
370
    50
100
AcDbLine
 10
-294.068611
 20
11.544118
 30
0.0
 11
-294.068611
 21
11.917816
 31
0.0
  0
LINE
  5
F9
330
1F
100
AcDbEntity
  8
LC-001-100-D00-0
 62
     7
370
    50
100
AcDbLine
 10
-292.884416
 20
12.389671
 30
0.0
 11
-294.068611
 21
11.544118
 31
0.0
  0
LINE
  5
FA
330
1F
100
AcDbEntity
  8
LC-001-100-D00-0
 62
     7
370
    50
100
AcDbLine
 10
-291.510916
 20
11.409503
 30
0.0
 11
-292.884416
 21
12.389671
 31
0.0
  0
LINE
  5
FB
330
1F
100
AcDbEntity
  8
LC-001-100-D00-0
 62
     7
370
    50
100
AcDbLine
 10
-291.510916
 20
16.449868
 30
0.0
 11
-291.502772
 21
16.081976
 31
0.0
  0
LINE
  5
FC
330
1F
100
AcDbEntity
  8
LC-001-100-D00-0
 62
     7
370
    50
100
AcDbLine
 10
-292.622192
 20
17.242836
 30
0.0
 11
-291.510916
 21
16.449868
 31
0.0
  0
LINE
  5
FD
330
1F
100
AcDbEntity
  8
LC-001-100-D00-0
 62
     7
370
    50
100
AcDbLine
 10
-291.510916
 20
18.035805
 30
0.0
 11
-292.622192
 21
17.242836
 31
0.0
  0
LINE
  5
FE
330
1F
100
AcDbEntity
  8
LC-001-100-D00-0
 62
     7
370
    50
100
AcDbLine
 10
-291.510916
 20
18.409503
 30
0.0
 11
-291.510916
 21
18.035805
 31
0.0
  0
LINE
  5
FF
330
1F
100
AcDbEntity
  8
LC-001-100-D00-0
 62
     7
370
    50
100
AcDbLine
 10
-292.884416
 20
17.430036
 30
0.0
 11
-291.510916
 21
18.409503
 31
0.0
  0
LINE
  5
100
330
1F
100
AcDbEntity
  8
LC-001-100-D00-0
 62
     7
370
    50
100
AcDbLine
 10
-294.068611
 20
18.274888
 30
0.0
 11
-292.884416
 21
17.430036
 31
0.0
  0
LINE
  5
101
330
1F
100
AcDbEntity
  8
LC-001-100-D00-0
 62
     7
370
    50
100
AcDbLine
 10
-294.068611
 20
17.90119
 30
0.0
 11
-294.068611
 21
18.274888
 31
0.0
  0
LINE
  5
102
330
1F
100
AcDbEntity
  8
LC-001-100-D00-0
 62
     7
370
    50
100
AcDbLine
 10
-293.145931
 20
17.242836
 30
0.0
 11
-294.068611
 21
17.90119
 31
0.0
  0
LINE
  5
103
330
1F
100
AcDbEntity
  8
LC-001-100-D00-0
 62
     7
370
    50
100
AcDbLine
 10
-294.068611
 20
16.584483
 30
0.0
 11
-293.145931
 21
17.242836
 31
0.0
  0
LINE
  5
104
330
1F
100
AcDbEntity
  8
LC-001-100-D00-0
 62
     7
370
    50
100
AcDbLine
 10
-294.068611
 20
16.210785
 30
0.0
 11
-294.068611
 21
16.584483
 31
0.0
  0
LINE
  5
105
330
1F
100
AcDbEntity
  8
LC-001-100-D00-0
 62
     7
370
    50
100
AcDbLine
 10
-292.884416
 20
17.056338
 30
0.0
 11
-294.068611
 21
16.210785
 31
0.0
  0
LINE
  5
106
330
1F
100
AcDbEntity
  8
LC-001-100-D00-0
 62
     7
370
    50
100
AcDbLine
 10
-291.502772
 20
16.081976
 30
0.0
 11
-292.884416
 21
17.056338
 31
0.0
  0
LINE
  5
107
330
1F
100
AcDbEntity
  8
LC-001-100-D00-0
 62
     7
370
    50
100
AcDbLine
 10
-291.510916
 20
21.116534
 30
0.0
 11
-291.502772
 21
20.748642
 31
0.0
  0
LINE
  5
108
330
1F
100
AcDbEntity
  8
LC-001-100-D00-0
 62
     7
370
    50
100
AcDbLine
 10
-292.622192
 20
21.909503
 30
0.0
 11
-291.510916
 21
21.116534
 31
0.0
  0
LINE
  5
109
330
1F
100
AcDbEntity
  8
LC-001-100-D00-0
 62
     7
370
    50
100
AcDbLine
 10
-291.510916
 20
22.702472
 30
0.0
 11
-292.622192
 21
21.909503
 31
0.0
  0
LINE
  5
10A
330
1F
100
AcDbEntity
  8
LC-001-100-D00-0
 62
     7
370
    50
100
AcDbLine
 10
-291.510916
 20
23.07617
 30
0.0
 11
-291.510916
 21
22.702472
 31
0.0
  0
LINE
  5
10B
330
1F
100
AcDbEntity
  8
LC-001-100-D00-0
 62
     7
370
    50
100
AcDbLine
 10
-292.884416
 20
22.096702
 30
0.0
 11
-291.510916
 21
23.07617
 31
0.0
  0
LINE
  5
10C
330
1F
100
AcDbEntity
  8
LC-001-100-D00-0
 62
     7
370
    50
100
AcDbLine
 10
-294.068611
 20
22.941554
 30
0.0
 11
-292.884416
 21
22.096702
 31
0.0
  0
LINE
  5
10D
330
1F
100
AcDbEntity
  8
LC-001-100-D00-0
 62
     7
370
    50
100
AcDbLine
 10
-294.068611
 20
22.567856
 30
0.0
 11
-294.068611
 21
22.941554
 31
0.0
  0
LINE
  5
10E
330
1F
100
AcDbEntity
  8
LC-001-100-D00-0
 62
     7
370
    50
100
AcDbLine
 10
-293.145931
 20
21.909503
 30
0.0
 11
-294.068611
 21
22.567856
 31
0.0
  0
LINE
  5
10F
330
1F
100
AcDbEntity
  8
LC-001-100-D00-0
 62
     7
370
    50
100
AcDbLine
 10
-294.068611
 20
21.25115
 30
0.0
 11
-293.145931
 21
21.909503
 31
0.0
  0
LINE
  5
110
330
1F
100
AcDbEntity
  8
LC-001-100-D00-0
 62
     7
370
    50
100
AcDbLine
 10
-294.068611
 20
20.877452
 30
0.0
 11
-294.068611
 21
21.25115
 31
0.0
  0
LINE
  5
111
330
1F
100
AcDbEntity
  8
LC-001-100-D00-0
 62
     7
370
    50
100
AcDbLine
 10
-292.884416
 20
21.723005
 30
0.0
 11
-294.068611
 21
20.877452
 31
0.0
  0
LINE
  5
112
330
1F
100
AcDbEntity
  8
LC-001-100-D00-0
 62
     7
370
    50
100
AcDbLine
 10
-291.502772
 20
20.748642
 30
0.0
 11
-292.884416
 21
21.723005
 31
0.0
  0
ARC
  5
113
330
1F
100
AcDbEntity
  8
LC-001-100-D00-0
 62
     7
370
    50
100
AcDbCircle
 10
-194.178083
 20
20.010965
 30
0.0
 40
24.79999999999453
100
AcDbArc
 50
300.592814
 51
59.407186
  0
ARC
  5
114
330
1F
100
AcDbEntity
  8
LC-001-100-D00-0
 62
     7
370
    50
100
AcDbCircle
 10
-255.178083
 20
20.010965
 30
0.0
 40
24.79999999999453
100
AcDbArc
 50
120.592814
 51
239.407186
  0
LINE
  5
115
330
1F
100
AcDbEntity
  8
LC-001-100-D00-0
 62
     7
370
    50
100
AcDbLine
 10
53.571917
 20
33.260965
 30
0.0
 11
53.571917
 21
6.760965
 31
0.0
  0
ARC
  5
116
330
1F
100
AcDbEntity
  8
LC-001-100-D00-0
 62
     7
370
    50
100
AcDbCircle
 10
48.571917
 20
33.260965
 30
0.0
 40
5.0
100
AcDbArc
 50
0.0
 51
90.0
  0
ARC
  5
117
330
1F
100
AcDbEntity
  8
LC-001-100-D00-0
 62
     7
370
    50
100
AcDbCircle
 10
48.571917
 20
6.760965
 30
0.0
 40
5.0
100
AcDbArc
 50
270.0
 51
0.0
  0
CIRCLE
  5
118
330
1F
100
AcDbEntity
  8
LC-001-100-D00-0
 62
     7
370
    50
100
AcDbCircle
 10
35.321917
 20
20.010965
 30
0.0
 40
3.900000000000091
  0
LINE
  5
119
330
1F
100
AcDbEntity
  8
LC-001-100-D00-0
 62
     7
370
    50
100
AcDbLine
 10
48.571917
 20
1.760965
 30
0.0
 11
22.071917
 21
1.760965
 31
0.0
  0
LINE
  5
11A
330
1F
100
AcDbEntity
  8
LC-001-100-D00-0
 62
     7
370
    50
100
AcDbLine
 10
22.071917
 20
38.260965
 30
0.0
 11
48.571917
 21
38.260965
 31
0.0
  0
ARC
  5
11B
330
1F
100
AcDbEntity
  8
LC-001-100-D00-0
 62
     7
370
    50
100
AcDbCircle
 10
22.071917
 20
6.760965
 30
0.0
 40
5.0
100
AcDbArc
 50
180.0
 51
270.0
  0
ARC
  5
11C
330
1F
100
AcDbEntity
  8
LC-001-100-D00-0
 62
     7
370
    50
100
AcDbCircle
 10
22.071917
 20
33.260965
 30
0.0
 40
5.0
100
AcDbArc
 50
90.0
 51
180.0
  0
LINE
  5
11D
330
1F
100
AcDbEntity
  8
LC-001-100-D00-0
 62
     7
370
    50
100
AcDbLine
 10
17.071917
 20
6.760965
 30
0.0
 11
17.071917
 21
33.260965
 31
0.0
  0
LINE
  5
11E
330
1F
100
AcDbEntity
  8
LC-001-100-D00-0
 62
     7
370
    50
100
AcDbLine
 10
-106.428083
 20
33.260965
 30
0.0
 11
-106.428083
 21
6.760965
 31
0.0
  0
ARC
  5
11F
330
1F
100
AcDbEntity
  8
LC-001-100-D00-0
 62
     7
370
    50
100
AcDbCircle
 10
-111.428083
 20
6.760965
 30
0.0
 40
5.0
100
AcDbArc
 50
270.0
 51
0.0
  0
ARC
  5
120
330
1F
100
AcDbEntity
  8
LC-001-100-D00-0
 62
     7
370
    50
100
AcDbCircle
 10
-111.428083
 20
33.260965
 30
0.0
 40
5.0
100
AcDbArc
 50
0.0
 51
90.0
  0
CIRCLE
  5
121
330
1F
100
AcDbEntity
  8
LC-001-100-D00-0
 62
     7
370
    50
100
AcDbCircle
 10
-124.678083
 20
20.010965
 30
0.0
 40
3.899999999999864
  0
LINE
  5
122
330
1F
100
AcDbEntity
  8
LC-001-100-D00-0
 62
     7
370
    50
100
AcDbLine
 10
-137.928083
 20
38.260965
 30
0.0
 11
-111.428083
 21
38.260965
 31
0.0
  0
LINE
  5
123
330
1F
100
AcDbEntity
  8
LC-001-100-D00-0
 62
     7
370
    50
100
AcDbLine
 10
-111.428083
 20
1.760965
 30
0.0
 11
-137.928083
 21
1.760965
 31
0.0
  0
ARC
  5
124
330
1F
100
AcDbEntity
  8
LC-001-100-D00-0
 62
     7
370
    50
100
AcDbCircle
 10
-137.928083
 20
33.260965
 30
0.0
 40
5.0
100
AcDbArc
 50
90.0
 51
180.0
  0
ARC
  5
125
330
1F
100
AcDbEntity
  8
LC-001-100-D00-0
 62
     7
370
    50
100
AcDbCircle
 10
-137.928083
 20
6.760965
 30
0.0
 40
5.0
100
AcDbArc
 50
180.0
 51
270.0
  0
LINE
  5
126
330
1F
100
AcDbEntity
  8
LC-001-100-D00-0
 62
     7
370
    50
100
AcDbLine
 10
-142.928083
 20
6.760965
 30
0.0
 11
-142.928083
 21
33.260965
 31
0.0
  0
ARC
  5
127
330
1F
100
AcDbEntity
  8
LC-001-100-D00-0
 62
     7
370
    50
100
AcDbCircle
 10
-631.428083
 20
33.260965
 30
0.0
 40
5.0
100
AcDbArc
 50
0.0
 51
90.0
  0
ARC
  5
128
330
1F
100
AcDbEntity
  8
LC-001-100-D00-0
 62
     7
370
    50
100
AcDbCircle
 10
-631.428083
 20
6.760965
 30
0.0
 40
5.0
100
AcDbArc
 50
270.0
 51
0.0
  0
LINE
  5
129
330
1F
100
AcDbEntity
  8
LC-001-100-D00-0
 62
     7
370
    50
100
AcDbLine
 10
-626.428083
 20
33.260965
 30
0.0
 11
-626.428083
 21
6.760965
 31
0.0
  0
CIRCLE
  5
12A
330
1F
100
AcDbEntity
  8
LC-001-100-D00-0
 62
     7
370
    50
100
AcDbCircle
 10
-644.678083
 20
20.010965
 30
0.0
 40
3.900000000000091
  0
LINE
  5
12B
330
1F
100
AcDbEntity
  8
LC-001-100-D00-0
 62
     7
370
    50
100
AcDbLine
 10
-657.928083
 20
38.260965
 30
0.0
 11
-631.428083
 21
38.260965
 31
0.0
  0
LINE
  5
12C
330
1F
100
AcDbEntity
  8
LC-001-100-D00-0
 62
     7
370
    50
100
AcDbLine
 10
-631.428083
 20
1.760965
 30
0.0
 11
-657.928083
 21
1.760965
 31
0.0
  0
ARC
  5
12D
330
1F
100
AcDbEntity
  8
LC-001-100-D00-0
 62
     7
370
    50
100
AcDbCircle
 10
-657.928083
 20
33.260965
 30
0.0
 40
5.0
100
AcDbArc
 50
90.0
 51
180.0
  0
ARC
  5
12E
330
1F
100
AcDbEntity
  8
LC-001-100-D00-0
 62
     7
370
    50
100
AcDbCircle
 10
-657.928083
 20
6.760965
 30
0.0
 40
5.0
100
AcDbArc
 50
180.0
 51
270.0
  0
LINE
  5
12F
330
1F
100
AcDbEntity
  8
LC-001-100-D00-0
 62
     7
370
    50
100
AcDbLine
 10
-662.928083
 20
6.760965
 30
0.0
 11
-662.928083
 21
33.260965
 31
0.0
  0
ARC
  5
130
330
1F
100
AcDbEntity
  8
LC-001-100-D00-0
 62
     7
370
    50
100
AcDbCircle
 10
-471.428083
 20
6.760965
 30
0.0
 40
5.0
100
AcDbArc
 50
270.0
 51
0.0
  0
LINE
  5
131
330
1F
100
AcDbEntity
  8
LC-001-100-D00-0
 62
     7
370
    50
100
AcDbLine
 10
-466.428083
 20
33.260965
 30
0.0
 11
-466.428083
 21
6.760965
 31
0.0
  0
ARC
  5
132
330
1F
100
AcDbEntity
  8
LC-001-100-D00-0
 62
     7
370
    50
100
AcDbCircle
 10
-471.428083
 20
33.260965
 30
0.0
 40
5.0
100
AcDbArc
 50
0.0
 51
90.0
  0
CIRCLE
  5
133
330
1F
100
AcDbEntity
  8
LC-001-100-D00-0
 62
     7
370
    50
100
AcDbCircle
 10
-484.678083
 20
20.010965
 30
0.0
 40
3.900000000000091
  0
LINE
  5
134
330
1F
100
AcDbEntity
  8
LC-001-100-D00-0
 62
     7
370
    50
100
AcDbLine
 10
-471.428083
 20
1.760965
 30
0.0
 11
-497.928083
 21
1.760965
 31
0.0
  0
LINE
  5
135
330
1F
100
AcDbEntity
  8
LC-001-100-D00-0
 62
     7
370
    50
100
AcDbLine
 10
-497.928083
 20
38.260965
 30
0.0
 11
-471.428083
 21
38.260965
 31
0.0
  0
ARC
  5
136
330
1F
100
AcDbEntity
  8
LC-001-100-D00-0
 62
     7
370
    50
100
AcDbCircle
 10
-497.928083
 20
6.760965
 30
0.0
 40
5.0
100
AcDbArc
 50
180.0
 51
270.0
  0
ARC
  5
137
330
1F
100
AcDbEntity
  8
LC-001-100-D00-0
 62
     7
370
    50
100
AcDbCircle
 10
-497.928083
 20
33.260965
 30
0.0
 40
5.0
100
AcDbArc
 50
90.0
 51
180.0
  0
LINE
  5
138
330
1F
100
AcDbEntity
  8
LC-001-100-D00-0
 62
     7
370
    50
100
AcDbLine
 10
-502.928083
 20
6.760965
 30
0.0
 11
-502.928083
 21
33.260965
 31
0.0
  0
ARC
  5
139
330
1F
100
AcDbEntity
  8
LC-001-100-D00-0
 62
     7
370
    50
100
AcDbCircle
 10
-311.428083
 20
6.760965
 30
0.0
 40
5.0
100
AcDbArc
 50
270.0
 51
0.0
  0
ARC
  5
13A
330
1F
100
AcDbEntity
  8
LC-001-100-D00-0
 62
     7
370
    50
100
AcDbCircle
 10
-311.428083
 20
33.260965
 30
0.0
 40
5.0
100
AcDbArc
 50
0.0
 51
90.0
  0
LINE
  5
13B
330
1F
100
AcDbEntity
  8
LC-001-100-D00-0
 62
     7
370
    50
100
AcDbLine
 10
-306.428083
 20
33.260965
 30
0.0
 11
-306.428083
 21
6.760965
 31
0.0
  0
CIRCLE
  5
13C
330
1F
100
AcDbEntity
  8
LC-001-100-D00-0
 62
     7
370
    50
100
AcDbCircle
 10
-324.678083
 20
20.010965
 30
0.0
 40
3.900000000000091
  0
LINE
  5
13D
330
1F
100
AcDbEntity
  8
LC-001-100-D00-0
 62
     7
370
    50
100
AcDbLine
 10
-311.428083
 20
1.760965
 30
0.0
 11
-337.928083
 21
1.760965
 31
0.0
  0
LINE
  5
13E
330
1F
100
AcDbEntity
  8
LC-001-100-D00-0
 62
     7
370
    50
100
AcDbLine
 10
-337.928083
 20
38.260965
 30
0.0
 11
-311.428083
 21
38.260965
 31
0.0
  0
ARC
  5
13F
330
1F
100
AcDbEntity
  8
LC-001-100-D00-0
 62
     7
370
    50
100
AcDbCircle
 10
-337.928083
 20
33.260965
 30
0.0
 40
5.0
100
AcDbArc
 50
90.0
 51
180.0
  0
ARC
  5
140
330
1F
100
AcDbEntity
  8
LC-001-100-D00-0
 62
     7
370
    50
100
AcDbCircle
 10
-337.928083
 20
6.760965
 30
0.0
 40
5.0
100
AcDbArc
 50
180.0
 51
270.0
  0
LINE
  5
141
330
1F
100
AcDbEntity
  8
LC-001-100-D00-0
 62
     7
370
    50
100
AcDbLine
 10
-342.928083
 20
6.760965
 30
0.0
 11
-342.928083
 21
33.260965
 31
0.0
  0
LINE
  5
142
330
1F
100
AcDbEntity
  8
LC-001-100-D00-0
 62
     7
370
    50
100
AcDbLine
 10
213.571917
 20
33.260965
 30
0.0
 11
213.571917
 21
6.760965
 31
0.0
  0
ARC
  5
143
330
1F
100
AcDbEntity
  8
LC-001-100-D00-0
 62
     7
370
    50
100
AcDbCircle
 10
208.571917
 20
33.260965
 30
0.0
 40
5.0
100
AcDbArc
 50
0.0
 51
90.0
  0
ARC
  5
144
330
1F
100
AcDbEntity
  8
LC-001-100-D00-0
 62
     7
370
    50
100
AcDbCircle
 10
208.571917
 20
6.760965
 30
0.0
 40
5.0
100
AcDbArc
 50
270.0
 51
0.0
  0
CIRCLE
  5
145
330
1F
100
AcDbEntity
  8
LC-001-100-D00-0
 62
     7
370
    50
100
AcDbCircle
 10
195.321917
 20
20.010965
 30
0.0
 40
3.900000000000091
  0
LINE
  5
146
330
1F
100
AcDbEntity
  8
LC-001-100-D00-0
 62
     7
370
    50
100
AcDbLine
 10
208.571917
 20
1.760965
 30
0.0
 11
182.071917
 21
1.760965
 31
0.0
  0
LINE
  5
147
330
1F
100
AcDbEntity
  8
LC-001-100-D00-0
 62
     7
370
    50
100
AcDbLine
 10
182.071917
 20
38.260965
 30
0.0
 11
208.571917
 21
38.260965
 31
0.0
  0
ARC
  5
148
330
1F
100
AcDbEntity
  8
LC-001-100-D00-0
 62
     7
370
    50
100
AcDbCircle
 10
182.071917
 20
33.260965
 30
0.0
 40
5.0
100
AcDbArc
 50
90.0
 51
180.0
  0
ARC
  5
149
330
1F
100
AcDbEntity
  8
LC-001-100-D00-0
 62
     7
370
    50
100
AcDbCircle
 10
182.071917
 20
6.760965
 30
0.0
 40
5.0
100
AcDbArc
 50
180.0
 51
270.0
  0
LINE
  5
14A
330
1F
100
AcDbEntity
  8
LC-001-100-D00-0
 62
     7
370
    50
100
AcDbLine
 10
177.071917
 20
6.760965
 30
0.0
 11
177.071917
 21
33.260965
 31
0.0
  0
LINE
  5
14B
330
1F
100
AcDbEntity
  8
LC-001-100-D00-0
 62
     7
370
    50
100
AcDbLine
 10
-255.178083
 20
-3.989035
 30
0.0
 11
-194.178083
 21
-3.989035
 31
0.0
  0
ARC
  5
14C
330
1F
100
AcDbEntity
  8
LC-001-100-D00-0
 62
     7
370
    50
100
AcDbCircle
 10
-255.178083
 20
20.010965
 30
0.0
 40
24.0
100
AcDbArc
 50
90.0
 51
270.0
  0
LINE
  5
14D
330
1F
100
AcDbEntity
  8
LC-001-100-D00-0
 62
     7
370
    50
100
AcDbLine
 10
-194.178083
 20
44.010965
 30
0.0
 11
-255.178083
 21
44.010965
 31
0.0
  0
ARC
  5
14E
330
1F
100
AcDbEntity
  8
LC-001-100-D00-0
 62
     7
370
    50
100
AcDbCircle
 10
-194.178083
 20
20.010965
 30
0.0
 40
24.0
100
AcDbArc
 50
270.0
 51
90.0
  0
ARC
  5
14F
330
1F
100
AcDbEntity
  8
LC-001-100-D00-0
 62
     7
370
    50
100
AcDbCircle
 10
-213.178083
 20
20.010965
 30
0.0
 40
16.00000000000023
100
AcDbArc
 50
270.0
 51
90.0
  0
LINE
  5
150
330
1F
100
AcDbEntity
  8
LC-001-100-D00-0
 62
     7
370
    50
100
AcDbLine
 10
-236.178083
 20
4.010965
 30
0.0
 11
-213.178083
 21
4.010965
 31
0.0
  0
LINE
  5
151
330
1F
100
AcDbEntity
  8
LC-001-100-D00-0
 62
     7
370
    50
100
AcDbLine
 10
-213.178083
 20
36.010965
 30
0.0
 11
-236.178083
 21
36.010965
 31
0.0
  0
ARC
  5
152
330
1F
100
AcDbEntity
  8
LC-001-100-D00-0
 62
     7
370
    50
100
AcDbCircle
 10
-236.178083
 20
20.010965
 30
0.0
 40
16.00000000000023
100
AcDbArc
 50
90.0
 51
270.0
  0
DIMENSION
  5
155
330
1F
100
AcDbEntity
  8
LC-001-100-D00-0
 62
     7
370
    25
100
AcDbDimension
  2
*D15
 10
361.299282
 20
-57.489035
 30
0.0
 11
306.299282
 21
0.007683
 31
0.0
 70
   160
  1
155
 71
     5
 42
155.0
 53
90.0
  3
LC-DIM-L-0100-02-02
100
AcDbAlignedDimension
 13
270.321917
 23
97.510965
 33
0.0
 14
270.321917
 24
-57.489035
 34
0.0
 50
90.0
100
AcDbRotatedDimension
  0
LINE
  5
164
330
1F
100
AcDbEntity
  8
LC-001-100-D00-0
  6
DASHDOT
 62
     7
370
    25
100
AcDbLine
 10
-729.678083
 20
20.010965
 30
0.0
 11
280.321917
 21
20.010965
 31
0.0
  0
LINE
  5
165
330
1F
100
AcDbEntity
  8
LC-001-100-D00-0
  6
DASHDOT
 62
     7
370
    25
100
AcDbLine
 10
-224.678083
 20
102.510965
 30
0.0
 11
-224.678083
 21
-62.489035
 31
0.0
  0
LINE
  5
166
330
1F
100
AcDbEntity
  8
LC-001-100-D00-0
 62
     7
370
    50
100
AcDbLine
 10
-169.428083
 20
435.223142
 30
0.0
 11
-167.628083
 21
435.223142
 31
0.0
  0
LINE
  5
167
330
1F
100
AcDbEntity
  8
LC-001-100-D00-0
 62
     7
370
    50
100
AcDbLine
 10
-281.728083
 20
435.223142
 30
0.0
 11
-279.928083
 21
435.223142
 31
0.0
  0
LINE
  5
168
330
1F
100
AcDbEntity
  8
LC-001-100-D00-0
 62
     7
370
    50
100
AcDbLine
 10
-111.430287
 20
362.863128
 30
0.0
 11
-111.430287
 21
364.646049
 31
0.0
  0
LINE
  5
169
330
1F
100
AcDbEntity
  8
LC-001-100-D00-0
 62
     7
370
    50
100
AcDbLine
 10
-111.430287
 20
415.080207
 30
0.0
 11
-111.430287
 21
416.863128
 31
0.0
  0
LINE
  5
16A
330
1F
100
AcDbEntity
  8
LC-001-100-D00-0
 62
     7
370
    50
100
AcDbLine
 10
-115.430287
 20
416.863128
 30
0.0
 11
-115.430287
 21
415.080207
 31
0.0
  0
LINE
  5
16B
330
1F
100
AcDbEntity
  8
LC-001-100-D00-0
 62
     7
370
    50
100
AcDbLine
 10
-115.430287
 20
364.646049
 30
0.0
 11
-115.430287
 21
362.863128
 31
0.0
  0
LINE
  5
16C
330
1F
100
AcDbEntity
  8
LC-001-100-D00-0
 62
     7
370
    50
100
AcDbLine
 10
-184.963668
 20
433.363128
 30
0.0
 11
-184.963668
 21
431.863128
 31
0.0
  0
LINE
  5
16D
330
1F
100
AcDbEntity
  8
LC-001-100-D00-0
 62
     7
370
    50
100
AcDbLine
 10
-264.392498
 20
431.863128
 30
0.0
 11
-264.392498
 21
433.363128
 31
0.0
  0
ARC
  5
16E
330
1F
100
AcDbEntity
  8
LC-001-100-D00-0
 62
     7
370
    50
100
AcDbCircle
 10
-583.678083
 20
340.363128
 30
0.0
 40
0.5000000000002274
100
AcDbArc
 50
90.0
 51
180.0
  0
ARC
  5
16F
330
1F
100
AcDbEntity
  8
LC-001-100-D00-0
 62
     7
370
    50
100
AcDbCircle
 10
-565.678083
 20
340.363128
 30
0.0
 40
0.5000000000002274
100
AcDbArc
 50
0.0
 51
90.0
  0
LINE
  5
170
330
1F
100
AcDbEntity
  8
LC-001-100-D00-0
 62
     7
370
    50
100
AcDbLine
 10
-584.178083
 20
340.363128
 30
0.0
 11
-584.178083
 21
332.863128
 31
0.0
  0
LINE
  5
171
330
1F
100
AcDbEntity
  8
LC-001-100-D00-0
 62
     7
370
    50
100
AcDbLine
 10
-565.178083
 20
332.863128
 30
0.0
 11
-565.178083
 21
340.363128
 31
0.0
  0
ARC
  5
172
330
1F
100
AcDbEntity
  8
LC-001-100-D00-0
 62
     7
370
    50
100
AcDbCircle
 10
116.321917
 20
340.363128
 30
0.0
 40
0.5000000000002274
100
AcDbArc
 50
90.0
 51
180.0
  0
ARC
  5
173
330
1F
100
AcDbEntity
  8
LC-001-100-D00-0
 62
     7
370
    50
100
AcDbCircle
 10
134.321917
 20
340.363128
 30
0.0
 40
0.5000000000002274
100
AcDbArc
 50
0.0
 51
90.0
  0
LINE
  5
174
330
1F
100
AcDbEntity
  8
LC-001-100-D00-0
 62
     7
370
    50
100
AcDbLine
 10
115.821917
 20
340.363128
 30
0.0
 11
115.821917
 21
332.863128
 31
0.0
  0
LINE
  5
175
330
1F
100
AcDbEntity
  8
LC-001-100-D00-0
 62
     7
370
    50
100
AcDbLine
 10
134.821917
 20
332.863128
 30
0.0
 11
134.821917
 21
340.363128
 31
0.0
  0
LINE
  5
176
330
1F
100
AcDbEntity
  8
LC-001-100-D00-0
 62
     7
370
    50
100
AcDbLine
 10
138.09542
 20
409.863128
 30
0.0
 11
138.095425
 21
434.86313
 31
0.0
  0
LINE
  5
177
330
1F
100
AcDbEntity
  8
LC-001-100-D00-0
 62
     7
370
    50
100
AcDbLine
 10
112.548427
 20
434.86313
 30
0.0
 11
112.548414
 21
409.863128
 31
0.0
  0
LINE
  5
178
330
1F
100
AcDbEntity
  8
LC-001-100-D00-0
 62
     7
370
    50
100
AcDbLine
 10
138.09542
 20
438.863128
 30
0.0
 11
138.095425
 21
442.471651
 31
0.0
  0
LINE
  5
179
330
1F
100
AcDbEntity
  8
LC-001-100-D00-0
 62
     7
370
    50
100
AcDbLine
 10
112.548427
 20
441.539278
 30
0.0
 11
112.548414
 21
438.863128
 31
0.0
  0
LINE
  5
17A
330
1F
100
AcDbEntity
  8
LC-001-100-D00-0
 62
     7
370
    50
100
AcDbLine
 10
-561.90458
 20
438.863128
 30
0.0
 11
-561.904593
 21
441.539278
 31
0.0
  0
LINE
  5
17B
330
1F
100
AcDbEntity
  8
LC-001-100-D00-0
 62
     7
370
    50
100
AcDbLine
 10
-587.451591
 20
442.471651
 30
0.0
 11
-587.451586
 21
438.863128
 31
0.0
  0
LINE
  5
17C
330
1F
100
AcDbEntity
  8
LC-001-100-D00-0
 62
     7
370
    50
100
AcDbLine
 10
-561.90458
 20
409.863128
 30
0.0
 11
-561.904593
 21
434.86313
 31
0.0
  0
LINE
  5
17D
330
1F
100
AcDbEntity
  8
LC-001-100-D00-0
 62
     7
370
    50
100
AcDbLine
 10
-587.451591
 20
434.86313
 30
0.0
 11
-587.451586
 21
409.863128
 31
0.0
  0
LINE
  5
17E
330
1F
100
AcDbEntity
  8
LC-001-100-D00-0
 62
     7
370
    50
100
AcDbLine
 10
115.321921
 20
438.863128
 30
0.0
 11
115.321921
 21
438.763128
 31
0.0
  0
LINE
  5
17F
330
1F
100
AcDbEntity
  8
LC-001-100-D00-0
 62
     7
370
    50
100
AcDbLine
 10
115.321921
 20
409.863127
 30
0.0
 11
115.321917
 21
355.863128
 31
0.0
  0
LINE
  5
180
330
1F
100
AcDbEntity
  8
LC-001-100-D00-0
 62
     7
370
    50
100
AcDbLine
 10
135.321917
 20
355.863128
 30
0.0
 11
135.321931
 21
409.863127
 31
0.0
  0
LINE
  5
181
330
1F
100
AcDbEntity
  8
LC-001-100-D00-0
 62
     7
370
    50
100
AcDbLine
 10
135.321931
 20
438.763128
 30
0.0
 11
135.321931
 21
438.863128
 31
0.0
  0
LINE
  5
182
330
1F
100
AcDbEntity
  8
LC-001-100-D00-0
 62
     7
370
    50
100
AcDbLine
 10
115.321917
 20
352.363128
 30
0.0
 11
115.321917
 21
341.863128
 31
0.0
  0
LINE
  5
183
330
1F
100
AcDbEntity
  8
LC-001-100-D00-0
 62
     7
370
    50
100
AcDbLine
 10
135.321917
 20
341.863128
 30
0.0
 11
135.321917
 21
352.363128
 31
0.0
  0
LINE
  5
184
330
1F
100
AcDbEntity
  8
LC-001-100-D00-0
 62
     7
370
    50
100
AcDbLine
 10
115.321917
 20
341.863128
 30
0.0
 11
116.321917
 21
340.863128
 31
0.0
  0
LINE
  5
185
330
1F
100
AcDbEntity
  8
LC-001-100-D00-0
 62
     7
370
    50
100
AcDbLine
 10
134.321917
 20
340.863128
 30
0.0
 11
135.321917
 21
341.863128
 31
0.0
  0
LINE
  5
186
330
1F
100
AcDbEntity
  8
LC-001-100-D00-0
 62
     7
370
    50
100
AcDbLine
 10
117.421911
 20
355.863126
 30
0.0
 11
117.421911
 21
352.363126
 31
0.0
  0
LINE
  5
187
330
1F
100
AcDbEntity
  8
LC-001-100-D00-0
 62
     7
370
    50
100
AcDbLine
 10
133.221911
 20
352.363126
 30
0.0
 11
133.221911
 21
355.863126
 31
0.0
  0
LINE
  5
188
330
1F
100
AcDbEntity
  8
LC-001-100-D00-0
 62
     7
370
    50
100
AcDbLine
 10
-584.678097
 20
438.863128
 30
0.0
 11
-584.678097
 21
438.763128
 31
0.0
  0
LINE
  5
189
330
1F
100
AcDbEntity
  8
LC-001-100-D00-0
 62
     7
370
    50
100
AcDbLine
 10
-584.678097
 20
409.863127
 30
0.0
 11
-584.678083
 21
355.863128
 31
0.0
  0
LINE
  5
18A
330
1F
100
AcDbEntity
  8
LC-001-100-D00-0
 62
     7
370
    50
100
AcDbLine
 10
-564.678083
 20
355.863128
 30
0.0
 11
-564.678087
 21
409.863127
 31
0.0
  0
LINE
  5
18B
330
1F
100
AcDbEntity
  8
LC-001-100-D00-0
 62
     7
370
    50
100
AcDbLine
 10
-564.678087
 20
438.763128
 30
0.0
 11
-564.678087
 21
438.863128
 31
0.0
  0
LINE
  5
18C
330
1F
100
AcDbEntity
  8
LC-001-100-D00-0
 62
     7
370
    50
100
AcDbLine
 10
-584.678083
 20
352.363128
 30
0.0
 11
-584.678083
 21
341.863128
 31
0.0
  0
LINE
  5
18D
330
1F
100
AcDbEntity
  8
LC-001-100-D00-0
 62
     7
370
    50
100
AcDbLine
 10
-564.678083
 20
341.863128
 30
0.0
 11
-564.678083
 21
352.363128
 31
0.0
  0
LINE
  5
18E
330
1F
100
AcDbEntity
  8
LC-001-100-D00-0
 62
     7
370
    50
100
AcDbLine
 10
-584.678083
 20
341.863128
 30
0.0
 11
-583.678083
 21
340.863128
 31
0.0
  0
LINE
  5
18F
330
1F
100
AcDbEntity
  8
LC-001-100-D00-0
 62
     7
370
    50
100
AcDbLine
 10
-565.678083
 20
340.863128
 30
0.0
 11
-564.678083
 21
341.863128
 31
0.0
  0
LINE
  5
190
330
1F
100
AcDbEntity
  8
LC-001-100-D00-0
 62
     7
370
    50
100
AcDbLine
 10
-582.578077
 20
355.863126
 30
0.0
 11
-582.578077
 21
352.363126
 31
0.0
  0
LINE
  5
191
330
1F
100
AcDbEntity
  8
LC-001-100-D00-0
 62
     7
370
    50
100
AcDbLine
 10
-566.778077
 20
352.363126
 30
0.0
 11
-566.778077
 21
355.863126
 31
0.0
  0
LINE
  5
192
330
1F
100
AcDbEntity
  8
LC-001-100-D00-0
 62
     7
370
    50
100
AcDbLine
 10
-479.478083
 20
451.131895
 30
0.0
 11
-479.478083
 21
453.594362
 31
0.0
  0
ARC
  5
193
330
1F
100
AcDbEntity
  8
LC-001-100-D00-0
 62
     7
370
    50
100
AcDbCircle
 10
-478.878083
 20
451.131895
 30
0.0
 40
0.6000000000001364
100
AcDbArc
 50
180.0
 51
255.0
  0
LINE
  5
194
330
1F
100
AcDbEntity
  8
LC-001-100-D00-0
 62
     7
370
    50
100
AcDbLine
 10
-478.327228
 20
450.363127
 30
0.0
 11
-479.033374
 21
450.552339
 31
0.0
  0
LINE
  5
195
330
1F
100
AcDbEntity
  8
LC-001-100-D00-0
 62
     7
370
    50
100
AcDbLine
 10
-478.327228
 20
450.363127
 30
0.0
 11
-478.327228
 21
448.363129
 31
0.0
  0
LINE
  5
196
330
1F
100
AcDbEntity
  8
LC-001-100-D00-0
 62
     7
370
    50
100
AcDbLine
 10
-481.278083
 20
449.363128
 30
0.0
 11
-480.278083
 21
448.363128
 31
0.0
  0
LINE
  5
197
330
1F
100
AcDbEntity
  8
LC-001-100-D00-0
 62
     7
370
    50
100
AcDbLine
 10
-481.278083
 20
449.363128
 30
0.0
 11
-481.278075
 21
455.363128
 31
0.0
  0
LINE
  5
198
330
1F
100
AcDbEntity
  8
LC-001-100-D00-0
 62
     7
370
    50
100
AcDbLine
 10
-480.278088
 20
456.363128
 30
0.0
 11
-481.278075
 21
455.363128
 31
0.0
  0
LINE
  5
199
330
1F
100
AcDbEntity
  8
LC-001-100-D00-0
 62
     7
370
    50
100
AcDbLine
 10
-478.327228
 20
456.363128
 30
0.0
 11
-478.327228
 21
454.363128
 31
0.0
  0
LINE
  5
19A
330
1F
100
AcDbEntity
  8
LC-001-100-D00-0
 62
     7
370
    50
100
AcDbLine
 10
-479.033374
 20
454.173918
 30
0.0
 11
-478.327228
 21
454.363128
 31
0.0
  0
ARC
  5
19B
330
1F
100
AcDbEntity
  8
LC-001-100-D00-0
 62
     7
370
    50
100
AcDbCircle
 10
-478.878083
 20
453.594362
 30
0.0
 40
0.5999999999998836
100
AcDbArc
 50
105.0
 51
180.0
  0
LINE
  5
19C
330
1F
100
AcDbEntity
  8
LC-001-100-D00-0
 62
     7
370
    50
100
AcDbLine
 10
-480.278083
 20
448.363128
 30
0.0
 11
-478.327228
 21
448.363129
 31
0.0
  0
LINE
  5
19D
330
1F
100
AcDbEntity
  8
LC-001-100-D00-0
 62
     7
370
    50
100
AcDbLine
 10
-480.278088
 20
456.363128
 30
0.0
 11
-478.327228
 21
456.363128
 31
0.0
  0
LINE
  5
19E
330
1F
100
AcDbEntity
  8
LC-001-100-D00-0
 62
     7
370
    50
100
AcDbLine
 10
-489.878083
 20
453.594362
 30
0.0
 11
-489.878083
 21
451.131895
 31
0.0
  0
LINE
  5
19F
330
1F
100
AcDbEntity
  8
LC-001-100-D00-0
 62
     7
370
    50
100
AcDbLine
 10
-488.078071
 20
455.363128
 30
0.0
 11
-489.078088
 21
456.363128
 31
0.0
  0
LINE
  5
1A0
330
1F
100
AcDbEntity
  8
LC-001-100-D00-0
 62
     7
370
    50
100
AcDbLine
 10
-488.078071
 20
455.363128
 30
0.0
 11
-488.078083
 21
449.363128
 31
0.0
  0
LINE
  5
1A1
330
1F
100
AcDbEntity
  8
LC-001-100-D00-0
 62
     7
370
    50
100
AcDbLine
 10
-489.078083
 20
448.363128
 30
0.0
 11
-488.078083
 21
449.363128
 31
0.0
  0
LINE
  5
1A2
330
1F
100
AcDbEntity
  8
LC-001-100-D00-0
 62
     7
370
    50
100
AcDbLine
 10
-491.028948
 20
450.363127
 30
0.0
 11
-491.028948
 21
448.363129
 31
0.0
  0
LINE
  5
1A3
330
1F
100
AcDbEntity
  8
LC-001-100-D00-0
 62
     7
370
    50
100
AcDbLine
 10
-490.322792
 20
450.552339
 30
0.0
 11
-491.028948
 21
450.363127
 31
0.0
  0
ARC
  5
1A4
330
1F
100
AcDbEntity
  8
LC-001-100-D00-0
 62
     7
370
    50
100
AcDbCircle
 10
-490.478083
 20
451.131895
 30
0.0
 40
0.6000000000003376
100
AcDbArc
 50
285.0
 51
0.0
  0
ARC
  5
1A5
330
1F
100
AcDbEntity
  8
LC-001-100-D00-0
 62
     7
370
    50
100
AcDbCircle
 10
-490.478083
 20
453.594362
 30
0.0
 40
0.6000000000000227
100
AcDbArc
 50
0.0
 51
75.0
  0
LINE
  5
1A6
330
1F
100
AcDbEntity
  8
LC-001-100-D00-0
 62
     7
370
    50
100
AcDbLine
 10
-491.028948
 20
454.363128
 30
0.0
 11
-490.322792
 21
454.173918
 31
0.0
  0
LINE
  5
1A7
330
1F
100
AcDbEntity
  8
LC-001-100-D00-0
 62
     7
370
    50
100
AcDbLine
 10
-491.028948
 20
456.363128
 30
0.0
 11
-491.028948
 21
454.363128
 31
0.0
  0
LINE
  5
1A8
330
1F
100
AcDbEntity
  8
LC-001-100-D00-0
 62
     7
370
    50
100
AcDbLine
 10
-491.028948
 20
448.363129
 30
0.0
 11
-489.078083
 21
448.363128
 31
0.0
  0
LINE
  5
1A9
330
1F
100
AcDbEntity
  8
LC-001-100-D00-0
 62
     7
370
    50
100
AcDbLine
 10
-491.028948
 20
456.363128
 30
0.0
 11
-489.078088
 21
456.363128
 31
0.0
  0
LINE
  5
1AA
330
1F
100
AcDbEntity
  8
LC-001-100-D00-0
 62
     7
370
    50
100
AcDbLine
 10
-488.078083
 20
449.363128
 30
0.0
 11
-487.920243
 21
449.363128
 31
0.0
  0
LINE
  5
1AB
330
1F
100
AcDbEntity
  8
LC-001-100-D00-0
 62
     7
370
    50
100
AcDbLine
 10
-481.435923
 20
449.363128
 30
0.0
 11
-481.278083
 21
449.363128
 31
0.0
  0
LINE
  5
1AC
330
1F
100
AcDbEntity
  8
LC-001-100-D00-0
 62
     7
370
    50
100
AcDbLine
 10
-480.278083
 20
448.363128
 30
0.0
 11
-480.813865
 21
448.363128
 31
0.0
  0
LINE
  5
1AD
330
1F
100
AcDbEntity
  8
LC-001-100-D00-0
 62
     7
370
    50
100
AcDbLine
 10
-488.542301
 20
448.363128
 30
0.0
 11
-489.078083
 21
448.363128
 31
0.0
  0
LINE
  5
1AE
330
1F
100
AcDbEntity
  8
LC-001-100-D00-0
 62
     7
370
    50
100
AcDbLine
 10
-478.327228
 20
456.363128
 30
0.0
 11
-480.778082
 21
456.363128
 31
0.0
  0
LINE
  5
1AF
330
1F
100
AcDbEntity
  8
LC-001-100-D00-0
 62
     7
370
    50
100
AcDbLine
 10
-480.778082
 20
456.363128
 30
0.0
 11
-480.778083
 21
467.363128
 31
0.0
  0
LINE
  5
1B0
330
1F
100
AcDbEntity
  8
LC-001-100-D00-0
 62
     7
370
    50
100
AcDbLine
 10
-480.778083
 20
467.363128
 30
0.0
 11
-467.428083
 21
467.363128
 31
0.0
  0
ARC
  5
1B1
330
1F
100
AcDbEntity
  8
LC-001-100-D00-0
 62
     7
370
    50
100
AcDbCircle
 10
-467.428083
 20
466.363128
 30
0.0
 40
1.000000000000227
100
AcDbArc
 50
0.0
 51
90.0
  0
LINE
  5
1B2
330
1F
100
AcDbEntity
  8
LC-001-100-D00-0
 62
     7
370
    50
100
AcDbLine
 10
-466.428083
 20
466.363128
 30
0.0
 11
-466.428085
 21
460.363128
 31
0.0
  0
LINE
  5
1B3
330
1F
100
AcDbEntity
  8
LC-001-100-D00-0
 62
     7
370
    50
100
AcDbLine
 10
-469.428083
 20
460.363128
 30
0.0
 11
-466.428085
 21
460.363128
 31
0.0
  0
LINE
  5
1B4
330
1F
100
AcDbEntity
  8
LC-001-100-D00-0
 62
     7
370
    50
100
AcDbLine
 10
-469.428083
 20
460.363128
 30
0.0
 11
-469.428076
 21
464.363128
 31
0.0
  0
LINE
  5
1B5
330
1F
100
AcDbEntity
  8
LC-001-100-D00-0
 62
     7
370
    50
100
AcDbLine
 10
-473.928083
 20
464.363128
 30
0.0
 11
-469.428076
 21
464.363128
 31
0.0
  0
ARC
  5
1B6
330
1F
100
AcDbEntity
  8
LC-001-100-D00-0
 62
     7
370
    50
100
AcDbCircle
 10
-473.928083
 20
463.363128
 30
0.0
 40
1.0
100
AcDbArc
 50
90.0
 51
180.0
  0
LINE
  5
1B7
330
1F
100
AcDbEntity
  8
LC-001-100-D00-0
 62
     7
370
    50
100
AcDbLine
 10
-474.928083
 20
449.363128
 30
0.0
 11
-474.928083
 21
463.363128
 31
0.0
  0
ARC
  5
1B8
330
1F
100
AcDbEntity
  8
LC-001-100-D00-0
 62
     7
370
    50
100
AcDbCircle
 10
-475.928083
 20
449.363128
 30
0.0
 40
1.000000000000227
100
AcDbArc
 50
270.0
 51
0.0
  0
LINE
  5
1B9
330
1F
100
AcDbEntity
  8
LC-001-100-D00-0
 62
     7
370
    50
100
AcDbLine
 10
-475.928083
 20
448.363128
 30
0.0
 11
-478.327228
 21
448.363129
 31
0.0
  0
LINE
  5
1BA
330
1F
100
AcDbEntity
  8
LC-001-100-D00-0
 62
     7
370
    50
100
AcDbLine
 10
-478.327228
 20
450.363127
 30
0.0
 11
-478.327228
 21
448.363129
 31
0.0
  0
LINE
  5
1BB
330
1F
100
AcDbEntity
  8
LC-001-100-D00-0
 62
     7
370
    50
100
AcDbLine
 10
-478.978083
 20
450.363128
 30
0.0
 11
-478.327228
 21
450.363127
 31
0.0
  0
ARC
  5
1BC
330
1F
100
AcDbEntity
  8
LC-001-100-D00-0
 62
     7
370
    50
100
AcDbCircle
 10
-478.978083
 20
450.863128
 30
0.0
 40
0.4999999999999432
100
AcDbArc
 50
180.0
 51
270.0
  0
LINE
  5
1BD
330
1F
100
AcDbEntity
  8
LC-001-100-D00-0
 62
     7
370
    50
100
AcDbLine
 10
-479.478083
 20
453.863128
 30
0.0
 11
-479.478083
 21
450.863128
 31
0.0
  0
ARC
  5
1BE
330
1F
100
AcDbEntity
  8
LC-001-100-D00-0
 62
     7
370
    50
100
AcDbCircle
 10
-478.978083
 20
453.863128
 30
0.0
 40
0.5000000000002274
100
AcDbArc
 50
90.0
 51
180.0
  0
LINE
  5
1BF
330
1F
100
AcDbEntity
  8
LC-001-100-D00-0
 62
     7
370
    50
100
AcDbLine
 10
-478.327228
 20
454.363128
 30
0.0
 11
-478.978083
 21
454.363128
 31
0.0
  0
LINE
  5
1C0
330
1F
100
AcDbEntity
  8
LC-001-100-D00-0
 62
     7
370
    50
100
AcDbLine
 10
-478.327228
 20
456.363128
 30
0.0
 11
-478.327228
 21
454.363128
 31
0.0
  0
ARC
  5
1C1
330
1F
100
AcDbEntity
  8
LC-001-100-D00-0
 62
     7
370
    50
100
AcDbCircle
 10
-495.428083
 20
463.363128
 30
0.0
 40
1.000000000000227
100
AcDbArc
 50
0.0
 51
90.0
  0
ARC
  5
1C2
330
1F
100
AcDbEntity
  8
LC-001-100-D00-0
 62
     7
370
    50
100
AcDbCircle
 10
-493.428083
 20
449.363128
 30
0.0
 40
1.000000000000227
100
AcDbArc
 50
180.0
 51
270.0
  0
LINE
  5
1C3
330
1F
100
AcDbEntity
  8
LC-001-100-D00-0
 62
     7
370
    50
100
AcDbLine
 10
-494.428083
 20
463.363128
 30
0.0
 11
-494.428083
 21
449.363128
 31
0.0
  0
LINE
  5
1C4
330
1F
100
AcDbEntity
  8
LC-001-100-D00-0
 62
     7
370
    50
100
AcDbLine
 10
-489.878083
 20
450.863128
 30
0.0
 11
-489.878083
 21
453.863128
 31
0.0
  0
LINE
  5
1C5
330
1F
100
AcDbEntity
  8
LC-001-100-D00-0
 62
     7
370
    50
100
AcDbLine
 10
-488.578083
 20
467.363128
 30
0.0
 11
-488.578095
 21
456.363128
 31
0.0
  0
LINE
  5
1C6
330
1F
100
AcDbEntity
  8
LC-001-100-D00-0
 62
     7
370
    50
100
AcDbLine
 10
-488.578083
 20
467.363128
 30
0.0
 11
-480.778083
 21
467.363128
 31
0.0
  0
LINE
  5
1C7
330
1F
100
AcDbEntity
  8
LC-001-100-D00-0
 62
     7
370
    50
100
AcDbLine
 10
-491.028948
 20
450.363127
 30
0.0
 11
-491.028948
 21
448.363129
 31
0.0
  0
LINE
  5
1C8
330
1F
100
AcDbEntity
  8
LC-001-100-D00-0
 62
     7
370
    50
100
AcDbLine
 10
-491.028948
 20
456.363128
 30
0.0
 11
-491.028948
 21
454.363128
 31
0.0
  0
ARC
  5
1C9
330
1F
100
AcDbEntity
  8
LC-001-100-D00-0
 62
     7
370
    50
100
AcDbCircle
 10
-490.378083
 20
450.863128
 30
0.0
 40
0.5
100
AcDbArc
 50
270.0
 51
0.0
  0
LINE
  5
1CA
330
1F
100
AcDbEntity
  8
LC-001-100-D00-0
 62
     7
370
    50
100
AcDbLine
 10
-491.028948
 20
450.363127
 30
0.0
 11
-490.378083
 21
450.363128
 31
0.0
  0
LINE
  5
1CB
330
1F
100
AcDbEntity
  8
LC-001-100-D00-0
 62
     7
370
    50
100
AcDbLine
 10
-499.928071
 20
464.363128
 30
0.0
 11
-499.928083
 21
460.363128
 31
0.0
  0
LINE
  5
1CC
330
1F
100
AcDbEntity
  8
LC-001-100-D00-0
 62
     7
370
    50
100
AcDbLine
 10
-502.928092
 20
460.363128
 30
0.0
 11
-502.928083
 21
466.363128
 31
0.0
  0
ARC
  5
1CD
330
1F
100
AcDbEntity
  8
LC-001-100-D00-0
 62
     7
370
    50
100
AcDbCircle
 10
-501.928083
 20
466.363128
 30
0.0
 40
1.000000000000227
100
AcDbArc
 50
90.0
 51
180.0
  0
LINE
  5
1CE
330
1F
100
AcDbEntity
  8
LC-001-100-D00-0
 62
     7
370
    50
100
AcDbLine
 10
-490.378083
 20
454.363128
 30
0.0
 11
-491.028948
 21
454.363128
 31
0.0
  0
ARC
  5
1CF
330
1F
100
AcDbEntity
  8
LC-001-100-D00-0
 62
     7
370
    50
100
AcDbCircle
 10
-490.378083
 20
453.863128
 30
0.0
 40
0.5000000000002274
100
AcDbArc
 50
0.0
 51
90.0
  0
LINE
  5
1D0
330
1F
100
AcDbEntity
  8
LC-001-100-D00-0
 62
     7
370
    50
100
AcDbLine
 10
-488.578095
 20
456.363128
 30
0.0
 11
-491.028948
 21
456.363128
 31
0.0
  0
LINE
  5
1D1
330
1F
100
AcDbEntity
  8
LC-001-100-D00-0
 62
     7
370
    50
100
AcDbLine
 10
-491.028948
 20
448.363129
 30
0.0
 11
-493.428083
 21
448.363128
 31
0.0
  0
LINE
  5
1D2
330
1F
100
AcDbEntity
  8
LC-001-100-D00-0
 62
     7
370
    50
100
AcDbLine
 10
-502.928092
 20
460.363128
 30
0.0
 11
-499.928083
 21
460.363128
 31
0.0
  0
LINE
  5
1D3
330
1F
100
AcDbEntity
  8
LC-001-100-D00-0
 62
     7
370
    50
100
AcDbLine
 10
-499.928071
 20
464.363128
 30
0.0
 11
-495.428083
 21
464.363128
 31
0.0
  0
LINE
  5
1D4
330
1F
100
AcDbEntity
  8
LC-001-100-D00-0
 62
     7
370
    50
100
AcDbLine
 10
-501.928083
 20
467.363128
 30
0.0
 11
-488.578083
 21
467.363128
 31
0.0
  0
LINE
  5
1D5
330
1F
100
AcDbEntity
  8
LC-001-100-D00-0
 62
     7
370
    50
100
AcDbLine
 10
-471.428083
 20
460.363128
 30
0.0
 11
-469.428083
 21
460.363128
 31
0.0
  0
LINE
  5
1D6
330
1F
100
AcDbEntity
  8
LC-001-100-D00-0
 62
     7
370
    50
100
AcDbLine
 10
-499.928083
 20
460.363128
 30
0.0
 11
-497.928083
 21
460.363128
 31
0.0
  0
LINE
  5
1D7
330
1F
100
AcDbEntity
  8
LC-001-100-D00-0
 62
     7
370
    50
100
AcDbLine
 10
-497.928083
 20
460.363128
 30
0.0
 11
-494.428082
 21
460.363128
 31
0.0
  0
LINE
  5
1D8
330
1F
100
AcDbEntity
  8
LC-001-100-D00-0
 62
     7
370
    50
100
AcDbLine
 10
-474.928095
 20
460.363128
 30
0.0
 11
-471.428083
 21
460.363128
 31
0.0
  0
LINE
  5
1D9
330
1F
100
AcDbEntity
  8
LC-001-100-D00-0
 62
     7
370
    50
100
AcDbLine
 10
40.521917
 20
451.131895
 30
0.0
 11
40.521917
 21
453.594362
 31
0.0
  0
ARC
  5
1DA
330
1F
100
AcDbEntity
  8
LC-001-100-D00-0
 62
     7
370
    50
100
AcDbCircle
 10
41.121917
 20
451.131895
 30
0.0
 40
0.6000000000001364
100
AcDbArc
 50
180.0
 51
255.0
  0
LINE
  5
1DB
330
1F
100
AcDbEntity
  8
LC-001-100-D00-0
 62
     7
370
    50
100
AcDbLine
 10
41.672782
 20
450.363127
 30
0.0
 11
40.966626
 21
450.552339
 31
0.0
  0
LINE
  5
1DC
330
1F
100
AcDbEntity
  8
LC-001-100-D00-0
 62
     7
370
    50
100
AcDbLine
 10
41.672782
 20
450.363127
 30
0.0
 11
41.672782
 21
448.363129
 31
0.0
  0
LINE
  5
1DD
330
1F
100
AcDbEntity
  8
LC-001-100-D00-0
 62
     7
370
    50
100
AcDbLine
 10
38.721917
 20
449.363128
 30
0.0
 11
39.721917
 21
448.363128
 31
0.0
  0
LINE
  5
1DE
330
1F
100
AcDbEntity
  8
LC-001-100-D00-0
 62
     7
370
    50
100
AcDbLine
 10
38.721917
 20
449.363128
 30
0.0
 11
38.721905
 21
455.363128
 31
0.0
  0
LINE
  5
1DF
330
1F
100
AcDbEntity
  8
LC-001-100-D00-0
 62
     7
370
    50
100
AcDbLine
 10
39.721922
 20
456.363128
 30
0.0
 11
38.721905
 21
455.363128
 31
0.0
  0
LINE
  5
1E0
330
1F
100
AcDbEntity
  8
LC-001-100-D00-0
 62
     7
370
    50
100
AcDbLine
 10
41.672782
 20
456.363128
 30
0.0
 11
41.672782
 21
454.363128
 31
0.0
  0
LINE
  5
1E1
330
1F
100
AcDbEntity
  8
LC-001-100-D00-0
 62
     7
370
    50
100
AcDbLine
 10
40.966626
 20
454.173918
 30
0.0
 11
41.672782
 21
454.363128
 31
0.0
  0
ARC
  5
1E2
330
1F
100
AcDbEntity
  8
LC-001-100-D00-0
 62
     7
370
    50
100
AcDbCircle
 10
41.121917
 20
453.594362
 30
0.0
 40
0.600000000000118
100
AcDbArc
 50
105.0
 51
180.0
  0
LINE
  5
1E3
330
1F
100
AcDbEntity
  8
LC-001-100-D00-0
 62
     7
370
    50
100
AcDbLine
 10
39.721917
 20
448.363128
 30
0.0
 11
41.672782
 21
448.363129
 31
0.0
  0
LINE
  5
1E4
330
1F
100
AcDbEntity
  8
LC-001-100-D00-0
 62
     7
370
    50
100
AcDbLine
 10
39.721922
 20
456.363128
 30
0.0
 11
41.672782
 21
456.363128
 31
0.0
  0
LINE
  5
1E5
330
1F
100
AcDbEntity
  8
LC-001-100-D00-0
 62
     7
370
    50
100
AcDbLine
 10
30.121917
 20
453.594362
 30
0.0
 11
30.121917
 21
451.131895
 31
0.0
  0
LINE
  5
1E6
330
1F
100
AcDbEntity
  8
LC-001-100-D00-0
 62
     7
370
    50
100
AcDbLine
 10
31.92191
 20
455.363128
 30
0.0
 11
30.921922
 21
456.363128
 31
0.0
  0
LINE
  5
1E7
330
1F
100
AcDbEntity
  8
LC-001-100-D00-0
 62
     7
370
    50
100
AcDbLine
 10
31.92191
 20
455.363128
 30
0.0
 11
31.921917
 21
449.363128
 31
0.0
  0
LINE
  5
1E8
330
1F
100
AcDbEntity
  8
LC-001-100-D00-0
 62
     7
370
    50
100
AcDbLine
 10
30.921917
 20
448.363128
 30
0.0
 11
31.921917
 21
449.363128
 31
0.0
  0
LINE
  5
1E9
330
1F
100
AcDbEntity
  8
LC-001-100-D00-0
 62
     7
370
    50
100
AcDbLine
 10
28.971062
 20
450.363127
 30
0.0
 11
28.971062
 21
448.363129
 31
0.0
  0
LINE
  5
1EA
330
1F
100
AcDbEntity
  8
LC-001-100-D00-0
 62
     7
370
    50
100
AcDbLine
 10
29.677208
 20
450.552339
 30
0.0
 11
28.971062
 21
450.363127
 31
0.0
  0
ARC
  5
1EB
330
1F
100
AcDbEntity
  8
LC-001-100-D00-0
 62
     7
370
    50
100
AcDbCircle
 10
29.521917
 20
451.131895
 30
0.0
 40
0.6000000000003376
100
AcDbArc
 50
285.0
 51
0.0
  0
ARC
  5
1EC
330
1F
100
AcDbEntity
  8
LC-001-100-D00-0
 62
     7
370
    50
100
AcDbCircle
 10
29.521917
 20
453.594362
 30
0.0
 40
0.6000000000000227
100
AcDbArc
 50
0.0
 51
75.0
  0
LINE
  5
1ED
330
1F
100
AcDbEntity
  8
LC-001-100-D00-0
 62
     7
370
    50
100
AcDbLine
 10
28.971062
 20
454.363128
 30
0.0
 11
29.677208
 21
454.173918
 31
0.0
  0
LINE
  5
1EE
330
1F
100
AcDbEntity
  8
LC-001-100-D00-0
 62
     7
370
    50
100
AcDbLine
 10
28.971062
 20
456.363128
 30
0.0
 11
28.971062
 21
454.363128
 31
0.0
  0
LINE
  5
1EF
330
1F
100
AcDbEntity
  8
LC-001-100-D00-0
 62
     7
370
    50
100
AcDbLine
 10
28.971062
 20
448.363129
 30
0.0
 11
30.921917
 21
448.363128
 31
0.0
  0
LINE
  5
1F0
330
1F
100
AcDbEntity
  8
LC-001-100-D00-0
 62
     7
370
    50
100
AcDbLine
 10
28.971062
 20
456.363128
 30
0.0
 11
30.921922
 21
456.363128
 31
0.0
  0
LINE
  5
1F1
330
1F
100
AcDbEntity
  8
LC-001-100-D00-0
 62
     7
370
    50
100
AcDbLine
 10
31.921917
 20
449.363128
 30
0.0
 11
32.079757
 21
449.363128
 31
0.0
  0
LINE
  5
1F2
330
1F
100
AcDbEntity
  8
LC-001-100-D00-0
 62
     7
370
    50
100
AcDbLine
 10
38.564077
 20
449.363128
 30
0.0
 11
38.721917
 21
449.363128
 31
0.0
  0
LINE
  5
1F3
330
1F
100
AcDbEntity
  8
LC-001-100-D00-0
 62
     7
370
    50
100
AcDbLine
 10
39.721917
 20
448.363128
 30
0.0
 11
39.186135
 21
448.363128
 31
0.0
  0
LINE
  5
1F4
330
1F
100
AcDbEntity
  8
LC-001-100-D00-0
 62
     7
370
    50
100
AcDbLine
 10
31.457699
 20
448.363128
 30
0.0
 11
30.921917
 21
448.363128
 31
0.0
  0
LINE
  5
1F5
330
1F
100
AcDbEntity
  8
LC-001-100-D00-0
 62
     7
370
    50
100
AcDbLine
 10
41.672782
 20
456.363128
 30
0.0
 11
39.221929
 21
456.363128
 31
0.0
  0
LINE
  5
1F6
330
1F
100
AcDbEntity
  8
LC-001-100-D00-0
 62
     7
370
    50
100
AcDbLine
 10
39.221929
 20
456.363128
 30
0.0
 11
39.221917
 21
467.363128
 31
0.0
  0
LINE
  5
1F7
330
1F
100
AcDbEntity
  8
LC-001-100-D00-0
 62
     7
370
    50
100
AcDbLine
 10
39.221917
 20
467.363128
 30
0.0
 11
52.571917
 21
467.363128
 31
0.0
  0
ARC
  5
1F8
330
1F
100
AcDbEntity
  8
LC-001-100-D00-0
 62
     7
370
    50
100
AcDbCircle
 10
52.571917
 20
466.363128
 30
0.0
 40
1.000000000000227
100
AcDbArc
 50
0.0
 51
90.0
  0
LINE
  5
1F9
330
1F
100
AcDbEntity
  8
LC-001-100-D00-0
 62
     7
370
    50
100
AcDbLine
 10
53.571917
 20
466.363128
 30
0.0
 11
53.571926
 21
460.363128
 31
0.0
  0
LINE
  5
1FA
330
1F
100
AcDbEntity
  8
LC-001-100-D00-0
 62
     7
370
    50
100
AcDbLine
 10
50.571917
 20
460.363128
 30
0.0
 11
53.571926
 21
460.363128
 31
0.0
  0
LINE
  5
1FB
330
1F
100
AcDbEntity
  8
LC-001-100-D00-0
 62
     7
370
    50
100
AcDbLine
 10
50.571917
 20
460.363128
 30
0.0
 11
50.571905
 21
464.363128
 31
0.0
  0
LINE
  5
1FC
330
1F
100
AcDbEntity
  8
LC-001-100-D00-0
 62
     7
370
    50
100
AcDbLine
 10
46.071917
 20
464.363128
 30
0.0
 11
50.571905
 21
464.363128
 31
0.0
  0
ARC
  5
1FD
330
1F
100
AcDbEntity
  8
LC-001-100-D00-0
 62
     7
370
    50
100
AcDbCircle
 10
46.071917
 20
463.363128
 30
0.0
 40
1.0
100
AcDbArc
 50
90.0
 51
180.0
  0
LINE
  5
1FE
330
1F
100
AcDbEntity
  8
LC-001-100-D00-0
 62
     7
370
    50
100
AcDbLine
 10
45.071917
 20
449.363128
 30
0.0
 11
45.071917
 21
463.363128
 31
0.0
  0
ARC
  5
1FF
330
1F
100
AcDbEntity
  8
LC-001-100-D00-0
 62
     7
370
    50
100
AcDbCircle
 10
44.071917
 20
449.363128
 30
0.0
 40
1.000000000000227
100
AcDbArc
 50
270.0
 51
0.0
  0
LINE
  5
200
330
1F
100
AcDbEntity
  8
LC-001-100-D00-0
 62
     7
370
    50
100
AcDbLine
 10
44.071917
 20
448.363128
 30
0.0
 11
41.672782
 21
448.363129
 31
0.0
  0
LINE
  5
201
330
1F
100
AcDbEntity
  8
LC-001-100-D00-0
 62
     7
370
    50
100
AcDbLine
 10
41.672782
 20
450.363127
 30
0.0
 11
41.672782
 21
448.363129
 31
0.0
  0
LINE
  5
202
330
1F
100
AcDbEntity
  8
LC-001-100-D00-0
 62
     7
370
    50
100
AcDbLine
 10
41.021917
 20
450.363128
 30
0.0
 11
41.672782
 21
450.363127
 31
0.0
  0
ARC
  5
203
330
1F
100
AcDbEntity
  8
LC-001-100-D00-0
 62
     7
370
    50
100
AcDbCircle
 10
41.021917
 20
450.863128
 30
0.0
 40
0.4999999999998863
100
AcDbArc
 50
180.0
 51
270.0
  0
LINE
  5
204
330
1F
100
AcDbEntity
  8
LC-001-100-D00-0
 62
     7
370
    50
100
AcDbLine
 10
40.521917
 20
453.863128
 30
0.0
 11
40.521917
 21
450.863128
 31
0.0
  0
ARC
  5
205
330
1F
100
AcDbEntity
  8
LC-001-100-D00-0
 62
     7
370
    50
100
AcDbCircle
 10
41.021917
 20
453.863128
 30
0.0
 40
0.5000000000002274
100
AcDbArc
 50
90.0
 51
180.0
  0
LINE
  5
206
330
1F
100
AcDbEntity
  8
LC-001-100-D00-0
 62
     7
370
    50
100
AcDbLine
 10
41.672782
 20
454.363128
 30
0.0
 11
41.021917
 21
454.363128
 31
0.0
  0
LINE
  5
207
330
1F
100
AcDbEntity
  8
LC-001-100-D00-0
 62
     7
370
    50
100
AcDbLine
 10
41.672782
 20
456.363128
 30
0.0
 11
41.672782
 21
454.363128
 31
0.0
  0
ARC
  5
208
330
1F
100
AcDbEntity
  8
LC-001-100-D00-0
 62
     7
370
    50
100
AcDbCircle
 10
24.571917
 20
463.363128
 30
0.0
 40
1.000000000000227
100
AcDbArc
 50
0.0
 51
90.0
  0
LINE
  5
209
330
1F
100
AcDbEntity
  8
LC-001-100-D00-0
 62
     7
370
    50
100
AcDbLine
 10
25.571917
 20
463.363128
 30
0.0
 11
25.571917
 21
449.363128
 31
0.0
  0
ARC
  5
20A
330
1F
100
AcDbEntity
  8
LC-001-100-D00-0
 62
     7
370
    50
100
AcDbCircle
 10
26.571917
 20
449.363128
 30
0.0
 40
1.000000000000227
100
AcDbArc
 50
180.0
 51
270.0
  0
LINE
  5
20B
330
1F
100
AcDbEntity
  8
LC-001-100-D00-0
 62
     7
370
    50
100
AcDbLine
 10
30.121917
 20
450.863128
 30
0.0
 11
30.121917
 21
453.863128
 31
0.0
  0
LINE
  5
20C
330
1F
100
AcDbEntity
  8
LC-001-100-D00-0
 62
     7
370
    50
100
AcDbLine
 10
31.421917
 20
467.363128
 30
0.0
 11
31.421916
 21
456.363128
 31
0.0
  0
LINE
  5
20D
330
1F
100
AcDbEntity
  8
LC-001-100-D00-0
 62
     7
370
    50
100
AcDbLine
 10
31.421917
 20
467.363128
 30
0.0
 11
39.221917
 21
467.363128
 31
0.0
  0
LINE
  5
20E
330
1F
100
AcDbEntity
  8
LC-001-100-D00-0
 62
     7
370
    50
100
AcDbLine
 10
28.971062
 20
450.363127
 30
0.0
 11
28.971062
 21
448.363129
 31
0.0
  0
LINE
  5
20F
330
1F
100
AcDbEntity
  8
LC-001-100-D00-0
 62
     7
370
    50
100
AcDbLine
 10
28.971062
 20
456.363128
 30
0.0
 11
28.971062
 21
454.363128
 31
0.0
  0
ARC
  5
210
330
1F
100
AcDbEntity
  8
LC-001-100-D00-0
 62
     7
370
    50
100
AcDbCircle
 10
29.621917
 20
450.863128
 30
0.0
 40
0.5
100
AcDbArc
 50
270.0
 51
0.0
  0
LINE
  5
211
330
1F
100
AcDbEntity
  8
LC-001-100-D00-0
 62
     7
370
    50
100
AcDbLine
 10
28.971062
 20
450.363127
 30
0.0
 11
29.621917
 21
450.363128
 31
0.0
  0
LINE
  5
212
330
1F
100
AcDbEntity
  8
LC-001-100-D00-0
 62
     7
370
    50
100
AcDbLine
 10
20.07191
 20
464.363128
 30
0.0
 11
20.071917
 21
460.363128
 31
0.0
  0
LINE
  5
213
330
1F
100
AcDbEntity
  8
LC-001-100-D00-0
 62
     7
370
    50
100
AcDbLine
 10
17.071919
 20
460.363128
 30
0.0
 11
17.071917
 21
466.363128
 31
0.0
  0
ARC
  5
214
330
1F
100
AcDbEntity
  8
LC-001-100-D00-0
 62
     7
370
    50
100
AcDbCircle
 10
18.071917
 20
466.363128
 30
0.0
 40
1.000000000000227
100
AcDbArc
 50
90.0
 51
180.0
  0
LINE
  5
215
330
1F
100
AcDbEntity
  8
LC-001-100-D00-0
 62
     7
370
    50
100
AcDbLine
 10
29.621917
 20
454.363128
 30
0.0
 11
28.971062
 21
454.363128
 31
0.0
  0
ARC
  5
216
330
1F
100
AcDbEntity
  8
LC-001-100-D00-0
 62
     7
370
    50
100
AcDbCircle
 10
29.621917
 20
453.863128
 30
0.0
 40
0.5000000000002274
100
AcDbArc
 50
0.0
 51
90.0
  0
LINE
  5
217
330
1F
100
AcDbEntity
  8
LC-001-100-D00-0
 62
     7
370
    50
100
AcDbLine
 10
31.421916
 20
456.363128
 30
0.0
 11
28.971062
 21
456.363128
 31
0.0
  0
LINE
  5
218
330
1F
100
AcDbEntity
  8
LC-001-100-D00-0
 62
     7
370
    50
100
AcDbLine
 10
28.971062
 20
448.363129
 30
0.0
 11
26.571917
 21
448.363128
 31
0.0
  0
LINE
  5
219
330
1F
100
AcDbEntity
  8
LC-001-100-D00-0
 62
     7
370
    50
100
AcDbLine
 10
17.071919
 20
460.363128
 30
0.0
 11
20.071917
 21
460.363128
 31
0.0
  0
LINE
  5
21A
330
1F
100
AcDbEntity
  8
LC-001-100-D00-0
 62
     7
370
    50
100
AcDbLine
 10
20.07191
 20
464.363128
 30
0.0
 11
24.571917
 21
464.363128
 31
0.0
  0
LINE
  5
21B
330
1F
100
AcDbEntity
  8
LC-001-100-D00-0
 62
     7
370
    50
100
AcDbLine
 10
18.071917
 20
467.363128
 30
0.0
 11
31.421917
 21
467.363128
 31
0.0
  0
LINE
  5
21C
330
1F
100
AcDbEntity
  8
LC-001-100-D00-0
 62
     7
370
    50
100
AcDbLine
 10
48.571917
 20
460.363128
 30
0.0
 11
50.571917
 21
460.363128
 31
0.0
  0
LINE
  5
21D
330
1F
100
AcDbEntity
  8
LC-001-100-D00-0
 62
     7
370
    50
100
AcDbLine
 10
20.071917
 20
460.363128
 30
0.0
 11
22.071917
 21
460.363128
 31
0.0
  0
LINE
  5
21E
330
1F
100
AcDbEntity
  8
LC-001-100-D00-0
 62
     7
370
    50
100
AcDbLine
 10
22.071917
 20
460.363128
 30
0.0
 11
25.571929
 21
460.363128
 31
0.0
  0
LINE
  5
21F
330
1F
100
AcDbEntity
  8
LC-001-100-D00-0
 62
     7
370
    50
100
AcDbLine
 10
45.071916
 20
460.363128
 30
0.0
 11
48.571917
 21
460.363128
 31
0.0
  0
LINE
  5
220
330
1F
100
AcDbEntity
  8
LC-001-100-D00-0
 62
     7
370
    50
100
AcDbLine
 10
-639.478083
 20
451.131895
 30
0.0
 11
-639.478083
 21
453.594362
 31
0.0
  0
ARC
  5
221
330
1F
100
AcDbEntity
  8
LC-001-100-D00-0
 62
     7
370
    50
100
AcDbCircle
 10
-638.878083
 20
451.131895
 30
0.0
 40
0.6000000000001364
100
AcDbArc
 50
180.0
 51
255.0
  0
LINE
  5
222
330
1F
100
AcDbEntity
  8
LC-001-100-D00-0
 62
     7
370
    50
100
AcDbLine
 10
-638.327225
 20
450.363127
 30
0.0
 11
-639.033374
 21
450.552339
 31
0.0
  0
LINE
  5
223
330
1F
100
AcDbEntity
  8
LC-001-100-D00-0
 62
     7
370
    50
100
AcDbLine
 10
-638.327225
 20
450.363127
 30
0.0
 11
-638.327225
 21
448.363129
 31
0.0
  0
LINE
  5
224
330
1F
100
AcDbEntity
  8
LC-001-100-D00-0
 62
     7
370
    50
100
AcDbLine
 10
-641.278083
 20
449.363128
 30
0.0
 11
-640.278083
 21
448.363128
 31
0.0
  0
LINE
  5
225
330
1F
100
AcDbEntity
  8
LC-001-100-D00-0
 62
     7
370
    50
100
AcDbLine
 10
-641.278083
 20
449.363128
 30
0.0
 11
-641.278072
 21
455.363128
 31
0.0
  0
LINE
  5
226
330
1F
100
AcDbEntity
  8
LC-001-100-D00-0
 62
     7
370
    50
100
AcDbLine
 10
-640.278085
 20
456.363128
 30
0.0
 11
-641.278072
 21
455.363128
 31
0.0
  0
LINE
  5
227
330
1F
100
AcDbEntity
  8
LC-001-100-D00-0
 62
     7
370
    50
100
AcDbLine
 10
-638.327225
 20
456.363128
 30
0.0
 11
-638.327225
 21
454.363128
 31
0.0
  0
LINE
  5
228
330
1F
100
AcDbEntity
  8
LC-001-100-D00-0
 62
     7
370
    50
100
AcDbLine
 10
-639.033374
 20
454.173918
 30
0.0
 11
-638.327225
 21
454.363128
 31
0.0
  0
ARC
  5
229
330
1F
100
AcDbEntity
  8
LC-001-100-D00-0
 62
     7
370
    50
100
AcDbCircle
 10
-638.878083
 20
453.594362
 30
0.0
 40
0.5999999999998689
100
AcDbArc
 50
105.0
 51
180.0
  0
LINE
  5
22A
330
1F
100
AcDbEntity
  8
LC-001-100-D00-0
 62
     7
370
    50
100
AcDbLine
 10
-640.278083
 20
448.363128
 30
0.0
 11
-638.327225
 21
448.363129
 31
0.0
  0
LINE
  5
22B
330
1F
100
AcDbEntity
  8
LC-001-100-D00-0
 62
     7
370
    50
100
AcDbLine
 10
-640.278085
 20
456.363128
 30
0.0
 11
-638.327225
 21
456.363128
 31
0.0
  0
LINE
  5
22C
330
1F
100
AcDbEntity
  8
LC-001-100-D00-0
 62
     7
370
    50
100
AcDbLine
 10
-649.878083
 20
453.594362
 30
0.0
 11
-649.878083
 21
451.131895
 31
0.0
  0
LINE
  5
22D
330
1F
100
AcDbEntity
  8
LC-001-100-D00-0
 62
     7
370
    50
100
AcDbLine
 10
-648.078098
 20
455.363128
 30
0.0
 11
-649.078085
 21
456.363128
 31
0.0
  0
LINE
  5
22E
330
1F
100
AcDbEntity
  8
LC-001-100-D00-0
 62
     7
370
    50
100
AcDbLine
 10
-648.078098
 20
455.363128
 30
0.0
 11
-648.078083
 21
449.363128
 31
0.0
  0
LINE
  5
22F
330
1F
100
AcDbEntity
  8
LC-001-100-D00-0
 62
     7
370
    50
100
AcDbLine
 10
-649.078083
 20
448.363128
 30
0.0
 11
-648.078083
 21
449.363128
 31
0.0
  0
LINE
  5
230
330
1F
100
AcDbEntity
  8
LC-001-100-D00-0
 62
     7
370
    50
100
AcDbLine
 10
-651.028945
 20
450.363127
 30
0.0
 11
-651.028945
 21
448.363129
 31
0.0
  0
LINE
  5
231
330
1F
100
AcDbEntity
  8
LC-001-100-D00-0
 62
     7
370
    50
100
AcDbLine
 10
-650.322792
 20
450.552339
 30
0.0
 11
-651.028945
 21
450.363127
 31
0.0
  0
ARC
  5
232
330
1F
100
AcDbEntity
  8
LC-001-100-D00-0
 62
     7
370
    50
100
AcDbCircle
 10
-650.478083
 20
451.131895
 30
0.0
 40
0.6000000000003082
100
AcDbArc
 50
285.0
 51
0.0
  0
ARC
  5
233
330
1F
100
AcDbEntity
  8
LC-001-100-D00-0
 62
     7
370
    50
100
AcDbCircle
 10
-650.478083
 20
453.594362
 30
0.0
 40
0.6000000000000227
100
AcDbArc
 50
0.0
 51
75.0
  0
LINE
  5
234
330
1F
100
AcDbEntity
  8
LC-001-100-D00-0
 62
     7
370
    50
100
AcDbLine
 10
-651.028945
 20
454.363128
 30
0.0
 11
-650.322792
 21
454.173918
 31
0.0
  0
LINE
  5
235
330
1F
100
AcDbEntity
  8
LC-001-100-D00-0
 62
     7
370
    50
100
AcDbLine
 10
-651.028945
 20
456.363128
 30
0.0
 11
-651.028945
 21
454.363128
 31
0.0
  0
LINE
  5
236
330
1F
100
AcDbEntity
  8
LC-001-100-D00-0
 62
     7
370
    50
100
AcDbLine
 10
-651.028945
 20
448.363129
 30
0.0
 11
-649.078083
 21
448.363128
 31
0.0
  0
LINE
  5
237
330
1F
100
AcDbEntity
  8
LC-001-100-D00-0
 62
     7
370
    50
100
AcDbLine
 10
-651.028945
 20
456.363128
 30
0.0
 11
-649.078085
 21
456.363128
 31
0.0
  0
LINE
  5
238
330
1F
100
AcDbEntity
  8
LC-001-100-D00-0
 62
     7
370
    50
100
AcDbLine
 10
-648.078083
 20
449.363128
 30
0.0
 11
-647.920243
 21
449.363128
 31
0.0
  0
LINE
  5
239
330
1F
100
AcDbEntity
  8
LC-001-100-D00-0
 62
     7
370
    50
100
AcDbLine
 10
-641.435923
 20
449.363128
 30
0.0
 11
-641.278083
 21
449.363128
 31
0.0
  0
LINE
  5
23A
330
1F
100
AcDbEntity
  8
LC-001-100-D00-0
 62
     7
370
    50
100
AcDbLine
 10
-640.278083
 20
448.363128
 30
0.0
 11
-640.813865
 21
448.363128
 31
0.0
  0
LINE
  5
23B
330
1F
100
AcDbEntity
  8
LC-001-100-D00-0
 62
     7
370
    50
100
AcDbLine
 10
-648.542301
 20
448.363128
 30
0.0
 11
-649.078083
 21
448.363128
 31
0.0
  0
LINE
  5
23C
330
1F
100
AcDbEntity
  8
LC-001-100-D00-0
 62
     7
370
    50
100
AcDbLine
 10
-638.327225
 20
456.363128
 30
0.0
 11
-640.778078
 21
456.363128
 31
0.0
  0
LINE
  5
23D
330
1F
100
AcDbEntity
  8
LC-001-100-D00-0
 62
     7
370
    50
100
AcDbLine
 10
-640.778078
 20
456.363128
 30
0.0
 11
-640.778083
 21
467.363128
 31
0.0
  0
LINE
  5
23E
330
1F
100
AcDbEntity
  8
LC-001-100-D00-0
 62
     7
370
    50
100
AcDbLine
 10
-640.778083
 20
467.363128
 30
0.0
 11
-627.428083
 21
467.363128
 31
0.0
  0
ARC
  5
23F
330
1F
100
AcDbEntity
  8
LC-001-100-D00-0
 62
     7
370
    50
100
AcDbCircle
 10
-627.428083
 20
466.363128
 30
0.0
 40
1.000000000000227
100
AcDbArc
 50
0.0
 51
90.0
  0
LINE
  5
240
330
1F
100
AcDbEntity
  8
LC-001-100-D00-0
 62
     7
370
    50
100
AcDbLine
 10
-626.428083
 20
466.363128
 30
0.0
 11
-626.428081
 21
460.363128
 31
0.0
  0
LINE
  5
241
330
1F
100
AcDbEntity
  8
LC-001-100-D00-0
 62
     7
370
    50
100
AcDbLine
 10
-629.428083
 20
460.363128
 30
0.0
 11
-626.428081
 21
460.363128
 31
0.0
  0
LINE
  5
242
330
1F
100
AcDbEntity
  8
LC-001-100-D00-0
 62
     7
370
    50
100
AcDbLine
 10
-629.428083
 20
460.363128
 30
0.0
 11
-629.428072
 21
464.363128
 31
0.0
  0
LINE
  5
243
330
1F
100
AcDbEntity
  8
LC-001-100-D00-0
 62
     7
370
    50
100
AcDbLine
 10
-633.928083
 20
464.363128
 30
0.0
 11
-629.428072
 21
464.363128
 31
0.0
  0
ARC
  5
244
330
1F
100
AcDbEntity
  8
LC-001-100-D00-0
 62
     7
370
    50
100
AcDbCircle
 10
-633.928083
 20
463.363128
 30
0.0
 40
1.0
100
AcDbArc
 50
90.0
 51
180.0
  0
LINE
  5
245
330
1F
100
AcDbEntity
  8
LC-001-100-D00-0
 62
     7
370
    50
100
AcDbLine
 10
-634.928083
 20
449.363128
 30
0.0
 11
-634.928083
 21
463.363128
 31
0.0
  0
ARC
  5
246
330
1F
100
AcDbEntity
  8
LC-001-100-D00-0
 62
     7
370
    50
100
AcDbCircle
 10
-635.928083
 20
449.363128
 30
0.0
 40
1.000000000000227
100
AcDbArc
 50
270.0
 51
0.0
  0
LINE
  5
247
330
1F
100
AcDbEntity
  8
LC-001-100-D00-0
 62
     7
370
    50
100
AcDbLine
 10
-635.928083
 20
448.363128
 30
0.0
 11
-638.327225
 21
448.363129
 31
0.0
  0
LINE
  5
248
330
1F
100
AcDbEntity
  8
LC-001-100-D00-0
 62
     7
370
    50
100
AcDbLine
 10
-638.327225
 20
450.363127
 30
0.0
 11
-638.327225
 21
448.363129
 31
0.0
  0
LINE
  5
249
330
1F
100
AcDbEntity
  8
LC-001-100-D00-0
 62
     7
370
    50
100
AcDbLine
 10
-638.978083
 20
450.363128
 30
0.0
 11
-638.327225
 21
450.363127
 31
0.0
  0
ARC
  5
24A
330
1F
100
AcDbEntity
  8
LC-001-100-D00-0
 62
     7
370
    50
100
AcDbCircle
 10
-638.978083
 20
450.863128
 30
0.0
 40
0.5
100
AcDbArc
 50
180.0
 51
270.0
  0
LINE
  5
24B
330
1F
100
AcDbEntity
  8
LC-001-100-D00-0
 62
     7
370
    50
100
AcDbLine
 10
-639.478083
 20
453.863128
 30
0.0
 11
-639.478083
 21
450.863128
 31
0.0
  0
ARC
  5
24C
330
1F
100
AcDbEntity
  8
LC-001-100-D00-0
 62
     7
370
    50
100
AcDbCircle
 10
-638.978083
 20
453.863128
 30
0.0
 40
0.5000000000002274
100
AcDbArc
 50
90.0
 51
180.0
  0
LINE
  5
24D
330
1F
100
AcDbEntity
  8
LC-001-100-D00-0
 62
     7
370
    50
100
AcDbLine
 10
-638.327225
 20
454.363128
 30
0.0
 11
-638.978083
 21
454.363128
 31
0.0
  0
LINE
  5
24E
330
1F
100
AcDbEntity
  8
LC-001-100-D00-0
 62
     7
370
    50
100
AcDbLine
 10
-638.327225
 20
456.363128
 30
0.0
 11
-638.327225
 21
454.363128
 31
0.0
  0
ARC
  5
24F
330
1F
100
AcDbEntity
  8
LC-001-100-D00-0
 62
     7
370
    50
100
AcDbCircle
 10
-655.428083
 20
463.363128
 30
0.0
 40
1.000000000000227
100
AcDbArc
 50
0.0
 51
90.0
  0
ARC
  5
250
330
1F
100
AcDbEntity
  8
LC-001-100-D00-0
 62
     7
370
    50
100
AcDbCircle
 10
-653.428083
 20
449.363128
 30
0.0
 40
1.000000000000227
100
AcDbArc
 50
180.0
 51
270.0
  0
LINE
  5
251
330
1F
100
AcDbEntity
  8
LC-001-100-D00-0
 62
     7
370
    50
100
AcDbLine
 10
-654.428083
 20
463.363128
 30
0.0
 11
-654.428083
 21
449.363128
 31
0.0
  0
LINE
  5
252
330
1F
100
AcDbEntity
  8
LC-001-100-D00-0
 62
     7
370
    50
100
AcDbLine
 10
-649.878083
 20
450.863128
 30
0.0
 11
-649.878083
 21
453.863128
 31
0.0
  0
LINE
  5
253
330
1F
100
AcDbEntity
  8
LC-001-100-D00-0
 62
     7
370
    50
100
AcDbLine
 10
-648.578083
 20
467.363128
 30
0.0
 11
-648.578091
 21
456.363128
 31
0.0
  0
LINE
  5
254
330
1F
100
AcDbEntity
  8
LC-001-100-D00-0
 62
     7
370
    50
100
AcDbLine
 10
-648.578083
 20
467.363128
 30
0.0
 11
-640.778083
 21
467.363128
 31
0.0
  0
LINE
  5
255
330
1F
100
AcDbEntity
  8
LC-001-100-D00-0
 62
     7
370
    50
100
AcDbLine
 10
-651.028945
 20
450.363127
 30
0.0
 11
-651.028945
 21
448.363129
 31
0.0
  0
LINE
  5
256
330
1F
100
AcDbEntity
  8
LC-001-100-D00-0
 62
     7
370
    50
100
AcDbLine
 10
-651.028945
 20
456.363128
 30
0.0
 11
-651.028945
 21
454.363128
 31
0.0
  0
ARC
  5
257
330
1F
100
AcDbEntity
  8
LC-001-100-D00-0
 62
     7
370
    50
100
AcDbCircle
 10
-650.378083
 20
450.863128
 30
0.0
 40
0.5
100
AcDbArc
 50
270.0
 51
0.0
  0
LINE
  5
258
330
1F
100
AcDbEntity
  8
LC-001-100-D00-0
 62
     7
370
    50
100
AcDbLine
 10
-651.028945
 20
450.363127
 30
0.0
 11
-650.378083
 21
450.363128
 31
0.0
  0
LINE
  5
259
330
1F
100
AcDbEntity
  8
LC-001-100-D00-0
 62
     7
370
    50
100
AcDbLine
 10
-659.928097
 20
464.363128
 30
0.0
 11
-659.928083
 21
460.363128
 31
0.0
  0
LINE
  5
25A
330
1F
100
AcDbEntity
  8
LC-001-100-D00-0
 62
     7
370
    50
100
AcDbLine
 10
-662.928088
 20
460.363128
 30
0.0
 11
-662.928083
 21
466.363128
 31
0.0
  0
ARC
  5
25B
330
1F
100
AcDbEntity
  8
LC-001-100-D00-0
 62
     7
370
    50
100
AcDbCircle
 10
-661.928083
 20
466.363128
 30
0.0
 40
1.000000000000227
100
AcDbArc
 50
90.0
 51
180.0
  0
LINE
  5
25C
330
1F
100
AcDbEntity
  8
LC-001-100-D00-0
 62
     7
370
    50
100
AcDbLine
 10
-650.378083
 20
454.363128
 30
0.0
 11
-651.028945
 21
454.363128
 31
0.0
  0
ARC
  5
25D
330
1F
100
AcDbEntity
  8
LC-001-100-D00-0
 62
     7
370
    50
100
AcDbCircle
 10
-650.378083
 20
453.863128
 30
0.0
 40
0.5000000000002274
100
AcDbArc
 50
0.0
 51
90.0
  0
LINE
  5
25E
330
1F
100
AcDbEntity
  8
LC-001-100-D00-0
 62
     7
370
    50
100
AcDbLine
 10
-662.928088
 20
460.363128
 30
0.0
 11
-659.928083
 21
460.363128
 31
0.0
  0
LINE
  5
25F
330
1F
100
AcDbEntity
  8
LC-001-100-D00-0
 62
     7
370
    50
100
AcDbLine
 10
-648.578091
 20
456.363128
 30
0.0
 11
-651.028945
 21
456.363128
 31
0.0
  0
LINE
  5
260
330
1F
100
AcDbEntity
  8
LC-001-100-D00-0
 62
     7
370
    50
100
AcDbLine
 10
-651.028945
 20
448.363129
 30
0.0
 11
-653.428083
 21
448.363128
 31
0.0
  0
LINE
  5
261
330
1F
100
AcDbEntity
  8
LC-001-100-D00-0
 62
     7
370
    50
100
AcDbLine
 10
-659.928097
 20
464.363128
 30
0.0
 11
-655.428083
 21
464.363128
 31
0.0
  0
LINE
  5
262
330
1F
100
AcDbEntity
  8
LC-001-100-D00-0
 62
     7
370
    50
100
AcDbLine
 10
-661.928083
 20
467.363128
 30
0.0
 11
-648.578083
 21
467.363128
 31
0.0
  0
LINE
  5
263
330
1F
100
AcDbEntity
  8
LC-001-100-D00-0
 62
     7
370
    50
100
AcDbLine
 10
-631.428083
 20
460.363128
 30
0.0
 11
-629.428083
 21
460.363128
 31
0.0
  0
LINE
  5
264
330
1F
100
AcDbEntity
  8
LC-001-100-D00-0
 62
     7
370
    50
100
AcDbLine
 10
-659.928083
 20
460.363128
 30
0.0
 11
-657.928083
 21
460.363128
 31
0.0
  0
LINE
  5
265
330
1F
100
AcDbEntity
  8
LC-001-100-D00-0
 62
     7
370
    50
100
AcDbLine
 10
-657.928083
 20
460.363128
 30
0.0
 11
-654.428078
 21
460.363128
 31
0.0
  0
LINE
  5
266
330
1F
100
AcDbEntity
  8
LC-001-100-D00-0
 62
     7
370
    50
100
AcDbLine
 10
-634.928091
 20
460.363128
 30
0.0
 11
-631.428083
 21
460.363128
 31
0.0
  0
LINE
  5
267
330
1F
100
AcDbEntity
  8
LC-001-100-D00-0
 62
     7
370
    50
100
AcDbLine
 10
-319.478083
 20
451.131895
 30
0.0
 11
-319.478083
 21
453.594362
 31
0.0
  0
ARC
  5
268
330
1F
100
AcDbEntity
  8
LC-001-100-D00-0
 62
     7
370
    50
100
AcDbCircle
 10
-318.878083
 20
451.131895
 30
0.0
 40
0.6000000000001364
100
AcDbArc
 50
180.0
 51
255.0
  0
LINE
  5
269
330
1F
100
AcDbEntity
  8
LC-001-100-D00-0
 62
     7
370
    50
100
AcDbLine
 10
-318.327232
 20
450.363127
 30
0.0
 11
-319.033374
 21
450.552339
 31
0.0
  0
LINE
  5
26A
330
1F
100
AcDbEntity
  8
LC-001-100-D00-0
 62
     7
370
    50
100
AcDbLine
 10
-318.327232
 20
450.363127
 30
0.0
 11
-318.327232
 21
448.363129
 31
0.0
  0
LINE
  5
26B
330
1F
100
AcDbEntity
  8
LC-001-100-D00-0
 62
     7
370
    50
100
AcDbLine
 10
-321.278083
 20
449.363128
 30
0.0
 11
-320.278083
 21
448.363128
 31
0.0
  0
LINE
  5
26C
330
1F
100
AcDbEntity
  8
LC-001-100-D00-0
 62
     7
370
    50
100
AcDbLine
 10
-321.278083
 20
449.363128
 30
0.0
 11
-321.278086
 21
455.363128
 31
0.0
  0
LINE
  5
26D
330
1F
100
AcDbEntity
  8
LC-001-100-D00-0
 62
     7
370
    50
100
AcDbLine
 10
-320.278084
 20
456.363128
 30
0.0
 11
-321.278086
 21
455.363128
 31
0.0
  0
LINE
  5
26E
330
1F
100
AcDbEntity
  8
LC-001-100-D00-0
 62
     7
370
    50
100
AcDbLine
 10
-318.327232
 20
456.363128
 30
0.0
 11
-318.327232
 21
454.363128
 31
0.0
  0
LINE
  5
26F
330
1F
100
AcDbEntity
  8
LC-001-100-D00-0
 62
     7
370
    50
100
AcDbLine
 10
-319.033374
 20
454.173918
 30
0.0
 11
-318.327232
 21
454.363128
 31
0.0
  0
ARC
  5
270
330
1F
100
AcDbEntity
  8
LC-001-100-D00-0
 62
     7
370
    50
100
AcDbCircle
 10
-318.878083
 20
453.594362
 30
0.0
 40
0.600000000000118
100
AcDbArc
 50
105.0
 51
180.0
  0
LINE
  5
271
330
1F
100
AcDbEntity
  8
LC-001-100-D00-0
 62
     7
370
    50
100
AcDbLine
 10
-320.278083
 20
448.363128
 30
0.0
 11
-318.327232
 21
448.363129
 31
0.0
  0
LINE
  5
272
330
1F
100
AcDbEntity
  8
LC-001-100-D00-0
 62
     7
370
    50
100
AcDbLine
 10
-320.278084
 20
456.363128
 30
0.0
 11
-318.327232
 21
456.363128
 31
0.0
  0
LINE
  5
273
330
1F
100
AcDbEntity
  8
LC-001-100-D00-0
 62
     7
370
    50
100
AcDbLine
 10
-329.878083
 20
453.594362
 30
0.0
 11
-329.878083
 21
451.131895
 31
0.0
  0
LINE
  5
274
330
1F
100
AcDbEntity
  8
LC-001-100-D00-0
 62
     7
370
    50
100
AcDbLine
 10
-328.078082
 20
455.363128
 30
0.0
 11
-329.078084
 21
456.363128
 31
0.0
  0
LINE
  5
275
330
1F
100
AcDbEntity
  8
LC-001-100-D00-0
 62
     7
370
    50
100
AcDbLine
 10
-328.078082
 20
455.363128
 30
0.0
 11
-328.078083
 21
449.363128
 31
0.0
  0
LINE
  5
276
330
1F
100
AcDbEntity
  8
LC-001-100-D00-0
 62
     7
370
    50
100
AcDbLine
 10
-329.078083
 20
448.363128
 30
0.0
 11
-328.078083
 21
449.363128
 31
0.0
  0
LINE
  5
277
330
1F
100
AcDbEntity
  8
LC-001-100-D00-0
 62
     7
370
    50
100
AcDbLine
 10
-331.028937
 20
450.363127
 30
0.0
 11
-331.028937
 21
448.363129
 31
0.0
  0
LINE
  5
278
330
1F
100
AcDbEntity
  8
LC-001-100-D00-0
 62
     7
370
    50
100
AcDbLine
 10
-330.322792
 20
450.552339
 30
0.0
 11
-331.028937
 21
450.363127
 31
0.0
  0
ARC
  5
279
330
1F
100
AcDbEntity
  8
LC-001-100-D00-0
 62
     7
370
    50
100
AcDbCircle
 10
-330.478083
 20
451.131895
 30
0.0
 40
0.6000000000003376
100
AcDbArc
 50
285.0
 51
0.0
  0
ARC
  5
27A
330
1F
100
AcDbEntity
  8
LC-001-100-D00-0
 62
     7
370
    50
100
AcDbCircle
 10
-330.478083
 20
453.594362
 30
0.0
 40
0.6000000000000227
100
AcDbArc
 50
0.0
 51
75.0
  0
LINE
  5
27B
330
1F
100
AcDbEntity
  8
LC-001-100-D00-0
 62
     7
370
    50
100
AcDbLine
 10
-331.028937
 20
454.363128
 30
0.0
 11
-330.322792
 21
454.173918
 31
0.0
  0
LINE
  5
27C
330
1F
100
AcDbEntity
  8
LC-001-100-D00-0
 62
     7
370
    50
100
AcDbLine
 10
-331.028937
 20
456.363128
 30
0.0
 11
-331.028937
 21
454.363128
 31
0.0
  0
LINE
  5
27D
330
1F
100
AcDbEntity
  8
LC-001-100-D00-0
 62
     7
370
    50
100
AcDbLine
 10
-331.028937
 20
448.363129
 30
0.0
 11
-329.078083
 21
448.363128
 31
0.0
  0
LINE
  5
27E
330
1F
100
AcDbEntity
  8
LC-001-100-D00-0
 62
     7
370
    50
100
AcDbLine
 10
-331.028937
 20
456.363128
 30
0.0
 11
-329.078084
 21
456.363128
 31
0.0
  0
LINE
  5
27F
330
1F
100
AcDbEntity
  8
LC-001-100-D00-0
 62
     7
370
    50
100
AcDbLine
 10
-328.078083
 20
449.363128
 30
0.0
 11
-327.920243
 21
449.363128
 31
0.0
  0
LINE
  5
280
330
1F
100
AcDbEntity
  8
LC-001-100-D00-0
 62
     7
370
    50
100
AcDbLine
 10
-321.435923
 20
449.363128
 30
0.0
 11
-321.278083
 21
449.363128
 31
0.0
  0
LINE
  5
281
330
1F
100
AcDbEntity
  8
LC-001-100-D00-0
 62
     7
370
    50
100
AcDbLine
 10
-320.278083
 20
448.363128
 30
0.0
 11
-320.813865
 21
448.363128
 31
0.0
  0
LINE
  5
282
330
1F
100
AcDbEntity
  8
LC-001-100-D00-0
 62
     7
370
    50
100
AcDbLine
 10
-328.542301
 20
448.363128
 30
0.0
 11
-329.078083
 21
448.363128
 31
0.0
  0
LINE
  5
283
330
1F
100
AcDbEntity
  8
LC-001-100-D00-0
 62
     7
370
    50
100
AcDbLine
 10
-318.327232
 20
456.363128
 30
0.0
 11
-320.778085
 21
456.363128
 31
0.0
  0
LINE
  5
284
330
1F
100
AcDbEntity
  8
LC-001-100-D00-0
 62
     7
370
    50
100
AcDbLine
 10
-320.778085
 20
456.363128
 30
0.0
 11
-320.778083
 21
467.363128
 31
0.0
  0
LINE
  5
285
330
1F
100
AcDbEntity
  8
LC-001-100-D00-0
 62
     7
370
    50
100
AcDbLine
 10
-320.778083
 20
467.363128
 30
0.0
 11
-307.428083
 21
467.363128
 31
0.0
  0
ARC
  5
286
330
1F
100
AcDbEntity
  8
LC-001-100-D00-0
 62
     7
370
    50
100
AcDbCircle
 10
-307.428083
 20
466.363128
 30
0.0
 40
1.000000000000227
100
AcDbArc
 50
0.0
 51
90.0
  0
LINE
  5
287
330
1F
100
AcDbEntity
  8
LC-001-100-D00-0
 62
     7
370
    50
100
AcDbLine
 10
-306.428083
 20
466.363128
 30
0.0
 11
-306.428081
 21
460.363128
 31
0.0
  0
LINE
  5
288
330
1F
100
AcDbEntity
  8
LC-001-100-D00-0
 62
     7
370
    50
100
AcDbLine
 10
-309.428083
 20
460.363128
 30
0.0
 11
-306.428081
 21
460.363128
 31
0.0
  0
LINE
  5
289
330
1F
100
AcDbEntity
  8
LC-001-100-D00-0
 62
     7
370
    50
100
AcDbLine
 10
-309.428083
 20
460.363128
 30
0.0
 11
-309.42808
 21
464.363128
 31
0.0
  0
LINE
  5
28A
330
1F
100
AcDbEntity
  8
LC-001-100-D00-0
 62
     7
370
    50
100
AcDbLine
 10
-313.928083
 20
464.363128
 30
0.0
 11
-309.42808
 21
464.363128
 31
0.0
  0
ARC
  5
28B
330
1F
100
AcDbEntity
  8
LC-001-100-D00-0
 62
     7
370
    50
100
AcDbCircle
 10
-313.928083
 20
463.363128
 30
0.0
 40
1.0
100
AcDbArc
 50
90.0
 51
180.0
  0
LINE
  5
28C
330
1F
100
AcDbEntity
  8
LC-001-100-D00-0
 62
     7
370
    50
100
AcDbLine
 10
-314.928083
 20
449.363128
 30
0.0
 11
-314.928083
 21
463.363128
 31
0.0
  0
ARC
  5
28D
330
1F
100
AcDbEntity
  8
LC-001-100-D00-0
 62
     7
370
    50
100
AcDbCircle
 10
-315.928083
 20
449.363128
 30
0.0
 40
1.000000000000227
100
AcDbArc
 50
270.0
 51
0.0
  0
LINE
  5
28E
330
1F
100
AcDbEntity
  8
LC-001-100-D00-0
 62
     7
370
    50
100
AcDbLine
 10
-315.928083
 20
448.363128
 30
0.0
 11
-318.327232
 21
448.363129
 31
0.0
  0
LINE
  5
28F
330
1F
100
AcDbEntity
  8
LC-001-100-D00-0
 62
     7
370
    50
100
AcDbLine
 10
-318.327232
 20
450.363127
 30
0.0
 11
-318.327232
 21
448.363129
 31
0.0
  0
LINE
  5
290
330
1F
100
AcDbEntity
  8
LC-001-100-D00-0
 62
     7
370
    50
100
AcDbLine
 10
-318.978083
 20
450.363128
 30
0.0
 11
-318.327232
 21
450.363127
 31
0.0
  0
ARC
  5
291
330
1F
100
AcDbEntity
  8
LC-001-100-D00-0
 62
     7
370
    50
100
AcDbCircle
 10
-318.978083
 20
450.863128
 30
0.0
 40
0.5000000000001137
100
AcDbArc
 50
180.0
 51
270.0
  0
LINE
  5
292
330
1F
100
AcDbEntity
  8
LC-001-100-D00-0
 62
     7
370
    50
100
AcDbLine
 10
-319.478083
 20
453.863128
 30
0.0
 11
-319.478083
 21
450.863128
 31
0.0
  0
ARC
  5
293
330
1F
100
AcDbEntity
  8
LC-001-100-D00-0
 62
     7
370
    50
100
AcDbCircle
 10
-318.978083
 20
453.863128
 30
0.0
 40
0.5000000000002274
100
AcDbArc
 50
90.0
 51
180.0
  0
LINE
  5
294
330
1F
100
AcDbEntity
  8
LC-001-100-D00-0
 62
     7
370
    50
100
AcDbLine
 10
-318.327232
 20
454.363128
 30
0.0
 11
-318.978083
 21
454.363128
 31
0.0
  0
LINE
  5
295
330
1F
100
AcDbEntity
  8
LC-001-100-D00-0
 62
     7
370
    50
100
AcDbLine
 10
-318.327232
 20
456.363128
 30
0.0
 11
-318.327232
 21
454.363128
 31
0.0
  0
ARC
  5
296
330
1F
100
AcDbEntity
  8
LC-001-100-D00-0
 62
     7
370
    50
100
AcDbCircle
 10
-335.428083
 20
463.363128
 30
0.0
 40
1.000000000000227
100
AcDbArc
 50
0.0
 51
90.0
  0
LINE
  5
297
330
1F
100
AcDbEntity
  8
LC-001-100-D00-0
 62
     7
370
    50
100
AcDbLine
 10
-334.428083
 20
463.363128
 30
0.0
 11
-334.428083
 21
449.363128
 31
0.0
  0
ARC
  5
298
330
1F
100
AcDbEntity
  8
LC-001-100-D00-0
 62
     7
370
    50
100
AcDbCircle
 10
-333.428083
 20
449.363128
 30
0.0
 40
1.000000000000227
100
AcDbArc
 50
180.0
 51
270.0
  0
LINE
  5
299
330
1F
100
AcDbEntity
  8
LC-001-100-D00-0
 62
     7
370
    50
100
AcDbLine
 10
-329.878083
 20
450.863128
 30
0.0
 11
-329.878083
 21
453.863128
 31
0.0
  0
LINE
  5
29A
330
1F
100
AcDbEntity
  8
LC-001-100-D00-0
 62
     7
370
    50
100
AcDbLine
 10
-328.578083
 20
467.363128
 30
0.0
 11
-328.578083
 21
456.363128
 31
0.0
  0
LINE
  5
29B
330
1F
100
AcDbEntity
  8
LC-001-100-D00-0
 62
     7
370
    50
100
AcDbLine
 10
-328.578083
 20
467.363128
 30
0.0
 11
-320.778083
 21
467.363128
 31
0.0
  0
LINE
  5
29C
330
1F
100
AcDbEntity
  8
LC-001-100-D00-0
 62
     7
370
    50
100
AcDbLine
 10
-331.028937
 20
456.363128
 30
0.0
 11
-331.028937
 21
454.363128
 31
0.0
  0
LINE
  5
29D
330
1F
100
AcDbEntity
  8
LC-001-100-D00-0
 62
     7
370
    50
100
AcDbLine
 10
-331.028937
 20
450.363127
 30
0.0
 11
-331.028937
 21
448.363129
 31
0.0
  0
ARC
  5
29E
330
1F
100
AcDbEntity
  8
LC-001-100-D00-0
 62
     7
370
    50
100
AcDbCircle
 10
-330.378083
 20
450.863128
 30
0.0
 40
0.5
100
AcDbArc
 50
270.0
 51
0.0
  0
LINE
  5
29F
330
1F
100
AcDbEntity
  8
LC-001-100-D00-0
 62
     7
370
    50
100
AcDbLine
 10
-331.028937
 20
450.363127
 30
0.0
 11
-330.378083
 21
450.363128
 31
0.0
  0
LINE
  5
2A0
330
1F
100
AcDbEntity
  8
LC-001-100-D00-0
 62
     7
370
    50
100
AcDbLine
 10
-339.928082
 20
464.363128
 30
0.0
 11
-339.928083
 21
460.363128
 31
0.0
  0
LINE
  5
2A1
330
1F
100
AcDbEntity
  8
LC-001-100-D00-0
 62
     7
370
    50
100
AcDbLine
 10
-342.92808
 20
460.363128
 30
0.0
 11
-342.928083
 21
466.363128
 31
0.0
  0
ARC
  5
2A2
330
1F
100
AcDbEntity
  8
LC-001-100-D00-0
 62
     7
370
    50
100
AcDbCircle
 10
-341.928083
 20
466.363128
 30
0.0
 40
1.000000000000227
100
AcDbArc
 50
90.0
 51
180.0
  0
LINE
  5
2A3
330
1F
100
AcDbEntity
  8
LC-001-100-D00-0
 62
     7
370
    50
100
AcDbLine
 10
-330.378083
 20
454.363128
 30
0.0
 11
-331.028937
 21
454.363128
 31
0.0
  0
ARC
  5
2A4
330
1F
100
AcDbEntity
  8
LC-001-100-D00-0
 62
     7
370
    50
100
AcDbCircle
 10
-330.378083
 20
453.863128
 30
0.0
 40
0.5000000000003411
100
AcDbArc
 50
0.0
 51
90.0
  0
LINE
  5
2A5
330
1F
100
AcDbEntity
  8
LC-001-100-D00-0
 62
     7
370
    50
100
AcDbLine
 10
-328.578083
 20
456.363128
 30
0.0
 11
-331.028937
 21
456.363128
 31
0.0
  0
LINE
  5
2A6
330
1F
100
AcDbEntity
  8
LC-001-100-D00-0
 62
     7
370
    50
100
AcDbLine
 10
-331.028937
 20
448.363129
 30
0.0
 11
-333.428083
 21
448.363128
 31
0.0
  0
LINE
  5
2A7
330
1F
100
AcDbEntity
  8
LC-001-100-D00-0
 62
     7
370
    50
100
AcDbLine
 10
-339.928082
 20
464.363128
 30
0.0
 11
-335.428083
 21
464.363128
 31
0.0
  0
LINE
  5
2A8
330
1F
100
AcDbEntity
  8
LC-001-100-D00-0
 62
     7
370
    50
100
AcDbLine
 10
-342.92808
 20
460.363128
 30
0.0
 11
-339.928083
 21
460.363128
 31
0.0
  0
LINE
  5
2A9
330
1F
100
AcDbEntity
  8
LC-001-100-D00-0
 62
     7
370
    50
100
AcDbLine
 10
-341.928083
 20
467.363128
 30
0.0
 11
-328.578083
 21
467.363128
 31
0.0
  0
LINE
  5
2AA
330
1F
100
AcDbEntity
  8
LC-001-100-D00-0
 62
     7
370
    50
100
AcDbLine
 10
-311.428083
 20
460.363128
 30
0.0
 11
-309.428083
 21
460.363128
 31
0.0
  0
LINE
  5
2AB
330
1F
100
AcDbEntity
  8
LC-001-100-D00-0
 62
     7
370
    50
100
AcDbLine
 10
-339.928083
 20
460.363128
 30
0.0
 11
-337.928083
 21
460.363128
 31
0.0
  0
LINE
  5
2AC
330
1F
100
AcDbEntity
  8
LC-001-100-D00-0
 62
     7
370
    50
100
AcDbLine
 10
-337.928083
 20
460.363128
 30
0.0
 11
-334.428086
 21
460.363128
 31
0.0
  0
LINE
  5
2AD
330
1F
100
AcDbEntity
  8
LC-001-100-D00-0
 62
     7
370
    50
100
AcDbLine
 10
-314.928083
 20
460.363128
 30
0.0
 11
-311.428083
 21
460.363128
 31
0.0
  0
LINE
  5
2AE
330
1F
100
AcDbEntity
  8
LC-001-100-D00-0
 62
     7
370
    50
100
AcDbLine
 10
200.521917
 20
451.131895
 30
0.0
 11
200.521917
 21
453.594362
 31
0.0
  0
ARC
  5
2AF
330
1F
100
AcDbEntity
  8
LC-001-100-D00-0
 62
     7
370
    50
100
AcDbCircle
 10
201.121917
 20
451.131895
 30
0.0
 40
0.6000000000003638
100
AcDbArc
 50
180.0
 51
255.0
  0
LINE
  5
2B0
330
1F
100
AcDbEntity
  8
LC-001-100-D00-0
 62
     7
370
    50
100
AcDbLine
 10
201.672779
 20
450.363127
 30
0.0
 11
200.966626
 21
450.552339
 31
0.0
  0
LINE
  5
2B1
330
1F
100
AcDbEntity
  8
LC-001-100-D00-0
 62
     7
370
    50
100
AcDbLine
 10
201.672779
 20
450.363127
 30
0.0
 11
201.672779
 21
448.363129
 31
0.0
  0
LINE
  5
2B2
330
1F
100
AcDbEntity
  8
LC-001-100-D00-0
 62
     7
370
    50
100
AcDbLine
 10
198.721917
 20
449.363128
 30
0.0
 11
199.721917
 21
448.363128
 31
0.0
  0
LINE
  5
2B3
330
1F
100
AcDbEntity
  8
LC-001-100-D00-0
 62
     7
370
    50
100
AcDbLine
 10
198.721917
 20
449.363128
 30
0.0
 11
198.721932
 21
455.363128
 31
0.0
  0
LINE
  5
2B4
330
1F
100
AcDbEntity
  8
LC-001-100-D00-0
 62
     7
370
    50
100
AcDbLine
 10
199.721919
 20
456.363128
 30
0.0
 11
198.721932
 21
455.363128
 31
0.0
  0
LINE
  5
2B5
330
1F
100
AcDbEntity
  8
LC-001-100-D00-0
 62
     7
370
    50
100
AcDbLine
 10
201.672779
 20
456.363128
 30
0.0
 11
201.672779
 21
454.363128
 31
0.0
  0
LINE
  5
2B6
330
1F
100
AcDbEntity
  8
LC-001-100-D00-0
 62
     7
370
    50
100
AcDbLine
 10
200.966626
 20
454.173918
 30
0.0
 11
201.672779
 21
454.363128
 31
0.0
  0
ARC
  5
2B7
330
1F
100
AcDbEntity
  8
LC-001-100-D00-0
 62
     7
370
    50
100
AcDbCircle
 10
201.121917
 20
453.594362
 30
0.0
 40
0.6000000000001474
100
AcDbArc
 50
105.0
 51
180.0
  0
LINE
  5
2B8
330
1F
100
AcDbEntity
  8
LC-001-100-D00-0
 62
     7
370
    50
100
AcDbLine
 10
199.721917
 20
448.363128
 30
0.0
 11
201.672779
 21
448.363129
 31
0.0
  0
LINE
  5
2B9
330
1F
100
AcDbEntity
  8
LC-001-100-D00-0
 62
     7
370
    50
100
AcDbLine
 10
199.721919
 20
456.363128
 30
0.0
 11
201.672779
 21
456.363128
 31
0.0
  0
LINE
  5
2BA
330
1F
100
AcDbEntity
  8
LC-001-100-D00-0
 62
     7
370
    50
100
AcDbLine
 10
190.121917
 20
453.594362
 30
0.0
 11
190.121917
 21
451.131895
 31
0.0
  0
LINE
  5
2BB
330
1F
100
AcDbEntity
  8
LC-001-100-D00-0
 62
     7
370
    50
100
AcDbLine
 10
191.921906
 20
455.363128
 30
0.0
 11
190.921919
 21
456.363128
 31
0.0
  0
LINE
  5
2BC
330
1F
100
AcDbEntity
  8
LC-001-100-D00-0
 62
     7
370
    50
100
AcDbLine
 10
191.921906
 20
455.363128
 30
0.0
 11
191.921917
 21
449.363128
 31
0.0
  0
LINE
  5
2BD
330
1F
100
AcDbEntity
  8
LC-001-100-D00-0
 62
     7
370
    50
100
AcDbLine
 10
190.921917
 20
448.363128
 30
0.0
 11
191.921917
 21
449.363128
 31
0.0
  0
LINE
  5
2BE
330
1F
100
AcDbEntity
  8
LC-001-100-D00-0
 62
     7
370
    50
100
AcDbLine
 10
188.971059
 20
450.363127
 30
0.0
 11
188.971059
 21
448.363129
 31
0.0
  0
LINE
  5
2BF
330
1F
100
AcDbEntity
  8
LC-001-100-D00-0
 62
     7
370
    50
100
AcDbLine
 10
189.677208
 20
450.552339
 30
0.0
 11
188.971059
 21
450.363127
 31
0.0
  0
ARC
  5
2C0
330
1F
100
AcDbEntity
  8
LC-001-100-D00-0
 62
     7
370
    50
100
AcDbCircle
 10
189.521917
 20
451.131895
 30
0.0
 40
0.600000000000367
100
AcDbArc
 50
285.0
 51
0.0
  0
ARC
  5
2C1
330
1F
100
AcDbEntity
  8
LC-001-100-D00-0
 62
     7
370
    50
100
AcDbCircle
 10
189.521917
 20
453.594362
 30
0.0
 40
0.6000000000001364
100
AcDbArc
 50
0.0
 51
75.0
  0
LINE
  5
2C2
330
1F
100
AcDbEntity
  8
LC-001-100-D00-0
 62
     7
370
    50
100
AcDbLine
 10
188.971059
 20
454.363128
 30
0.0
 11
189.677208
 21
454.173918
 31
0.0
  0
LINE
  5
2C3
330
1F
100
AcDbEntity
  8
LC-001-100-D00-0
 62
     7
370
    50
100
AcDbLine
 10
188.971059
 20
456.363128
 30
0.0
 11
188.971059
 21
454.363128
 31
0.0
  0
LINE
  5
2C4
330
1F
100
AcDbEntity
  8
LC-001-100-D00-0
 62
     7
370
    50
100
AcDbLine
 10
188.971059
 20
448.363129
 30
0.0
 11
190.921917
 21
448.363128
 31
0.0
  0
LINE
  5
2C5
330
1F
100
AcDbEntity
  8
LC-001-100-D00-0
 62
     7
370
    50
100
AcDbLine
 10
188.971059
 20
456.363128
 30
0.0
 11
190.921919
 21
456.363128
 31
0.0
  0
LINE
  5
2C6
330
1F
100
AcDbEntity
  8
LC-001-100-D00-0
 62
     7
370
    50
100
AcDbLine
 10
191.921917
 20
449.363128
 30
0.0
 11
192.079757
 21
449.363128
 31
0.0
  0
LINE
  5
2C7
330
1F
100
AcDbEntity
  8
LC-001-100-D00-0
 62
     7
370
    50
100
AcDbLine
 10
198.564077
 20
449.363128
 30
0.0
 11
198.721917
 21
449.363128
 31
0.0
  0
LINE
  5
2C8
330
1F
100
AcDbEntity
  8
LC-001-100-D00-0
 62
     7
370
    50
100
AcDbLine
 10
199.721917
 20
448.363128
 30
0.0
 11
199.186135
 21
448.363128
 31
0.0
  0
LINE
  5
2C9
330
1F
100
AcDbEntity
  8
LC-001-100-D00-0
 62
     7
370
    50
100
AcDbLine
 10
191.457699
 20
448.363128
 30
0.0
 11
190.921917
 21
448.363128
 31
0.0
  0
LINE
  5
2CA
330
1F
100
AcDbEntity
  8
LC-001-100-D00-0
 62
     7
370
    50
100
AcDbLine
 10
201.672779
 20
456.363128
 30
0.0
 11
199.221925
 21
456.363128
 31
0.0
  0
LINE
  5
2CB
330
1F
100
AcDbEntity
  8
LC-001-100-D00-0
 62
     7
370
    50
100
AcDbLine
 10
199.221925
 20
456.363128
 30
0.0
 11
199.221917
 21
467.363128
 31
0.0
  0
LINE
  5
2CC
330
1F
100
AcDbEntity
  8
LC-001-100-D00-0
 62
     7
370
    50
100
AcDbLine
 10
199.221917
 20
467.363128
 30
0.0
 11
212.571917
 21
467.363128
 31
0.0
  0
ARC
  5
2CD
330
1F
100
AcDbEntity
  8
LC-001-100-D00-0
 62
     7
370
    50
100
AcDbCircle
 10
212.571917
 20
466.363128
 30
0.0
 40
1.000000000000227
100
AcDbArc
 50
0.0
 51
90.0
  0
LINE
  5
2CE
330
1F
100
AcDbEntity
  8
LC-001-100-D00-0
 62
     7
370
    50
100
AcDbLine
 10
213.571917
 20
466.363128
 30
0.0
 11
213.571922
 21
460.363128
 31
0.0
  0
LINE
  5
2CF
330
1F
100
AcDbEntity
  8
LC-001-100-D00-0
 62
     7
370
    50
100
AcDbLine
 10
210.571917
 20
460.363128
 30
0.0
 11
213.571922
 21
460.363128
 31
0.0
  0
LINE
  5
2D0
330
1F
100
AcDbEntity
  8
LC-001-100-D00-0
 62
     7
370
    50
100
AcDbLine
 10
210.571917
 20
460.363128
 30
0.0
 11
210.571931
 21
464.363128
 31
0.0
  0
LINE
  5
2D1
330
1F
100
AcDbEntity
  8
LC-001-100-D00-0
 62
     7
370
    50
100
AcDbLine
 10
206.071917
 20
464.363128
 30
0.0
 11
210.571931
 21
464.363128
 31
0.0
  0
ARC
  5
2D2
330
1F
100
AcDbEntity
  8
LC-001-100-D00-0
 62
     7
370
    50
100
AcDbCircle
 10
206.071917
 20
463.363128
 30
0.0
 40
1.0
100
AcDbArc
 50
90.0
 51
180.0
  0
LINE
  5
2D3
330
1F
100
AcDbEntity
  8
LC-001-100-D00-0
 62
     7
370
    50
100
AcDbLine
 10
205.071917
 20
449.363128
 30
0.0
 11
205.071917
 21
463.363128
 31
0.0
  0
ARC
  5
2D4
330
1F
100
AcDbEntity
  8
LC-001-100-D00-0
 62
     7
370
    50
100
AcDbCircle
 10
204.071917
 20
449.363128
 30
0.0
 40
1.000000000000227
100
AcDbArc
 50
270.0
 51
0.0
  0
LINE
  5
2D5
330
1F
100
AcDbEntity
  8
LC-001-100-D00-0
 62
     7
370
    50
100
AcDbLine
 10
204.071917
 20
448.363128
 30
0.0
 11
201.672779
 21
448.363129
 31
0.0
  0
LINE
  5
2D6
330
1F
100
AcDbEntity
  8
LC-001-100-D00-0
 62
     7
370
    50
100
AcDbLine
 10
201.672779
 20
450.363127
 30
0.0
 11
201.672779
 21
448.363129
 31
0.0
  0
LINE
  5
2D7
330
1F
100
AcDbEntity
  8
LC-001-100-D00-0
 62
     7
370
    50
100
AcDbLine
 10
201.021917
 20
450.363128
 30
0.0
 11
201.672779
 21
450.363127
 31
0.0
  0
ARC
  5
2D8
330
1F
100
AcDbEntity
  8
LC-001-100-D00-0
 62
     7
370
    50
100
AcDbCircle
 10
201.021917
 20
450.863128
 30
0.0
 40
0.5
100
AcDbArc
 50
180.0
 51
270.0
  0
LINE
  5
2D9
330
1F
100
AcDbEntity
  8
LC-001-100-D00-0
 62
     7
370
    50
100
AcDbLine
 10
200.521917
 20
453.863128
 30
0.0
 11
200.521917
 21
450.863128
 31
0.0
  0
ARC
  5
2DA
330
1F
100
AcDbEntity
  8
LC-001-100-D00-0
 62
     7
370
    50
100
AcDbCircle
 10
201.021917
 20
453.863128
 30
0.0
 40
0.5000000000002274
100
AcDbArc
 50
90.0
 51
180.0
  0
LINE
  5
2DB
330
1F
100
AcDbEntity
  8
LC-001-100-D00-0
 62
     7
370
    50
100
AcDbLine
 10
201.672779
 20
454.363128
 30
0.0
 11
201.021917
 21
454.363128
 31
0.0
  0
LINE
  5
2DC
330
1F
100
AcDbEntity
  8
LC-001-100-D00-0
 62
     7
370
    50
100
AcDbLine
 10
201.672779
 20
456.363128
 30
0.0
 11
201.672779
 21
454.363128
 31
0.0
  0
ARC
  5
2DD
330
1F
100
AcDbEntity
  8
LC-001-100-D00-0
 62
     7
370
    50
100
AcDbCircle
 10
184.571917
 20
463.363128
 30
0.0
 40
1.000000000000227
100
AcDbArc
 50
0.0
 51
90.0
  0
LINE
  5
2DE
330
1F
100
AcDbEntity
  8
LC-001-100-D00-0
 62
     7
370
    50
100
AcDbLine
 10
185.571917
 20
463.363128
 30
0.0
 11
185.571917
 21
449.363128
 31
0.0
  0
ARC
  5
2DF
330
1F
100
AcDbEntity
  8
LC-001-100-D00-0
 62
     7
370
    50
100
AcDbCircle
 10
186.571917
 20
449.363128
 30
0.0
 40
1.0
100
AcDbArc
 50
180.0
 51
270.0
  0
LINE
  5
2E0
330
1F
100
AcDbEntity
  8
LC-001-100-D00-0
 62
     7
370
    50
100
AcDbLine
 10
190.121917
 20
450.863128
 30
0.0
 11
190.121917
 21
453.863128
 31
0.0
  0
LINE
  5
2E1
330
1F
100
AcDbEntity
  8
LC-001-100-D00-0
 62
     7
370
    50
100
AcDbLine
 10
191.421917
 20
467.363128
 30
0.0
 11
191.421912
 21
456.363128
 31
0.0
  0
LINE
  5
2E2
330
1F
100
AcDbEntity
  8
LC-001-100-D00-0
 62
     7
370
    50
100
AcDbLine
 10
191.421917
 20
467.363128
 30
0.0
 11
199.221917
 21
467.363128
 31
0.0
  0
LINE
  5
2E3
330
1F
100
AcDbEntity
  8
LC-001-100-D00-0
 62
     7
370
    50
100
AcDbLine
 10
188.971059
 20
456.363128
 30
0.0
 11
188.971059
 21
454.363128
 31
0.0
  0
LINE
  5
2E4
330
1F
100
AcDbEntity
  8
LC-001-100-D00-0
 62
     7
370
    50
100
AcDbLine
 10
188.971059
 20
450.363127
 30
0.0
 11
188.971059
 21
448.363129
 31
0.0
  0
ARC
  5
2E5
330
1F
100
AcDbEntity
  8
LC-001-100-D00-0
 62
     7
370
    50
100
AcDbCircle
 10
189.621917
 20
450.863128
 30
0.0
 40
0.5000000000002274
100
AcDbArc
 50
270.0
 51
0.0
  0
LINE
  5
2E6
330
1F
100
AcDbEntity
  8
LC-001-100-D00-0
 62
     7
370
    50
100
AcDbLine
 10
188.971059
 20
450.363127
 30
0.0
 11
189.621917
 21
450.363128
 31
0.0
  0
LINE
  5
2E7
330
1F
100
AcDbEntity
  8
LC-001-100-D00-0
 62
     7
370
    50
100
AcDbLine
 10
180.071907
 20
464.363128
 30
0.0
 11
180.071917
 21
460.363128
 31
0.0
  0
LINE
  5
2E8
330
1F
100
AcDbEntity
  8
LC-001-100-D00-0
 62
     7
370
    50
100
AcDbLine
 10
177.071915
 20
460.363128
 30
0.0
 11
177.071917
 21
466.363128
 31
0.0
  0
ARC
  5
2E9
330
1F
100
AcDbEntity
  8
LC-001-100-D00-0
 62
     7
370
    50
100
AcDbCircle
 10
178.071917
 20
466.363128
 30
0.0
 40
1.000000000000227
100
AcDbArc
 50
90.0
 51
180.0
  0
LINE
  5
2EA
330
1F
100
AcDbEntity
  8
LC-001-100-D00-0
 62
     7
370
    50
100
AcDbLine
 10
189.621917
 20
454.363128
 30
0.0
 11
188.971059
 21
454.363128
 31
0.0
  0
ARC
  5
2EB
330
1F
100
AcDbEntity
  8
LC-001-100-D00-0
 62
     7
370
    50
100
AcDbCircle
 10
189.621917
 20
453.863128
 30
0.0
 40
0.5000000000002274
100
AcDbArc
 50
0.0
 51
90.0
  0
LINE
  5
2EC
330
1F
100
AcDbEntity
  8
LC-001-100-D00-0
 62
     7
370
    50
100
AcDbLine
 10
177.071915
 20
460.363128
 30
0.0
 11
180.071917
 21
460.363128
 31
0.0
  0
LINE
  5
2ED
330
1F
100
AcDbEntity
  8
LC-001-100-D00-0
 62
     7
370
    50
100
AcDbLine
 10
191.421912
 20
456.363128
 30
0.0
 11
188.971059
 21
456.363128
 31
0.0
  0
LINE
  5
2EE
330
1F
100
AcDbEntity
  8
LC-001-100-D00-0
 62
     7
370
    50
100
AcDbLine
 10
188.971059
 20
448.363129
 30
0.0
 11
186.571917
 21
448.363128
 31
0.0
  0
LINE
  5
2EF
330
1F
100
AcDbEntity
  8
LC-001-100-D00-0
 62
     7
370
    50
100
AcDbLine
 10
180.071907
 20
464.363128
 30
0.0
 11
184.571917
 21
464.363128
 31
0.0
  0
LINE
  5
2F0
330
1F
100
AcDbEntity
  8
LC-001-100-D00-0
 62
     7
370
    50
100
AcDbLine
 10
178.071917
 20
467.363128
 30
0.0
 11
191.421917
 21
467.363128
 31
0.0
  0
LINE
  5
2F1
330
1F
100
AcDbEntity
  8
LC-001-100-D00-0
 62
     7
370
    50
100
AcDbLine
 10
208.571917
 20
460.363128
 30
0.0
 11
210.571917
 21
460.363128
 31
0.0
  0
LINE
  5
2F2
330
1F
100
AcDbEntity
  8
LC-001-100-D00-0
 62
     7
370
    50
100
AcDbLine
 10
180.071917
 20
460.363128
 30
0.0
 11
182.071917
 21
460.363128
 31
0.0
  0
LINE
  5
2F3
330
1F
100
AcDbEntity
  8
LC-001-100-D00-0
 62
     7
370
    50
100
AcDbLine
 10
182.071917
 20
460.363128
 30
0.0
 11
185.571925
 21
460.363128
 31
0.0
  0
LINE
  5
2F4
330
1F
100
AcDbEntity
  8
LC-001-100-D00-0
 62
     7
370
    50
100
AcDbLine
 10
205.071913
 20
460.363128
 30
0.0
 11
208.571917
 21
460.363128
 31
0.0
  0
LINE
  5
2F5
330
1F
100
AcDbEntity
  8
LC-001-100-D00-0
 62
     7
370
    50
100
AcDbLine
 10
-119.478083
 20
451.131895
 30
0.0
 11
-119.478083
 21
453.594362
 31
0.0
  0
ARC
  5
2F6
330
1F
100
AcDbEntity
  8
LC-001-100-D00-0
 62
     7
370
    50
100
AcDbCircle
 10
-118.878083
 20
451.131895
 30
0.0
 40
0.6000000000001364
100
AcDbArc
 50
180.0
 51
255.0
  0
LINE
  5
2F7
330
1F
100
AcDbEntity
  8
LC-001-100-D00-0
 62
     7
370
    50
100
AcDbLine
 10
-118.327229
 20
450.363127
 30
0.0
 11
-119.033374
 21
450.552339
 31
0.0
  0
LINE
  5
2F8
330
1F
100
AcDbEntity
  8
LC-001-100-D00-0
 62
     7
370
    50
100
AcDbLine
 10
-118.327229
 20
450.363127
 30
0.0
 11
-118.327229
 21
448.363129
 31
0.0
  0
LINE
  5
2F9
330
1F
100
AcDbEntity
  8
LC-001-100-D00-0
 62
     7
370
    50
100
AcDbLine
 10
-121.278083
 20
449.363128
 30
0.0
 11
-120.278083
 21
448.363128
 31
0.0
  0
LINE
  5
2FA
330
1F
100
AcDbEntity
  8
LC-001-100-D00-0
 62
     7
370
    50
100
AcDbLine
 10
-121.278083
 20
449.363128
 30
0.0
 11
-121.278083
 21
455.363128
 31
0.0
  0
LINE
  5
2FB
330
1F
100
AcDbEntity
  8
LC-001-100-D00-0
 62
     7
370
    50
100
AcDbLine
 10
-120.278081
 20
456.363128
 30
0.0
 11
-121.278083
 21
455.363128
 31
0.0
  0
LINE
  5
2FC
330
1F
100
AcDbEntity
  8
LC-001-100-D00-0
 62
     7
370
    50
100
AcDbLine
 10
-118.327229
 20
456.363128
 30
0.0
 11
-118.327229
 21
454.363128
 31
0.0
  0
LINE
  5
2FD
330
1F
100
AcDbEntity
  8
LC-001-100-D00-0
 62
     7
370
    50
100
AcDbLine
 10
-119.033374
 20
454.173918
 30
0.0
 11
-118.327229
 21
454.363128
 31
0.0
  0
ARC
  5
2FE
330
1F
100
AcDbEntity
  8
LC-001-100-D00-0
 62
     7
370
    50
100
AcDbCircle
 10
-118.878083
 20
453.594362
 30
0.0
 40
0.600000000000118
100
AcDbArc
 50
105.0
 51
180.0
  0
LINE
  5
2FF
330
1F
100
AcDbEntity
  8
LC-001-100-D00-0
 62
     7
370
    50
100
AcDbLine
 10
-120.278083
 20
448.363128
 30
0.0
 11
-118.327229
 21
448.363129
 31
0.0
  0
LINE
  5
300
330
1F
100
AcDbEntity
  8
LC-001-100-D00-0
 62
     7
370
    50
100
AcDbLine
 10
-120.278081
 20
456.363128
 30
0.0
 11
-118.327229
 21
456.363128
 31
0.0
  0
LINE
  5
301
330
1F
100
AcDbEntity
  8
LC-001-100-D00-0
 62
     7
370
    50
100
AcDbLine
 10
-129.878083
 20
453.594362
 30
0.0
 11
-129.878083
 21
451.131895
 31
0.0
  0
LINE
  5
302
330
1F
100
AcDbEntity
  8
LC-001-100-D00-0
 62
     7
370
    50
100
AcDbLine
 10
-128.078079
 20
455.363128
 30
0.0
 11
-129.078081
 21
456.363128
 31
0.0
  0
LINE
  5
303
330
1F
100
AcDbEntity
  8
LC-001-100-D00-0
 62
     7
370
    50
100
AcDbLine
 10
-128.078079
 20
455.363128
 30
0.0
 11
-128.078083
 21
449.363128
 31
0.0
  0
LINE
  5
304
330
1F
100
AcDbEntity
  8
LC-001-100-D00-0
 62
     7
370
    50
100
AcDbLine
 10
-129.078083
 20
448.363128
 30
0.0
 11
-128.078083
 21
449.363128
 31
0.0
  0
LINE
  5
305
330
1F
100
AcDbEntity
  8
LC-001-100-D00-0
 62
     7
370
    50
100
AcDbLine
 10
-131.028934
 20
450.363127
 30
0.0
 11
-131.028934
 21
448.363129
 31
0.0
  0
LINE
  5
306
330
1F
100
AcDbEntity
  8
LC-001-100-D00-0
 62
     7
370
    50
100
AcDbLine
 10
-130.322792
 20
450.552339
 30
0.0
 11
-131.028934
 21
450.363127
 31
0.0
  0
ARC
  5
307
330
1F
100
AcDbEntity
  8
LC-001-100-D00-0
 62
     7
370
    50
100
AcDbCircle
 10
-130.478083
 20
451.131895
 30
0.0
 40
0.6000000000003376
100
AcDbArc
 50
285.0
 51
0.0
  0
ARC
  5
308
330
1F
100
AcDbEntity
  8
LC-001-100-D00-0
 62
     7
370
    50
100
AcDbCircle
 10
-130.478083
 20
453.594362
 30
0.0
 40
0.6000000000000227
100
AcDbArc
 50
0.0
 51
75.0
  0
LINE
  5
309
330
1F
100
AcDbEntity
  8
LC-001-100-D00-0
 62
     7
370
    50
100
AcDbLine
 10
-131.028934
 20
454.363128
 30
0.0
 11
-130.322792
 21
454.173918
 31
0.0
  0
LINE
  5
30A
330
1F
100
AcDbEntity
  8
LC-001-100-D00-0
 62
     7
370
    50
100
AcDbLine
 10
-131.028934
 20
456.363128
 30
0.0
 11
-131.028934
 21
454.363128
 31
0.0
  0
LINE
  5
30B
330
1F
100
AcDbEntity
  8
LC-001-100-D00-0
 62
     7
370
    50
100
AcDbLine
 10
-131.028934
 20
448.363129
 30
0.0
 11
-129.078083
 21
448.363128
 31
0.0
  0
LINE
  5
30C
330
1F
100
AcDbEntity
  8
LC-001-100-D00-0
 62
     7
370
    50
100
AcDbLine
 10
-131.028934
 20
456.363128
 30
0.0
 11
-129.078081
 21
456.363128
 31
0.0
  0
LINE
  5
30D
330
1F
100
AcDbEntity
  8
LC-001-100-D00-0
 62
     7
370
    50
100
AcDbLine
 10
-128.078083
 20
449.363128
 30
0.0
 11
-127.920243
 21
449.363128
 31
0.0
  0
LINE
  5
30E
330
1F
100
AcDbEntity
  8
LC-001-100-D00-0
 62
     7
370
    50
100
AcDbLine
 10
-121.435923
 20
449.363128
 30
0.0
 11
-121.278083
 21
449.363128
 31
0.0
  0
LINE
  5
30F
330
1F
100
AcDbEntity
  8
LC-001-100-D00-0
 62
     7
370
    50
100
AcDbLine
 10
-120.278083
 20
448.363128
 30
0.0
 11
-120.813865
 21
448.363128
 31
0.0
  0
LINE
  5
310
330
1F
100
AcDbEntity
  8
LC-001-100-D00-0
 62
     7
370
    50
100
AcDbLine
 10
-128.542301
 20
448.363128
 30
0.0
 11
-129.078083
 21
448.363128
 31
0.0
  0
LINE
  5
311
330
1F
100
AcDbEntity
  8
LC-001-100-D00-0
 62
     7
370
    50
100
AcDbLine
 10
-118.327229
 20
456.363128
 30
0.0
 11
-120.778082
 21
456.363128
 31
0.0
  0
LINE
  5
312
330
1F
100
AcDbEntity
  8
LC-001-100-D00-0
 62
     7
370
    50
100
AcDbLine
 10
-120.778082
 20
456.363128
 30
0.0
 11
-120.778083
 21
467.363128
 31
0.0
  0
LINE
  5
313
330
1F
100
AcDbEntity
  8
LC-001-100-D00-0
 62
     7
370
    50
100
AcDbLine
 10
-120.778083
 20
467.363128
 30
0.0
 11
-107.428083
 21
467.363128
 31
0.0
  0
ARC
  5
314
330
1F
100
AcDbEntity
  8
LC-001-100-D00-0
 62
     7
370
    50
100
AcDbCircle
 10
-107.428083
 20
466.363128
 30
0.0
 40
1.000000000000227
100
AcDbArc
 50
0.0
 51
90.0
  0
LINE
  5
315
330
1F
100
AcDbEntity
  8
LC-001-100-D00-0
 62
     7
370
    50
100
AcDbLine
 10
-106.428083
 20
466.363128
 30
0.0
 11
-106.428085
 21
460.363128
 31
0.0
  0
LINE
  5
316
330
1F
100
AcDbEntity
  8
LC-001-100-D00-0
 62
     7
370
    50
100
AcDbLine
 10
-109.428083
 20
460.363128
 30
0.0
 11
-106.428085
 21
460.363128
 31
0.0
  0
LINE
  5
317
330
1F
100
AcDbEntity
  8
LC-001-100-D00-0
 62
     7
370
    50
100
AcDbLine
 10
-109.428083
 20
460.363128
 30
0.0
 11
-109.428084
 21
464.363128
 31
0.0
  0
LINE
  5
318
330
1F
100
AcDbEntity
  8
LC-001-100-D00-0
 62
     7
370
    50
100
AcDbLine
 10
-113.928083
 20
464.363128
 30
0.0
 11
-109.428084
 21
464.363128
 31
0.0
  0
ARC
  5
319
330
1F
100
AcDbEntity
  8
LC-001-100-D00-0
 62
     7
370
    50
100
AcDbCircle
 10
-113.928083
 20
463.363128
 30
0.0
 40
1.0
100
AcDbArc
 50
90.0
 51
180.0
  0
LINE
  5
31A
330
1F
100
AcDbEntity
  8
LC-001-100-D00-0
 62
     7
370
    50
100
AcDbLine
 10
-114.928083
 20
449.363128
 30
0.0
 11
-114.928083
 21
463.363128
 31
0.0
  0
ARC
  5
31B
330
1F
100
AcDbEntity
  8
LC-001-100-D00-0
 62
     7
370
    50
100
AcDbCircle
 10
-115.928083
 20
449.363128
 30
0.0
 40
1.000000000000227
100
AcDbArc
 50
270.0
 51
0.0
  0
LINE
  5
31C
330
1F
100
AcDbEntity
  8
LC-001-100-D00-0
 62
     7
370
    50
100
AcDbLine
 10
-115.928083
 20
448.363128
 30
0.0
 11
-118.327229
 21
448.363129
 31
0.0
  0
LINE
  5
31D
330
1F
100
AcDbEntity
  8
LC-001-100-D00-0
 62
     7
370
    50
100
AcDbLine
 10
-118.327229
 20
450.363127
 30
0.0
 11
-118.327229
 21
448.363129
 31
0.0
  0
LINE
  5
31E
330
1F
100
AcDbEntity
  8
LC-001-100-D00-0
 62
     7
370
    50
100
AcDbLine
 10
-118.978083
 20
450.363128
 30
0.0
 11
-118.327229
 21
450.363127
 31
0.0
  0
ARC
  5
31F
330
1F
100
AcDbEntity
  8
LC-001-100-D00-0
 62
     7
370
    50
100
AcDbCircle
 10
-118.978083
 20
450.863128
 30
0.0
 40
0.4999999999998863
100
AcDbArc
 50
180.0
 51
270.0
  0
LINE
  5
320
330
1F
100
AcDbEntity
  8
LC-001-100-D00-0
 62
     7
370
    50
100
AcDbLine
 10
-119.478083
 20
453.863128
 30
0.0
 11
-119.478083
 21
450.863128
 31
0.0
  0
ARC
  5
321
330
1F
100
AcDbEntity
  8
LC-001-100-D00-0
 62
     7
370
    50
100
AcDbCircle
 10
-118.978083
 20
453.863128
 30
0.0
 40
0.5000000000002274
100
AcDbArc
 50
90.0
 51
180.0
  0
LINE
  5
322
330
1F
100
AcDbEntity
  8
LC-001-100-D00-0
 62
     7
370
    50
100
AcDbLine
 10
-118.327229
 20
454.363128
 30
0.0
 11
-118.978083
 21
454.363128
 31
0.0
  0
LINE
  5
323
330
1F
100
AcDbEntity
  8
LC-001-100-D00-0
 62
     7
370
    50
100
AcDbLine
 10
-118.327229
 20
456.363128
 30
0.0
 11
-118.327229
 21
454.363128
 31
0.0
  0
ARC
  5
324
330
1F
100
AcDbEntity
  8
LC-001-100-D00-0
 62
     7
370
    50
100
AcDbCircle
 10
-135.428083
 20
463.363128
 30
0.0
 40
1.000000000000227
100
AcDbArc
 50
0.0
 51
90.0
  0
ARC
  5
325
330
1F
100
AcDbEntity
  8
LC-001-100-D00-0
 62
     7
370
    50
100
AcDbCircle
 10
-133.428083
 20
449.363128
 30
0.0
 40
1.000000000000227
100
AcDbArc
 50
180.0
 51
270.0
  0
LINE
  5
326
330
1F
100
AcDbEntity
  8
LC-001-100-D00-0
 62
     7
370
    50
100
AcDbLine
 10
-134.428083
 20
463.363128
 30
0.0
 11
-134.428083
 21
449.363128
 31
0.0
  0
LINE
  5
327
330
1F
100
AcDbEntity
  8
LC-001-100-D00-0
 62
     7
370
    50
100
AcDbLine
 10
-129.878083
 20
450.863128
 30
0.0
 11
-129.878083
 21
453.863128
 31
0.0
  0
LINE
  5
328
330
1F
100
AcDbEntity
  8
LC-001-100-D00-0
 62
     7
370
    50
100
AcDbLine
 10
-128.578083
 20
467.363128
 30
0.0
 11
-128.57808
 21
456.363128
 31
0.0
  0
LINE
  5
329
330
1F
100
AcDbEntity
  8
LC-001-100-D00-0
 62
     7
370
    50
100
AcDbLine
 10
-128.578083
 20
467.363128
 30
0.0
 11
-120.778083
 21
467.363128
 31
0.0
  0
LINE
  5
32A
330
1F
100
AcDbEntity
  8
LC-001-100-D00-0
 62
     7
370
    50
100
AcDbLine
 10
-131.028934
 20
456.363128
 30
0.0
 11
-131.028934
 21
454.363128
 31
0.0
  0
LINE
  5
32B
330
1F
100
AcDbEntity
  8
LC-001-100-D00-0
 62
     7
370
    50
100
AcDbLine
 10
-131.028934
 20
450.363127
 30
0.0
 11
-131.028934
 21
448.363129
 31
0.0
  0
ARC
  5
32C
330
1F
100
AcDbEntity
  8
LC-001-100-D00-0
 62
     7
370
    50
100
AcDbCircle
 10
-130.378083
 20
450.863128
 30
0.0
 40
0.5000000000002274
100
AcDbArc
 50
270.0
 51
0.0
  0
LINE
  5
32D
330
1F
100
AcDbEntity
  8
LC-001-100-D00-0
 62
     7
370
    50
100
AcDbLine
 10
-131.028934
 20
450.363127
 30
0.0
 11
-130.378083
 21
450.363128
 31
0.0
  0
LINE
  5
32E
330
1F
100
AcDbEntity
  8
LC-001-100-D00-0
 62
     7
370
    50
100
AcDbLine
 10
-139.928086
 20
464.363128
 30
0.0
 11
-139.928083
 21
460.363128
 31
0.0
  0
LINE
  5
32F
330
1F
100
AcDbEntity
  8
LC-001-100-D00-0
 62
     7
370
    50
100
AcDbLine
 10
-142.928085
 20
460.363128
 30
0.0
 11
-142.928083
 21
466.363128
 31
0.0
  0
ARC
  5
330
330
1F
100
AcDbEntity
  8
LC-001-100-D00-0
 62
     7
370
    50
100
AcDbCircle
 10
-141.928083
 20
466.363128
 30
0.0
 40
1.000000000000227
100
AcDbArc
 50
90.0
 51
180.0
  0
LINE
  5
331
330
1F
100
AcDbEntity
  8
LC-001-100-D00-0
 62
     7
370
    50
100
AcDbLine
 10
-130.378083
 20
454.363128
 30
0.0
 11
-131.028934
 21
454.363128
 31
0.0
  0
ARC
  5
332
330
1F
100
AcDbEntity
  8
LC-001-100-D00-0
 62
     7
370
    50
100
AcDbCircle
 10
-130.378083
 20
453.863128
 30
0.0
 40
0.5000000000002274
100
AcDbArc
 50
0.0
 51
90.0
  0
LINE
  5
333
330
1F
100
AcDbEntity
  8
LC-001-100-D00-0
 62
     7
370
    50
100
AcDbLine
 10
-128.57808
 20
456.363128
 30
0.0
 11
-131.028934
 21
456.363128
 31
0.0
  0
LINE
  5
334
330
1F
100
AcDbEntity
  8
LC-001-100-D00-0
 62
     7
370
    50
100
AcDbLine
 10
-131.028934
 20
448.363129
 30
0.0
 11
-133.428083
 21
448.363128
 31
0.0
  0
LINE
  5
335
330
1F
100
AcDbEntity
  8
LC-001-100-D00-0
 62
     7
370
    50
100
AcDbLine
 10
-139.928086
 20
464.363128
 30
0.0
 11
-135.428083
 21
464.363128
 31
0.0
  0
LINE
  5
336
330
1F
100
AcDbEntity
  8
LC-001-100-D00-0
 62
     7
370
    50
100
AcDbLine
 10
-142.928085
 20
460.363128
 30
0.0
 11
-139.928083
 21
460.363128
 31
0.0
  0
LINE
  5
337
330
1F
100
AcDbEntity
  8
LC-001-100-D00-0
 62
     7
370
    50
100
AcDbLine
 10
-141.928083
 20
467.363128
 30
0.0
 11
-128.578083
 21
467.363128
 31
0.0
  0
LINE
  5
338
330
1F
100
AcDbEntity
  8
LC-001-100-D00-0
 62
     7
370
    50
100
AcDbLine
 10
-111.428083
 20
460.363128
 30
0.0
 11
-109.428083
 21
460.363128
 31
0.0
  0
LINE
  5
339
330
1F
100
AcDbEntity
  8
LC-001-100-D00-0
 62
     7
370
    50
100
AcDbLine
 10
-139.928083
 20
460.363128
 30
0.0
 11
-137.928083
 21
460.363128
 31
0.0
  0
LINE
  5
33A
330
1F
100
AcDbEntity
  8
LC-001-100-D00-0
 62
     7
370
    50
100
AcDbLine
 10
-137.928083
 20
460.363128
 30
0.0
 11
-134.428083
 21
460.363128
 31
0.0
  0
LINE
  5
33B
330
1F
100
AcDbEntity
  8
LC-001-100-D00-0
 62
     7
370
    50
100
AcDbLine
 10
-114.92808
 20
460.363128
 30
0.0
 11
-111.428083
 21
460.363128
 31
0.0
  0
LINE
  5
33C
330
1F
100
AcDbEntity
  8
LC-001-100-D00-0
 62
     7
370
    50
100
AcDbLine
 10
-166.178084
 20
437.520211
 30
0.0
 11
-165.888166
 21
437.429129
 31
0.0
  0
LINE
  5
33D
330
1F
100
AcDbEntity
  8
LC-001-100-D00-0
 62
     7
370
    50
100
AcDbLine
 10
-167.365697
 20
435.377699
 30
0.0
 11
-166.178084
 21
437.520211
 31
0.0
  0
ARC
  5
33E
330
1F
100
AcDbEntity
  8
LC-001-100-D00-0
 62
     7
370
    50
100
AcDbCircle
 10
-167.628083
 20
435.523142
 30
0.0
 40
0.3000000000000682
100
AcDbArc
 50
180.0
 51
331.0
  0
LINE
  5
33F
330
1F
100
AcDbEntity
  8
LC-001-100-D00-0
 62
     7
370
    50
100
AcDbLine
 10
-167.928083
 20
438.063382
 30
0.0
 11
-167.928083
 21
435.523142
 31
0.0
  0
ARC
  5
340
330
1F
100
AcDbEntity
  8
LC-001-100-D00-0
 62
     7
370
    50
100
AcDbCircle
 10
-165.928083
 20
438.063382
 30
0.0
 40
1.999999999999965
100
AcDbArc
 50
113.962489
 51
180.0
  0
LINE
  5
341
330
1F
100
AcDbEntity
  8
LC-001-100-D00-0
 62
     7
370
    50
100
AcDbLine
 10
-165.872007
 20
440.27694
 30
0.0
 11
-166.74036
 21
439.891005
 31
0.0
  0
ARC
  5
342
330
1F
100
AcDbEntity
  8
LC-001-100-D00-0
 62
     7
370
    50
100
AcDbCircle
 10
-165.465868
 20
439.363128
 30
0.0
 40
0.9999999999997726
100
AcDbArc
 50
90.0
 51
113.962489
  0
LINE
  5
343
330
1F
100
AcDbEntity
  8
LC-001-100-D00-0
 62
     7
370
    50
100
AcDbLine
 10
-159.678085
 20
440.363128
 30
0.0
 11
-159.678085
 21
436.363129
 31
0.0
  0
LINE
  5
344
330
1F
100
AcDbEntity
  8
LC-001-100-D00-0
 62
     7
370
    50
100
AcDbLine
 10
-165.678083
 20
437.142922
 30
0.0
 11
-165.678083
 21
436.363128
 31
0.0
  0
ARC
  5
345
330
1F
100
AcDbEntity
  8
LC-001-100-D00-0
 62
     7
370
    50
100
AcDbCircle
 10
-165.978083
 20
437.142922
 30
0.0
 40
0.3000000000000682
100
AcDbArc
 50
0.0
 51
72.558995
  0
LINE
  5
346
330
1F
100
AcDbEntity
  8
LC-001-100-D00-0
 62
     7
370
    50
100
AcDbLine
 10
-159.678085
 20
440.363128
 30
0.0
 11
-165.465868
 21
440.363128
 31
0.0
  0
LINE
  5
347
330
1F
100
AcDbEntity
  8
LC-001-100-D00-0
 62
     7
370
    50
100
AcDbLine
 10
-159.678085
 20
436.363129
 30
0.0
 11
-165.678083
 21
436.363128
 31
0.0
  0
LINE
  5
348
330
1F
100
AcDbEntity
  8
LC-001-100-D00-0
 62
     7
370
    50
100
AcDbLine
 10
-165.678083
 20
436.363128
 30
0.0
 11
-166.819465
 21
436.363128
 31
0.0
  0
LINE
  5
349
330
1F
100
AcDbEntity
  8
LC-001-100-D00-0
 62
     7
370
    50
100
AcDbLine
 10
-166.228571
 20
437.429129
 30
0.0
 11
-165.888166
 21
437.429129
 31
0.0
  0
LINE
  5
34A
330
1F
100
AcDbEntity
  8
LC-001-100-D00-0
 62
     7
370
    50
100
AcDbLine
 10
-283.678083
 20
436.363128
 30
0.0
 11
-283.678083
 21
437.142922
 31
0.0
  0
LINE
  5
34B
330
1F
100
AcDbEntity
  8
LC-001-100-D00-0
 62
     7
370
    50
100
AcDbLine
 10
-282.536701
 20
436.363128
 30
0.0
 11
-283.678083
 21
436.363128
 31
0.0
  0
LINE
  5
34C
330
1F
100
AcDbEntity
  8
LC-001-100-D00-0
 62
     7
370
    50
100
AcDbLine
 10
-283.178082
 20
437.520211
 30
0.0
 11
-281.990469
 21
435.377699
 31
0.0
  0
LINE
  5
34D
330
1F
100
AcDbEntity
  8
LC-001-100-D00-0
 62
     7
370
    50
100
AcDbLine
 10
-283.468
 20
437.429129
 30
0.0
 11
-283.127595
 21
437.429129
 31
0.0
  0
LINE
  5
34E
330
1F
100
AcDbEntity
  8
LC-001-100-D00-0
 62
     7
370
    50
100
AcDbLine
 10
-283.468
 20
437.429129
 30
0.0
 11
-283.178082
 21
437.520211
 31
0.0
  0
ARC
  5
34F
330
1F
100
AcDbEntity
  8
LC-001-100-D00-0
 62
     7
370
    50
100
AcDbCircle
 10
-283.378083
 20
437.142922
 30
0.0
 40
0.3000000000001272
100
AcDbArc
 50
107.441005
 51
180.0
  0
ARC
  5
350
330
1F
100
AcDbEntity
  8
LC-001-100-D00-0
 62
     7
370
    50
100
AcDbCircle
 10
-281.728083
 20
435.523142
 30
0.0
 40
0.3000000000000423
100
AcDbArc
 50
209.0
 51
0.0
  0
ARC
  5
351
330
1F
100
AcDbEntity
  8
LC-001-100-D00-0
 62
     7
370
    50
100
AcDbCircle
 10
-283.428083
 20
438.063382
 30
0.0
 40
2.0
100
AcDbArc
 50
0.0
 51
66.037511
  0
LINE
  5
352
330
1F
100
AcDbEntity
  8
LC-001-100-D00-0
 62
     7
370
    50
100
AcDbLine
 10
-281.428083
 20
435.523142
 30
0.0
 11
-281.428083
 21
438.063382
 31
0.0
  0
ARC
  5
353
330
1F
100
AcDbEntity
  8
LC-001-100-D00-0
 62
     7
370
    50
100
AcDbCircle
 10
-283.890297
 20
439.363128
 30
0.0
 40
0.9999999999997513
100
AcDbArc
 50
66.037511
 51
90.0
  0
LINE
  5
354
330
1F
100
AcDbEntity
  8
LC-001-100-D00-0
 62
     7
370
    50
100
AcDbLine
 10
-282.615806
 20
439.891005
 30
0.0
 11
-283.484159
 21
440.27694
 31
0.0
  0
LINE
  5
355
330
1F
100
AcDbEntity
  8
LC-001-100-D00-0
 62
     7
370
    50
100
AcDbLine
 10
-289.678081
 20
436.363129
 30
0.0
 11
-289.678081
 21
440.363128
 31
0.0
  0
LINE
  5
356
330
1F
100
AcDbEntity
  8
LC-001-100-D00-0
 62
     7
370
    50
100
AcDbLine
 10
-283.890297
 20
440.363128
 30
0.0
 11
-289.678081
 21
440.363128
 31
0.0
  0
LINE
  5
357
330
1F
100
AcDbEntity
  8
LC-001-100-D00-0
 62
     7
370
    50
100
AcDbLine
 10
-283.678083
 20
436.363128
 30
0.0
 11
-289.678081
 21
436.363129
 31
0.0
  0
LINE
  5
358
330
1F
100
AcDbEntity
  8
LC-001-100-D00-0
 62
     7
370
    50
100
AcDbLine
 10
-150.678082
 20
440.363128
 30
0.0
 11
-150.678082
 21
416.61313
 31
0.0
  0
LINE
  5
359
330
1F
100
AcDbEntity
  8
LC-001-100-D00-0
 62
     7
370
    50
100
AcDbLine
 10
-153.678081
 20
437.363129
 30
0.0
 11
-153.678083
 21
416.613128
 31
0.0
  0
LINE
  5
35A
330
1F
100
AcDbEntity
  8
LC-001-100-D00-0
 62
     7
370
    50
100
AcDbLine
 10
-156.678079
 20
437.363129
 30
0.0
 11
-156.678079
 21
433.363126
 31
0.0
  0
LINE
  5
35B
330
1F
100
AcDbEntity
  8
LC-001-100-D00-0
 62
     7
370
    50
100
AcDbLine
 10
-162.678083
 20
433.363128
 30
0.0
 11
-156.678079
 21
433.363126
 31
0.0
  0
LINE
  5
35C
330
1F
100
AcDbEntity
  8
LC-001-100-D00-0
 62
     7
370
    50
100
AcDbLine
 10
-162.678084
 20
436.363129
 30
0.0
 11
-162.678083
 21
433.363128
 31
0.0
  0
LINE
  5
35D
330
1F
100
AcDbEntity
  8
LC-001-100-D00-0
 62
     7
370
    50
100
AcDbLine
 10
-159.678085
 20
436.363129
 30
0.0
 11
-162.678084
 21
436.363129
 31
0.0
  0
LINE
  5
35E
330
1F
100
AcDbEntity
  8
LC-001-100-D00-0
 62
     7
370
    50
100
AcDbLine
 10
-159.678085
 20
436.363129
 30
0.0
 11
-159.678085
 21
440.363128
 31
0.0
  0
LINE
  5
35F
330
1F
100
AcDbEntity
  8
LC-001-100-D00-0
 62
     7
370
    50
100
AcDbLine
 10
-156.678079
 20
437.363129
 30
0.0
 11
-153.678081
 21
437.363129
 31
0.0
  0
LINE
  5
360
330
1F
100
AcDbEntity
  8
LC-001-100-D00-0
 62
     7
370
    50
100
AcDbLine
 10
-153.678083
 20
416.613128
 30
0.0
 11
-150.678082
 21
416.61313
 31
0.0
  0
LINE
  5
361
330
1F
100
AcDbEntity
  8
LC-001-100-D00-0
 62
     7
370
    50
100
AcDbLine
 10
-150.678082
 20
440.363128
 30
0.0
 11
-159.678085
 21
440.363128
 31
0.0
  0
LINE
  5
362
330
1F
100
AcDbEntity
  8
LC-001-100-D00-0
 62
     7
370
    50
100
AcDbLine
 10
-174.377676
 20
416.613128
 30
0.0
 11
-153.678083
 21
416.613128
 31
0.0
  0
LINE
  5
363
330
1F
100
AcDbEntity
  8
LC-001-100-D00-0
 62
     7
370
    50
100
AcDbLine
 10
-169.428083
 20
433.363128
 30
0.0
 11
-162.678083
 21
433.363128
 31
0.0
  0
LINE
  5
364
330
1F
100
AcDbEntity
  8
LC-001-100-D00-0
 62
     7
370
    50
100
AcDbLine
 10
-286.678083
 20
433.363128
 30
0.0
 11
-286.678082
 21
436.363129
 31
0.0
  0
LINE
  5
365
330
1F
100
AcDbEntity
  8
LC-001-100-D00-0
 62
     7
370
    50
100
AcDbLine
 10
-286.678083
 20
433.363128
 30
0.0
 11
-279.928083
 21
433.363128
 31
0.0
  0
LINE
  5
366
330
1F
100
AcDbEntity
  8
LC-001-100-D00-0
 62
     7
370
    50
100
AcDbLine
 10
-289.678081
 20
440.363128
 30
0.0
 11
-289.678081
 21
436.363129
 31
0.0
  0
LINE
  5
367
330
1F
100
AcDbEntity
  8
LC-001-100-D00-0
 62
     7
370
    50
100
AcDbLine
 10
-292.678087
 20
433.363126
 30
0.0
 11
-292.678087
 21
437.363129
 31
0.0
  0
LINE
  5
368
330
1F
100
AcDbEntity
  8
LC-001-100-D00-0
 62
     7
370
    50
100
AcDbLine
 10
-295.678083
 20
416.613128
 30
0.0
 11
-295.678085
 21
437.363129
 31
0.0
  0
LINE
  5
369
330
1F
100
AcDbEntity
  8
LC-001-100-D00-0
 62
     7
370
    50
100
AcDbLine
 10
-295.678083
 20
416.613128
 30
0.0
 11
-274.97849
 21
416.613128
 31
0.0
  0
LINE
  5
36A
330
1F
100
AcDbEntity
  8
LC-001-100-D00-0
 62
     7
370
    50
100
AcDbLine
 10
-298.678084
 20
416.61313
 30
0.0
 11
-298.678084
 21
440.363128
 31
0.0
  0
LINE
  5
36B
330
1F
100
AcDbEntity
  8
LC-001-100-D00-0
 62
     7
370
    50
100
AcDbLine
 10
-286.678082
 20
436.363129
 30
0.0
 11
-289.678081
 21
436.363129
 31
0.0
  0
LINE
  5
36C
330
1F
100
AcDbEntity
  8
LC-001-100-D00-0
 62
     7
370
    50
100
AcDbLine
 10
-292.678087
 20
433.363126
 30
0.0
 11
-286.678083
 21
433.363128
 31
0.0
  0
LINE
  5
36D
330
1F
100
AcDbEntity
  8
LC-001-100-D00-0
 62
     7
370
    50
100
AcDbLine
 10
-295.678085
 20
437.363129
 30
0.0
 11
-292.678087
 21
437.363129
 31
0.0
  0
LINE
  5
36E
330
1F
100
AcDbEntity
  8
LC-001-100-D00-0
 62
     7
370
    50
100
AcDbLine
 10
-298.678084
 20
416.61313
 30
0.0
 11
-295.678083
 21
416.613128
 31
0.0
  0
LINE
  5
36F
330
1F
100
AcDbEntity
  8
LC-001-100-D00-0
 62
     7
370
    50
100
AcDbLine
 10
-289.678081
 20
440.363128
 30
0.0
 11
-298.678084
 21
440.363128
 31
0.0
  0
LINE
  5
370
330
1F
100
AcDbEntity
  8
LC-001-100-D00-0
 62
     7
370
    50
100
AcDbLine
 10
-182.688958
 20
416.613128
 30
0.0
 11
-174.377676
 21
416.613128
 31
0.0
  0
LINE
  5
371
330
1F
100
AcDbEntity
  8
LC-001-100-D00-0
 62
     7
370
    50
100
AcDbLine
 10
-274.97849
 20
416.613128
 30
0.0
 11
-266.667208
 21
416.613128
 31
0.0
  0
LINE
  5
372
330
1F
100
AcDbEntity
  8
LC-001-100-D00-0
 62
     7
370
    50
100
AcDbLine
 10
-266.667208
 20
416.613128
 30
0.0
 11
-265.678084
 21
416.61313
 31
0.0
  0
LINE
  5
373
330
1F
100
AcDbEntity
  8
LC-001-100-D00-0
 62
     7
370
    50
100
AcDbLine
 10
-183.678082
 20
416.61313
 30
0.0
 11
-182.688958
 21
416.613128
 31
0.0
  0
LINE
  5
374
330
1F
100
AcDbEntity
  8
LC-001-100-D00-0
 62
     7
370
    50
100
AcDbLine
 10
-150.678082
 20
415.863128
 30
0.0
 11
-139.678082
 21
415.863128
 31
0.0
  0
LINE
  5
375
330
1F
100
AcDbEntity
  8
LC-001-100-D00-0
 62
     7
370
    50
100
AcDbLine
 10
-139.678082
 20
363.863127
 30
0.0
 11
-150.678082
 21
363.863127
 31
0.0
  0
LINE
  5
376
330
1F
100
AcDbEntity
  8
LC-001-100-D00-0
 62
     7
370
    50
100
AcDbLine
 10
-150.678082
 20
416.61313
 30
0.0
 11
-150.678082
 21
415.863128
 31
0.0
  0
INSERT
  5
387
330
1F
100
AcDbEntity
  8
LC-001-100-D00-0
 62
     7
370
    50
100
AcDbBlockReference
  2
KLON15
 10
0.0
 20
0.0
 30
0.0
  0
INSERT
  5
39B
330
1F
100
AcDbEntity
  8
LC-001-100-D00-0
 62
     7
370
    50
100
AcDbBlockReference
  2
KLON16
 10
0.0
 20
0.0
 30
0.0
  0
LINE
  5
39C
330
1F
100
AcDbEntity
  8
LC-001-100-D00-0
 62
     7
370
    50
100
AcDbLine
 10
-153.678081
 20
412.86313
 30
0.0
 11
-111.780897
 21
412.863128
 31
0.0
  0
LINE
  5
39D
330
1F
100
AcDbEntity
  8
LC-001-100-D00-0
 62
     7
370
    50
100
AcDbLine
 10
-111.780897
 20
366.863128
 30
0.0
 11
-111.780897
 21
412.863128
 31
0.0
  0
LINE
  5
39E
330
1F
100
AcDbEntity
  8
LC-001-100-D00-0
 62
     7
370
    50
100
AcDbLine
 10
-111.780897
 20
366.863128
 30
0.0
 11
-150.678082
 21
366.863126
 31
0.0
  0
INSERT
  5
3A4
330
1F
100
AcDbEntity
  8
LC-001-100-D00-0
 62
     7
370
    50
100
AcDbBlockReference
  2
KLON17
 10
0.0
 20
0.0
 30
0.0
  0
LINE
  5
3A5
330
1F
100
AcDbEntity
  8
LC-001-100-D00-0
 62
     7
370
    50
100
AcDbLine
 10
-153.678083
 20
416.613128
 30
0.0
 11
-174.377676
 21
416.613128
 31
0.0
  0
LINE
  5
3A6
330
1F
100
AcDbEntity
  8
LC-001-100-D00-0
 62
     7
370
    50
100
AcDbLine
 10
-153.678083
 20
416.613128
 30
0.0
 11
-153.678081
 21
412.86313
 31
0.0
  0
LINE
  5
3A7
330
1F
100
AcDbEntity
  8
LC-001-100-D00-0
 62
     7
370
    50
100
AcDbLine
 10
-163.678083
 20
363.863128
 30
0.0
 11
-150.678082
 21
363.863127
 31
0.0
  0
ARC
  5
3A8
330
1F
100
AcDbEntity
  8
LC-001-100-D00-0
 62
     7
370
    50
100
AcDbCircle
 10
-170.660203
 20
364.363128
 30
0.0
 40
7.0
100
AcDbArc
 50
270.0
 51
355.903956
  0
LINE
  5
3A9
330
1F
100
AcDbEntity
  8
LC-001-100-D00-0
 62
     7
370
    50
100
AcDbLine
 10
-170.660203
 20
357.363128
 30
0.0
 11
-278.695963
 21
357.363128
 31
0.0
  0
ARC
  5
3AA
330
1F
100
AcDbEntity
  8
LC-001-100-D00-0
 62
     7
370
    50
100
AcDbCircle
 10
-278.695963
 20
364.363128
 30
0.0
 40
7.000000000000073
100
AcDbArc
 50
184.096044
 51
270.0
  0
LINE
  5
3AB
330
1F
100
AcDbEntity
  8
LC-001-100-D00-0
 62
     7
370
    50
100
AcDbLine
 10
-286.178083
 20
363.863128
 30
0.0
 11
-285.678083
 21
363.863128
 31
0.0
  0
ARC
  5
3AC
330
1F
100
AcDbEntity
  8
LC-001-100-D00-0
 62
     7
370
    50
100
AcDbCircle
 10
-286.178083
 20
376.363128
 30
0.0
 40
12.5
100
AcDbArc
 50
180.0
 51
270.0
  0
LINE
  5
3AD
330
1F
100
AcDbEntity
  8
LC-001-100-D00-0
 62
     7
370
    50
100
AcDbLine
 10
-298.678083
 20
376.363128
 30
0.0
 11
-298.678084
 21
416.61313
 31
0.0
  0
LINE
  5
3AE
330
1F
100
AcDbEntity
  8
LC-001-100-D00-0
 62
     7
370
    50
100
AcDbLine
 10
-298.678084
 20
416.61313
 30
0.0
 11
-295.678083
 21
416.613128
 31
0.0
  0
LINE
  5
3AF
330
1F
100
AcDbEntity
  8
LC-001-100-D00-0
 62
     7
370
    50
100
AcDbLine
 10
-295.678083
 20
376.363128
 30
0.0
 11
-295.678083
 21
416.613128
 31
0.0
  0
ARC
  5
3B0
330
1F
100
AcDbEntity
  8
LC-001-100-D00-0
 62
     7
370
    50
100
AcDbCircle
 10
-286.178083
 20
376.363128
 30
0.0
 40
9.5
100
AcDbArc
 50
180.0
 51
270.0
  0
LINE
  5
3B1
330
1F
100
AcDbEntity
  8
LC-001-100-D00-0
 62
     7
370
    50
100
AcDbLine
 10
-286.178083
 20
366.863128
 30
0.0
 11
-283.678083
 21
366.863128
 31
0.0
  0
ARC
  5
3B2
330
1F
100
AcDbEntity
  8
LC-001-100-D00-0
 62
     7
370
    50
100
AcDbCircle
 10
-283.678083
 20
365.863128
 30
0.0
 40
1.000000000000114
100
AcDbArc
 50
0.0
 51
90.0
  0
LINE
  5
3B3
330
1F
100
AcDbEntity
  8
LC-001-100-D00-0
 62
     7
370
    50
100
AcDbLine
 10
-282.678083
 20
365.863128
 30
0.0
 11
-282.678083
 21
364.363128
 31
0.0
  0
ARC
  5
3B4
330
1F
100
AcDbEntity
  8
LC-001-100-D00-0
 62
     7
370
    50
100
AcDbCircle
 10
-278.678083
 20
364.363128
 30
0.0
 40
3.999999999999886
100
AcDbArc
 50
180.0
 51
270.0
  0
LINE
  5
3B5
330
1F
100
AcDbEntity
  8
LC-001-100-D00-0
 62
     7
370
    50
100
AcDbLine
 10
-170.678083
 20
360.363128
 30
0.0
 11
-278.678083
 21
360.363128
 31
0.0
  0
ARC
  5
3B6
330
1F
100
AcDbEntity
  8
LC-001-100-D00-0
 62
     7
370
    50
100
AcDbCircle
 10
-170.678083
 20
364.363128
 30
0.0
 40
4.0
100
AcDbArc
 50
270.0
 51
0.0
  0
LINE
  5
3B7
330
1F
100
AcDbEntity
  8
LC-001-100-D00-0
 62
     7
370
    50
100
AcDbLine
 10
-166.678083
 20
364.363128
 30
0.0
 11
-166.678083
 21
365.863128
 31
0.0
  0
ARC
  5
3B8
330
1F
100
AcDbEntity
  8
LC-001-100-D00-0
 62
     7
370
    50
100
AcDbCircle
 10
-165.678083
 20
365.863128
 30
0.0
 40
1.0
100
AcDbArc
 50
90.0
 51
180.0
  0
LINE
  5
3B9
330
1F
100
AcDbEntity
  8
LC-001-100-D00-0
 62
     7
370
    50
100
AcDbLine
 10
-165.678083
 20
366.863128
 30
0.0
 11
-150.678082
 21
366.863126
 31
0.0
  0
LINE
  5
3BA
330
1F
100
AcDbEntity
  8
LC-001-100-D00-0
 62
     7
370
    50
100
AcDbLine
 10
-106.180897
 20
365.362613
 30
0.0
 11
-111.780897
 21
366.863128
 31
0.0
  0
LINE
  5
3BB
330
1F
100
AcDbEntity
  8
LC-001-100-D00-0
 62
     7
370
    50
100
AcDbLine
 10
-106.180897
 20
364.928873
 30
0.0
 11
-106.180897
 21
365.362613
 31
0.0
  0
ARC
  5
3BC
330
1F
100
AcDbEntity
  8
LC-001-100-D00-0
 62
     7
370
    50
100
AcDbCircle
 10
-106.680855
 20
364.928873
 30
0.0
 40
0.4999578796802814
100
AcDbArc
 50
301.198872
 51
0.0
  0
ARC
  5
3BD
330
1F
100
AcDbEntity
  8
LC-001-100-D00-0
 62
     7
370
    50
100
AcDbCircle
 10
-121.779579
 20
389.860938
 30
0.0
 40
29.64750216706079
100
AcDbArc
 50
292.382556
 51
301.198872
  0
ARC
  5
3BE
330
1F
100
AcDbEntity
  8
LC-001-100-D00-0
 62
     7
370
    50
100
AcDbCircle
 10
-110.680519
 20
362.909311
 30
0.0
 40
0.4999578796802098
100
AcDbArc
 50
180.0
 51
292.382556
  0
LINE
  5
3BF
330
1F
100
AcDbEntity
  8
LC-001-100-D00-0
 62
     7
370
    50
100
AcDbLine
 10
-111.180477
 20
364.21317
 30
0.0
 11
-111.180477
 21
362.909311
 31
0.0
  0
ARC
  5
3C0
330
1F
100
AcDbEntity
  8
LC-001-100-D00-0
 62
     7
370
    50
100
AcDbCircle
 10
-111.680434
 20
364.21317
 30
0.0
 40
0.4999578796802098
100
AcDbArc
 50
0.0
 51
90.0
  0
LINE
  5
3C1
330
1F
100
AcDbEntity
  8
LC-001-100-D00-0
 62
     7
370
    50
100
AcDbLine
 10
-115.18014
 20
364.713128
 30
0.0
 11
-111.680434
 21
364.713128
 31
0.0
  0
ARC
  5
3C2
330
1F
100
AcDbEntity
  8
LC-001-100-D00-0
 62
     7
370
    50
100
AcDbCircle
 10
-115.18014
 20
364.21317
 30
0.0
 40
0.4999578796800961
100
AcDbArc
 50
90.0
 51
180.0
  0
LINE
  5
3C3
330
1F
100
AcDbEntity
  8
LC-001-100-D00-0
 62
     7
370
    50
100
AcDbLine
 10
-115.680097
 20
361.256309
 30
0.0
 11
-115.680097
 21
364.21317
 31
0.0
  0
ARC
  5
3C4
330
1F
100
AcDbEntity
  8
LC-001-100-D00-0
 62
     7
370
    50
100
AcDbCircle
 10
-116.180055
 20
361.256309
 30
0.0
 40
0.4999578796801373
100
AcDbArc
 50
281.075925
 51
0.0
  0
ARC
  5
3C5
330
1F
100
AcDbEntity
  8
LC-001-100-D00-0
 62
     7
370
    50
100
AcDbCircle
 10
-121.779579
 20
389.860938
 30
0.0
 40
29.64750432250037
100
AcDbArc
 50
241.270296
 51
281.075925
  0
LINE
  5
3C6
330
1F
100
AcDbEntity
  8
LC-001-100-D00-0
 62
     7
370
    50
100
AcDbLine
 10
-137.178286
 20
363.863127
 30
0.0
 11
-136.030488
 21
363.863128
 31
0.0
  0
LINE
  5
3C7
330
1F
100
AcDbEntity
  8
LC-001-100-D00-0
 62
     7
370
    50
100
AcDbLine
 10
-137.178286
 20
362.363132
 30
0.0
 11
-137.178286
 21
363.863127
 31
0.0
  0
LINE
  5
3C8
330
1F
100
AcDbEntity
  8
LC-001-100-D00-0
 62
     7
370
    50
100
AcDbLine
 10
-139.678082
 20
362.363132
 30
0.0
 11
-137.178286
 21
362.363132
 31
0.0
  0
LINE
  5
3C9
330
1F
100
AcDbEntity
  8
LC-001-100-D00-0
 62
     7
370
    50
100
AcDbLine
 10
-139.678082
 20
363.863127
 30
0.0
 11
-139.678082
 21
362.363132
 31
0.0
  0
ARC
  5
3CA
330
1F
100
AcDbEntity
  8
LC-001-100-D00-0
 62
     7
370
    50
100
AcDbCircle
 10
-121.779579
 20
389.865318
 30
0.0
 40
29.64750216706094
100
AcDbArc
 50
58.801128
 51
67.617444
  0
ARC
  5
3CB
330
1F
100
AcDbEntity
  8
LC-001-100-D00-0
 62
     7
370
    50
100
AcDbCircle
 10
-106.680855
 20
414.797383
 30
0.0
 40
0.4999578796800961
100
AcDbArc
 50
0.0
 51
58.801128
  0
ARC
  5
3CC
330
1F
100
AcDbEntity
  8
LC-001-100-D00-0
 62
     7
370
    50
100
AcDbCircle
 10
-111.680434
 20
415.513086
 30
0.0
 40
0.4999578796798687
100
AcDbArc
 50
270.0
 51
0.0
  0
LINE
  5
3CD
330
1F
100
AcDbEntity
  8
LC-001-100-D00-0
 62
     7
370
    50
100
AcDbLine
 10
-111.180477
 20
416.816945
 30
0.0
 11
-111.180477
 21
415.513086
 31
0.0
  0
ARC
  5
3CE
330
1F
100
AcDbEntity
  8
LC-001-100-D00-0
 62
     7
370
    50
100
AcDbCircle
 10
-110.680519
 20
416.816945
 30
0.0
 40
0.4999578796801971
100
AcDbArc
 50
67.617444
 51
180.0
  0
LINE
  5
3CF
330
1F
100
AcDbEntity
  8
LC-001-100-D00-0
 62
     7
370
    50
100
AcDbLine
 10
-106.180897
 20
414.363644
 30
0.0
 11
-106.180897
 21
414.797383
 31
0.0
  0
LINE
  5
3D0
330
1F
100
AcDbEntity
  8
LC-001-100-D00-0
 62
     7
370
    50
100
AcDbLine
 10
-111.780897
 20
412.863128
 30
0.0
 11
-106.180897
 21
414.363644
 31
0.0
  0
LINE
  5
3D1
330
1F
100
AcDbEntity
  8
LC-001-100-D00-0
 62
     7
370
    50
100
AcDbLine
 10
-153.678083
 20
416.613128
 30
0.0
 11
-150.678082
 21
416.61313
 31
0.0
  0
LINE
  5
3D2
330
1F
100
AcDbEntity
  8
LC-001-100-D00-0
 62
     7
370
    50
100
AcDbLine
 10
-139.678082
 20
417.363128
 30
0.0
 11
-139.678082
 21
415.863128
 31
0.0
  0
LINE
  5
3D3
330
1F
100
AcDbEntity
  8
LC-001-100-D00-0
 62
     7
370
    50
100
AcDbLine
 10
-137.178286
 20
417.363128
 30
0.0
 11
-139.678082
 21
417.363128
 31
0.0
  0
ARC
  5
3D4
330
1F
100
AcDbEntity
  8
LC-001-100-D00-0
 62
     7
370
    50
100
AcDbCircle
 10
-121.815994
 20
389.863128
 30
0.0
 40
31.49999999999998
100
AcDbArc
 50
105.394857
 51
119.188982
  0
LINE
  5
3D5
330
1F
100
AcDbEntity
  8
LC-001-100-D00-0
 62
     7
370
    50
100
AcDbLine
 10
-130.178286
 20
420.232884
 30
0.0
 11
-130.178286
 21
418.298332
 31
0.0
  0
ARC
  5
3D6
330
1F
100
AcDbEntity
  8
LC-001-100-D00-0
 62
     7
370
    50
100
AcDbCircle
 10
-121.779579
 20
389.865318
 30
0.0
 40
29.6475043225003
100
AcDbArc
 50
78.924075
 51
106.456389
  0
ARC
  5
3D7
330
1F
100
AcDbEntity
  8
LC-001-100-D00-0
 62
     7
370
    50
100
AcDbCircle
 10
-116.180055
 20
418.469947
 30
0.0
 40
0.4999578796802098
100
AcDbArc
 50
0.0
 51
78.924075
  0
LINE
  5
3D8
330
1F
100
AcDbEntity
  8
LC-001-100-D00-0
 62
     7
370
    50
100
AcDbLine
 10
-115.680097
 20
415.513086
 30
0.0
 11
-115.680097
 21
418.469947
 31
0.0
  0
ARC
  5
3D9
330
1F
100
AcDbEntity
  8
LC-001-100-D00-0
 62
     7
370
    50
100
AcDbCircle
 10
-115.18014
 20
415.513086
 30
0.0
 40
0.4999578796799824
100
AcDbArc
 50
180.0
 51
270.0
  0
LINE
  5
3DA
330
1F
100
AcDbEntity
  8
LC-001-100-D00-0
 62
     7
370
    50
100
AcDbLine
 10
-111.680434
 20
415.013128
 30
0.0
 11
-115.18014
 21
415.013128
 31
0.0
  0
LINE
  5
3DB
330
1F
100
AcDbEntity
  8
LC-001-100-D00-0
 62
     7
370
    50
100
AcDbLine
 10
-106.180897
 20
414.363644
 30
0.0
 11
-106.180897
 21
365.362613
 31
0.0
  0
LINE
  5
3DC
330
1F
100
AcDbEntity
  8
LC-001-100-D00-0
 62
     7
370
    50
100
AcDbLine
 10
-180.244463
 20
366.863128
 30
0.0
 11
-165.678083
 21
366.863128
 31
0.0
  0
LINE
  5
3DD
330
1F
100
AcDbEntity
  8
LC-001-100-D00-0
 62
     7
370
    50
100
AcDbLine
 10
-283.678083
 20
366.863128
 30
0.0
 11
-269.111703
 21
366.863128
 31
0.0
  0
LINE
  5
3DE
330
1F
100
AcDbEntity
  8
LC-001-100-D00-0
 62
     7
370
    50
100
AcDbLine
 10
-274.97849
 20
416.613128
 30
0.0
 11
-295.678083
 21
416.613128
 31
0.0
  0
LINE
  5
3DF
330
1F
100
AcDbEntity
  8
LC-001-100-D00-0
 62
     7
370
    50
100
AcDbLine
 10
-182.688958
 20
366.863128
 30
0.0
 11
-180.244463
 21
366.863128
 31
0.0
  0
LINE
  5
3E0
330
1F
100
AcDbEntity
  8
LC-001-100-D00-0
 62
     7
370
    50
100
AcDbLine
 10
-269.111703
 20
366.863128
 30
0.0
 11
-266.667208
 21
366.863128
 31
0.0
  0
LINE
  5
3E1
330
1F
100
AcDbEntity
  8
LC-001-100-D00-0
 62
     7
370
    50
100
AcDbLine
 10
-266.667208
 20
366.863128
 30
0.0
 11
-265.678084
 21
366.863126
 31
0.0
  0
LINE
  5
3E2
330
1F
100
AcDbEntity
  8
LC-001-100-D00-0
 62
     7
370
    50
100
AcDbLine
 10
-183.678082
 20
366.863126
 30
0.0
 11
-182.688958
 21
366.863128
 31
0.0
  0
LINE
  5
3E3
330
1F
100
AcDbEntity
  8
LC-001-100-D00-0
 62
     7
370
    50
100
AcDbLine
 10
-174.377676
 20
416.613128
 30
0.0
 11
-182.688958
 21
416.613128
 31
0.0
  0
LINE
  5
3E4
330
1F
100
AcDbEntity
  8
LC-001-100-D00-0
 62
     7
370
    50
100
AcDbLine
 10
-266.667208
 20
416.613128
 30
0.0
 11
-274.97849
 21
416.613128
 31
0.0
  0
LINE
  5
3E5
330
1F
100
AcDbEntity
  8
LC-001-100-D00-0
 62
     7
370
    50
100
AcDbLine
 10
-182.688958
 20
416.613128
 30
0.0
 11
-183.678082
 21
416.61313
 31
0.0
  0
LINE
  5
3E6
330
1F
100
AcDbEntity
  8
LC-001-100-D00-0
 62
     7
370
    50
100
AcDbLine
 10
-265.678084
 20
416.61313
 30
0.0
 11
-266.667208
 21
416.613128
 31
0.0
  0
CIRCLE
  5
3E7
330
1F
100
AcDbEntity
  8
LC-001-100-D00-0
 62
     7
370
    50
100
AcDbCircle
 10
-170.428083
 20
438.113128
 30
0.0
 40
1.749999999999886
  0
CIRCLE
  5
3E8
330
1F
100
AcDbEntity
  8
LC-001-100-D00-0
 62
     7
370
    50
100
AcDbCircle
 10
-278.928083
 20
438.113128
 30
0.0
 40
1.750000000000114
  0
LINE
  5
3E9
330
1F
100
AcDbEntity
  8
LC-001-100-D00-0
 62
     7
370
    50
100
AcDbLine
 10
-170.178084
 20
439.863128
 30
0.0
 11
-170.178084
 21
441.363128
 31
0.0
  0
LINE
  5
3EA
330
1F
100
AcDbEntity
  8
LC-001-100-D00-0
 62
     7
370
    50
100
AcDbLine
 10
-172.178085
 20
439.863128
 30
0.0
 11
-170.178084
 21
439.863128
 31
0.0
  0
LINE
  5
3EB
330
1F
100
AcDbEntity
  8
LC-001-100-D00-0
 62
     7
370
    50
100
AcDbLine
 10
-172.178085
 20
439.863128
 30
0.0
 11
-172.178085
 21
436.363129
 31
0.0
  0
LINE
  5
3EC
330
1F
100
AcDbEntity
  8
LC-001-100-D00-0
 62
     7
370
    50
100
AcDbLine
 10
-172.178085
 20
436.363129
 30
0.0
 11
-170.178084
 21
436.363129
 31
0.0
  0
LINE
  5
3ED
330
1F
100
AcDbEntity
  8
LC-001-100-D00-0
 62
     7
370
    50
100
AcDbLine
 10
-170.178084
 20
436.363129
 30
0.0
 11
-170.178084
 21
435.363127
 31
0.0
  0
LINE
  5
3EE
330
1F
100
AcDbEntity
  8
LC-001-100-D00-0
 62
     7
370
    50
100
AcDbLine
 10
-185.678083
 20
435.363128
 30
0.0
 11
-170.178084
 21
435.363127
 31
0.0
  0
ARC
  5
3EF
330
1F
100
AcDbEntity
  8
LC-001-100-D00-0
 62
     7
370
    50
100
AcDbCircle
 10
-185.678083
 20
425.363128
 30
0.0
 40
10.0
100
AcDbArc
 50
90.0
 51
180.0
  0
LINE
  5
3F0
330
1F
100
AcDbEntity
  8
LC-001-100-D00-0
 62
     7
370
    50
100
AcDbLine
 10
-195.678083
 20
425.363128
 30
0.0
 11
-195.678084
 21
375.46313
 31
0.0
  0
LINE
  5
3F1
330
1F
100
AcDbEntity
  8
LC-001-100-D00-0
 62
     7
370
    50
100
AcDbLine
 10
-197.178083
 20
375.463128
 30
0.0
 11
-195.678084
 21
375.46313
 31
0.0
  0
LINE
  5
3F2
330
1F
100
AcDbEntity
  8
LC-001-100-D00-0
 62
     7
370
    50
100
AcDbLine
 10
-197.178083
 20
439.363128
 30
0.0
 11
-197.178083
 21
375.463128
 31
0.0
  0
ARC
  5
3F3
330
1F
100
AcDbEntity
  8
LC-001-100-D00-0
 62
     7
370
    50
100
AcDbCircle
 10
-195.178083
 20
439.363128
 30
0.0
 40
2.0
100
AcDbArc
 50
90.0
 51
180.0
  0
LINE
  5
3F4
330
1F
100
AcDbEntity
  8
LC-001-100-D00-0
 62
     7
370
    50
100
AcDbLine
 10
-195.178083
 20
441.363128
 30
0.0
 11
-170.178084
 21
441.363128
 31
0.0
  0
LINE
  5
3F5
330
1F
100
AcDbEntity
  8
LC-001-100-D00-0
 62
     7
370
    50
100
AcDbLine
 10
-213.178083
 20
441.363128
 30
0.0
 11
-195.178083
 21
441.363128
 31
0.0
  0
LINE
  5
3F6
330
1F
100
AcDbEntity
  8
LC-001-100-D00-0
 62
     7
370
    50
100
AcDbLine
 10
-213.178083
 20
375.463128
 30
0.0
 11
-197.178083
 21
375.463128
 31
0.0
  0
LINE
  5
3F7
330
1F
100
AcDbEntity
  8
LC-001-100-D00-0
 62
     7
370
    50
100
AcDbLine
 10
-253.678082
 20
375.46313
 30
0.0
 11
-253.678083
 21
425.363128
 31
0.0
  0
ARC
  5
3F8
330
1F
100
AcDbEntity
  8
LC-001-100-D00-0
 62
     7
370
    50
100
AcDbCircle
 10
-254.178083
 20
439.363128
 30
0.0
 40
1.999999999999886
100
AcDbArc
 50
0.0
 51
90.0
  0
LINE
  5
3F9
330
1F
100
AcDbEntity
  8
LC-001-100-D00-0
 62
     7
370
    50
100
AcDbLine
 10
-254.178083
 20
441.363128
 30
0.0
 11
-236.178083
 21
441.363128
 31
0.0
  0
LINE
  5
3FA
330
1F
100
AcDbEntity
  8
LC-001-100-D00-0
 62
     7
370
    50
100
AcDbLine
 10
-252.178083
 20
375.463128
 30
0.0
 11
-252.178083
 21
439.363128
 31
0.0
  0
LINE
  5
3FB
330
1F
100
AcDbEntity
  8
LC-001-100-D00-0
 62
     7
370
    50
100
AcDbLine
 10
-252.178083
 20
375.463128
 30
0.0
 11
-236.178083
 21
375.463128
 31
0.0
  0
ARC
  5
3FC
330
1F
100
AcDbEntity
  8
LC-001-100-D00-0
 62
     7
370
    50
100
AcDbCircle
 10
-263.678083
 20
425.363128
 30
0.0
 40
9.999999999999886
100
AcDbArc
 50
0.0
 51
90.0
  0
LINE
  5
3FD
330
1F
100
AcDbEntity
  8
LC-001-100-D00-0
 62
     7
370
    50
100
AcDbLine
 10
-279.178082
 20
435.363127
 30
0.0
 11
-279.178082
 21
436.363129
 31
0.0
  0
LINE
  5
3FE
330
1F
100
AcDbEntity
  8
LC-001-100-D00-0
 62
     7
370
    50
100
AcDbLine
 10
-277.178081
 20
436.363129
 30
0.0
 11
-277.178081
 21
439.863128
 31
0.0
  0
LINE
  5
3FF
330
1F
100
AcDbEntity
  8
LC-001-100-D00-0
 62
     7
370
    50
100
AcDbLine
 10
-279.178082
 20
441.363128
 30
0.0
 11
-279.178082
 21
439.863128
 31
0.0
  0
LINE
  5
400
330
1F
100
AcDbEntity
  8
LC-001-100-D00-0
 62
     7
370
    50
100
AcDbLine
 10
-253.678082
 20
375.46313
 30
0.0
 11
-252.178083
 21
375.463128
 31
0.0
  0
LINE
  5
401
330
1F
100
AcDbEntity
  8
LC-001-100-D00-0
 62
     7
370
    50
100
AcDbLine
 10
-279.178082
 20
436.363129
 30
0.0
 11
-277.178081
 21
436.363129
 31
0.0
  0
LINE
  5
402
330
1F
100
AcDbEntity
  8
LC-001-100-D00-0
 62
     7
370
    50
100
AcDbLine
 10
-279.178082
 20
439.863128
 30
0.0
 11
-277.178081
 21
439.863128
 31
0.0
  0
LINE
  5
403
330
1F
100
AcDbEntity
  8
LC-001-100-D00-0
 62
     7
370
    50
100
AcDbLine
 10
-279.178082
 20
435.363127
 30
0.0
 11
-263.678083
 21
435.363128
 31
0.0
  0
LINE
  5
404
330
1F
100
AcDbEntity
  8
LC-001-100-D00-0
 62
     7
370
    50
100
AcDbLine
 10
-279.178082
 20
441.363128
 30
0.0
 11
-254.178083
 21
441.363128
 31
0.0
  0
LINE
  5
405
330
1F
100
AcDbEntity
  8
LC-001-100-D00-0
 62
     7
370
    50
100
AcDbLine
 10
-236.178083
 20
441.363128
 30
0.0
 11
-213.178083
 21
441.363128
 31
0.0
  0
LINE
  5
406
330
1F
100
AcDbEntity
  8
LC-001-100-D00-0
 62
     7
370
    50
100
AcDbLine
 10
-236.178083
 20
375.463128
 30
0.0
 11
-213.178083
 21
375.463128
 31
0.0
  0
LINE
  5
407
330
1F
100
AcDbEntity
  8
LC-001-100-D00-0
 62
     7
370
    50
100
AcDbLine
 10
-265.678084
 20
425.86313
 30
0.0
 11
-275.613768
 21
433.168779
 31
0.0
  0
ARC
  5
408
330
1F
100
AcDbEntity
  8
LC-001-100-D00-0
 62
     7
370
    50
100
AcDbCircle
 10
-276.206159
 20
432.363128
 30
0.0
 40
0.9999999999999467
100
AcDbArc
 50
53.673174
 51
90.0
  0
LINE
  5
409
330
1F
100
AcDbEntity
  8
LC-001-100-D00-0
 62
     7
370
    50
100
AcDbLine
 10
-279.928083
 20
433.363128
 30
0.0
 11
-276.206159
 21
433.363128
 31
0.0
  0
LINE
  5
40A
330
1F
100
AcDbEntity
  8
LC-001-100-D00-0
 62
     7
370
    50
100
AcDbLine
 10
-279.928083
 20
433.363128
 30
0.0
 11
-279.928083
 21
435.363128
 31
0.0
  0
LINE
  5
40B
330
1F
100
AcDbEntity
  8
LC-001-100-D00-0
 62
     7
370
    50
100
AcDbLine
 10
-279.928083
 20
435.363128
 30
0.0
 11
-276.206159
 21
435.363128
 31
0.0
  0
ARC
  5
40C
330
1F
100
AcDbEntity
  8
LC-001-100-D00-0
 62
     7
370
    50
100
AcDbCircle
 10
-276.206159
 20
432.363128
 30
0.0
 40
3.000000000000091
100
AcDbArc
 50
53.673174
 51
90.0
  0
LINE
  5
40D
330
1F
100
AcDbEntity
  8
LC-001-100-D00-0
 62
     7
370
    50
100
AcDbLine
 10
-274.428987
 20
434.780081
 30
0.0
 11
-264.585692
 21
427.542365
 31
0.0
  0
ARC
  5
40E
330
1F
100
AcDbEntity
  8
LC-001-100-D00-0
 62
     7
370
    50
100
AcDbCircle
 10
-265.178083
 20
426.736713
 30
0.0
 40
1.0
100
AcDbArc
 50
0.0
 51
53.673174
  0
LINE
  5
40F
330
1F
100
AcDbEntity
  8
LC-001-100-D00-0
 62
     7
370
    50
100
AcDbLine
 10
-264.178083
 20
364.863128
 30
0.0
 11
-264.178083
 21
426.736713
 31
0.0
  0
ARC
  5
410
330
1F
100
AcDbEntity
  8
LC-001-100-D00-0
 62
     7
370
    50
100
AcDbCircle
 10
-260.678083
 20
364.863128
 30
0.0
 40
3.500000000000114
100
AcDbArc
 50
180.0
 51
270.0
  0
LINE
  5
411
330
1F
100
AcDbEntity
  8
LC-001-100-D00-0
 62
     7
370
    50
100
AcDbLine
 10
-188.678083
 20
361.363128
 30
0.0
 11
-260.678083
 21
361.363128
 31
0.0
  0
ARC
  5
412
330
1F
100
AcDbEntity
  8
LC-001-100-D00-0
 62
     7
370
    50
100
AcDbCircle
 10
-188.678083
 20
364.863128
 30
0.0
 40
3.500000000000227
100
AcDbArc
 50
270.0
 51
0.0
  0
LINE
  5
413
330
1F
100
AcDbEntity
  8
LC-001-100-D00-0
 62
     7
370
    50
100
AcDbLine
 10
-185.178083
 20
426.736713
 30
0.0
 11
-185.178083
 21
364.863128
 31
0.0
  0
ARC
  5
414
330
1F
100
AcDbEntity
  8
LC-001-100-D00-0
 62
     7
370
    50
100
AcDbCircle
 10
-184.178083
 20
426.736713
 30
0.0
 40
0.9999999999999467
100
AcDbArc
 50
126.326826
 51
180.0
  0
LINE
  5
415
330
1F
100
AcDbEntity
  8
LC-001-100-D00-0
 62
     7
370
    50
100
AcDbLine
 10
-174.927178
 20
434.780081
 30
0.0
 11
-184.770473
 21
427.542365
 31
0.0
  0
ARC
  5
416
330
1F
100
AcDbEntity
  8
LC-001-100-D00-0
 62
     7
370
    50
100
AcDbCircle
 10
-173.150007
 20
432.363128
 30
0.0
 40
3.0
100
AcDbArc
 50
90.0
 51
126.326826
  0
LINE
  5
417
330
1F
100
AcDbEntity
  8
LC-001-100-D00-0
 62
     7
370
    50
100
AcDbLine
 10
-173.150007
 20
435.363128
 30
0.0
 11
-169.428083
 21
435.363128
 31
0.0
  0
LINE
  5
418
330
1F
100
AcDbEntity
  8
LC-001-100-D00-0
 62
     7
370
    50
100
AcDbLine
 10
-169.428083
 20
435.363128
 30
0.0
 11
-169.428083
 21
433.363128
 31
0.0
  0
LINE
  5
419
330
1F
100
AcDbEntity
  8
LC-001-100-D00-0
 62
     7
370
    50
100
AcDbLine
 10
-173.150007
 20
433.363128
 30
0.0
 11
-169.428083
 21
433.363128
 31
0.0
  0
ARC
  5
41A
330
1F
100
AcDbEntity
  8
LC-001-100-D00-0
 62
     7
370
    50
100
AcDbCircle
 10
-173.150007
 20
432.363128
 30
0.0
 40
1.0
100
AcDbArc
 50
90.0
 51
126.326826
  0
LINE
  5
41B
330
1F
100
AcDbEntity
  8
LC-001-100-D00-0
 62
     7
370
    50
100
AcDbLine
 10
-183.678082
 20
425.86313
 30
0.0
 11
-173.742398
 21
433.168779
 31
0.0
  0
LINE
  5
41C
330
1F
100
AcDbEntity
  8
LC-001-100-D00-0
 62
     7
370
    50
100
AcDbLine
 10
-183.678082
 20
425.86313
 30
0.0
 11
-183.678083
 21
364.863128
 31
0.0
  0
ARC
  5
41D
330
1F
100
AcDbEntity
  8
LC-001-100-D00-0
 62
     7
370
    50
100
AcDbCircle
 10
-188.678083
 20
364.863128
 30
0.0
 40
5.0
100
AcDbArc
 50
270.0
 51
0.0
  0
LINE
  5
41E
330
1F
100
AcDbEntity
  8
LC-001-100-D00-0
 62
     7
370
    50
100
AcDbLine
 10
-188.678083
 20
359.863128
 30
0.0
 11
-260.678083
 21
359.863128
 31
0.0
  0
ARC
  5
41F
330
1F
100
AcDbEntity
  8
LC-001-100-D00-0
 62
     7
370
    50
100
AcDbCircle
 10
-260.678083
 20
364.863128
 30
0.0
 40
5.0
100
AcDbArc
 50
180.0
 51
270.0
  0
LINE
  5
420
330
1F
100
AcDbEntity
  8
LC-001-100-D00-0
 62
     7
370
    50
100
AcDbLine
 10
-265.678083
 20
364.863128
 30
0.0
 11
-265.678084
 21
425.86313
 31
0.0
  0
ARC
  5
421
330
1F
100
AcDbEntity
  8
LC-001-100-D00-0
 62
     7
370
    50
100
AcDbCircle
 10
-184.18483
 20
426.731288
 30
0.0
 40
1.000373573444632
100
AcDbArc
 50
126.325165
 51
180.0
  0
LINE
  5
422
330
1F
100
AcDbEntity
  8
LC-001-100-D00-0
 62
     7
370
    50
100
AcDbLine
 10
-184.777419
 20
427.537257
 30
0.0
 11
-184.770473
 21
427.542365
 31
0.0
  0
LINE
  5
423
330
1F
100
AcDbEntity
  8
LC-001-100-D00-0
 62
     7
370
    50
100
AcDbLine
 10
-185.185204
 20
425.863128
 30
0.0
 11
-189.598688
 21
425.863128
 31
0.0
  0
LINE
  5
424
330
1F
100
AcDbEntity
  8
LC-001-100-D00-0
 62
     7
370
    50
100
AcDbLine
 10
-185.185204
 20
426.731346
 30
0.0
 11
-185.185204
 21
425.863128
 31
0.0
  0
LINE
  5
425
330
1F
100
AcDbEntity
  8
LC-001-100-D00-0
 62
     7
370
    50
100
AcDbLine
 10
-264.170962
 20
426.731346
 30
0.0
 11
-264.170962
 21
425.863128
 31
0.0
  0
LINE
  5
426
330
1F
100
AcDbEntity
  8
LC-001-100-D00-0
 62
     7
370
    50
100
AcDbLine
 10
-259.757478
 20
425.863128
 30
0.0
 11
-264.170962
 21
425.863128
 31
0.0
  0
ARC
  5
427
330
1F
100
AcDbEntity
  8
LC-001-100-D00-0
 62
     7
370
    50
100
AcDbCircle
 10
-265.171309
 20
426.731301
 30
0.0
 40
1.000347039121834
100
AcDbArc
 50
0.0
 51
53.675603
  0
LINE
  5
428
330
1F
100
AcDbEntity
  8
LC-001-100-D00-0
 62
     7
370
    50
100
AcDbLine
 10
-191.749717
 20
433.308897
 30
0.0
 11
-191.749717
 21
425.86313
 31
0.0
  0
LINE
  5
429
330
1F
100
AcDbEntity
  8
LC-001-100-D00-0
 62
     7
370
    50
100
AcDbLine
 10
-191.749718
 20
433.363128
 30
0.0
 11
-184.963668
 21
433.363128
 31
0.0
  0
LINE
  5
42A
330
1F
100
AcDbEntity
  8
LC-001-100-D00-0
 62
     7
370
    50
100
AcDbLine
 10
-180.49938
 20
433.363128
 30
0.0
 11
-176.854235
 21
433.363128
 31
0.0
  0
LINE
  5
42B
330
1F
100
AcDbEntity
  8
LC-001-100-D00-0
 62
     7
370
    50
100
AcDbLine
 10
-257.606449
 20
433.308897
 30
0.0
 11
-257.606449
 21
425.86313
 31
0.0
  0
LINE
  5
42C
330
1F
100
AcDbEntity
  8
LC-001-100-D00-0
 62
     7
370
    50
100
AcDbLine
 10
-272.501931
 20
433.363128
 30
0.0
 11
-268.856786
 21
433.363128
 31
0.0
  0
LINE
  5
42D
330
1F
100
AcDbEntity
  8
LC-001-100-D00-0
 62
     7
370
    50
100
AcDbLine
 10
-264.392498
 20
433.363128
 30
0.0
 11
-257.606448
 21
433.363128
 31
0.0
  0
LINE
  5
42E
330
1F
100
AcDbEntity
  8
LC-001-100-D00-0
 62
     7
370
    50
100
AcDbLine
 10
-189.598688
 20
425.863128
 30
0.0
 11
-195.665575
 21
425.863128
 31
0.0
  0
LINE
  5
42F
330
1F
100
AcDbEntity
  8
LC-001-100-D00-0
 62
     7
370
    50
100
AcDbLine
 10
-253.690591
 20
425.863128
 30
0.0
 11
-259.757478
 21
425.863128
 31
0.0
  0
ARC
  5
430
330
1F
100
AcDbEntity
  8
LC-001-100-D00-0
 62
     7
370
    50
100
AcDbCircle
 10
-121.678286
 20
389.863128
 30
0.0
 40
32.00000000000007
100
AcDbArc
 50
51.375167
 51
90.0
  0
LINE
  5
431
330
1F
100
AcDbEntity
  8
LC-001-100-D00-0
 62
     7
370
    50
100
AcDbLine
 10
-101.703302
 20
414.863128
 30
0.0
 11
-18.678291
 21
414.86313
 31
0.0
  0
LINE
  5
432
330
1F
100
AcDbEntity
  8
LC-001-100-D00-0
 62
     7
370
    50
100
AcDbLine
 10
-18.678291
 20
414.86313
 30
0.0
 11
-15.178292
 21
413.925307
 31
0.0
  0
LINE
  5
433
330
1F
100
AcDbEntity
  8
LC-001-100-D00-0
 62
     7
370
    50
100
AcDbLine
 10
-15.178292
 20
413.925307
 30
0.0
 11
-15.178286
 21
412.613128
 31
0.0
  0
LINE
  5
434
330
1F
100
AcDbEntity
  8
LC-001-100-D00-0
 62
     7
370
    50
100
AcDbLine
 10
-15.178286
 20
412.613128
 30
0.0
 11
-102.89831
 21
412.613128
 31
0.0
  0
ARC
  5
435
330
1F
100
AcDbEntity
  8
LC-001-100-D00-0
 62
     7
370
    50
100
AcDbCircle
 10
-121.678286
 20
389.863128
 30
0.0
 40
29.49999999999997
100
AcDbArc
 50
50.46055
 51
104.235124
  0
ARC
  5
436
330
1F
100
AcDbEntity
  8
LC-001-100-D00-0
 62
     7
370
    50
100
AcDbCircle
 10
-129.178286
 20
419.426619
 30
0.0
 40
1.000000000000114
100
AcDbArc
 50
180.0
 51
284.235124
  0
LINE
  5
437
330
1F
100
AcDbEntity
  8
LC-001-100-D00-0
 62
     7
370
    50
100
AcDbLine
 10
-130.178286
 20
419.426619
 30
0.0
 11
-130.178286
 21
421.863129
 31
0.0
  0
LINE
  5
438
330
1F
100
AcDbEntity
  8
LC-001-100-D00-0
 62
     7
370
    50
100
AcDbLine
 10
-130.178286
 20
421.863129
 30
0.0
 11
-121.678286
 21
421.863128
 31
0.0
  0
LINE
  5
439
330
1F
100
AcDbEntity
  8
LC-001-100-D00-0
 62
     7
370
    50
100
AcDbLine
 10
-130.178286
 20
357.86313
 30
0.0
 11
-130.178286
 21
360.299637
 31
0.0
  0
ARC
  5
43A
330
1F
100
AcDbEntity
  8
LC-001-100-D00-0
 62
     7
370
    50
100
AcDbCircle
 10
-129.178286
 20
360.299637
 30
0.0
 40
1.000000000000111
100
AcDbArc
 50
75.764876
 51
180.0
  0
ARC
  5
43B
330
1F
100
AcDbEntity
  8
LC-001-100-D00-0
 62
     7
370
    50
100
AcDbCircle
 10
-121.678286
 20
389.863128
 30
0.0
 40
29.50000000000022
100
AcDbArc
 50
255.764876
 51
309.53945
  0
LINE
  5
43C
330
1F
100
AcDbEntity
  8
LC-001-100-D00-0
 62
     7
370
    50
100
AcDbLine
 10
-102.89831
 20
367.113128
 30
0.0
 11
-15.178286
 21
367.113128
 31
0.0
  0
LINE
  5
43D
330
1F
100
AcDbEntity
  8
LC-001-100-D00-0
 62
     7
370
    50
100
AcDbLine
 10
-15.178286
 20
367.113128
 30
0.0
 11
-15.178292
 21
365.800949
 31
0.0
  0
LINE
  5
43E
330
1F
100
AcDbEntity
  8
LC-001-100-D00-0
 62
     7
370
    50
100
AcDbLine
 10
-15.178292
 20
365.800949
 30
0.0
 11
-18.678291
 21
364.863129
 31
0.0
  0
LINE
  5
43F
330
1F
100
AcDbEntity
  8
LC-001-100-D00-0
 62
     7
370
    50
100
AcDbLine
 10
-18.678291
 20
364.863129
 30
0.0
 11
-101.703302
 21
364.863128
 31
0.0
  0
ARC
  5
440
330
1F
100
AcDbEntity
  8
LC-001-100-D00-0
 62
     7
370
    50
100
AcDbCircle
 10
-121.678286
 20
389.863128
 30
0.0
 40
32.0
100
AcDbArc
 50
270.0
 51
308.624833
  0
LINE
  5
441
330
1F
100
AcDbEntity
  8
LC-001-100-D00-0
 62
     7
370
    50
100
AcDbLine
 10
-121.678286
 20
357.863128
 30
0.0
 11
-130.178286
 21
357.86313
 31
0.0
  0
LINE
  5
442
330
1F
100
AcDbEntity
  8
LC-001-100-D00-0
 62
     7
370
    50
100
AcDbLine
 10
-15.178286
 20
412.613128
 30
0.0
 11
-15.178286
 21
367.113128
 31
0.0
  0
LINE
  5
443
330
1F
100
AcDbEntity
  8
LC-001-100-D00-0
 62
     7
370
    50
100
AcDbLine
 10
-102.89831
 20
412.613128
 30
0.0
 11
-102.89831
 21
367.113128
 31
0.0
  0
LINE
  5
444
330
1F
100
AcDbEntity
  8
LC-001-100-D00-0
 62
     7
370
    50
100
AcDbLine
 10
-130.178286
 20
361.427925
 30
0.0
 11
-130.178286
 21
360.299637
 31
0.0
  0
CIRCLE
  5
445
330
1F
100
AcDbEntity
  8
LC-001-100-D00-0
 62
     7
370
    50
100
AcDbCircle
 10
-113.430287
 20
416.863128
 30
0.0
 40
1.999999999999886
  0
CIRCLE
  5
446
330
1F
100
AcDbEntity
  8
LC-001-100-D00-0
 62
     7
370
    50
100
AcDbCircle
 10
-113.430287
 20
362.863128
 30
0.0
 40
2.0
  0
LINE
  5
447
330
1F
100
AcDbEntity
  8
LC-001-100-D00-0
 62
     7
370
    50
100
AcDbLine
 10
-131.335745
 20
445.277943
 30
0.0
 11
-149.169417
 21
440.499425
 31
0.0
  0
ARC
  5
448
330
1F
100
AcDbEntity
  8
LC-001-100-D00-0
 62
     7
370
    50
100
AcDbCircle
 10
-150.204693
 20
444.363128
 30
0.0
 40
4.000000000000227
100
AcDbArc
 50
270.0
 51
285.0
  0
LINE
  5
449
330
1F
100
AcDbEntity
  8
LC-001-100-D00-0
 62
     7
370
    50
100
AcDbLine
 10
-150.204693
 20
440.363128
 30
0.0
 11
-166.878083
 21
440.363128
 31
0.0
  0
ARC
  5
44A
330
1F
100
AcDbEntity
  8
LC-001-100-D00-0
 62
     7
370
    50
100
AcDbCircle
 10
-166.878083
 20
439.363128
 30
0.0
 40
1.0
100
AcDbArc
 50
90.0
 51
180.0
  0
LINE
  5
44B
330
1F
100
AcDbEntity
  8
LC-001-100-D00-0
 62
     7
370
    50
100
AcDbLine
 10
-167.878083
 20
439.363128
 30
0.0
 11
-167.878083
 21
435.363127
 31
0.0
  0
LINE
  5
44C
330
1F
100
AcDbEntity
  8
LC-001-100-D00-0
 62
     7
370
    50
100
AcDbLine
 10
-167.878083
 20
435.363127
 30
0.0
 11
-169.378083
 21
435.363128
 31
0.0
  0
LINE
  5
44D
330
1F
100
AcDbEntity
  8
LC-001-100-D00-0
 62
     7
370
    50
100
AcDbLine
 10
-169.378083
 20
439.363128
 30
0.0
 11
-169.378083
 21
435.363128
 31
0.0
  0
ARC
  5
44E
330
1F
100
AcDbEntity
  8
LC-001-100-D00-0
 62
     7
370
    50
100
AcDbCircle
 10
-166.878083
 20
439.363128
 30
0.0
 40
2.5
100
AcDbArc
 50
90.0
 51
180.0
  0
LINE
  5
44F
330
1F
100
AcDbEntity
  8
LC-001-100-D00-0
 62
     7
370
    50
100
AcDbLine
 10
-150.204693
 20
441.863128
 30
0.0
 11
-166.878083
 21
441.863128
 31
0.0
  0
ARC
  5
450
330
1F
100
AcDbEntity
  8
LC-001-100-D00-0
 62
     7
370
    50
100
AcDbCircle
 10
-150.204693
 20
444.363128
 30
0.0
 40
2.500000000000227
100
AcDbArc
 50
270.0
 51
285.0
  0
LINE
  5
451
330
1F
100
AcDbEntity
  8
LC-001-100-D00-0
 62
     7
370
    50
100
AcDbLine
 10
-131.723974
 20
446.726832
 30
0.0
 11
-149.557645
 21
441.948314
 31
0.0
  0
ARC
  5
452
330
1F
100
AcDbEntity
  8
LC-001-100-D00-0
 62
     7
370
    50
100
AcDbCircle
 10
-130.688698
 20
442.863128
 30
0.0
 40
3.999999999999773
100
AcDbArc
 50
90.0
 51
105.0
  0
LINE
  5
453
330
1F
100
AcDbEntity
  8
LC-001-100-D00-0
 62
     7
370
    50
100
AcDbLine
 10
-130.688698
 20
446.863128
 30
0.0
 11
-129.178083
 21
446.863128
 31
0.0
  0
LINE
  5
454
330
1F
100
AcDbEntity
  8
LC-001-100-D00-0
 62
     7
370
    50
100
AcDbLine
 10
-129.178083
 20
446.863128
 30
0.0
 11
-129.178083
 21
448.263129
 31
0.0
  0
LINE
  5
455
330
1F
100
AcDbEntity
  8
LC-001-100-D00-0
 62
     7
370
    50
100
AcDbLine
 10
-128.678083
 20
448.263128
 30
0.0
 11
-129.178083
 21
448.263129
 31
0.0
  0
ARC
  5
456
330
1F
100
AcDbEntity
  8
LC-001-100-D00-0
 62
     7
370
    50
100
AcDbCircle
 10
-129.678083
 20
449.763128
 30
0.0
 40
1.802775637731932
100
AcDbArc
 50
303.690068
 51
56.309932
  0
LINE
  5
457
330
1F
100
AcDbEntity
  8
LC-001-100-D00-0
 62
     7
370
    50
100
AcDbLine
 10
-128.678082
 20
465.863128
 30
0.0
 11
-128.678083
 21
451.263128
 31
0.0
  0
LINE
  5
458
330
1F
100
AcDbEntity
  8
LC-001-100-D00-0
 62
     7
370
    50
100
AcDbLine
 10
-127.67808
 20
466.863128
 30
0.0
 11
-128.678082
 21
465.863128
 31
0.0
  0
LINE
  5
459
330
1F
100
AcDbEntity
  8
LC-001-100-D00-0
 62
     7
370
    50
100
AcDbLine
 10
-121.678083
 20
466.863128
 30
0.0
 11
-127.67808
 21
466.863128
 31
0.0
  0
LINE
  5
45A
330
1F
100
AcDbEntity
  8
LC-001-100-D00-0
 62
     7
370
    50
100
AcDbLine
 10
-120.678081
 20
465.863128
 30
0.0
 11
-121.678083
 21
466.863128
 31
0.0
  0
LINE
  5
45B
330
1F
100
AcDbEntity
  8
LC-001-100-D00-0
 62
     7
370
    50
100
AcDbLine
 10
-120.678083
 20
451.263128
 30
0.0
 11
-120.678081
 21
465.863128
 31
0.0
  0
ARC
  5
45C
330
1F
100
AcDbEntity
  8
LC-001-100-D00-0
 62
     7
370
    50
100
AcDbCircle
 10
-119.678083
 20
449.763128
 30
0.0
 40
1.802775637732184
100
AcDbArc
 50
123.690068
 51
236.309932
  0
LINE
  5
45D
330
1F
100
AcDbEntity
  8
LC-001-100-D00-0
 62
     7
370
    50
100
AcDbLine
 10
-120.17808
 20
448.263129
 30
0.0
 11
-120.678083
 21
448.263128
 31
0.0
  0
LINE
  5
45E
330
1F
100
AcDbEntity
  8
LC-001-100-D00-0
 62
     7
370
    50
100
AcDbLine
 10
-120.17808
 20
448.263129
 30
0.0
 11
-120.17808
 21
446.863128
 31
0.0
  0
LINE
  5
45F
330
1F
100
AcDbEntity
  8
LC-001-100-D00-0
 62
     7
370
    50
100
AcDbLine
 10
-120.17808
 20
446.863128
 30
0.0
 11
30.821906
 21
446.863128
 31
0.0
  0
LINE
  5
460
330
1F
100
AcDbEntity
  8
LC-001-100-D00-0
 62
     7
370
    50
100
AcDbLine
 10
30.821906
 20
446.863128
 30
0.0
 11
30.821906
 21
448.263129
 31
0.0
  0
LINE
  5
461
330
1F
100
AcDbEntity
  8
LC-001-100-D00-0
 62
     7
370
    50
100
AcDbLine
 10
31.321917
 20
448.263128
 30
0.0
 11
30.821906
 21
448.263129
 31
0.0
  0
ARC
  5
462
330
1F
100
AcDbEntity
  8
LC-001-100-D00-0
 62
     7
370
    50
100
AcDbCircle
 10
30.321917
 20
449.763128
 30
0.0
 40
1.802775637732184
100
AcDbArc
 50
303.690068
 51
56.309932
  0
LINE
  5
463
330
1F
100
AcDbEntity
  8
LC-001-100-D00-0
 62
     7
370
    50
100
AcDbLine
 10
31.321929
 20
465.863128
 30
0.0
 11
31.321917
 21
451.263128
 31
0.0
  0
LINE
  5
464
330
1F
100
AcDbEntity
  8
LC-001-100-D00-0
 62
     7
370
    50
100
AcDbLine
 10
32.321916
 20
466.863128
 30
0.0
 11
31.321929
 21
465.863128
 31
0.0
  0
LINE
  5
465
330
1F
100
AcDbEntity
  8
LC-001-100-D00-0
 62
     7
370
    50
100
AcDbLine
 10
38.321929
 20
466.863128
 30
0.0
 11
32.321916
 21
466.863128
 31
0.0
  0
LINE
  5
466
330
1F
100
AcDbEntity
  8
LC-001-100-D00-0
 62
     7
370
    50
100
AcDbLine
 10
39.321916
 20
465.863128
 30
0.0
 11
38.321929
 21
466.863128
 31
0.0
  0
LINE
  5
467
330
1F
100
AcDbEntity
  8
LC-001-100-D00-0
 62
     7
370
    50
100
AcDbLine
 10
39.321917
 20
451.263128
 30
0.0
 11
39.321916
 21
465.863128
 31
0.0
  0
ARC
  5
468
330
1F
100
AcDbEntity
  8
LC-001-100-D00-0
 62
     7
370
    50
100
AcDbCircle
 10
40.321917
 20
449.763128
 30
0.0
 40
1.802775637732184
100
AcDbArc
 50
123.690068
 51
236.309932
  0
LINE
  5
469
330
1F
100
AcDbEntity
  8
LC-001-100-D00-0
 62
     7
370
    50
100
AcDbLine
 10
39.821909
 20
448.263129
 30
0.0
 11
39.321917
 21
448.263128
 31
0.0
  0
LINE
  5
46A
330
1F
100
AcDbEntity
  8
LC-001-100-D00-0
 62
     7
370
    50
100
AcDbLine
 10
39.821909
 20
448.263129
 30
0.0
 11
39.821909
 21
446.863128
 31
0.0
  0
LINE
  5
46B
330
1F
100
AcDbEntity
  8
LC-001-100-D00-0
 62
     7
370
    50
100
AcDbLine
 10
39.821909
 20
446.863128
 30
0.0
 11
190.821902
 21
446.863128
 31
0.0
  0
LINE
  5
46C
330
1F
100
AcDbEntity
  8
LC-001-100-D00-0
 62
     7
370
    50
100
AcDbLine
 10
190.821902
 20
446.863128
 30
0.0
 11
190.821902
 21
448.263129
 31
0.0
  0
LINE
  5
46D
330
1F
100
AcDbEntity
  8
LC-001-100-D00-0
 62
     7
370
    50
100
AcDbLine
 10
191.321917
 20
448.263128
 30
0.0
 11
190.821902
 21
448.263129
 31
0.0
  0
ARC
  5
46E
330
1F
100
AcDbEntity
  8
LC-001-100-D00-0
 62
     7
370
    50
100
AcDbCircle
 10
190.321917
 20
449.763128
 30
0.0
 40
1.802775637731868
100
AcDbArc
 50
303.690068
 51
56.309932
  0
LINE
  5
46F
330
1F
100
AcDbEntity
  8
LC-001-100-D00-0
 62
     7
370
    50
100
AcDbLine
 10
191.321926
 20
465.863128
 30
0.0
 11
191.321917
 21
451.263128
 31
0.0
  0
LINE
  5
470
330
1F
100
AcDbEntity
  8
LC-001-100-D00-0
 62
     7
370
    50
100
AcDbLine
 10
192.321913
 20
466.863128
 30
0.0
 11
191.321926
 21
465.863128
 31
0.0
  0
LINE
  5
471
330
1F
100
AcDbEntity
  8
LC-001-100-D00-0
 62
     7
370
    50
100
AcDbLine
 10
198.321925
 20
466.863128
 30
0.0
 11
192.321913
 21
466.863128
 31
0.0
  0
LINE
  5
472
330
1F
100
AcDbEntity
  8
LC-001-100-D00-0
 62
     7
370
    50
100
AcDbLine
 10
199.321912
 20
465.863128
 30
0.0
 11
198.321925
 21
466.863128
 31
0.0
  0
LINE
  5
473
330
1F
100
AcDbEntity
  8
LC-001-100-D00-0
 62
     7
370
    50
100
AcDbLine
 10
199.321917
 20
451.263128
 30
0.0
 11
199.321912
 21
465.863128
 31
0.0
  0
ARC
  5
474
330
1F
100
AcDbEntity
  8
LC-001-100-D00-0
 62
     7
370
    50
100
AcDbCircle
 10
200.321917
 20
449.763128
 30
0.0
 40
1.802775637732058
100
AcDbArc
 50
123.690068
 51
236.309932
  0
LINE
  5
475
330
1F
100
AcDbEntity
  8
LC-001-100-D00-0
 62
     7
370
    50
100
AcDbLine
 10
199.821906
 20
448.263129
 30
0.0
 11
199.321917
 21
448.263128
 31
0.0
  0
LINE
  5
476
330
1F
100
AcDbEntity
  8
LC-001-100-D00-0
 62
     7
370
    50
100
AcDbLine
 10
199.821906
 20
448.263129
 30
0.0
 11
199.821906
 21
446.863128
 31
0.0
  0
LINE
  5
477
330
1F
100
AcDbEntity
  8
LC-001-100-D00-0
 62
     7
370
    50
100
AcDbLine
 10
199.821906
 20
446.863128
 30
0.0
 11
217.321917
 21
446.863128
 31
0.0
  0
ARC
  5
478
330
1F
100
AcDbEntity
  8
LC-001-100-D00-0
 62
     7
370
    50
100
AcDbCircle
 10
217.321917
 20
454.863128
 30
0.0
 40
8.000000000000227
100
AcDbArc
 50
270.0
 51
0.0
  0
LINE
  5
479
330
1F
100
AcDbEntity
  8
LC-001-100-D00-0
 62
     7
370
    50
100
AcDbLine
 10
225.321917
 20
454.863128
 30
0.0
 11
225.321917
 21
464.363128
 31
0.0
  0
ARC
  5
47A
330
1F
100
AcDbEntity
  8
LC-001-100-D00-0
 62
     7
370
    50
100
AcDbCircle
 10
228.321917
 20
464.363128
 30
0.0
 40
2.999999999999773
100
AcDbArc
 50
90.0
 51
180.0
  0
LINE
  5
47B
330
1F
100
AcDbEntity
  8
LC-001-100-D00-0
 62
     7
370
    50
100
AcDbLine
 10
275.321917
 20
467.363128
 30
0.0
 11
228.321917
 21
467.363128
 31
0.0
  0
LINE
  5
47C
330
1F
100
AcDbEntity
  8
LC-001-100-D00-0
 62
     7
370
    50
100
AcDbLine
 10
275.321917
 20
465.863128
 30
0.0
 11
275.321917
 21
467.363128
 31
0.0
  0
LINE
  5
47D
330
1F
100
AcDbEntity
  8
LC-001-100-D00-0
 62
     7
370
    50
100
AcDbLine
 10
275.321917
 20
465.863128
 30
0.0
 11
228.321917
 21
465.863128
 31
0.0
  0
ARC
  5
47E
330
1F
100
AcDbEntity
  8
LC-001-100-D00-0
 62
     7
370
    50
100
AcDbCircle
 10
228.321917
 20
464.363128
 30
0.0
 40
1.500000000000227
100
AcDbArc
 50
90.0
 51
180.0
  0
LINE
  5
47F
330
1F
100
AcDbEntity
  8
LC-001-100-D00-0
 62
     7
370
    50
100
AcDbLine
 10
226.821917
 20
454.863128
 30
0.0
 11
226.821917
 21
464.363128
 31
0.0
  0
ARC
  5
480
330
1F
100
AcDbEntity
  8
LC-001-100-D00-0
 62
     7
370
    50
100
AcDbCircle
 10
217.321917
 20
454.863128
 30
0.0
 40
9.5
100
AcDbArc
 50
270.0
 51
0.0
  0
LINE
  5
481
330
1F
100
AcDbEntity
  8
LC-001-100-D00-0
 62
     7
370
    50
100
AcDbLine
 10
-130.688698
 20
445.363128
 30
0.0
 11
217.321917
 21
445.363128
 31
0.0
  0
ARC
  5
482
330
1F
100
AcDbEntity
  8
LC-001-100-D00-0
 62
     7
370
    50
100
AcDbCircle
 10
-130.688698
 20
442.863128
 30
0.0
 40
2.5
100
AcDbArc
 50
90.0
 51
105.0
  0
LINE
  5
483
330
1F
100
AcDbEntity
  8
LC-001-100-D00-0
 62
     7
370
    50
100
AcDbLine
 10
-180.284199
 20
441.863128
 30
0.0
 11
-166.878083
 21
441.863128
 31
0.0
  0
LINE
  5
484
330
1F
100
AcDbEntity
  8
LC-001-100-D00-0
 62
     7
370
    50
100
AcDbLine
 10
-169.378083
 20
435.363128
 30
0.0
 11
-169.428083
 21
435.363128
 31
0.0
  0
LINE
  5
485
330
1F
100
AcDbEntity
  8
LC-001-100-D00-0
 62
     7
370
    50
100
AcDbLine
 10
-279.928083
 20
435.363128
 30
0.0
 11
-279.978083
 21
435.363128
 31
0.0
  0
LINE
  5
486
330
1F
100
AcDbEntity
  8
LC-001-100-D00-0
 62
     7
370
    50
100
AcDbLine
 10
-279.978083
 20
435.363128
 30
0.0
 11
-279.978083
 21
439.363128
 31
0.0
  0
LINE
  5
487
330
1F
100
AcDbEntity
  8
LC-001-100-D00-0
 62
     7
370
    50
100
AcDbLine
 10
-281.478083
 20
435.363127
 30
0.0
 11
-281.478083
 21
439.363128
 31
0.0
  0
LINE
  5
488
330
1F
100
AcDbEntity
  8
LC-001-100-D00-0
 62
     7
370
    50
100
AcDbLine
 10
-640.178068
 20
448.263129
 30
0.0
 11
-640.678083
 21
448.263128
 31
0.0
  0
LINE
  5
489
330
1F
100
AcDbEntity
  8
LC-001-100-D00-0
 62
     7
370
    50
100
AcDbLine
 10
-640.178068
 20
448.263129
 30
0.0
 11
-640.178068
 21
446.863128
 31
0.0
  0
LINE
  5
48A
330
1F
100
AcDbEntity
  8
LC-001-100-D00-0
 62
     7
370
    50
100
AcDbLine
 10
-640.178068
 20
446.863128
 30
0.0
 11
-489.178075
 21
446.863128
 31
0.0
  0
LINE
  5
48B
330
1F
100
AcDbEntity
  8
LC-001-100-D00-0
 62
     7
370
    50
100
AcDbLine
 10
-489.178075
 20
446.863128
 30
0.0
 11
-489.178075
 21
448.263129
 31
0.0
  0
LINE
  5
48C
330
1F
100
AcDbEntity
  8
LC-001-100-D00-0
 62
     7
370
    50
100
AcDbLine
 10
-488.678083
 20
448.263128
 30
0.0
 11
-489.178075
 21
448.263129
 31
0.0
  0
ARC
  5
48D
330
1F
100
AcDbEntity
  8
LC-001-100-D00-0
 62
     7
370
    50
100
AcDbCircle
 10
-489.678083
 20
449.763128
 30
0.0
 40
1.802775637732121
100
AcDbArc
 50
303.690068
 51
56.309932
  0
LINE
  5
48E
330
1F
100
AcDbEntity
  8
LC-001-100-D00-0
 62
     7
370
    50
100
AcDbLine
 10
-488.678081
 20
465.863128
 30
0.0
 11
-488.678083
 21
451.263128
 31
0.0
  0
LINE
  5
48F
330
1F
100
AcDbEntity
  8
LC-001-100-D00-0
 62
     7
370
    50
100
AcDbLine
 10
-487.678094
 20
466.863128
 30
0.0
 11
-488.678081
 21
465.863128
 31
0.0
  0
LINE
  5
490
330
1F
100
AcDbEntity
  8
LC-001-100-D00-0
 62
     7
370
    50
100
AcDbLine
 10
-481.678082
 20
466.863128
 30
0.0
 11
-487.678094
 21
466.863128
 31
0.0
  0
LINE
  5
491
330
1F
100
AcDbEntity
  8
LC-001-100-D00-0
 62
     7
370
    50
100
AcDbLine
 10
-480.678095
 20
465.863128
 30
0.0
 11
-481.678082
 21
466.863128
 31
0.0
  0
LINE
  5
492
330
1F
100
AcDbEntity
  8
LC-001-100-D00-0
 62
     7
370
    50
100
AcDbLine
 10
-480.678083
 20
451.263128
 30
0.0
 11
-480.678095
 21
465.863128
 31
0.0
  0
ARC
  5
493
330
1F
100
AcDbEntity
  8
LC-001-100-D00-0
 62
     7
370
    50
100
AcDbCircle
 10
-479.678083
 20
449.763128
 30
0.0
 40
1.802775637732184
100
AcDbArc
 50
123.690068
 51
236.309932
  0
LINE
  5
494
330
1F
100
AcDbEntity
  8
LC-001-100-D00-0
 62
     7
370
    50
100
AcDbLine
 10
-480.178072
 20
448.263129
 30
0.0
 11
-480.678083
 21
448.263128
 31
0.0
  0
LINE
  5
495
330
1F
100
AcDbEntity
  8
LC-001-100-D00-0
 62
     7
370
    50
100
AcDbLine
 10
-480.178072
 20
448.263129
 30
0.0
 11
-480.178072
 21
446.863128
 31
0.0
  0
LINE
  5
496
330
1F
100
AcDbEntity
  8
LC-001-100-D00-0
 62
     7
370
    50
100
AcDbLine
 10
-480.178072
 20
446.863128
 30
0.0
 11
-329.178086
 21
446.863128
 31
0.0
  0
LINE
  5
497
330
1F
100
AcDbEntity
  8
LC-001-100-D00-0
 62
     7
370
    50
100
AcDbLine
 10
-329.178086
 20
446.863128
 30
0.0
 11
-329.178086
 21
448.263129
 31
0.0
  0
LINE
  5
498
330
1F
100
AcDbEntity
  8
LC-001-100-D00-0
 62
     7
370
    50
100
AcDbLine
 10
-328.678083
 20
448.263128
 30
0.0
 11
-329.178086
 21
448.263129
 31
0.0
  0
ARC
  5
499
330
1F
100
AcDbEntity
  8
LC-001-100-D00-0
 62
     7
370
    50
100
AcDbCircle
 10
-329.678083
 20
449.763128
 30
0.0
 40
1.802775637732184
100
AcDbArc
 50
303.690068
 51
56.309932
  0
LINE
  5
49A
330
1F
100
AcDbEntity
  8
LC-001-100-D00-0
 62
     7
370
    50
100
AcDbLine
 10
-328.678085
 20
465.863128
 30
0.0
 11
-328.678083
 21
451.263128
 31
0.0
  0
LINE
  5
49B
330
1F
100
AcDbEntity
  8
LC-001-100-D00-0
 62
     7
370
    50
100
AcDbLine
 10
-327.678083
 20
466.863128
 30
0.0
 11
-328.678085
 21
465.863128
 31
0.0
  0
LINE
  5
49C
330
1F
100
AcDbEntity
  8
LC-001-100-D00-0
 62
     7
370
    50
100
AcDbLine
 10
-321.678086
 20
466.863128
 30
0.0
 11
-327.678083
 21
466.863128
 31
0.0
  0
LINE
  5
49D
330
1F
100
AcDbEntity
  8
LC-001-100-D00-0
 62
     7
370
    50
100
AcDbLine
 10
-320.678084
 20
465.863128
 30
0.0
 11
-321.678086
 21
466.863128
 31
0.0
  0
LINE
  5
49E
330
1F
100
AcDbEntity
  8
LC-001-100-D00-0
 62
     7
370
    50
100
AcDbLine
 10
-320.678083
 20
451.263128
 30
0.0
 11
-320.678084
 21
465.863128
 31
0.0
  0
ARC
  5
49F
330
1F
100
AcDbEntity
  8
LC-001-100-D00-0
 62
     7
370
    50
100
AcDbCircle
 10
-319.678083
 20
449.763128
 30
0.0
 40
1.802775637732121
100
AcDbArc
 50
123.690068
 51
236.309932
  0
LINE
  5
4A0
330
1F
100
AcDbEntity
  8
LC-001-100-D00-0
 62
     7
370
    50
100
AcDbLine
 10
-320.178083
 20
448.263129
 30
0.0
 11
-320.678083
 21
448.263128
 31
0.0
  0
LINE
  5
4A1
330
1F
100
AcDbEntity
  8
LC-001-100-D00-0
 62
     7
370
    50
100
AcDbLine
 10
-320.178083
 20
448.263129
 30
0.0
 11
-320.178083
 21
446.863128
 31
0.0
  0
LINE
  5
4A2
330
1F
100
AcDbEntity
  8
LC-001-100-D00-0
 62
     7
370
    50
100
AcDbLine
 10
-320.178083
 20
446.863128
 30
0.0
 11
-318.667468
 21
446.863128
 31
0.0
  0
ARC
  5
4A3
330
1F
100
AcDbEntity
  8
LC-001-100-D00-0
 62
     7
370
    50
100
AcDbCircle
 10
-318.667468
 20
442.863128
 30
0.0
 40
3.999999999999873
100
AcDbArc
 50
75.0
 51
90.0
  0
LINE
  5
4A4
330
1F
100
AcDbEntity
  8
LC-001-100-D00-0
 62
     7
370
    50
100
AcDbLine
 10
-299.798521
 20
441.948314
 30
0.0
 11
-317.632192
 21
446.726832
 31
0.0
  0
ARC
  5
4A5
330
1F
100
AcDbEntity
  8
LC-001-100-D00-0
 62
     7
370
    50
100
AcDbCircle
 10
-299.151473
 20
444.363128
 30
0.0
 40
2.500000000000062
100
AcDbArc
 50
255.0
 51
270.0
  0
LINE
  5
4A6
330
1F
100
AcDbEntity
  8
LC-001-100-D00-0
 62
     7
370
    50
100
AcDbLine
 10
-293.755292
 20
441.863129
 30
0.0
 11
-299.151473
 21
441.863128
 31
0.0
  0
LINE
  5
4A7
330
1F
100
AcDbEntity
  8
LC-001-100-D00-0
 62
     7
370
    50
100
AcDbLine
 10
-293.755292
 20
441.763129
 30
0.0
 11
-293.755292
 21
441.863129
 31
0.0
  0
LINE
  5
4A8
330
1F
100
AcDbEntity
  8
LC-001-100-D00-0
 62
     7
370
    50
100
AcDbLine
 10
-293.231456
 20
441.763129
 30
0.0
 11
-293.755292
 21
441.763129
 31
0.0
  0
LINE
  5
4A9
330
1F
100
AcDbEntity
  8
LC-001-100-D00-0
 62
     7
370
    50
100
AcDbLine
 10
-293.231456
 20
441.863129
 30
0.0
 11
-293.231456
 21
441.763129
 31
0.0
  0
LINE
  5
4AA
330
1F
100
AcDbEntity
  8
LC-001-100-D00-0
 62
     7
370
    50
100
AcDbLine
 10
-292.537211
 20
441.863129
 30
0.0
 11
-293.231456
 21
441.863129
 31
0.0
  0
LINE
  5
4AB
330
1F
100
AcDbEntity
  8
LC-001-100-D00-0
 62
     7
370
    50
100
AcDbLine
 10
-292.537211
 20
441.763129
 30
0.0
 11
-292.537211
 21
441.863129
 31
0.0
  0
LINE
  5
4AC
330
1F
100
AcDbEntity
  8
LC-001-100-D00-0
 62
     7
370
    50
100
AcDbLine
 10
-292.012862
 20
441.763129
 30
0.0
 11
-292.537211
 21
441.763129
 31
0.0
  0
LINE
  5
4AD
330
1F
100
AcDbEntity
  8
LC-001-100-D00-0
 62
     7
370
    50
100
AcDbLine
 10
-292.012862
 20
441.863129
 30
0.0
 11
-292.012862
 21
441.763129
 31
0.0
  0
LINE
  5
4AE
330
1F
100
AcDbEntity
  8
LC-001-100-D00-0
 62
     7
370
    50
100
AcDbLine
 10
-282.478083
 20
441.863128
 30
0.0
 11
-292.012862
 21
441.863129
 31
0.0
  0
ARC
  5
4AF
330
1F
100
AcDbEntity
  8
LC-001-100-D00-0
 62
     7
370
    50
100
AcDbCircle
 10
-282.478083
 20
439.363128
 30
0.0
 40
2.5
100
AcDbArc
 50
0.0
 51
90.0
  0
LINE
  5
4B0
330
1F
100
AcDbEntity
  8
LC-001-100-D00-0
 62
     7
370
    50
100
AcDbLine
 10
-279.978083
 20
435.363128
 30
0.0
 11
-281.478083
 21
435.363127
 31
0.0
  0
ARC
  5
4B1
330
1F
100
AcDbEntity
  8
LC-001-100-D00-0
 62
     7
370
    50
100
AcDbCircle
 10
-282.478083
 20
439.363128
 30
0.0
 40
1.0
100
AcDbArc
 50
0.0
 51
90.0
  0
LINE
  5
4B2
330
1F
100
AcDbEntity
  8
LC-001-100-D00-0
 62
     7
370
    50
100
AcDbLine
 10
-282.478083
 20
440.363128
 30
0.0
 11
-299.151473
 21
440.363128
 31
0.0
  0
ARC
  5
4B3
330
1F
100
AcDbEntity
  8
LC-001-100-D00-0
 62
     7
370
    50
100
AcDbCircle
 10
-299.151473
 20
444.363128
 30
0.0
 40
4.000000000000122
100
AcDbArc
 50
255.0
 51
270.0
  0
LINE
  5
4B4
330
1F
100
AcDbEntity
  8
LC-001-100-D00-0
 62
     7
370
    50
100
AcDbLine
 10
-300.186749
 20
440.499425
 30
0.0
 11
-318.020421
 21
445.277943
 31
0.0
  0
ARC
  5
4B5
330
1F
100
AcDbEntity
  8
LC-001-100-D00-0
 62
     7
370
    50
100
AcDbCircle
 10
-318.667468
 20
442.863128
 30
0.0
 40
2.500000000000062
100
AcDbArc
 50
75.0
 51
90.0
  0
LINE
  5
4B6
330
1F
100
AcDbEntity
  8
LC-001-100-D00-0
 62
     7
370
    50
100
AcDbLine
 10
-666.678083
 20
445.363128
 30
0.0
 11
-318.667468
 21
445.363128
 31
0.0
  0
ARC
  5
4B7
330
1F
100
AcDbEntity
  8
LC-001-100-D00-0
 62
     7
370
    50
100
AcDbCircle
 10
-666.678083
 20
454.863128
 30
0.0
 40
9.5
100
AcDbArc
 50
180.0
 51
270.0
  0
LINE
  5
4B8
330
1F
100
AcDbEntity
  8
LC-001-100-D00-0
 62
     7
370
    50
100
AcDbLine
 10
-676.178083
 20
464.363128
 30
0.0
 11
-676.178083
 21
454.863128
 31
0.0
  0
ARC
  5
4B9
330
1F
100
AcDbEntity
  8
LC-001-100-D00-0
 62
     7
370
    50
100
AcDbCircle
 10
-677.678083
 20
464.363128
 30
0.0
 40
1.500000000000114
100
AcDbArc
 50
0.0
 51
90.0
  0
LINE
  5
4BA
330
1F
100
AcDbEntity
  8
LC-001-100-D00-0
 62
     7
370
    50
100
AcDbLine
 10
-724.678083
 20
467.363128
 30
0.0
 11
-724.678083
 21
465.863128
 31
0.0
  0
ARC
  5
4BB
330
1F
100
AcDbEntity
  8
LC-001-100-D00-0
 62
     7
370
    50
100
AcDbCircle
 10
-677.678083
 20
464.363128
 30
0.0
 40
3.0
100
AcDbArc
 50
0.0
 51
90.0
  0
LINE
  5
4BC
330
1F
100
AcDbEntity
  8
LC-001-100-D00-0
 62
     7
370
    50
100
AcDbLine
 10
-674.678083
 20
464.363128
 30
0.0
 11
-674.678083
 21
454.863128
 31
0.0
  0
ARC
  5
4BD
330
1F
100
AcDbEntity
  8
LC-001-100-D00-0
 62
     7
370
    50
100
AcDbCircle
 10
-666.678083
 20
454.863128
 30
0.0
 40
8.0
100
AcDbArc
 50
180.0
 51
270.0
  0
LINE
  5
4BE
330
1F
100
AcDbEntity
  8
LC-001-100-D00-0
 62
     7
370
    50
100
AcDbLine
 10
-666.678083
 20
446.863128
 30
0.0
 11
-649.178071
 21
446.863128
 31
0.0
  0
LINE
  5
4BF
330
1F
100
AcDbEntity
  8
LC-001-100-D00-0
 62
     7
370
    50
100
AcDbLine
 10
-649.178071
 20
446.863128
 30
0.0
 11
-649.178071
 21
448.263129
 31
0.0
  0
LINE
  5
4C0
330
1F
100
AcDbEntity
  8
LC-001-100-D00-0
 62
     7
370
    50
100
AcDbLine
 10
-648.678083
 20
448.263128
 30
0.0
 11
-649.178071
 21
448.263129
 31
0.0
  0
ARC
  5
4C1
330
1F
100
AcDbEntity
  8
LC-001-100-D00-0
 62
     7
370
    50
100
AcDbCircle
 10
-649.678083
 20
449.763128
 30
0.0
 40
1.802775637731932
100
AcDbArc
 50
303.690068
 51
56.309932
  0
LINE
  5
4C2
330
1F
100
AcDbEntity
  8
LC-001-100-D00-0
 62
     7
370
    50
100
AcDbLine
 10
-648.678078
 20
465.863128
 30
0.0
 11
-648.678083
 21
451.263128
 31
0.0
  0
LINE
  5
4C3
330
1F
100
AcDbEntity
  8
LC-001-100-D00-0
 62
     7
370
    50
100
AcDbLine
 10
-647.678091
 20
466.863128
 30
0.0
 11
-648.678078
 21
465.863128
 31
0.0
  0
LINE
  5
4C4
330
1F
100
AcDbEntity
  8
LC-001-100-D00-0
 62
     7
370
    50
100
AcDbLine
 10
-641.678079
 20
466.863128
 30
0.0
 11
-647.678091
 21
466.863128
 31
0.0
  0
LINE
  5
4C5
330
1F
100
AcDbEntity
  8
LC-001-100-D00-0
 62
     7
370
    50
100
AcDbLine
 10
-640.678092
 20
465.863128
 30
0.0
 11
-641.678079
 21
466.863128
 31
0.0
  0
LINE
  5
4C6
330
1F
100
AcDbEntity
  8
LC-001-100-D00-0
 62
     7
370
    50
100
AcDbLine
 10
-640.678083
 20
451.263128
 30
0.0
 11
-640.678092
 21
465.863128
 31
0.0
  0
ARC
  5
4C7
330
1F
100
AcDbEntity
  8
LC-001-100-D00-0
 62
     7
370
    50
100
AcDbCircle
 10
-639.678083
 20
449.763128
 30
0.0
 40
1.802775637732058
100
AcDbArc
 50
123.690068
 51
236.309932
  0
LINE
  5
4C8
330
1F
100
AcDbEntity
  8
LC-001-100-D00-0
 62
     7
370
    50
100
AcDbLine
 10
-677.678083
 20
465.863128
 30
0.0
 11
-724.678083
 21
465.863128
 31
0.0
  0
LINE
  5
4C9
330
1F
100
AcDbEntity
  8
LC-001-100-D00-0
 62
     7
370
    50
100
AcDbLine
 10
-677.678083
 20
467.363128
 30
0.0
 11
-724.678083
 21
467.363128
 31
0.0
  0
LINE
  5
4CA
330
1F
100
AcDbEntity
  8
LC-001-100-D00-0
 62
     7
370
    50
100
AcDbLine
 10
-269.071966
 20
441.863128
 30
0.0
 11
-282.478083
 21
441.863128
 31
0.0
  0
LINE
  5
4CB
330
1F
100
AcDbEntity
  8
LC-001-100-D00-0
 62
     7
370
    50
100
AcDbLine
 10
-292.537211
 20
441.863129
 30
0.0
 11
-292.012862
 21
441.863129
 31
0.0
  0
LINE
  5
4CC
330
1F
100
AcDbEntity
  8
LC-001-100-D00-0
 62
     7
370
    50
100
AcDbLine
 10
-293.755292
 20
441.863129
 30
0.0
 11
-293.231456
 21
441.863129
 31
0.0
  0
ELLIPSE
  5
4CD
330
1F
100
AcDbEntity
  8
LC-001-100-D00-0
 62
     7
370
    50
100
AcDbEllipse
 10
80.343734
 20
442.863128
 30
0.0
 11
0.0
 21
-2.500000214338293
 31
0.0
210
0.0
220
0.0
230
1.0
 40
0.027578
 41
0.0000000000068021
 42
0.3217505544044239
  0
ELLIPSE
  5
4CE
330
1F
100
AcDbEntity
  8
LC-001-100-D00-0
 62
     7
370
    50
100
AcDbEllipse
 10
-529.6999
 20
442.863128
 30
0.0
 11
0.0
 21
-2.5
 31
0.0
210
0.0
220
0.0
230
0.9999999999999999
 40
0.027578
 41
5.961434752784173
 42
6.283185307179586
  0
LINE
  5
4CF
330
1F
100
AcDbEntity
  8
LC-001-100-D00-0
 62
     7
370
    50
100
AcDbLine
 10
80.321924
 20
445.234476
 30
0.0
 11
80.321924
 21
440.569088
 31
0.0
  0
LINE
  5
4D0
330
1F
100
AcDbEntity
  8
LC-001-100-D00-0
 62
     7
370
    50
100
AcDbLine
 10
-529.67809
 20
445.234476
 30
0.0
 11
-529.67809
 21
440.569088
 31
0.0
  0
INSERT
  5
4DA
330
1F
100
AcDbEntity
  8
LC-001-100-D00-0
 62
     7
370
    50
100
AcDbBlockReference
  2
KLON18
 10
0.0
 20
0.0
 30
0.0
  0
INSERT
  5
4E4
330
1F
100
AcDbEntity
  8
LC-001-100-D00-0
 62
     7
370
    50
100
AcDbBlockReference
  2
KLON19
 10
0.0
 20
0.0
 30
0.0
  0
LINE
  5
4E5
330
1F
100
AcDbEntity
  8
LC-001-100-D00-0
 62
     7
370
    50
100
AcDbLine
 10
80.321894
 20
440.363128
 30
0.0
 11
80.321894
 21
440.568395
 31
0.0
  0
LINE
  5
4E6
330
1F
100
AcDbEntity
  8
LC-001-100-D00-0
 62
     7
370
    50
100
AcDbLine
 10
80.321924
 20
440.363128
 30
0.0
 11
208.229588
 21
445.031293
 31
0.0
  0
LINE
  5
4E7
330
1F
100
AcDbEntity
  8
LC-001-100-D00-0
 62
     7
370
    50
100
AcDbLine
 10
80.321894
 20
440.363128
 30
0.0
 11
80.321894
 21
440.363128
 31
0.0
  0
LINE
  5
4E8
330
1F
100
AcDbEntity
  8
LC-001-100-D00-0
 62
     7
370
    50
100
AcDbLine
 10
-529.67806
 20
440.363128
 30
0.0
 11
-529.67806
 21
440.568395
 31
0.0
  0
LINE
  5
4E9
330
1F
100
AcDbEntity
  8
LC-001-100-D00-0
 62
     7
370
    50
100
AcDbLine
 10
-529.67809
 20
440.363128
 30
0.0
 11
-657.585754
 21
445.031293
 31
0.0
  0
LINE
  5
4EA
330
1F
100
AcDbEntity
  8
LC-001-100-D00-0
 62
     7
370
    50
100
AcDbLine
 10
-529.67806
 20
440.363128
 30
0.0
 11
-529.67806
 21
440.363128
 31
0.0
  0
LINE
  5
4EB
330
1F
100
AcDbEntity
  8
LC-001-100-D00-0
 62
     7
370
    50
100
AcDbLine
 10
-182.891927
 20
433.363128
 30
0.0
 11
-180.49938
 21
433.363128
 31
0.0
  0
LINE
  5
4EC
330
1F
100
AcDbEntity
  8
LC-001-100-D00-0
 62
     7
370
    50
100
AcDbLine
 10
-179.528168
 20
431.863128
 30
0.0
 11
-179.432581
 21
431.871189
 31
0.0
  0
LINE
  5
4ED
330
1F
100
AcDbEntity
  8
LC-001-100-D00-0
 62
     7
370
    50
100
AcDbLine
 10
-179.528168
 20
431.863128
 30
0.0
 11
-182.891927
 21
431.863128
 31
0.0
  0
LINE
  5
4EE
330
1F
100
AcDbEntity
  8
LC-001-100-D00-0
 62
     7
370
    50
100
AcDbLine
 10
-269.923585
 20
431.871189
 30
0.0
 11
-269.827998
 21
431.863128
 31
0.0
  0
LINE
  5
4EF
330
1F
100
AcDbEntity
  8
LC-001-100-D00-0
 62
     7
370
    50
100
AcDbLine
 10
-268.856786
 20
433.363128
 30
0.0
 11
-266.464239
 21
433.363128
 31
0.0
  0
LINE
  5
4F0
330
1F
100
AcDbEntity
  8
LC-001-100-D00-0
 62
     7
370
    50
100
AcDbLine
 10
-266.464239
 20
431.863128
 30
0.0
 11
-269.827998
 21
431.863128
 31
0.0
  0
LINE
  5
4F1
330
1F
100
AcDbEntity
  8
LC-001-100-D00-0
 62
     7
370
    50
100
AcDbLine
 10
-182.891927
 20
431.863128
 30
0.0
 11
-183.668855
 21
431.863128
 31
0.0
  0
LINE
  5
4F2
330
1F
100
AcDbEntity
  8
LC-001-100-D00-0
 62
     7
370
    50
100
AcDbLine
 10
-182.891927
 20
433.363128
 30
0.0
 11
-183.668855
 21
433.363128
 31
0.0
  0
LINE
  5
4F3
330
1F
100
AcDbEntity
  8
LC-001-100-D00-0
 62
     7
370
    50
100
AcDbLine
 10
-266.464239
 20
433.363128
 30
0.0
 11
-265.687311
 21
433.363128
 31
0.0
  0
LINE
  5
4F4
330
1F
100
AcDbEntity
  8
LC-001-100-D00-0
 62
     7
370
    50
100
AcDbLine
 10
-266.464239
 20
431.863128
 30
0.0
 11
-265.687311
 21
431.863128
 31
0.0
  0
LINE
  5
4F5
330
1F
100
AcDbEntity
  8
LC-001-100-D00-0
 62
     7
370
    50
100
AcDbLine
 10
-150.204693
 20
440.363128
 30
0.0
 11
-148.104093
 21
440.363128
 31
0.0
  0
LINE
  5
4F6
330
1F
100
AcDbEntity
  8
LC-001-100-D00-0
 62
     7
370
    50
100
AcDbLine
 10
-299.151473
 20
440.363128
 30
0.0
 11
-301.252073
 21
440.363128
 31
0.0
  0
LINE
  5
4F7
330
1F
100
AcDbEntity
  8
LC-001-100-D00-0
 62
     7
370
    50
100
AcDbLine
 10
-183.668855
 20
431.863128
 30
0.0
 11
-184.963668
 21
431.863128
 31
0.0
  0
LINE
  5
4F8
330
1F
100
AcDbEntity
  8
LC-001-100-D00-0
 62
     7
370
    50
100
AcDbLine
 10
-184.947737
 20
433.363128
 30
0.0
 11
-183.668855
 21
433.363128
 31
0.0
  0
LINE
  5
4F9
330
1F
100
AcDbEntity
  8
LC-001-100-D00-0
 62
     7
370
    50
100
AcDbLine
 10
-265.687311
 20
433.363128
 30
0.0
 11
-264.408429
 21
433.363128
 31
0.0
  0
LINE
  5
4FA
330
1F
100
AcDbEntity
  8
LC-001-100-D00-0
 62
     7
370
    50
100
AcDbLine
 10
-264.392498
 20
431.863128
 30
0.0
 11
-265.687311
 21
431.863128
 31
0.0
  0
LINE
  5
4FB
330
1F
100
AcDbEntity
  8
LC-001-100-D00-0
 62
     7
370
    50
100
AcDbLine
 10
-148.104093
 20
440.363128
 30
0.0
 11
80.321894
 21
440.363128
 31
0.0
  0
LINE
  5
4FC
330
1F
100
AcDbEntity
  8
LC-001-100-D00-0
 62
     7
370
    50
100
AcDbLine
 10
-301.252073
 20
440.363128
 30
0.0
 11
-529.67806
 21
440.363128
 31
0.0
  0
ARC
  5
4FD
330
1F
100
AcDbEntity
  8
LC-001-100-D00-0
 62
     7
370
    50
100
AcDbCircle
 10
-180.162455
 20
433.29728
 30
0.0
 40
1.602014939990702
100
AcDbArc
 50
297.103406
 51
2.355668
  0
INSERT
  5
506
330
1F
100
AcDbEntity
  8
LC-001-100-D00-0
 62
     7
370
    50
100
AcDbBlockReference
  2
KLON20
 10
0.0
 20
0.0
 30
0.0
  0
INSERT
  5
513
330
1F
100
AcDbEntity
  8
LC-001-100-D00-0
 62
     7
370
    50
100
AcDbBlockReference
  2
KLON21
 10
0.0
 20
0.0
 30
0.0
  0
INSERT
  5
520
330
1F
100
AcDbEntity
  8
LC-001-100-D00-0
 62
     7
370
    50
100
AcDbBlockReference
  2
KLON22
 10
0.0
 20
0.0
 30
0.0
  0
LINE
  5
521
330
1F
100
AcDbEntity
  8
LC-001-100-D00-0
 62
     7
370
    50
100
AcDbLine
 10
222.821917
 20
467.363128
 30
0.0
 11
228.321917
 21
467.363128
 31
0.0
  0
LINE
  5
522
330
1F
100
AcDbEntity
  8
LC-001-100-D00-0
 62
     7
370
    50
100
AcDbLine
 10
-672.178083
 20
467.363128
 30
0.0
 11
-677.678083
 21
467.363128
 31
0.0
  0
LINE
  5
523
330
1F
100
AcDbEntity
  8
LC-001-100-D00-0
 62
     7
370
    50
100
AcDbLine
 10
222.821917
 20
467.363128
 30
0.0
 11
212.571917
 21
467.363128
 31
0.0
  0
LINE
  5
524
330
1F
100
AcDbEntity
  8
LC-001-100-D00-0
 62
     7
370
    50
100
AcDbLine
 10
178.071917
 20
467.363128
 30
0.0
 11
52.571917
 21
467.363128
 31
0.0
  0
LINE
  5
525
330
1F
100
AcDbEntity
  8
LC-001-100-D00-0
 62
     7
370
    50
100
AcDbLine
 10
18.071917
 20
467.363128
 30
0.0
 11
-107.428083
 21
467.363128
 31
0.0
  0
LINE
  5
526
330
1F
100
AcDbEntity
  8
LC-001-100-D00-0
 62
     7
370
    50
100
AcDbLine
 10
-141.928083
 20
467.363128
 30
0.0
 11
-307.428083
 21
467.363128
 31
0.0
  0
LINE
  5
527
330
1F
100
AcDbEntity
  8
LC-001-100-D00-0
 62
     7
370
    50
100
AcDbLine
 10
-341.928083
 20
467.363128
 30
0.0
 11
-467.428083
 21
467.363128
 31
0.0
  0
LINE
  5
528
330
1F
100
AcDbEntity
  8
LC-001-100-D00-0
 62
     7
370
    50
100
AcDbLine
 10
-501.928083
 20
467.363128
 30
0.0
 11
-627.428083
 21
467.363128
 31
0.0
  0
LINE
  5
529
330
1F
100
AcDbEntity
  8
LC-001-100-D00-0
 62
     7
370
    50
100
AcDbLine
 10
-661.928083
 20
467.363128
 30
0.0
 11
-672.178083
 21
467.363128
 31
0.0
  0
ARC
  5
52A
330
1F
100
AcDbEntity
  8
LC-001-100-D00-0
 62
     7
370
    50
100
AcDbCircle
 10
112.421917
 20
440.763128
 30
0.0
 40
2.000000000000114
100
AcDbArc
 50
180.0
 51
270.0
  0
LINE
  5
52B
330
1F
100
AcDbEntity
  8
LC-001-100-D00-0
 62
     7
370
    50
100
AcDbLine
 10
112.421917
 20
438.763128
 30
0.0
 11
138.221917
 21
438.763128
 31
0.0
  0
ARC
  5
52C
330
1F
100
AcDbEntity
  8
LC-001-100-D00-0
 62
     7
370
    50
100
AcDbCircle
 10
138.221917
 20
440.763128
 30
0.0
 40
2.000000000000227
100
AcDbArc
 50
270.0
 51
0.0
  0
LINE
  5
52D
330
1F
100
AcDbEntity
  8
LC-001-100-D00-0
 62
     7
370
    50
100
AcDbLine
 10
140.221917
 20
440.763128
 30
0.0
 11
140.22191
 21
442.54926
 31
0.0
  0
LINE
  5
52E
330
1F
100
AcDbEntity
  8
LC-001-100-D00-0
 62
     7
370
    50
100
AcDbLine
 10
142.221914
 20
442.622252
 30
0.0
 11
142.221917
 21
440.763128
 31
0.0
  0
ARC
  5
52F
330
1F
100
AcDbEntity
  8
LC-001-100-D00-0
 62
     7
370
    50
100
AcDbCircle
 10
138.221917
 20
440.763128
 30
0.0
 40
4.000000000000227
100
AcDbArc
 50
270.0
 51
0.0
  0
LINE
  5
530
330
1F
100
AcDbEntity
  8
LC-001-100-D00-0
 62
     7
370
    50
100
AcDbLine
 10
138.221917
 20
436.763128
 30
0.0
 11
112.421917
 21
436.763128
 31
0.0
  0
ARC
  5
531
330
1F
100
AcDbEntity
  8
LC-001-100-D00-0
 62
     7
370
    50
100
AcDbCircle
 10
112.421917
 20
440.763128
 30
0.0
 40
4.000000000000114
100
AcDbArc
 50
180.0
 51
270.0
  0
LINE
  5
532
330
1F
100
AcDbEntity
  8
LC-001-100-D00-0
 62
     7
370
    50
100
AcDbLine
 10
108.421917
 20
440.763128
 30
0.0
 11
108.421908
 21
441.388676
 31
0.0
  0
LINE
  5
533
330
1F
100
AcDbEntity
  8
LC-001-100-D00-0
 62
     7
370
    50
100
AcDbLine
 10
110.421912
 20
441.461669
 30
0.0
 11
110.421917
 21
440.763128
 31
0.0
  0
LINE
  5
534
330
1F
100
AcDbEntity
  8
LC-001-100-D00-0
 62
     7
370
    50
100
AcDbLine
 10
-557.778083
 20
440.763128
 30
0.0
 11
-557.778074
 21
441.388676
 31
0.0
  0
ARC
  5
535
330
1F
100
AcDbEntity
  8
LC-001-100-D00-0
 62
     7
370
    50
100
AcDbCircle
 10
-561.778083
 20
440.763128
 30
0.0
 40
4.000000000000227
100
AcDbArc
 50
270.0
 51
0.0
  0
LINE
  5
536
330
1F
100
AcDbEntity
  8
LC-001-100-D00-0
 62
     7
370
    50
100
AcDbLine
 10
-587.578083
 20
436.763128
 30
0.0
 11
-561.778083
 21
436.763128
 31
0.0
  0
ARC
  5
537
330
1F
100
AcDbEntity
  8
LC-001-100-D00-0
 62
     7
370
    50
100
AcDbCircle
 10
-587.578083
 20
440.763128
 30
0.0
 40
4.000000000000227
100
AcDbArc
 50
180.0
 51
270.0
  0
LINE
  5
538
330
1F
100
AcDbEntity
  8
LC-001-100-D00-0
 62
     7
370
    50
100
AcDbLine
 10
-591.57808
 20
442.622252
 30
0.0
 11
-591.578083
 21
440.763128
 31
0.0
  0
LINE
  5
539
330
1F
100
AcDbEntity
  8
LC-001-100-D00-0
 62
     7
370
    50
100
AcDbLine
 10
-589.578083
 20
440.763128
 30
0.0
 11
-589.578076
 21
442.54926
 31
0.0
  0
ARC
  5
53A
330
1F
100
AcDbEntity
  8
LC-001-100-D00-0
 62
     7
370
    50
100
AcDbCircle
 10
-587.578083
 20
440.763128
 30
0.0
 40
2.000000000000114
100
AcDbArc
 50
180.0
 51
270.0
  0
LINE
  5
53B
330
1F
100
AcDbEntity
  8
LC-001-100-D00-0
 62
     7
370
    50
100
AcDbLine
 10
-561.778083
 20
438.763128
 30
0.0
 11
-587.578083
 21
438.763128
 31
0.0
  0
ARC
  5
53C
330
1F
100
AcDbEntity
  8
LC-001-100-D00-0
 62
     7
370
    50
100
AcDbCircle
 10
-561.778083
 20
440.763128
 30
0.0
 40
2.000000000000227
100
AcDbArc
 50
270.0
 51
0.0
  0
LINE
  5
53D
330
1F
100
AcDbEntity
  8
LC-001-100-D00-0
 62
     7
370
    50
100
AcDbLine
 10
-559.778078
 20
441.461669
 30
0.0
 11
-559.778083
 21
440.763128
 31
0.0
  0
LINE
  5
53E
330
1F
100
AcDbEntity
  8
LC-001-100-D00-0
 62
     7
370
    50
100
AcDbLine
 10
-572.842343
 20
340.863133
 30
0.0
 11
-583.520009
 21
340.863133
 31
0.0
  0
LINE
  5
53F
330
1F
100
AcDbEntity
  8
LC-001-100-D00-0
 62
     7
370
    50
100
AcDbLine
 10
-572.842343
 20
340.863133
 30
0.0
 11
-565.810187
 21
340.863133
 31
0.0
  0
LINE
  5
540
330
1F
100
AcDbEntity
  8
LC-001-100-D00-0
 62
     7
370
    50
100
AcDbLine
 10
-583.978365
 20
332.863128
 30
0.0
 11
-584.178083
 21
332.863128
 31
0.0
  0
LINE
  5
541
330
1F
100
AcDbEntity
  8
LC-001-100-D00-0
 62
     7
370
    50
100
AcDbLine
 10
-565.178083
 20
332.863128
 30
0.0
 11
-583.978365
 21
332.863128
 31
0.0
  0
LINE
  5
542
330
1F
100
AcDbEntity
  8
LC-001-100-D00-0
 62
     7
370
    50
100
AcDbLine
 10
127.157645
 20
340.863133
 30
0.0
 11
116.479979
 21
340.863133
 31
0.0
  0
LINE
  5
543
330
1F
100
AcDbEntity
  8
LC-001-100-D00-0
 62
     7
370
    50
100
AcDbLine
 10
127.157645
 20
340.863133
 30
0.0
 11
134.189801
 21
340.863133
 31
0.0
  0
LINE
  5
544
330
1F
100
AcDbEntity
  8
LC-001-100-D00-0
 62
     7
370
    50
100
AcDbLine
 10
116.021635
 20
332.863128
 30
0.0
 11
115.821917
 21
332.863128
 31
0.0
  0
LINE
  5
545
330
1F
100
AcDbEntity
  8
LC-001-100-D00-0
 62
     7
370
    50
100
AcDbLine
 10
134.821917
 20
332.863128
 30
0.0
 11
116.021635
 21
332.863128
 31
0.0
  0
LINE
  5
546
330
1F
100
AcDbEntity
  8
LC-001-100-D00-0
 62
     7
370
    50
100
AcDbLine
 10
122.435166
 20
409.863128
 30
0.0
 11
116.372988
 21
409.863128
 31
0.0
  0
LINE
  5
547
330
1F
100
AcDbEntity
  8
LC-001-100-D00-0
 62
     7
370
    50
100
AcDbLine
 10
134.321917
 20
434.863128
 30
0.0
 11
128.208683
 21
434.86313
 31
0.0
  0
LINE
  5
548
330
1F
100
AcDbEntity
  8
LC-001-100-D00-0
 62
     7
370
    50
100
AcDbLine
 10
122.435169
 20
434.86313
 30
0.0
 11
116.321917
 21
434.863128
 31
0.0
  0
LINE
  5
549
330
1F
100
AcDbEntity
  8
LC-001-100-D00-0
 62
     7
370
    50
100
AcDbLine
 10
128.208668
 20
409.863128
 30
0.0
 11
122.435166
 21
409.863128
 31
0.0
  0
LINE
  5
54A
330
1F
100
AcDbEntity
  8
LC-001-100-D00-0
 62
     7
370
    50
100
AcDbLine
 10
139.110737
 20
436.863128
 30
0.0
 11
140.321917
 21
436.863128
 31
0.0
  0
LINE
  5
54B
330
1F
100
AcDbEntity
  8
LC-001-100-D00-0
 62
     7
370
    50
100
AcDbLine
 10
140.321917
 20
436.863128
 30
0.0
 11
140.321917
 21
434.863128
 31
0.0
  0
LINE
  5
54C
330
1F
100
AcDbEntity
  8
LC-001-100-D00-0
 62
     7
370
    50
100
AcDbLine
 10
140.321917
 20
434.863128
 30
0.0
 11
134.321917
 21
434.863128
 31
0.0
  0
LINE
  5
54D
330
1F
100
AcDbEntity
  8
LC-001-100-D00-0
 62
     7
370
    50
100
AcDbLine
 10
110.321917
 20
434.863128
 30
0.0
 11
110.321917
 21
436.863128
 31
0.0
  0
LINE
  5
54E
330
1F
100
AcDbEntity
  8
LC-001-100-D00-0
 62
     7
370
    50
100
AcDbLine
 10
116.321917
 20
434.863128
 30
0.0
 11
110.321917
 21
434.863128
 31
0.0
  0
LINE
  5
54F
330
1F
100
AcDbEntity
  8
LC-001-100-D00-0
 62
     7
370
    50
100
AcDbLine
 10
110.321917
 20
436.863128
 30
0.0
 11
111.533098
 21
436.863128
 31
0.0
  0
LINE
  5
550
330
1F
100
AcDbEntity
  8
LC-001-100-D00-0
 62
     7
370
    50
100
AcDbLine
 10
134.270846
 20
409.863128
 30
0.0
 11
128.208668
 21
409.863128
 31
0.0
  0
LINE
  5
551
330
1F
100
AcDbEntity
  8
LC-001-100-D00-0
 62
     7
370
    50
100
AcDbLine
 10
137.157598
 20
409.863128
 30
0.0
 11
134.270846
 21
409.863128
 31
0.0
  0
LINE
  5
552
330
1F
100
AcDbEntity
  8
LC-001-100-D00-0
 62
     7
370
    50
100
AcDbLine
 10
116.372988
 20
409.863128
 30
0.0
 11
113.486237
 21
409.863128
 31
0.0
  0
LINE
  5
553
330
1F
100
AcDbEntity
  8
LC-001-100-D00-0
 62
     7
370
    50
100
AcDbLine
 10
138.09542
 20
409.863128
 30
0.0
 11
137.157598
 21
409.863128
 31
0.0
  0
LINE
  5
554
330
1F
100
AcDbEntity
  8
LC-001-100-D00-0
 62
     7
370
    50
100
AcDbLine
 10
113.486237
 20
409.863128
 30
0.0
 11
112.548414
 21
409.863128
 31
0.0
  0
LINE
  5
555
330
1F
100
AcDbEntity
  8
LC-001-100-D00-0
 62
     7
370
    50
100
AcDbLine
 10
128.208668
 20
438.863128
 30
0.0
 11
122.435166
 21
438.863128
 31
0.0
  0
LINE
  5
556
330
1F
100
AcDbEntity
  8
LC-001-100-D00-0
 62
     7
370
    50
100
AcDbLine
 10
122.435166
 20
438.863128
 30
0.0
 11
116.372988
 21
438.863128
 31
0.0
  0
LINE
  5
557
330
1F
100
AcDbEntity
  8
LC-001-100-D00-0
 62
     7
370
    50
100
AcDbLine
 10
134.270846
 20
438.863128
 30
0.0
 11
128.208668
 21
438.863128
 31
0.0
  0
LINE
  5
558
330
1F
100
AcDbEntity
  8
LC-001-100-D00-0
 62
     7
370
    50
100
AcDbLine
 10
137.157598
 20
438.863128
 30
0.0
 11
134.270846
 21
438.863128
 31
0.0
  0
LINE
  5
559
330
1F
100
AcDbEntity
  8
LC-001-100-D00-0
 62
     7
370
    50
100
AcDbLine
 10
116.372988
 20
438.863128
 30
0.0
 11
113.486237
 21
438.863128
 31
0.0
  0
LINE
  5
55A
330
1F
100
AcDbEntity
  8
LC-001-100-D00-0
 62
     7
370
    50
100
AcDbLine
 10
138.09542
 20
438.863128
 30
0.0
 11
137.157598
 21
438.863128
 31
0.0
  0
LINE
  5
55B
330
1F
100
AcDbEntity
  8
LC-001-100-D00-0
 62
     7
370
    50
100
AcDbLine
 10
113.486237
 20
438.863128
 30
0.0
 11
112.548414
 21
438.863128
 31
0.0
  0
LINE
  5
55C
330
1F
100
AcDbEntity
  8
LC-001-100-D00-0
 62
     7
370
    50
100
AcDbLine
 10
-577.564834
 20
438.863128
 30
0.0
 11
-583.627012
 21
438.863128
 31
0.0
  0
LINE
  5
55D
330
1F
100
AcDbEntity
  8
LC-001-100-D00-0
 62
     7
370
    50
100
AcDbLine
 10
-571.791332
 20
438.863128
 30
0.0
 11
-577.564834
 21
438.863128
 31
0.0
  0
LINE
  5
55E
330
1F
100
AcDbEntity
  8
LC-001-100-D00-0
 62
     7
370
    50
100
AcDbLine
 10
-565.729154
 20
438.863128
 30
0.0
 11
-571.791332
 21
438.863128
 31
0.0
  0
LINE
  5
55F
330
1F
100
AcDbEntity
  8
LC-001-100-D00-0
 62
     7
370
    50
100
AcDbLine
 10
-562.842402
 20
438.863128
 30
0.0
 11
-565.729154
 21
438.863128
 31
0.0
  0
LINE
  5
560
330
1F
100
AcDbEntity
  8
LC-001-100-D00-0
 62
     7
370
    50
100
AcDbLine
 10
-583.627012
 20
438.863128
 30
0.0
 11
-586.513763
 21
438.863128
 31
0.0
  0
LINE
  5
561
330
1F
100
AcDbEntity
  8
LC-001-100-D00-0
 62
     7
370
    50
100
AcDbLine
 10
-561.90458
 20
438.863128
 30
0.0
 11
-562.842402
 21
438.863128
 31
0.0
  0
LINE
  5
562
330
1F
100
AcDbEntity
  8
LC-001-100-D00-0
 62
     7
370
    50
100
AcDbLine
 10
-586.513763
 20
438.863128
 30
0.0
 11
-587.451586
 21
438.863128
 31
0.0
  0
LINE
  5
563
330
1F
100
AcDbEntity
  8
LC-001-100-D00-0
 62
     7
370
    50
100
AcDbLine
 10
-577.564834
 20
409.863128
 30
0.0
 11
-583.627012
 21
409.863128
 31
0.0
  0
LINE
  5
564
330
1F
100
AcDbEntity
  8
LC-001-100-D00-0
 62
     7
370
    50
100
AcDbLine
 10
-565.678083
 20
434.863128
 30
0.0
 11
-571.791335
 21
434.86313
 31
0.0
  0
LINE
  5
565
330
1F
100
AcDbEntity
  8
LC-001-100-D00-0
 62
     7
370
    50
100
AcDbLine
 10
-577.564849
 20
434.86313
 30
0.0
 11
-583.678083
 21
434.863128
 31
0.0
  0
LINE
  5
566
330
1F
100
AcDbEntity
  8
LC-001-100-D00-0
 62
     7
370
    50
100
AcDbLine
 10
-571.791332
 20
409.863128
 30
0.0
 11
-577.564834
 21
409.863128
 31
0.0
  0
LINE
  5
567
330
1F
100
AcDbEntity
  8
LC-001-100-D00-0
 62
     7
370
    50
100
AcDbLine
 10
-559.678083
 20
436.863128
 30
0.0
 11
-559.678083
 21
434.863128
 31
0.0
  0
LINE
  5
568
330
1F
100
AcDbEntity
  8
LC-001-100-D00-0
 62
     7
370
    50
100
AcDbLine
 10
-559.678083
 20
434.863128
 30
0.0
 11
-565.678083
 21
434.863128
 31
0.0
  0
LINE
  5
569
330
1F
100
AcDbEntity
  8
LC-001-100-D00-0
 62
     7
370
    50
100
AcDbLine
 10
-560.889263
 20
436.863128
 30
0.0
 11
-559.678083
 21
436.863128
 31
0.0
  0
LINE
  5
56A
330
1F
100
AcDbEntity
  8
LC-001-100-D00-0
 62
     7
370
    50
100
AcDbLine
 10
-589.678083
 20
434.863128
 30
0.0
 11
-589.678083
 21
436.863128
 31
0.0
  0
LINE
  5
56B
330
1F
100
AcDbEntity
  8
LC-001-100-D00-0
 62
     7
370
    50
100
AcDbLine
 10
-583.678083
 20
434.863128
 30
0.0
 11
-589.678083
 21
434.863128
 31
0.0
  0
LINE
  5
56C
330
1F
100
AcDbEntity
  8
LC-001-100-D00-0
 62
     7
370
    50
100
AcDbLine
 10
-589.678083
 20
436.863128
 30
0.0
 11
-588.466902
 21
436.863128
 31
0.0
  0
LINE
  5
56D
330
1F
100
AcDbEntity
  8
LC-001-100-D00-0
 62
     7
370
    50
100
AcDbLine
 10
-565.729154
 20
409.863128
 30
0.0
 11
-571.791332
 21
409.863128
 31
0.0
  0
LINE
  5
56E
330
1F
100
AcDbEntity
  8
LC-001-100-D00-0
 62
     7
370
    50
100
AcDbLine
 10
-562.842402
 20
409.863128
 30
0.0
 11
-565.729154
 21
409.863128
 31
0.0
  0
LINE
  5
56F
330
1F
100
AcDbEntity
  8
LC-001-100-D00-0
 62
     7
370
    50
100
AcDbLine
 10
-583.627012
 20
409.863128
 30
0.0
 11
-586.513763
 21
409.863128
 31
0.0
  0
LINE
  5
570
330
1F
100
AcDbEntity
  8
LC-001-100-D00-0
 62
     7
370
    50
100
AcDbLine
 10
-561.90458
 20
409.863128
 30
0.0
 11
-562.842402
 21
409.863128
 31
0.0
  0
LINE
  5
571
330
1F
100
AcDbEntity
  8
LC-001-100-D00-0
 62
     7
370
    50
100
AcDbLine
 10
-586.513763
 20
409.863128
 30
0.0
 11
-587.451586
 21
409.863128
 31
0.0
  0
LINE
  5
572
330
1F
100
AcDbEntity
  8
LC-001-100-D00-0
 62
     7
370
    50
100
AcDbLine
 10
115.321917
 20
355.863128
 30
0.0
 11
135.321917
 21
355.863128
 31
0.0
  0
LINE
  5
573
330
1F
100
AcDbEntity
  8
LC-001-100-D00-0
 62
     7
370
    50
100
AcDbLine
 10
115.532147
 20
341.863128
 30
0.0
 11
135.321917
 21
341.863128
 31
0.0
  0
LINE
  5
574
330
1F
100
AcDbEntity
  8
LC-001-100-D00-0
 62
     7
370
    50
100
AcDbLine
 10
115.321917
 20
341.863128
 30
0.0
 11
115.532147
 21
341.863128
 31
0.0
  0
LINE
  5
575
330
1F
100
AcDbEntity
  8
LC-001-100-D00-0
 62
     7
370
    50
100
AcDbLine
 10
115.321917
 20
352.363128
 30
0.0
 11
135.321917
 21
352.363128
 31
0.0
  0
LINE
  5
576
330
1F
100
AcDbEntity
  8
LC-001-100-D00-0
 62
     7
370
    50
100
AcDbLine
 10
116.511124
 20
340.863128
 30
0.0
 11
116.321917
 21
340.863128
 31
0.0
  0
LINE
  5
577
330
1F
100
AcDbEntity
  8
LC-001-100-D00-0
 62
     7
370
    50
100
AcDbLine
 10
134.321917
 20
340.863128
 30
0.0
 11
116.511124
 21
340.863128
 31
0.0
  0
LINE
  5
578
330
1F
100
AcDbEntity
  8
LC-001-100-D00-0
 62
     7
370
    50
100
AcDbLine
 10
-584.678083
 20
355.863128
 30
0.0
 11
-564.678083
 21
355.863128
 31
0.0
  0
LINE
  5
579
330
1F
100
AcDbEntity
  8
LC-001-100-D00-0
 62
     7
370
    50
100
AcDbLine
 10
-584.467853
 20
341.863128
 30
0.0
 11
-564.678083
 21
341.863128
 31
0.0
  0
LINE
  5
57A
330
1F
100
AcDbEntity
  8
LC-001-100-D00-0
 62
     7
370
    50
100
AcDbLine
 10
-584.678083
 20
341.863128
 30
0.0
 11
-584.467853
 21
341.863128
 31
0.0
  0
LINE
  5
57B
330
1F
100
AcDbEntity
  8
LC-001-100-D00-0
 62
     7
370
    50
100
AcDbLine
 10
-584.678083
 20
352.363128
 30
0.0
 11
-564.678083
 21
352.363128
 31
0.0
  0
LINE
  5
57C
330
1F
100
AcDbEntity
  8
LC-001-100-D00-0
 62
     7
370
    50
100
AcDbLine
 10
-583.488876
 20
340.863128
 30
0.0
 11
-583.678083
 21
340.863128
 31
0.0
  0
LINE
  5
57D
330
1F
100
AcDbEntity
  8
LC-001-100-D00-0
 62
     7
370
    50
100
AcDbLine
 10
-565.678083
 20
340.863128
 30
0.0
 11
-583.488876
 21
340.863128
 31
0.0
  0
DIMENSION
  5
57E
330
1F
100
AcDbEntity
  8
LC-001-100-D00-0
 62
     7
370
    25
100
AcDbDimension
  2
*D24
 10
-724.678083
 20
577.672683
 30
0.0
 11
-224.251459
 21
632.672683
 31
0.0
 70
   160
  1
1000
 71
     5
 42
1000.0
  3
LC-DIM-L-0100-02-02
100
AcDbAlignedDimension
 13
275.321917
 23
467.363128
 33
0.0
 14
-724.678083
 24
467.363128
 34
0.0
100
AcDbRotatedDimension
  0
DIMENSION
  5
58B
330
1F
100
AcDbEntity
  8
LC-001-100-D00-0
 62
     7
370
    25
100
AcDbDimension
  2
*D25
 10
225.321917
 20
499.629525
 30
0.0
 11
-227.826997
 21
554.629525
 31
0.0
 70
   160
  1
900
 71
     5
 42
900.0
  3
LC-DIM-L-0100-02-02
100
AcDbAlignedDimension
 13
-674.678083
 23
464.363128
 33
0.0
 14
225.321917
 24
464.363128
 34
0.0
100
AcDbRotatedDimension
  0
DIMENSION
  5
598
330
1F
100
AcDbEntity
  8
LC-001-100-D00-0
 62
     7
370
    25
100
AcDbDimension
  2
*D26
 10
-394.499692
 20
425.863128
 30
0.0
 11
-449.499692
 21
291.067683
 31
0.0
 70
   160
  1
50
 71
     5
 42
50.4
 53
90.0
  3
LC-DIM-L-0100-02-02
100
AcDbAlignedDimension
 13
-253.678083
 23
375.463128
 33
0.0
 14
-259.757478
 24
425.863128
 34
0.0
 50
90.0
100
AcDbRotatedDimension
  0
DIMENSION
  5
5A6
330
1F
100
AcDbEntity
  8
LC-001-100-D00-0
 62
     7
370
    25
100
AcDbDimension
  2
*D27
 10
-150.678083
 20
261.367683
 30
0.0
 11
-231.990015
 21
316.367683
 31
0.0
 70
   160
  1
148
 71
     5
 42
148.0
  3
LC-DIM-L-0100-02-02
100
AcDbAlignedDimension
 13
-298.678083
 23
376.363128
 33
0.0
 14
-150.678083
 24
416.613128
 34
0.0
100
AcDbRotatedDimension
  0
DIMENSION
  5
5B3
330
1F
100
AcDbEntity
  8
LC-001-100-D00-0
 62
     7
370
    25
100
AcDbDimension
  2
*D28
 10
-15.178286
 20
185.632683
 30
0.0
 11
-154.604454
 21
240.632683
 31
0.0
 70
   160
  1
284
 71
     5
 42
283.499797
  3
LC-DIM-L-0100-02-02
100
AcDbAlignedDimension
 13
-298.678083
 23
376.363128
 33
0.0
 14
-15.178286
 24
365.80095
 34
0.0
100
AcDbRotatedDimension
  0
DIMENSION
  5
5C0
330
1F
100
AcDbEntity
  8
LC-001-100-D00-0
 62
     7
370
    25
100
AcDbDimension
  2
*D29
 10
72.288031
 20
364.863128
 30
0.0
 11
17.288031
 21
389.680842
 31
0.0
 70
   160
  1
DN50
 71
     5
 42
50.0
 53
90.0
  3
LC-DIM-L-0100-02-02
100
AcDbAlignedDimension
 13
-18.678286
 23
414.863128
 33
0.0
 14
-18.678286
 24
364.863128
 34
0.0
 50
90.0
100
AcDbRotatedDimension
  0
DIMENSION
  5
5CF
330
1F
100
AcDbEntity
  8
LC-001-100-D00-0
 62
     7
370
    25
100
AcDbDimension
  2
*D30
 10
296.811315
 20
389.863128
 30
0.0
 11
241.811315
 21
255.427683
 31
0.0
 70
   160
  1
77,5
 71
     5
 42
77.5
 53
90.0
  3
LC-DIM-L-0100-02-02
100
AcDbAlignedDimension
 13
275.321917
 23
467.363128
 33
0.0
 14
-8.678286
 24
389.863128
 34
0.0
 50
90.0
100
AcDbRotatedDimension
  0
DIMENSION
  5
5DD
330
1F
100
AcDbEntity
  8
LC-001-100-D00-0
 62
     7
370
    25
100
AcDbDimension
  2
*D31
 10
-764.843259
 20
357.363128
 30
0.0
 11
-819.843259
 21
384.622683
 31
0.0
 70
   160
  1
110
 71
     5
 42
110.0
 53
90.0
  3
LC-DIM-L-0100-02-02
100
AcDbAlignedDimension
 13
-723.688958
 23
467.363128
 33
0.0
 14
-277.706838
 24
357.363128
 34
0.0
 50
90.0
100
AcDbRotatedDimension
  0
DIMENSION
  5
5EC
330
1F
100
AcDbEntity
  8
LC-001-100-D00-0
 62
     7
370
    25
100
AcDbDimension
  2
*D32
 10
472.218586
 20
332.863128
 30
0.0
 11
417.218586
 21
338.587683
 31
0.0
 70
   160
  1
110-129,5
 71
     5
 42
134.5
 53
90.0
  3
LC-DIM-L-0100-02-02
100
AcDbAlignedDimension
 13
275.321917
 23
467.363128
 33
0.0
 14
134.821917
 24
332.863128
 34
0.0
 50
90.0
100
AcDbRotatedDimension
  0
LINE
  5
5F9
330
1F
100
AcDbEntity
  8
LC-001-100-D00-0
 62
     7
370
    50
100
AcDbLine
 10
-164.332713
 20
436.363128
 30
0.0
 11
-160.332714
 21
440.363128
 31
0.0
  0
LINE
  5
5FA
330
1F
100
AcDbEntity
  8
LC-001-100-D00-0
 62
     7
370
    50
100
AcDbLine
 10
-153.678083
 20
424.567118
 30
0.0
 11
-150.678083
 21
427.567119
 31
0.0
  0
INSERT
  5
600
330
1F
100
AcDbEntity
  8
LC-001-100-D00-0
 62
     7
370
    50
100
AcDbBlockReference
  2
KLON23
 10
0.0
 20
0.0
 30
0.0
  0
INSERT
  5
60F
330
1F
100
AcDbEntity
  8
LC-001-100-D00-0
 62
     7
370
    50
100
AcDbBlockReference
  2
KLON24
 10
0.0
 20
0.0
 30
0.0
  0
INSERT
  5
616
330
1F
100
AcDbEntity
  8
LC-001-100-D00-0
 62
     7
370
    50
100
AcDbBlockReference
  2
KLON25
 10
0.0
 20
0.0
 30
0.0
  0
INSERT
  5
630
330
1F
100
AcDbEntity
  8
LC-001-100-D00-0
 62
     7
370
    50
100
AcDbBlockReference
  2
KLON26
 10
0.0
 20
0.0
 30
0.0
  0
INSERT
  5
64B
330
1F
100
AcDbEntity
  8
LC-001-100-D00-0
 62
     7
370
    50
100
AcDbBlockReference
  2
KLON27
 10
0.0
 20
0.0
 30
0.0
  0
INSERT
  5
652
330
1F
100
AcDbEntity
  8
LC-001-100-D00-0
 62
     7
370
    50
100
AcDbBlockReference
  2
KLON28
 10
0.0
 20
0.0
 30
0.0
  0
INSERT
  5
65A
330
1F
100
AcDbEntity
  8
LC-001-100-D00-0
 62
     7
370
    50
100
AcDbBlockReference
  2
KLON29
 10
0.0
 20
0.0
 30
0.0
  0
INSERT
  5
662
330
1F
100
AcDbEntity
  8
LC-001-100-D00-0
 62
     7
370
    50
100
AcDbBlockReference
  2
KLON30
 10
0.0
 20
0.0
 30
0.0
  0
INSERT
  5
66A
330
1F
100
AcDbEntity
  8
LC-001-100-D00-0
 62
     7
370
    50
100
AcDbBlockReference
  2
KLON31
 10
0.0
 20
0.0
 30
0.0
  0
INSERT
  5
679
330
1F
100
AcDbEntity
  8
LC-001-100-D00-0
 62
     7
370
    50
100
AcDbBlockReference
  2
KLON32
 10
0.0
 20
0.0
 30
0.0
  0
LINE
  5
67A
330
1F
100
AcDbEntity
  8
LC-001-100-D00-0
 62
     7
370
    50
100
AcDbLine
 10
-489.092306
 20
448.363128
 30
0.0
 11
-488.078083
 21
449.377352
 31
0.0
  0
LINE
  5
67B
330
1F
100
AcDbEntity
  8
LC-001-100-D00-0
 62
     7
370
    50
100
AcDbLine
 10
-495.542947
 20
464.363128
 30
0.0
 11
-492.542947
 21
467.363128
 31
0.0
  0
INSERT
  5
681
330
1F
100
AcDbEntity
  8
LC-001-100-D00-0
 62
     7
370
    50
100
AcDbBlockReference
  2
KLON33
 10
0.0
 20
0.0
 30
0.0
  0
LINE
  5
682
330
1F
100
AcDbEntity
  8
LC-001-100-D00-0
 62
     7
370
    50
100
AcDbLine
 10
-129.882075
 20
448.363128
 30
0.0
 11
-128.078083
 21
450.16712
 31
0.0
  0
INSERT
  5
688
330
1F
100
AcDbEntity
  8
LC-001-100-D00-0
 62
     7
370
    50
100
AcDbBlockReference
  2
KLON34
 10
0.0
 20
0.0
 30
0.0
  0
INSERT
  5
68E
330
1F
100
AcDbEntity
  8
LC-001-100-D00-0
 62
     7
370
    50
100
AcDbBlockReference
  2
KLON35
 10
0.0
 20
0.0
 30
0.0
  0
INSERT
  5
694
330
1F
100
AcDbEntity
  8
LC-001-100-D00-0
 62
     7
370
    50
100
AcDbBlockReference
  2
KLON36
 10
0.0
 20
0.0
 30
0.0
  0
INSERT
  5
69C
330
1F
100
AcDbEntity
  8
LC-001-100-D00-0
 62
     7
370
    50
100
AcDbBlockReference
  2
KLON37
 10
0.0
 20
0.0
 30
0.0
  0
LINE
  5
69D
330
1F
100
AcDbEntity
  8
LC-001-100-D00-0
 62
     7
370
    50
100
AcDbLine
 10
39.221917
 20
460.312645
 30
0.0
 11
46.2724
 21
467.363128
 31
0.0
  0
LINE
  5
69E
330
1F
100
AcDbEntity
  8
LC-001-100-D00-0
 62
     7
370
    50
100
AcDbLine
 10
-641.278083
 20
453.331829
 30
0.0
 11
-638.32723
 21
456.282682
 31
0.0
  0
LINE
  5
69F
330
1F
100
AcDbEntity
  8
LC-001-100-D00-0
 62
     7
370
    50
100
AcDbLine
 10
-654.428083
 20
462.632469
 30
0.0
 11
-649.697424
 21
467.363128
 31
0.0
  0
INSERT
  5
6A5
330
1F
100
AcDbEntity
  8
LC-001-100-D00-0
 62
     7
370
    50
100
AcDbBlockReference
  2
KLON38
 10
0.0
 20
0.0
 30
0.0
  0
LINE
  5
6A6
330
1F
100
AcDbEntity
  8
LC-001-100-D00-0
 62
     7
370
    50
100
AcDbLine
 10
-331.028936
 20
449.272023
 30
0.0
 11
-328.078083
 21
452.222876
 31
0.0
  0
INSERT
  5
6AD
330
1F
100
AcDbEntity
  8
LC-001-100-D00-0
 62
     7
370
    50
100
AcDbBlockReference
  2
KLON39
 10
0.0
 20
0.0
 30
0.0
  0
LINE
  5
6AE
330
1F
100
AcDbEntity
  8
LC-001-100-D00-0
 62
     7
370
    50
100
AcDbLine
 10
-320.778083
 20
459.522876
 30
0.0
 11
-312.937832
 21
467.363128
 31
0.0
  0
LINE
  5
6AF
330
1F
100
AcDbEntity
  8
LC-001-100-D00-0
 62
     7
370
    50
100
AcDbLine
 10
190.008778
 20
453.945028
 30
0.0
 11
191.674397
 21
455.610648
 31
0.0
  0
INSERT
  5
6B5
330
1F
100
AcDbEntity
  8
LC-001-100-D00-0
 62
     7
370
    50
100
AcDbBlockReference
  2
KLON40
 10
0.0
 20
0.0
 30
0.0
  0
LINE
  5
6B6
330
1F
100
AcDbEntity
  8
LC-001-100-D00-0
 62
     7
370
    50
100
AcDbLine
 10
199.221917
 20
463.158169
 30
0.0
 11
203.426877
 21
467.363128
 31
0.0
  0
LINE
  5
6B7
330
1F
100
AcDbEntity
  8
LC-001-100-D00-0
  6
DASHDOT
 62
     7
370
    25
100
AcDbLine
 10
125.321917
 20
345.863128
 30
0.0
 11
125.321917
 21
469.863128
 31
0.0
  0
LINE
  5
6B8
330
1F
100
AcDbEntity
  8
LC-001-100-D00-0
  6
DASHDOT
 62
     7
370
    25
100
AcDbLine
 10
195.321917
 20
439.363128
 30
0.0
 11
195.321917
 21
473.363128
 31
0.0
  0
LINE
  5
6B9
330
1F
100
AcDbEntity
  8
LC-001-100-D00-0
  6
DASHDOT
 62
     7
370
    25
100
AcDbLine
 10
35.321917
 20
439.363128
 30
0.0
 11
35.321917
 21
473.363128
 31
0.0
  0
LINE
  5
6BA
330
1F
100
AcDbEntity
  8
LC-001-100-D00-0
  6
DASHDOT
 62
     7
370
    25
100
AcDbLine
 10
-124.678083
 20
439.363128
 30
0.0
 11
-124.678083
 21
473.363128
 31
0.0
  0
LINE
  5
6BB
330
1F
100
AcDbEntity
  8
LC-001-100-D00-0
  6
DASHDOT
 62
     7
370
    25
100
AcDbLine
 10
-324.678083
 20
439.363128
 30
0.0
 11
-324.678083
 21
473.363128
 31
0.0
  0
LINE
  5
6BC
330
1F
100
AcDbEntity
  8
LC-001-100-D00-0
  6
DASHDOT
 62
     7
370
    25
100
AcDbLine
 10
-224.18352
 20
467.363128
 30
0.0
 11
-224.18352
 21
355.863128
 31
0.0
  0
LINE
  5
6BD
330
1F
100
AcDbEntity
  8
LC-001-100-D00-0
  6
DASHDOT
 62
     7
370
    25
100
AcDbLine
 10
-8.678286
 20
389.863128
 30
0.0
 11
-111.703302
 21
389.863128
 31
0.0
  0
LINE
  5
6BE
330
1F
100
AcDbEntity
  8
LC-001-100-D00-0
  6
DASHDOT
 62
     7
370
    25
100
AcDbLine
 10
-644.678083
 20
439.363128
 30
0.0
 11
-644.678083
 21
473.363128
 31
0.0
  0
LINE
  5
6BF
330
1F
100
AcDbEntity
  8
LC-001-100-D00-0
  6
DASHDOT
 62
     7
370
    25
100
AcDbLine
 10
-574.678083
 20
345.863128
 30
0.0
 11
-574.678083
 21
469.863128
 31
0.0
  0
LINE
  5
6C0
330
1F
100
AcDbEntity
  8
LC-001-100-D00-0
  6
DASHDOT
 62
     7
370
    25
100
AcDbLine
 10
-484.678083
 20
439.363128
 30
0.0
 11
-484.678083
 21
473.363128
 31
0.0
  0
ENDSEC
  0
SECTION
  2
OBJECTS
  0
DICTIONARY
  5
C
330
0
100
AcDbDictionary
281
     1
  3
ACAD_GROUP
350
D
  3
ACAD_LAYOUT
350
1A
  3
ACAD_MLINESTYLE
350
17
  3
ACAD_PLOTSETTINGS
350
19
  3
ACAD_PLOTSTYLENAME
350
E
  0
DICTIONARY
  5
D
102
{ACAD_REACTORS
330
C
102
}
330
C
100
AcDbDictionary
281
     1
  0
DICTIONARY
  5
1A
102
{ACAD_REACTORS
330
C
102
}
330
C
100
AcDbDictionary
281
     1
  3
Layout1
350
1E
  3
Layout2
350
26
  3
Model
350
22
  0
DICTIONARY
  5
17
102
{ACAD_REACTORS
330
C
102
}
330
C
100
AcDbDictionary
281
     1
  3
Standard
350
18
  0
DICTIONARY
  5
19
102
{ACAD_REACTORS
330
C
102
}
330
C
100
AcDbDictionary
281
     1
  0
ACDBDICTIONARYWDFLT
  5
E
102
{ACAD_REACTORS
330
C
102
}
330
C
100
AcDbDictionary
281
     1
  3
Normal
350
F
100
AcDbDictionaryWithDefault
340
F
  0
LAYOUT
  5
1E
102
{ACAD_REACTORS
330
1A
102
}
330
1A
100
AcDbPlotSettings
  1

  2

  4

  6

 40
0.0
 41
0.0
 42
0.0
 43
0.0
 44
0.0
 45
0.0
 46
0.0
 47
0.0
 48
0.0
 49
0.0
140
0.0
141
0.0
142
1.0
143
1.0
 70
   688
 72
     0
 73
     0
 74
     5
  7

 75
    16
147
1.0
148
0.0
149
0.0
100
AcDbLayout
  1
Layout1
 70
     1
 71
     1
 10
-853.789913
 20
-619.237317
 11
1246.210087
 21
865.762683
 12
0.0
 22
0.0
 32
0.0
 14
-853.789913
 24
-619.237317
 34
0.0
 15
1246.210087
 25
865.762683
 35
0.0
146
0.0
 13
0.0
 23
0.0
 33
0.0
 16
1.0
 26
0.0
 36
0.0
 17
0.0
 27
1.0
 37
0.0
 76
     0
330
1B
  0
LAYOUT
  5
26
102
{ACAD_REACTORS
330
1A
102
}
330
1A
100
AcDbPlotSettings
  1

  2

  4

  6

 40
0.0
 41
0.0
 42
0.0
 43
0.0
 44
0.0
 45
0.0
 46
0.0
 47
0.0
 48
0.0
 49
0.0
140
0.0
141
0.0
142
1.0
143
1.0
 70
   688
 72
     0
 73
     0
 74
     5
  7

 75
    16
147
1.0
148
0.0
149
0.0
100
AcDbLayout
  1
Layout2
 70
     1
 71
     2
 10
0.0
 20
0.0
 11
0.0
 21
0.0
 12
0.0
 22
0.0
 32
0.0
 14
0.0
 24
0.0
 34
0.0
 15
0.0
 25
0.0
 35
0.0
146
0.0
 13
0.0
 23
0.0
 33
0.0
 16
1.0
 26
0.0
 36
0.0
 17
0.0
 27
1.0
 37
0.0
 76
     0
330
23
  0
LAYOUT
  5
22
102
{ACAD_REACTORS
330
1A
102
}
330
1A
100
AcDbPlotSettings
  1

  2

  4

  6

 40
0.0
 41
0.0
 42
0.0
 43
0.0
 44
0.0
 45
0.0
 46
0.0
 47
0.0
 48
0.0
 49
0.0
140
0.0
141
0.0
142
1.0
143
1.0
 70
  1776
 72
     0
 73
     0
 74
     0
  7

 75
     0
147
1.0
148
0.0
149
0.0
100
AcDbLayout
  1
Model
 70
     1
 71
     0
 10
-853.789913
 20
-619.237317
 11
1246.210087
 21
865.762683
 12
0.0
 22
0.0
 32
0.0
 14
-853.789913
 24
-619.237317
 34
0.0
 15
1246.210087
 25
865.762683
 35
0.0
146
0.0
 13
0.0
 23
0.0
 33
0.0
 16
1.0
 26
0.0
 36
0.0
 17
0.0
 27
1.0
 37
0.0
 76
     0
330
1F
  0
MLINESTYLE
  5
18
102
{ACAD_REACTORS
330
17
102
}
330
17
100
AcDbMlineStyle
  2
Standard
 70
     0
  3

 62
   256
 51
90.0
 52
90.0
 71
     2
 49
0.5
 62
   256
  6
BYLAYER
 49
-0.5
 62
   256
  6
BYLAYER
  0
ACDBPLACEHOLDER
  5
F
102
{ACAD_REACTORS
330
E
102
}
330
E
  0
ENDSEC
  0
EOF
