  0
SECTION
  2
HEADER
  9
$ACADVER
  1
AC1015
  9
$ACADMAINTVER
 70
     6
  9
$DWGCODEPAGE
  3
ANSI_1252
  9
$INSBASE
 10
0.0
 20
0.0
 30
0.0
  9
$EXTMIN
 10
-271.75
 20
-87.335738
 30
0.0
  9
$EXTMAX
 10
568.25
 20
506.664262
 30
0.0
  9
$LIMMIN
 10
-271.75
 20
-87.335738
  9
$LIMMAX
 10
568.25
 20
506.664262
  9
$ORTHOMODE
 70
     0
  9
$REGENMODE
 70
     1
  9
$FILLMODE
 70
     1
  9
$QTEXTMODE
 70
     0
  9
$MIRRTEXT
 70
     1
  9
$LTSCALE
 40
2.0
  9
$ATTMODE
 70
     1
  9
$TEXTSIZE
 40
2.5
  9
$TRACEWID
 40
1.0
  9
$TEXTSTYLE
  7
Standard
  9
$CLAYER
  8
0
  9
$CELTYPE
  6
ByLayer
  9
$CECOLOR
 62
     7
  9
$CELTSCALE
 40
1.0
  9
$DISPSILH
 70
     0
  9
$DIMSCALE
 40
2.0
  9
$DIMASZ
 40
3.5
  9
$DIMEXO
 40
0.625
  9
$DIMDLI
 40
3.75
  9
$DIMRND
 40
0.0
  9
$DIMDLE
 40
0.0
  9
$DIMEXE
 40
1.25
  9
$DIMTP
 40
0.0
  9
$DIMTM
 40
0.0
  9
$DIMTXT
 40
3.5
  9
$DIMCEN
 40
2.5
  9
$DIMTSZ
 40
0.0
  9
$DIMTOL
 70
     0
  9
$DIMLIM
 70
     0
  9
$DIMTIH
 70
     0
  9
$DIMTOH
 70
     0
  9
$DIMSE1
 70
     0
  9
$DIMSE2
 70
     0
  9
$DIMTAD
 70
     1
  9
$DIMZIN
 70
     8
  9
$DIMBLK
  1

  9
$DIMASO
 70
     1
  9
$DIMSHO
 70
     1
  9
$DIMPOST
  1

  9
$DIMAPOST
  1

  9
$DIMALT
 70
     0
  9
$DIMALTD
 70
     3
  9
$DIMALTF
 40
0.03937
  9
$DIMLFAC
 40
1.0
  9
$DIMTOFL
 70
     1
  9
$DIMTVP
 40
0.0
  9
$DIMTIX
 70
     0
  9
$DIMSOXD
 70
     0
  9
$DIMSAH
 70
     0
  9
$DIMBLK1
  1

  9
$DIMBLK2
  1

  9
$DIMSTYLE
  2
ISO-25
  9
$DIMCLRD
 70
     0
  9
$DIMCLRE
 70
     0
  9
$DIMCLRT
 70
     0
  9
$DIMTFAC
 40
1.0
  9
$DIMGAP
 40
0.625
  9
$DIMJUST
 70
     0
  9
$DIMSD1
 70
     0
  9
$DIMSD2
 70
     0
  9
$DIMTOLJ
 70
     0
  9
$DIMTZIN
 70
     8
  9
$DIMALTZ
 70
     0
  9
$DIMALTTZ
 70
     0
  9
$DIMUPT
 70
     0
  9
$DIMDEC
 70
     2
  9
$DIMTDEC
 70
     2
  9
$DIMALTU
 70
     2
  9
$DIMALTTD
 70
     3
  9
$DIMTXSTY
  7
Standard
  9
$DIMAUNIT
 70
     0
  9
$DIMADEC
 70
     0
  9
$DIMALTRND
 40
0.0
  9
$DIMAZIN
 70
     0
  9
$DIMDSEP
 70
    44
  9
$DIMATFIT
 70
     3
  9
$DIMFRAC
 70
     0
  9
$DIMLDRBLK
  1

  9
$DIMLUNIT
 70
     2
  9
$DIMLWD
 70
    -2
  9
$DIMLWE
 70
    -2
  9
$DIMTMOVE
 70
     0
  9
$LUNITS
 70
     2
  9
$LUPREC
 70
     4
  9
$SKETCHINC
 40
1.0
  9
$FILLETRAD
 40
10.0
  9
$AUNITS
 70
     0
  9
$AUPREC
 70
     0
  9
$MENU
  1
.
  9
$ELEVATION
 40
0.0
  9
$PELEVATION
 40
0.0
  9
$THICKNESS
 40
0.0
  9
$LIMCHECK
 70
     0
  9
$CHAMFERA
 40
10.0
  9
$CHAMFERB
 40
10.0
  9
$CHAMFERC
 40
20.0
  9
$CHAMFERD
 40
0.0
  9
$SKPOLY
 70
     0
  9
$TDCREATE
 40
2455866.356717187
  9
$TDUCREATE
 40
2455866.315050521
  9
$TDUPDATE
 40
2455866.356717199
  9
$TDUUPDATE
 40
2455866.315050533
  9
$TDINDWG
 40
0.0000000116
  9
$TDUSRTIMER
 40
0.0000000116
  9
$USRTIMER
 70
     1
  9
$ANGBASE
 50
0.0
  9
$ANGDIR
 70
     0
  9
$PDMODE
 70
     0
  9
$PDSIZE
 40
0.0
  9
$PLINEWID
 40
0.0
  9
$SPLFRAME
 70
     0
  9
$SPLINETYPE
 70
     6
  9
$SPLINESEGS
 70
     8
  9
$HANDSEED
  5
5C3
  9
$SURFTAB1
 70
     6
  9
$SURFTAB2
 70
     6
  9
$SURFTYPE
 70
     6
  9
$SURFU
 70
     6
  9
$SURFV
 70
     6
  9
$UCSBASE
  2

  9
$UCSNAME
  2

  9
$UCSORG
 10
0.0
 20
0.0
 30
0.0
  9
$UCSXDIR
 10
1.0
 20
0.0
 30
0.0
  9
$UCSYDIR
 10
0.0
 20
1.0
 30
0.0
  9
$UCSORTHOREF
  2

  9
$UCSORTHOVIEW
 70
     0
  9
$UCSORGTOP
 10
0.0
 20
0.0
 30
0.0
  9
$UCSORGBOTTOM
 10
0.0
 20
0.0
 30
0.0
  9
$UCSORGLEFT
 10
0.0
 20
0.0
 30
0.0
  9
$UCSORGRIGHT
 10
0.0
 20
0.0
 30
0.0
  9
$UCSORGFRONT
 10
0.0
 20
0.0
 30
0.0
  9
$UCSORGBACK
 10
0.0
 20
0.0
 30
0.0
  9
$PUCSBASE
  2

  9
$PUCSNAME
  2

  9
$PUCSORG
 10
0.0
 20
0.0
 30
0.0
  9
$PUCSXDIR
 10
1.0
 20
0.0
 30
0.0
  9
$PUCSYDIR
 10
0.0
 20
1.0
 30
0.0
  9
$PUCSORTHOREF
  2

  9
$PUCSORTHOVIEW
 70
     0
  9
$PUCSORGTOP
 10
0.0
 20
0.0
 30
0.0
  9
$PUCSORGBOTTOM
 10
0.0
 20
0.0
 30
0.0
  9
$PUCSORGLEFT
 10
0.0
 20
0.0
 30
0.0
  9
$PUCSORGRIGHT
 10
0.0
 20
0.0
 30
0.0
  9
$PUCSORGFRONT
 10
0.0
 20
0.0
 30
0.0
  9
$PUCSORGBACK
 10
0.0
 20
0.0
 30
0.0
  9
$USERI1
 70
     0
  9
$USERI2
 70
     0
  9
$USERI3
 70
     0
  9
$USERI4
 70
     0
  9
$USERI5
 70
     0
  9
$USERR1
 40
0.0
  9
$USERR2
 40
0.0
  9
$USERR3
 40
0.0
  9
$USERR4
 40
0.0
  9
$USERR5
 40
0.0
  9
$WORLDVIEW
 70
     1
  9
$SHADEDGE
 70
     3
  9
$SHADEDIF
 70
    70
  9
$TILEMODE
 70
     1
  9
$MAXACTVP
 70
    64
  9
$PINSBASE
 10
0.0
 20
0.0
 30
0.0
  9
$PLIMCHECK
 70
     0
  9
$PEXTMIN
 10
-271.75
 20
-87.335738
 30
0.0
  9
$PEXTMAX
 10
568.25
 20
506.664262
 30
0.0
  9
$PLIMMIN
 10
-271.75
 20
-87.335738
  9
$PLIMMAX
 10
568.25
 20
506.664262
  9
$UNITMODE
 70
     0
  9
$VISRETAIN
 70
     1
  9
$PLINEGEN
 70
     0
  9
$PSLTSCALE
 70
     1
  9
$TREEDEPTH
 70
  3020
  9
$CMLSTYLE
  2
Standard
  9
$CMLJUST
 70
     0
  9
$CMLSCALE
 40
20.0
  9
$PROXYGRAPHICS
 70
     1
  9
$MEASUREMENT
 70
     1
  9
$CELWEIGHT
370
    -1
  9
$ENDCAPS
280
     0
  9
$JOINSTYLE
280
     0
  9
$LWDISPLAY
290
     0
  9
$INSUNITS
 70
     4
  9
$HYPERLINKBASE
  1

  9
$STYLESHEET
  1

  9
$XEDIT
290
     1
  9
$CEPSNTYPE
380
     0
  9
$PSTYLEMODE
290
     1
  9
$FINGERPRINTGUID
  2
{FAEB1C30-E019-11D5-929B-00C0DF256EC4}
  9
$VERSIONGUID
  2
{FAEB1C32-E019-11D5-929B-00C0DF256EC4}
  9
$EXTNAMES
290
     1
  9
$PSVPSCALE
 40
0.0
  9
$OLESTARTUP
290
     0
  0
ENDSEC
  0
SECTION
  2
CLASSES
  0
CLASS
  1
ACDBDICTIONARYWDFLT
  2
AcDbDictionaryWithDefault
  3
ObjectDBX Classes
 90
        0
280
     0
281
     0
  0
CLASS
  1
ACDBPLACEHOLDER
  2
AcDbPlaceHolder
  3
ObjectDBX Classes
 90
        0
280
     0
281
     0
  0
CLASS
  1
LAYOUT
  2
AcDbLayout
  3
ObjectDBX Classes
 90
        0
280
     0
281
     0
  0
ENDSEC
  0
SECTION
  2
TABLES
  0
TABLE
  2
VPORT
  5
8
330
0
100
AcDbSymbolTable
 70
     2
  0
VPORT
  5
29
330
8
100
AcDbSymbolTableRecord
100
AcDbViewportTableRecord
  2
*ACTIVE
 70
     0
 10
0.0
 20
0.0
 11
1.0
 21
1.0
 12
148.25
 22
209.664262
 13
0.0
 23
0.0
 14
1.0
 24
1.0
 15
0.0
 25
0.0
 16
0.0
 26
0.0
 36
1.0
 17
0.0
 27
0.0
 37
0.0
 40
594.0
 41
1.414141
 42
50.0
 43
0.0
 44
0.0
 50
0.0
 51
0.0
 71
    16
 72
   100
 73
     1
 74
     0
 75
     0
 76
     0
 77
     0
 78
     0
281
     0
 65
     0
110
0.0
120
0.0
130
0.0
111
1.0
121
0.0
131
0.0
112
0.0
122
1.0
132
0.0
 79
     0
146
0.0
  0
ENDTAB
  0
TABLE
  2
LTYPE
  5
5
330
0
100
AcDbSymbolTable
 70
     3
  0
LTYPE
  5
14
330
5
100
AcDbSymbolTableRecord
100
AcDbLinetypeTableRecord
  2
ByBlock
 70
     0
  3

 72
    65
 73
     0
 40
0.0
  0
LTYPE
  5
15
330
5
100
AcDbSymbolTableRecord
100
AcDbLinetypeTableRecord
  2
ByLayer
 70
     0
  3

 72
    65
 73
     0
 40
0.0
  0
LTYPE
  5
16
330
5
100
AcDbSymbolTableRecord
100
AcDbLinetypeTableRecord
  2
Continuous
 70
     0
  3
Solid line
 72
    65
 73
     0
 40
0.0
  0
LTYPE
  5
2A
330
5
100
AcDbSymbolTableRecord
100
AcDbLinetypeTableRecord
  2
DASHED
 70
     0
  3
__ __ __ __ __
 72
    65
 73
     2
 40
6.25
 49
5.0
 74
     4
 75
     0
340
0
 46
1.0
 50
0.0
 44
0.0
 45
0.0
 49
-1.25
 74
     4
 75
     0
340
0
 46
1.0
 50
0.0
 44
0.0
 45
0.0
  0
LTYPE
  5
478
330
5
100
AcDbSymbolTableRecord
100
AcDbLinetypeTableRecord
  2
DASHDOT
 70
     0
  3
__ . __ . __ . __ . __
 72
    65
 73
     4
 40
7.5
 49
5.0
 74
     4
 75
     0
340
0
 46
1.0
 50
0.0
 44
0.0
 45
0.0
 49
-1.25
 74
     4
 75
     0
340
0
 46
1.0
 50
0.0
 44
0.0
 45
0.0
 49
0.0
 74
     4
 75
     0
340
0
 46
1.0
 50
0.0
 44
0.0
 45
0.0
 49
-1.25
 74
     4
 75
     0
340
0
 46
1.0
 50
0.0
 44
0.0
 45
0.0
  0
ENDTAB
  0
TABLE
  2
LAYER
  5
2
330
0
100
AcDbSymbolTable
 70
    11
  0
LAYER
  5
10
330
2
100
AcDbSymbolTableRecord
100
AcDbLayerTableRecord
  2
0
 70
     0
 62
     7
  6
Continuous
370
    -3
390
F
  0
LAYER
  5
2B
330
2
100
AcDbSymbolTableRecord
100
AcDbLayerTableRecord
  2
LC-INFO-1-2-mm-A3-0
 70
     1
 62
     7
  6
ByBlock
370
    -3
390
F
  0
LAYER
  5
2C
330
2
100
AcDbSymbolTableRecord
100
AcDbLayerTableRecord
  2
LC-CUT-HIDDEN
 70
     0
 62
     7
  6
DASHED
370
    -3
390
F
  0
LAYER
  5
2D
330
2
100
AcDbSymbolTableRecord
100
AcDbLayerTableRecord
  2
LC-VIEWPORT
 70
     0
 62
     7
  6
ByBlock
370
    -3
390
F
  0
LAYER
  5
2E
330
2
100
AcDbSymbolTableRecord
100
AcDbLayerTableRecord
  2
LC-3D-HIDDEN
 70
     0
 62
     9
  6
DASHED
370
    -3
390
F
  0
LAYER
  5
31
330
2
100
AcDbSymbolTableRecord
100
AcDbLayerTableRecord
  2
LC-001-100-D00-0
 70
     0
 62
     1
  6
ByBlock
370
    -3
390
F
  0
LAYER
  5
479
330
2
100
AcDbSymbolTableRecord
100
AcDbLayerTableRecord
  2
LC-002-105-D00-0
 70
     0
 62
     2
  6
DASHDOT
370
    -3
390
F
  0
LAYER
  5
47D
330
2
100
AcDbSymbolTableRecord
100
AcDbLayerTableRecord
  2
LC-003-002-----0
 70
     0
 62
     2
  6
DASHDOT
370
    -3
390
F
  0
LAYER
  5
483
330
2
100
AcDbSymbolTableRecord
100
AcDbLayerTableRecord
  2
LC-004-106-D00-0
 70
     0
 62
     2
  6
ByBlock
370
    -3
390
F
  0
LAYER
  5
485
330
2
100
AcDbSymbolTableRecord
100
AcDbLayerTableRecord
  2
Defpoints
 70
     0
 62
     7
  6
Continuous
290
     0
370
    -3
390
F
  0
LAYER
  5
4CA
330
2
100
AcDbSymbolTableRecord
100
AcDbLayerTableRecord
  2
LC-005-003-----0
 70
     0
 62
     2
  6
ByBlock
370
    -3
390
F
  0
ENDTAB
  0
TABLE
  2
STYLE
  5
3
330
0
100
AcDbSymbolTable
 70
     4
  0
STYLE
  5
11
330
3
100
AcDbSymbolTableRecord
100
AcDbTextStyleTableRecord
  2
Standard
 70
     0
 40
0.0
 41
1.0
 50
0.0
 71
     0
 42
2.5
  3
txt
  4

  0
STYLE
  5
2F
330
3
100
AcDbSymbolTableRecord
100
AcDbTextStyleTableRecord
  2
LCTX0-400-0-0pDIN-Schrift
 70
     0
 40
0.0
 41
0.75
 50
0.0
 71
     0
 42
3.5
  3
TXT
  4

  0
STYLE
  5
30
330
3
100
AcDbSymbolTableRecord
100
AcDbTextStyleTableRecord
  2
LCTX15-400-0-0-Arial
 70
     0
 40
0.0
 41
0.8
 50
0.0
 71
     0
 42
3.5
  3

  4

1001
ACAD
1000
Arial
1071
 16777218
  0
STYLE
  5
481
330
3
100
AcDbSymbolTableRecord
100
AcDbTextStyleTableRecord
  2
LCTX15-400-0-0pDIN-Schrift
 70
     0
 40
2.5
 41
0.8
 50
15.0
 71
     0
 42
3.5
  3
STANDARD
  4

  0
ENDTAB
  0
TABLE
  2
VIEW
  5
6
330
0
100
AcDbSymbolTable
 70
     0
  0
ENDTAB
  0
TABLE
  2
UCS
  5
7
330
0
100
AcDbSymbolTable
 70
     0
  0
ENDTAB
  0
TABLE
  2
APPID
  5
9
330
0
100
AcDbSymbolTable
 70
     1
  0
APPID
  5
12
330
9
100
AcDbSymbolTableRecord
100
AcDbRegAppTableRecord
  2
ACAD
 70
     0
  0
ENDTAB
  0
TABLE
  2
DIMSTYLE
  5
A
330
0
100
AcDbSymbolTable
 70
     3
100
AcDbDimStyleTable
  0
DIMSTYLE
105
27
330
A
100
AcDbSymbolTableRecord
100
AcDbDimStyleTableRecord
  2
ISO-25
 70
     0
 41
2.5
 42
0.625
 43
3.75
 44
1.25
 73
     0
 74
     0
 77
     1
 78
     8
140
2.5
141
2.5
143
0.03937
147
0.625
171
     3
172
     1
271
     2
272
     2
274
     3
278
    44
283
     0
284
     8
340
11
  0
DIMSTYLE
105
482
102
{ACAD_REACTORS
330
484
330
493
330
4AE
330
4CB
330
4D8
330
4E7
330
5A8
330
5B5
102
}
330
A
100
AcDbSymbolTableRecord
100
AcDbDimStyleTableRecord
  2
LC-DIM-L-0140-02-02
 70
     0
 40
2.0
 41
14.0
 42
0.0
 43
7.5
 44
1.8
 73
     0
 74
     0
 77
     1
 78
     8
 79
     2
140
14.0
141
0.0
146
0.71
147
1.5
176
     2
177
     2
178
     2
179
     2
271
     2
278
    44
289
     1
340
481
  0
DIMSTYLE
105
4A0
102
{ACAD_REACTORS
330
4A1
330
4BC
102
}
330
A
100
AcDbSymbolTableRecord
100
AcDbDimStyleTableRecord
  2
LC-DIM-L-0140-00-02
 70
     0
 40
2.0
 41
14.0
 42
0.0
 43
7.5
 44
1.8
 73
     0
 74
     0
 77
     1
 78
     8
140
14.0
141
0.0
146
0.71
147
1.5
176
     2
177
     2
178
     2
271
     0
278
    44
289
     1
340
481
  0
ENDTAB
  0
TABLE
  2
BLOCK_RECORD
  5
1
330
0
100
AcDbSymbolTable
 70
    37
  0
BLOCK_RECORD
  5
1F
330
1
100
AcDbSymbolTableRecord
100
AcDbBlockTableRecord
  2
*Model_Space
340
22
  0
BLOCK_RECORD
  5
1B
330
1
100
AcDbSymbolTableRecord
100
AcDbBlockTableRecord
  2
*Paper_Space
340
1E
  0
BLOCK_RECORD
  5
23
330
1
100
AcDbSymbolTableRecord
100
AcDbBlockTableRecord
  2
*Paper_Space0
340
26
  0
BLOCK_RECORD
  5
124
330
1
100
AcDbSymbolTableRecord
100
AcDbBlockTableRecord
  2
KLON1
340
0
102
{BLKREFS
331
129
102
}
  0
BLOCK_RECORD
  5
12C
330
1
100
AcDbSymbolTableRecord
100
AcDbBlockTableRecord
  2
KLON2
340
0
102
{BLKREFS
331
131
102
}
  0
BLOCK_RECORD
  5
132
330
1
100
AcDbSymbolTableRecord
100
AcDbBlockTableRecord
  2
KLON3
340
0
102
{BLKREFS
331
137
102
}
  0
BLOCK_RECORD
  5
139
330
1
100
AcDbSymbolTableRecord
100
AcDbBlockTableRecord
  2
KLON4
340
0
102
{BLKREFS
331
141
102
}
  0
BLOCK_RECORD
  5
1AF
330
1
100
AcDbSymbolTableRecord
100
AcDbBlockTableRecord
  2
POLY1
340
0
102
{BLKREFS
331
1BA
102
}
  0
BLOCK_RECORD
  5
1D4
330
1
100
AcDbSymbolTableRecord
100
AcDbBlockTableRecord
  2
POLY2
340
0
102
{BLKREFS
331
1FB
102
}
  0
BLOCK_RECORD
  5
1FC
330
1
100
AcDbSymbolTableRecord
100
AcDbBlockTableRecord
  2
POLY3
340
0
102
{BLKREFS
331
207
102
}
  0
BLOCK_RECORD
  5
22B
330
1
100
AcDbSymbolTableRecord
100
AcDbBlockTableRecord
  2
KLON5
340
0
102
{BLKREFS
331
230
102
}
  0
BLOCK_RECORD
  5
237
330
1
100
AcDbSymbolTableRecord
100
AcDbBlockTableRecord
  2
POLY4
340
0
102
{BLKREFS
331
242
102
}
  0
BLOCK_RECORD
  5
2C4
330
1
100
AcDbSymbolTableRecord
100
AcDbBlockTableRecord
  2
POLY5
340
0
102
{BLKREFS
331
2E7
102
}
  0
BLOCK_RECORD
  5
2E8
330
1
100
AcDbSymbolTableRecord
100
AcDbBlockTableRecord
  2
POLY6
340
0
102
{BLKREFS
331
2FF
102
}
  0
BLOCK_RECORD
  5
360
330
1
100
AcDbSymbolTableRecord
100
AcDbBlockTableRecord
  2
POLY7
340
0
102
{BLKREFS
331
37F
102
}
  0
BLOCK_RECORD
  5
381
330
1
100
AcDbSymbolTableRecord
100
AcDbBlockTableRecord
  2
POLY8
340
0
102
{BLKREFS
331
3A0
102
}
  0
BLOCK_RECORD
  5
3AA
330
1
100
AcDbSymbolTableRecord
100
AcDbBlockTableRecord
  2
KLON6
340
0
102
{BLKREFS
331
3B9
102
}
  0
BLOCK_RECORD
  5
3BA
330
1
100
AcDbSymbolTableRecord
100
AcDbBlockTableRecord
  2
KLON7
340
0
102
{BLKREFS
331
3C9
102
}
  0
BLOCK_RECORD
  5
3CA
330
1
100
AcDbSymbolTableRecord
100
AcDbBlockTableRecord
  2
KLON8
340
0
102
{BLKREFS
331
3D7
102
}
  0
BLOCK_RECORD
  5
3D8
330
1
100
AcDbSymbolTableRecord
100
AcDbBlockTableRecord
  2
KLON9
340
0
102
{BLKREFS
331
3F6
102
}
  0
BLOCK_RECORD
  5
3F7
330
1
100
AcDbSymbolTableRecord
100
AcDbBlockTableRecord
  2
KLON10
340
0
102
{BLKREFS
331
401
102
}
  0
BLOCK_RECORD
  5
402
330
1
100
AcDbSymbolTableRecord
100
AcDbBlockTableRecord
  2
KLON11
340
0
102
{BLKREFS
331
40E
102
}
  0
BLOCK_RECORD
  5
411
330
1
100
AcDbSymbolTableRecord
100
AcDbBlockTableRecord
  2
KLON12
340
0
102
{BLKREFS
331
41E
102
}
  0
BLOCK_RECORD
  5
41F
330
1
100
AcDbSymbolTableRecord
100
AcDbBlockTableRecord
  2
KLON13
340
0
102
{BLKREFS
331
42A
102
}
  0
BLOCK_RECORD
  5
42B
330
1
100
AcDbSymbolTableRecord
100
AcDbBlockTableRecord
  2
KLON14
340
0
102
{BLKREFS
331
442
102
}
  0
BLOCK_RECORD
  5
443
330
1
100
AcDbSymbolTableRecord
100
AcDbBlockTableRecord
  2
KLON15
340
0
102
{BLKREFS
331
454
102
}
  0
BLOCK_RECORD
  5
455
330
1
100
AcDbSymbolTableRecord
100
AcDbBlockTableRecord
  2
KLON16
340
0
102
{BLKREFS
331
467
102
}
  0
BLOCK_RECORD
  5
46C
330
1
100
AcDbSymbolTableRecord
100
AcDbBlockTableRecord
  2
KLON17
340
0
102
{BLKREFS
331
471
102
}
  0
BLOCK_RECORD
  5
472
330
1
100
AcDbSymbolTableRecord
100
AcDbBlockTableRecord
  2
KLON18
340
0
102
{BLKREFS
331
477
102
}
  0
BLOCK_RECORD
  5
486
330
1
100
AcDbSymbolTableRecord
100
AcDbBlockTableRecord
  2
*D27
340
0
  0
BLOCK_RECORD
  5
494
330
1
100
AcDbSymbolTableRecord
100
AcDbBlockTableRecord
  2
*D28
340
0
  0
BLOCK_RECORD
  5
4A2
330
1
100
AcDbSymbolTableRecord
100
AcDbBlockTableRecord
  2
*D29
340
0
  0
BLOCK_RECORD
  5
4AF
330
1
100
AcDbSymbolTableRecord
100
AcDbBlockTableRecord
  2
*D30
340
0
  0
BLOCK_RECORD
  5
4BD
330
1
100
AcDbSymbolTableRecord
100
AcDbBlockTableRecord
  2
*D31
340
0
  0
BLOCK_RECORD
  5
4CC
330
1
100
AcDbSymbolTableRecord
100
AcDbBlockTableRecord
  2
*D32
340
0
  0
BLOCK_RECORD
  5
4D9
330
1
100
AcDbSymbolTableRecord
100
AcDbBlockTableRecord
  2
*D33
340
0
  0
BLOCK_RECORD
  5
4E8
330
1
100
AcDbSymbolTableRecord
100
AcDbBlockTableRecord
  2
*D34
340
0
  0
BLOCK_RECORD
  5
5A9
330
1
100
AcDbSymbolTableRecord
100
AcDbBlockTableRecord
  2
*D35
340
0
  0
BLOCK_RECORD
  5
5B6
330
1
100
AcDbSymbolTableRecord
100
AcDbBlockTableRecord
  2
*D36
340
0
  0
ENDTAB
  0
ENDSEC
  0
SECTION
  2
BLOCKS
  0
BLOCK
  5
20
330
1F
100
AcDbEntity
  8
0
100
AcDbBlockBegin
  2
*Model_Space
 70
     0
 71
     0
 10
0.0
 20
0.0
 30
0.0
  3
*Model_Space
  1

  0
ENDBLK
  5
21
330
1F
100
AcDbEntity
  8
0
100
AcDbBlockEnd
  0
BLOCK
  5
1C
330
1B
100
AcDbEntity
 67
     1
  8
0
100
AcDbBlockBegin
  2
*Paper_Space
 70
     0
 71
     0
 10
0.0
 20
0.0
 30
0.0
  3
*Paper_Space
  1

  0
ENDBLK
  5
1D
330
1B
100
AcDbEntity
 67
     1
  8
0
100
AcDbBlockEnd
  0
BLOCK
  5
24
330
23
100
AcDbEntity
  8
0
100
AcDbBlockBegin
  2
*Paper_Space0
 70
     0
 71
     0
 10
0.0
 20
0.0
 30
0.0
  3
*Paper_Space0
  1

  0
ENDBLK
  5
25
330
23
100
AcDbEntity
  8
0
100
AcDbBlockEnd
  0
BLOCK
  5
125
330
124
100
AcDbEntity
  8
0
100
AcDbBlockBegin
  2
KLON1
 70
     0
 71
     0
 10
0.0
 20
0.0
 30
0.0
  3
KLON1
  1

  4
KLON1
  0
LINE
  5
127
330
124
100
AcDbEntity
  8
LC-001-100-D00-0
 62
     7
370
    25
100
AcDbLine
 10
100.545788
 20
342.000842
 30
0.0
 11
99.934041
 21
342.61259
 31
0.0
  0
LINE
  5
128
330
124
100
AcDbEntity
  8
LC-001-100-D00-0
 62
     7
370
    25
100
AcDbLine
 10
106.93182
 20
344.595066
 30
0.0
 11
105.028265
 21
346.498621
 31
0.0
  0
ENDBLK
  5
126
330
124
100
AcDbEntity
  8
0
100
AcDbBlockEnd
  0
BLOCK
  5
12D
330
12C
100
AcDbEntity
  8
0
100
AcDbBlockBegin
  2
KLON2
 70
     0
 71
     0
 10
0.0
 20
0.0
 30
0.0
  3
KLON2
  1

  4
KLON2
  0
LINE
  5
12F
330
12C
100
AcDbEntity
  8
LC-001-100-D00-0
 62
     7
370
    25
100
AcDbLine
 10
162.934041
 20
342.474382
 30
0.0
 11
160.934041
 21
344.474382
 31
0.0
  0
LINE
  5
130
330
12C
100
AcDbEntity
  8
LC-001-100-D00-0
 62
     7
370
    25
100
AcDbLine
 10
160.907581
 20
344.500842
 30
0.0
 11
158.907581
 21
346.500842
 31
0.0
  0
ENDBLK
  5
12E
330
12C
100
AcDbEntity
  8
0
100
AcDbBlockEnd
  0
BLOCK
  5
133
330
132
100
AcDbEntity
  8
0
100
AcDbBlockBegin
  2
KLON3
 70
     0
 71
     0
 10
0.0
 20
0.0
 30
0.0
  3
KLON3
  1

  4
KLON3
  0
LINE
  5
135
330
132
100
AcDbEntity
  8
LC-001-100-D00-0
 62
     7
370
    25
100
AcDbLine
 10
74.10502
 20
341.500842
 30
0.0
 11
73.934041
 21
341.671821
 31
0.0
  0
LINE
  5
136
330
132
100
AcDbEntity
  8
LC-001-100-D00-0
 62
     7
370
    25
100
AcDbLine
 10
80.934041
 20
343.652077
 30
0.0
 11
78.085276
 21
346.500842
 31
0.0
  0
ENDBLK
  5
134
330
132
100
AcDbEntity
  8
0
100
AcDbBlockEnd
  0
BLOCK
  5
13A
330
139
100
AcDbEntity
  8
0
100
AcDbBlockBegin
  2
KLON4
 70
     0
 71
     0
 10
0.0
 20
0.0
 30
0.0
  3
KLON4
  1

  4
KLON4
  0
LINE
  5
13C
330
139
100
AcDbEntity
  8
LC-001-100-D00-0
 62
     7
370
    25
100
AcDbLine
 10
116.006301
 20
344.500842
 30
0.0
 11
114.161521
 21
346.345622
 31
0.0
  0
LINE
  5
13D
330
139
100
AcDbEntity
  8
LC-001-100-D00-0
 62
     7
370
    25
100
AcDbLine
 10
124.986557
 20
344.500842
 30
0.0
 11
122.986557
 21
346.500842
 31
0.0
  0
LINE
  5
13E
330
139
100
AcDbEntity
  8
LC-001-100-D00-0
 62
     7
370
    25
100
AcDbLine
 10
133.966813
 20
344.500842
 30
0.0
 11
131.966813
 21
346.500842
 31
0.0
  0
LINE
  5
13F
330
139
100
AcDbEntity
  8
LC-001-100-D00-0
 62
     7
370
    25
100
AcDbLine
 10
142.947069
 20
344.500842
 30
0.0
 11
141.147069
 21
346.300842
 31
0.0
  0
LINE
  5
140
330
139
100
AcDbEntity
  8
LC-001-100-D00-0
 62
     7
370
    25
100
AcDbLine
 10
141.101671
 20
346.34624
 30
0.0
 11
140.947069
 21
346.500842
 31
0.0
  0
ENDBLK
  5
13B
330
139
100
AcDbEntity
  8
0
100
AcDbBlockEnd
  0
BLOCK
  5
1B0
330
1AF
100
AcDbEntity
  8
0
100
AcDbBlockBegin
  2
POLY1
 70
     0
 71
     0
 10
0.0
 20
0.0
 30
0.0
  3
POLY1
  1

  4
POLY1
  0
LINE
  5
1B2
330
1AF
100
AcDbEntity
  8
LC-001-100-D00-0
 62
     7
370
    50
100
AcDbLine
 10
295.892791
 20
295.900843
 30
0.0
 11
295.892791
 21
295.900843
 31
0.0
  0
LINE
  5
1B3
330
1AF
100
AcDbEntity
  8
LC-001-100-D00-0
 62
     7
370
    50
100
AcDbLine
 10
295.892791
 20
295.900843
 30
0.0
 11
296.277933
 21
296.572218
 31
0.0
  0
LINE
  5
1B4
330
1AF
100
AcDbEntity
  8
LC-001-100-D00-0
 62
     7
370
    50
100
AcDbLine
 10
296.277933
 20
296.572218
 30
0.0
 11
296.277933
 21
296.572218
 31
0.0
  0
LINE
  5
1B5
330
1AF
100
AcDbEntity
  8
LC-001-100-D00-0
 62
     7
370
    50
100
AcDbLine
 10
296.277933
 20
296.572218
 30
0.0
 11
298.113257
 21
299.771524
 31
0.0
  0
LINE
  5
1B6
330
1AF
100
AcDbEntity
  8
LC-001-100-D00-0
 62
     7
370
    50
100
AcDbLine
 10
298.113257
 20
299.771524
 30
0.0
 11
298.113257
 21
299.771524
 31
0.0
  0
LINE
  5
1B7
330
1AF
100
AcDbEntity
  8
LC-001-100-D00-0
 62
     7
370
    50
100
AcDbLine
 10
298.113257
 20
299.771524
 30
0.0
 11
299.953488
 21
302.968011
 31
0.0
  0
LINE
  5
1B8
330
1AF
100
AcDbEntity
  8
LC-001-100-D00-0
 62
     7
370
    50
100
AcDbLine
 10
299.953488
 20
302.968011
 30
0.0
 11
299.953488
 21
302.968011
 31
0.0
  0
LINE
  5
1B9
330
1AF
100
AcDbEntity
  8
LC-001-100-D00-0
 62
     7
370
    50
100
AcDbLine
 10
299.953488
 20
302.968011
 30
0.0
 11
301.407546
 21
305.493715
 31
0.0
  0
ENDBLK
  5
1B1
330
1AF
100
AcDbEntity
  8
0
100
AcDbBlockEnd
  0
BLOCK
  5
1D5
330
1D4
100
AcDbEntity
  8
0
100
AcDbBlockBegin
  2
POLY2
 70
     0
 71
     0
 10
0.0
 20
0.0
 30
0.0
  3
POLY2
  1

  4
POLY2
  0
LINE
  5
1D7
330
1D4
100
AcDbEntity
  8
LC-001-100-D00-0
 62
     7
370
    50
100
AcDbLine
 10
303.11519
 20
259.717861
 30
0.0
 11
303.11519
 21
259.717861
 31
0.0
  0
LINE
  5
1D8
330
1D4
100
AcDbEntity
  8
LC-001-100-D00-0
 62
     7
370
    50
100
AcDbLine
 10
303.11519
 20
259.717861
 30
0.0
 11
303.044196
 21
259.926712
 31
0.0
  0
LINE
  5
1D9
330
1D4
100
AcDbEntity
  8
LC-001-100-D00-0
 62
     7
370
    50
100
AcDbLine
 10
303.044196
 20
259.926712
 30
0.0
 11
303.044196
 21
259.926712
 31
0.0
  0
LINE
  5
1DA
330
1D4
100
AcDbEntity
  8
LC-001-100-D00-0
 62
     7
370
    50
100
AcDbLine
 10
303.044196
 20
259.926712
 30
0.0
 11
302.900177
 21
260.350386
 31
0.0
  0
LINE
  5
1DB
330
1D4
100
AcDbEntity
  8
LC-001-100-D00-0
 62
     7
370
    50
100
AcDbLine
 10
302.900177
 20
260.350386
 30
0.0
 11
302.900177
 21
260.350386
 31
0.0
  0
LINE
  5
1DC
330
1D4
100
AcDbEntity
  8
LC-001-100-D00-0
 62
     7
370
    50
100
AcDbLine
 10
302.900177
 20
260.350386
 30
0.0
 11
302.61635
 21
261.535346
 31
0.0
  0
LINE
  5
1DD
330
1D4
100
AcDbEntity
  8
LC-001-100-D00-0
 62
     7
370
    50
100
AcDbLine
 10
302.61635
 20
261.535346
 30
0.0
 11
302.61635
 21
261.535346
 31
0.0
  0
LINE
  5
1DE
330
1D4
100
AcDbEntity
  8
LC-001-100-D00-0
 62
     7
370
    50
100
AcDbLine
 10
302.61635
 20
261.535346
 30
0.0
 11
302.283829
 21
263.102961
 31
0.0
  0
LINE
  5
1DF
330
1D4
100
AcDbEntity
  8
LC-001-100-D00-0
 62
     7
370
    50
100
AcDbLine
 10
302.283829
 20
263.102961
 30
0.0
 11
302.283829
 21
263.102961
 31
0.0
  0
LINE
  5
1E0
330
1D4
100
AcDbEntity
  8
LC-001-100-D00-0
 62
     7
370
    50
100
AcDbLine
 10
302.283829
 20
263.102961
 30
0.0
 11
301.907246
 21
265.029963
 31
0.0
  0
LINE
  5
1E1
330
1D4
100
AcDbEntity
  8
LC-001-100-D00-0
 62
     7
370
    50
100
AcDbLine
 10
301.907246
 20
265.029963
 30
0.0
 11
301.907246
 21
265.029963
 31
0.0
  0
LINE
  5
1E2
330
1D4
100
AcDbEntity
  8
LC-001-100-D00-0
 62
     7
370
    50
100
AcDbLine
 10
301.907246
 20
265.029963
 30
0.0
 11
301.488123
 21
267.283776
 31
0.0
  0
LINE
  5
1E3
330
1D4
100
AcDbEntity
  8
LC-001-100-D00-0
 62
     7
370
    50
100
AcDbLine
 10
301.488123
 20
267.283776
 30
0.0
 11
301.488123
 21
267.283776
 31
0.0
  0
LINE
  5
1E4
330
1D4
100
AcDbEntity
  8
LC-001-100-D00-0
 62
     7
370
    50
100
AcDbLine
 10
301.488123
 20
267.283776
 30
0.0
 11
301.0394
 21
269.774612
 31
0.0
  0
LINE
  5
1E5
330
1D4
100
AcDbEntity
  8
LC-001-100-D00-0
 62
     7
370
    50
100
AcDbLine
 10
301.0394
 20
269.774612
 30
0.0
 11
301.0394
 21
269.774612
 31
0.0
  0
LINE
  5
1E6
330
1D4
100
AcDbEntity
  8
LC-001-100-D00-0
 62
     7
370
    50
100
AcDbLine
 10
301.0394
 20
269.774612
 30
0.0
 11
300.563384
 21
272.470547
 31
0.0
  0
LINE
  5
1E7
330
1D4
100
AcDbEntity
  8
LC-001-100-D00-0
 62
     7
370
    50
100
AcDbLine
 10
300.563384
 20
272.470547
 30
0.0
 11
300.563384
 21
272.470547
 31
0.0
  0
LINE
  5
1E8
330
1D4
100
AcDbEntity
  8
LC-001-100-D00-0
 62
     7
370
    50
100
AcDbLine
 10
300.563384
 20
272.470547
 30
0.0
 11
300.078156
 21
275.256039
 31
0.0
  0
LINE
  5
1E9
330
1D4
100
AcDbEntity
  8
LC-001-100-D00-0
 62
     7
370
    50
100
AcDbLine
 10
300.078156
 20
275.256039
 30
0.0
 11
300.078156
 21
275.256039
 31
0.0
  0
LINE
  5
1EA
330
1D4
100
AcDbEntity
  8
LC-001-100-D00-0
 62
     7
370
    50
100
AcDbLine
 10
300.078156
 20
275.256039
 30
0.0
 11
299.589482
 21
278.094289
 31
0.0
  0
LINE
  5
1EB
330
1D4
100
AcDbEntity
  8
LC-001-100-D00-0
 62
     7
370
    50
100
AcDbLine
 10
299.589482
 20
278.094289
 30
0.0
 11
299.589482
 21
278.094289
 31
0.0
  0
LINE
  5
1EC
330
1D4
100
AcDbEntity
  8
LC-001-100-D00-0
 62
     7
370
    50
100
AcDbLine
 10
299.589482
 20
278.094289
 30
0.0
 11
299.121676
 21
280.853298
 31
0.0
  0
LINE
  5
1ED
330
1D4
100
AcDbEntity
  8
LC-001-100-D00-0
 62
     7
370
    50
100
AcDbLine
 10
299.121676
 20
280.853298
 30
0.0
 11
299.121676
 21
280.853298
 31
0.0
  0
LINE
  5
1EE
330
1D4
100
AcDbEntity
  8
LC-001-100-D00-0
 62
     7
370
    50
100
AcDbLine
 10
299.121676
 20
280.853298
 30
0.0
 11
298.685278
 21
283.498553
 31
0.0
  0
LINE
  5
1EF
330
1D4
100
AcDbEntity
  8
LC-001-100-D00-0
 62
     7
370
    50
100
AcDbLine
 10
298.685278
 20
283.498553
 30
0.0
 11
298.685278
 21
283.498553
 31
0.0
  0
LINE
  5
1F0
330
1D4
100
AcDbEntity
  8
LC-001-100-D00-0
 62
     7
370
    50
100
AcDbLine
 10
298.685278
 20
283.498553
 30
0.0
 11
298.310358
 21
285.893422
 31
0.0
  0
LINE
  5
1F1
330
1D4
100
AcDbEntity
  8
LC-001-100-D00-0
 62
     7
370
    50
100
AcDbLine
 10
298.310358
 20
285.893422
 30
0.0
 11
298.310358
 21
285.893422
 31
0.0
  0
LINE
  5
1F2
330
1D4
100
AcDbEntity
  8
LC-001-100-D00-0
 62
     7
370
    50
100
AcDbLine
 10
298.310358
 20
285.893422
 30
0.0
 11
298.009848
 21
288.018362
 31
0.0
  0
LINE
  5
1F3
330
1D4
100
AcDbEntity
  8
LC-001-100-D00-0
 62
     7
370
    50
100
AcDbLine
 10
298.009848
 20
288.018362
 30
0.0
 11
298.009848
 21
288.018362
 31
0.0
  0
LINE
  5
1F4
330
1D4
100
AcDbEntity
  8
LC-001-100-D00-0
 62
     7
370
    50
100
AcDbLine
 10
298.009848
 20
288.018362
 30
0.0
 11
297.79352
 21
289.913589
 31
0.0
  0
LINE
  5
1F5
330
1D4
100
AcDbEntity
  8
LC-001-100-D00-0
 62
     7
370
    50
100
AcDbLine
 10
297.79352
 20
289.913589
 30
0.0
 11
297.79352
 21
289.913589
 31
0.0
  0
LINE
  5
1F6
330
1D4
100
AcDbEntity
  8
LC-001-100-D00-0
 62
     7
370
    50
100
AcDbLine
 10
297.79352
 20
289.913589
 30
0.0
 11
297.705661
 21
291.343079
 31
0.0
  0
LINE
  5
1F7
330
1D4
100
AcDbEntity
  8
LC-001-100-D00-0
 62
     7
370
    50
100
AcDbLine
 10
297.705661
 20
291.343079
 30
0.0
 11
297.705661
 21
291.343079
 31
0.0
  0
LINE
  5
1F8
330
1D4
100
AcDbEntity
  8
LC-001-100-D00-0
 62
     7
370
    50
100
AcDbLine
 10
297.705661
 20
291.343079
 30
0.0
 11
297.763311
 21
291.867662
 31
0.0
  0
LINE
  5
1F9
330
1D4
100
AcDbEntity
  8
LC-001-100-D00-0
 62
     7
370
    50
100
AcDbLine
 10
297.763311
 20
291.867662
 30
0.0
 11
297.763311
 21
291.867662
 31
0.0
  0
LINE
  5
1FA
330
1D4
100
AcDbEntity
  8
LC-001-100-D00-0
 62
     7
370
    50
100
AcDbLine
 10
297.763311
 20
291.867662
 30
0.0
 11
297.788188
 21
292.094028
 31
0.0
  0
ENDBLK
  5
1D6
330
1D4
100
AcDbEntity
  8
0
100
AcDbBlockEnd
  0
BLOCK
  5
1FD
330
1FC
100
AcDbEntity
  8
0
100
AcDbBlockBegin
  2
POLY3
 70
     0
 71
     0
 10
0.0
 20
0.0
 30
0.0
  3
POLY3
  1

  4
POLY3
  0
LINE
  5
1FF
330
1FC
100
AcDbEntity
  8
LC-001-100-D00-0
 62
     7
370
    50
100
AcDbLine
 10
297.885255
 20
292.303889
 30
0.0
 11
297.885255
 21
292.303889
 31
0.0
  0
LINE
  5
200
330
1FC
100
AcDbEntity
  8
LC-001-100-D00-0
 62
     7
370
    50
100
AcDbLine
 10
297.885255
 20
292.303889
 30
0.0
 11
297.903817
 21
292.360428
 31
0.0
  0
LINE
  5
201
330
1FC
100
AcDbEntity
  8
LC-001-100-D00-0
 62
     7
370
    50
100
AcDbLine
 10
297.903817
 20
292.360428
 30
0.0
 11
297.903817
 21
292.360428
 31
0.0
  0
LINE
  5
202
330
1FC
100
AcDbEntity
  8
LC-001-100-D00-0
 62
     7
370
    50
100
AcDbLine
 10
297.903817
 20
292.360428
 30
0.0
 11
297.935282
 21
292.456263
 31
0.0
  0
LINE
  5
203
330
1FC
100
AcDbEntity
  8
LC-001-100-D00-0
 62
     7
370
    50
100
AcDbLine
 10
297.935282
 20
292.456263
 30
0.0
 11
297.935282
 21
292.456263
 31
0.0
  0
LINE
  5
204
330
1FC
100
AcDbEntity
  8
LC-001-100-D00-0
 62
     7
370
    50
100
AcDbLine
 10
297.935282
 20
292.456263
 30
0.0
 11
297.987675
 21
292.45596
 31
0.0
  0
LINE
  5
205
330
1FC
100
AcDbEntity
  8
LC-001-100-D00-0
 62
     7
370
    50
100
AcDbLine
 10
297.987675
 20
292.45596
 30
0.0
 11
297.987675
 21
292.45596
 31
0.0
  0
LINE
  5
206
330
1FC
100
AcDbEntity
  8
LC-001-100-D00-0
 62
     7
370
    50
100
AcDbLine
 10
297.987675
 20
292.45596
 30
0.0
 11
298.009158
 21
292.455836
 31
0.0
  0
ENDBLK
  5
1FE
330
1FC
100
AcDbEntity
  8
0
100
AcDbBlockEnd
  0
BLOCK
  5
22C
330
22B
100
AcDbEntity
  8
0
100
AcDbBlockBegin
  2
KLON5
 70
     0
 71
     0
 10
0.0
 20
0.0
 30
0.0
  3
KLON5
  1

  4
KLON5
  0
LINE
  5
22E
330
22B
100
AcDbEntity
  8
LC-001-100-D00-0
 62
     7
370
    15
100
AcDbLine
 10
169.215121
 20
311.400845
 30
0.0
 11
165.060573
 21
303.79692
 31
0.0
  0
LINE
  5
22F
330
22B
100
AcDbEntity
  8
LC-001-100-D00-0
 62
     7
370
    15
100
AcDbLine
 10
165.060573
 20
303.79692
 30
0.0
 11
164.297395
 21
302.400841
 31
0.0
  0
ENDBLK
  5
22D
330
22B
100
AcDbEntity
  8
0
100
AcDbBlockEnd
  0
BLOCK
  5
238
330
237
100
AcDbEntity
  8
0
100
AcDbBlockBegin
  2
POLY4
 70
     0
 71
     0
 10
0.0
 20
0.0
 30
0.0
  3
POLY4
  1

  4
POLY4
  0
LINE
  5
23A
330
237
100
AcDbEntity
  8
LC-001-100-D00-0
 62
     7
370
    50
100
AcDbLine
 10
98.570686
 20
302.400841
 30
0.0
 11
98.570686
 21
302.400841
 31
0.0
  0
LINE
  5
23B
330
237
100
AcDbEntity
  8
LC-001-100-D00-0
 62
     7
370
    50
100
AcDbLine
 10
98.570686
 20
302.400841
 30
0.0
 11
98.31629
 21
302.866191
 31
0.0
  0
LINE
  5
23C
330
237
100
AcDbEntity
  8
LC-001-100-D00-0
 62
     7
370
    50
100
AcDbLine
 10
98.31629
 20
302.866191
 30
0.0
 11
98.31629
 21
302.866191
 31
0.0
  0
LINE
  5
23D
330
237
100
AcDbEntity
  8
LC-001-100-D00-0
 62
     7
370
    50
100
AcDbLine
 10
98.31629
 20
302.866191
 30
0.0
 11
96.676437
 21
305.865859
 31
0.0
  0
LINE
  5
23E
330
237
100
AcDbEntity
  8
LC-001-100-D00-0
 62
     7
370
    50
100
AcDbLine
 10
96.676437
 20
305.865859
 30
0.0
 11
96.676437
 21
305.865859
 31
0.0
  0
LINE
  5
23F
330
237
100
AcDbEntity
  8
LC-001-100-D00-0
 62
     7
370
    50
100
AcDbLine
 10
96.676437
 20
305.865859
 30
0.0
 11
95.037577
 21
308.866069
 31
0.0
  0
LINE
  5
240
330
237
100
AcDbEntity
  8
LC-001-100-D00-0
 62
     7
370
    50
100
AcDbLine
 10
95.037577
 20
308.866069
 30
0.0
 11
95.037577
 21
308.866069
 31
0.0
  0
LINE
  5
241
330
237
100
AcDbEntity
  8
LC-001-100-D00-0
 62
     7
370
    50
100
AcDbLine
 10
95.037577
 20
308.866069
 30
0.0
 11
93.652961
 21
311.400845
 31
0.0
  0
ENDBLK
  5
239
330
237
100
AcDbEntity
  8
0
100
AcDbBlockEnd
  0
BLOCK
  5
2C5
330
2C4
100
AcDbEntity
  8
0
100
AcDbBlockBegin
  2
POLY5
 70
     0
 71
     0
 10
0.0
 20
0.0
 30
0.0
  3
POLY5
  1

  4
POLY5
  0
LINE
  5
2C7
330
2C4
100
AcDbEntity
  8
LC-001-100-D00-0
 62
     7
370
    50
100
AcDbLine
 10
184.787788
 20
263.900841
 30
0.0
 11
184.787788
 21
263.900841
 31
0.0
  0
LINE
  5
2C8
330
2C4
100
AcDbEntity
  8
LC-001-100-D00-0
 62
     7
370
    50
100
AcDbLine
 10
184.787788
 20
263.900841
 30
0.0
 11
184.611104
 21
264.730231
 31
0.0
  0
LINE
  5
2C9
330
2C4
100
AcDbEntity
  8
LC-001-100-D00-0
 62
     7
370
    50
100
AcDbLine
 10
184.611104
 20
264.730231
 30
0.0
 11
184.611104
 21
264.730231
 31
0.0
  0
LINE
  5
2CA
330
2C4
100
AcDbEntity
  8
LC-001-100-D00-0
 62
     7
370
    50
100
AcDbLine
 10
184.611104
 20
264.730231
 30
0.0
 11
184.252823
 21
266.412071
 31
0.0
  0
LINE
  5
2CB
330
2C4
100
AcDbEntity
  8
LC-001-100-D00-0
 62
     7
370
    50
100
AcDbLine
 10
184.252823
 20
266.412071
 30
0.0
 11
184.252823
 21
266.412071
 31
0.0
  0
LINE
  5
2CC
330
2C4
100
AcDbEntity
  8
LC-001-100-D00-0
 62
     7
370
    50
100
AcDbLine
 10
184.252823
 20
266.412071
 30
0.0
 11
183.813612
 21
269.281562
 31
0.0
  0
LINE
  5
2CD
330
2C4
100
AcDbEntity
  8
LC-001-100-D00-0
 62
     7
370
    50
100
AcDbLine
 10
183.813612
 20
269.281562
 30
0.0
 11
183.813612
 21
269.281562
 31
0.0
  0
LINE
  5
2CE
330
2C4
100
AcDbEntity
  8
LC-001-100-D00-0
 62
     7
370
    50
100
AcDbLine
 10
183.813612
 20
269.281562
 30
0.0
 11
183.509934
 21
272.356198
 31
0.0
  0
LINE
  5
2CF
330
2C4
100
AcDbEntity
  8
LC-001-100-D00-0
 62
     7
370
    50
100
AcDbLine
 10
183.509934
 20
272.356198
 30
0.0
 11
183.509934
 21
272.356198
 31
0.0
  0
LINE
  5
2D0
330
2C4
100
AcDbEntity
  8
LC-001-100-D00-0
 62
     7
370
    50
100
AcDbLine
 10
183.509934
 20
272.356198
 30
0.0
 11
183.390827
 21
275.481767
 31
0.0
  0
LINE
  5
2D1
330
2C4
100
AcDbEntity
  8
LC-001-100-D00-0
 62
     7
370
    50
100
AcDbLine
 10
183.390827
 20
275.481767
 30
0.0
 11
183.390827
 21
275.481767
 31
0.0
  0
LINE
  5
2D2
330
2C4
100
AcDbEntity
  8
LC-001-100-D00-0
 62
     7
370
    50
100
AcDbLine
 10
183.390827
 20
275.481767
 30
0.0
 11
183.461502
 21
278.604185
 31
0.0
  0
LINE
  5
2D3
330
2C4
100
AcDbEntity
  8
LC-001-100-D00-0
 62
     7
370
    50
100
AcDbLine
 10
183.461502
 20
278.604185
 30
0.0
 11
183.461502
 21
278.604185
 31
0.0
  0
LINE
  5
2D4
330
2C4
100
AcDbEntity
  8
LC-001-100-D00-0
 62
     7
370
    50
100
AcDbLine
 10
183.461502
 20
278.604185
 30
0.0
 11
183.702417
 21
281.570653
 31
0.0
  0
LINE
  5
2D5
330
2C4
100
AcDbEntity
  8
LC-001-100-D00-0
 62
     7
370
    50
100
AcDbLine
 10
183.702417
 20
281.570653
 30
0.0
 11
183.702417
 21
281.570653
 31
0.0
  0
LINE
  5
2D6
330
2C4
100
AcDbEntity
  8
LC-001-100-D00-0
 62
     7
370
    50
100
AcDbLine
 10
183.702417
 20
281.570653
 30
0.0
 11
184.087827
 21
284.396084
 31
0.0
  0
LINE
  5
2D7
330
2C4
100
AcDbEntity
  8
LC-001-100-D00-0
 62
     7
370
    50
100
AcDbLine
 10
184.087827
 20
284.396084
 30
0.0
 11
184.087827
 21
284.396084
 31
0.0
  0
LINE
  5
2D8
330
2C4
100
AcDbEntity
  8
LC-001-100-D00-0
 62
     7
370
    50
100
AcDbLine
 10
184.087827
 20
284.396084
 30
0.0
 11
184.621041
 21
287.253449
 31
0.0
  0
LINE
  5
2D9
330
2C4
100
AcDbEntity
  8
LC-001-100-D00-0
 62
     7
370
    50
100
AcDbLine
 10
184.621041
 20
287.253449
 30
0.0
 11
184.621041
 21
287.253449
 31
0.0
  0
LINE
  5
2DA
330
2C4
100
AcDbEntity
  8
LC-001-100-D00-0
 62
     7
370
    50
100
AcDbLine
 10
184.621041
 20
287.253449
 30
0.0
 11
185.227804
 21
289.789842
 31
0.0
  0
LINE
  5
2DB
330
2C4
100
AcDbEntity
  8
LC-001-100-D00-0
 62
     7
370
    50
100
AcDbLine
 10
185.227804
 20
289.789842
 30
0.0
 11
185.227804
 21
289.789842
 31
0.0
  0
LINE
  5
2DC
330
2C4
100
AcDbEntity
  8
LC-001-100-D00-0
 62
     7
370
    50
100
AcDbLine
 10
185.227804
 20
289.789842
 30
0.0
 11
185.817756
 21
291.896968
 31
0.0
  0
LINE
  5
2DD
330
2C4
100
AcDbEntity
  8
LC-001-100-D00-0
 62
     7
370
    50
100
AcDbLine
 10
185.817756
 20
291.896968
 30
0.0
 11
185.817756
 21
291.896968
 31
0.0
  0
LINE
  5
2DE
330
2C4
100
AcDbEntity
  8
LC-001-100-D00-0
 62
     7
370
    50
100
AcDbLine
 10
185.817756
 20
291.896968
 30
0.0
 11
186.283001
 21
293.400937
 31
0.0
  0
LINE
  5
2DF
330
2C4
100
AcDbEntity
  8
LC-001-100-D00-0
 62
     7
370
    50
100
AcDbLine
 10
186.283001
 20
293.400937
 30
0.0
 11
186.283001
 21
293.400937
 31
0.0
  0
LINE
  5
2E0
330
2C4
100
AcDbEntity
  8
LC-001-100-D00-0
 62
     7
370
    50
100
AcDbLine
 10
186.283001
 20
293.400937
 30
0.0
 11
186.622291
 21
294.428893
 31
0.0
  0
LINE
  5
2E1
330
2C4
100
AcDbEntity
  8
LC-001-100-D00-0
 62
     7
370
    50
100
AcDbLine
 10
186.622291
 20
294.428893
 30
0.0
 11
186.622291
 21
294.428893
 31
0.0
  0
LINE
  5
2E2
330
2C4
100
AcDbEntity
  8
LC-001-100-D00-0
 62
     7
370
    50
100
AcDbLine
 10
186.622291
 20
294.428893
 30
0.0
 11
186.768763
 21
294.856297
 31
0.0
  0
LINE
  5
2E3
330
2C4
100
AcDbEntity
  8
LC-001-100-D00-0
 62
     7
370
    50
100
AcDbLine
 10
186.768763
 20
294.856297
 30
0.0
 11
186.768763
 21
294.856297
 31
0.0
  0
LINE
  5
2E4
330
2C4
100
AcDbEntity
  8
LC-001-100-D00-0
 62
     7
370
    50
100
AcDbLine
 10
186.768763
 20
294.856297
 30
0.0
 11
186.780536
 21
294.890614
 31
0.0
  0
LINE
  5
2E5
330
2C4
100
AcDbEntity
  8
LC-001-100-D00-0
 62
     7
370
    50
100
AcDbLine
 10
186.780536
 20
294.890614
 30
0.0
 11
186.780536
 21
294.890614
 31
0.0
  0
LINE
  5
2E6
330
2C4
100
AcDbEntity
  8
LC-001-100-D00-0
 62
     7
370
    50
100
AcDbLine
 10
186.780536
 20
294.890614
 30
0.0
 11
186.784045
 21
294.900841
 31
0.0
  0
ENDBLK
  5
2C6
330
2C4
100
AcDbEntity
  8
0
100
AcDbBlockEnd
  0
BLOCK
  5
2E9
330
2E8
100
AcDbEntity
  8
0
100
AcDbBlockBegin
  2
POLY6
 70
     0
 71
     0
 10
0.0
 20
0.0
 30
0.0
  3
POLY6
  1

  4
POLY6
  0
LINE
  5
2EB
330
2E8
100
AcDbEntity
  8
LC-001-100-D00-0
 62
     7
370
    50
100
AcDbLine
 10
179.784038
 20
256.900842
 30
0.0
 11
179.784038
 21
256.900842
 31
0.0
  0
LINE
  5
2EC
330
2E8
100
AcDbEntity
  8
LC-001-100-D00-0
 62
     7
370
    50
100
AcDbLine
 10
179.784038
 20
256.900842
 30
0.0
 11
179.788807
 21
256.900845
 31
0.0
  0
LINE
  5
2ED
330
2E8
100
AcDbEntity
  8
LC-001-100-D00-0
 62
     7
370
    50
100
AcDbLine
 10
179.788807
 20
256.900845
 30
0.0
 11
179.788807
 21
256.900845
 31
0.0
  0
LINE
  5
2EE
330
2E8
100
AcDbEntity
  8
LC-001-100-D00-0
 62
     7
370
    50
100
AcDbLine
 10
179.788807
 20
256.900845
 30
0.0
 11
180.400627
 21
256.901274
 31
0.0
  0
LINE
  5
2EF
330
2E8
100
AcDbEntity
  8
LC-001-100-D00-0
 62
     7
370
    50
100
AcDbLine
 10
180.400627
 20
256.901274
 30
0.0
 11
180.400627
 21
256.901274
 31
0.0
  0
LINE
  5
2F0
330
2E8
100
AcDbEntity
  8
LC-001-100-D00-0
 62
     7
370
    50
100
AcDbLine
 10
180.400627
 20
256.901274
 30
0.0
 11
181.590049
 21
257.064579
 31
0.0
  0
LINE
  5
2F1
330
2E8
100
AcDbEntity
  8
LC-001-100-D00-0
 62
     7
370
    50
100
AcDbLine
 10
181.590049
 20
257.064579
 30
0.0
 11
181.590049
 21
257.064579
 31
0.0
  0
LINE
  5
2F2
330
2E8
100
AcDbEntity
  8
LC-001-100-D00-0
 62
     7
370
    50
100
AcDbLine
 10
181.590049
 20
257.064579
 30
0.0
 11
182.99299
 21
257.766945
 31
0.0
  0
LINE
  5
2F3
330
2E8
100
AcDbEntity
  8
LC-001-100-D00-0
 62
     7
370
    50
100
AcDbLine
 10
182.99299
 20
257.766945
 30
0.0
 11
182.99299
 21
257.766945
 31
0.0
  0
LINE
  5
2F4
330
2E8
100
AcDbEntity
  8
LC-001-100-D00-0
 62
     7
370
    50
100
AcDbLine
 10
182.99299
 20
257.766945
 30
0.0
 11
184.016312
 21
258.812581
 31
0.0
  0
LINE
  5
2F5
330
2E8
100
AcDbEntity
  8
LC-001-100-D00-0
 62
     7
370
    50
100
AcDbLine
 10
184.016312
 20
258.812581
 30
0.0
 11
184.016312
 21
258.812581
 31
0.0
  0
LINE
  5
2F6
330
2E8
100
AcDbEntity
  8
LC-001-100-D00-0
 62
     7
370
    50
100
AcDbLine
 10
184.016312
 20
258.812581
 30
0.0
 11
184.635019
 21
259.962686
 31
0.0
  0
LINE
  5
2F7
330
2E8
100
AcDbEntity
  8
LC-001-100-D00-0
 62
     7
370
    50
100
AcDbLine
 10
184.635019
 20
259.962686
 30
0.0
 11
184.635019
 21
259.962686
 31
0.0
  0
LINE
  5
2F8
330
2E8
100
AcDbEntity
  8
LC-001-100-D00-0
 62
     7
370
    50
100
AcDbLine
 10
184.635019
 20
259.962686
 30
0.0
 11
184.959175
 21
261.287099
 31
0.0
  0
LINE
  5
2F9
330
2E8
100
AcDbEntity
  8
LC-001-100-D00-0
 62
     7
370
    50
100
AcDbLine
 10
184.959175
 20
261.287099
 30
0.0
 11
184.959175
 21
261.287099
 31
0.0
  0
LINE
  5
2FA
330
2E8
100
AcDbEntity
  8
LC-001-100-D00-0
 62
     7
370
    50
100
AcDbLine
 10
184.959175
 20
261.287099
 30
0.0
 11
185.022393
 21
262.580589
 31
0.0
  0
LINE
  5
2FB
330
2E8
100
AcDbEntity
  8
LC-001-100-D00-0
 62
     7
370
    50
100
AcDbLine
 10
185.022393
 20
262.580589
 30
0.0
 11
185.022393
 21
262.580589
 31
0.0
  0
LINE
  5
2FC
330
2E8
100
AcDbEntity
  8
LC-001-100-D00-0
 62
     7
370
    50
100
AcDbLine
 10
185.022393
 20
262.580589
 30
0.0
 11
184.858718
 21
263.501678
 31
0.0
  0
LINE
  5
2FD
330
2E8
100
AcDbEntity
  8
LC-001-100-D00-0
 62
     7
370
    50
100
AcDbLine
 10
184.858718
 20
263.501678
 30
0.0
 11
184.858718
 21
263.501678
 31
0.0
  0
LINE
  5
2FE
330
2E8
100
AcDbEntity
  8
LC-001-100-D00-0
 62
     7
370
    50
100
AcDbLine
 10
184.858718
 20
263.501678
 30
0.0
 11
184.787788
 21
263.900841
 31
0.0
  0
ENDBLK
  5
2EA
330
2E8
100
AcDbEntity
  8
0
100
AcDbBlockEnd
  0
BLOCK
  5
361
330
360
100
AcDbEntity
  8
0
100
AcDbBlockBegin
  2
POLY7
 70
     0
 71
     0
 10
0.0
 20
0.0
 30
0.0
  3
POLY7
  1

  4
POLY7
  0
LINE
  5
363
330
360
100
AcDbEntity
  8
LC-001-100-D00-0
 62
     7
370
    50
100
AcDbLine
 10
22.434042
 20
234.397455
 30
0.0
 11
22.434042
 21
234.397455
 31
0.0
  0
LINE
  5
364
330
360
100
AcDbEntity
  8
LC-001-100-D00-0
 62
     7
370
    50
100
AcDbLine
 10
22.434042
 20
234.397455
 30
0.0
 11
22.554262
 21
234.397455
 31
0.0
  0
LINE
  5
365
330
360
100
AcDbEntity
  8
LC-001-100-D00-0
 62
     7
370
    50
100
AcDbLine
 10
22.554262
 20
234.397455
 30
0.0
 11
22.554262
 21
234.397455
 31
0.0
  0
LINE
  5
366
330
360
100
AcDbEntity
  8
LC-001-100-D00-0
 62
     7
370
    50
100
AcDbLine
 10
22.554262
 20
234.397455
 30
0.0
 11
22.7392
 21
234.397455
 31
0.0
  0
LINE
  5
367
330
360
100
AcDbEntity
  8
LC-001-100-D00-0
 62
     7
370
    50
100
AcDbLine
 10
22.7392
 20
234.397455
 30
0.0
 11
22.7392
 21
234.397455
 31
0.0
  0
LINE
  5
368
330
360
100
AcDbEntity
  8
LC-001-100-D00-0
 62
     7
370
    50
100
AcDbLine
 10
22.7392
 20
234.397455
 30
0.0
 11
23.861487
 21
234.397455
 31
0.0
  0
LINE
  5
369
330
360
100
AcDbEntity
  8
LC-001-100-D00-0
 62
     7
370
    50
100
AcDbLine
 10
23.861487
 20
234.397455
 30
0.0
 11
23.861487
 21
234.397455
 31
0.0
  0
LINE
  5
36A
330
360
100
AcDbEntity
  8
LC-001-100-D00-0
 62
     7
370
    50
100
AcDbLine
 10
23.861487
 20
234.397455
 30
0.0
 11
25.023032
 21
234.397455
 31
0.0
  0
LINE
  5
36B
330
360
100
AcDbEntity
  8
LC-001-100-D00-0
 62
     7
370
    50
100
AcDbLine
 10
25.023032
 20
234.397455
 30
0.0
 11
25.023032
 21
234.397455
 31
0.0
  0
LINE
  5
36C
330
360
100
AcDbEntity
  8
LC-001-100-D00-0
 62
     7
370
    50
100
AcDbLine
 10
25.023032
 20
234.397455
 30
0.0
 11
26.464897
 21
234.397455
 31
0.0
  0
LINE
  5
36D
330
360
100
AcDbEntity
  8
LC-001-100-D00-0
 62
     7
370
    50
100
AcDbLine
 10
26.464897
 20
234.397455
 30
0.0
 11
26.464897
 21
234.397455
 31
0.0
  0
LINE
  5
36E
330
360
100
AcDbEntity
  8
LC-001-100-D00-0
 62
     7
370
    50
100
AcDbLine
 10
26.464897
 20
234.397455
 30
0.0
 11
28.560241
 21
234.397455
 31
0.0
  0
LINE
  5
36F
330
360
100
AcDbEntity
  8
LC-001-100-D00-0
 62
     7
370
    50
100
AcDbLine
 10
28.560241
 20
234.397455
 30
0.0
 11
28.560241
 21
234.397455
 31
0.0
  0
LINE
  5
370
330
360
100
AcDbEntity
  8
LC-001-100-D00-0
 62
     7
370
    50
100
AcDbLine
 10
28.560241
 20
234.397455
 30
0.0
 11
31.434041
 21
234.397455
 31
0.0
  0
LINE
  5
371
330
360
100
AcDbEntity
  8
LC-001-100-D00-0
 62
     7
370
    50
100
AcDbLine
 10
31.434041
 20
234.397455
 30
0.0
 11
31.434041
 21
234.397455
 31
0.0
  0
LINE
  5
372
330
360
100
AcDbEntity
  8
LC-001-100-D00-0
 62
     7
370
    50
100
AcDbLine
 10
31.434041
 20
234.397455
 30
0.0
 11
34.30784
 21
234.397455
 31
0.0
  0
LINE
  5
373
330
360
100
AcDbEntity
  8
LC-001-100-D00-0
 62
     7
370
    50
100
AcDbLine
 10
34.30784
 20
234.397455
 30
0.0
 11
34.30784
 21
234.397455
 31
0.0
  0
LINE
  5
374
330
360
100
AcDbEntity
  8
LC-001-100-D00-0
 62
     7
370
    50
100
AcDbLine
 10
34.30784
 20
234.397455
 30
0.0
 11
36.403184
 21
234.397455
 31
0.0
  0
LINE
  5
375
330
360
100
AcDbEntity
  8
LC-001-100-D00-0
 62
     7
370
    50
100
AcDbLine
 10
36.403184
 20
234.397455
 30
0.0
 11
36.403184
 21
234.397455
 31
0.0
  0
LINE
  5
376
330
360
100
AcDbEntity
  8
LC-001-100-D00-0
 62
     7
370
    50
100
AcDbLine
 10
36.403184
 20
234.397455
 30
0.0
 11
37.845048
 21
234.397455
 31
0.0
  0
LINE
  5
377
330
360
100
AcDbEntity
  8
LC-001-100-D00-0
 62
     7
370
    50
100
AcDbLine
 10
37.845048
 20
234.397455
 30
0.0
 11
37.845048
 21
234.397455
 31
0.0
  0
LINE
  5
378
330
360
100
AcDbEntity
  8
LC-001-100-D00-0
 62
     7
370
    50
100
AcDbLine
 10
37.845048
 20
234.397455
 30
0.0
 11
39.006598
 21
234.397455
 31
0.0
  0
LINE
  5
379
330
360
100
AcDbEntity
  8
LC-001-100-D00-0
 62
     7
370
    50
100
AcDbLine
 10
39.006598
 20
234.397455
 30
0.0
 11
39.006598
 21
234.397455
 31
0.0
  0
LINE
  5
37A
330
360
100
AcDbEntity
  8
LC-001-100-D00-0
 62
     7
370
    50
100
AcDbLine
 10
39.006598
 20
234.397455
 30
0.0
 11
40.128884
 21
234.397455
 31
0.0
  0
LINE
  5
37B
330
360
100
AcDbEntity
  8
LC-001-100-D00-0
 62
     7
370
    50
100
AcDbLine
 10
40.128884
 20
234.397455
 30
0.0
 11
40.128884
 21
234.397455
 31
0.0
  0
LINE
  5
37C
330
360
100
AcDbEntity
  8
LC-001-100-D00-0
 62
     7
370
    50
100
AcDbLine
 10
40.128884
 20
234.397455
 30
0.0
 11
40.31382
 21
234.397455
 31
0.0
  0
LINE
  5
37D
330
360
100
AcDbEntity
  8
LC-001-100-D00-0
 62
     7
370
    50
100
AcDbLine
 10
40.31382
 20
234.397455
 30
0.0
 11
40.31382
 21
234.397455
 31
0.0
  0
LINE
  5
37E
330
360
100
AcDbEntity
  8
LC-001-100-D00-0
 62
     7
370
    50
100
AcDbLine
 10
40.31382
 20
234.397455
 30
0.0
 11
40.434041
 21
234.397455
 31
0.0
  0
ENDBLK
  5
362
330
360
100
AcDbEntity
  8
0
100
AcDbBlockEnd
  0
BLOCK
  5
382
330
381
100
AcDbEntity
  8
0
100
AcDbBlockBegin
  2
POLY8
 70
     0
 71
     0
 10
0.0
 20
0.0
 30
0.0
  3
POLY8
  1

  4
POLY8
  0
LINE
  5
384
330
381
100
AcDbEntity
  8
LC-001-100-D00-0
 62
     7
370
    50
100
AcDbLine
 10
222.434045
 20
234.397455
 30
0.0
 11
222.434045
 21
234.397455
 31
0.0
  0
LINE
  5
385
330
381
100
AcDbEntity
  8
LC-001-100-D00-0
 62
     7
370
    50
100
AcDbLine
 10
222.434045
 20
234.397455
 30
0.0
 11
222.554262
 21
234.397455
 31
0.0
  0
LINE
  5
386
330
381
100
AcDbEntity
  8
LC-001-100-D00-0
 62
     7
370
    50
100
AcDbLine
 10
222.554262
 20
234.397455
 30
0.0
 11
222.554262
 21
234.397455
 31
0.0
  0
LINE
  5
387
330
381
100
AcDbEntity
  8
LC-001-100-D00-0
 62
     7
370
    50
100
AcDbLine
 10
222.554262
 20
234.397455
 30
0.0
 11
222.739195
 21
234.397455
 31
0.0
  0
LINE
  5
388
330
381
100
AcDbEntity
  8
LC-001-100-D00-0
 62
     7
370
    50
100
AcDbLine
 10
222.739195
 20
234.397455
 30
0.0
 11
222.739195
 21
234.397455
 31
0.0
  0
LINE
  5
389
330
381
100
AcDbEntity
  8
LC-001-100-D00-0
 62
     7
370
    50
100
AcDbLine
 10
222.739195
 20
234.397455
 30
0.0
 11
223.861483
 21
234.397455
 31
0.0
  0
LINE
  5
38A
330
381
100
AcDbEntity
  8
LC-001-100-D00-0
 62
     7
370
    50
100
AcDbLine
 10
223.861483
 20
234.397455
 30
0.0
 11
223.861483
 21
234.397455
 31
0.0
  0
LINE
  5
38B
330
381
100
AcDbEntity
  8
LC-001-100-D00-0
 62
     7
370
    50
100
AcDbLine
 10
223.861483
 20
234.397455
 30
0.0
 11
225.023028
 21
234.397455
 31
0.0
  0
LINE
  5
38C
330
381
100
AcDbEntity
  8
LC-001-100-D00-0
 62
     7
370
    50
100
AcDbLine
 10
225.023028
 20
234.397455
 30
0.0
 11
225.023028
 21
234.397455
 31
0.0
  0
LINE
  5
38D
330
381
100
AcDbEntity
  8
LC-001-100-D00-0
 62
     7
370
    50
100
AcDbLine
 10
225.023028
 20
234.397455
 30
0.0
 11
226.4649
 21
234.397455
 31
0.0
  0
LINE
  5
38E
330
381
100
AcDbEntity
  8
LC-001-100-D00-0
 62
     7
370
    50
100
AcDbLine
 10
226.4649
 20
234.397455
 30
0.0
 11
226.4649
 21
234.397455
 31
0.0
  0
LINE
  5
38F
330
381
100
AcDbEntity
  8
LC-001-100-D00-0
 62
     7
370
    50
100
AcDbLine
 10
226.4649
 20
234.397455
 30
0.0
 11
228.560245
 21
234.397455
 31
0.0
  0
LINE
  5
390
330
381
100
AcDbEntity
  8
LC-001-100-D00-0
 62
     7
370
    50
100
AcDbLine
 10
228.560245
 20
234.397455
 30
0.0
 11
228.560245
 21
234.397455
 31
0.0
  0
LINE
  5
391
330
381
100
AcDbEntity
  8
LC-001-100-D00-0
 62
     7
370
    50
100
AcDbLine
 10
228.560245
 20
234.397455
 30
0.0
 11
231.434043
 21
234.397455
 31
0.0
  0
LINE
  5
392
330
381
100
AcDbEntity
  8
LC-001-100-D00-0
 62
     7
370
    50
100
AcDbLine
 10
231.434043
 20
234.397455
 30
0.0
 11
231.434043
 21
234.397455
 31
0.0
  0
LINE
  5
393
330
381
100
AcDbEntity
  8
LC-001-100-D00-0
 62
     7
370
    50
100
AcDbLine
 10
231.434043
 20
234.397455
 30
0.0
 11
234.30784
 21
234.397455
 31
0.0
  0
LINE
  5
394
330
381
100
AcDbEntity
  8
LC-001-100-D00-0
 62
     7
370
    50
100
AcDbLine
 10
234.30784
 20
234.397455
 30
0.0
 11
234.30784
 21
234.397455
 31
0.0
  0
LINE
  5
395
330
381
100
AcDbEntity
  8
LC-001-100-D00-0
 62
     7
370
    50
100
AcDbLine
 10
234.30784
 20
234.397455
 30
0.0
 11
236.403181
 21
234.397455
 31
0.0
  0
LINE
  5
396
330
381
100
AcDbEntity
  8
LC-001-100-D00-0
 62
     7
370
    50
100
AcDbLine
 10
236.403181
 20
234.397455
 30
0.0
 11
236.403181
 21
234.397455
 31
0.0
  0
LINE
  5
397
330
381
100
AcDbEntity
  8
LC-001-100-D00-0
 62
     7
370
    50
100
AcDbLine
 10
236.403181
 20
234.397455
 30
0.0
 11
237.845053
 21
234.397455
 31
0.0
  0
LINE
  5
398
330
381
100
AcDbEntity
  8
LC-001-100-D00-0
 62
     7
370
    50
100
AcDbLine
 10
237.845053
 20
234.397455
 30
0.0
 11
237.845053
 21
234.397455
 31
0.0
  0
LINE
  5
399
330
381
100
AcDbEntity
  8
LC-001-100-D00-0
 62
     7
370
    50
100
AcDbLine
 10
237.845053
 20
234.397455
 30
0.0
 11
239.006598
 21
234.397455
 31
0.0
  0
LINE
  5
39A
330
381
100
AcDbEntity
  8
LC-001-100-D00-0
 62
     7
370
    50
100
AcDbLine
 10
239.006598
 20
234.397455
 30
0.0
 11
239.006598
 21
234.397455
 31
0.0
  0
LINE
  5
39B
330
381
100
AcDbEntity
  8
LC-001-100-D00-0
 62
     7
370
    50
100
AcDbLine
 10
239.006598
 20
234.397455
 30
0.0
 11
240.128886
 21
234.397455
 31
0.0
  0
LINE
  5
39C
330
381
100
AcDbEntity
  8
LC-001-100-D00-0
 62
     7
370
    50
100
AcDbLine
 10
240.128886
 20
234.397455
 30
0.0
 11
240.128886
 21
234.397455
 31
0.0
  0
LINE
  5
39D
330
381
100
AcDbEntity
  8
LC-001-100-D00-0
 62
     7
370
    50
100
AcDbLine
 10
240.128886
 20
234.397455
 30
0.0
 11
240.313819
 21
234.397455
 31
0.0
  0
LINE
  5
39E
330
381
100
AcDbEntity
  8
LC-001-100-D00-0
 62
     7
370
    50
100
AcDbLine
 10
240.313819
 20
234.397455
 30
0.0
 11
240.313819
 21
234.397455
 31
0.0
  0
LINE
  5
39F
330
381
100
AcDbEntity
  8
LC-001-100-D00-0
 62
     7
370
    50
100
AcDbLine
 10
240.313819
 20
234.397455
 30
0.0
 11
240.434036
 21
234.397455
 31
0.0
  0
ENDBLK
  5
383
330
381
100
AcDbEntity
  8
0
100
AcDbBlockEnd
  0
BLOCK
  5
3AB
330
3AA
100
AcDbEntity
  8
0
100
AcDbBlockBegin
  2
KLON6
 70
     0
 71
     0
 10
0.0
 20
0.0
 30
0.0
  3
KLON6
  1

  4
KLON6
  0
LINE
  5
3AD
330
3AA
100
AcDbEntity
  8
LC-001-100-D00-0
 62
     7
370
    25
100
AcDbLine
 10
189.683285
 20
297.400842
 30
0.0
 11
189.284041
 21
297.800087
 31
0.0
  0
LINE
  5
3AE
330
3AA
100
AcDbEntity
  8
LC-001-100-D00-0
 62
     7
370
    25
100
AcDbLine
 10
198.663542
 20
297.400842
 30
0.0
 11
189.284041
 21
306.780343
 31
0.0
  0
LINE
  5
3AF
330
3AA
100
AcDbEntity
  8
LC-001-100-D00-0
 62
     7
370
    25
100
AcDbLine
 10
207.643798
 20
297.400842
 30
0.0
 11
196.434041
 21
308.610599
 31
0.0
  0
LINE
  5
3B0
330
3AA
100
AcDbEntity
  8
LC-001-100-D00-0
 62
     7
370
    25
100
AcDbLine
 10
195.643798
 20
309.400842
 30
0.0
 11
189.284041
 21
315.760599
 31
0.0
  0
LINE
  5
3B1
330
3AA
100
AcDbEntity
  8
LC-001-100-D00-0
 62
     7
370
    25
100
AcDbLine
 10
211.434041
 20
302.590855
 30
0.0
 11
192.934041
 21
321.090855
 31
0.0
  0
LINE
  5
3B2
330
3AA
100
AcDbEntity
  8
LC-001-100-D00-0
 62
     7
370
    25
100
AcDbLine
 10
217.60431
 20
305.400842
 30
0.0
 11
198.60431
 21
324.400842
 31
0.0
  0
LINE
  5
3B3
330
3AA
100
AcDbEntity
  8
LC-001-100-D00-0
 62
     7
370
    25
100
AcDbLine
 10
226.584566
 20
305.400842
 30
0.0
 11
207.584566
 21
324.400842
 31
0.0
  0
LINE
  5
3B4
330
3AA
100
AcDbEntity
  8
LC-001-100-D00-0
 62
     7
370
    25
100
AcDbLine
 10
235.564822
 20
305.400842
 30
0.0
 11
216.564822
 21
324.400842
 31
0.0
  0
LINE
  5
3B5
330
3AA
100
AcDbEntity
  8
LC-001-100-D00-0
 62
     7
370
    25
100
AcDbLine
 10
244.545078
 20
305.400842
 30
0.0
 11
225.545078
 21
324.400842
 31
0.0
  0
LINE
  5
3B6
330
3AA
100
AcDbEntity
  8
LC-001-100-D00-0
 62
     7
370
    25
100
AcDbLine
 10
253.525334
 20
305.400842
 30
0.0
 11
234.525334
 21
324.400842
 31
0.0
  0
LINE
  5
3B7
330
3AA
100
AcDbEntity
  8
LC-001-100-D00-0
 62
     7
370
    25
100
AcDbLine
 10
258.843499
 20
309.062934
 30
0.0
 11
243.505591
 21
324.400842
 31
0.0
  0
LINE
  5
3B8
330
3AA
100
AcDbEntity
  8
LC-001-100-D00-0
 62
     7
370
    25
100
AcDbLine
 10
255.803863
 20
321.082826
 30
0.0
 11
252.485847
 21
324.400842
 31
0.0
  0
ENDBLK
  5
3AC
330
3AA
100
AcDbEntity
  8
0
100
AcDbBlockEnd
  0
BLOCK
  5
3BB
330
3BA
100
AcDbEntity
  8
0
100
AcDbBlockBegin
  2
KLON7
 70
     0
 71
     0
 10
0.0
 20
0.0
 30
0.0
  3
KLON7
  1

  4
KLON7
  0
LINE
  5
3BD
330
3BA
100
AcDbEntity
  8
LC-001-100-D00-0
 62
     7
370
    25
100
AcDbLine
 10
13.078163
 20
294.400842
 30
0.0
 11
6.077441
 21
301.401564
 31
0.0
  0
LINE
  5
3BE
330
3BA
100
AcDbEntity
  8
LC-001-100-D00-0
 62
     7
370
    25
100
AcDbLine
 10
22.058419
 20
294.400842
 30
0.0
 11
4.5943
 21
311.864962
 31
0.0
  0
LINE
  5
3BF
330
3BA
100
AcDbEntity
  8
LC-001-100-D00-0
 62
     7
370
    25
100
AcDbLine
 10
31.038675
 20
294.400842
 30
0.0
 11
6.492051
 21
318.947466
 31
0.0
  0
LINE
  5
3C0
330
3BA
100
AcDbEntity
  8
LC-001-100-D00-0
 62
     7
370
    25
100
AcDbLine
 10
40.018931
 20
294.400842
 30
0.0
 11
10.018931
 21
324.400842
 31
0.0
  0
LINE
  5
3C1
330
3BA
100
AcDbEntity
  8
LC-001-100-D00-0
 62
     7
370
    25
100
AcDbLine
 10
48.999188
 20
294.400842
 30
0.0
 11
18.999188
 21
324.400842
 31
0.0
  0
LINE
  5
3C2
330
3BA
100
AcDbEntity
  8
LC-001-100-D00-0
 62
     7
370
    25
100
AcDbLine
 10
57.979444
 20
294.400842
 30
0.0
 11
27.979444
 21
324.400842
 31
0.0
  0
LINE
  5
3C3
330
3BA
100
AcDbEntity
  8
LC-001-100-D00-0
 62
     7
370
    25
100
AcDbLine
 10
66.9597
 20
294.400842
 30
0.0
 11
36.9597
 21
324.400842
 31
0.0
  0
LINE
  5
3C4
330
3BA
100
AcDbEntity
  8
LC-001-100-D00-0
 62
     7
370
    25
100
AcDbLine
 10
73.584041
 20
296.756757
 30
0.0
 11
45.939956
 21
324.400842
 31
0.0
  0
LINE
  5
3C5
330
3BA
100
AcDbEntity
  8
LC-001-100-D00-0
 62
     7
370
    25
100
AcDbLine
 10
73.584041
 20
305.737013
 30
0.0
 11
72.420212
 21
306.900842
 31
0.0
  0
LINE
  5
3C6
330
3BA
100
AcDbEntity
  8
LC-001-100-D00-0
 62
     7
370
    25
100
AcDbLine
 10
69.920212
 20
309.400842
 30
0.0
 11
54.920212
 21
324.400842
 31
0.0
  0
LINE
  5
3C7
330
3BA
100
AcDbEntity
  8
LC-001-100-D00-0
 62
     7
370
    25
100
AcDbLine
 10
73.584041
 20
314.717269
 30
0.0
 11
70.900468
 21
317.400842
 31
0.0
  0
LINE
  5
3C8
330
3BA
100
AcDbEntity
  8
LC-001-100-D00-0
 62
     7
370
    25
100
AcDbLine
 10
69.934041
 20
318.367269
 30
0.0
 11
63.900468
 21
324.400842
 31
0.0
  0
ENDBLK
  5
3BC
330
3BA
100
AcDbEntity
  8
0
100
AcDbBlockEnd
  0
BLOCK
  5
3CB
330
3CA
100
AcDbEntity
  8
0
100
AcDbBlockBegin
  2
KLON8
 70
     0
 71
     0
 10
0.0
 20
0.0
 30
0.0
  3
KLON8
  1

  4
KLON8
  0
LINE
  5
3CD
330
3CA
100
AcDbEntity
  8
LC-001-100-D00-0
 62
     7
370
    25
100
AcDbLine
 10
192.183285
 20
294.900842
 30
0.0
 11
189.683285
 21
297.400842
 31
0.0
  0
LINE
  5
3CE
330
3CA
100
AcDbEntity
  8
LC-001-100-D00-0
 62
     7
370
    25
100
AcDbLine
 10
189.284041
 20
297.800087
 30
0.0
 11
186.784041
 21
300.300087
 31
0.0
  0
LINE
  5
3CF
330
3CA
100
AcDbEntity
  8
LC-001-100-D00-0
 62
     7
370
    25
100
AcDbLine
 10
201.163542
 20
294.900842
 30
0.0
 11
198.663542
 21
297.400842
 31
0.0
  0
LINE
  5
3D0
330
3CA
100
AcDbEntity
  8
LC-001-100-D00-0
 62
     7
370
    25
100
AcDbLine
 10
189.491558
 20
306.572826
 30
0.0
 11
187.723791
 21
308.340593
 31
0.0
  0
LINE
  5
3D1
330
3CA
100
AcDbEntity
  8
LC-001-100-D00-0
 62
     7
370
    25
100
AcDbLine
 10
210.143798
 20
294.900842
 30
0.0
 11
207.643798
 21
297.400842
 31
0.0
  0
LINE
  5
3D2
330
3CA
100
AcDbEntity
  8
LC-001-100-D00-0
 62
     7
370
    25
100
AcDbLine
 10
196.434041
 20
308.610599
 30
0.0
 11
195.643798
 21
309.400842
 31
0.0
  0
LINE
  5
3D3
330
3CA
100
AcDbEntity
  8
LC-001-100-D00-0
 62
     7
370
    25
100
AcDbLine
 10
219.124054
 20
294.900842
 30
0.0
 11
215.434041
 21
298.590855
 31
0.0
  0
LINE
  5
3D4
330
3CA
100
AcDbEntity
  8
LC-001-100-D00-0
 62
     7
370
    25
100
AcDbLine
 10
228.10431
 20
294.900842
 30
0.0
 11
220.697353
 21
302.307799
 31
0.0
  0
LINE
  5
3D5
330
3CA
100
AcDbEntity
  8
LC-001-100-D00-0
 62
     7
370
    25
100
AcDbLine
 10
237.084566
 20
294.900842
 30
0.0
 11
235.334566
 21
296.650842
 31
0.0
  0
LINE
  5
3D6
330
3CA
100
AcDbEntity
  8
LC-001-100-D00-0
 62
     7
370
    25
100
AcDbLine
 10
234.534041
 20
297.451367
 30
0.0
 11
231.087059
 21
300.89835
 31
0.0
  0
ENDBLK
  5
3CC
330
3CA
100
AcDbEntity
  8
0
100
AcDbBlockEnd
  0
BLOCK
  5
3D9
330
3D8
100
AcDbEntity
  8
0
100
AcDbBlockBegin
  2
KLON9
 70
     0
 71
     0
 10
0.0
 20
0.0
 30
0.0
  3
KLON9
  1

  4
KLON9
  0
LINE
  5
3DB
330
3D8
100
AcDbEntity
  8
LC-001-100-D00-0
 62
     7
370
    25
100
AcDbLine
 10
79.179407
 20
255.240367
 30
0.0
 11
74.423566
 21
259.996208
 31
0.0
  0
LINE
  5
3DC
330
3D8
100
AcDbEntity
  8
LC-001-100-D00-0
 62
     7
370
    25
100
AcDbLine
 10
88.999188
 20
254.400842
 30
0.0
 11
86.499188
 21
256.900842
 31
0.0
  0
LINE
  5
3DD
330
3D8
100
AcDbEntity
  8
LC-001-100-D00-0
 62
     7
370
    25
100
AcDbLine
 10
80.084041
 20
263.315989
 30
0.0
 11
73.584041
 21
269.815989
 31
0.0
  0
LINE
  5
3DE
330
3D8
100
AcDbEntity
  8
LC-001-100-D00-0
 62
     7
370
    25
100
AcDbLine
 10
103.962723
 20
248.417562
 30
0.0
 11
100.671678
 21
251.708608
 31
0.0
  0
LINE
  5
3DF
330
3D8
100
AcDbEntity
  8
LC-001-100-D00-0
 62
     7
370
    25
100
AcDbLine
 10
80.084041
 20
272.296245
 30
0.0
 11
73.584041
 21
278.796245
 31
0.0
  0
LINE
  5
3E0
330
3D8
100
AcDbEntity
  8
LC-001-100-D00-0
 62
     7
370
    25
100
AcDbLine
 10
112.9597
 20
248.400842
 30
0.0
 11
110.4597
 21
250.900842
 31
0.0
  0
LINE
  5
3E1
330
3D8
100
AcDbEntity
  8
LC-001-100-D00-0
 62
     7
370
    25
100
AcDbLine
 10
80.084041
 20
281.276501
 30
0.0
 11
73.584041
 21
287.776501
 31
0.0
  0
LINE
  5
3E2
330
3D8
100
AcDbEntity
  8
LC-001-100-D00-0
 62
     7
370
    25
100
AcDbLine
 10
121.939956
 20
248.400842
 30
0.0
 11
119.439956
 21
250.900842
 31
0.0
  0
LINE
  5
3E3
330
3D8
100
AcDbEntity
  8
LC-001-100-D00-0
 62
     7
370
    25
100
AcDbLine
 10
80.084041
 20
290.256757
 30
0.0
 11
79.439956
 21
290.900842
 31
0.0
  0
LINE
  5
3E4
330
3D8
100
AcDbEntity
  8
LC-001-100-D00-0
 62
     7
370
    25
100
AcDbLine
 10
76.084041
 20
294.256757
 30
0.0
 11
73.584041
 21
296.756757
 31
0.0
  0
LINE
  5
3E5
330
3D8
100
AcDbEntity
  8
LC-001-100-D00-0
 62
     7
370
    25
100
AcDbLine
 10
130.920212
 20
248.400842
 30
0.0
 11
128.420212
 21
250.900842
 31
0.0
  0
LINE
  5
3E6
330
3D8
100
AcDbEntity
  8
LC-001-100-D00-0
 62
     7
370
    25
100
AcDbLine
 10
76.084041
 20
303.237013
 30
0.0
 11
73.584041
 21
305.737013
 31
0.0
  0
LINE
  5
3E7
330
3D8
100
AcDbEntity
  8
LC-001-100-D00-0
 62
     7
370
    25
100
AcDbLine
 10
72.420212
 20
306.900842
 30
0.0
 11
69.920212
 21
309.400842
 31
0.0
  0
LINE
  5
3E8
330
3D8
100
AcDbEntity
  8
LC-001-100-D00-0
 62
     7
370
    25
100
AcDbLine
 10
139.900468
 20
248.400842
 30
0.0
 11
137.400468
 21
250.900842
 31
0.0
  0
LINE
  5
3E9
330
3D8
100
AcDbEntity
  8
LC-001-100-D00-0
 62
     7
370
    25
100
AcDbLine
 10
148.880724
 20
248.400842
 30
0.0
 11
146.380724
 21
250.900842
 31
0.0
  0
LINE
  5
3EA
330
3D8
100
AcDbEntity
  8
LC-001-100-D00-0
 62
     7
370
    25
100
AcDbLine
 10
157.86098
 20
248.400842
 30
0.0
 11
155.36098
 21
250.900842
 31
0.0
  0
LINE
  5
3EB
330
3D8
100
AcDbEntity
  8
LC-001-100-D00-0
 62
     7
370
    25
100
AcDbLine
 10
164.91917
 20
250.322909
 30
0.0
 11
163.094453
 21
252.147626
 31
0.0
  0
LINE
  5
3EC
330
3D8
100
AcDbEntity
  8
LC-001-100-D00-0
 62
     7
370
    25
100
AcDbLine
 10
169.821493
 20
254.400842
 30
0.0
 11
167.392758
 21
256.829576
 31
0.0
  0
LINE
  5
3ED
330
3D8
100
AcDbEntity
  8
LC-001-100-D00-0
 62
     7
370
    25
100
AcDbLine
 10
178.801749
 20
254.400842
 30
0.0
 11
176.301749
 21
256.900842
 31
0.0
  0
LINE
  5
3EE
330
3D8
100
AcDbEntity
  8
LC-001-100-D00-0
 62
     7
370
    25
100
AcDbLine
 10
187.782005
 20
254.400842
 30
0.0
 11
185.282005
 21
256.900842
 31
0.0
  0
LINE
  5
3EF
330
3D8
100
AcDbEntity
  8
LC-001-100-D00-0
 62
     7
370
    25
100
AcDbLine
 10
196.762261
 20
254.400842
 30
0.0
 11
194.262261
 21
256.900842
 31
0.0
  0
LINE
  5
3F0
330
3D8
100
AcDbEntity
  8
LC-001-100-D00-0
 62
     7
370
    25
100
AcDbLine
 10
205.742517
 20
254.400842
 30
0.0
 11
203.242517
 21
256.900842
 31
0.0
  0
LINE
  5
3F1
330
3D8
100
AcDbEntity
  8
LC-001-100-D00-0
 62
     7
370
    25
100
AcDbLine
 10
217.222773
 20
251.900842
 30
0.0
 11
215.434041
 21
253.689574
 31
0.0
  0
LINE
  5
3F2
330
3D8
100
AcDbEntity
  8
LC-001-100-D00-0
 62
     7
370
    25
100
AcDbLine
 10
214.722773
 20
254.400842
 30
0.0
 11
212.222773
 21
256.900842
 31
0.0
  0
LINE
  5
3F3
330
3D8
100
AcDbEntity
  8
LC-001-100-D00-0
 62
     7
370
    25
100
AcDbLine
 10
226.908619
 20
251.195253
 30
0.0
 11
221.203029
 21
256.900842
 31
0.0
  0
LINE
  5
3F4
330
3D8
100
AcDbEntity
  8
LC-001-100-D00-0
 62
     7
370
    25
100
AcDbLine
 10
234.534041
 20
252.550087
 30
0.0
 11
230.183285
 21
256.900842
 31
0.0
  0
LINE
  5
3F5
330
3D8
100
AcDbEntity
  8
LC-001-100-D00-0
 62
     7
370
    25
100
AcDbLine
 10
242.317879
 20
253.746504
 30
0.0
 11
239.503762
 21
256.560621
 31
0.0
  0
ENDBLK
  5
3DA
330
3D8
100
AcDbEntity
  8
0
100
AcDbBlockEnd
  0
BLOCK
  5
3F8
330
3F7
100
AcDbEntity
  8
0
100
AcDbBlockBegin
  2
KLON10
 70
     0
 71
     0
 10
0.0
 20
0.0
 30
0.0
  3
KLON10
  1

  4
KLON10
  0
LINE
  5
3FA
330
3F7
100
AcDbEntity
  8
LC-001-100-D00-0
 62
     7
370
    25
100
AcDbLine
 10
173.934041
 20
295.189574
 30
0.0
 11
171.934041
 21
297.189574
 31
0.0
  0
LINE
  5
3FB
330
3F7
100
AcDbEntity
  8
LC-001-100-D00-0
 62
     7
370
    25
100
AcDbLine
 10
173.934041
 20
304.169831
 30
0.0
 11
171.934041
 21
306.169831
 31
0.0
  0
LINE
  5
3FC
330
3F7
100
AcDbEntity
  8
LC-001-100-D00-0
 62
     7
370
    25
100
AcDbLine
 10
186.684041
 20
300.400087
 30
0.0
 11
184.684041
 21
302.400087
 31
0.0
  0
LINE
  5
3FD
330
3F7
100
AcDbEntity
  8
LC-001-100-D00-0
 62
     7
370
    25
100
AcDbLine
 10
175.934041
 20
311.150087
 30
0.0
 11
173.934041
 21
313.150087
 31
0.0
  0
LINE
  5
3FE
330
3F7
100
AcDbEntity
  8
LC-001-100-D00-0
 62
     7
370
    25
100
AcDbLine
 10
186.684041
 20
309.380343
 30
0.0
 11
184.684041
 21
311.380343
 31
0.0
  0
LINE
  5
3FF
330
3F7
100
AcDbEntity
  8
LC-001-100-D00-0
 62
     7
370
    25
100
AcDbLine
 10
178.663542
 20
317.400842
 30
0.0
 11
176.663542
 21
319.400842
 31
0.0
  0
LINE
  5
400
330
3F7
100
AcDbEntity
  8
LC-001-100-D00-0
 62
     7
370
    25
100
AcDbLine
 10
192.934041
 20
312.110599
 30
0.0
 11
185.643798
 21
319.400842
 31
0.0
  0
ENDBLK
  5
3F9
330
3F7
100
AcDbEntity
  8
0
100
AcDbBlockEnd
  0
BLOCK
  5
403
330
402
100
AcDbEntity
  8
0
100
AcDbBlockBegin
  2
KLON11
 70
     0
 71
     0
 10
0.0
 20
0.0
 30
0.0
  3
KLON11
  1

  4
KLON11
  0
LINE
  5
405
330
402
100
AcDbEntity
  8
LC-001-100-D00-0
 62
     7
370
    25
100
AcDbLine
 10
89.420212
 20
289.900842
 30
0.0
 11
88.934041
 21
290.387013
 31
0.0
  0
LINE
  5
406
330
402
100
AcDbEntity
  8
LC-001-100-D00-0
 62
     7
370
    25
100
AcDbLine
 10
78.184041
 20
301.137013
 30
0.0
 11
76.184041
 21
303.137013
 31
0.0
  0
LINE
  5
407
330
402
100
AcDbEntity
  8
LC-001-100-D00-0
 62
     7
370
    25
100
AcDbLine
 10
90.934041
 20
297.367269
 30
0.0
 11
88.934041
 21
299.367269
 31
0.0
  0
LINE
  5
408
330
402
100
AcDbEntity
  8
LC-001-100-D00-0
 62
     7
370
    25
100
AcDbLine
 10
78.184041
 20
310.117269
 30
0.0
 11
76.184041
 21
312.117269
 31
0.0
  0
LINE
  5
409
330
402
100
AcDbEntity
  8
LC-001-100-D00-0
 62
     7
370
    25
100
AcDbLine
 10
70.900468
 20
317.400842
 30
0.0
 11
69.934041
 21
318.367269
 31
0.0
  0
LINE
  5
40A
330
402
100
AcDbEntity
  8
LC-001-100-D00-0
 62
     7
370
    25
100
AcDbLine
 10
90.934041
 20
306.347526
 30
0.0
 11
88.934041
 21
308.347526
 31
0.0
  0
LINE
  5
40B
330
402
100
AcDbEntity
  8
LC-001-100-D00-0
 62
     7
370
    25
100
AcDbLine
 10
88.380724
 20
308.900842
 30
0.0
 11
86.934041
 21
310.347526
 31
0.0
  0
LINE
  5
40C
330
402
100
AcDbEntity
  8
LC-001-100-D00-0
 62
     7
370
    25
100
AcDbLine
 10
79.880724
 20
317.400842
 30
0.0
 11
77.880724
 21
319.400842
 31
0.0
  0
LINE
  5
40D
330
402
100
AcDbEntity
  8
LC-001-100-D00-0
 62
     7
370
    25
100
AcDbLine
 10
88.934041
 20
317.327782
 30
0.0
 11
86.86098
 21
319.400842
 31
0.0
  0
ENDBLK
  5
404
330
402
100
AcDbEntity
  8
0
100
AcDbBlockEnd
  0
BLOCK
  5
412
330
411
100
AcDbEntity
  8
0
100
AcDbBlockBegin
  2
KLON12
 70
     0
 71
     0
 10
0.0
 20
0.0
 30
0.0
  3
KLON12
  1

  4
KLON12
  0
LINE
  5
414
330
411
100
AcDbEntity
  8
LC-001-100-D00-0
 62
     7
370
    25
100
AcDbLine
 10
152.433651
 20
262.808428
 30
0.0
 11
149.433651
 21
265.808428
 31
0.0
  0
LINE
  5
415
330
411
100
AcDbEntity
  8
LC-001-100-D00-0
 62
     7
370
    25
100
AcDbLine
 10
152.433651
 20
271.788684
 30
0.0
 11
149.433651
 21
274.788684
 31
0.0
  0
LINE
  5
416
330
411
100
AcDbEntity
  8
LC-001-100-D00-0
 62
     7
370
    25
100
AcDbLine
 10
152.433651
 20
280.76894
 30
0.0
 11
149.433651
 21
283.76894
 31
0.0
  0
LINE
  5
417
330
411
100
AcDbEntity
  8
LC-001-100-D00-0
 62
     7
370
    25
100
AcDbLine
 10
152.433651
 20
289.749196
 30
0.0
 11
149.433651
 21
292.749196
 31
0.0
  0
LINE
  5
418
330
411
100
AcDbEntity
  8
LC-001-100-D00-0
 62
     7
370
    25
100
AcDbLine
 10
152.433651
 20
298.729452
 30
0.0
 11
149.495533
 21
301.667571
 31
0.0
  0
LINE
  5
419
330
411
100
AcDbEntity
  8
LC-001-100-D00-0
 62
     7
370
    25
100
AcDbLine
 10
153.417431
 20
306.725928
 30
0.0
 11
151.994793
 21
308.148567
 31
0.0
  0
LINE
  5
41A
330
411
100
AcDbEntity
  8
LC-001-100-D00-0
 62
     7
370
    25
100
AcDbLine
 10
157.840304
 20
311.283311
 30
0.0
 11
156.940536
 21
312.18308
 31
0.0
  0
LINE
  5
41B
330
411
100
AcDbEntity
  8
LC-001-100-D00-0
 62
     7
370
    25
100
AcDbLine
 10
166.478043
 20
311.625829
 30
0.0
 11
164.703223
 21
313.400648
 31
0.0
  0
LINE
  5
41C
330
411
100
AcDbEntity
  8
LC-001-100-D00-0
 62
     7
370
    25
100
AcDbLine
 10
173.686547
 20
313.397581
 30
0.0
 11
173.183285
 21
313.900842
 31
0.0
  0
LINE
  5
41D
330
411
100
AcDbEntity
  8
LC-001-100-D00-0
 62
     7
370
    25
100
AcDbLine
 10
171.584041
 20
315.500087
 30
0.0
 11
169.68417
 21
317.399957
 31
0.0
  0
ENDBLK
  5
413
330
411
100
AcDbEntity
  8
0
100
AcDbBlockEnd
  0
BLOCK
  5
420
330
41F
100
AcDbEntity
  8
0
100
AcDbBlockBegin
  2
KLON13
 70
     0
 71
     0
 10
0.0
 20
0.0
 30
0.0
  3
KLON13
  1

  4
KLON13
  0
LINE
  5
422
330
41F
100
AcDbEntity
  8
LC-001-100-D00-0
 62
     7
370
    25
100
AcDbLine
 10
113.434431
 20
265.886623
 30
0.0
 11
110.434431
 21
268.886623
 31
0.0
  0
LINE
  5
423
330
41F
100
AcDbEntity
  8
LC-001-100-D00-0
 62
     7
370
    25
100
AcDbLine
 10
113.434431
 20
274.866879
 30
0.0
 11
110.434431
 21
277.866879
 31
0.0
  0
LINE
  5
424
330
41F
100
AcDbEntity
  8
LC-001-100-D00-0
 62
     7
370
    25
100
AcDbLine
 10
113.434431
 20
283.847136
 30
0.0
 11
110.434431
 21
286.847136
 31
0.0
  0
LINE
  5
425
330
41F
100
AcDbEntity
  8
LC-001-100-D00-0
 62
     7
370
    25
100
AcDbLine
 10
113.434431
 20
292.827392
 30
0.0
 11
110.434431
 21
295.827392
 31
0.0
  0
LINE
  5
426
330
41F
100
AcDbEntity
  8
LC-001-100-D00-0
 62
     7
370
    25
100
AcDbLine
 10
94.635994
 20
311.625829
 30
0.0
 11
93.678931
 21
312.582892
 31
0.0
  0
LINE
  5
427
330
41F
100
AcDbEntity
  8
LC-001-100-D00-0
 62
     7
370
    25
100
AcDbLine
 10
93.36098
 20
312.900842
 30
0.0
 11
91.284041
 21
314.977782
 31
0.0
  0
LINE
  5
428
330
41F
100
AcDbEntity
  8
LC-001-100-D00-0
 62
     7
370
    25
100
AcDbLine
 10
113.348412
 20
301.893667
 30
0.0
 11
110.031553
 21
305.210525
 31
0.0
  0
LINE
  5
429
330
41F
100
AcDbEntity
  8
LC-001-100-D00-0
 62
     7
370
    25
100
AcDbLine
 10
103.244278
 20
311.997801
 30
0.0
 11
101.92745
 21
313.314629
 31
0.0
  0
ENDBLK
  5
421
330
41F
100
AcDbEntity
  8
0
100
AcDbBlockEnd
  0
BLOCK
  5
42C
330
42B
100
AcDbEntity
  8
0
100
AcDbBlockBegin
  2
KLON14
 70
     0
 71
     0
 10
0.0
 20
0.0
 30
0.0
  3
KLON14
  1

  4
KLON14
  0
LINE
  5
42E
330
42B
100
AcDbEntity
  8
LC-001-100-D00-0
 62
     7
370
    25
100
AcDbLine
 10
109.9597
 20
251.400842
 30
0.0
 11
108.4597
 21
252.900842
 31
0.0
  0
LINE
  5
42F
330
42B
100
AcDbEntity
  8
LC-001-100-D00-0
 62
     7
370
    25
100
AcDbLine
 10
99.934041
 20
261.426501
 30
0.0
 11
98.434041
 21
262.926501
 31
0.0
  0
LINE
  5
430
330
42B
100
AcDbEntity
  8
LC-001-100-D00-0
 62
     7
370
    25
100
AcDbLine
 10
118.939956
 20
251.400842
 30
0.0
 11
117.439956
 21
252.900842
 31
0.0
  0
LINE
  5
431
330
42B
100
AcDbEntity
  8
LC-001-100-D00-0
 62
     7
370
    25
100
AcDbLine
 10
99.934041
 20
270.406757
 30
0.0
 11
98.434041
 21
271.906757
 31
0.0
  0
LINE
  5
432
330
42B
100
AcDbEntity
  8
LC-001-100-D00-0
 62
     7
370
    25
100
AcDbLine
 10
127.920212
 20
251.400842
 30
0.0
 11
126.420212
 21
252.900842
 31
0.0
  0
LINE
  5
433
330
42B
100
AcDbEntity
  8
LC-001-100-D00-0
 62
     7
370
    25
100
AcDbLine
 10
99.934041
 20
279.387013
 30
0.0
 11
98.434041
 21
280.887013
 31
0.0
  0
LINE
  5
434
330
42B
100
AcDbEntity
  8
LC-001-100-D00-0
 62
     7
370
    25
100
AcDbLine
 10
136.900468
 20
251.400842
 30
0.0
 11
135.400468
 21
252.900842
 31
0.0
  0
LINE
  5
435
330
42B
100
AcDbEntity
  8
LC-001-100-D00-0
 62
     7
370
    25
100
AcDbLine
 10
99.934041
 20
288.367269
 30
0.0
 11
98.434041
 21
289.867269
 31
0.0
  0
LINE
  5
436
330
42B
100
AcDbEntity
  8
LC-001-100-D00-0
 62
     7
370
    25
100
AcDbLine
 10
145.880724
 20
251.400842
 30
0.0
 11
144.380724
 21
252.900842
 31
0.0
  0
LINE
  5
437
330
42B
100
AcDbEntity
  8
LC-001-100-D00-0
 62
     7
370
    25
100
AcDbLine
 10
99.934041
 20
297.347526
 30
0.0
 11
98.434041
 21
298.847526
 31
0.0
  0
LINE
  5
438
330
42B
100
AcDbEntity
  8
LC-001-100-D00-0
 62
     7
370
    25
100
AcDbLine
 10
154.86098
 20
251.400842
 30
0.0
 11
153.36098
 21
252.900842
 31
0.0
  0
LINE
  5
439
330
42B
100
AcDbEntity
  8
LC-001-100-D00-0
 62
     7
370
    25
100
AcDbLine
 10
93.534041
 20
312.727782
 30
0.0
 11
93.36098
 21
312.900842
 31
0.0
  0
LINE
  5
43A
330
42B
100
AcDbEntity
  8
LC-001-100-D00-0
 62
     7
370
    25
100
AcDbLine
 10
161.93265
 20
253.309429
 30
0.0
 11
160.869913
 21
254.372166
 31
0.0
  0
LINE
  5
43B
330
42B
100
AcDbEntity
  8
LC-001-100-D00-0
 62
     7
370
    25
100
AcDbLine
 10
164.434041
 20
259.788294
 30
0.0
 11
162.934041
 21
261.288294
 31
0.0
  0
LINE
  5
43C
330
42B
100
AcDbEntity
  8
LC-001-100-D00-0
 62
     7
370
    25
100
AcDbLine
 10
164.434041
 20
268.76855
 30
0.0
 11
162.934041
 21
270.26855
 31
0.0
  0
LINE
  5
43D
330
42B
100
AcDbEntity
  8
LC-001-100-D00-0
 62
     7
370
    25
100
AcDbLine
 10
164.434041
 20
277.748806
 30
0.0
 11
162.934041
 21
279.248806
 31
0.0
  0
LINE
  5
43E
330
42B
100
AcDbEntity
  8
LC-001-100-D00-0
 62
     7
370
    25
100
AcDbLine
 10
164.434041
 20
286.729062
 30
0.0
 11
162.934041
 21
288.229062
 31
0.0
  0
LINE
  5
43F
330
42B
100
AcDbEntity
  8
LC-001-100-D00-0
 62
     7
370
    25
100
AcDbLine
 10
164.434041
 20
295.709318
 30
0.0
 11
162.934041
 21
297.209318
 31
0.0
  0
LINE
  5
440
330
42B
100
AcDbEntity
  8
LC-001-100-D00-0
 62
     7
370
    25
100
AcDbLine
 10
166.276832
 20
302.846784
 30
0.0
 11
165.24086
 21
303.882755
 31
0.0
  0
LINE
  5
441
330
42B
100
AcDbEntity
  8
LC-001-100-D00-0
 62
     7
370
    25
100
AcDbLine
 10
169.442533
 20
308.661338
 30
0.0
 11
168.406562
 21
309.69731
 31
0.0
  0
ENDBLK
  5
42D
330
42B
100
AcDbEntity
  8
0
100
AcDbBlockEnd
  0
BLOCK
  5
444
330
443
100
AcDbEntity
  8
0
100
AcDbBlockBegin
  2
KLON15
 70
     0
 71
     0
 10
0.0
 20
0.0
 30
0.0
  3
KLON15
  1

  4
KLON15
  0
LINE
  5
446
330
443
100
AcDbEntity
  8
LC-001-100-D00-0
 62
     7
370
    25
100
AcDbLine
 10
231.092791
 20
300.892617
 30
0.0
 11
228.584566
 21
303.400842
 31
0.0
  0
LINE
  5
447
330
443
100
AcDbEntity
  8
LC-001-100-D00-0
 62
     7
370
    25
100
AcDbLine
 10
242.503267
 20
298.462397
 30
0.0
 11
238.379963
 21
302.585702
 31
0.0
  0
LINE
  5
448
330
443
100
AcDbEntity
  8
LC-001-100-D00-0
 62
     7
370
    25
100
AcDbLine
 10
256.770257
 20
293.175664
 30
0.0
 11
254.045078
 21
295.900842
 31
0.0
  0
LINE
  5
449
330
443
100
AcDbEntity
  8
LC-001-100-D00-0
 62
     7
370
    25
100
AcDbLine
 10
265.910048
 20
293.016128
 30
0.0
 11
263.025334
 21
295.900842
 31
0.0
  0
LINE
  5
44A
330
443
100
AcDbEntity
  8
LC-001-100-D00-0
 62
     7
370
    25
100
AcDbLine
 10
275.04984
 20
292.856593
 30
0.0
 11
272.005591
 21
295.900842
 31
0.0
  0
LINE
  5
44B
330
443
100
AcDbEntity
  8
LC-001-100-D00-0
 62
     7
370
    25
100
AcDbLine
 10
284.189632
 20
292.697057
 30
0.0
 11
280.985847
 21
295.900842
 31
0.0
  0
LINE
  5
44C
330
443
100
AcDbEntity
  8
LC-001-100-D00-0
 62
     7
370
    25
100
AcDbLine
 10
293.329424
 20
292.537521
 30
0.0
 11
289.966103
 21
295.900842
 31
0.0
  0
LINE
  5
44D
330
443
100
AcDbEntity
  8
LC-001-100-D00-0
 62
     7
370
    25
100
AcDbLine
 10
299.606629
 20
295.240573
 30
0.0
 11
297.007436
 21
297.839765
 31
0.0
  0
LINE
  5
44E
330
443
100
AcDbEntity
  8
LC-001-100-D00-0
 62
     7
370
    25
100
AcDbLine
 10
302.880247
 20
300.94721
 30
0.0
 11
300.28551
 21
303.541947
 31
0.0
  0
LINE
  5
44F
330
443
100
AcDbEntity
  8
LC-001-100-D00-0
 62
     7
370
    25
100
AcDbLine
 10
310.864921
 20
301.942792
 30
0.0
 11
307.314
 21
305.493714
 31
0.0
  0
LINE
  5
450
330
443
100
AcDbEntity
  8
LC-001-100-D00-0
 62
     7
370
    25
100
AcDbLine
 10
319.845178
 20
301.942792
 30
0.0
 11
316.294256
 21
305.493714
 31
0.0
  0
LINE
  5
451
330
443
100
AcDbEntity
  8
LC-001-100-D00-0
 62
     7
370
    25
100
AcDbLine
 10
328.825434
 20
301.942792
 30
0.0
 11
325.274512
 21
305.493714
 31
0.0
  0
LINE
  5
452
330
443
100
AcDbEntity
  8
LC-001-100-D00-0
 62
     7
370
    25
100
AcDbLine
 10
337.80569
 20
301.942792
 30
0.0
 11
334.254768
 21
305.493714
 31
0.0
  0
LINE
  5
453
330
443
100
AcDbEntity
  8
LC-001-100-D00-0
 62
     7
370
    25
100
AcDbLine
 10
346.785946
 20
301.942792
 30
0.0
 11
343.235024
 21
305.493714
 31
0.0
  0
ENDBLK
  5
445
330
443
100
AcDbEntity
  8
0
100
AcDbBlockEnd
  0
BLOCK
  5
456
330
455
100
AcDbEntity
  8
0
100
AcDbBlockBegin
  2
KLON16
 70
     0
 71
     0
 10
0.0
 20
0.0
 30
0.0
  3
KLON16
  1

  4
KLON16
  0
LINE
  5
458
330
455
100
AcDbEntity
  8
LC-001-100-D00-0
 62
     7
370
    25
100
AcDbLine
 10
229.703029
 20
248.400842
 30
0.0
 11
226.688609
 21
251.415262
 31
0.0
  0
LINE
  5
459
330
455
100
AcDbEntity
  8
LC-001-100-D00-0
 62
     7
370
    25
100
AcDbLine
 10
237.967498
 20
249.11663
 30
0.0
 11
235.84326
 21
251.240868
 31
0.0
  0
LINE
  5
45A
330
455
100
AcDbEntity
  8
LC-001-100-D00-0
 62
     7
370
    25
100
AcDbLine
 10
244.513701
 20
251.550682
 30
0.0
 11
242.653009
 21
253.411375
 31
0.0
  0
LINE
  5
45B
330
455
100
AcDbEntity
  8
LC-001-100-D00-0
 62
     7
370
    25
100
AcDbLine
 10
249.841179
 20
255.203461
 30
0.0
 11
248.069083
 21
256.975557
 31
0.0
  0
LINE
  5
45C
330
455
100
AcDbEntity
  8
LC-001-100-D00-0
 62
     7
370
    25
100
AcDbLine
 10
258.124054
 20
255.900842
 30
0.0
 11
255.422402
 21
258.602494
 31
0.0
  0
LINE
  5
45D
330
455
100
AcDbEntity
  8
LC-001-100-D00-0
 62
     7
370
    25
100
AcDbLine
 10
267.10431
 20
255.900842
 30
0.0
 11
264.248597
 21
258.756555
 31
0.0
  0
LINE
  5
45E
330
455
100
AcDbEntity
  8
LC-001-100-D00-0
 62
     7
370
    25
100
AcDbLine
 10
276.084566
 20
255.900842
 30
0.0
 11
273.074791
 21
258.910617
 31
0.0
  0
LINE
  5
45F
330
455
100
AcDbEntity
  8
LC-001-100-D00-0
 62
     7
370
    25
100
AcDbLine
 10
285.064822
 20
255.900842
 30
0.0
 11
281.900985
 21
259.064679
 31
0.0
  0
LINE
  5
460
330
455
100
AcDbEntity
  8
LC-001-100-D00-0
 62
     7
370
    25
100
AcDbLine
 10
294.045078
 20
255.900842
 30
0.0
 11
290.72718
 21
259.218741
 31
0.0
  0
LINE
  5
461
330
455
100
AcDbEntity
  8
LC-001-100-D00-0
 62
     7
370
    25
100
AcDbLine
 10
303.300488
 20
255.625689
 30
0.0
 11
299.553374
 21
259.372803
 31
0.0
  0
LINE
  5
462
330
455
100
AcDbEntity
  8
LC-001-100-D00-0
 62
     7
370
    25
100
AcDbLine
 10
312.280744
 20
255.625689
 30
0.0
 11
308.729822
 21
259.176611
 31
0.0
  0
LINE
  5
463
330
455
100
AcDbEntity
  8
LC-001-100-D00-0
 62
     7
370
    25
100
AcDbLine
 10
321.261
 20
255.625689
 30
0.0
 11
317.710078
 21
259.176611
 31
0.0
  0
LINE
  5
464
330
455
100
AcDbEntity
  8
LC-001-100-D00-0
 62
     7
370
    25
100
AcDbLine
 10
330.241256
 20
255.625689
 30
0.0
 11
326.690334
 21
259.176611
 31
0.0
  0
LINE
  5
465
330
455
100
AcDbEntity
  8
LC-001-100-D00-0
 62
     7
370
    25
100
AcDbLine
 10
339.221512
 20
255.625689
 30
0.0
 11
335.670591
 21
259.176611
 31
0.0
  0
LINE
  5
466
330
455
100
AcDbEntity
  8
LC-001-100-D00-0
 62
     7
370
    25
100
AcDbLine
 10
347.869754
 20
255.957703
 30
0.0
 11
344.650847
 21
259.176611
 31
0.0
  0
ENDBLK
  5
457
330
455
100
AcDbEntity
  8
0
100
AcDbBlockEnd
  0
BLOCK
  5
46D
330
46C
100
AcDbEntity
  8
0
100
AcDbBlockBegin
  2
KLON17
 70
     0
 71
     0
 10
0.0
 20
0.0
 30
0.0
  3
KLON17
  1

  4
KLON17
  0
LINE
  5
46F
330
46C
100
AcDbEntity
  8
LC-001-100-D00-0
 62
     7
370
    25
100
AcDbLine
 10
189.324054
 20
324.700842
 30
0.0
 11
187.529047
 21
326.495849
 31
0.0
  0
LINE
  5
470
330
46C
100
AcDbEntity
  8
LC-001-100-D00-0
 62
     7
370
    25
100
AcDbLine
 10
190.934041
 20
332.071111
 30
0.0
 11
190.80431
 21
332.200842
 31
0.0
  0
ENDBLK
  5
46E
330
46C
100
AcDbEntity
  8
0
100
AcDbBlockEnd
  0
BLOCK
  5
473
330
472
100
AcDbEntity
  8
0
100
AcDbBlockBegin
  2
KLON18
 70
     0
 71
     0
 10
0.0
 20
0.0
 30
0.0
  3
KLON18
  1

  4
KLON18
  0
LINE
  5
475
330
472
100
AcDbEntity
  8
LC-001-100-D00-0
 62
     7
370
    25
100
AcDbLine
 10
75.934041
 20
321.347526
 30
0.0
 11
73.684041
 21
323.597526
 31
0.0
  0
LINE
  5
476
330
472
100
AcDbEntity
  8
LC-001-100-D00-0
 62
     7
370
    25
100
AcDbLine
 10
72.580724
 20
324.700842
 30
0.0
 11
71.934041
 21
325.347526
 31
0.0
  0
ENDBLK
  5
474
330
472
100
AcDbEntity
  8
0
100
AcDbBlockEnd
  0
BLOCK
  5
491
330
486
100
AcDbEntity
  8
0
100
AcDbBlockBegin
  2
*D27
 70
     1
 71
     0
 10
0.0
 20
0.0
 30
0.0
  3
*D27
  1

  0
LINE
  5
487
330
486
100
AcDbEntity
  8
LC-004-106-D00-0
 62
     2
370
    -2
100
AcDbLine
 10
8.720605
 20
324.400843
 30
0.0
 11
-116.768904
 21
324.400843
 31
0.0
  0
LINE
  5
488
330
486
100
AcDbEntity
  8
LC-004-106-D00-0
 62
     2
370
    -2
100
AcDbLine
 10
8.720605
 20
294.400843
 30
0.0
 11
-116.768904
 21
294.400843
 31
0.0
  0
LINE
  5
489
330
486
100
AcDbEntity
  8
LC-004-106-D00-0
 62
     2
370
    -2
100
AcDbLine
 10
-113.168904
 20
266.400843
 30
0.0
 11
-113.168904
 21
238.400843
 31
0.0
  0
LINE
  5
48A
330
486
100
AcDbEntity
  8
LC-004-106-D00-0
 62
     2
370
    -2
100
AcDbLine
 10
-113.168904
 20
352.400843
 30
0.0
 11
-113.168904
 21
365.677724
 31
0.0
  0
SOLID
  5
48B
330
486
100
AcDbEntity
  8
LC-004-106-D00-0
 62
     2
100
AcDbTrace
 10
-117.83557
 20
352.400843
 30
0.0
 11
-108.502237
 21
352.400843
 31
0.0
 12
-113.168904
 22
324.400843
 32
0.0
 13
-113.168904
 23
324.400843
 33
0.0
  0
SOLID
  5
48C
330
486
100
AcDbEntity
  8
LC-004-106-D00-0
 62
     2
100
AcDbTrace
 10
-108.502237
 20
266.400843
 30
0.0
 11
-117.83557
 21
266.400843
 31
0.0
 12
-113.168904
 22
294.400843
 32
0.0
 13
-113.168904
 23
294.400843
 33
0.0
  0
MTEXT
  5
48D
330
486
100
AcDbEntity
  8
LC-004-106-D00-0
 62
     2
100
AcDbMText
 10
-143.968904
 20
342.755498
 30
0.0
 40
28.0
 41
0.0
 71
     5
 72
     1
  1
\A1;30
  7
LCTX15-400-0-0pDIN-Schrift
 11
6.123031769111886E-17
 21
1.0
 31
0.0
 73
     1
 44
1.0
  0
POINT
  5
48E
330
486
100
AcDbEntity
  8
Defpoints
 62
     0
100
AcDbPoint
 10
8.720605
 20
324.400843
 30
0.0
  0
POINT
  5
48F
330
486
100
AcDbEntity
  8
Defpoints
 62
     0
100
AcDbPoint
 10
8.720605
 20
294.400843
 30
0.0
  0
POINT
  5
490
330
486
100
AcDbEntity
  8
Defpoints
 62
     0
100
AcDbPoint
 10
-113.168904
 20
294.400843
 30
0.0
  0
ENDBLK
  5
492
330
486
100
AcDbEntity
  8
0
100
AcDbBlockEnd
  0
BLOCK
  5
49E
330
494
100
AcDbEntity
  8
0
100
AcDbBlockBegin
  2
*D28
 70
     1
 71
     0
 10
0.0
 20
0.0
 30
0.0
  3
*D28
  1

  0
LINE
  5
495
330
494
100
AcDbEntity
  8
LC-004-106-D00-0
 62
     2
370
    -2
100
AcDbLine
 10
8.720605
 20
324.400843
 30
0.0
 11
-152.505155
 21
324.400843
 31
0.0
  0
LINE
  5
496
330
494
100
AcDbEntity
  8
LC-004-106-D00-0
 62
     2
370
    -2
100
AcDbLine
 10
104.60904
 20
248.400843
 30
0.0
 11
-152.505155
 21
248.400843
 31
0.0
  0
LINE
  5
497
330
494
100
AcDbEntity
  8
LC-004-106-D00-0
 62
     2
370
    -2
100
AcDbLine
 10
-148.905155
 20
296.400843
 30
0.0
 11
-148.905155
 21
276.400843
 31
0.0
  0
SOLID
  5
498
330
494
100
AcDbEntity
  8
LC-004-106-D00-0
 62
     2
100
AcDbTrace
 10
-144.238489
 20
296.400843
 30
0.0
 11
-153.571822
 21
296.400843
 31
0.0
 12
-148.905155
 22
324.400843
 32
0.0
 13
-148.905155
 23
324.400843
 33
0.0
  0
SOLID
  5
499
330
494
100
AcDbEntity
  8
LC-004-106-D00-0
 62
     2
100
AcDbTrace
 10
-153.571822
 20
276.400843
 30
0.0
 11
-144.238489
 21
276.400843
 31
0.0
 12
-148.905155
 22
248.400843
 32
0.0
 13
-148.905155
 23
248.400843
 33
0.0
  0
MTEXT
  5
49A
330
494
100
AcDbEntity
  8
LC-004-106-D00-0
 62
     2
100
AcDbMText
 10
-179.705155
 20
284.508262
 30
0.0
 40
28.0
 41
0.0
 71
     5
 72
     1
  1
\A1;76
  7
LCTX15-400-0-0pDIN-Schrift
 11
6.123031769111886E-17
 21
1.0
 31
0.0
 73
     1
 44
1.0
  0
POINT
  5
49B
330
494
100
AcDbEntity
  8
Defpoints
 62
     0
100
AcDbPoint
 10
8.720605
 20
324.400843
 30
0.0
  0
POINT
  5
49C
330
494
100
AcDbEntity
  8
Defpoints
 62
     0
100
AcDbPoint
 10
104.60904
 20
248.400843
 30
0.0
  0
POINT
  5
49D
330
494
100
AcDbEntity
  8
Defpoints
 62
     0
100
AcDbPoint
 10
-148.905155
 20
248.400843
 30
0.0
  0
ENDBLK
  5
49F
330
494
100
AcDbEntity
  8
0
100
AcDbBlockEnd
  0
BLOCK
  5
4AC
330
4A2
100
AcDbEntity
  8
0
100
AcDbBlockBegin
  2
*D29
 70
     1
 71
     0
 10
0.0
 20
0.0
 30
0.0
  3
*D29
  1

  0
LINE
  5
4A3
330
4A2
100
AcDbEntity
  8
LC-004-106-D00-0
 62
     2
370
    -2
100
AcDbLine
 10
258.898764
 20
309.400843
 30
0.0
 11
258.898764
 21
411.660262
 31
0.0
  0
LINE
  5
4A4
330
4A2
100
AcDbEntity
  8
LC-004-106-D00-0
 62
     2
370
    -2
100
AcDbLine
 10
3.969316
 20
309.400843
 30
0.0
 11
3.969316
 21
411.660262
 31
0.0
  0
LINE
  5
4A5
330
4A2
100
AcDbEntity
  8
LC-004-106-D00-0
 62
     2
370
    -2
100
AcDbLine
 10
230.898764
 20
408.060262
 30
0.0
 11
31.969316
 21
408.060262
 31
0.0
  0
SOLID
  5
4A6
330
4A2
100
AcDbEntity
  8
LC-004-106-D00-0
 62
     2
100
AcDbTrace
 10
230.898764
 20
403.393595
 30
0.0
 11
230.898764
 21
412.726929
 31
0.0
 12
258.898764
 22
408.060262
 32
0.0
 13
258.898764
 23
408.060262
 33
0.0
  0
SOLID
  5
4A7
330
4A2
100
AcDbEntity
  8
LC-004-106-D00-0
 62
     2
100
AcDbTrace
 10
31.969316
 20
412.726929
 30
0.0
 11
31.969316
 21
403.393595
 31
0.0
 12
3.969316
 22
408.060262
 32
0.0
 13
3.969316
 23
408.060262
 33
0.0
  0
MTEXT
  5
4A8
330
4A2
100
AcDbEntity
  8
LC-004-106-D00-0
 62
     2
100
AcDbMText
 10
139.43234
 20
438.860262
 30
0.0
 40
28.0
 41
0.0
 71
     5
 72
     1
  1
\A1;255
  7
LCTX15-400-0-0pDIN-Schrift
 73
     1
 44
1.0
  0
POINT
  5
4A9
330
4A2
100
AcDbEntity
  8
Defpoints
 62
     0
100
AcDbPoint
 10
258.898764
 20
309.400843
 30
0.0
  0
POINT
  5
4AA
330
4A2
100
AcDbEntity
  8
Defpoints
 62
     0
100
AcDbPoint
 10
3.969316
 20
309.400843
 30
0.0
  0
POINT
  5
4AB
330
4A2
100
AcDbEntity
  8
Defpoints
 62
     0
100
AcDbPoint
 10
3.969316
 20
408.060262
 30
0.0
  0
ENDBLK
  5
4AD
330
4A2
100
AcDbEntity
  8
0
100
AcDbBlockEnd
  0
BLOCK
  5
4BA
330
4AF
100
AcDbEntity
  8
0
100
AcDbBlockBegin
  2
*D30
 70
     1
 71
     0
 10
0.0
 20
0.0
 30
0.0
  3
*D30
  1

  0
LINE
  5
4B0
330
4AF
100
AcDbEntity
  8
LC-004-106-D00-0
 62
     2
370
    -2
100
AcDbLine
 10
295.892785
 20
295.900843
 30
0.0
 11
419.906876
 21
295.900843
 31
0.0
  0
LINE
  5
4B1
330
4AF
100
AcDbEntity
  8
LC-004-106-D00-0
 62
     2
370
    -2
100
AcDbLine
 10
301.249107
 20
255.900843
 30
0.0
 11
419.906876
 21
255.900843
 31
0.0
  0
LINE
  5
4B2
330
4AF
100
AcDbEntity
  8
LC-004-106-D00-0
 62
     2
370
    -2
100
AcDbLine
 10
416.306876
 20
227.900843
 30
0.0
 11
416.306876
 21
199.900843
 31
0.0
  0
LINE
  5
4B3
330
4AF
100
AcDbEntity
  8
LC-004-106-D00-0
 62
     2
370
    -2
100
AcDbLine
 10
416.306876
 20
323.900843
 30
0.0
 11
416.306876
 21
376.283019
 31
0.0
  0
SOLID
  5
4B4
330
4AF
100
AcDbEntity
  8
LC-004-106-D00-0
 62
     2
100
AcDbTrace
 10
411.640209
 20
323.900843
 30
0.0
 11
420.973543
 21
323.900843
 31
0.0
 12
416.306876
 22
295.900843
 32
0.0
 13
416.306876
 23
295.900843
 33
0.0
  0
SOLID
  5
4B5
330
4AF
100
AcDbEntity
  8
LC-004-106-D00-0
 62
     2
100
AcDbTrace
 10
420.973543
 20
227.900843
 30
0.0
 11
411.640209
 21
227.900843
 31
0.0
 12
416.306876
 22
255.900843
 32
0.0
 13
416.306876
 23
255.900843
 33
0.0
  0
MTEXT
  5
4B6
330
4AF
100
AcDbEntity
  8
LC-004-106-D00-0
 62
     2
100
AcDbMText
 10
385.506876
 20
330.246262
 30
0.0
 40
28.0
 41
0.0
 71
     5
 72
     1
  1
\A1;DN40
  7
LCTX15-400-0-0pDIN-Schrift
 11
6.123031769111886E-17
 21
1.0
 31
0.0
 73
     1
 44
1.0
  0
POINT
  5
4B7
330
4AF
100
AcDbEntity
  8
Defpoints
 62
     0
100
AcDbPoint
 10
295.892785
 20
295.900843
 30
0.0
  0
POINT
  5
4B8
330
4AF
100
AcDbEntity
  8
Defpoints
 62
     0
100
AcDbPoint
 10
301.249107
 20
255.900843
 30
0.0
  0
POINT
  5
4B9
330
4AF
100
AcDbEntity
  8
Defpoints
 62
     0
100
AcDbPoint
 10
416.306876
 20
255.900843
 30
0.0
  0
ENDBLK
  5
4BB
330
4AF
100
AcDbEntity
  8
0
100
AcDbBlockEnd
  0
BLOCK
  5
4C8
330
4BD
100
AcDbEntity
  8
0
100
AcDbBlockBegin
  2
*D31
 70
     1
 71
     0
 10
0.0
 20
0.0
 30
0.0
  3
*D31
  1

  0
LINE
  5
4BE
330
4BD
100
AcDbEntity
  8
LC-004-106-D00-0
 62
     2
370
    -2
100
AcDbLine
 10
346.63404
 20
305.493714
 30
0.0
 11
473.694604
 21
305.493714
 31
0.0
  0
LINE
  5
4BF
330
4BD
100
AcDbEntity
  8
LC-004-106-D00-0
 62
     2
370
    -2
100
AcDbLine
 10
346.63404
 20
255.62569
 30
0.0
 11
473.694604
 21
255.62569
 31
0.0
  0
LINE
  5
4C0
330
4BD
100
AcDbEntity
  8
LC-004-106-D00-0
 62
     2
370
    -2
100
AcDbLine
 10
470.094604
 20
227.62569
 30
0.0
 11
470.094604
 21
199.62569
 31
0.0
  0
LINE
  5
4C1
330
4BD
100
AcDbEntity
  8
LC-004-106-D00-0
 62
     2
370
    -2
100
AcDbLine
 10
470.094604
 20
333.493714
 30
0.0
 11
470.094604
 21
364.403019
 31
0.0
  0
SOLID
  5
4C2
330
4BD
100
AcDbEntity
  8
LC-004-106-D00-0
 62
     2
100
AcDbTrace
 10
465.427938
 20
333.493714
 30
0.0
 11
474.761271
 21
333.493714
 31
0.0
 12
470.094604
 22
305.493714
 32
0.0
 13
470.094604
 23
305.493714
 33
0.0
  0
SOLID
  5
4C3
330
4BD
100
AcDbEntity
  8
LC-004-106-D00-0
 62
     2
100
AcDbTrace
 10
474.761271
 20
227.62569
 30
0.0
 11
465.427938
 21
227.62569
 31
0.0
 12
470.094604
 22
255.62569
 32
0.0
 13
470.094604
 23
255.62569
 33
0.0
  0
MTEXT
  5
4C4
330
4BD
100
AcDbEntity
  8
LC-004-106-D00-0
 62
     2
100
AcDbMText
 10
439.294604
 20
318.366262
 30
0.0
 40
28.0
 41
0.0
 71
     5
 72
     1
  1
\A1;DN50
  7
LCTX15-400-0-0pDIN-Schrift
 11
6.123031769111886E-17
 21
1.0
 31
0.0
 73
     1
 44
1.0
  0
POINT
  5
4C5
330
4BD
100
AcDbEntity
  8
Defpoints
 62
     0
100
AcDbPoint
 10
346.63404
 20
305.493714
 30
0.0
  0
POINT
  5
4C6
330
4BD
100
AcDbEntity
  8
Defpoints
 62
     0
100
AcDbPoint
 10
346.63404
 20
255.62569
 30
0.0
  0
POINT
  5
4C7
330
4BD
100
AcDbEntity
  8
Defpoints
 62
     0
100
AcDbPoint
 10
470.094604
 20
255.62569
 30
0.0
  0
ENDBLK
  5
4C9
330
4BD
100
AcDbEntity
  8
0
100
AcDbBlockEnd
  0
BLOCK
  5
4D6
330
4CC
100
AcDbEntity
  8
0
100
AcDbBlockBegin
  2
*D32
 70
     1
 71
     0
 10
0.0
 20
0.0
 30
0.0
  3
*D32
  1

  0
LINE
  5
4CD
330
4CC
100
AcDbEntity
  8
LC-005-003-----0
 62
     2
370
    -2
100
AcDbLine
 10
131.43404
 20
248.400843
 30
0.0
 11
131.43404
 21
178.146262
 31
0.0
  0
LINE
  5
4CE
330
4CC
100
AcDbEntity
  8
LC-005-003-----0
 62
     2
370
    -2
100
AcDbLine
 10
349.634039
 20
258.674854
 30
0.0
 11
349.634039
 21
178.146262
 31
0.0
  0
LINE
  5
4CF
330
4CC
100
AcDbEntity
  8
LC-005-003-----0
 62
     2
370
    -2
100
AcDbLine
 10
159.43404
 20
181.746262
 30
0.0
 11
321.634039
 21
181.746262
 31
0.0
  0
SOLID
  5
4D0
330
4CC
100
AcDbEntity
  8
LC-005-003-----0
 62
     2
100
AcDbTrace
 10
159.43404
 20
186.412929
 30
0.0
 11
159.43404
 21
177.079595
 31
0.0
 12
131.43404
 22
181.746262
 32
0.0
 13
131.43404
 23
181.746262
 33
0.0
  0
SOLID
  5
4D1
330
4CC
100
AcDbEntity
  8
LC-005-003-----0
 62
     2
100
AcDbTrace
 10
321.634039
 20
177.079595
 30
0.0
 11
321.634039
 21
186.412929
 31
0.0
 12
349.634039
 22
181.746262
 32
0.0
 13
349.634039
 23
181.746262
 33
0.0
  0
MTEXT
  5
4D2
330
4CC
100
AcDbEntity
  8
LC-005-003-----0
 62
     2
100
AcDbMText
 10
225.845411
 20
212.546262
 30
0.0
 40
28.0
 41
0.0
 71
     5
 72
     1
  1
\A1;218
  7
LCTX15-400-0-0pDIN-Schrift
 73
     1
 44
1.0
  0
POINT
  5
4D3
330
4CC
100
AcDbEntity
  8
Defpoints
 62
     0
100
AcDbPoint
 10
131.43404
 20
248.400843
 30
0.0
  0
POINT
  5
4D4
330
4CC
100
AcDbEntity
  8
Defpoints
 62
     0
100
AcDbPoint
 10
349.634039
 20
258.674854
 30
0.0
  0
POINT
  5
4D5
330
4CC
100
AcDbEntity
  8
Defpoints
 62
     0
100
AcDbPoint
 10
349.634039
 20
181.746262
 30
0.0
  0
ENDBLK
  5
4D7
330
4CC
100
AcDbEntity
  8
0
100
AcDbBlockEnd
  0
BLOCK
  5
4E4
330
4D9
100
AcDbEntity
  8
0
100
AcDbBlockBegin
  2
*D33
 70
     1
 71
     0
 10
0.0
 20
0.0
 30
0.0
  3
*D33
  1

  0
LINE
  5
4DA
330
4D9
100
AcDbEntity
  8
LC-001-100-D00-0
 62
     2
370
    -2
100
AcDbLine
 10
110.43443
 20
262.400261
 30
0.0
 11
-20.929789
 21
262.400261
 31
0.0
  0
LINE
  5
4DB
330
4D9
100
AcDbEntity
  8
LC-001-100-D00-0
 62
     2
370
    -2
100
AcDbLine
 10
98.43404
 20
302.400843
 30
0.0
 11
-20.929789
 21
302.400843
 31
0.0
  0
LINE
  5
4DC
330
4D9
100
AcDbEntity
  8
LC-001-100-D00-0
 62
     2
370
    -2
100
AcDbLine
 10
-17.329789
 20
330.400843
 30
0.0
 11
-17.329789
 21
358.400843
 31
0.0
  0
LINE
  5
4DD
330
4D9
100
AcDbEntity
  8
LC-001-100-D00-0
 62
     2
370
    -2
100
AcDbLine
 10
-17.329789
 20
234.400261
 30
0.0
 11
-17.329789
 21
213.44917
 31
0.0
  0
SOLID
  5
4DE
330
4D9
100
AcDbEntity
  8
LC-001-100-D00-0
 62
     2
100
AcDbTrace
 10
-12.663122
 20
234.400261
 30
0.0
 11
-21.996456
 21
234.400261
 31
0.0
 12
-17.329789
 22
262.400261
 32
0.0
 13
-17.329789
 23
262.400261
 33
0.0
  0
SOLID
  5
4DF
330
4D9
100
AcDbEntity
  8
LC-001-100-D00-0
 62
     2
100
AcDbTrace
 10
-21.996456
 20
330.400843
 30
0.0
 11
-12.663122
 21
330.400843
 31
0.0
 12
-17.329789
 22
302.400843
 32
0.0
 13
-17.329789
 23
302.400843
 33
0.0
  0
MTEXT
  5
4E0
330
4D9
100
AcDbEntity
  8
LC-001-100-D00-0
 62
     2
100
AcDbMText
 10
-48.129789
 20
235.835498
 30
0.0
 40
28.0
 41
0.0
 71
     5
 72
     1
  1
\A1;40
  7
LCTX15-400-0-0pDIN-Schrift
 11
6.123031769111886E-17
 21
1.0
 31
0.0
 73
     1
 44
1.0
  0
POINT
  5
4E1
330
4D9
100
AcDbEntity
  8
Defpoints
 62
     0
100
AcDbPoint
 10
110.43443
 20
262.400261
 30
0.0
  0
POINT
  5
4E2
330
4D9
100
AcDbEntity
  8
Defpoints
 62
     0
100
AcDbPoint
 10
98.43404
 20
302.400843
 30
0.0
  0
POINT
  5
4E3
330
4D9
100
AcDbEntity
  8
Defpoints
 62
     0
100
AcDbPoint
 10
-17.329789
 20
302.400843
 30
0.0
  0
ENDBLK
  5
4E5
330
4D9
100
AcDbEntity
  8
0
100
AcDbBlockEnd
  0
BLOCK
  5
4F2
330
4E8
100
AcDbEntity
  8
0
100
AcDbBlockBegin
  2
*D34
 70
     1
 71
     0
 10
0.0
 20
0.0
 30
0.0
  3
*D34
  1

  0
LINE
  5
4E9
330
4E8
100
AcDbEntity
  8
LC-004-106-D00-0
 62
     2
370
    -2
100
AcDbLine
 10
357.93404
 20
312.414582
 30
0.0
 11
357.93404
 21
458.084498
 31
0.0
  0
LINE
  5
4EA
330
4E8
100
AcDbEntity
  8
LC-004-106-D00-0
 62
     2
370
    -2
100
AcDbLine
 10
-95.06596
 20
312.414582
 30
0.0
 11
-95.06596
 21
458.084498
 31
0.0
  0
LINE
  5
4EB
330
4E8
100
AcDbEntity
  8
LC-004-106-D00-0
 62
     2
370
    -2
100
AcDbLine
 10
329.93404
 20
454.484498
 30
0.0
 11
-67.06596
 21
454.484498
 31
0.0
  0
SOLID
  5
4EC
330
4E8
100
AcDbEntity
  8
LC-004-106-D00-0
 62
     2
100
AcDbTrace
 10
329.93404
 20
449.817831
 30
0.0
 11
329.93404
 21
459.151165
 31
0.0
 12
357.93404
 22
454.484498
 32
0.0
 13
357.93404
 23
454.484498
 33
0.0
  0
SOLID
  5
4ED
330
4E8
100
AcDbEntity
  8
LC-004-106-D00-0
 62
     2
100
AcDbTrace
 10
-67.06596
 20
459.151165
 30
0.0
 11
-67.06596
 21
449.817831
 31
0.0
 12
-95.06596
 22
454.484498
 32
0.0
 13
-95.06596
 23
454.484498
 33
0.0
  0
MTEXT
  5
4EE
330
4E8
100
AcDbEntity
  8
LC-004-106-D00-0
 62
     2
100
AcDbMText
 10
140.272304
 20
485.284498
 30
0.0
 40
28.0
 41
0.0
 71
     5
 72
     1
  1
\A1;453
  7
LCTX15-400-0-0pDIN-Schrift
 73
     1
 44
1.0
  0
POINT
  5
4EF
330
4E8
100
AcDbEntity
  8
Defpoints
 62
     0
100
AcDbPoint
 10
357.93404
 20
312.414582
 30
0.0
  0
POINT
  5
4F0
330
4E8
100
AcDbEntity
  8
Defpoints
 62
     0
100
AcDbPoint
 10
-95.06596
 20
312.414582
 30
0.0
  0
POINT
  5
4F1
330
4E8
100
AcDbEntity
  8
Defpoints
 62
     0
100
AcDbPoint
 10
-95.06596
 20
454.484498
 30
0.0
  0
ENDBLK
  5
4F3
330
4E8
100
AcDbEntity
  8
0
100
AcDbBlockEnd
  0
BLOCK
  5
5B3
330
5A9
100
AcDbEntity
  8
0
100
AcDbBlockBegin
  2
*D35
 70
     1
 71
     0
 10
0.0
 20
0.0
 30
0.0
  3
*D35
  1

  0
LINE
  5
5AA
330
5A9
100
AcDbEntity
  8
LC-005-003-----0
 62
     2
370
    -2
100
AcDbLine
 10
71.934041
 20
347.000844
 30
0.0
 11
71.934041
 21
357.606262
 31
0.0
  0
LINE
  5
5AB
330
5A9
100
AcDbEntity
  8
LC-005-003-----0
 62
     2
370
    -2
100
AcDbLine
 10
190.93404
 20
347.000844
 30
0.0
 11
190.93404
 21
357.606262
 31
0.0
  0
LINE
  5
5AC
330
5A9
100
AcDbEntity
  8
LC-005-003-----0
 62
     2
370
    -2
100
AcDbLine
 10
99.934041
 20
354.006262
 30
0.0
 11
162.93404
 21
354.006262
 31
0.0
  0
SOLID
  5
5AD
330
5A9
100
AcDbEntity
  8
LC-005-003-----0
 62
     2
100
AcDbTrace
 10
99.934041
 20
358.672929
 30
0.0
 11
99.934041
 21
349.339595
 31
0.0
 12
71.934041
 22
354.006262
 32
0.0
 13
71.934041
 23
354.006262
 33
0.0
  0
SOLID
  5
5AE
330
5A9
100
AcDbEntity
  8
LC-005-003-----0
 62
     2
100
AcDbTrace
 10
162.93404
 20
349.339595
 30
0.0
 11
162.93404
 21
358.672929
 31
0.0
 12
190.93404
 22
354.006262
 32
0.0
 13
190.93404
 23
354.006262
 33
0.0
  0
MTEXT
  5
5AF
330
5A9
100
AcDbEntity
  8
LC-005-003-----0
 62
     2
100
AcDbMText
 10
141.195872
 20
384.806262
 30
0.0
 40
28.0
 41
0.0
 71
     5
 72
     1
  1
\A1;120
  7
LCTX15-400-0-0pDIN-Schrift
 73
     1
 44
1.0
  0
POINT
  5
5B0
330
5A9
100
AcDbEntity
  8
Defpoints
 62
     0
100
AcDbPoint
 10
71.934041
 20
347.000844
 30
0.0
  0
POINT
  5
5B1
330
5A9
100
AcDbEntity
  8
Defpoints
 62
     0
100
AcDbPoint
 10
190.93404
 20
347.000844
 30
0.0
  0
POINT
  5
5B2
330
5A9
100
AcDbEntity
  8
Defpoints
 62
     0
100
AcDbPoint
 10
190.93404
 20
354.006262
 30
0.0
  0
ENDBLK
  5
5B4
330
5A9
100
AcDbEntity
  8
0
100
AcDbBlockEnd
  0
BLOCK
  5
5C1
330
5B6
100
AcDbEntity
  8
0
100
AcDbBlockBegin
  2
*D36
 70
     1
 71
     0
 10
0.0
 20
0.0
 30
0.0
  3
*D36
  1

  0
LINE
  5
5B7
330
5B6
100
AcDbEntity
  8
LC-005-003-----0
 62
     2
370
    -2
100
AcDbLine
 10
252.485847
 20
324.400842
 30
0.0
 11
313.213185
 21
324.400842
 31
0.0
  0
LINE
  5
5B8
330
5B6
100
AcDbEntity
  8
LC-005-003-----0
 62
     2
370
    -2
100
AcDbLine
 10
190.93404
 20
347.000844
 30
0.0
 11
313.213185
 21
347.000844
 31
0.0
  0
LINE
  5
5B9
330
5B6
100
AcDbEntity
  8
LC-005-003-----0
 62
     2
370
    -2
100
AcDbLine
 10
309.613185
 20
296.400842
 30
0.0
 11
309.613185
 21
268.400842
 31
0.0
  0
LINE
  5
5BA
330
5B6
100
AcDbEntity
  8
LC-005-003-----0
 62
     2
370
    -2
100
AcDbLine
 10
309.613185
 20
375.000844
 30
0.0
 11
309.613185
 21
456.578217
 31
0.0
  0
SOLID
  5
5BB
330
5B6
100
AcDbEntity
  8
LC-005-003-----0
 62
     2
100
AcDbTrace
 10
314.279852
 20
296.400842
 30
0.0
 11
304.946519
 21
296.400842
 31
0.0
 12
309.613185
 22
324.400842
 32
0.0
 13
309.613185
 23
324.400842
 33
0.0
  0
SOLID
  5
5BC
330
5B6
100
AcDbEntity
  8
LC-005-003-----0
 62
     2
100
AcDbTrace
 10
304.946519
 20
375.000844
 30
0.0
 11
314.279852
 21
375.000844
 31
0.0
 12
309.613185
 22
347.000844
 32
0.0
 13
309.613185
 23
347.000844
 33
0.0
  0
MTEXT
  5
5BD
330
5B6
100
AcDbEntity
  8
LC-005-003-----0
 62
     2
100
AcDbMText
 10
278.813185
 20
378.360262
 30
0.0
 40
28.0
 41
0.0
 71
     5
 72
     1
  1
\A1;7,5-23,5
  7
LCTX15-400-0-0pDIN-Schrift
 11
6.123031769111886E-17
 21
1.0
 31
0.0
 73
     1
 44
1.0
  0
POINT
  5
5BE
330
5B6
100
AcDbEntity
  8
Defpoints
 62
     0
100
AcDbPoint
 10
252.485847
 20
324.400842
 30
0.0
  0
POINT
  5
5BF
330
5B6
100
AcDbEntity
  8
Defpoints
 62
     0
100
AcDbPoint
 10
190.93404
 20
347.000844
 30
0.0
  0
POINT
  5
5C0
330
5B6
100
AcDbEntity
  8
Defpoints
 62
     0
100
AcDbPoint
 10
309.613185
 20
347.000844
 30
0.0
  0
ENDBLK
  5
5C2
330
5B6
100
AcDbEntity
  8
0
100
AcDbBlockEnd
  0
ENDSEC
  0
SECTION
  2
ENTITIES
  0
LINE
  5
32
330
1F
100
AcDbEntity
  8
LC-001-100-D00-0
 62
     7
370
    50
100
AcDbLine
 10
75.934041
 20
333.200841
 30
0.0
 11
75.934041
 21
340.700841
 31
0.0
  0
LINE
  5
33
330
1F
100
AcDbEntity
  8
LC-001-100-D00-0
 62
     7
370
    50
100
AcDbLine
 10
75.134041
 20
341.50084
 30
0.0
 11
75.934041
 21
340.700841
 31
0.0
  0
LINE
  5
34
330
1F
100
AcDbEntity
  8
LC-001-100-D00-0
 62
     7
370
    50
100
AcDbLine
 10
73.434041
 20
341.50084
 30
0.0
 11
73.434041
 21
347.000844
 31
0.0
  0
LINE
  5
35
330
1F
100
AcDbEntity
  8
LC-001-100-D00-0
 62
     7
370
    50
100
AcDbLine
 10
71.934041
 20
347.000844
 30
0.0
 11
73.434041
 21
347.000844
 31
0.0
  0
LINE
  5
36
330
1F
100
AcDbEntity
  8
LC-001-100-D00-0
 62
     7
370
    50
100
AcDbLine
 10
73.434041
 20
341.50084
 30
0.0
 11
75.134041
 21
341.50084
 31
0.0
  0
LINE
  5
37
330
1F
100
AcDbEntity
  8
LC-001-100-D00-0
 62
     7
370
    50
100
AcDbLine
 10
71.934041
 20
347.000844
 30
0.0
 11
71.934041
 21
339.700839
 31
0.0
  0
LINE
  5
38
330
1F
100
AcDbEntity
  8
LC-001-100-D00-0
 62
     7
370
    50
100
AcDbLine
 10
186.93404
 20
340.700841
 30
0.0
 11
187.734038
 21
341.50084
 31
0.0
  0
LINE
  5
39
330
1F
100
AcDbEntity
  8
LC-001-100-D00-0
 62
     7
370
    50
100
AcDbLine
 10
186.93404
 20
340.700841
 30
0.0
 11
186.93404
 21
333.200841
 31
0.0
  0
LINE
  5
3A
330
1F
100
AcDbEntity
  8
LC-001-100-D00-0
 62
     7
370
    50
100
AcDbLine
 10
189.434045
 20
347.000844
 30
0.0
 11
190.93404
 21
347.000844
 31
0.0
  0
LINE
  5
3B
330
1F
100
AcDbEntity
  8
LC-001-100-D00-0
 62
     7
370
    50
100
AcDbLine
 10
189.434045
 20
347.000844
 30
0.0
 11
189.434045
 21
341.50084
 31
0.0
  0
LINE
  5
3C
330
1F
100
AcDbEntity
  8
LC-001-100-D00-0
 62
     7
370
    50
100
AcDbLine
 10
187.734038
 20
341.50084
 30
0.0
 11
189.434045
 21
341.50084
 31
0.0
  0
LINE
  5
3D
330
1F
100
AcDbEntity
  8
LC-001-100-D00-0
 62
     7
370
    50
100
AcDbLine
 10
190.93404
 20
339.700839
 30
0.0
 11
190.93404
 21
347.000844
 31
0.0
  0
LINE
  5
3E
330
1F
100
AcDbEntity
  8
LC-001-100-D00-0
 62
     7
370
    50
100
AcDbLine
 10
75.934041
 20
340.700841
 30
0.0
 11
186.93404
 21
340.700841
 31
0.0
  0
LINE
  5
3F
330
1F
100
AcDbEntity
  8
LC-001-100-D00-0
 62
     7
370
    50
100
AcDbLine
 10
186.93404
 20
341.50084
 30
0.0
 11
140.891314
 21
341.50084
 31
0.0
  0
LINE
  5
40
330
1F
100
AcDbEntity
  8
LC-001-100-D00-0
 62
     7
370
    50
100
AcDbLine
 10
121.976767
 20
341.50084
 30
0.0
 11
75.934041
 21
341.50084
 31
0.0
  0
LINE
  5
41
330
1F
100
AcDbEntity
  8
LC-001-100-D00-0
 62
     7
370
    50
100
AcDbLine
 10
73.434041
 20
347.000844
 30
0.0
 11
189.434045
 21
347.000844
 31
0.0
  0
LINE
  5
42
330
1F
100
AcDbEntity
  8
LC-001-100-D00-0
 62
     7
370
    50
100
AcDbLine
 10
114.934043
 20
342.000841
 30
0.0
 11
112.934042
 21
342.000841
 31
0.0
  0
LINE
  5
43
330
1F
100
AcDbEntity
  8
LC-001-100-D00-0
 62
     7
370
    50
100
AcDbLine
 10
114.934043
 20
344.500839
 30
0.0
 11
114.934043
 21
342.000841
 31
0.0
  0
LINE
  5
44
330
1F
100
AcDbEntity
  8
LC-001-100-D00-0
 62
     7
370
    50
100
AcDbLine
 10
114.934043
 20
344.500839
 30
0.0
 11
147.934043
 21
344.500839
 31
0.0
  0
LINE
  5
45
330
1F
100
AcDbEntity
  8
LC-001-100-D00-0
 62
     7
370
    50
100
AcDbLine
 10
147.934043
 20
342.000841
 30
0.0
 11
147.934043
 21
344.500839
 31
0.0
  0
LINE
  5
46
330
1F
100
AcDbEntity
  8
LC-001-100-D00-0
 62
     7
370
    50
100
AcDbLine
 10
149.934039
 20
342.000841
 30
0.0
 11
147.934043
 21
342.000841
 31
0.0
  0
LINE
  5
47
330
1F
100
AcDbEntity
  8
LC-001-100-D00-0
 62
     7
370
    50
100
AcDbLine
 10
149.934039
 20
342.000841
 30
0.0
 11
149.934039
 21
344.500839
 31
0.0
  0
ARC
  5
48
330
1F
100
AcDbEntity
  8
LC-001-100-D00-0
 62
     7
370
    50
100
AcDbCircle
 10
147.934041
 20
344.500842
 30
0.0
 40
2.0
100
AcDbArc
 50
0.0
 51
90.0
  0
LINE
  5
49
330
1F
100
AcDbEntity
  8
LC-001-100-D00-0
 62
     7
370
    50
100
AcDbLine
 10
143.201821
 20
346.500843
 30
0.0
 11
147.934043
 21
346.500843
 31
0.0
  0
LINE
  5
4A
330
1F
100
AcDbEntity
  8
LC-001-100-D00-0
 62
     7
370
    50
100
AcDbLine
 10
143.201821
 20
346.300839
 30
0.0
 11
143.201821
 21
346.500843
 31
0.0
  0
LINE
  5
4B
330
1F
100
AcDbEntity
  8
LC-001-100-D00-0
 62
     7
370
    50
100
AcDbLine
 10
143.201821
 20
346.300839
 30
0.0
 11
142.97326
 21
346.300839
 31
0.0
  0
LINE
  5
4C
330
1F
100
AcDbEntity
  8
LC-001-100-D00-0
 62
     7
370
    50
100
AcDbLine
 10
142.97326
 20
346.300839
 30
0.0
 11
142.97326
 21
346.500843
 31
0.0
  0
LINE
  5
4D
330
1F
100
AcDbEntity
  8
LC-001-100-D00-0
 62
     7
370
    50
100
AcDbLine
 10
142.328971
 20
346.500843
 30
0.0
 11
142.97326
 21
346.500843
 31
0.0
  0
LINE
  5
4E
330
1F
100
AcDbEntity
  8
LC-001-100-D00-0
 62
     7
370
    50
100
AcDbLine
 10
142.328971
 20
346.500843
 30
0.0
 11
142.328971
 21
346.300839
 31
0.0
  0
LINE
  5
4F
330
1F
100
AcDbEntity
  8
LC-001-100-D00-0
 62
     7
370
    50
100
AcDbLine
 10
142.328971
 20
346.300839
 30
0.0
 11
142.100409
 21
346.300839
 31
0.0
  0
LINE
  5
50
330
1F
100
AcDbEntity
  8
LC-001-100-D00-0
 62
     7
370
    50
100
AcDbLine
 10
142.100409
 20
346.300839
 30
0.0
 11
142.100409
 21
346.500843
 31
0.0
  0
LINE
  5
51
330
1F
100
AcDbEntity
  8
LC-001-100-D00-0
 62
     7
370
    50
100
AcDbLine
 10
141.330235
 20
346.500843
 30
0.0
 11
142.100409
 21
346.500843
 31
0.0
  0
LINE
  5
52
330
1F
100
AcDbEntity
  8
LC-001-100-D00-0
 62
     7
370
    50
100
AcDbLine
 10
141.330235
 20
346.300839
 30
0.0
 11
141.330235
 21
346.500843
 31
0.0
  0
LINE
  5
53
330
1F
100
AcDbEntity
  8
LC-001-100-D00-0
 62
     7
370
    50
100
AcDbLine
 10
141.330235
 20
346.300839
 30
0.0
 11
141.101674
 21
346.300839
 31
0.0
  0
LINE
  5
54
330
1F
100
AcDbEntity
  8
LC-001-100-D00-0
 62
     7
370
    50
100
AcDbLine
 10
141.101674
 20
346.300839
 30
0.0
 11
141.101674
 21
346.500843
 31
0.0
  0
LINE
  5
55
330
1F
100
AcDbEntity
  8
LC-001-100-D00-0
 62
     7
370
    50
100
AcDbLine
 10
140.573323
 20
346.500843
 30
0.0
 11
141.101674
 21
346.500843
 31
0.0
  0
LINE
  5
56
330
1F
100
AcDbEntity
  8
LC-001-100-D00-0
 62
     7
370
    50
100
AcDbLine
 10
140.573323
 20
346.500843
 30
0.0
 11
140.573323
 21
346.300839
 31
0.0
  0
LINE
  5
57
330
1F
100
AcDbEntity
  8
LC-001-100-D00-0
 62
     7
370
    50
100
AcDbLine
 10
140.573323
 20
346.300839
 30
0.0
 11
140.344754
 21
346.300839
 31
0.0
  0
LINE
  5
58
330
1F
100
AcDbEntity
  8
LC-001-100-D00-0
 62
     7
370
    50
100
AcDbLine
 10
140.344754
 20
346.300839
 30
0.0
 11
140.344754
 21
346.500843
 31
0.0
  0
LINE
  5
59
330
1F
100
AcDbEntity
  8
LC-001-100-D00-0
 62
     7
370
    50
100
AcDbLine
 10
139.839605
 20
346.500843
 30
0.0
 11
140.344754
 21
346.500843
 31
0.0
  0
LINE
  5
5A
330
1F
100
AcDbEntity
  8
LC-001-100-D00-0
 62
     7
370
    50
100
AcDbLine
 10
139.839605
 20
346.300839
 30
0.0
 11
139.839605
 21
346.500843
 31
0.0
  0
LINE
  5
5B
330
1F
100
AcDbEntity
  8
LC-001-100-D00-0
 62
     7
370
    50
100
AcDbLine
 10
139.839605
 20
346.300839
 30
0.0
 11
139.611036
 21
346.300839
 31
0.0
  0
LINE
  5
5C
330
1F
100
AcDbEntity
  8
LC-001-100-D00-0
 62
     7
370
    50
100
AcDbLine
 10
139.611036
 20
346.300839
 30
0.0
 11
139.611036
 21
346.500843
 31
0.0
  0
LINE
  5
5D
330
1F
100
AcDbEntity
  8
LC-001-100-D00-0
 62
     7
370
    50
100
AcDbLine
 10
139.02472
 20
346.500843
 30
0.0
 11
139.611036
 21
346.500843
 31
0.0
  0
LINE
  5
5E
330
1F
100
AcDbEntity
  8
LC-001-100-D00-0
 62
     7
370
    50
100
AcDbLine
 10
139.02472
 20
346.500843
 30
0.0
 11
139.02472
 21
346.300839
 31
0.0
  0
LINE
  5
5F
330
1F
100
AcDbEntity
  8
LC-001-100-D00-0
 62
     7
370
    50
100
AcDbLine
 10
139.02472
 20
346.300839
 30
0.0
 11
137.524136
 21
346.300839
 31
0.0
  0
LINE
  5
60
330
1F
100
AcDbEntity
  8
LC-001-100-D00-0
 62
     7
370
    50
100
AcDbLine
 10
137.524136
 20
346.300839
 30
0.0
 11
137.524136
 21
346.500843
 31
0.0
  0
LINE
  5
61
330
1F
100
AcDbEntity
  8
LC-001-100-D00-0
 62
     7
370
    50
100
AcDbLine
 10
136.93782
 20
346.500843
 30
0.0
 11
137.524136
 21
346.500843
 31
0.0
  0
LINE
  5
62
330
1F
100
AcDbEntity
  8
LC-001-100-D00-0
 62
     7
370
    50
100
AcDbLine
 10
136.93782
 20
346.500843
 30
0.0
 11
136.93782
 21
346.300839
 31
0.0
  0
LINE
  5
63
330
1F
100
AcDbEntity
  8
LC-001-100-D00-0
 62
     7
370
    50
100
AcDbLine
 10
136.93782
 20
346.300839
 30
0.0
 11
136.709259
 21
346.300839
 31
0.0
  0
LINE
  5
64
330
1F
100
AcDbEntity
  8
LC-001-100-D00-0
 62
     7
370
    50
100
AcDbLine
 10
136.709259
 20
346.300839
 30
0.0
 11
136.709259
 21
346.500843
 31
0.0
  0
LINE
  5
65
330
1F
100
AcDbEntity
  8
LC-001-100-D00-0
 62
     7
370
    50
100
AcDbLine
 10
136.129559
 20
346.500843
 30
0.0
 11
136.709259
 21
346.500843
 31
0.0
  0
LINE
  5
66
330
1F
100
AcDbEntity
  8
LC-001-100-D00-0
 62
     7
370
    50
100
AcDbLine
 10
136.129559
 20
346.500843
 30
0.0
 11
136.129559
 21
346.300839
 31
0.0
  0
LINE
  5
67
330
1F
100
AcDbEntity
  8
LC-001-100-D00-0
 62
     7
370
    50
100
AcDbLine
 10
136.129559
 20
346.300839
 30
0.0
 11
135.900997
 21
346.300839
 31
0.0
  0
LINE
  5
68
330
1F
100
AcDbEntity
  8
LC-001-100-D00-0
 62
     7
370
    50
100
AcDbLine
 10
135.900997
 20
346.500843
 30
0.0
 11
135.900997
 21
346.300839
 31
0.0
  0
LINE
  5
69
330
1F
100
AcDbEntity
  8
LC-001-100-D00-0
 62
     7
370
    50
100
AcDbLine
 10
135.314681
 20
346.500843
 30
0.0
 11
135.900997
 21
346.500843
 31
0.0
  0
LINE
  5
6A
330
1F
100
AcDbEntity
  8
LC-001-100-D00-0
 62
     7
370
    50
100
AcDbLine
 10
135.314681
 20
346.300839
 30
0.0
 11
135.314681
 21
346.500843
 31
0.0
  0
LINE
  5
6B
330
1F
100
AcDbEntity
  8
LC-001-100-D00-0
 62
     7
370
    50
100
AcDbLine
 10
135.314681
 20
346.300839
 30
0.0
 11
135.086112
 21
346.300839
 31
0.0
  0
LINE
  5
6C
330
1F
100
AcDbEntity
  8
LC-001-100-D00-0
 62
     7
370
    50
100
AcDbLine
 10
135.086112
 20
346.500843
 30
0.0
 11
135.086112
 21
346.300839
 31
0.0
  0
LINE
  5
6D
330
1F
100
AcDbEntity
  8
LC-001-100-D00-0
 62
     7
370
    50
100
AcDbLine
 10
133.636878
 20
346.500843
 30
0.0
 11
135.086112
 21
346.500843
 31
0.0
  0
LINE
  5
6E
330
1F
100
AcDbEntity
  8
LC-001-100-D00-0
 62
     7
370
    50
100
AcDbLine
 10
133.636878
 20
346.500843
 30
0.0
 11
133.636878
 21
346.300839
 31
0.0
  0
LINE
  5
6F
330
1F
100
AcDbEntity
  8
LC-001-100-D00-0
 62
     7
370
    50
100
AcDbLine
 10
133.636878
 20
346.300839
 30
0.0
 11
133.408309
 21
346.300839
 31
0.0
  0
LINE
  5
70
330
1F
100
AcDbEntity
  8
LC-001-100-D00-0
 62
     7
370
    50
100
AcDbLine
 10
133.408309
 20
346.500843
 30
0.0
 11
133.408309
 21
346.300839
 31
0.0
  0
LINE
  5
71
330
1F
100
AcDbEntity
  8
LC-001-100-D00-0
 62
     7
370
    50
100
AcDbLine
 10
132.821993
 20
346.500843
 30
0.0
 11
133.408309
 21
346.500843
 31
0.0
  0
LINE
  5
72
330
1F
100
AcDbEntity
  8
LC-001-100-D00-0
 62
     7
370
    50
100
AcDbLine
 10
132.821993
 20
346.300839
 30
0.0
 11
132.821993
 21
346.500843
 31
0.0
  0
LINE
  5
73
330
1F
100
AcDbEntity
  8
LC-001-100-D00-0
 62
     7
370
    50
100
AcDbLine
 10
132.821993
 20
346.300839
 30
0.0
 11
132.593431
 21
346.300839
 31
0.0
  0
LINE
  5
74
330
1F
100
AcDbEntity
  8
LC-001-100-D00-0
 62
     7
370
    50
100
AcDbLine
 10
132.593431
 20
346.500843
 30
0.0
 11
132.593431
 21
346.300839
 31
0.0
  0
LINE
  5
75
330
1F
100
AcDbEntity
  8
LC-001-100-D00-0
 62
     7
370
    50
100
AcDbLine
 10
131.144196
 20
346.500843
 30
0.0
 11
132.593431
 21
346.500843
 31
0.0
  0
LINE
  5
76
330
1F
100
AcDbEntity
  8
LC-001-100-D00-0
 62
     7
370
    50
100
AcDbLine
 10
131.144196
 20
346.300839
 30
0.0
 11
131.144196
 21
346.500843
 31
0.0
  0
LINE
  5
77
330
1F
100
AcDbEntity
  8
LC-001-100-D00-0
 62
     7
370
    50
100
AcDbLine
 10
131.144196
 20
346.300839
 30
0.0
 11
130.915627
 21
346.300839
 31
0.0
  0
LINE
  5
78
330
1F
100
AcDbEntity
  8
LC-001-100-D00-0
 62
     7
370
    50
100
AcDbLine
 10
130.915627
 20
346.300839
 30
0.0
 11
130.915627
 21
346.500843
 31
0.0
  0
LINE
  5
79
330
1F
100
AcDbEntity
  8
LC-001-100-D00-0
 62
     7
370
    50
100
AcDbLine
 10
130.329312
 20
346.500843
 30
0.0
 11
130.915627
 21
346.500843
 31
0.0
  0
LINE
  5
7A
330
1F
100
AcDbEntity
  8
LC-001-100-D00-0
 62
     7
370
    50
100
AcDbLine
 10
130.329312
 20
346.500843
 30
0.0
 11
130.329312
 21
346.300839
 31
0.0
  0
LINE
  5
7B
330
1F
100
AcDbEntity
  8
LC-001-100-D00-0
 62
     7
370
    50
100
AcDbLine
 10
130.329312
 20
346.300839
 30
0.0
 11
130.100743
 21
346.300839
 31
0.0
  0
LINE
  5
7C
330
1F
100
AcDbEntity
  8
LC-001-100-D00-0
 62
     7
370
    50
100
AcDbLine
 10
130.100743
 20
346.300839
 30
0.0
 11
130.100743
 21
346.500843
 31
0.0
  0
LINE
  5
7D
330
1F
100
AcDbEntity
  8
LC-001-100-D00-0
 62
     7
370
    50
100
AcDbLine
 10
129.347146
 20
346.500843
 30
0.0
 11
130.100743
 21
346.500843
 31
0.0
  0
LINE
  5
7E
330
1F
100
AcDbEntity
  8
LC-001-100-D00-0
 62
     7
370
    50
100
AcDbLine
 10
129.347146
 20
346.300839
 30
0.0
 11
129.347146
 21
346.500843
 31
0.0
  0
LINE
  5
7F
330
1F
100
AcDbEntity
  8
LC-001-100-D00-0
 62
     7
370
    50
100
AcDbLine
 10
129.347146
 20
346.300839
 30
0.0
 11
129.118577
 21
346.300839
 31
0.0
  0
LINE
  5
80
330
1F
100
AcDbEntity
  8
LC-001-100-D00-0
 62
     7
370
    50
100
AcDbLine
 10
129.118577
 20
346.300839
 30
0.0
 11
129.118577
 21
346.500843
 31
0.0
  0
LINE
  5
81
330
1F
100
AcDbEntity
  8
LC-001-100-D00-0
 62
     7
370
    50
100
AcDbLine
 10
128.474292
 20
346.500843
 30
0.0
 11
129.118577
 21
346.500843
 31
0.0
  0
LINE
  5
82
330
1F
100
AcDbEntity
  8
LC-001-100-D00-0
 62
     7
370
    50
100
AcDbLine
 10
128.474292
 20
346.500843
 30
0.0
 11
128.474292
 21
346.300839
 31
0.0
  0
LINE
  5
83
330
1F
100
AcDbEntity
  8
LC-001-100-D00-0
 62
     7
370
    50
100
AcDbLine
 10
128.474292
 20
346.300839
 30
0.0
 11
128.245727
 21
346.300839
 31
0.0
  0
LINE
  5
84
330
1F
100
AcDbEntity
  8
LC-001-100-D00-0
 62
     7
370
    50
100
AcDbLine
 10
128.245727
 20
346.300839
 30
0.0
 11
128.245727
 21
346.500843
 31
0.0
  0
LINE
  5
85
330
1F
100
AcDbEntity
  8
LC-001-100-D00-0
 62
     7
370
    50
100
AcDbLine
 10
127.492123
 20
346.500843
 30
0.0
 11
128.245727
 21
346.500843
 31
0.0
  0
LINE
  5
86
330
1F
100
AcDbEntity
  8
LC-001-100-D00-0
 62
     7
370
    50
100
AcDbLine
 10
127.492123
 20
346.300839
 30
0.0
 11
127.492123
 21
346.500843
 31
0.0
  0
LINE
  5
87
330
1F
100
AcDbEntity
  8
LC-001-100-D00-0
 62
     7
370
    50
100
AcDbLine
 10
127.492123
 20
346.300839
 30
0.0
 11
127.263558
 21
346.300839
 31
0.0
  0
LINE
  5
88
330
1F
100
AcDbEntity
  8
LC-001-100-D00-0
 62
     7
370
    50
100
AcDbLine
 10
127.263558
 20
346.300839
 30
0.0
 11
127.263558
 21
346.500843
 31
0.0
  0
LINE
  5
89
330
1F
100
AcDbEntity
  8
LC-001-100-D00-0
 62
     7
370
    50
100
AcDbLine
 10
126.677238
 20
346.500843
 30
0.0
 11
127.263558
 21
346.500843
 31
0.0
  0
LINE
  5
8A
330
1F
100
AcDbEntity
  8
LC-001-100-D00-0
 62
     7
370
    50
100
AcDbLine
 10
126.677238
 20
346.500843
 30
0.0
 11
126.677238
 21
346.300839
 31
0.0
  0
LINE
  5
8B
330
1F
100
AcDbEntity
  8
LC-001-100-D00-0
 62
     7
370
    50
100
AcDbLine
 10
126.677238
 20
346.300839
 30
0.0
 11
126.448673
 21
346.300839
 31
0.0
  0
LINE
  5
8C
330
1F
100
AcDbEntity
  8
LC-001-100-D00-0
 62
     7
370
    50
100
AcDbLine
 10
126.448673
 20
346.300839
 30
0.0
 11
126.448673
 21
346.500843
 31
0.0
  0
LINE
  5
8D
330
1F
100
AcDbEntity
  8
LC-001-100-D00-0
 62
     7
370
    50
100
AcDbLine
 10
125.984919
 20
346.500843
 30
0.0
 11
126.448673
 21
346.500843
 31
0.0
  0
LINE
  5
8E
330
1F
100
AcDbEntity
  8
LC-001-100-D00-0
 62
     7
370
    50
100
AcDbLine
 10
125.984919
 20
346.300839
 30
0.0
 11
125.984919
 21
346.500843
 31
0.0
  0
LINE
  5
8F
330
1F
100
AcDbEntity
  8
LC-001-100-D00-0
 62
     7
370
    50
100
AcDbLine
 10
125.984919
 20
346.300839
 30
0.0
 11
125.756354
 21
346.300839
 31
0.0
  0
LINE
  5
90
330
1F
100
AcDbEntity
  8
LC-001-100-D00-0
 62
     7
370
    50
100
AcDbLine
 10
125.756354
 20
346.300839
 30
0.0
 11
125.756354
 21
346.500843
 31
0.0
  0
LINE
  5
91
330
1F
100
AcDbEntity
  8
LC-001-100-D00-0
 62
     7
370
    50
100
AcDbLine
 10
123.66283
 20
346.500843
 30
0.0
 11
125.756354
 21
346.500843
 31
0.0
  0
LINE
  5
92
330
1F
100
AcDbEntity
  8
LC-001-100-D00-0
 62
     7
370
    50
100
AcDbLine
 10
123.66283
 20
346.500843
 30
0.0
 11
123.66283
 21
346.300839
 31
0.0
  0
LINE
  5
93
330
1F
100
AcDbEntity
  8
LC-001-100-D00-0
 62
     7
370
    50
100
AcDbLine
 10
123.66283
 20
346.300839
 30
0.0
 11
123.434265
 21
346.300839
 31
0.0
  0
LINE
  5
94
330
1F
100
AcDbEntity
  8
LC-001-100-D00-0
 62
     7
370
    50
100
AcDbLine
 10
123.434265
 20
346.500843
 30
0.0
 11
123.434265
 21
346.300839
 31
0.0
  0
LINE
  5
95
330
1F
100
AcDbEntity
  8
LC-001-100-D00-0
 62
     7
370
    50
100
AcDbLine
 10
122.796603
 20
346.500843
 30
0.0
 11
123.434265
 21
346.500843
 31
0.0
  0
LINE
  5
96
330
1F
100
AcDbEntity
  8
LC-001-100-D00-0
 62
     7
370
    50
100
AcDbLine
 10
122.796603
 20
346.300839
 30
0.0
 11
122.796603
 21
346.500843
 31
0.0
  0
LINE
  5
97
330
1F
100
AcDbEntity
  8
LC-001-100-D00-0
 62
     7
370
    50
100
AcDbLine
 10
122.796603
 20
346.300839
 30
0.0
 11
122.568038
 21
346.300839
 31
0.0
  0
LINE
  5
98
330
1F
100
AcDbEntity
  8
LC-001-100-D00-0
 62
     7
370
    50
100
AcDbLine
 10
122.568038
 20
346.300839
 30
0.0
 11
122.568038
 21
346.500843
 31
0.0
  0
LINE
  5
99
330
1F
100
AcDbEntity
  8
LC-001-100-D00-0
 62
     7
370
    50
100
AcDbLine
 10
121.981718
 20
346.500843
 30
0.0
 11
122.568038
 21
346.500843
 31
0.0
  0
LINE
  5
9A
330
1F
100
AcDbEntity
  8
LC-001-100-D00-0
 62
     7
370
    50
100
AcDbLine
 10
121.981718
 20
346.500843
 30
0.0
 11
121.981718
 21
346.300839
 31
0.0
  0
LINE
  5
9B
330
1F
100
AcDbEntity
  8
LC-001-100-D00-0
 62
     7
370
    50
100
AcDbLine
 10
121.981718
 20
346.300839
 30
0.0
 11
120.74487
 21
346.300839
 31
0.0
  0
LINE
  5
9C
330
1F
100
AcDbEntity
  8
LC-001-100-D00-0
 62
     7
370
    50
100
AcDbLine
 10
120.74487
 20
346.500843
 30
0.0
 11
120.74487
 21
346.300839
 31
0.0
  0
LINE
  5
9D
330
1F
100
AcDbEntity
  8
LC-001-100-D00-0
 62
     7
370
    50
100
AcDbLine
 10
119.934183
 20
346.500843
 30
0.0
 11
120.74487
 21
346.500843
 31
0.0
  0
LINE
  5
9E
330
1F
100
AcDbEntity
  8
LC-001-100-D00-0
 62
     7
370
    50
100
AcDbLine
 10
119.934183
 20
346.500843
 30
0.0
 11
119.934183
 21
346.300839
 31
0.0
  0
LINE
  5
9F
330
1F
100
AcDbEntity
  8
LC-001-100-D00-0
 62
     7
370
    50
100
AcDbLine
 10
119.934183
 20
346.300839
 30
0.0
 11
119.69388
 21
346.300839
 31
0.0
  0
LINE
  5
A0
330
1F
100
AcDbEntity
  8
LC-001-100-D00-0
 62
     7
370
    50
100
AcDbLine
 10
119.69388
 20
346.500843
 30
0.0
 11
119.69388
 21
346.300839
 31
0.0
  0
LINE
  5
A1
330
1F
100
AcDbEntity
  8
LC-001-100-D00-0
 62
     7
370
    50
100
AcDbLine
 10
114.934043
 20
346.500843
 30
0.0
 11
119.69388
 21
346.500843
 31
0.0
  0
ARC
  5
A2
330
1F
100
AcDbEntity
  8
LC-001-100-D00-0
 62
     7
370
    50
100
AcDbCircle
 10
114.934041
 20
344.500842
 30
0.0
 40
2.0
100
AcDbArc
 50
90.0
 51
180.0
  0
LINE
  5
A3
330
1F
100
AcDbEntity
  8
LC-001-100-D00-0
 62
     7
370
    50
100
AcDbLine
 10
112.934042
 20
344.500839
 30
0.0
 11
112.934042
 21
342.000841
 31
0.0
  0
ARC
  5
A4
330
1F
100
AcDbEntity
  8
LC-001-100-D00-0
 62
     7
370
    50
100
AcDbCircle
 10
183.934041
 20
344.500842
 30
0.0
 40
2.0
100
AcDbArc
 50
90.0
 51
180.0
  0
LINE
  5
A5
330
1F
100
AcDbEntity
  8
LC-001-100-D00-0
 62
     7
370
    50
100
AcDbLine
 10
181.934044
 20
344.500839
 30
0.0
 11
181.934044
 21
342.000841
 31
0.0
  0
LINE
  5
A6
330
1F
100
AcDbEntity
  8
LC-001-100-D00-0
 62
     7
370
    50
100
AcDbLine
 10
183.934041
 20
342.000841
 30
0.0
 11
181.934044
 21
342.000841
 31
0.0
  0
LINE
  5
A7
330
1F
100
AcDbEntity
  8
LC-001-100-D00-0
 62
     7
370
    50
100
AcDbLine
 10
183.934041
 20
344.500839
 30
0.0
 11
183.934041
 21
342.000841
 31
0.0
  0
LINE
  5
A8
330
1F
100
AcDbEntity
  8
LC-001-100-D00-0
 62
     7
370
    50
100
AcDbLine
 10
186.93404
 20
341.50084
 30
0.0
 11
186.93404
 21
344.500839
 31
0.0
  0
LINE
  5
A9
330
1F
100
AcDbEntity
  8
LC-001-100-D00-0
 62
     7
370
    50
100
AcDbLine
 10
188.934044
 20
341.50084
 30
0.0
 11
188.934044
 21
344.500839
 31
0.0
  0
ARC
  5
AA
330
1F
100
AcDbEntity
  8
LC-001-100-D00-0
 62
     7
370
    50
100
AcDbCircle
 10
186.934041
 20
344.500842
 30
0.0
 40
2.0
100
AcDbArc
 50
0.0
 51
90.0
  0
LINE
  5
AB
330
1F
100
AcDbEntity
  8
LC-001-100-D00-0
 62
     7
370
    50
100
AcDbLine
 10
183.934041
 20
344.500839
 30
0.0
 11
186.93404
 21
344.500839
 31
0.0
  0
LINE
  5
AC
330
1F
100
AcDbEntity
  8
LC-001-100-D00-0
 62
     7
370
    50
100
AcDbLine
 10
183.934041
 20
346.500843
 30
0.0
 11
186.93404
 21
346.500843
 31
0.0
  0
LINE
  5
AD
330
1F
100
AcDbEntity
  8
LC-001-100-D00-0
 62
     7
370
    50
100
AcDbLine
 10
186.93404
 20
341.50084
 30
0.0
 11
188.934044
 21
341.50084
 31
0.0
  0
LINE
  5
AE
330
1F
100
AcDbEntity
  8
LC-001-100-D00-0
 62
     7
370
    50
100
AcDbLine
 10
78.934041
 20
342.000841
 30
0.0
 11
78.934041
 21
344.500839
 31
0.0
  0
LINE
  5
AF
330
1F
100
AcDbEntity
  8
LC-001-100-D00-0
 62
     7
370
    50
100
AcDbLine
 10
88.93404
 20
344.500839
 30
0.0
 11
88.93404
 21
342.000841
 31
0.0
  0
LINE
  5
B0
330
1F
100
AcDbEntity
  8
LC-001-100-D00-0
 62
     7
370
    50
100
AcDbLine
 10
91.934041
 20
342.000841
 30
0.0
 11
88.93404
 21
342.000841
 31
0.0
  0
LINE
  5
B1
330
1F
100
AcDbEntity
  8
LC-001-100-D00-0
 62
     7
370
    50
100
AcDbLine
 10
80.934041
 20
342.000841
 30
0.0
 11
80.934041
 21
344.500839
 31
0.0
  0
LINE
  5
B2
330
1F
100
AcDbEntity
  8
LC-001-100-D00-0
 62
     7
370
    50
100
AcDbLine
 10
80.934041
 20
342.000841
 30
0.0
 11
86.934042
 21
342.000841
 31
0.0
  0
LINE
  5
B3
330
1F
100
AcDbEntity
  8
LC-001-100-D00-0
 62
     7
370
    50
100
AcDbLine
 10
86.934042
 20
344.500839
 30
0.0
 11
86.934042
 21
342.000841
 31
0.0
  0
LINE
  5
B4
330
1F
100
AcDbEntity
  8
LC-001-100-D00-0
 62
     7
370
    50
100
AcDbLine
 10
91.934041
 20
342.000841
 30
0.0
 11
91.934041
 21
344.500839
 31
0.0
  0
ARC
  5
B5
330
1F
100
AcDbEntity
  8
LC-001-100-D00-0
 62
     7
370
    50
100
AcDbCircle
 10
160.934041
 20
344.500842
 30
0.0
 40
2.0
100
AcDbArc
 50
0.0
 51
90.0
  0
ARC
  5
B6
330
1F
100
AcDbEntity
  8
LC-001-100-D00-0
 62
     7
370
    50
100
AcDbCircle
 10
157.934041
 20
344.500842
 30
0.0
 40
2.0
100
AcDbArc
 50
90.0
 51
180.0
  0
LINE
  5
B7
330
1F
100
AcDbEntity
  8
LC-001-100-D00-0
 62
     7
370
    50
100
AcDbLine
 10
155.934044
 20
344.500839
 30
0.0
 11
155.934044
 21
342.000841
 31
0.0
  0
LINE
  5
B8
330
1F
100
AcDbEntity
  8
LC-001-100-D00-0
 62
     7
370
    50
100
AcDbLine
 10
157.93404
 20
344.500839
 30
0.0
 11
157.93404
 21
342.000841
 31
0.0
  0
LINE
  5
B9
330
1F
100
AcDbEntity
  8
LC-001-100-D00-0
 62
     7
370
    50
100
AcDbLine
 10
160.934039
 20
342.000841
 30
0.0
 11
160.934039
 21
344.500839
 31
0.0
  0
LINE
  5
BA
330
1F
100
AcDbEntity
  8
LC-001-100-D00-0
 62
     7
370
    50
100
AcDbLine
 10
162.934043
 20
342.000841
 30
0.0
 11
162.934043
 21
344.500839
 31
0.0
  0
LINE
  5
BB
330
1F
100
AcDbEntity
  8
LC-001-100-D00-0
 62
     7
370
    50
100
AcDbLine
 10
157.93404
 20
342.000841
 30
0.0
 11
155.934044
 21
342.000841
 31
0.0
  0
LINE
  5
BC
330
1F
100
AcDbEntity
  8
LC-001-100-D00-0
 62
     7
370
    50
100
AcDbLine
 10
162.934043
 20
342.000841
 30
0.0
 11
160.934039
 21
342.000841
 31
0.0
  0
LINE
  5
BD
330
1F
100
AcDbEntity
  8
LC-001-100-D00-0
 62
     7
370
    50
100
AcDbLine
 10
157.93404
 20
344.500839
 30
0.0
 11
160.934039
 21
344.500839
 31
0.0
  0
LINE
  5
BE
330
1F
100
AcDbEntity
  8
LC-001-100-D00-0
 62
     7
370
    50
100
AcDbLine
 10
157.93404
 20
346.500843
 30
0.0
 11
160.934039
 21
346.500843
 31
0.0
  0
LINE
  5
BF
330
1F
100
AcDbEntity
  8
LC-001-100-D00-0
 62
     7
370
    50
100
AcDbLine
 10
101.934042
 20
344.500839
 30
0.0
 11
101.934042
 21
342.000841
 31
0.0
  0
LINE
  5
C0
330
1F
100
AcDbEntity
  8
LC-001-100-D00-0
 62
     7
370
    50
100
AcDbLine
 10
104.934041
 20
342.000841
 30
0.0
 11
104.934041
 21
344.500839
 31
0.0
  0
LINE
  5
C1
330
1F
100
AcDbEntity
  8
LC-001-100-D00-0
 62
     7
370
    50
100
AcDbLine
 10
106.934041
 20
342.000841
 30
0.0
 11
106.934041
 21
344.500839
 31
0.0
  0
ARC
  5
C2
330
1F
100
AcDbEntity
  8
LC-001-100-D00-0
 62
     7
370
    50
100
AcDbCircle
 10
104.934041
 20
344.500842
 30
0.0
 40
2.0
100
AcDbArc
 50
0.0
 51
90.0
  0
ARC
  5
C3
330
1F
100
AcDbEntity
  8
LC-001-100-D00-0
 62
     7
370
    50
100
AcDbCircle
 10
101.934041
 20
344.500842
 30
0.0
 40
2.0
100
AcDbArc
 50
90.0
 51
180.0
  0
LINE
  5
C4
330
1F
100
AcDbEntity
  8
LC-001-100-D00-0
 62
     7
370
    50
100
AcDbLine
 10
99.934042
 20
344.500839
 30
0.0
 11
99.934042
 21
342.000841
 31
0.0
  0
LINE
  5
C5
330
1F
100
AcDbEntity
  8
LC-001-100-D00-0
 62
     7
370
    50
100
AcDbLine
 10
106.934041
 20
342.000841
 30
0.0
 11
104.934041
 21
342.000841
 31
0.0
  0
LINE
  5
C6
330
1F
100
AcDbEntity
  8
LC-001-100-D00-0
 62
     7
370
    50
100
AcDbLine
 10
101.934042
 20
342.000841
 30
0.0
 11
99.934042
 21
342.000841
 31
0.0
  0
LINE
  5
C7
330
1F
100
AcDbEntity
  8
LC-001-100-D00-0
 62
     7
370
    50
100
AcDbLine
 10
101.934042
 20
344.500839
 30
0.0
 11
104.934041
 21
344.500839
 31
0.0
  0
LINE
  5
C8
330
1F
100
AcDbEntity
  8
LC-001-100-D00-0
 62
     7
370
    50
100
AcDbLine
 10
101.934042
 20
346.500843
 30
0.0
 11
104.934041
 21
346.500843
 31
0.0
  0
ARC
  5
C9
330
1F
100
AcDbEntity
  8
LC-001-100-D00-0
 62
     7
370
    50
100
AcDbCircle
 10
91.934041
 20
344.500842
 30
0.0
 40
2.0
100
AcDbArc
 50
0.0
 51
90.0
  0
ARC
  5
CA
330
1F
100
AcDbEntity
  8
LC-001-100-D00-0
 62
     7
370
    50
100
AcDbCircle
 10
88.934041
 20
344.500842
 30
0.0
 40
2.0
100
AcDbArc
 50
90.0
 51
180.0
  0
LINE
  5
CB
330
1F
100
AcDbEntity
  8
LC-001-100-D00-0
 62
     7
370
    50
100
AcDbLine
 10
93.934041
 20
342.000841
 30
0.0
 11
93.934041
 21
344.500839
 31
0.0
  0
LINE
  5
CC
330
1F
100
AcDbEntity
  8
LC-001-100-D00-0
 62
     7
370
    50
100
AcDbLine
 10
93.934041
 20
342.000841
 30
0.0
 11
91.934041
 21
342.000841
 31
0.0
  0
LINE
  5
CD
330
1F
100
AcDbEntity
  8
LC-001-100-D00-0
 62
     7
370
    50
100
AcDbLine
 10
88.93404
 20
342.000841
 30
0.0
 11
86.934042
 21
342.000841
 31
0.0
  0
LINE
  5
CE
330
1F
100
AcDbEntity
  8
LC-001-100-D00-0
 62
     7
370
    50
100
AcDbLine
 10
88.93404
 20
344.500839
 30
0.0
 11
91.934041
 21
344.500839
 31
0.0
  0
LINE
  5
CF
330
1F
100
AcDbEntity
  8
LC-001-100-D00-0
 62
     7
370
    50
100
AcDbLine
 10
88.93404
 20
346.500843
 30
0.0
 11
91.934041
 21
346.500843
 31
0.0
  0
LINE
  5
D0
330
1F
100
AcDbEntity
  8
LC-001-100-D00-0
 62
     7
370
    50
100
AcDbLine
 10
170.934044
 20
344.500839
 30
0.0
 11
170.934044
 21
342.000841
 31
0.0
  0
LINE
  5
D1
330
1F
100
AcDbEntity
  8
LC-001-100-D00-0
 62
     7
370
    50
100
AcDbLine
 10
173.934043
 20
342.000841
 30
0.0
 11
173.934043
 21
344.500839
 31
0.0
  0
LINE
  5
D2
330
1F
100
AcDbEntity
  8
LC-001-100-D00-0
 62
     7
370
    50
100
AcDbLine
 10
175.93404
 20
342.000841
 30
0.0
 11
175.93404
 21
344.500839
 31
0.0
  0
ARC
  5
D3
330
1F
100
AcDbEntity
  8
LC-001-100-D00-0
 62
     7
370
    50
100
AcDbCircle
 10
173.934041
 20
344.500842
 30
0.0
 40
2.0
100
AcDbArc
 50
0.0
 51
90.0
  0
ARC
  5
D4
330
1F
100
AcDbEntity
  8
LC-001-100-D00-0
 62
     7
370
    50
100
AcDbCircle
 10
170.934041
 20
344.500842
 30
0.0
 40
2.0
100
AcDbArc
 50
90.0
 51
180.0
  0
LINE
  5
D5
330
1F
100
AcDbEntity
  8
LC-001-100-D00-0
 62
     7
370
    50
100
AcDbLine
 10
168.93404
 20
344.500839
 30
0.0
 11
168.93404
 21
342.000841
 31
0.0
  0
LINE
  5
D6
330
1F
100
AcDbEntity
  8
LC-001-100-D00-0
 62
     7
370
    50
100
AcDbLine
 10
170.934044
 20
342.000841
 30
0.0
 11
168.93404
 21
342.000841
 31
0.0
  0
LINE
  5
D7
330
1F
100
AcDbEntity
  8
LC-001-100-D00-0
 62
     7
370
    50
100
AcDbLine
 10
175.93404
 20
342.000841
 30
0.0
 11
173.934043
 21
342.000841
 31
0.0
  0
LINE
  5
D8
330
1F
100
AcDbEntity
  8
LC-001-100-D00-0
 62
     7
370
    50
100
AcDbLine
 10
170.934044
 20
344.500839
 30
0.0
 11
173.934043
 21
344.500839
 31
0.0
  0
LINE
  5
D9
330
1F
100
AcDbEntity
  8
LC-001-100-D00-0
 62
     7
370
    50
100
AcDbLine
 10
170.934044
 20
346.500843
 30
0.0
 11
173.934043
 21
346.500843
 31
0.0
  0
LINE
  5
DA
330
1F
100
AcDbEntity
  8
LC-001-100-D00-0
 62
     7
370
    50
100
AcDbLine
 10
75.934041
 20
344.500839
 30
0.0
 11
75.934041
 21
341.50084
 31
0.0
  0
ARC
  5
DB
330
1F
100
AcDbEntity
  8
LC-001-100-D00-0
 62
     7
370
    50
100
AcDbCircle
 10
78.934041
 20
344.500842
 30
0.0
 40
2.0
100
AcDbArc
 50
0.0
 51
90.0
  0
ARC
  5
DC
330
1F
100
AcDbEntity
  8
LC-001-100-D00-0
 62
     7
370
    50
100
AcDbCircle
 10
75.934041
 20
344.500842
 30
0.0
 40
2.0
100
AcDbArc
 50
90.0
 51
180.0
  0
LINE
  5
DD
330
1F
100
AcDbEntity
  8
LC-001-100-D00-0
 62
     7
370
    50
100
AcDbLine
 10
73.934041
 20
344.500839
 30
0.0
 11
73.934041
 21
341.50084
 31
0.0
  0
LINE
  5
DE
330
1F
100
AcDbEntity
  8
LC-001-100-D00-0
 62
     7
370
    50
100
AcDbLine
 10
80.934041
 20
342.000841
 30
0.0
 11
78.934041
 21
342.000841
 31
0.0
  0
LINE
  5
DF
330
1F
100
AcDbEntity
  8
LC-001-100-D00-0
 62
     7
370
    50
100
AcDbLine
 10
75.934041
 20
344.500839
 30
0.0
 11
78.934041
 21
344.500839
 31
0.0
  0
LINE
  5
E0
330
1F
100
AcDbEntity
  8
LC-001-100-D00-0
 62
     7
370
    50
100
AcDbLine
 10
75.934041
 20
346.500843
 30
0.0
 11
78.934041
 21
346.500843
 31
0.0
  0
LINE
  5
E1
330
1F
100
AcDbEntity
  8
LC-001-100-D00-0
 62
     7
370
    50
100
AcDbLine
 10
73.934041
 20
341.50084
 30
0.0
 11
75.934041
 21
341.50084
 31
0.0
  0
LINE
  5
E2
330
1F
100
AcDbEntity
  8
LC-001-100-D00-0
 62
     7
370
    50
100
AcDbLine
 10
104.934041
 20
342.000841
 30
0.0
 11
101.934042
 21
342.000841
 31
0.0
  0
LINE
  5
E3
330
1F
100
AcDbEntity
  8
LC-001-100-D00-0
 62
     7
370
    50
100
AcDbLine
 10
93.934041
 20
342.000841
 30
0.0
 11
99.498958
 21
342.000841
 31
0.0
  0
LINE
  5
E4
330
1F
100
AcDbEntity
  8
LC-001-100-D00-0
 62
     7
370
    50
100
AcDbLine
 10
116.267361
 20
342.000841
 30
0.0
 11
114.934043
 21
342.000841
 31
0.0
  0
LINE
  5
E5
330
1F
100
AcDbEntity
  8
LC-001-100-D00-0
 62
     7
370
    50
100
AcDbLine
 10
106.934041
 20
342.000841
 30
0.0
 11
108.913821
 21
342.000841
 31
0.0
  0
LINE
  5
E6
330
1F
100
AcDbEntity
  8
LC-001-100-D00-0
 62
     7
370
    50
100
AcDbLine
 10
173.934043
 20
342.000841
 30
0.0
 11
170.934044
 21
342.000841
 31
0.0
  0
LINE
  5
E7
330
1F
100
AcDbEntity
  8
LC-001-100-D00-0
 62
     7
370
    50
100
AcDbLine
 10
147.934043
 20
342.000841
 30
0.0
 11
146.600724
 21
342.000841
 31
0.0
  0
LINE
  5
E8
330
1F
100
AcDbEntity
  8
LC-001-100-D00-0
 62
     7
370
    50
100
AcDbLine
 10
160.934039
 20
342.000841
 30
0.0
 11
157.93404
 21
342.000841
 31
0.0
  0
LINE
  5
E9
330
1F
100
AcDbEntity
  8
LC-001-100-D00-0
 62
     7
370
    50
100
AcDbLine
 10
119.894822
 20
346.300839
 30
0.0
 11
119.894822
 21
346.500843
 31
0.0
  0
LINE
  5
EA
330
1F
100
AcDbEntity
  8
LC-001-100-D00-0
 62
     7
370
    50
100
AcDbLine
 10
119.894822
 20
346.500843
 30
0.0
 11
119.934183
 21
346.500843
 31
0.0
  0
LINE
  5
EB
330
1F
100
AcDbEntity
  8
LC-001-100-D00-0
 62
     7
370
    50
100
AcDbLine
 10
175.93404
 20
342.000841
 30
0.0
 11
181.934044
 21
342.000841
 31
0.0
  0
LINE
  5
EC
330
1F
100
AcDbEntity
  8
LC-001-100-D00-0
 62
     7
370
    50
100
AcDbLine
 10
153.954261
 20
342.000841
 30
0.0
 11
155.934044
 21
342.000841
 31
0.0
  0
LINE
  5
ED
330
1F
100
AcDbEntity
  8
LC-001-100-D00-0
 62
     7
370
    50
100
AcDbLine
 10
163.36912
 20
342.000841
 30
0.0
 11
168.93404
 21
342.000841
 31
0.0
  0
LINE
  5
EE
330
1F
100
AcDbEntity
  8
LC-001-100-D00-0
 62
     7
370
    50
100
AcDbLine
 10
88.597142
 20
346.500843
 30
0.0
 11
78.934041
 21
346.500843
 31
0.0
  0
LINE
  5
EF
330
1F
100
AcDbEntity
  8
LC-001-100-D00-0
 62
     7
370
    50
100
AcDbLine
 10
97.795755
 20
346.500843
 30
0.0
 11
91.934041
 21
346.500843
 31
0.0
  0
LINE
  5
F0
330
1F
100
AcDbEntity
  8
LC-001-100-D00-0
 62
     7
370
    50
100
AcDbLine
 10
107.075435
 20
346.500843
 30
0.0
 11
104.934041
 21
346.500843
 31
0.0
  0
LINE
  5
F1
330
1F
100
AcDbEntity
  8
LC-001-100-D00-0
 62
     7
370
    50
100
AcDbLine
 10
170.934044
 20
346.500843
 30
0.0
 11
165.07233
 21
346.500843
 31
0.0
  0
LINE
  5
F2
330
1F
100
AcDbEntity
  8
LC-001-100-D00-0
 62
     7
370
    50
100
AcDbLine
 10
157.93404
 20
346.500843
 30
0.0
 11
155.792647
 21
346.500843
 31
0.0
  0
LINE
  5
F3
330
1F
100
AcDbEntity
  8
LC-001-100-D00-0
 62
     7
370
    50
100
AcDbLine
 10
183.934041
 20
346.500843
 30
0.0
 11
174.270943
 21
346.500843
 31
0.0
  0
LINE
  5
F4
330
1F
100
AcDbEntity
  8
LC-001-100-D00-0
 62
     7
370
    50
100
AcDbLine
 10
120.883611
 20
346.300839
 30
0.0
 11
120.883611
 21
346.500843
 31
0.0
  0
LINE
  5
F5
330
1F
100
AcDbEntity
  8
LC-001-100-D00-0
 62
     7
370
    50
100
AcDbLine
 10
121.753153
 20
346.300839
 30
0.0
 11
121.753153
 21
346.500843
 31
0.0
  0
LINE
  5
F6
330
1F
100
AcDbEntity
  8
LC-001-100-D00-0
 62
     7
370
    50
100
AcDbLine
 10
120.883611
 20
346.500843
 30
0.0
 11
121.753153
 21
346.500843
 31
0.0
  0
LINE
  5
F7
330
1F
100
AcDbEntity
  8
LC-001-100-D00-0
 62
     7
370
    50
100
AcDbLine
 10
120.74487
 20
346.500843
 30
0.0
 11
120.883611
 21
346.500843
 31
0.0
  0
LINE
  5
F8
330
1F
100
AcDbEntity
  8
LC-001-100-D00-0
 62
     7
370
    50
100
AcDbLine
 10
137.752705
 20
346.300839
 30
0.0
 11
137.752705
 21
346.500843
 31
0.0
  0
LINE
  5
F9
330
1F
100
AcDbEntity
  8
LC-001-100-D00-0
 62
     7
370
    50
100
AcDbLine
 10
138.796151
 20
346.300839
 30
0.0
 11
138.796151
 21
346.500843
 31
0.0
  0
LINE
  5
FA
330
1F
100
AcDbEntity
  8
LC-001-100-D00-0
 62
     7
370
    50
100
AcDbLine
 10
137.752705
 20
346.500843
 30
0.0
 11
138.796151
 21
346.500843
 31
0.0
  0
LINE
  5
FB
330
1F
100
AcDbEntity
  8
LC-001-100-D00-0
 62
     7
370
    50
100
AcDbLine
 10
123.66283
 20
346.500843
 30
0.0
 11
123.434265
 21
346.500843
 31
0.0
  0
LINE
  5
FC
330
1F
100
AcDbEntity
  8
LC-001-100-D00-0
 62
     7
370
    50
100
AcDbLine
 10
141.330235
 20
346.500843
 30
0.0
 11
141.101674
 21
346.500843
 31
0.0
  0
LINE
  5
FD
330
1F
100
AcDbEntity
  8
LC-001-100-D00-0
 62
     7
370
    50
100
AcDbLine
 10
139.02472
 20
346.500843
 30
0.0
 11
138.796151
 21
346.500843
 31
0.0
  0
LINE
  5
FE
330
1F
100
AcDbEntity
  8
LC-001-100-D00-0
 62
     7
370
    50
100
AcDbLine
 10
137.752705
 20
346.500843
 30
0.0
 11
137.524136
 21
346.500843
 31
0.0
  0
LINE
  5
FF
330
1F
100
AcDbEntity
  8
LC-001-100-D00-0
 62
     7
370
    50
100
AcDbLine
 10
130.329312
 20
346.500843
 30
0.0
 11
130.100743
 21
346.500843
 31
0.0
  0
LINE
  5
100
330
1F
100
AcDbEntity
  8
LC-001-100-D00-0
 62
     7
370
    50
100
AcDbLine
 10
129.347146
 20
346.500843
 30
0.0
 11
129.118577
 21
346.500843
 31
0.0
  0
LINE
  5
101
330
1F
100
AcDbEntity
  8
LC-001-100-D00-0
 62
     7
370
    50
100
AcDbLine
 10
128.474292
 20
346.500843
 30
0.0
 11
128.245727
 21
346.500843
 31
0.0
  0
LINE
  5
102
330
1F
100
AcDbEntity
  8
LC-001-100-D00-0
 62
     7
370
    50
100
AcDbLine
 10
127.492123
 20
346.500843
 30
0.0
 11
127.263558
 21
346.500843
 31
0.0
  0
LINE
  5
103
330
1F
100
AcDbEntity
  8
LC-001-100-D00-0
 62
     7
370
    50
100
AcDbLine
 10
142.100409
 20
346.500843
 30
0.0
 11
142.328971
 21
346.500843
 31
0.0
  0
LINE
  5
104
330
1F
100
AcDbEntity
  8
LC-001-100-D00-0
 62
     7
370
    50
100
AcDbLine
 10
121.753153
 20
346.500843
 30
0.0
 11
121.981718
 21
346.500843
 31
0.0
  0
LINE
  5
105
330
1F
100
AcDbEntity
  8
LC-001-100-D00-0
 62
     7
370
    50
100
AcDbLine
 10
126.677238
 20
346.500843
 30
0.0
 11
126.448673
 21
346.500843
 31
0.0
  0
LINE
  5
106
330
1F
100
AcDbEntity
  8
LC-001-100-D00-0
 62
     7
370
    50
100
AcDbLine
 10
140.573323
 20
346.500843
 30
0.0
 11
140.344754
 21
346.500843
 31
0.0
  0
LINE
  5
107
330
1F
100
AcDbEntity
  8
LC-001-100-D00-0
 62
     7
370
    50
100
AcDbLine
 10
139.839605
 20
346.500843
 30
0.0
 11
139.611036
 21
346.500843
 31
0.0
  0
LINE
  5
108
330
1F
100
AcDbEntity
  8
LC-001-100-D00-0
 62
     7
370
    50
100
AcDbLine
 10
136.93782
 20
346.500843
 30
0.0
 11
136.709259
 21
346.500843
 31
0.0
  0
LINE
  5
109
330
1F
100
AcDbEntity
  8
LC-001-100-D00-0
 62
     7
370
    50
100
AcDbLine
 10
131.144196
 20
346.500843
 30
0.0
 11
130.915627
 21
346.500843
 31
0.0
  0
LINE
  5
10A
330
1F
100
AcDbEntity
  8
LC-001-100-D00-0
 62
     7
370
    50
100
AcDbLine
 10
119.894822
 20
346.500843
 30
0.0
 11
119.69388
 21
346.500843
 31
0.0
  0
LINE
  5
10B
330
1F
100
AcDbEntity
  8
LC-001-100-D00-0
 62
     7
370
    50
100
AcDbLine
 10
136.129559
 20
346.500843
 30
0.0
 11
135.900997
 21
346.500843
 31
0.0
  0
LINE
  5
10C
330
1F
100
AcDbEntity
  8
LC-001-100-D00-0
 62
     7
370
    50
100
AcDbLine
 10
135.314681
 20
346.500843
 30
0.0
 11
135.086112
 21
346.500843
 31
0.0
  0
LINE
  5
10D
330
1F
100
AcDbEntity
  8
LC-001-100-D00-0
 62
     7
370
    50
100
AcDbLine
 10
133.636878
 20
346.500843
 30
0.0
 11
133.408309
 21
346.500843
 31
0.0
  0
LINE
  5
10E
330
1F
100
AcDbEntity
  8
LC-001-100-D00-0
 62
     7
370
    50
100
AcDbLine
 10
132.821993
 20
346.500843
 30
0.0
 11
132.593431
 21
346.500843
 31
0.0
  0
LINE
  5
10F
330
1F
100
AcDbEntity
  8
LC-001-100-D00-0
 62
     7
370
    50
100
AcDbLine
 10
125.756354
 20
346.500843
 30
0.0
 11
125.984919
 21
346.500843
 31
0.0
  0
LINE
  5
110
330
1F
100
AcDbEntity
  8
LC-001-100-D00-0
 62
     7
370
    50
100
AcDbLine
 10
122.568038
 20
346.500843
 30
0.0
 11
122.796603
 21
346.500843
 31
0.0
  0
LINE
  5
111
330
1F
100
AcDbEntity
  8
LC-001-100-D00-0
 62
     7
370
    50
100
AcDbLine
 10
142.97326
 20
346.500843
 30
0.0
 11
143.201829
 21
346.500843
 31
0.0
  0
LINE
  5
112
330
1F
100
AcDbEntity
  8
LC-001-100-D00-0
 62
     7
370
    50
100
AcDbLine
 10
155.792647
 20
346.500843
 30
0.0
 11
147.934043
 21
346.500843
 31
0.0
  0
LINE
  5
113
330
1F
100
AcDbEntity
  8
LC-001-100-D00-0
 62
     7
370
    50
100
AcDbLine
 10
146.600724
 20
342.000841
 30
0.0
 11
146.196686
 21
342.000841
 31
0.0
  0
LINE
  5
114
330
1F
100
AcDbEntity
  8
LC-001-100-D00-0
 62
     7
370
    50
100
AcDbLine
 10
114.934043
 20
346.500843
 30
0.0
 11
107.075435
 21
346.500843
 31
0.0
  0
LINE
  5
115
330
1F
100
AcDbEntity
  8
LC-001-100-D00-0
 62
     7
370
    50
100
AcDbLine
 10
116.671399
 20
342.000841
 30
0.0
 11
116.267361
 21
342.000841
 31
0.0
  0
LINE
  5
116
330
1F
100
AcDbEntity
  8
LC-001-100-D00-0
 62
     7
370
    50
100
AcDbLine
 10
149.934039
 20
342.000841
 30
0.0
 11
153.954261
 21
342.000841
 31
0.0
  0
LINE
  5
117
330
1F
100
AcDbEntity
  8
LC-001-100-D00-0
 62
     7
370
    50
100
AcDbLine
 10
108.913821
 20
342.000841
 30
0.0
 11
112.934042
 21
342.000841
 31
0.0
  0
LINE
  5
118
330
1F
100
AcDbEntity
  8
LC-001-100-D00-0
 62
     7
370
    50
100
AcDbLine
 10
144.900911
 20
342.000841
 30
0.0
 11
137.931877
 21
342.000841
 31
0.0
  0
LINE
  5
119
330
1F
100
AcDbEntity
  8
LC-001-100-D00-0
 62
     7
370
    50
100
AcDbLine
 10
124.936209
 20
342.000841
 30
0.0
 11
117.967167
 21
342.000841
 31
0.0
  0
LINE
  5
11A
330
1F
100
AcDbEntity
  8
LC-001-100-D00-0
 62
     7
370
    50
100
AcDbLine
 10
137.931877
 20
342.000841
 30
0.0
 11
124.936209
 21
342.000841
 31
0.0
  0
LINE
  5
11B
330
1F
100
AcDbEntity
  8
LC-001-100-D00-0
 62
     7
370
    50
100
AcDbLine
 10
165.07233
 20
346.500843
 30
0.0
 11
160.934039
 21
346.500843
 31
0.0
  0
LINE
  5
11C
330
1F
100
AcDbEntity
  8
LC-001-100-D00-0
 62
     7
370
    50
100
AcDbLine
 10
101.934042
 20
346.500843
 30
0.0
 11
97.795755
 21
346.500843
 31
0.0
  0
LINE
  5
11D
330
1F
100
AcDbEntity
  8
LC-001-100-D00-0
 62
     7
370
    50
100
AcDbLine
 10
162.934043
 20
342.000841
 30
0.0
 11
163.36912
 21
342.000841
 31
0.0
  0
LINE
  5
11E
330
1F
100
AcDbEntity
  8
LC-001-100-D00-0
 62
     7
370
    50
100
AcDbLine
 10
99.498958
 20
342.000841
 30
0.0
 11
99.934042
 21
342.000841
 31
0.0
  0
LINE
  5
11F
330
1F
100
AcDbEntity
  8
LC-001-100-D00-0
 62
     7
370
    50
100
AcDbLine
 10
146.196686
 20
342.000841
 30
0.0
 11
144.900911
 21
342.000841
 31
0.0
  0
LINE
  5
120
330
1F
100
AcDbEntity
  8
LC-001-100-D00-0
 62
     7
370
    50
100
AcDbLine
 10
117.967167
 20
342.000841
 30
0.0
 11
116.671399
 21
342.000841
 31
0.0
  0
LINE
  5
121
330
1F
100
AcDbEntity
  8
LC-001-100-D00-0
 62
     7
370
    50
100
AcDbLine
 10
121.976767
 20
341.50084
 30
0.0
 11
140.891314
 21
341.50084
 31
0.0
  0
LINE
  5
122
330
1F
100
AcDbEntity
  8
LC-001-100-D00-0
 62
     7
370
    50
100
AcDbLine
 10
88.597142
 20
346.500843
 30
0.0
 11
88.748517
 21
346.492222
 31
0.0
  0
LINE
  5
123
330
1F
100
AcDbEntity
  8
LC-001-100-D00-0
 62
     7
370
    50
100
AcDbLine
 10
174.270943
 20
346.500843
 30
0.0
 11
174.119563
 21
346.492222
 31
0.0
  0
INSERT
  5
129
330
1F
100
AcDbEntity
  8
LC-001-100-D00-0
 62
     7
370
    25
100
AcDbBlockReference
  2
KLON1
 10
0.0
 20
0.0
 30
0.0
  0
LINE
  5
12A
330
1F
100
AcDbEntity
  8
LC-001-100-D00-0
 62
     7
370
    25
100
AcDbLine
 10
170.934041
 20
343.454639
 30
0.0
 11
169.097027
 21
345.291652
 31
0.0
  0
LINE
  5
12B
330
1F
100
AcDbEntity
  8
LC-001-100-D00-0
 62
     7
370
    25
100
AcDbLine
 10
188.934041
 20
343.415151
 30
0.0
 11
185.84835
 21
346.500842
 31
0.0
  0
INSERT
  5
131
330
1F
100
AcDbEntity
  8
LC-001-100-D00-0
 62
     7
370
    25
100
AcDbBlockReference
  2
KLON2
 10
0.0
 20
0.0
 30
0.0
  0
INSERT
  5
137
330
1F
100
AcDbEntity
  8
LC-001-100-D00-0
 62
     7
370
    25
100
AcDbBlockReference
  2
KLON3
 10
0.0
 20
0.0
 30
0.0
  0
LINE
  5
138
330
1F
100
AcDbEntity
  8
LC-001-100-D00-0
 62
     7
370
    25
100
AcDbLine
 10
89.065532
 20
344.500842
 30
0.0
 11
87.587102
 21
345.979272
 31
0.0
  0
INSERT
  5
141
330
1F
100
AcDbEntity
  8
LC-001-100-D00-0
 62
     7
370
    25
100
AcDbBlockReference
  2
KLON4
 10
0.0
 20
0.0
 30
0.0
  0
LINE
  5
142
330
1F
100
AcDbEntity
  8
LC-001-100-D00-0
 62
     7
370
    50
100
AcDbLine
 10
186.934041
 20
338.875792
 30
0.0
 11
190.934041
 21
342.875792
 31
0.0
  0
LINE
  5
143
330
1F
100
AcDbEntity
  8
LC-001-100-D00-0
 62
     7
370
    25
100
AcDbLine
 10
73.96503
 20
333.669854
 30
0.0
 11
75.934041
 21
335.638865
 31
0.0
  0
LINE
  5
144
330
1F
100
AcDbEntity
  8
LC-001-100-D00-0
 62
     7
370
    50
100
AcDbLine
 10
173.084044
 20
314.405135
 30
0.0
 11
171.584041
 21
314.405135
 31
0.0
  0
LINE
  5
145
330
1F
100
AcDbEntity
  8
LC-001-100-D00-0
 62
     7
370
    50
100
AcDbLine
 10
91.284041
 20
314.405135
 30
0.0
 11
89.784042
 21
314.405135
 31
0.0
  0
LINE
  5
146
330
1F
100
AcDbEntity
  8
LC-001-100-D00-0
 62
     7
370
    50
100
AcDbLine
 10
234.734044
 20
253.150842
 30
0.0
 11
234.734044
 21
255.050842
 31
0.0
  0
LINE
  5
147
330
1F
100
AcDbEntity
  8
LC-001-100-D00-0
 62
     7
370
    50
100
AcDbLine
 10
234.734044
 20
296.750842
 30
0.0
 11
234.734044
 21
298.650841
 31
0.0
  0
LINE
  5
148
330
1F
100
AcDbEntity
  8
LC-001-100-D00-0
 62
     7
370
    50
100
AcDbLine
 10
301.407546
 20
255.559701
 30
0.0
 11
301.210583
 21
255.900842
 31
0.0
  0
LINE
  5
149
330
1F
100
AcDbEntity
  8
LC-001-100-D00-0
 62
     7
370
    50
100
AcDbLine
 10
295.830995
 20
295.900843
 30
0.0
 11
301.407546
 21
305.559701
 31
0.0
  0
LINE
  5
14A
330
1F
100
AcDbEntity
  8
LC-001-100-D00-0
 62
     7
370
    50
100
AcDbLine
 10
346.634046
 20
255.559701
 30
0.0
 11
301.407546
 21
255.559701
 31
0.0
  0
LINE
  5
14B
330
1F
100
AcDbEntity
  8
LC-001-100-D00-0
 62
     7
370
    50
100
AcDbLine
 10
301.407546
 20
305.559701
 30
0.0
 11
346.634046
 21
305.559701
 31
0.0
  0
LINE
  5
14C
330
1F
100
AcDbEntity
  8
LC-001-100-D00-0
 62
     7
370
    50
100
AcDbLine
 10
346.634046
 20
305.559701
 30
0.0
 11
349.634037
 21
304.755854
 31
0.0
  0
LINE
  5
14D
330
1F
100
AcDbEntity
  8
LC-001-100-D00-0
 62
     7
370
    50
100
AcDbLine
 10
349.634037
 20
256.363549
 30
0.0
 11
346.634046
 21
255.559701
 31
0.0
  0
LINE
  5
14E
330
1F
100
AcDbEntity
  8
LC-001-100-D00-0
 62
     7
370
    50
100
AcDbLine
 10
305.895523
 20
309.300839
 30
0.0
 11
258.893759
 21
309.300839
 31
0.0
  0
LINE
  5
14F
330
1F
100
AcDbEntity
  8
LC-001-100-D00-0
 62
     7
370
    50
100
AcDbLine
 10
355.895535
 20
309.300839
 30
0.0
 11
306.972564
 21
309.300839
 31
0.0
  0
LINE
  5
150
330
1F
100
AcDbEntity
  8
LC-001-100-D00-0
 62
     7
370
    50
100
AcDbLine
 10
357.934043
 20
309.300839
 30
0.0
 11
356.972561
 21
309.300839
 31
0.0
  0
LINE
  5
151
330
1F
100
AcDbEntity
  8
LC-001-100-D00-0
 62
     7
370
    50
100
AcDbLine
 10
258.156986
 20
312.300845
 30
0.0
 11
357.934043
 21
312.300845
 31
0.0
  0
LINE
  5
152
330
1F
100
AcDbEntity
  8
LC-001-100-D00-0
 62
     7
370
    50
100
AcDbLine
 10
-94.104468
 20
309.300839
 30
0.0
 11
-95.065966
 21
309.300839
 31
0.0
  0
LINE
  5
153
330
1F
100
AcDbEntity
  8
LC-001-100-D00-0
 62
     7
370
    50
100
AcDbLine
 10
-44.104479
 20
309.300839
 30
0.0
 11
-93.027442
 21
309.300839
 31
0.0
  0
LINE
  5
154
330
1F
100
AcDbEntity
  8
LC-001-100-D00-0
 62
     7
370
    50
100
AcDbLine
 10
3.97433
 20
309.300839
 30
0.0
 11
-43.027445
 21
309.300839
 31
0.0
  0
LINE
  5
155
330
1F
100
AcDbEntity
  8
LC-001-100-D00-0
 62
     7
370
    50
100
AcDbLine
 10
-95.065966
 20
312.300845
 30
0.0
 11
4.711092
 21
312.300845
 31
0.0
  0
LINE
  5
156
330
1F
100
AcDbEntity
  8
LC-001-100-D00-0
 62
     7
370
    50
100
AcDbLine
 10
170.622804
 20
319.400846
 30
0.0
 11
170.622804
 21
319.700843
 31
0.0
  0
LINE
  5
157
330
1F
100
AcDbEntity
  8
LC-001-100-D00-0
 62
     7
370
    50
100
AcDbLine
 10
92.245281
 20
319.700843
 30
0.0
 11
92.245281
 21
319.400846
 31
0.0
  0
LINE
  5
158
330
1F
100
AcDbEntity
  8
LC-001-100-D00-0
 62
     7
370
    50
100
AcDbLine
 10
147.080772
 20
319.400846
 30
0.0
 11
147.080772
 21
319.700843
 31
0.0
  0
LINE
  5
159
330
1F
100
AcDbEntity
  8
LC-001-100-D00-0
 62
     7
370
    50
100
AcDbLine
 10
115.787313
 20
319.700843
 30
0.0
 11
115.787313
 21
319.400846
 31
0.0
  0
ARC
  5
15A
330
1F
100
AcDbEntity
  8
LC-001-100-D00-0
 62
     7
370
    50
100
AcDbCircle
 10
40.434041
 20
233.897456
 30
0.0
 40
0.5
100
AcDbArc
 50
0.0
 51
90.0
  0
ARC
  5
15B
330
1F
100
AcDbEntity
  8
LC-001-100-D00-0
 62
     7
370
    50
100
AcDbCircle
 10
22.434041
 20
233.897456
 30
0.0
 40
0.5
100
AcDbArc
 50
90.0
 51
180.0
  0
LINE
  5
15C
330
1F
100
AcDbEntity
  8
LC-001-100-D00-0
 62
     7
370
    50
100
AcDbLine
 10
40.934042
 20
233.897458
 30
0.0
 11
40.934042
 21
226.397458
 31
0.0
  0
LINE
  5
15D
330
1F
100
AcDbEntity
  8
LC-001-100-D00-0
 62
     7
370
    50
100
AcDbLine
 10
21.934041
 20
226.397458
 30
0.0
 11
21.934041
 21
233.897458
 31
0.0
  0
ARC
  5
15E
330
1F
100
AcDbEntity
  8
LC-001-100-D00-0
 62
     7
370
    50
100
AcDbCircle
 10
240.434041
 20
233.897456
 30
0.0
 40
0.5
100
AcDbArc
 50
0.0
 51
90.0
  0
ARC
  5
15F
330
1F
100
AcDbEntity
  8
LC-001-100-D00-0
 62
     7
370
    50
100
AcDbCircle
 10
222.434041
 20
233.897456
 30
0.0
 40
0.5
100
AcDbArc
 50
90.0
 51
180.0
  0
LINE
  5
160
330
1F
100
AcDbEntity
  8
LC-001-100-D00-0
 62
     7
370
    50
100
AcDbLine
 10
240.934045
 20
233.897458
 30
0.0
 11
240.934045
 21
226.546262
 31
0.0
  0
LINE
  5
161
330
1F
100
AcDbEntity
  8
LC-001-100-D00-0
 62
     7
370
    50
100
AcDbLine
 10
221.934036
 20
226.546262
 30
0.0
 11
221.934036
 21
233.897458
 31
0.0
  0
LINE
  5
162
330
1F
100
AcDbEntity
  8
LC-001-100-D00-0
 62
     7
370
    50
100
AcDbLine
 10
241.434038
 20
250.168373
 30
0.0
 11
241.434038
 21
249.397456
 31
0.0
  0
LINE
  5
163
330
1F
100
AcDbEntity
  8
LC-001-100-D00-0
 62
     7
370
    50
100
AcDbLine
 10
221.434042
 20
249.397456
 30
0.0
 11
221.434042
 21
252.695024
 31
0.0
  0
LINE
  5
164
330
1F
100
AcDbEntity
  8
LC-001-100-D00-0
 62
     7
370
    50
100
AcDbLine
 10
241.434038
 20
245.897456
 30
0.0
 11
241.434038
 21
235.397458
 31
0.0
  0
LINE
  5
165
330
1F
100
AcDbEntity
  8
LC-001-100-D00-0
 62
     7
370
    50
100
AcDbLine
 10
221.434042
 20
235.397458
 30
0.0
 11
221.434042
 21
245.897456
 31
0.0
  0
LINE
  5
166
330
1F
100
AcDbEntity
  8
LC-001-100-D00-0
 62
     7
370
    50
100
AcDbLine
 10
241.434038
 20
235.397458
 30
0.0
 11
240.434036
 21
234.397455
 31
0.0
  0
LINE
  5
167
330
1F
100
AcDbEntity
  8
LC-001-100-D00-0
 62
     7
370
    50
100
AcDbLine
 10
222.434045
 20
234.397455
 30
0.0
 11
221.434042
 21
235.397458
 31
0.0
  0
LINE
  5
168
330
1F
100
AcDbEntity
  8
LC-001-100-D00-0
 62
     7
370
    50
100
AcDbLine
 10
239.334047
 20
249.397456
 30
0.0
 11
239.334047
 21
245.897456
 31
0.0
  0
LINE
  5
169
330
1F
100
AcDbEntity
  8
LC-001-100-D00-0
 62
     7
370
    50
100
AcDbLine
 10
223.534048
 20
245.897456
 30
0.0
 11
223.534048
 21
249.397456
 31
0.0
  0
LINE
  5
16A
330
1F
100
AcDbEntity
  8
LC-001-100-D00-0
 62
     7
370
    50
100
AcDbLine
 10
41.434041
 20
294.400844
 30
0.0
 11
41.434041
 21
249.397456
 31
0.0
  0
LINE
  5
16B
330
1F
100
AcDbEntity
  8
LC-001-100-D00-0
 62
     7
370
    50
100
AcDbLine
 10
21.434039
 20
249.397456
 30
0.0
 11
21.434039
 21
294.400844
 31
0.0
  0
LINE
  5
16C
330
1F
100
AcDbEntity
  8
LC-001-100-D00-0
 62
     7
370
    50
100
AcDbLine
 10
41.434041
 20
245.897456
 30
0.0
 11
41.434041
 21
235.397458
 31
0.0
  0
LINE
  5
16D
330
1F
100
AcDbEntity
  8
LC-001-100-D00-0
 62
     7
370
    50
100
AcDbLine
 10
21.434039
 20
235.397458
 30
0.0
 11
21.434039
 21
245.897456
 31
0.0
  0
LINE
  5
16E
330
1F
100
AcDbEntity
  8
LC-001-100-D00-0
 62
     7
370
    50
100
AcDbLine
 10
41.434041
 20
235.397458
 30
0.0
 11
40.434041
 21
234.397455
 31
0.0
  0
LINE
  5
16F
330
1F
100
AcDbEntity
  8
LC-001-100-D00-0
 62
     7
370
    50
100
AcDbLine
 10
22.434042
 20
234.397455
 30
0.0
 11
21.434039
 21
235.397458
 31
0.0
  0
LINE
  5
170
330
1F
100
AcDbEntity
  8
LC-001-100-D00-0
 62
     7
370
    50
100
AcDbLine
 10
39.334041
 20
249.397456
 30
0.0
 11
39.334041
 21
245.897456
 31
0.0
  0
LINE
  5
171
330
1F
100
AcDbEntity
  8
LC-001-100-D00-0
 62
     7
370
    50
100
AcDbLine
 10
23.534042
 20
245.897456
 30
0.0
 11
23.534042
 21
249.397456
 31
0.0
  0
LINE
  5
172
330
1F
100
AcDbEntity
  8
LC-001-100-D00-0
 62
     7
370
    50
100
AcDbLine
 10
189.434045
 20
326.700843
 30
0.0
 11
187.734038
 21
326.700843
 31
0.0
  0
LINE
  5
173
330
1F
100
AcDbEntity
  8
LC-001-100-D00-0
 62
     7
370
    50
100
AcDbLine
 10
186.93404
 20
325.900844
 30
0.0
 11
187.734038
 21
326.700843
 31
0.0
  0
LINE
  5
174
330
1F
100
AcDbEntity
  8
LC-001-100-D00-0
 62
     7
370
    50
100
AcDbLine
 10
186.93404
 20
325.900844
 30
0.0
 11
186.93404
 21
319.700843
 31
0.0
  0
LINE
  5
175
330
1F
100
AcDbEntity
  8
LC-001-100-D00-0
 62
     7
370
    50
100
AcDbLine
 10
189.18404
 20
320.200844
 30
0.0
 11
188.684039
 21
319.700843
 31
0.0
  0
LINE
  5
176
330
1F
100
AcDbEntity
  8
LC-001-100-D00-0
 62
     7
370
    50
100
AcDbLine
 10
189.18404
 20
320.200844
 30
0.0
 11
189.18404
 21
324.700839
 31
0.0
  0
LINE
  5
177
330
1F
100
AcDbEntity
  8
LC-001-100-D00-0
 62
     7
370
    50
100
AcDbLine
 10
189.18404
 20
324.700839
 30
0.0
 11
190.93404
 21
324.700839
 31
0.0
  0
LINE
  5
178
330
1F
100
AcDbEntity
  8
LC-001-100-D00-0
 62
     7
370
    50
100
AcDbLine
 10
190.93404
 20
324.700839
 30
0.0
 11
190.93404
 21
332.200839
 31
0.0
  0
LINE
  5
179
330
1F
100
AcDbEntity
  8
LC-001-100-D00-0
 62
     7
370
    50
100
AcDbLine
 10
190.93404
 20
332.200839
 30
0.0
 11
189.934038
 21
332.200839
 31
0.0
  0
ARC
  5
17A
330
1F
100
AcDbEntity
  8
LC-001-100-D00-0
 62
     7
370
    50
100
AcDbCircle
 10
189.934041
 20
331.700842
 30
0.0
 40
0.5000000000001137
100
AcDbArc
 50
90.0
 51
180.0
  0
LINE
  5
17B
330
1F
100
AcDbEntity
  8
LC-001-100-D00-0
 62
     7
370
    50
100
AcDbLine
 10
189.434045
 20
331.700845
 30
0.0
 11
189.434045
 21
326.700843
 31
0.0
  0
LINE
  5
17C
330
1F
100
AcDbEntity
  8
LC-001-100-D00-0
 62
     7
370
    50
100
AcDbLine
 10
186.93404
 20
319.700843
 30
0.0
 11
188.684039
 21
319.700843
 31
0.0
  0
LINE
  5
17D
330
1F
100
AcDbEntity
  8
LC-001-100-D00-0
 62
     7
370
    50
100
AcDbLine
 10
187.734038
 20
326.700843
 30
0.0
 11
75.134041
 21
326.700843
 31
0.0
  0
LINE
  5
17E
330
1F
100
AcDbEntity
  8
LC-001-100-D00-0
 62
     7
370
    50
100
AcDbLine
 10
75.134041
 20
326.700843
 30
0.0
 11
75.934041
 21
325.900844
 31
0.0
  0
LINE
  5
17F
330
1F
100
AcDbEntity
  8
LC-001-100-D00-0
 62
     7
370
    50
100
AcDbLine
 10
75.934041
 20
325.900844
 30
0.0
 11
186.93404
 21
325.900844
 31
0.0
  0
LINE
  5
180
330
1F
100
AcDbEntity
  8
LC-001-100-D00-0
 62
     7
370
    50
100
AcDbLine
 10
73.434041
 20
326.700843
 30
0.0
 11
73.434041
 21
331.700845
 31
0.0
  0
LINE
  5
181
330
1F
100
AcDbEntity
  8
LC-001-100-D00-0
 62
     7
370
    50
100
AcDbLine
 10
75.934041
 20
319.700843
 30
0.0
 11
75.934041
 21
325.900844
 31
0.0
  0
LINE
  5
182
330
1F
100
AcDbEntity
  8
LC-001-100-D00-0
 62
     7
370
    50
100
AcDbLine
 10
186.93404
 20
319.700843
 30
0.0
 11
183.083714
 21
319.700843
 31
0.0
  0
LINE
  5
183
330
1F
100
AcDbEntity
  8
LC-001-100-D00-0
 62
     7
370
    50
100
AcDbLine
 10
170.622804
 20
319.700843
 30
0.0
 11
153.593407
 21
319.700843
 31
0.0
  0
LINE
  5
184
330
1F
100
AcDbEntity
  8
LC-001-100-D00-0
 62
     7
370
    50
100
AcDbLine
 10
147.080772
 20
319.700843
 30
0.0
 11
115.787313
 21
319.700843
 31
0.0
  0
LINE
  5
185
330
1F
100
AcDbEntity
  8
LC-001-100-D00-0
 62
     7
370
    50
100
AcDbLine
 10
109.274679
 20
319.700843
 30
0.0
 11
92.245281
 21
319.700843
 31
0.0
  0
LINE
  5
186
330
1F
100
AcDbEntity
  8
LC-001-100-D00-0
 62
     7
370
    50
100
AcDbLine
 10
79.784368
 20
319.700843
 30
0.0
 11
75.934041
 21
319.700843
 31
0.0
  0
ARC
  5
187
330
1F
100
AcDbEntity
  8
LC-001-100-D00-0
 62
     7
370
    50
100
AcDbCircle
 10
72.934041
 20
331.700842
 30
0.0
 40
0.5000000000001137
100
AcDbArc
 50
0.0
 51
90.0
  0
LINE
  5
188
330
1F
100
AcDbEntity
  8
LC-001-100-D00-0
 62
     7
370
    50
100
AcDbLine
 10
72.934041
 20
332.200839
 30
0.0
 11
71.934041
 21
332.200839
 31
0.0
  0
LINE
  5
189
330
1F
100
AcDbEntity
  8
LC-001-100-D00-0
 62
     7
370
    50
100
AcDbLine
 10
71.934041
 20
332.200839
 30
0.0
 11
71.934041
 21
324.700839
 31
0.0
  0
LINE
  5
18A
330
1F
100
AcDbEntity
  8
LC-001-100-D00-0
 62
     7
370
    50
100
AcDbLine
 10
73.684041
 20
324.700839
 30
0.0
 11
73.684041
 21
320.200844
 31
0.0
  0
LINE
  5
18B
330
1F
100
AcDbEntity
  8
LC-001-100-D00-0
 62
     7
370
    50
100
AcDbLine
 10
74.184041
 20
319.700843
 30
0.0
 11
73.684041
 21
320.200844
 31
0.0
  0
LINE
  5
18C
330
1F
100
AcDbEntity
  8
LC-001-100-D00-0
 62
     7
370
    50
100
AcDbLine
 10
75.134041
 20
326.700843
 30
0.0
 11
73.434041
 21
326.700843
 31
0.0
  0
LINE
  5
18D
330
1F
100
AcDbEntity
  8
LC-001-100-D00-0
 62
     7
370
    50
100
AcDbLine
 10
71.934041
 20
324.700839
 30
0.0
 11
73.684041
 21
324.700839
 31
0.0
  0
LINE
  5
18E
330
1F
100
AcDbEntity
  8
LC-001-100-D00-0
 62
     7
370
    50
100
AcDbLine
 10
74.184041
 20
319.700843
 30
0.0
 11
75.934041
 21
319.700843
 31
0.0
  0
LINE
  5
18F
330
1F
100
AcDbEntity
  8
LC-001-100-D00-0
 62
     7
370
    50
100
AcDbLine
 10
190.93404
 20
332.200839
 30
0.0
 11
190.93404
 21
339.700839
 31
0.0
  0
LINE
  5
190
330
1F
100
AcDbEntity
  8
LC-001-100-D00-0
 62
     7
370
    50
100
AcDbLine
 10
71.934041
 20
339.700839
 30
0.0
 11
71.934041
 21
332.200839
 31
0.0
  0
ARC
  5
191
330
1F
100
AcDbEntity
  8
LC-001-100-D00-0
 62
     7
370
    50
100
AcDbCircle
 10
189.934041
 20
339.200842
 30
0.0
 40
0.5
100
AcDbArc
 50
90.0
 51
180.0
  0
ARC
  5
192
330
1F
100
AcDbEntity
  8
LC-001-100-D00-0
 62
     7
370
    50
100
AcDbCircle
 10
72.934041
 20
339.200842
 30
0.0
 40
0.5
100
AcDbArc
 50
0.0
 51
90.0
  0
LINE
  5
193
330
1F
100
AcDbEntity
  8
LC-001-100-D00-0
 62
     7
370
    50
100
AcDbLine
 10
189.434045
 20
339.200846
 30
0.0
 11
189.434045
 21
334.200843
 31
0.0
  0
LINE
  5
194
330
1F
100
AcDbEntity
  8
LC-001-100-D00-0
 62
     7
370
    50
100
AcDbLine
 10
73.434041
 20
334.200843
 30
0.0
 11
73.434041
 21
339.200846
 31
0.0
  0
LINE
  5
195
330
1F
100
AcDbEntity
  8
LC-001-100-D00-0
 62
     7
370
    50
100
AcDbLine
 10
189.18404
 20
327.700845
 30
0.0
 11
189.18404
 21
332.200839
 31
0.0
  0
LINE
  5
196
330
1F
100
AcDbEntity
  8
LC-001-100-D00-0
 62
     7
370
    50
100
AcDbLine
 10
73.684041
 20
332.200839
 30
0.0
 11
73.684041
 21
327.700845
 31
0.0
  0
LINE
  5
197
330
1F
100
AcDbEntity
  8
LC-001-100-D00-0
 62
     7
370
    50
100
AcDbLine
 10
74.184041
 20
327.200844
 30
0.0
 11
73.684041
 21
327.700845
 31
0.0
  0
LINE
  5
198
330
1F
100
AcDbEntity
  8
LC-001-100-D00-0
 62
     7
370
    50
100
AcDbLine
 10
189.18404
 20
327.700845
 30
0.0
 11
188.684039
 21
327.200844
 31
0.0
  0
LINE
  5
199
330
1F
100
AcDbEntity
  8
LC-001-100-D00-0
 62
     7
370
    50
100
AcDbLine
 10
75.134041
 20
334.200843
 30
0.0
 11
75.934041
 21
333.400844
 31
0.0
  0
LINE
  5
19A
330
1F
100
AcDbEntity
  8
LC-001-100-D00-0
 62
     7
370
    50
100
AcDbLine
 10
186.93404
 20
333.400844
 30
0.0
 11
187.734038
 21
334.200843
 31
0.0
  0
LINE
  5
19B
330
1F
100
AcDbEntity
  8
LC-001-100-D00-0
 62
     7
370
    50
100
AcDbLine
 10
186.93404
 20
333.400844
 30
0.0
 11
186.93404
 21
327.200844
 31
0.0
  0
LINE
  5
19C
330
1F
100
AcDbEntity
  8
LC-001-100-D00-0
 62
     7
370
    50
100
AcDbLine
 10
75.934041
 20
327.200844
 30
0.0
 11
75.934041
 21
333.400844
 31
0.0
  0
LINE
  5
19D
330
1F
100
AcDbEntity
  8
LC-001-100-D00-0
 62
     7
370
    50
100
AcDbLine
 10
186.93404
 20
327.200844
 30
0.0
 11
75.934041
 21
327.200844
 31
0.0
  0
LINE
  5
19E
330
1F
100
AcDbEntity
  8
LC-001-100-D00-0
 62
     7
370
    50
100
AcDbLine
 10
186.93404
 20
327.200844
 30
0.0
 11
188.684039
 21
327.200844
 31
0.0
  0
LINE
  5
19F
330
1F
100
AcDbEntity
  8
LC-001-100-D00-0
 62
     7
370
    50
100
AcDbLine
 10
189.434045
 20
334.200843
 30
0.0
 11
187.734038
 21
334.200843
 31
0.0
  0
LINE
  5
1A0
330
1F
100
AcDbEntity
  8
LC-001-100-D00-0
 62
     7
370
    50
100
AcDbLine
 10
190.93404
 20
339.700839
 30
0.0
 11
189.934038
 21
339.700839
 31
0.0
  0
LINE
  5
1A1
330
1F
100
AcDbEntity
  8
LC-001-100-D00-0
 62
     7
370
    50
100
AcDbLine
 10
189.18404
 20
332.200839
 30
0.0
 11
190.93404
 21
332.200839
 31
0.0
  0
LINE
  5
1A2
330
1F
100
AcDbEntity
  8
LC-001-100-D00-0
 62
     7
370
    50
100
AcDbLine
 10
74.184041
 20
327.200844
 30
0.0
 11
75.934041
 21
327.200844
 31
0.0
  0
LINE
  5
1A3
330
1F
100
AcDbEntity
  8
LC-001-100-D00-0
 62
     7
370
    50
100
AcDbLine
 10
75.134041
 20
334.200843
 30
0.0
 11
73.434041
 21
334.200843
 31
0.0
  0
LINE
  5
1A4
330
1F
100
AcDbEntity
  8
LC-001-100-D00-0
 62
     7
370
    50
100
AcDbLine
 10
72.934041
 20
339.700839
 30
0.0
 11
71.934041
 21
339.700839
 31
0.0
  0
LINE
  5
1A5
330
1F
100
AcDbEntity
  8
LC-001-100-D00-0
 62
     7
370
    50
100
AcDbLine
 10
71.934041
 20
332.200839
 30
0.0
 11
73.684041
 21
332.200839
 31
0.0
  0
LINE
  5
1A6
330
1F
100
AcDbEntity
  8
LC-001-100-D00-0
 62
     7
370
    50
100
AcDbLine
 10
73.934041
 20
334.200843
 30
0.0
 11
75.934041
 21
334.200843
 31
0.0
  0
CIRCLE
  5
1A7
330
1F
100
AcDbEntity
  8
LC-001-100-D00-0
 62
     7
370
    50
100
AcDbCircle
 10
173.084041
 20
315.905131
 30
0.0
 40
1.499999999999943
  0
CIRCLE
  5
1A8
330
1F
100
AcDbEntity
  8
LC-001-100-D00-0
 62
     7
370
    50
100
AcDbCircle
 10
89.784041
 20
315.905131
 30
0.0
 40
1.5
  0
CIRCLE
  5
1A9
330
1F
100
AcDbEntity
  8
LC-001-100-D00-0
 62
     7
370
    50
100
AcDbCircle
 10
236.734041
 20
253.150842
 30
0.0
 40
2.0
  0
CIRCLE
  5
1AA
330
1F
100
AcDbEntity
  8
LC-001-100-D00-0
 62
     7
370
    50
100
AcDbCircle
 10
236.734041
 20
298.650842
 30
0.0
 40
2.000000000000114
  0
LINE
  5
1AB
330
1F
100
AcDbEntity
  8
LC-001-100-D00-0
 62
     7
370
    50
100
AcDbLine
 10
224.634037
 20
248.400842
 30
0.0
 11
231.734038
 21
248.400842
 31
0.0
  0
LINE
  5
1AC
330
1F
100
AcDbEntity
  8
LC-001-100-D00-0
 62
     7
370
    50
100
AcDbLine
 10
231.734038
 20
303.400843
 30
0.0
 11
224.634037
 21
303.400843
 31
0.0
  0
ARC
  5
1AD
330
1F
100
AcDbEntity
  8
LC-001-100-D00-0
 62
     7
370
    50
100
AcDbCircle
 10
231.734041
 20
275.900842
 30
0.0
 40
27.50000000000001
100
AcDbArc
 50
46.658242
 51
90.0
  0
ARC
  5
1AE
330
1F
100
AcDbEntity
  8
LC-001-100-D00-0
 62
     7
370
    50
100
AcDbCircle
 10
231.734041
 20
275.900842
 30
0.0
 40
27.50000000000011
100
AcDbArc
 50
270.0
 51
313.341758
  0
INSERT
  5
1BA
330
1F
100
AcDbEntity
  8
LC-001-100-D00-0
 62
     7
370
    50
100
AcDbBlockReference
  2
POLY1
 10
0.0
 20
0.0
 30
0.0
  0
LINE
  5
1BB
330
1F
100
AcDbEntity
  8
LC-001-100-D00-0
 62
     7
370
    50
100
AcDbLine
 10
301.407546
 20
305.493715
 30
0.0
 11
301.407546
 21
305.559701
 31
0.0
  0
LINE
  5
1BC
330
1F
100
AcDbEntity
  8
LC-001-100-D00-0
 62
     7
370
    50
100
AcDbLine
 10
301.407546
 20
255.559701
 30
0.0
 11
301.407546
 21
255.625689
 31
0.0
  0
LINE
  5
1BD
330
1F
100
AcDbEntity
  8
LC-001-100-D00-0
 62
     7
370
    50
100
AcDbLine
 10
301.407546
 20
255.625689
 30
0.0
 11
301.249102
 21
255.900842
 31
0.0
  0
ARC
  5
1BE
330
1F
100
AcDbEntity
  8
LC-001-100-D00-0
 62
     7
370
    50
100
AcDbCircle
 10
225.434041
 20
300.919835
 30
0.0
 40
0.8000000000000682
100
AcDbArc
 50
180.0
 51
284.133737
  0
ARC
  5
1BF
330
1F
100
AcDbEntity
  8
LC-001-100-D00-0
 62
     7
370
    50
100
AcDbCircle
 10
225.434041
 20
250.881849
 30
0.0
 40
0.8000000000000428
100
AcDbArc
 50
75.866263
 51
180.0
  0
LINE
  5
1C0
330
1F
100
AcDbEntity
  8
LC-001-100-D00-0
 62
     7
370
    50
100
AcDbLine
 10
224.634037
 20
251.656461
 30
0.0
 11
224.634037
 21
250.88185
 31
0.0
  0
ARC
  5
1C1
330
1F
100
AcDbEntity
  8
LC-001-100-D00-0
 62
     7
370
    50
100
AcDbCircle
 10
231.734041
 20
275.900842
 30
0.0
 40
25.0000000000001
100
AcDbArc
 50
255.866263
 51
312.916156
  0
LINE
  5
1C2
330
1F
100
AcDbEntity
  8
LC-001-100-D00-0
 62
     7
370
    50
100
AcDbLine
 10
248.757229
 20
257.592069
 30
0.0
 11
248.757229
 21
294.209617
 31
0.0
  0
ARC
  5
1C3
330
1F
100
AcDbEntity
  8
LC-001-100-D00-0
 62
     7
370
    50
100
AcDbCircle
 10
231.734041
 20
275.900842
 30
0.0
 40
25.00000000000001
100
AcDbArc
 50
47.083844
 51
104.133737
  0
LINE
  5
1C4
330
1F
100
AcDbEntity
  8
LC-001-100-D00-0
 62
     7
370
    50
100
AcDbLine
 10
301.407546
 20
305.493715
 30
0.0
 11
346.634046
 21
305.493715
 31
0.0
  0
LINE
  5
1C5
330
1F
100
AcDbEntity
  8
LC-001-100-D00-0
 62
     7
370
    50
100
AcDbLine
 10
346.634046
 20
255.625689
 30
0.0
 11
346.634046
 21
255.559701
 31
0.0
  0
LINE
  5
1C6
330
1F
100
AcDbEntity
  8
LC-001-100-D00-0
 62
     7
370
    50
100
AcDbLine
 10
346.634046
 20
305.559701
 30
0.0
 11
346.634046
 21
305.493715
 31
0.0
  0
LINE
  5
1C7
330
1F
100
AcDbEntity
  8
LC-001-100-D00-0
 62
     7
370
    50
100
AcDbLine
 10
346.634046
 20
255.625689
 30
0.0
 11
301.407546
 21
255.625689
 31
0.0
  0
LINE
  5
1C8
330
1F
100
AcDbEntity
  8
LC-001-100-D00-0
 62
     7
370
    50
100
AcDbLine
 10
346.634046
 20
305.493715
 30
0.0
 11
349.634037
 21
304.687667
 31
0.0
  0
LINE
  5
1C9
330
1F
100
AcDbEntity
  8
LC-001-100-D00-0
 62
     7
370
    50
100
AcDbLine
 10
349.634037
 20
304.687667
 30
0.0
 11
349.634037
 21
304.755854
 31
0.0
  0
LINE
  5
1CA
330
1F
100
AcDbEntity
  8
LC-001-100-D00-0
 62
     7
370
    50
100
AcDbLine
 10
349.634037
 20
256.363549
 30
0.0
 11
349.634037
 21
256.431735
 31
0.0
  0
LINE
  5
1CB
330
1F
100
AcDbEntity
  8
LC-001-100-D00-0
 62
     7
370
    50
100
AcDbLine
 10
349.634037
 20
256.431735
 30
0.0
 11
346.634046
 21
255.625689
 31
0.0
  0
LINE
  5
1CC
330
1F
100
AcDbEntity
  8
LC-001-100-D00-0
 62
     7
370
    50
100
AcDbLine
 10
250.608624
 20
255.900842
 30
0.0
 11
301.249102
 21
255.900842
 31
0.0
  0
LINE
  5
1CD
330
1F
100
AcDbEntity
  8
LC-001-100-D00-0
 62
     7
370
    50
100
AcDbLine
 10
295.892791
 20
295.900843
 30
0.0
 11
250.608624
 21
295.900843
 31
0.0
  0
LINE
  5
1CE
330
1F
100
AcDbEntity
  8
LC-001-100-D00-0
 62
     7
370
    50
100
AcDbLine
 10
349.134043
 20
301.942791
 30
0.0
 11
349.134043
 21
259.176611
 31
0.0
  0
LINE
  5
1CF
330
1F
100
AcDbEntity
  8
LC-001-100-D00-0
 62
     7
370
    50
100
AcDbLine
 10
349.134043
 20
259.176611
 30
0.0
 11
349.634037
 21
258.674853
 31
0.0
  0
LINE
  5
1D0
330
1F
100
AcDbEntity
  8
LC-001-100-D00-0
 62
     7
370
    50
100
AcDbLine
 10
349.634037
 20
302.44455
 30
0.0
 11
349.134043
 21
301.942791
 31
0.0
  0
LINE
  5
1D1
330
1F
100
AcDbEntity
  8
LC-001-100-D00-0
 62
     7
370
    50
100
AcDbLine
 10
349.634037
 20
258.674853
 30
0.0
 11
349.634037
 21
302.44455
 31
0.0
  0
LINE
  5
1D2
330
1F
100
AcDbEntity
  8
LC-001-100-D00-0
 62
     7
370
    50
100
AcDbLine
 10
298.009158
 20
292.455836
 30
0.0
 11
303.45136
 21
301.942791
 31
0.0
  0
LINE
  5
1D3
330
1F
100
AcDbEntity
  8
LC-001-100-D00-0
 62
     7
370
    50
100
AcDbLine
 10
303.300873
 20
259.438216
 30
0.0
 11
303.189964
 21
259.605263
 31
0.0
  0
INSERT
  5
1FB
330
1F
100
AcDbEntity
  8
LC-001-100-D00-0
 62
     7
370
    50
100
AcDbBlockReference
  2
POLY2
 10
0.0
 20
0.0
 30
0.0
  0
INSERT
  5
207
330
1F
100
AcDbEntity
  8
LC-001-100-D00-0
 62
     7
370
    50
100
AcDbBlockReference
  2
POLY3
 10
0.0
 20
0.0
 30
0.0
  0
LINE
  5
208
330
1F
100
AcDbEntity
  8
LC-001-100-D00-0
 62
     7
370
    50
100
AcDbLine
 10
303.45136
 20
259.176611
 30
0.0
 11
303.300873
 21
259.438216
 31
0.0
  0
LINE
  5
209
330
1F
100
AcDbEntity
  8
LC-001-100-D00-0
 62
     7
370
    50
100
AcDbLine
 10
303.45136
 20
301.942791
 30
0.0
 11
303.45136
 21
259.176611
 31
0.0
  0
LINE
  5
20A
330
1F
100
AcDbEntity
  8
LC-001-100-D00-0
 62
     7
370
    50
100
AcDbLine
 10
303.45136
 20
301.942791
 30
0.0
 11
349.134043
 21
301.942791
 31
0.0
  0
LINE
  5
20B
330
1F
100
AcDbEntity
  8
LC-001-100-D00-0
 62
     7
370
    50
100
AcDbLine
 10
349.134043
 20
259.176611
 30
0.0
 11
303.45136
 21
259.176611
 31
0.0
  0
LINE
  5
20C
330
1F
100
AcDbEntity
  8
LC-001-100-D00-0
 62
     7
370
    50
100
AcDbLine
 10
303.300873
 20
259.438216
 30
0.0
 11
251.010702
 21
258.525487
 31
0.0
  0
LINE
  5
20D
330
1F
100
AcDbEntity
  8
LC-001-100-D00-0
 62
     7
370
    50
100
AcDbLine
 10
251.010702
 20
293.276197
 30
0.0
 11
298.009158
 21
292.455836
 31
0.0
  0
LINE
  5
20E
330
1F
100
AcDbEntity
  8
LC-001-100-D00-0
 62
     7
370
    50
100
AcDbLine
 10
251.010702
 20
293.276197
 30
0.0
 11
251.010702
 21
258.525487
 31
0.0
  0
LINE
  5
20F
330
1F
100
AcDbEntity
  8
LC-001-100-D00-0
 62
     7
370
    50
100
AcDbLine
 10
248.757229
 20
257.592069
 30
0.0
 11
251.010702
 21
258.525487
 31
0.0
  0
LINE
  5
210
330
1F
100
AcDbEntity
  8
LC-001-100-D00-0
 62
     7
370
    50
100
AcDbLine
 10
251.010702
 20
293.276197
 30
0.0
 11
248.757229
 21
294.209617
 31
0.0
  0
LINE
  5
211
330
1F
100
AcDbEntity
  8
LC-001-100-D00-0
 62
     7
370
    50
100
AcDbLine
 10
349.634037
 20
304.687667
 30
0.0
 11
349.634037
 21
302.44455
 31
0.0
  0
LINE
  5
212
330
1F
100
AcDbEntity
  8
LC-001-100-D00-0
 62
     7
370
    50
100
AcDbLine
 10
224.634037
 20
303.400843
 30
0.0
 11
224.634037
 21
300.919833
 31
0.0
  0
LINE
  5
213
330
1F
100
AcDbEntity
  8
LC-001-100-D00-0
 62
     7
370
    50
100
AcDbLine
 10
349.634037
 20
258.674853
 30
0.0
 11
349.634037
 21
256.431735
 31
0.0
  0
LINE
  5
214
330
1F
100
AcDbEntity
  8
LC-001-100-D00-0
 62
     7
370
    50
100
AcDbLine
 10
224.634037
 20
250.88185
 30
0.0
 11
224.634037
 21
248.400842
 31
0.0
  0
LINE
  5
215
330
1F
100
AcDbEntity
  8
LC-001-100-D00-0
 62
     7
370
    50
100
AcDbLine
 10
248.259605
 20
253.920035
 30
0.0
 11
248.355345
 21
253.920035
 31
0.0
  0
LINE
  5
216
330
1F
100
AcDbEntity
  8
LC-001-100-D00-0
 62
     7
370
    50
100
AcDbLine
 10
245.885775
 20
252.321647
 30
0.0
 11
245.892168
 21
252.321647
 31
0.0
  0
ARC
  5
217
330
1F
100
AcDbEntity
  8
LC-001-100-D00-0
 62
     7
370
    50
100
AcDbCircle
 10
234.180239
 20
273.067295
 30
0.0
 40
23.82333250597189
100
AcDbArc
 50
299.446844
 51
306.513298
  0
LINE
  5
218
330
1F
100
AcDbEntity
  8
LC-001-100-D00-0
 62
     7
370
    50
100
AcDbLine
 10
248.327241
 20
253.971052
 30
0.0
 11
248.370231
 21
253.971052
 31
0.0
  0
ARC
  5
219
330
1F
100
AcDbEntity
  8
LC-001-100-D00-0
 62
     7
370
    50
100
AcDbCircle
 10
248.319376
 20
253.958211
 30
0.0
 40
0.0524507500564521
100
AcDbArc
 50
313.294806
 51
14.171691
  0
LINE
  5
21A
330
1F
100
AcDbEntity
  8
LC-001-100-D00-0
 62
     7
370
    50
100
AcDbLine
 10
248.950914
 20
254.457207
 30
0.0
 11
248.997942
 21
254.457207
 31
0.0
  0
ARC
  5
21B
330
1F
100
AcDbEntity
  8
LC-001-100-D00-0
 62
     7
370
    50
100
AcDbCircle
 10
231.86146
 20
275.935091
 30
0.0
 40
27.47650833470184
100
AcDbArc
 50
306.929523
 51
308.585191
  0
LINE
  5
21C
330
1F
100
AcDbEntity
  8
LC-001-100-D00-0
 62
     7
370
    50
100
AcDbLine
 10
248.964027
 20
254.467742
 30
0.0
 11
248.993412
 21
254.467742
 31
0.0
  0
ARC
  5
21D
330
1F
100
AcDbEntity
  8
LC-001-100-D00-0
 62
     7
370
    50
100
AcDbCircle
 10
248.943824
 20
254.440178
 30
0.0
 40
0.0567343714343996
100
AcDbArc
 50
17.466505
 51
29.067537
  0
LINE
  5
21E
330
1F
100
AcDbEntity
  8
LC-001-100-D00-0
 62
     7
370
    50
100
AcDbLine
 10
99.934042
 20
258.900842
 30
0.0
 11
99.934042
 21
302.400841
 31
0.0
  0
LINE
  5
21F
330
1F
100
AcDbEntity
  8
LC-001-100-D00-0
 62
     7
370
    50
100
AcDbLine
 10
162.934043
 20
302.400841
 30
0.0
 11
162.934043
 21
258.900842
 31
0.0
  0
LINE
  5
220
330
1F
100
AcDbEntity
  8
LC-001-100-D00-0
 62
     7
370
    50
100
AcDbLine
 10
99.934042
 20
302.400841
 30
0.0
 11
110.434432
 21
302.400841
 31
0.0
  0
LINE
  5
221
330
1F
100
AcDbEntity
  8
LC-001-100-D00-0
 62
     7
370
    50
100
AcDbLine
 10
152.433649
 20
302.400841
 30
0.0
 11
162.934043
 21
302.400841
 31
0.0
  0
LINE
  5
222
330
1F
100
AcDbEntity
  8
LC-001-100-D00-0
 62
     7
370
    50
100
AcDbLine
 10
88.93404
 20
312.90084
 30
0.0
 11
88.93404
 21
311.400845
 31
0.0
  0
LINE
  5
223
330
1F
100
AcDbEntity
  8
LC-001-100-D00-0
 62
     7
370
    50
100
AcDbLine
 10
173.934043
 20
311.400845
 30
0.0
 11
173.934043
 21
312.90084
 31
0.0
  0
LINE
  5
224
330
1F
100
AcDbEntity
  8
LC-001-100-D00-0
 62
     7
370
    50
100
AcDbLine
 10
98.434043
 20
299.462068
 30
0.0
 11
98.434043
 21
258.900842
 31
0.0
  0
LINE
  5
225
330
1F
100
AcDbEntity
  8
LC-001-100-D00-0
 62
     7
370
    50
100
AcDbLine
 10
164.434039
 20
258.900842
 30
0.0
 11
164.434039
 21
299.462068
 31
0.0
  0
ARC
  5
226
330
1F
100
AcDbEntity
  8
LC-001-100-D00-0
 62
     7
370
    50
100
AcDbCircle
 10
105.934041
 20
258.900842
 30
0.0
 40
6.0
100
AcDbArc
 50
180.0
 51
270.0
  0
ARC
  5
227
330
1F
100
AcDbEntity
  8
LC-001-100-D00-0
 62
     7
370
    50
100
AcDbCircle
 10
156.934041
 20
258.900842
 30
0.0
 40
6.0
100
AcDbArc
 50
270.0
 51
0.0
  0
LINE
  5
228
330
1F
100
AcDbEntity
  8
LC-001-100-D00-0
 62
     7
370
    50
100
AcDbLine
 10
98.434043
 20
299.462068
 30
0.0
 11
91.934041
 21
311.400845
 31
0.0
  0
LINE
  5
229
330
1F
100
AcDbEntity
  8
LC-001-100-D00-0
 62
     7
370
    50
100
AcDbLine
 10
170.934044
 20
311.400845
 30
0.0
 11
164.434039
 21
299.462068
 31
0.0
  0
LINE
  5
22A
330
1F
100
AcDbEntity
  8
LC-001-100-D00-0
 62
     7
370
    50
100
AcDbLine
 10
169.33404
 20
311.400845
 30
0.0
 11
169.215121
 21
311.400845
 31
0.0
  0
INSERT
  5
230
330
1F
100
AcDbEntity
  8
LC-001-100-D00-0
 62
     7
370
    50
100
AcDbBlockReference
  2
KLON5
 10
0.0
 20
0.0
 30
0.0
  0
LINE
  5
231
330
1F
100
AcDbEntity
  8
LC-001-100-D00-0
 62
     7
370
    50
100
AcDbLine
 10
164.434039
 20
302.400841
 30
0.0
 11
169.33404
 21
311.400845
 31
0.0
  0
LINE
  5
232
330
1F
100
AcDbEntity
  8
LC-001-100-D00-0
 62
     7
370
    50
100
AcDbLine
 10
93.534042
 20
311.400845
 30
0.0
 11
93.534042
 21
312.90084
 31
0.0
  0
LINE
  5
233
330
1F
100
AcDbEntity
  8
LC-001-100-D00-0
 62
     7
370
    50
100
AcDbLine
 10
93.652961
 20
311.400845
 30
0.0
 11
93.534042
 21
311.400845
 31
0.0
  0
LINE
  5
234
330
1F
100
AcDbEntity
  8
LC-001-100-D00-0
 62
     7
370
    50
100
AcDbLine
 10
104.79299
 20
311.400845
 30
0.0
 11
93.652961
 21
311.400845
 31
0.0
  0
LINE
  5
235
330
1F
100
AcDbEntity
  8
LC-001-100-D00-0
 62
     7
370
    50
100
AcDbLine
 10
169.215121
 20
311.400845
 30
0.0
 11
158.075087
 21
311.400845
 31
0.0
  0
LINE
  5
236
330
1F
100
AcDbEntity
  8
LC-001-100-D00-0
 62
     7
370
    50
100
AcDbLine
 10
169.33404
 20
312.90084
 30
0.0
 11
169.33404
 21
311.400845
 31
0.0
  0
INSERT
  5
242
330
1F
100
AcDbEntity
  8
LC-001-100-D00-0
 62
     7
370
    50
100
AcDbBlockReference
  2
POLY4
 10
0.0
 20
0.0
 30
0.0
  0
LINE
  5
243
330
1F
100
AcDbEntity
  8
LC-001-100-D00-0
 62
     7
370
    50
100
AcDbLine
 10
93.534042
 20
311.400845
 30
0.0
 11
98.434043
 21
302.400841
 31
0.0
  0
LINE
  5
244
330
1F
100
AcDbEntity
  8
LC-001-100-D00-0
 62
     7
370
    50
100
AcDbLine
 10
88.93404
 20
311.400845
 30
0.0
 11
91.934041
 21
311.400845
 31
0.0
  0
ARC
  5
245
330
1F
100
AcDbEntity
  8
LC-001-100-D00-0
 62
     7
370
    50
100
AcDbCircle
 10
105.934041
 20
258.900842
 30
0.0
 40
7.500000000000114
100
AcDbArc
 50
180.0
 51
270.0
  0
LINE
  5
246
330
1F
100
AcDbEntity
  8
LC-001-100-D00-0
 62
     7
370
    50
100
AcDbLine
 10
105.934039
 20
251.400842
 30
0.0
 11
156.934038
 21
251.400842
 31
0.0
  0
ARC
  5
247
330
1F
100
AcDbEntity
  8
LC-001-100-D00-0
 62
     7
370
    50
100
AcDbCircle
 10
156.934041
 20
258.900842
 30
0.0
 40
7.500000000000114
100
AcDbArc
 50
270.0
 51
0.0
  0
LINE
  5
248
330
1F
100
AcDbEntity
  8
LC-001-100-D00-0
 62
     7
370
    50
100
AcDbLine
 10
170.934044
 20
311.400845
 30
0.0
 11
173.934043
 21
311.400845
 31
0.0
  0
LINE
  5
249
330
1F
100
AcDbEntity
  8
LC-001-100-D00-0
 62
     7
370
    50
100
AcDbLine
 10
99.934042
 20
302.400841
 30
0.0
 11
98.434043
 21
302.400841
 31
0.0
  0
LINE
  5
24A
330
1F
100
AcDbEntity
  8
LC-001-100-D00-0
 62
     7
370
    50
100
AcDbLine
 10
164.434039
 20
302.400841
 30
0.0
 11
162.934043
 21
302.400841
 31
0.0
  0
LINE
  5
24B
330
1F
100
AcDbEntity
  8
LC-001-100-D00-0
 62
     7
370
    50
100
AcDbLine
 10
93.534042
 20
312.90084
 30
0.0
 11
88.93404
 21
312.90084
 31
0.0
  0
LINE
  5
24C
330
1F
100
AcDbEntity
  8
LC-001-100-D00-0
 62
     7
370
    50
100
AcDbLine
 10
173.934043
 20
312.90084
 30
0.0
 11
169.33404
 21
312.90084
 31
0.0
  0
LINE
  5
24D
330
1F
100
AcDbEntity
  8
LC-001-100-D00-0
 62
     7
370
    50
100
AcDbLine
 10
156.934038
 20
252.900842
 30
0.0
 11
105.934039
 21
252.900842
 31
0.0
  0
LINE
  5
24E
330
1F
100
AcDbEntity
  8
LC-001-100-D00-0
 62
     7
370
    50
100
AcDbLine
 10
89.434041
 20
317.405133
 30
0.0
 11
90.784042
 21
317.405133
 31
0.0
  0
ARC
  5
24F
330
1F
100
AcDbEntity
  8
LC-001-100-D00-0
 62
     7
370
    50
100
AcDbCircle
 10
90.784041
 20
316.905131
 30
0.0
 40
0.5
100
AcDbArc
 50
0.0
 51
90.0
  0
LINE
  5
250
330
1F
100
AcDbEntity
  8
LC-001-100-D00-0
 62
     7
370
    50
100
AcDbLine
 10
91.284041
 20
316.905132
 30
0.0
 11
91.284041
 21
314.400843
 31
0.0
  0
ARC
  5
251
330
1F
100
AcDbEntity
  8
LC-001-100-D00-0
 62
     7
370
    50
100
AcDbCircle
 10
90.784041
 20
314.400842
 30
0.0
 40
0.5
100
AcDbArc
 50
270.0
 51
0.0
  0
LINE
  5
252
330
1F
100
AcDbEntity
  8
LC-001-100-D00-0
 62
     7
370
    50
100
AcDbLine
 10
89.681535
 20
313.900842
 30
0.0
 11
90.784042
 21
313.900842
 31
0.0
  0
ARC
  5
253
330
1F
100
AcDbEntity
  8
LC-001-100-D00-0
 62
     7
370
    50
100
AcDbCircle
 10
89.681535
 20
313.400842
 30
0.0
 40
0.5
100
AcDbArc
 50
90.0
 51
180.0
  0
LINE
  5
254
330
1F
100
AcDbEntity
  8
LC-001-100-D00-0
 62
     7
370
    50
100
AcDbLine
 10
89.181536
 20
313.400841
 30
0.0
 11
89.181536
 21
312.90084
 31
0.0
  0
LINE
  5
255
330
1F
100
AcDbEntity
  8
LC-001-100-D00-0
 62
     7
370
    50
100
AcDbLine
 10
89.181536
 20
312.90084
 30
0.0
 11
93.678931
 21
312.90084
 31
0.0
  0
LINE
  5
256
330
1F
100
AcDbEntity
  8
LC-001-100-D00-0
 62
     7
370
    50
100
AcDbLine
 10
93.678931
 20
311.62583
 30
0.0
 11
93.678931
 21
312.90084
 31
0.0
  0
LINE
  5
257
330
1F
100
AcDbEntity
  8
LC-001-100-D00-0
 62
     7
370
    50
100
AcDbLine
 10
96.574821
 20
311.62583
 30
0.0
 11
93.678931
 21
311.62583
 31
0.0
  0
ARC
  5
258
330
1F
100
AcDbEntity
  8
LC-001-100-D00-0
 62
     7
370
    50
100
AcDbCircle
 10
100.434431
 20
302.400678
 30
0.0
 40
10.00000000000006
100
AcDbArc
 50
0.0
 51
112.703416
  0
LINE
  5
259
330
1F
100
AcDbEntity
  8
LC-001-100-D00-0
 62
     7
370
    50
100
AcDbLine
 10
110.434432
 20
262.400261
 30
0.0
 11
110.434432
 21
302.400677
 31
0.0
  0
LINE
  5
25A
330
1F
100
AcDbEntity
  8
LC-001-100-D00-0
 62
     7
370
    50
100
AcDbLine
 10
110.434432
 20
262.400261
 30
0.0
 11
113.434431
 21
262.400261
 31
0.0
  0
LINE
  5
25B
330
1F
100
AcDbEntity
  8
LC-001-100-D00-0
 62
     7
370
    50
100
AcDbLine
 10
113.434431
 20
262.400261
 30
0.0
 11
113.434431
 21
300.400647
 31
0.0
  0
ARC
  5
25C
330
1F
100
AcDbEntity
  8
LC-001-100-D00-0
 62
     7
370
    50
100
AcDbCircle
 10
100.434431
 20
300.400648
 30
0.0
 40
13.00000000000011
100
AcDbArc
 50
0.0
 51
90.000007
  0
LINE
  5
25D
330
1F
100
AcDbEntity
  8
LC-001-100-D00-0
 62
     7
370
    50
100
AcDbLine
 10
100.434431
 20
313.400647
 30
0.0
 11
95.433981
 21
313.400647
 31
0.0
  0
ARC
  5
25E
330
1F
100
AcDbEntity
  8
LC-001-100-D00-0
 62
     7
370
    50
100
AcDbCircle
 10
95.43398
 20
315.400648
 30
0.0
 40
1.999999999107217
100
AcDbArc
 50
180.0
 51
270.0
  0
LINE
  5
25F
330
1F
100
AcDbEntity
  8
LC-001-100-D00-0
 62
     7
370
    50
100
AcDbLine
 10
93.433981
 20
315.400651
 30
0.0
 11
93.433981
 21
316.200844
 31
0.0
  0
ARC
  5
260
330
1F
100
AcDbEntity
  8
LC-001-100-D00-0
 62
     7
370
    50
100
AcDbCircle
 10
90.43398
 20
316.200842
 30
0.0
 40
3.0
100
AcDbArc
 50
0.0
 51
90.0
  0
LINE
  5
261
330
1F
100
AcDbEntity
  8
LC-001-100-D00-0
 62
     7
370
    50
100
AcDbLine
 10
88.93404
 20
319.200842
 30
0.0
 11
90.43398
 21
319.200842
 31
0.0
  0
LINE
  5
262
330
1F
100
AcDbEntity
  8
LC-001-100-D00-0
 62
     7
370
    50
100
AcDbLine
 10
88.93404
 20
317.905134
 30
0.0
 11
88.93404
 21
319.200842
 31
0.0
  0
ARC
  5
263
330
1F
100
AcDbEntity
  8
LC-001-100-D00-0
 62
     7
370
    50
100
AcDbCircle
 10
89.434041
 20
317.905131
 30
0.0
 40
0.5000000000001137
100
AcDbArc
 50
180.0
 51
270.0
  0
ARC
  5
264
330
1F
100
AcDbEntity
  8
LC-001-100-D00-0
 62
     7
370
    50
100
AcDbCircle
 10
162.433651
 20
300.400648
 30
0.0
 40
13.00000000000009
100
AcDbArc
 50
89.999993
 51
180.0
  0
LINE
  5
265
330
1F
100
AcDbEntity
  8
LC-001-100-D00-0
 62
     7
370
    50
100
AcDbLine
 10
162.433655
 20
313.400647
 30
0.0
 11
100.434431
 21
313.400647
 31
0.0
  0
ARC
  5
266
330
1F
100
AcDbEntity
  8
LC-001-100-D00-0
 62
     7
370
    50
100
AcDbCircle
 10
167.434102
 20
315.400648
 30
0.0
 40
1.999999999107217
100
AcDbArc
 50
270.0
 51
0.0
  0
ARC
  5
267
330
1F
100
AcDbEntity
  8
LC-001-100-D00-0
 62
     7
370
    50
100
AcDbCircle
 10
172.434102
 20
316.200842
 30
0.0
 40
3.0
100
AcDbArc
 50
90.0
 51
180.0
  0
LINE
  5
268
330
1F
100
AcDbEntity
  8
LC-001-100-D00-0
 62
     7
370
    50
100
AcDbLine
 10
169.434101
 20
316.200844
 30
0.0
 11
169.434101
 21
315.400651
 31
0.0
  0
LINE
  5
269
330
1F
100
AcDbEntity
  8
LC-001-100-D00-0
 62
     7
370
    50
100
AcDbLine
 10
167.434104
 20
313.400647
 30
0.0
 11
162.433655
 21
313.400647
 31
0.0
  0
LINE
  5
26A
330
1F
100
AcDbEntity
  8
LC-001-100-D00-0
 62
     7
370
    50
100
AcDbLine
 10
149.433651
 20
300.400647
 30
0.0
 11
149.433651
 21
262.400261
 31
0.0
  0
LINE
  5
26B
330
1F
100
AcDbEntity
  8
LC-001-100-D00-0
 62
     7
370
    50
100
AcDbLine
 10
149.433651
 20
262.400261
 30
0.0
 11
152.433649
 21
262.400261
 31
0.0
  0
LINE
  5
26C
330
1F
100
AcDbEntity
  8
LC-001-100-D00-0
 62
     7
370
    50
100
AcDbLine
 10
152.433649
 20
302.400677
 30
0.0
 11
152.433649
 21
262.400261
 31
0.0
  0
ARC
  5
26D
330
1F
100
AcDbEntity
  8
LC-001-100-D00-0
 62
     7
370
    50
100
AcDbCircle
 10
162.433651
 20
302.400678
 30
0.0
 40
10.00000000000007
100
AcDbArc
 50
67.296584
 51
180.0
  0
LINE
  5
26E
330
1F
100
AcDbEntity
  8
LC-001-100-D00-0
 62
     7
370
    50
100
AcDbLine
 10
169.189148
 20
311.62583
 30
0.0
 11
166.293264
 21
311.62583
 31
0.0
  0
LINE
  5
26F
330
1F
100
AcDbEntity
  8
LC-001-100-D00-0
 62
     7
370
    50
100
AcDbLine
 10
169.189148
 20
312.90084
 30
0.0
 11
169.189148
 21
311.62583
 31
0.0
  0
LINE
  5
270
330
1F
100
AcDbEntity
  8
LC-001-100-D00-0
 62
     7
370
    50
100
AcDbLine
 10
169.189148
 20
312.90084
 30
0.0
 11
173.68655
 21
312.90084
 31
0.0
  0
LINE
  5
271
330
1F
100
AcDbEntity
  8
LC-001-100-D00-0
 62
     7
370
    50
100
AcDbLine
 10
173.68655
 20
312.90084
 30
0.0
 11
173.68655
 21
313.400841
 31
0.0
  0
ARC
  5
272
330
1F
100
AcDbEntity
  8
LC-001-100-D00-0
 62
     7
370
    50
100
AcDbCircle
 10
173.186547
 20
313.400842
 30
0.0
 40
0.5000000000001137
100
AcDbArc
 50
0.0
 51
90.0
  0
LINE
  5
273
330
1F
100
AcDbEntity
  8
LC-001-100-D00-0
 62
     7
370
    50
100
AcDbLine
 10
172.084042
 20
313.900842
 30
0.0
 11
173.186549
 21
313.900842
 31
0.0
  0
ARC
  5
274
330
1F
100
AcDbEntity
  8
LC-001-100-D00-0
 62
     7
370
    50
100
AcDbCircle
 10
172.084041
 20
314.400842
 30
0.0
 40
0.5
100
AcDbArc
 50
180.0
 51
270.0
  0
LINE
  5
275
330
1F
100
AcDbEntity
  8
LC-001-100-D00-0
 62
     7
370
    50
100
AcDbLine
 10
171.584041
 20
314.400843
 30
0.0
 11
171.584041
 21
316.905132
 31
0.0
  0
ARC
  5
276
330
1F
100
AcDbEntity
  8
LC-001-100-D00-0
 62
     7
370
    50
100
AcDbCircle
 10
172.084041
 20
316.905131
 30
0.0
 40
0.5
100
AcDbArc
 50
90.0
 51
180.0
  0
LINE
  5
277
330
1F
100
AcDbEntity
  8
LC-001-100-D00-0
 62
     7
370
    50
100
AcDbLine
 10
172.084042
 20
317.405133
 30
0.0
 11
173.434042
 21
317.405133
 31
0.0
  0
ARC
  5
278
330
1F
100
AcDbEntity
  8
LC-001-100-D00-0
 62
     7
370
    50
100
AcDbCircle
 10
173.434041
 20
317.905131
 30
0.0
 40
0.5
100
AcDbArc
 50
270.0
 51
0.0
  0
LINE
  5
279
330
1F
100
AcDbEntity
  8
LC-001-100-D00-0
 62
     7
370
    50
100
AcDbLine
 10
173.934043
 20
319.200842
 30
0.0
 11
173.934043
 21
317.905134
 31
0.0
  0
LINE
  5
27A
330
1F
100
AcDbEntity
  8
LC-001-100-D00-0
 62
     7
370
    50
100
AcDbLine
 10
172.4341
 20
319.200842
 30
0.0
 11
173.934043
 21
319.200842
 31
0.0
  0
LINE
  5
27B
330
1F
100
AcDbEntity
  8
LC-001-100-D00-0
 62
     7
370
    50
100
AcDbLine
 10
166.293264
 20
311.62583
 30
0.0
 11
158.574038
 21
311.62583
 31
0.0
  0
LINE
  5
27C
330
1F
100
AcDbEntity
  8
LC-001-100-D00-0
 62
     7
370
    50
100
AcDbLine
 10
104.29404
 20
311.62583
 30
0.0
 11
96.574821
 21
311.62583
 31
0.0
  0
LINE
  5
27D
330
1F
100
AcDbEntity
  8
LC-001-100-D00-0
 62
     7
370
    50
100
AcDbLine
 10
172.4341
 20
319.200842
 30
0.0
 11
90.43398
 21
319.200842
 31
0.0
  0
LINE
  5
27E
330
1F
100
AcDbEntity
  8
LC-001-100-D00-0
 62
     7
370
    50
100
AcDbLine
 10
149.433651
 20
262.400261
 30
0.0
 11
113.434431
 21
262.400261
 31
0.0
  0
LINE
  5
27F
330
1F
100
AcDbEntity
  8
LC-001-100-D00-0
 62
     7
370
    50
100
AcDbLine
 10
255.097017
 20
308.58083
 30
0.0
 11
255.097017
 21
307.22086
 31
0.0
  0
ARC
  5
280
330
1F
100
AcDbEntity
  8
LC-001-100-D00-0
 62
     7
370
    50
100
AcDbCircle
 10
256.434041
 20
307.900842
 30
0.0
 40
1.500000000000015
100
AcDbArc
 50
206.957121
 51
153.042879
  0
CIRCLE
  5
281
330
1F
100
AcDbEntity
  8
LC-001-100-D00-0
 62
     7
370
    50
100
AcDbCircle
 10
306.434041
 20
307.900842
 30
0.0
 40
1.500000000000057
  0
CIRCLE
  5
282
330
1F
100
AcDbEntity
  8
LC-001-100-D00-0
 62
     7
370
    50
100
AcDbCircle
 10
-43.565959
 20
307.900842
 30
0.0
 40
1.499999999999943
  0
CIRCLE
  5
283
330
1F
100
AcDbEntity
  8
LC-001-100-D00-0
 62
     7
370
    50
100
AcDbCircle
 10
-93.565959
 20
307.900842
 30
0.0
 40
1.5
  0
CIRCLE
  5
284
330
1F
100
AcDbEntity
  8
LC-001-100-D00-0
 62
     7
370
    50
100
AcDbCircle
 10
356.434041
 20
307.900842
 30
0.0
 40
1.5
  0
CIRCLE
  5
285
330
1F
100
AcDbEntity
  8
LC-001-100-D00-0
 62
     7
370
    50
100
AcDbCircle
 10
6.434041
 20
307.900842
 30
0.0
 40
1.500000000000057
  0
LINE
  5
286
330
1F
100
AcDbEntity
  8
LC-001-100-D00-0
 62
     7
370
    50
100
AcDbLine
 10
357.934043
 20
312.300845
 30
0.0
 11
357.934043
 21
309.300839
 31
0.0
  0
LINE
  5
287
330
1F
100
AcDbEntity
  8
LC-001-100-D00-0
 62
     7
370
    50
100
AcDbLine
 10
-95.065966
 20
312.300845
 30
0.0
 11
-95.065966
 21
309.300839
 31
0.0
  0
LINE
  5
288
330
1F
100
AcDbEntity
  8
LC-001-100-D00-0
 62
     7
370
    50
100
AcDbLine
 10
69.934041
 20
317.400842
 30
0.0
 11
69.934041
 21
319.400846
 31
0.0
  0
LINE
  5
289
330
1F
100
AcDbEntity
  8
LC-001-100-D00-0
 62
     7
370
    50
100
AcDbLine
 10
74.240278
 20
319.700843
 30
0.0
 11
74.240278
 21
319.400846
 31
0.0
  0
LINE
  5
28A
330
1F
100
AcDbEntity
  8
LC-001-100-D00-0
 62
     7
370
    50
100
AcDbLine
 10
106.978242
 20
319.700843
 30
0.0
 11
106.978242
 21
319.400846
 31
0.0
  0
LINE
  5
28B
330
1F
100
AcDbEntity
  8
LC-001-100-D00-0
 62
     7
370
    50
100
AcDbLine
 10
155.88984
 20
319.700843
 30
0.0
 11
155.88984
 21
319.400846
 31
0.0
  0
LINE
  5
28C
330
1F
100
AcDbEntity
  8
LC-001-100-D00-0
 62
     7
370
    50
100
AcDbLine
 10
188.627802
 20
319.700843
 30
0.0
 11
188.627802
 21
319.400846
 31
0.0
  0
LINE
  5
28D
330
1F
100
AcDbEntity
  8
LC-001-100-D00-0
 62
     7
370
    50
100
AcDbLine
 10
192.934037
 20
319.400846
 30
0.0
 11
192.934037
 21
309.40084
 31
0.0
  0
LINE
  5
28E
330
1F
100
AcDbEntity
  8
LC-001-100-D00-0
 62
     7
370
    50
100
AcDbLine
 10
88.93404
 20
289.900842
 30
0.0
 11
88.93404
 21
308.900839
 31
0.0
  0
LINE
  5
28F
330
1F
100
AcDbEntity
  8
LC-001-100-D00-0
 62
     7
370
    50
100
AcDbLine
 10
173.934043
 20
308.900839
 30
0.0
 11
173.934043
 21
289.900842
 31
0.0
  0
LINE
  5
290
330
1F
100
AcDbEntity
  8
LC-001-100-D00-0
 62
     7
370
    50
100
AcDbLine
 10
76.184041
 20
299.900844
 30
0.0
 11
76.184041
 21
317.400842
 31
0.0
  0
LINE
  5
291
330
1F
100
AcDbEntity
  8
LC-001-100-D00-0
 62
     7
370
    50
100
AcDbLine
 10
186.684043
 20
309.40084
 30
0.0
 11
186.684043
 21
299.900844
 31
0.0
  0
LINE
  5
292
330
1F
100
AcDbEntity
  8
LC-001-100-D00-0
 62
     7
370
    50
100
AcDbLine
 10
78.184041
 20
317.400842
 30
0.0
 11
78.184041
 21
299.900844
 31
0.0
  0
LINE
  5
293
330
1F
100
AcDbEntity
  8
LC-001-100-D00-0
 62
     7
370
    50
100
AcDbLine
 10
184.684039
 20
299.900844
 30
0.0
 11
184.684039
 21
317.400842
 31
0.0
  0
LINE
  5
294
330
1F
100
AcDbEntity
  8
LC-001-100-D00-0
 62
     7
370
    50
100
AcDbLine
 10
78.184041
 20
299.900844
 30
0.0
 11
88.93404
 21
299.900844
 31
0.0
  0
LINE
  5
295
330
1F
100
AcDbEntity
  8
LC-001-100-D00-0
 62
     7
370
    50
100
AcDbLine
 10
173.934043
 20
299.900844
 30
0.0
 11
184.684039
 21
299.900844
 31
0.0
  0
LINE
  5
296
330
1F
100
AcDbEntity
  8
LC-001-100-D00-0
 62
     7
370
    50
100
AcDbLine
 10
86.934042
 20
308.900839
 30
0.0
 11
86.934042
 21
317.400842
 31
0.0
  0
LINE
  5
297
330
1F
100
AcDbEntity
  8
LC-001-100-D00-0
 62
     7
370
    50
100
AcDbLine
 10
175.93404
 20
317.400842
 30
0.0
 11
175.93404
 21
308.900839
 31
0.0
  0
LINE
  5
298
330
1F
100
AcDbEntity
  8
LC-001-100-D00-0
 62
     7
370
    50
100
AcDbLine
 10
90.934041
 20
310.900844
 30
0.0
 11
92.206263
 21
310.900844
 31
0.0
  0
LINE
  5
299
330
1F
100
AcDbEntity
  8
LC-001-100-D00-0
 62
     7
370
    50
100
AcDbLine
 10
170.661815
 20
310.900844
 30
0.0
 11
171.934039
 21
310.900844
 31
0.0
  0
LINE
  5
29A
330
1F
100
AcDbEntity
  8
LC-001-100-D00-0
 62
     7
370
    50
100
AcDbLine
 10
90.934041
 20
310.900844
 30
0.0
 11
90.934041
 21
289.900842
 31
0.0
  0
LINE
  5
29B
330
1F
100
AcDbEntity
  8
LC-001-100-D00-0
 62
     7
370
    50
100
AcDbLine
 10
171.934039
 20
289.900842
 30
0.0
 11
171.934039
 21
310.900844
 31
0.0
  0
LINE
  5
29C
330
1F
100
AcDbEntity
  8
LC-001-100-D00-0
 62
     7
370
    50
100
AcDbLine
 10
90.934041
 20
289.900842
 30
0.0
 11
98.434043
 21
289.900842
 31
0.0
  0
LINE
  5
29D
330
1F
100
AcDbEntity
  8
LC-001-100-D00-0
 62
     7
370
    50
100
AcDbLine
 10
164.434039
 20
289.900842
 30
0.0
 11
171.934039
 21
289.900842
 31
0.0
  0
LINE
  5
29E
330
1F
100
AcDbEntity
  8
LC-001-100-D00-0
 62
     7
370
    50
100
AcDbLine
 10
147.69809
 20
319.400846
 30
0.0
 11
170.698919
 21
319.400846
 31
0.0
  0
LINE
  5
29F
330
1F
100
AcDbEntity
  8
LC-001-100-D00-0
 62
     7
370
    50
100
AcDbLine
 10
115.169995
 20
319.400846
 30
0.0
 11
147.69809
 21
319.400846
 31
0.0
  0
LINE
  5
2A0
330
1F
100
AcDbEntity
  8
LC-001-100-D00-0
 62
     7
370
    50
100
AcDbLine
 10
92.169161
 20
319.400846
 30
0.0
 11
115.169995
 21
319.400846
 31
0.0
  0
LINE
  5
2A1
330
1F
100
AcDbEntity
  8
LC-001-100-D00-0
 62
     7
370
    50
100
AcDbLine
 10
88.93404
 20
319.400846
 30
0.0
 11
88.93404
 21
310.900844
 31
0.0
  0
LINE
  5
2A2
330
1F
100
AcDbEntity
  8
LC-001-100-D00-0
 62
     7
370
    50
100
AcDbLine
 10
173.934043
 20
310.900844
 30
0.0
 11
173.934043
 21
319.400846
 31
0.0
  0
LINE
  5
2A3
330
1F
100
AcDbEntity
  8
LC-001-100-D00-0
 62
     7
370
    50
100
AcDbLine
 10
88.93404
 20
319.400846
 30
0.0
 11
92.169161
 21
319.400846
 31
0.0
  0
LINE
  5
2A4
330
1F
100
AcDbEntity
  8
LC-001-100-D00-0
 62
     7
370
    50
100
AcDbLine
 10
170.698919
 20
319.400846
 30
0.0
 11
173.934043
 21
319.400846
 31
0.0
  0
LINE
  5
2A5
330
1F
100
AcDbEntity
  8
LC-001-100-D00-0
 62
     7
370
    50
100
AcDbLine
 10
192.934037
 20
309.40084
 30
0.0
 11
186.684043
 21
309.40084
 31
0.0
  0
LINE
  5
2A6
330
1F
100
AcDbEntity
  8
LC-001-100-D00-0
 62
     7
370
    50
100
AcDbLine
 10
171.934039
 20
310.900844
 30
0.0
 11
173.934043
 21
310.900844
 31
0.0
  0
LINE
  5
2A7
330
1F
100
AcDbEntity
  8
LC-001-100-D00-0
 62
     7
370
    50
100
AcDbLine
 10
173.934043
 20
289.900842
 30
0.0
 11
171.934039
 21
289.900842
 31
0.0
  0
LINE
  5
2A8
330
1F
100
AcDbEntity
  8
LC-001-100-D00-0
 62
     7
370
    50
100
AcDbLine
 10
175.93404
 20
308.900839
 30
0.0
 11
173.934043
 21
308.900839
 31
0.0
  0
LINE
  5
2A9
330
1F
100
AcDbEntity
  8
LC-001-100-D00-0
 62
     7
370
    50
100
AcDbLine
 10
184.684039
 20
317.400842
 30
0.0
 11
175.93404
 21
317.400842
 31
0.0
  0
LINE
  5
2AA
330
1F
100
AcDbEntity
  8
LC-001-100-D00-0
 62
     7
370
    50
100
AcDbLine
 10
186.684043
 20
299.900844
 30
0.0
 11
184.684039
 21
299.900844
 31
0.0
  0
LINE
  5
2AB
330
1F
100
AcDbEntity
  8
LC-001-100-D00-0
 62
     7
370
    50
100
AcDbLine
 10
173.934043
 20
319.400846
 30
0.0
 11
192.934037
 21
319.400846
 31
0.0
  0
LINE
  5
2AC
330
1F
100
AcDbEntity
  8
LC-001-100-D00-0
 62
     7
370
    50
100
AcDbLine
 10
88.93404
 20
310.900844
 30
0.0
 11
90.934041
 21
310.900844
 31
0.0
  0
LINE
  5
2AD
330
1F
100
AcDbEntity
  8
LC-001-100-D00-0
 62
     7
370
    50
100
AcDbLine
 10
90.934041
 20
289.900842
 30
0.0
 11
88.93404
 21
289.900842
 31
0.0
  0
LINE
  5
2AE
330
1F
100
AcDbEntity
  8
LC-001-100-D00-0
 62
     7
370
    50
100
AcDbLine
 10
88.93404
 20
308.900839
 30
0.0
 11
86.934042
 21
308.900839
 31
0.0
  0
LINE
  5
2AF
330
1F
100
AcDbEntity
  8
LC-001-100-D00-0
 62
     7
370
    50
100
AcDbLine
 10
86.934042
 20
317.400842
 30
0.0
 11
78.184041
 21
317.400842
 31
0.0
  0
LINE
  5
2B0
330
1F
100
AcDbEntity
  8
LC-001-100-D00-0
 62
     7
370
    50
100
AcDbLine
 10
78.184041
 20
299.900844
 30
0.0
 11
76.184041
 21
299.900844
 31
0.0
  0
LINE
  5
2B1
330
1F
100
AcDbEntity
  8
LC-001-100-D00-0
 62
     7
370
    50
100
AcDbLine
 10
69.934041
 20
319.400846
 30
0.0
 11
88.93404
 21
319.400846
 31
0.0
  0
LINE
  5
2B2
330
1F
100
AcDbEntity
  8
LC-001-100-D00-0
 62
     7
370
    50
100
AcDbLine
 10
76.184041
 20
317.400842
 30
0.0
 11
69.934041
 21
317.400842
 31
0.0
  0
LINE
  5
2B3
330
1F
100
AcDbEntity
  8
LC-001-100-D00-0
 62
     7
370
    50
100
AcDbLine
 10
172.005483
 20
319.700843
 30
0.0
 11
170.698919
 21
319.700843
 31
0.0
  0
LINE
  5
2B4
330
1F
100
AcDbEntity
  8
LC-001-100-D00-0
 62
     7
370
    50
100
AcDbLine
 10
92.169161
 20
319.700843
 30
0.0
 11
90.862597
 21
319.700843
 31
0.0
  0
LINE
  5
2B5
330
1F
100
AcDbEntity
  8
LC-001-100-D00-0
 62
     7
370
    50
100
AcDbLine
 10
183.083714
 20
319.700843
 30
0.0
 11
172.005483
 21
319.700843
 31
0.0
  0
LINE
  5
2B6
330
1F
100
AcDbEntity
  8
LC-001-100-D00-0
 62
     7
370
    50
100
AcDbLine
 10
90.862597
 20
319.700843
 30
0.0
 11
79.784368
 21
319.700843
 31
0.0
  0
LINE
  5
2B7
330
1F
100
AcDbEntity
  8
LC-001-100-D00-0
 62
     7
370
    50
100
AcDbLine
 10
170.698919
 20
319.700843
 30
0.0
 11
170.622804
 21
319.700843
 31
0.0
  0
LINE
  5
2B8
330
1F
100
AcDbEntity
  8
LC-001-100-D00-0
 62
     7
370
    50
100
AcDbLine
 10
92.245281
 20
319.700843
 30
0.0
 11
92.169161
 21
319.700843
 31
0.0
  0
LINE
  5
2B9
330
1F
100
AcDbEntity
  8
LC-001-100-D00-0
 62
     7
370
    50
100
AcDbLine
 10
149.004646
 20
319.700843
 30
0.0
 11
147.69809
 21
319.700843
 31
0.0
  0
LINE
  5
2BA
330
1F
100
AcDbEntity
  8
LC-001-100-D00-0
 62
     7
370
    50
100
AcDbLine
 10
115.169995
 20
319.700843
 30
0.0
 11
113.863432
 21
319.700843
 31
0.0
  0
LINE
  5
2BB
330
1F
100
AcDbEntity
  8
LC-001-100-D00-0
 62
     7
370
    50
100
AcDbLine
 10
147.69809
 20
319.700843
 30
0.0
 11
147.080772
 21
319.700843
 31
0.0
  0
LINE
  5
2BC
330
1F
100
AcDbEntity
  8
LC-001-100-D00-0
 62
     7
370
    50
100
AcDbLine
 10
115.787313
 20
319.700843
 30
0.0
 11
115.169995
 21
319.700843
 31
0.0
  0
LINE
  5
2BD
330
1F
100
AcDbEntity
  8
LC-001-100-D00-0
 62
     7
370
    50
100
AcDbLine
 10
153.593407
 20
319.700843
 30
0.0
 11
149.004646
 21
319.700843
 31
0.0
  0
LINE
  5
2BE
330
1F
100
AcDbEntity
  8
LC-001-100-D00-0
 62
     7
370
    50
100
AcDbLine
 10
113.863432
 20
319.700843
 30
0.0
 11
109.274679
 21
319.700843
 31
0.0
  0
LINE
  5
2BF
330
1F
100
AcDbEntity
  8
LC-001-100-D00-0
 62
     7
370
    50
100
AcDbLine
 10
179.784038
 20
254.400843
 30
0.0
 11
215.434045
 21
254.400843
 31
0.0
  0
LINE
  5
2C0
330
1F
100
AcDbEntity
  8
LC-001-100-D00-0
 62
     7
370
    50
100
AcDbLine
 10
215.434045
 20
297.400842
 30
0.0
 11
189.284042
 21
297.400842
 31
0.0
  0
LINE
  5
2C1
330
1F
100
AcDbEntity
  8
LC-001-100-D00-0
 62
     7
370
    50
100
AcDbLine
 10
189.284042
 20
297.400842
 30
0.0
 11
189.284042
 21
306.36531
 31
0.0
  0
LINE
  5
2C2
330
1F
100
AcDbEntity
  8
LC-001-100-D00-0
 62
     7
370
    50
100
AcDbLine
 10
73.584041
 20
306.36531
 30
0.0
 11
73.584041
 21
263.900841
 31
0.0
  0
LINE
  5
2C3
330
1F
100
AcDbEntity
  8
LC-001-100-D00-0
 62
     7
370
    50
100
AcDbLine
 10
186.784045
 20
294.900841
 30
0.0
 11
238.234044
 21
294.900841
 31
0.0
  0
INSERT
  5
2E7
330
1F
100
AcDbEntity
  8
LC-001-100-D00-0
 62
     7
370
    50
100
AcDbBlockReference
  2
POLY5
 10
0.0
 20
0.0
 30
0.0
  0
INSERT
  5
2FF
330
1F
100
AcDbEntity
  8
LC-001-100-D00-0
 62
     7
370
    50
100
AcDbBlockReference
  2
POLY6
 10
0.0
 20
0.0
 30
0.0
  0
LINE
  5
300
330
1F
100
AcDbEntity
  8
LC-001-100-D00-0
 62
     7
370
    50
100
AcDbLine
 10
238.234044
 20
256.900842
 30
0.0
 11
179.784038
 21
256.900842
 31
0.0
  0
LINE
  5
301
330
1F
100
AcDbEntity
  8
LC-001-100-D00-0
 62
     7
370
    50
100
AcDbLine
 10
238.234044
 20
294.900841
 30
0.0
 11
238.234044
 21
256.900842
 31
0.0
  0
LINE
  5
302
330
1F
100
AcDbEntity
  8
LC-001-100-D00-0
 62
     7
370
    50
100
AcDbLine
 10
186.784045
 20
307.400844
 30
0.0
 11
186.784045
 21
294.900841
 31
0.0
  0
LINE
  5
303
330
1F
100
AcDbEntity
  8
LC-001-100-D00-0
 62
     7
370
    50
100
AcDbLine
 10
186.784045
 20
307.400844
 30
0.0
 11
186.684043
 21
307.400844
 31
0.0
  0
LINE
  5
304
330
1F
100
AcDbEntity
  8
LC-001-100-D00-0
 62
     7
370
    50
100
AcDbLine
 10
76.184041
 20
307.400844
 30
0.0
 11
76.084041
 21
307.400844
 31
0.0
  0
LINE
  5
305
330
1F
100
AcDbEntity
  8
LC-001-100-D00-0
 62
     7
370
    50
100
AcDbLine
 10
76.084041
 20
290.900844
 30
0.0
 11
76.084041
 21
307.400844
 31
0.0
  0
ARC
  5
306
330
1F
100
AcDbEntity
  8
LC-001-100-D00-0
 62
     7
370
    50
100
AcDbCircle
 10
83.084041
 20
263.900842
 30
0.0
 40
9.500000000000114
100
AcDbArc
 50
180.0
 51
270.0
  0
LINE
  5
307
330
1F
100
AcDbEntity
  8
LC-001-100-D00-0
 62
     7
370
    50
100
AcDbLine
 10
196.434037
 20
306.900843
 30
0.0
 11
196.434037
 21
309.40084
 31
0.0
  0
LINE
  5
308
330
1F
100
AcDbEntity
  8
LC-001-100-D00-0
 62
     7
370
    50
100
AcDbLine
 10
66.434041
 20
309.40084
 30
0.0
 11
66.434041
 21
306.900843
 31
0.0
  0
LINE
  5
309
330
1F
100
AcDbEntity
  8
LC-001-100-D00-0
 62
     7
370
    50
100
AcDbLine
 10
243.234039
 20
255.561096
 30
0.0
 11
243.234039
 21
296.240589
 31
0.0
  0
LINE
  5
30A
330
1F
100
AcDbEntity
  8
LC-001-100-D00-0
 62
     7
370
    50
100
AcDbLine
 10
243.234039
 20
296.240589
 30
0.0
 11
238.234044
 21
294.900841
 31
0.0
  0
LINE
  5
30B
330
1F
100
AcDbEntity
  8
LC-001-100-D00-0
 62
     7
370
    50
100
AcDbLine
 10
238.234044
 20
256.900842
 30
0.0
 11
243.234039
 21
255.561096
 31
0.0
  0
LINE
  5
30C
330
1F
100
AcDbEntity
  8
LC-001-100-D00-0
 62
     7
370
    50
100
AcDbLine
 10
218.434036
 20
251.900842
 30
0.0
 11
218.434036
 21
254.135962
 31
0.0
  0
ARC
  5
30D
330
1F
100
AcDbEntity
  8
LC-001-100-D00-0
 62
     7
370
    50
100
AcDbCircle
 10
230.734041
 20
275.900842
 30
0.0
 40
25.00000000000012
100
AcDbArc
 50
240.527879
 51
277.740919
  0
ARC
  5
30E
330
1F
100
AcDbEntity
  8
LC-001-100-D00-0
 62
     7
370
    50
100
AcDbCircle
 10
234.034041
 20
251.624104
 30
0.0
 40
0.5000000000000089
100
AcDbArc
 50
277.740919
 51
0.0
  0
LINE
  5
30F
330
1F
100
AcDbEntity
  8
LC-001-100-D00-0
 62
     7
370
    50
100
AcDbLine
 10
234.534041
 20
251.624104
 30
0.0
 11
234.534041
 21
254.650842
 31
0.0
  0
ARC
  5
310
330
1F
100
AcDbEntity
  8
LC-001-100-D00-0
 62
     7
370
    50
100
AcDbCircle
 10
235.034041
 20
254.650842
 30
0.0
 40
0.5000000000001137
100
AcDbArc
 50
90.0
 51
180.0
  0
LINE
  5
311
330
1F
100
AcDbEntity
  8
LC-001-100-D00-0
 62
     7
370
    50
100
AcDbLine
 10
235.034034
 20
255.150842
 30
0.0
 11
238.234044
 21
255.150842
 31
0.0
  0
ARC
  5
312
330
1F
100
AcDbEntity
  8
LC-001-100-D00-0
 62
     7
370
    50
100
AcDbCircle
 10
238.234041
 20
254.650842
 30
0.0
 40
0.5000000000001137
100
AcDbArc
 50
0.0
 51
90.0
  0
LINE
  5
313
330
1F
100
AcDbEntity
  8
LC-001-100-D00-0
 62
     7
370
    50
100
AcDbLine
 10
238.734037
 20
254.650842
 30
0.0
 11
238.734037
 21
252.922592
 31
0.0
  0
ARC
  5
314
330
1F
100
AcDbEntity
  8
LC-001-100-D00-0
 62
     7
370
    50
100
AcDbCircle
 10
239.234041
 20
252.922592
 30
0.0
 40
0.4999999999999432
100
AcDbArc
 50
180.0
 51
290.300191
  0
ARC
  5
315
330
1F
100
AcDbEntity
  8
LC-001-100-D00-0
 62
     7
370
    50
100
AcDbCircle
 10
230.734041
 20
275.900842
 30
0.0
 40
25.0
100
AcDbArc
 50
290.300191
 51
300.0
  0
LINE
  5
316
330
1F
100
AcDbEntity
  8
LC-001-100-D00-0
 62
     7
370
    50
100
AcDbLine
 10
179.784038
 20
256.900842
 30
0.0
 11
167.424195
 21
256.900842
 31
0.0
  0
ARC
  5
317
330
1F
100
AcDbEntity
  8
LC-001-100-D00-0
 62
     7
370
    50
100
AcDbCircle
 10
158.259041
 20
260.900842
 30
0.0
 40
10.0
100
AcDbArc
 50
270.0
 51
336.421822
  0
LINE
  5
318
330
1F
100
AcDbEntity
  8
LC-001-100-D00-0
 62
     7
370
    50
100
AcDbLine
 10
104.609039
 20
250.900842
 30
0.0
 11
158.259042
 21
250.900842
 31
0.0
  0
ARC
  5
319
330
1F
100
AcDbEntity
  8
LC-001-100-D00-0
 62
     7
370
    50
100
AcDbCircle
 10
104.609041
 20
260.900842
 30
0.0
 40
10.00000000000001
100
AcDbArc
 50
203.578178
 51
270.0
  0
LINE
  5
31A
330
1F
100
AcDbEntity
  8
LC-001-100-D00-0
 62
     7
370
    50
100
AcDbLine
 10
95.44389
 20
256.900842
 30
0.0
 11
83.084042
 21
256.900842
 31
0.0
  0
ARC
  5
31B
330
1F
100
AcDbEntity
  8
LC-001-100-D00-0
 62
     7
370
    50
100
AcDbCircle
 10
83.084041
 20
263.900842
 30
0.0
 40
7.00000000000003
100
AcDbArc
 50
244.623066
 51
270.0
  0
LINE
  5
31C
330
1F
100
AcDbEntity
  8
LC-001-100-D00-0
 62
     7
370
    50
100
AcDbLine
 10
80.084041
 20
257.576287
 30
0.0
 11
80.084041
 21
290.900844
 31
0.0
  0
LINE
  5
31D
330
1F
100
AcDbEntity
  8
LC-001-100-D00-0
 62
     7
370
    50
100
AcDbLine
 10
76.084041
 20
290.900844
 30
0.0
 11
80.084041
 21
290.900844
 31
0.0
  0
LINE
  5
31E
330
1F
100
AcDbEntity
  8
LC-001-100-D00-0
 62
     7
370
    50
100
AcDbLine
 10
76.084041
 20
307.400844
 30
0.0
 11
74.084041
 21
309.40084
 31
0.0
  0
LINE
  5
31F
330
1F
100
AcDbEntity
  8
LC-001-100-D00-0
 62
     7
370
    50
100
AcDbLine
 10
74.084041
 20
309.40084
 30
0.0
 11
66.434041
 21
309.40084
 31
0.0
  0
LINE
  5
320
330
1F
100
AcDbEntity
  8
LC-001-100-D00-0
 62
     7
370
    50
100
AcDbLine
 10
66.434041
 20
306.900843
 30
0.0
 11
73.048507
 21
306.900843
 31
0.0
  0
LINE
  5
321
330
1F
100
AcDbEntity
  8
LC-001-100-D00-0
 62
     7
370
    50
100
AcDbLine
 10
73.048507
 20
306.900843
 30
0.0
 11
73.584041
 21
306.36531
 31
0.0
  0
LINE
  5
322
330
1F
100
AcDbEntity
  8
LC-001-100-D00-0
 62
     7
370
    50
100
AcDbLine
 10
83.084042
 20
254.400843
 30
0.0
 11
93.931962
 21
254.400843
 31
0.0
  0
ARC
  5
323
330
1F
100
AcDbEntity
  8
LC-001-100-D00-0
 62
     7
370
    50
100
AcDbCircle
 10
104.609041
 20
260.900842
 30
0.0
 40
12.50000000000012
100
AcDbArc
 50
211.332251
 51
270.0
  0
ARC
  5
324
330
1F
100
AcDbEntity
  8
LC-001-100-D00-0
 62
     7
370
    50
100
AcDbCircle
 10
158.259041
 20
260.900842
 30
0.0
 40
12.50000000000011
100
AcDbArc
 50
270.0
 51
328.667749
  0
LINE
  5
325
330
1F
100
AcDbEntity
  8
LC-001-100-D00-0
 62
     7
370
    50
100
AcDbLine
 10
168.936119
 20
254.400843
 30
0.0
 11
179.784038
 21
254.400843
 31
0.0
  0
LINE
  5
326
330
1F
100
AcDbEntity
  8
LC-001-100-D00-0
 62
     7
370
    50
100
AcDbLine
 10
215.434045
 20
254.400843
 30
0.0
 11
215.434045
 21
251.900842
 31
0.0
  0
LINE
  5
327
330
1F
100
AcDbEntity
  8
LC-001-100-D00-0
 62
     7
370
    50
100
AcDbLine
 10
215.434045
 20
251.900842
 30
0.0
 11
218.434036
 21
251.900842
 31
0.0
  0
LINE
  5
328
330
1F
100
AcDbEntity
  8
LC-001-100-D00-0
 62
     7
370
    50
100
AcDbLine
 10
243.234039
 20
254.250207
 30
0.0
 11
243.234039
 21
255.561096
 31
0.0
  0
LINE
  5
329
330
1F
100
AcDbEntity
  8
LC-001-100-D00-0
 62
     7
370
    50
100
AcDbLine
 10
158.259042
 20
248.400842
 30
0.0
 11
104.609039
 21
248.400842
 31
0.0
  0
LINE
  5
32A
330
1F
100
AcDbEntity
  8
LC-001-100-D00-0
 62
     7
370
    50
100
AcDbLine
 10
80.084041
 20
257.576287
 30
0.0
 11
80.093779
 21
257.576287
 31
0.0
  0
ARC
  5
32B
330
1F
100
AcDbEntity
  8
LC-001-100-D00-0
 62
     7
370
    50
100
AcDbCircle
 10
238.234041
 20
297.150842
 30
0.0
 40
0.5
100
AcDbArc
 50
270.0
 51
0.0
  0
ARC
  5
32C
330
1F
100
AcDbEntity
  8
LC-001-100-D00-0
 62
     7
370
    50
100
AcDbCircle
 10
230.734041
 20
275.900842
 30
0.0
 40
25.00000000000001
100
AcDbArc
 50
60.0
 51
69.699809
  0
ARC
  5
32D
330
1F
100
AcDbEntity
  8
LC-001-100-D00-0
 62
     7
370
    50
100
AcDbCircle
 10
235.034041
 20
297.150842
 30
0.0
 40
0.5
100
AcDbArc
 50
180.0
 51
270.0
  0
LINE
  5
32E
330
1F
100
AcDbEntity
  8
LC-001-100-D00-0
 62
     7
370
    50
100
AcDbLine
 10
95.44389
 20
256.900842
 30
0.0
 11
98.705624
 21
256.900842
 31
0.0
  0
LINE
  5
32F
330
1F
100
AcDbEntity
  8
LC-001-100-D00-0
 62
     7
370
    50
100
AcDbLine
 10
164.162458
 20
256.900842
 30
0.0
 11
167.424195
 21
256.900842
 31
0.0
  0
LINE
  5
330
330
1F
100
AcDbEntity
  8
LC-001-100-D00-0
 62
     7
370
    50
100
AcDbLine
 10
188.784041
 20
309.40084
 30
0.0
 11
186.784045
 21
307.400844
 31
0.0
  0
LINE
  5
331
330
1F
100
AcDbEntity
  8
LC-001-100-D00-0
 62
     7
370
    50
100
AcDbLine
 10
76.184041
 20
309.40084
 30
0.0
 11
74.084041
 21
309.40084
 31
0.0
  0
LINE
  5
332
330
1F
100
AcDbEntity
  8
LC-001-100-D00-0
 62
     7
370
    50
100
AcDbLine
 10
80.093779
 20
257.576287
 30
0.0
 11
80.093779
 21
290.900844
 31
0.0
  0
LINE
  5
333
330
1F
100
AcDbEntity
  8
LC-001-100-D00-0
 62
     7
370
    50
100
AcDbLine
 10
80.093779
 20
290.900844
 30
0.0
 11
80.084041
 21
290.900844
 31
0.0
  0
ARC
  5
334
330
1F
100
AcDbEntity
  8
LC-001-100-D00-0
 62
     7
370
    50
100
AcDbCircle
 10
230.734041
 20
275.900842
 30
0.0
 40
25.00000000000006
100
AcDbArc
 50
82.259081
 51
104.122745
  0
LINE
  5
335
330
1F
100
AcDbEntity
  8
LC-001-100-D00-0
 62
     7
370
    50
100
AcDbLine
 10
189.284042
 20
306.36531
 30
0.0
 11
189.819575
 21
306.900843
 31
0.0
  0
LINE
  5
336
330
1F
100
AcDbEntity
  8
LC-001-100-D00-0
 62
     7
370
    50
100
AcDbLine
 10
215.832279
 20
299.900844
 30
0.0
 11
215.434045
 21
299.900844
 31
0.0
  0
ARC
  5
337
330
1F
100
AcDbEntity
  8
LC-001-100-D00-0
 62
     7
370
    50
100
AcDbCircle
 10
239.234041
 20
298.879093
 30
0.0
 40
0.4999999999999568
100
AcDbArc
 50
69.699809
 51
180.0
  0
ARC
  5
338
330
1F
100
AcDbEntity
  8
LC-001-100-D00-0
 62
     7
370
    50
100
AcDbCircle
 10
234.034041
 20
300.17758
 30
0.0
 40
0.5
100
AcDbArc
 50
0.0
 51
82.259081
  0
LINE
  5
339
330
1F
100
AcDbEntity
  8
LC-001-100-D00-0
 62
     7
370
    50
100
AcDbLine
 10
238.234044
 20
296.650841
 30
0.0
 11
235.034034
 21
296.650841
 31
0.0
  0
LINE
  5
33A
330
1F
100
AcDbEntity
  8
LC-001-100-D00-0
 62
     7
370
    50
100
AcDbLine
 10
234.534041
 20
297.150842
 30
0.0
 11
234.534041
 21
300.17758
 31
0.0
  0
LINE
  5
33B
330
1F
100
AcDbEntity
  8
LC-001-100-D00-0
 62
     7
370
    50
100
AcDbLine
 10
196.434037
 20
309.40084
 30
0.0
 11
188.784041
 21
309.40084
 31
0.0
  0
LINE
  5
33C
330
1F
100
AcDbEntity
  8
LC-001-100-D00-0
 62
     7
370
    50
100
AcDbLine
 10
238.734037
 20
298.879093
 30
0.0
 11
238.734037
 21
297.150842
 31
0.0
  0
LINE
  5
33D
330
1F
100
AcDbEntity
  8
LC-001-100-D00-0
 62
     7
370
    50
100
AcDbLine
 10
224.634037
 20
300.145223
 30
0.0
 11
224.634037
 21
303.484398
 31
0.0
  0
LINE
  5
33E
330
1F
100
AcDbEntity
  8
LC-001-100-D00-0
 62
     7
370
    50
100
AcDbLine
 10
215.434045
 20
299.900844
 30
0.0
 11
215.434045
 21
297.400842
 31
0.0
  0
ARC
  5
33F
330
1F
100
AcDbEntity
  8
LC-001-100-D00-0
 62
     7
370
    50
100
AcDbCircle
 10
230.734041
 20
275.900842
 30
0.0
 40
28.25000000000017
100
AcDbArc
 50
102.470047
 51
121.836424
  0
LINE
  5
340
330
1F
100
AcDbEntity
  8
LC-001-100-D00-0
 62
     7
370
    50
100
AcDbLine
 10
189.819575
 20
306.900843
 30
0.0
 11
196.434037
 21
306.900843
 31
0.0
  0
LINE
  5
341
330
1F
100
AcDbEntity
  8
LC-001-100-D00-0
 62
     7
370
    50
100
AcDbLine
 10
243.234039
 20
296.240589
 30
0.0
 11
243.234039
 21
297.551478
 31
0.0
  0
LINE
  5
342
330
1F
100
AcDbEntity
  8
LC-001-100-D00-0
 62
     7
370
    50
100
AcDbLine
 10
189.284042
 20
297.400842
 30
0.0
 11
211.434037
 21
297.400842
 31
0.0
  0
LINE
  5
343
330
1F
100
AcDbEntity
  8
LC-001-100-D00-0
 62
     7
370
    50
100
AcDbLine
 10
73.584041
 20
309.40084
 30
0.0
 11
73.584041
 21
317.400842
 31
0.0
  0
LINE
  5
344
330
1F
100
AcDbEntity
  8
LC-001-100-D00-0
 62
     7
370
    50
100
AcDbLine
 10
189.284042
 20
317.400842
 30
0.0
 11
189.284042
 21
309.40084
 31
0.0
  0
LINE
  5
345
330
1F
100
AcDbEntity
  8
LC-001-100-D00-0
 62
     7
370
    50
100
AcDbLine
 10
73.584041
 20
294.400844
 30
0.0
 11
73.584041
 21
306.900843
 31
0.0
  0
LINE
  5
346
330
1F
100
AcDbEntity
  8
LC-001-100-D00-0
 62
     7
370
    50
100
AcDbLine
 10
66.434041
 20
306.900843
 30
0.0
 11
73.584041
 21
306.900843
 31
0.0
  0
LINE
  5
347
330
1F
100
AcDbEntity
  8
LC-001-100-D00-0
 62
     7
370
    50
100
AcDbLine
 10
73.584041
 20
309.40084
 30
0.0
 11
66.434041
 21
309.40084
 31
0.0
  0
LINE
  5
348
330
1F
100
AcDbEntity
  8
LC-001-100-D00-0
 62
     7
370
    50
100
AcDbLine
 10
69.934041
 20
317.400842
 30
0.0
 11
73.584041
 21
317.400842
 31
0.0
  0
LINE
  5
349
330
1F
100
AcDbEntity
  8
LC-001-100-D00-0
 62
     7
370
    50
100
AcDbLine
 10
69.934041
 20
317.400842
 30
0.0
 11
69.934041
 21
324.400841
 31
0.0
  0
LINE
  5
34A
330
1F
100
AcDbEntity
  8
LC-001-100-D00-0
 62
     7
370
    50
100
AcDbLine
 10
8.720607
 20
324.400841
 30
0.0
 11
69.934041
 21
324.400841
 31
0.0
  0
LINE
  5
34B
330
1F
100
AcDbEntity
  8
LC-001-100-D00-0
 62
     7
370
    50
100
AcDbLine
 10
7.75468
 20
295.142024
 30
0.0
 11
4.003391
 21
309.142022
 31
0.0
  0
ARC
  5
34C
330
1F
100
AcDbEntity
  8
LC-001-100-D00-0
 62
     7
370
    50
100
AcDbCircle
 10
8.720606
 20
323.400842
 30
0.0
 40
1.0
100
AcDbArc
 50
90.0
 51
165.0
  0
ARC
  5
34D
330
1F
100
AcDbEntity
  8
LC-001-100-D00-0
 62
     7
370
    50
100
AcDbCircle
 10
4.969317
 20
309.400842
 30
0.0
 40
1.00000000000003
100
AcDbArc
 50
165.0
 51
195.0
  0
LINE
  5
34E
330
1F
100
AcDbEntity
  8
LC-001-100-D00-0
 62
     7
370
    50
100
AcDbLine
 10
8.720607
 20
294.400844
 30
0.0
 11
73.584041
 21
294.400844
 31
0.0
  0
LINE
  5
34F
330
1F
100
AcDbEntity
  8
LC-001-100-D00-0
 62
     7
370
    50
100
AcDbLine
 10
4.003391
 20
309.659659
 30
0.0
 11
7.75468
 21
323.659665
 31
0.0
  0
ARC
  5
350
330
1F
100
AcDbEntity
  8
LC-001-100-D00-0
 62
     7
370
    50
100
AcDbCircle
 10
8.720606
 20
295.400842
 30
0.0
 40
1.000000000000003
100
AcDbArc
 50
195.0
 51
270.0
  0
LINE
  5
351
330
1F
100
AcDbEntity
  8
LC-001-100-D00-0
 62
     7
370
    50
100
AcDbLine
 10
258.864687
 20
309.142022
 30
0.0
 11
257.862241
 21
305.400844
 31
0.0
  0
ARC
  5
352
330
1F
100
AcDbEntity
  8
LC-001-100-D00-0
 62
     7
370
    50
100
AcDbCircle
 10
257.898765
 20
309.400842
 30
0.0
 40
0.9999999999999756
100
AcDbArc
 50
345.0
 51
15.0
  0
LINE
  5
353
330
1F
100
AcDbEntity
  8
LC-001-100-D00-0
 62
     7
370
    50
100
AcDbLine
 10
192.934037
 20
324.400841
 30
0.0
 11
192.934037
 21
317.400842
 31
0.0
  0
LINE
  5
354
330
1F
100
AcDbEntity
  8
LC-001-100-D00-0
 62
     7
370
    50
100
AcDbLine
 10
196.434037
 20
309.40084
 30
0.0
 11
189.284042
 21
309.40084
 31
0.0
  0
LINE
  5
355
330
1F
100
AcDbEntity
  8
LC-001-100-D00-0
 62
     7
370
    50
100
AcDbLine
 10
189.284042
 20
306.900843
 30
0.0
 11
196.434037
 21
306.900843
 31
0.0
  0
LINE
  5
356
330
1F
100
AcDbEntity
  8
LC-001-100-D00-0
 62
     7
370
    50
100
AcDbLine
 10
189.284042
 20
306.900843
 30
0.0
 11
189.284042
 21
297.400842
 31
0.0
  0
LINE
  5
357
330
1F
100
AcDbEntity
  8
LC-001-100-D00-0
 62
     7
370
    50
100
AcDbLine
 10
189.284042
 20
317.400842
 30
0.0
 11
192.934037
 21
317.400842
 31
0.0
  0
LINE
  5
358
330
1F
100
AcDbEntity
  8
LC-001-100-D00-0
 62
     7
370
    50
100
AcDbLine
 10
192.934037
 20
324.400841
 30
0.0
 11
254.147471
 21
324.400841
 31
0.0
  0
LINE
  5
359
330
1F
100
AcDbEntity
  8
LC-001-100-D00-0
 62
     7
370
    50
100
AcDbLine
 10
211.434037
 20
305.400844
 30
0.0
 11
211.434037
 21
297.400842
 31
0.0
  0
ARC
  5
35A
330
1F
100
AcDbEntity
  8
LC-001-100-D00-0
 62
     7
370
    50
100
AcDbCircle
 10
254.147476
 20
323.400842
 30
0.0
 40
0.9999999999999756
100
AcDbArc
 50
15.0
 51
90.0
  0
LINE
  5
35B
330
1F
100
AcDbEntity
  8
LC-001-100-D00-0
 62
     7
370
    50
100
AcDbLine
 10
211.434037
 20
305.400844
 30
0.0
 11
257.862241
 21
305.400844
 31
0.0
  0
LINE
  5
35C
330
1F
100
AcDbEntity
  8
LC-001-100-D00-0
 62
     7
370
    50
100
AcDbLine
 10
255.113409
 20
323.659665
 30
0.0
 11
258.864687
 21
309.659659
 31
0.0
  0
LINE
  5
35D
330
1F
100
AcDbEntity
  8
LC-001-100-D00-0
 62
     7
370
    50
100
AcDbLine
 10
69.934041
 20
324.400841
 30
0.0
 11
73.684041
 21
324.400841
 31
0.0
  0
LINE
  5
35E
330
1F
100
AcDbEntity
  8
LC-001-100-D00-0
 62
     7
370
    50
100
AcDbLine
 10
189.18404
 20
324.400841
 30
0.0
 11
192.934037
 21
324.400841
 31
0.0
  0
LINE
  5
35F
330
1F
100
AcDbEntity
  8
LC-001-100-D00-0
 62
     7
370
    50
100
AcDbLine
 10
257.862241
 20
305.400844
 30
0.0
 11
255.31672
 21
295.900843
 31
0.0
  0
INSERT
  5
37F
330
1F
100
AcDbEntity
  8
LC-001-100-D00-0
 62
     7
370
    50
100
AcDbBlockReference
  2
POLY7
 10
0.0
 20
0.0
 30
0.0
  0
LINE
  5
380
330
1F
100
AcDbEntity
  8
LC-001-100-D00-0
 62
     7
370
    50
100
AcDbLine
 10
21.934041
 20
226.397458
 30
0.0
 11
40.934042
 21
226.397458
 31
0.0
  0
INSERT
  5
3A0
330
1F
100
AcDbEntity
  8
LC-001-100-D00-0
 62
     7
370
    50
100
AcDbBlockReference
  2
POLY8
 10
0.0
 20
0.0
 30
0.0
  0
LINE
  5
3A1
330
1F
100
AcDbEntity
  8
LC-001-100-D00-0
 62
     7
370
    50
100
AcDbLine
 10
221.934036
 20
240.396877
 30
0.0
 11
240.934045
 21
240.396877
 31
0.0
  0
LINE
  5
3A2
330
1F
100
AcDbEntity
  8
LC-001-100-D00-0
 62
     7
370
    50
100
AcDbLine
 10
241.434038
 20
249.397456
 30
0.0
 11
239.070288
 21
249.397456
 31
0.0
  0
LINE
  5
3A3
330
1F
100
AcDbEntity
  8
LC-001-100-D00-0
 62
     7
370
    50
100
AcDbLine
 10
241.434038
 20
245.897456
 30
0.0
 11
221.434042
 21
245.897456
 31
0.0
  0
LINE
  5
3A4
330
1F
100
AcDbEntity
  8
LC-001-100-D00-0
 62
     7
370
    50
100
AcDbLine
 10
241.434038
 20
235.397458
 30
0.0
 11
221.434042
 21
235.397458
 31
0.0
  0
LINE
  5
3A5
330
1F
100
AcDbEntity
  8
LC-001-100-D00-0
 62
     7
370
    50
100
AcDbLine
 10
222.434045
 20
234.397455
 30
0.0
 11
240.434036
 21
234.397455
 31
0.0
  0
LINE
  5
3A6
330
1F
100
AcDbEntity
  8
LC-001-100-D00-0
 62
     7
370
    50
100
AcDbLine
 10
41.434041
 20
249.397456
 30
0.0
 11
21.434039
 21
249.397456
 31
0.0
  0
LINE
  5
3A7
330
1F
100
AcDbEntity
  8
LC-001-100-D00-0
 62
     7
370
    50
100
AcDbLine
 10
41.434041
 20
235.397458
 30
0.0
 11
21.434039
 21
235.397458
 31
0.0
  0
LINE
  5
3A8
330
1F
100
AcDbEntity
  8
LC-001-100-D00-0
 62
     7
370
    50
100
AcDbLine
 10
41.434041
 20
245.897456
 30
0.0
 11
21.434039
 21
245.897456
 31
0.0
  0
LINE
  5
3A9
330
1F
100
AcDbEntity
  8
LC-001-100-D00-0
 62
     7
370
    50
100
AcDbLine
 10
22.434042
 20
234.397455
 30
0.0
 11
40.434041
 21
234.397455
 31
0.0
  0
INSERT
  5
3B9
330
1F
100
AcDbEntity
  8
LC-001-100-D00-0
 62
     7
370
    25
100
AcDbBlockReference
  2
KLON6
 10
0.0
 20
0.0
 30
0.0
  0
INSERT
  5
3C9
330
1F
100
AcDbEntity
  8
LC-001-100-D00-0
 62
     7
370
    25
100
AcDbBlockReference
  2
KLON7
 10
0.0
 20
0.0
 30
0.0
  0
INSERT
  5
3D7
330
1F
100
AcDbEntity
  8
LC-001-100-D00-0
 62
     7
370
    25
100
AcDbBlockReference
  2
KLON8
 10
0.0
 20
0.0
 30
0.0
  0
INSERT
  5
3F6
330
1F
100
AcDbEntity
  8
LC-001-100-D00-0
 62
     7
370
    25
100
AcDbBlockReference
  2
KLON9
 10
0.0
 20
0.0
 30
0.0
  0
INSERT
  5
401
330
1F
100
AcDbEntity
  8
LC-001-100-D00-0
 62
     7
370
    25
100
AcDbBlockReference
  2
KLON10
 10
0.0
 20
0.0
 30
0.0
  0
INSERT
  5
40E
330
1F
100
AcDbEntity
  8
LC-001-100-D00-0
 62
     7
370
    25
100
AcDbBlockReference
  2
KLON11
 10
0.0
 20
0.0
 30
0.0
  0
LINE
  5
40F
330
1F
100
AcDbEntity
  8
LC-001-100-D00-0
 62
     7
370
    50
100
AcDbLine
 10
-43.850317
 20
306.428042
 30
0.0
 11
-45.038759
 21
307.616484
 31
0.0
  0
LINE
  5
410
330
1F
100
AcDbEntity
  8
LC-001-100-D00-0
 62
     7
370
    50
100
AcDbLine
 10
306.406621
 20
306.401093
 30
0.0
 11
304.934292
 21
307.873422
 31
0.0
  0
INSERT
  5
41E
330
1F
100
AcDbEntity
  8
LC-001-100-D00-0
 62
     7
370
    25
100
AcDbBlockReference
  2
KLON12
 10
0.0
 20
0.0
 30
0.0
  0
INSERT
  5
42A
330
1F
100
AcDbEntity
  8
LC-001-100-D00-0
 62
     7
370
    25
100
AcDbBlockReference
  2
KLON13
 10
0.0
 20
0.0
 30
0.0
  0
INSERT
  5
442
330
1F
100
AcDbEntity
  8
LC-001-100-D00-0
 62
     7
370
    25
100
AcDbBlockReference
  2
KLON14
 10
0.0
 20
0.0
 30
0.0
  0
INSERT
  5
454
330
1F
100
AcDbEntity
  8
LC-001-100-D00-0
 62
     7
370
    25
100
AcDbBlockReference
  2
KLON15
 10
0.0
 20
0.0
 30
0.0
  0
INSERT
  5
467
330
1F
100
AcDbEntity
  8
LC-001-100-D00-0
 62
     7
370
    25
100
AcDbBlockReference
  2
KLON16
 10
0.0
 20
0.0
 30
0.0
  0
LINE
  5
468
330
1F
100
AcDbEntity
  8
LC-001-100-D00-0
 62
     7
370
    50
100
AcDbLine
 10
235.531001
 20
251.553127
 30
0.0
 11
235.136326
 21
251.947802
 31
0.0
  0
LINE
  5
469
330
1F
100
AcDbEntity
  8
LC-001-100-D00-0
 62
     7
370
    25
100
AcDbLine
 10
172.598098
 20
314.486026
 30
0.0
 11
171.664936
 21
315.419188
 31
0.0
  0
LINE
  5
46A
330
1F
100
AcDbEntity
  8
LC-001-100-D00-0
 62
     7
370
    25
100
AcDbLine
 10
190.80431
 20
332.200842
 30
0.0
 11
188.80431
 21
334.200842
 31
0.0
  0
LINE
  5
46B
330
1F
100
AcDbEntity
  8
LC-001-100-D00-0
 62
     7
370
    25
100
AcDbLine
 10
75.934041
 20
330.327782
 30
0.0
 11
71.934041
 21
334.327782
 31
0.0
  0
INSERT
  5
471
330
1F
100
AcDbEntity
  8
LC-001-100-D00-0
 62
     7
370
    25
100
AcDbBlockReference
  2
KLON17
 10
0.0
 20
0.0
 30
0.0
  0
INSERT
  5
477
330
1F
100
AcDbEntity
  8
LC-001-100-D00-0
 62
     7
370
    25
100
AcDbBlockReference
  2
KLON18
 10
0.0
 20
0.0
 30
0.0
  0
LINE
  5
47A
330
1F
100
AcDbEntity
  8
LC-002-105-D00-0
 62
     7
370
    25
100
AcDbLine
 10
353.134041
 20
280.559701
 30
0.0
 11
299.451364
 21
280.559701
 31
0.0
  0
LINE
  5
47B
330
1F
100
AcDbEntity
  8
LC-002-105-D00-0
 62
     7
370
    25
100
AcDbLine
 10
131.434041
 20
248.400842
 30
0.0
 11
131.434041
 21
347.000844
 31
0.0
  0
LINE
  5
47C
330
1F
100
AcDbEntity
  8
LC-001-100-D00-0
  6
DASHDOT
 62
     7
370
    25
100
AcDbLine
 10
304.658811
 20
273.900842
 30
0.0
 11
184.605887
 21
273.900842
 31
0.0
  0
LINE
  5
47E
330
1F
100
AcDbEntity
  8
LC-003-002-----0
 62
     7
370
    25
100
AcDbLine
 10
31.434041
 20
299.827455
 30
0.0
 11
31.434041
 21
226.397458
 31
0.0
  0
LINE
  5
47F
330
1F
100
AcDbEntity
  8
LC-001-100-D00-0
  6
DASHDOT
 62
     7
370
    25
100
AcDbLine
 10
231.434043
 20
248.397456
 30
0.0
 11
231.434043
 21
226.546262
 31
0.0
  0
LINE
  5
480
330
1F
100
AcDbEntity
  8
LC-001-100-D00-0
 62
     7
370
    50
100
AcDbLine
 10
224.634037
 20
249.397456
 30
0.0
 11
221.434042
 21
249.397456
 31
0.0
  0
DIMENSION
  5
484
330
1F
100
AcDbEntity
  8
LC-004-106-D00-0
 62
     7
370
    25
100
AcDbDimension
  2
*D27
 10
-113.168904
 20
294.400843
 30
0.0
 11
-143.968904
 21
342.755498
 31
0.0
 70
   160
  1
30
 71
     5
 42
30.0
 53
90.0
  3
LC-DIM-L-0140-02-02
100
AcDbAlignedDimension
 13
8.720605
 23
324.400843
 33
0.0
 14
8.720605
 24
294.400843
 34
0.0
 50
90.0
100
AcDbRotatedDimension
  0
DIMENSION
  5
493
330
1F
100
AcDbEntity
  8
LC-004-106-D00-0
 62
     7
370
    25
100
AcDbDimension
  2
*D28
 10
-148.905155
 20
248.400843
 30
0.0
 11
-179.705155
 21
284.508262
 31
0.0
 70
   160
  1
76
 71
     5
 42
76.0
 53
90.0
  3
LC-DIM-L-0140-02-02
100
AcDbAlignedDimension
 13
8.720605
 23
324.400843
 33
0.0
 14
104.60904
 24
248.400843
 34
0.0
 50
90.0
100
AcDbRotatedDimension
  0
DIMENSION
  5
4A1
330
1F
100
AcDbEntity
  8
LC-004-106-D00-0
 62
     7
370
    25
100
AcDbDimension
  2
*D29
 10
3.969316
 20
408.060262
 30
0.0
 11
139.43234
 21
438.860262
 31
0.0
 70
   160
  1
255
 71
     5
 42
254.929448
  3
LC-DIM-L-0140-00-02
100
AcDbAlignedDimension
 13
258.898764
 23
309.400843
 33
0.0
 14
3.969316
 24
309.400843
 34
0.0
100
AcDbRotatedDimension
  0
DIMENSION
  5
4AE
330
1F
100
AcDbEntity
  8
LC-004-106-D00-0
 62
     7
370
    25
100
AcDbDimension
  2
*D30
 10
416.306876
 20
255.900843
 30
0.0
 11
385.506876
 21
330.246262
 31
0.0
 70
   160
  1
DN40
 71
     5
 42
40.0
 53
90.0
  3
LC-DIM-L-0140-02-02
100
AcDbAlignedDimension
 13
295.892785
 23
295.900843
 33
0.0
 14
301.249107
 24
255.900843
 34
0.0
 50
90.0
100
AcDbRotatedDimension
  0
DIMENSION
  5
4BC
330
1F
100
AcDbEntity
  8
LC-004-106-D00-0
 62
     7
370
    25
100
AcDbDimension
  2
*D31
 10
470.094604
 20
255.62569
 30
0.0
 11
439.294604
 21
318.366262
 31
0.0
 70
   160
  1
DN50
 71
     5
 42
49.868025
 53
90.0
  3
LC-DIM-L-0140-00-02
100
AcDbAlignedDimension
 13
346.63404
 23
305.493714
 33
0.0
 14
346.63404
 24
255.62569
 34
0.0
 50
90.0
100
AcDbRotatedDimension
  0
DIMENSION
  5
4CB
330
1F
100
AcDbEntity
  8
LC-005-003-----0
 62
     7
370
    25
100
AcDbDimension
  2
*D32
 10
349.634039
 20
181.746262
 30
0.0
 11
225.845411
 21
212.546262
 31
0.0
 70
   160
  1
218
 71
     5
 42
218.199999
  3
LC-DIM-L-0140-02-02
100
AcDbAlignedDimension
 13
131.43404
 23
248.400843
 33
0.0
 14
349.634039
 24
258.674854
 34
0.0
100
AcDbRotatedDimension
  0
DIMENSION
  5
4D8
330
1F
100
AcDbEntity
  8
LC-001-100-D00-0
 62
     7
370
    25
100
AcDbDimension
  2
*D33
 10
-17.329789
 20
302.400843
 30
0.0
 11
-48.129789
 21
235.835498
 31
0.0
 70
   160
  1
40
 71
     5
 42
40.000582
 53
90.0
  3
LC-DIM-L-0140-02-02
100
AcDbAlignedDimension
 13
110.43443
 23
262.400261
 33
0.0
 14
98.43404
 24
302.400843
 34
0.0
 50
90.0
100
AcDbRotatedDimension
  0
LINE
  5
4E6
330
1F
100
AcDbEntity
  8
LC-001-100-D00-0
 62
     7
370
    50
100
AcDbLine
 10
241.815808
 20
242.435458
 30
0.0
 11
222.815806
 21
242.435458
 31
0.0
  0
DIMENSION
  5
4E7
330
1F
100
AcDbEntity
  8
LC-004-106-D00-0
 62
     7
370
    25
100
AcDbDimension
  2
*D34
 10
-95.06596
 20
454.484498
 30
0.0
 11
140.272304
 21
485.284498
 31
0.0
 70
   160
  1
453
 71
     5
 42
453.0
  3
LC-DIM-L-0140-02-02
100
AcDbAlignedDimension
 13
357.93404
 23
312.414582
 33
0.0
 14
-95.06596
 24
312.414582
 34
0.0
100
AcDbRotatedDimension
  0
LINE
  5
4F4
330
1F
100
AcDbEntity
  8
LC-001-100-D00-0
 62
     7
370
    50
100
AcDbLine
 10
301.921374
 20
-52.368861
 30
0.0
 11
305.447868
 21
-52.368861
 31
0.0
  0
LINE
  5
4F5
330
1F
100
AcDbEntity
  8
LC-001-100-D00-0
 62
     7
370
    50
100
AcDbLine
 10
308.447874
 20
-52.368861
 30
0.0
 11
347.147873
 21
-52.368861
 31
0.0
  0
LINE
  5
4F6
330
1F
100
AcDbEntity
  8
LC-001-100-D00-0
 62
     7
370
    50
100
AcDbLine
 10
297.643891
 20
-59.777662
 30
0.0
 11
300.00732
 21
-55.684084
 31
0.0
  0
LINE
  5
4F7
330
1F
100
AcDbEntity
  8
LC-001-100-D00-0
 62
     7
370
    50
100
AcDbLine
 10
301.739371
 20
-52.684084
 30
0.0
 11
301.921374
 21
-52.368861
 31
0.0
  0
LINE
  5
4F8
330
1F
100
AcDbEntity
  8
LC-001-100-D00-0
 62
     7
370
    50
100
AcDbLine
 10
347.147873
 20
-52.368861
 30
0.0
 11
348.32429
 21
-52.684084
 31
0.0
  0
LINE
  5
4F9
330
1F
100
AcDbEntity
  8
LC-001-100-D00-0
 62
     7
370
    50
100
AcDbLine
 10
259.412593
 20
-59.184084
 30
0.0
 11
297.986603
 21
-59.184084
 31
0.0
  0
LINE
  5
4FA
330
1F
100
AcDbEntity
  8
LC-001-100-D00-0
 62
     7
370
    50
100
AcDbLine
 10
358.447871
 20
-5.684083
 30
0.0
 11
259.072742
 21
-5.684083
 31
0.0
  0
LINE
  5
4FB
330
1F
100
AcDbEntity
  8
LC-001-100-D00-0
 62
     7
370
    50
100
AcDbLine
 10
259.072742
 20
-2.684085
 30
0.0
 11
358.447871
 21
-2.684085
 31
0.0
  0
LINE
  5
4FC
330
1F
100
AcDbEntity
  8
LC-001-100-D00-0
 62
     7
370
    50
100
AcDbLine
 10
4.822998
 20
-5.684083
 30
0.0
 11
-94.552138
 21
-5.684083
 31
0.0
  0
LINE
  5
4FD
330
1F
100
AcDbEntity
  8
LC-001-100-D00-0
 62
     7
370
    50
100
AcDbLine
 10
-94.552138
 20
-2.684085
 30
0.0
 11
4.822998
 21
-2.684085
 31
0.0
  0
LINE
  5
4FE
330
1F
100
AcDbEntity
  8
LC-001-100-D00-0
 62
     7
370
    50
100
AcDbLine
 10
4.822998
 20
-55.684084
 30
0.0
 11
-94.552138
 21
-55.684084
 31
0.0
  0
LINE
  5
4FF
330
1F
100
AcDbEntity
  8
LC-001-100-D00-0
 62
     7
370
    50
100
AcDbLine
 10
-94.552138
 20
-52.684084
 30
0.0
 11
4.822998
 21
-52.684084
 31
0.0
  0
LINE
  5
500
330
1F
100
AcDbEntity
  8
LC-001-100-D00-0
 62
     7
370
    50
100
AcDbLine
 10
358.447871
 20
94.315918
 30
0.0
 11
-94.552138
 21
94.315918
 31
0.0
  0
LINE
  5
501
330
1F
100
AcDbEntity
  8
LC-001-100-D00-0
 62
     7
370
    50
100
AcDbLine
 10
-94.552138
 20
97.315909
 30
0.0
 11
358.447871
 21
97.315909
 31
0.0
  0
LINE
  5
502
330
1F
100
AcDbEntity
  8
LC-001-100-D00-0
 62
     7
370
    50
100
AcDbLine
 10
358.447871
 20
-55.684084
 30
0.0
 11
259.072742
 21
-55.684084
 31
0.0
  0
LINE
  5
503
330
1F
100
AcDbEntity
  8
LC-001-100-D00-0
 62
     7
370
    50
100
AcDbLine
 10
259.072742
 20
-52.684084
 30
0.0
 11
358.447871
 21
-52.684084
 31
0.0
  0
LINE
  5
504
330
1F
100
AcDbEntity
  8
LC-001-100-D00-0
 62
     7
370
    50
100
AcDbLine
 10
358.447871
 20
144.315915
 30
0.0
 11
-94.552138
 21
144.315915
 31
0.0
  0
LINE
  5
505
330
1F
100
AcDbEntity
  8
LC-001-100-D00-0
 62
     7
370
    50
100
AcDbLine
 10
-94.552138
 20
147.315921
 30
0.0
 11
358.447871
 21
147.315921
 31
0.0
  0
LINE
  5
506
330
1F
100
AcDbEntity
  8
LC-001-100-D00-0
 62
     7
370
    50
100
AcDbLine
 10
358.447871
 20
44.315914
 30
0.0
 11
259.072742
 21
44.315914
 31
0.0
  0
LINE
  5
507
330
1F
100
AcDbEntity
  8
LC-001-100-D00-0
 62
     7
370
    50
100
AcDbLine
 10
4.822998
 20
44.315914
 30
0.0
 11
-94.552138
 21
44.315914
 31
0.0
  0
LINE
  5
508
330
1F
100
AcDbEntity
  8
LC-001-100-D00-0
 62
     7
370
    50
100
AcDbLine
 10
-94.552138
 20
47.315912
 30
0.0
 11
4.882461
 21
47.315912
 31
0.0
  0
LINE
  5
509
330
1F
100
AcDbEntity
  8
LC-001-100-D00-0
 62
     7
370
    50
100
AcDbLine
 10
259.013271
 20
47.315912
 30
0.0
 11
358.447871
 21
47.315912
 31
0.0
  0
LINE
  5
50A
330
1F
100
AcDbEntity
  8
LC-001-100-D00-0
 62
     7
370
    50
100
AcDbLine
 10
358.447871
 20
144.315915
 30
0.0
 11
358.447871
 21
97.315909
 31
0.0
  0
LINE
  5
50B
330
1F
100
AcDbEntity
  8
LC-001-100-D00-0
 62
     7
370
    50
100
AcDbLine
 10
358.447871
 20
94.315918
 30
0.0
 11
358.447871
 21
47.315912
 31
0.0
  0
LINE
  5
50C
330
1F
100
AcDbEntity
  8
LC-001-100-D00-0
 62
     7
370
    50
100
AcDbLine
 10
358.447871
 20
44.315914
 30
0.0
 11
358.447871
 21
-2.684085
 31
0.0
  0
LINE
  5
50D
330
1F
100
AcDbEntity
  8
LC-001-100-D00-0
 62
     7
370
    50
100
AcDbLine
 10
358.447871
 20
-5.684083
 30
0.0
 11
358.447871
 21
-52.684084
 31
0.0
  0
LINE
  5
50E
330
1F
100
AcDbEntity
  8
LC-001-100-D00-0
 62
     7
370
    50
100
AcDbLine
 10
358.447871
 20
-55.684084
 30
0.0
 11
358.447871
 21
-79.184083
 31
0.0
  0
LINE
  5
50F
330
1F
100
AcDbEntity
  8
LC-001-100-D00-0
 62
     7
370
    50
100
AcDbLine
 10
355.44788
 20
-79.184083
 30
0.0
 11
355.44788
 21
-55.684084
 31
0.0
  0
LINE
  5
510
330
1F
100
AcDbEntity
  8
LC-001-100-D00-0
 62
     7
370
    50
100
AcDbLine
 10
355.44788
 20
-52.684084
 30
0.0
 11
355.44788
 21
-5.684083
 31
0.0
  0
LINE
  5
511
330
1F
100
AcDbEntity
  8
LC-001-100-D00-0
 62
     7
370
    50
100
AcDbLine
 10
355.44788
 20
-2.684085
 30
0.0
 11
355.44788
 21
44.315914
 31
0.0
  0
LINE
  5
512
330
1F
100
AcDbEntity
  8
LC-001-100-D00-0
 62
     7
370
    50
100
AcDbLine
 10
355.44788
 20
47.315912
 30
0.0
 11
355.44788
 21
94.315918
 31
0.0
  0
LINE
  5
513
330
1F
100
AcDbEntity
  8
LC-001-100-D00-0
 62
     7
370
    50
100
AcDbLine
 10
355.44788
 20
97.315909
 30
0.0
 11
355.44788
 21
144.315915
 31
0.0
  0
LINE
  5
514
330
1F
100
AcDbEntity
  8
LC-001-100-D00-0
 62
     7
370
    50
100
AcDbLine
 10
308.447874
 20
144.315915
 30
0.0
 11
308.447874
 21
97.315909
 31
0.0
  0
LINE
  5
515
330
1F
100
AcDbEntity
  8
LC-001-100-D00-0
 62
     7
370
    50
100
AcDbLine
 10
308.447874
 20
94.315918
 30
0.0
 11
308.447874
 21
47.315912
 31
0.0
  0
LINE
  5
516
330
1F
100
AcDbEntity
  8
LC-001-100-D00-0
 62
     7
370
    50
100
AcDbLine
 10
308.447874
 20
44.315914
 30
0.0
 11
308.447874
 21
-2.684085
 31
0.0
  0
LINE
  5
517
330
1F
100
AcDbEntity
  8
LC-001-100-D00-0
 62
     7
370
    50
100
AcDbLine
 10
308.447874
 20
-5.684083
 30
0.0
 11
308.447874
 21
-52.684084
 31
0.0
  0
LINE
  5
518
330
1F
100
AcDbEntity
  8
LC-001-100-D00-0
 62
     7
370
    50
100
AcDbLine
 10
308.447874
 20
-55.684084
 30
0.0
 11
308.447874
 21
-79.184083
 31
0.0
  0
LINE
  5
519
330
1F
100
AcDbEntity
  8
LC-001-100-D00-0
 62
     7
370
    50
100
AcDbLine
 10
305.447868
 20
-79.184083
 30
0.0
 11
305.447868
 21
-55.684084
 31
0.0
  0
LINE
  5
51A
330
1F
100
AcDbEntity
  8
LC-001-100-D00-0
 62
     7
370
    50
100
AcDbLine
 10
305.447868
 20
-52.684084
 30
0.0
 11
305.447868
 21
-5.684083
 31
0.0
  0
LINE
  5
51B
330
1F
100
AcDbEntity
  8
LC-001-100-D00-0
 62
     7
370
    50
100
AcDbLine
 10
305.447868
 20
-2.684085
 30
0.0
 11
305.447868
 21
44.315914
 31
0.0
  0
LINE
  5
51C
330
1F
100
AcDbEntity
  8
LC-001-100-D00-0
 62
     7
370
    50
100
AcDbLine
 10
305.447868
 20
47.315912
 30
0.0
 11
305.447868
 21
94.315918
 31
0.0
  0
LINE
  5
51D
330
1F
100
AcDbEntity
  8
LC-001-100-D00-0
 62
     7
370
    50
100
AcDbLine
 10
305.447868
 20
97.315909
 30
0.0
 11
305.447868
 21
144.315915
 31
0.0
  0
LINE
  5
51E
330
1F
100
AcDbEntity
  8
LC-001-100-D00-0
 62
     7
370
    50
100
AcDbLine
 10
58.447868
 20
144.315915
 30
0.0
 11
58.447868
 21
97.315909
 31
0.0
  0
LINE
  5
51F
330
1F
100
AcDbEntity
  8
LC-001-100-D00-0
 62
     7
370
    50
100
AcDbLine
 10
58.447868
 20
94.315918
 30
0.0
 11
58.447868
 21
48.280643
 31
0.0
  0
LINE
  5
520
330
1F
100
AcDbEntity
  8
LC-001-100-D00-0
 62
     7
370
    50
100
AcDbLine
 10
55.447869
 20
48.280643
 30
0.0
 11
55.447869
 21
94.315918
 31
0.0
  0
LINE
  5
521
330
1F
100
AcDbEntity
  8
LC-001-100-D00-0
 62
     7
370
    50
100
AcDbLine
 10
55.447869
 20
97.315909
 30
0.0
 11
55.447869
 21
144.315915
 31
0.0
  0
LINE
  5
522
330
1F
100
AcDbEntity
  8
LC-001-100-D00-0
 62
     7
370
    50
100
AcDbLine
 10
-41.552135
 20
144.315915
 30
0.0
 11
-41.552135
 21
97.315909
 31
0.0
  0
LINE
  5
523
330
1F
100
AcDbEntity
  8
LC-001-100-D00-0
 62
     7
370
    50
100
AcDbLine
 10
-41.552135
 20
94.315918
 30
0.0
 11
-41.552135
 21
47.315912
 31
0.0
  0
LINE
  5
524
330
1F
100
AcDbEntity
  8
LC-001-100-D00-0
 62
     7
370
    50
100
AcDbLine
 10
-41.552135
 20
44.315914
 30
0.0
 11
-41.552135
 21
-2.684085
 31
0.0
  0
LINE
  5
525
330
1F
100
AcDbEntity
  8
LC-001-100-D00-0
 62
     7
370
    50
100
AcDbLine
 10
-41.552135
 20
-5.684083
 30
0.0
 11
-41.552135
 21
-52.684084
 31
0.0
  0
LINE
  5
526
330
1F
100
AcDbEntity
  8
LC-001-100-D00-0
 62
     7
370
    50
100
AcDbLine
 10
-41.552135
 20
-55.684084
 30
0.0
 11
-41.552135
 21
-79.184083
 31
0.0
  0
LINE
  5
527
330
1F
100
AcDbEntity
  8
LC-001-100-D00-0
 62
     7
370
    50
100
AcDbLine
 10
-44.552134
 20
-79.184083
 30
0.0
 11
-44.552134
 21
-55.684084
 31
0.0
  0
LINE
  5
528
330
1F
100
AcDbEntity
  8
LC-001-100-D00-0
 62
     7
370
    50
100
AcDbLine
 10
-44.552134
 20
-52.684084
 30
0.0
 11
-44.552134
 21
-5.684083
 31
0.0
  0
LINE
  5
529
330
1F
100
AcDbEntity
  8
LC-001-100-D00-0
 62
     7
370
    50
100
AcDbLine
 10
-44.552134
 20
-2.684085
 30
0.0
 11
-44.552134
 21
44.315914
 31
0.0
  0
LINE
  5
52A
330
1F
100
AcDbEntity
  8
LC-001-100-D00-0
 62
     7
370
    50
100
AcDbLine
 10
-44.552134
 20
47.315912
 30
0.0
 11
-44.552134
 21
94.315918
 31
0.0
  0
LINE
  5
52B
330
1F
100
AcDbEntity
  8
LC-001-100-D00-0
 62
     7
370
    50
100
AcDbLine
 10
-44.552134
 20
97.315909
 30
0.0
 11
-44.552134
 21
144.315915
 31
0.0
  0
LINE
  5
52C
330
1F
100
AcDbEntity
  8
LC-001-100-D00-0
 62
     7
370
    50
100
AcDbLine
 10
158.447868
 20
144.315915
 30
0.0
 11
158.447868
 21
97.315909
 31
0.0
  0
LINE
  5
52D
330
1F
100
AcDbEntity
  8
LC-001-100-D00-0
 62
     7
370
    50
100
AcDbLine
 10
158.447868
 20
94.315918
 30
0.0
 11
158.447868
 21
48.280643
 31
0.0
  0
LINE
  5
52E
330
1F
100
AcDbEntity
  8
LC-001-100-D00-0
 62
     7
370
    50
100
AcDbLine
 10
155.447869
 20
48.280643
 30
0.0
 11
155.447869
 21
94.315918
 31
0.0
  0
LINE
  5
52F
330
1F
100
AcDbEntity
  8
LC-001-100-D00-0
 62
     7
370
    50
100
AcDbLine
 10
155.447869
 20
97.315909
 30
0.0
 11
155.447869
 21
144.315915
 31
0.0
  0
LINE
  5
530
330
1F
100
AcDbEntity
  8
LC-001-100-D00-0
 62
     7
370
    50
100
AcDbLine
 10
108.447867
 20
144.315915
 30
0.0
 11
108.447867
 21
97.315909
 31
0.0
  0
LINE
  5
531
330
1F
100
AcDbEntity
  8
LC-001-100-D00-0
 62
     7
370
    50
100
AcDbLine
 10
108.447867
 20
94.315918
 30
0.0
 11
108.447867
 21
48.280643
 31
0.0
  0
LINE
  5
532
330
1F
100
AcDbEntity
  8
LC-001-100-D00-0
 62
     7
370
    50
100
AcDbLine
 10
105.447868
 20
48.280643
 30
0.0
 11
105.447868
 21
94.315918
 31
0.0
  0
LINE
  5
533
330
1F
100
AcDbEntity
  8
LC-001-100-D00-0
 62
     7
370
    50
100
AcDbLine
 10
105.447868
 20
97.315909
 30
0.0
 11
105.447868
 21
144.315915
 31
0.0
  0
LINE
  5
534
330
1F
100
AcDbEntity
  8
LC-001-100-D00-0
 62
     7
370
    50
100
AcDbLine
 10
8.447869
 20
144.315915
 30
0.0
 11
8.447869
 21
97.315909
 31
0.0
  0
LINE
  5
535
330
1F
100
AcDbEntity
  8
LC-001-100-D00-0
 62
     7
370
    50
100
AcDbLine
 10
8.447869
 20
94.315918
 30
0.0
 11
8.447869
 21
48.280643
 31
0.0
  0
LINE
  5
536
330
1F
100
AcDbEntity
  8
LC-001-100-D00-0
 62
     7
370
    50
100
AcDbLine
 10
5.447867
 20
48.280017
 30
0.0
 11
5.447867
 21
94.315918
 31
0.0
  0
LINE
  5
537
330
1F
100
AcDbEntity
  8
LC-001-100-D00-0
 62
     7
370
    50
100
AcDbLine
 10
5.447867
 20
97.315909
 30
0.0
 11
5.447867
 21
144.315915
 31
0.0
  0
LINE
  5
538
330
1F
100
AcDbEntity
  8
LC-001-100-D00-0
 62
     7
370
    50
100
AcDbLine
 10
258.447862
 20
144.315915
 30
0.0
 11
258.447862
 21
97.315909
 31
0.0
  0
LINE
  5
539
330
1F
100
AcDbEntity
  8
LC-001-100-D00-0
 62
     7
370
    50
100
AcDbLine
 10
258.447862
 20
94.315918
 30
0.0
 11
258.447862
 21
48.280017
 31
0.0
  0
LINE
  5
53A
330
1F
100
AcDbEntity
  8
LC-001-100-D00-0
 62
     7
370
    50
100
AcDbLine
 10
255.447871
 20
48.280643
 30
0.0
 11
255.447871
 21
94.315918
 31
0.0
  0
LINE
  5
53B
330
1F
100
AcDbEntity
  8
LC-001-100-D00-0
 62
     7
370
    50
100
AcDbLine
 10
255.447871
 20
97.315909
 30
0.0
 11
255.447871
 21
144.315915
 31
0.0
  0
LINE
  5
53C
330
1F
100
AcDbEntity
  8
LC-001-100-D00-0
 62
     7
370
    50
100
AcDbLine
 10
208.447865
 20
144.315915
 30
0.0
 11
208.447865
 21
97.315909
 31
0.0
  0
LINE
  5
53D
330
1F
100
AcDbEntity
  8
LC-001-100-D00-0
 62
     7
370
    50
100
AcDbLine
 10
208.447865
 20
94.315918
 30
0.0
 11
208.447865
 21
48.280643
 31
0.0
  0
LINE
  5
53E
330
1F
100
AcDbEntity
  8
LC-001-100-D00-0
 62
     7
370
    50
100
AcDbLine
 10
205.447874
 20
48.280643
 30
0.0
 11
205.447874
 21
94.315918
 31
0.0
  0
LINE
  5
53F
330
1F
100
AcDbEntity
  8
LC-001-100-D00-0
 62
     7
370
    50
100
AcDbLine
 10
205.447874
 20
97.315909
 30
0.0
 11
205.447874
 21
144.315915
 31
0.0
  0
LINE
  5
540
330
1F
100
AcDbEntity
  8
LC-001-100-D00-0
 62
     7
370
    50
100
AcDbLine
 10
-91.552132
 20
144.315915
 30
0.0
 11
-91.552132
 21
97.315909
 31
0.0
  0
LINE
  5
541
330
1F
100
AcDbEntity
  8
LC-001-100-D00-0
 62
     7
370
    50
100
AcDbLine
 10
-91.552132
 20
94.315918
 30
0.0
 11
-91.552132
 21
47.315912
 31
0.0
  0
LINE
  5
542
330
1F
100
AcDbEntity
  8
LC-001-100-D00-0
 62
     7
370
    50
100
AcDbLine
 10
-91.552132
 20
44.315914
 30
0.0
 11
-91.552132
 21
-2.684085
 31
0.0
  0
LINE
  5
543
330
1F
100
AcDbEntity
  8
LC-001-100-D00-0
 62
     7
370
    50
100
AcDbLine
 10
-91.552132
 20
-5.684083
 30
0.0
 11
-91.552132
 21
-52.684084
 31
0.0
  0
LINE
  5
544
330
1F
100
AcDbEntity
  8
LC-001-100-D00-0
 62
     7
370
    50
100
AcDbLine
 10
-91.552132
 20
-55.684084
 30
0.0
 11
-91.552132
 21
-79.184083
 31
0.0
  0
LINE
  5
545
330
1F
100
AcDbEntity
  8
LC-001-100-D00-0
 62
     7
370
    50
100
AcDbLine
 10
-94.552138
 20
-79.184083
 30
0.0
 11
-94.552138
 21
-55.684084
 31
0.0
  0
LINE
  5
546
330
1F
100
AcDbEntity
  8
LC-001-100-D00-0
 62
     7
370
    50
100
AcDbLine
 10
-94.552138
 20
-52.684084
 30
0.0
 11
-94.552138
 21
-5.684083
 31
0.0
  0
LINE
  5
547
330
1F
100
AcDbEntity
  8
LC-001-100-D00-0
 62
     7
370
    50
100
AcDbLine
 10
-94.552138
 20
-2.684085
 30
0.0
 11
-94.552138
 21
44.315914
 31
0.0
  0
LINE
  5
548
330
1F
100
AcDbEntity
  8
LC-001-100-D00-0
 62
     7
370
    50
100
AcDbLine
 10
-94.552138
 20
47.315912
 30
0.0
 11
-94.552138
 21
94.315918
 31
0.0
  0
LINE
  5
549
330
1F
100
AcDbEntity
  8
LC-001-100-D00-0
 62
     7
370
    50
100
AcDbLine
 10
-94.552138
 20
97.315909
 30
0.0
 11
-94.552138
 21
144.315915
 31
0.0
  0
ARC
  5
54A
330
1F
100
AcDbEntity
  8
LC-001-100-D00-0
 62
     7
370
    50
100
AcDbCircle
 10
258.412592
 20
47.280641
 30
0.0
 40
0.9999999999999789
100
AcDbArc
 50
2.021596
 51
90.0
  0
ARC
  5
54B
330
1F
100
AcDbEntity
  8
LC-001-100-D00-0
 62
     7
370
    50
100
AcDbCircle
 10
5.483145
 20
47.280641
 30
0.0
 40
1.000000000000057
100
AcDbArc
 50
90.0
 51
177.978404
  0
LINE
  5
54C
330
1F
100
AcDbEntity
  8
LC-001-100-D00-0
 62
     7
370
    50
100
AcDbLine
 10
4.483143
 20
-79.184083
 30
0.0
 11
4.483143
 21
-55.684084
 31
0.0
  0
LINE
  5
54D
330
1F
100
AcDbEntity
  8
LC-001-100-D00-0
 62
     7
370
    50
100
AcDbLine
 10
4.483143
 20
-52.684084
 30
0.0
 11
4.483143
 21
-5.684083
 31
0.0
  0
LINE
  5
54E
330
1F
100
AcDbEntity
  8
LC-001-100-D00-0
 62
     7
370
    50
100
AcDbLine
 10
4.483143
 20
-2.684085
 30
0.0
 11
4.483143
 21
44.315914
 31
0.0
  0
LINE
  5
54F
330
1F
100
AcDbEntity
  8
LC-001-100-D00-0
 62
     7
370
    50
100
AcDbLine
 10
5.483145
 20
48.280643
 30
0.0
 11
258.412591
 21
48.280643
 31
0.0
  0
LINE
  5
550
330
1F
100
AcDbEntity
  8
LC-001-100-D00-0
 62
     7
370
    50
100
AcDbLine
 10
259.412593
 20
44.315914
 30
0.0
 11
259.412593
 21
-2.684085
 31
0.0
  0
LINE
  5
551
330
1F
100
AcDbEntity
  8
LC-001-100-D00-0
 62
     7
370
    50
100
AcDbLine
 10
259.412593
 20
-5.684083
 30
0.0
 11
259.412593
 21
-52.684084
 31
0.0
  0
LINE
  5
552
330
1F
100
AcDbEntity
  8
LC-001-100-D00-0
 62
     7
370
    50
100
AcDbLine
 10
259.412593
 20
-55.684084
 30
0.0
 11
259.412593
 21
-79.184083
 31
0.0
  0
ARC
  5
553
330
1F
100
AcDbEntity
  8
LC-001-100-D00-0
 62
     7
370
    50
100
AcDbCircle
 10
161.328144
 20
-61.099576
 30
0.0
 40
3.00000000000011
100
AcDbArc
 50
31.613637
 51
211.613637
  0
LINE
  5
554
330
1F
100
AcDbEntity
  8
LC-001-100-D00-0
 62
     7
370
    50
100
AcDbLine
 10
189.447871
 20
-79.184083
 30
0.0
 11
189.447871
 21
-23.684083
 31
0.0
  0
ARC
  5
555
330
1F
100
AcDbEntity
  8
LC-001-100-D00-0
 62
     7
370
    50
100
AcDbCircle
 10
187.447868
 20
-23.684083
 30
0.0
 40
2.0
100
AcDbArc
 50
0.0
 51
90.0
  0
LINE
  5
556
330
1F
100
AcDbEntity
  8
LC-001-100-D00-0
 62
     7
370
    50
100
AcDbLine
 10
74.447868
 20
-23.684083
 30
0.0
 11
74.447868
 21
-79.184083
 31
0.0
  0
LINE
  5
557
330
1F
100
AcDbEntity
  8
LC-001-100-D00-0
 62
     7
370
    50
100
AcDbLine
 10
187.447867
 20
-21.684082
 30
0.0
 11
76.447868
 21
-21.684082
 31
0.0
  0
ARC
  5
558
330
1F
100
AcDbEntity
  8
LC-001-100-D00-0
 62
     7
370
    50
100
AcDbCircle
 10
76.447868
 20
-23.684083
 30
0.0
 40
2.0
100
AcDbArc
 50
90.0
 51
180.0
  0
ARC
  5
559
330
1F
100
AcDbEntity
  8
LC-001-100-D00-0
 62
     7
370
    50
100
AcDbCircle
 10
131.947868
 20
-79.184083
 30
0.0
 40
18.49999999999955
100
AcDbArc
 50
0.0
 51
23.191658
  0
ARC
  5
55A
330
1F
100
AcDbEntity
  8
LC-001-100-D00-0
 62
     7
370
    50
100
AcDbCircle
 10
131.947868
 20
-79.184083
 30
0.0
 40
24.49999999999977
100
AcDbArc
 50
0.0
 51
23.191658
  0
ARC
  5
55B
330
1F
100
AcDbEntity
  8
LC-001-100-D00-0
 62
     7
370
    50
100
AcDbCircle
 10
151.710511
 20
-70.71721
 30
0.0
 40
3.000000000000041
100
AcDbArc
 50
23.191658
 51
203.191658
  0
ARC
  5
55C
330
1F
100
AcDbEntity
  8
LC-001-100-D00-0
 62
     7
370
    50
100
AcDbCircle
 10
131.947868
 20
-79.184083
 30
0.0
 40
31.49999999999977
100
AcDbArc
 50
0.0
 51
31.613637
  0
ARC
  5
55D
330
1F
100
AcDbEntity
  8
LC-001-100-D00-0
 62
     7
370
    50
100
AcDbCircle
 10
131.947868
 20
-79.184083
 30
0.0
 40
37.49999999999994
100
AcDbArc
 50
0.0
 51
31.613637
  0
ARC
  5
55E
330
1F
100
AcDbEntity
  8
LC-001-100-D00-0
 62
     7
370
    50
100
AcDbCircle
 10
131.947868
 20
-79.184083
 30
0.0
 40
44.49999999999989
100
AcDbArc
 50
0.0
 51
35.319494
  0
ARC
  5
55F
330
1F
100
AcDbEntity
  8
LC-001-100-D00-0
 62
     7
370
    50
100
AcDbCircle
 10
131.947868
 20
-79.184083
 30
0.0
 40
50.49999999999989
100
AcDbArc
 50
0.0
 51
35.319494
  0
ARC
  5
560
330
1F
100
AcDbEntity
  8
LC-001-100-D00-0
 62
     7
370
    50
100
AcDbCircle
 10
170.705063
 20
-51.722658
 30
0.0
 40
2.999999999999985
100
AcDbArc
 50
35.319494
 51
215.319494
  0
ARC
  5
561
330
1F
100
AcDbEntity
  8
LC-001-100-D00-0
 62
     7
370
    50
100
AcDbCircle
 10
112.185226
 20
-70.71721
 30
0.0
 40
3.000000000000064
100
AcDbArc
 50
336.808342
 51
156.808342
  0
ARC
  5
562
330
1F
100
AcDbEntity
  8
LC-001-100-D00-0
 62
     7
370
    50
100
AcDbCircle
 10
131.947868
 20
-79.184083
 30
0.0
 40
18.50000000000005
100
AcDbArc
 50
156.808342
 51
180.0
  0
ARC
  5
563
330
1F
100
AcDbEntity
  8
LC-001-100-D00-0
 62
     7
370
    50
100
AcDbCircle
 10
131.947868
 20
-79.184083
 30
0.0
 40
24.50000000000003
100
AcDbArc
 50
156.808342
 51
180.0
  0
ARC
  5
564
330
1F
100
AcDbEntity
  8
LC-001-100-D00-0
 62
     7
370
    50
100
AcDbCircle
 10
102.567592
 20
-61.099576
 30
0.0
 40
3.000000000000032
100
AcDbArc
 50
328.386363
 51
148.386363
  0
ARC
  5
565
330
1F
100
AcDbEntity
  8
LC-001-100-D00-0
 62
     7
370
    50
100
AcDbCircle
 10
131.947868
 20
-79.184083
 30
0.0
 40
31.50000000000003
100
AcDbArc
 50
148.386363
 51
180.0
  0
ARC
  5
566
330
1F
100
AcDbEntity
  8
LC-001-100-D00-0
 62
     7
370
    50
100
AcDbCircle
 10
131.947868
 20
-79.184083
 30
0.0
 40
37.50000000000004
100
AcDbArc
 50
148.386363
 51
180.0
  0
ARC
  5
567
330
1F
100
AcDbEntity
  8
LC-001-100-D00-0
 62
     7
370
    50
100
AcDbCircle
 10
93.190674
 20
-51.722658
 30
0.0
 40
3.000000000000032
100
AcDbArc
 50
324.680506
 51
144.680506
  0
ARC
  5
568
330
1F
100
AcDbEntity
  8
LC-001-100-D00-0
 62
     7
370
    50
100
AcDbCircle
 10
131.947868
 20
-79.184083
 30
0.0
 40
44.50000000000003
100
AcDbArc
 50
144.680506
 51
180.0
  0
ARC
  5
569
330
1F
100
AcDbEntity
  8
LC-001-100-D00-0
 62
     7
370
    50
100
AcDbCircle
 10
131.947868
 20
-79.184083
 30
0.0
 40
50.50000000000001
100
AcDbArc
 50
144.680506
 51
180.0
  0
ARC
  5
56A
330
1F
100
AcDbEntity
  8
LC-001-100-D00-0
 62
     7
370
    50
100
AcDbCircle
 10
140.414742
 20
-59.421441
 30
0.0
 40
3.000000000000041
100
AcDbArc
 50
246.808342
 51
66.808342
  0
ARC
  5
56B
330
1F
100
AcDbEntity
  8
LC-001-100-D00-0
 62
     7
370
    50
100
AcDbCircle
 10
131.947868
 20
-79.184083
 30
0.0
 40
18.50000000000002
100
AcDbArc
 50
66.808342
 51
113.191658
  0
ARC
  5
56C
330
1F
100
AcDbEntity
  8
LC-001-100-D00-0
 62
     7
370
    50
100
AcDbCircle
 10
131.947868
 20
-79.184083
 30
0.0
 40
24.49999999999995
100
AcDbArc
 50
66.808342
 51
113.191658
  0
ARC
  5
56D
330
1F
100
AcDbEntity
  8
LC-001-100-D00-0
 62
     7
370
    50
100
AcDbCircle
 10
123.480995
 20
-59.421441
 30
0.0
 40
2.999999999999989
100
AcDbArc
 50
113.191658
 51
293.191658
  0
ARC
  5
56E
330
1F
100
AcDbEntity
  8
LC-001-100-D00-0
 62
     7
370
    50
100
AcDbCircle
 10
150.032375
 20
-49.803807
 30
0.0
 40
3.000000000000032
100
AcDbArc
 50
238.386363
 51
58.386363
  0
ARC
  5
56F
330
1F
100
AcDbEntity
  8
LC-001-100-D00-0
 62
     7
370
    50
100
AcDbCircle
 10
131.947868
 20
-79.184083
 30
0.0
 40
31.49999999999998
100
AcDbArc
 50
58.386363
 51
121.613637
  0
ARC
  5
570
330
1F
100
AcDbEntity
  8
LC-001-100-D00-0
 62
     7
370
    50
100
AcDbCircle
 10
131.947868
 20
-79.184083
 30
0.0
 40
37.49999999999998
100
AcDbArc
 50
58.386363
 51
121.613637
  0
ARC
  5
571
330
1F
100
AcDbEntity
  8
LC-001-100-D00-0
 62
     7
370
    50
100
AcDbCircle
 10
113.863361
 20
-49.803807
 30
0.0
 40
3.000000000000032
100
AcDbArc
 50
121.613637
 51
301.613637
  0
ARC
  5
572
330
1F
100
AcDbEntity
  8
LC-001-100-D00-0
 62
     7
370
    50
100
AcDbCircle
 10
159.409294
 20
-40.426889
 30
0.0
 40
3.000000000000032
100
AcDbArc
 50
234.680506
 51
54.680506
  0
ARC
  5
573
330
1F
100
AcDbEntity
  8
LC-001-100-D00-0
 62
     7
370
    50
100
AcDbCircle
 10
131.947868
 20
-79.184083
 30
0.0
 40
44.49999999999999
100
AcDbArc
 50
54.680506
 51
125.319494
  0
ARC
  5
574
330
1F
100
AcDbEntity
  8
LC-001-100-D00-0
 62
     7
370
    50
100
AcDbCircle
 10
131.947868
 20
-79.184083
 30
0.0
 40
50.49999999999996
100
AcDbArc
 50
54.680506
 51
125.319494
  0
ARC
  5
575
330
1F
100
AcDbEntity
  8
LC-001-100-D00-0
 62
     7
370
    50
100
AcDbCircle
 10
104.486443
 20
-40.426889
 30
0.0
 40
3.000000000000032
100
AcDbArc
 50
125.319494
 51
305.319494
  0
LINE
  5
576
330
1F
100
AcDbEntity
  8
LC-001-100-D00-0
 62
     7
370
    50
100
AcDbLine
 10
73.947868
 20
-79.184083
 30
0.0
 11
73.947868
 21
-21.184085
 31
0.0
  0
LINE
  5
577
330
1F
100
AcDbEntity
  8
LC-001-100-D00-0
 62
     7
370
    50
100
AcDbLine
 10
189.947872
 20
-21.184085
 30
0.0
 11
189.947872
 21
-79.184083
 31
0.0
  0
LINE
  5
578
330
1F
100
AcDbEntity
  8
LC-001-100-D00-0
 62
     7
370
    50
100
AcDbLine
 10
73.947868
 20
-21.184085
 30
0.0
 11
189.947872
 21
-21.184085
 31
0.0
  0
LINE
  5
579
330
1F
100
AcDbEntity
  8
LC-001-100-D00-0
 62
     7
370
    50
100
AcDbLine
 10
192.447862
 20
-79.184083
 30
0.0
 11
192.447862
 21
-18.684084
 31
0.0
  0
LINE
  5
57A
330
1F
100
AcDbEntity
  8
LC-001-100-D00-0
 62
     7
370
    50
100
AcDbLine
 10
71.447868
 20
-18.684084
 30
0.0
 11
71.447868
 21
-79.184083
 31
0.0
  0
LINE
  5
57B
330
1F
100
AcDbEntity
  8
LC-001-100-D00-0
 62
     7
370
    50
100
AcDbLine
 10
192.447862
 20
-18.684084
 30
0.0
 11
71.447868
 21
-18.684084
 31
0.0
  0
ARC
  5
57C
330
1F
100
AcDbEntity
  8
LC-001-100-D00-0
 62
     7
370
    50
100
AcDbCircle
 10
131.947868
 20
-79.184083
 30
0.0
 40
50.27848749890254
100
AcDbArc
 50
143.354026
 51
180.0
  0
ARC
  5
57D
330
1F
100
AcDbEntity
  8
LC-001-100-D00-0
 62
     7
370
    50
100
AcDbCircle
 10
131.947868
 20
-79.184083
 30
0.0
 40
50.27848749890254
100
AcDbArc
 50
53.354026
 51
126.645974
  0
ARC
  5
57E
330
1F
100
AcDbEntity
  8
LC-001-100-D00-0
 62
     7
370
    50
100
AcDbCircle
 10
131.947868
 20
-79.184083
 30
0.0
 40
50.27848749890245
100
AcDbArc
 50
0.0
 51
36.645974
  0
LINE
  5
57F
330
1F
100
AcDbEntity
  8
LC-001-100-D00-0
 62
     7
370
    50
100
AcDbLine
 10
230.989522
 20
15.807765
 30
0.0
 11
232.989451
 21
15.824409
 31
0.0
  0
LINE
  5
580
330
1F
100
AcDbEntity
  8
LC-001-100-D00-0
 62
     7
370
    50
100
AcDbLine
 10
230.906284
 20
25.80742
 30
0.0
 11
230.989522
 21
15.807765
 31
0.0
  0
LINE
  5
581
330
1F
100
AcDbEntity
  8
LC-001-100-D00-0
 62
     7
370
    50
100
AcDbLine
 10
232.906214
 20
25.824064
 30
0.0
 11
230.906284
 21
25.80742
 31
0.0
  0
LINE
  5
582
330
1F
100
AcDbEntity
  8
LC-001-100-D00-0
 62
     7
370
    50
100
AcDbLine
 10
232.989451
 20
15.824409
 30
0.0
 11
232.906214
 21
25.824064
 31
0.0
  0
CIRCLE
  5
583
330
1F
100
AcDbEntity
  8
LC-001-100-D00-0
 62
     7
370
    50
100
AcDbCircle
 10
231.947868
 20
20.815917
 30
0.0
 40
14.0
  0
LINE
  5
584
330
1F
100
AcDbEntity
  8
LC-001-100-D00-0
 62
     7
370
    50
100
AcDbLine
 10
36.947867
 20
19.815916
 30
0.0
 11
36.947867
 21
21.81592
 31
0.0
  0
LINE
  5
585
330
1F
100
AcDbEntity
  8
LC-001-100-D00-0
 62
     7
370
    50
100
AcDbLine
 10
26.94787
 20
19.815916
 30
0.0
 11
36.947867
 21
19.815916
 31
0.0
  0
LINE
  5
586
330
1F
100
AcDbEntity
  8
LC-001-100-D00-0
 62
     7
370
    50
100
AcDbLine
 10
26.94787
 20
21.81592
 30
0.0
 11
26.94787
 21
19.815916
 31
0.0
  0
LINE
  5
587
330
1F
100
AcDbEntity
  8
LC-001-100-D00-0
 62
     7
370
    50
100
AcDbLine
 10
36.947867
 20
21.81592
 30
0.0
 11
26.94787
 21
21.81592
 31
0.0
  0
CIRCLE
  5
588
330
1F
100
AcDbEntity
  8
LC-001-100-D00-0
 62
     7
370
    50
100
AcDbCircle
 10
31.947868
 20
20.815917
 30
0.0
 40
14.0
  0
LINE
  5
589
330
1F
100
AcDbEntity
  8
LC-001-100-D00-0
 62
     7
370
    50
100
AcDbLine
 10
301.921374
 20
-79.184083
 30
0.0
 11
301.921374
 21
-55.684084
 31
0.0
  0
LINE
  5
58A
330
1F
100
AcDbEntity
  8
LC-001-100-D00-0
 62
     7
370
    50
100
AcDbLine
 10
301.921374
 20
-52.684084
 30
0.0
 11
301.921374
 21
-52.368861
 31
0.0
  0
LINE
  5
58B
330
1F
100
AcDbEntity
  8
LC-001-100-D00-0
 62
     7
370
    50
100
AcDbLine
 10
347.147873
 20
-52.368861
 30
0.0
 11
347.147873
 21
-52.684084
 31
0.0
  0
LINE
  5
58C
330
1F
100
AcDbEntity
  8
LC-001-100-D00-0
 62
     7
370
    50
100
AcDbLine
 10
347.147873
 20
-55.684084
 30
0.0
 11
347.147873
 21
-79.184083
 31
0.0
  0
LINE
  5
58D
330
1F
100
AcDbEntity
  8
LC-001-100-D00-0
 62
     7
370
    50
100
AcDbLine
 10
350.147864
 20
-79.184083
 30
0.0
 11
350.147864
 21
-55.684084
 31
0.0
  0
LINE
  5
58E
330
1F
100
AcDbEntity
  8
LC-001-100-D00-0
 62
     7
370
    50
100
AcDbLine
 10
358.447871
 20
-2.684085
 30
0.0
 11
358.447871
 21
-5.684083
 31
0.0
  0
LINE
  5
58F
330
1F
100
AcDbEntity
  8
LC-001-100-D00-0
 62
     7
370
    50
100
AcDbLine
 10
-94.552138
 20
-2.684085
 30
0.0
 11
-94.552138
 21
-5.684083
 31
0.0
  0
LINE
  5
590
330
1F
100
AcDbEntity
  8
LC-001-100-D00-0
 62
     7
370
    50
100
AcDbLine
 10
-94.552138
 20
-52.684084
 30
0.0
 11
-94.552138
 21
-55.684084
 31
0.0
  0
LINE
  5
591
330
1F
100
AcDbEntity
  8
LC-001-100-D00-0
 62
     7
370
    50
100
AcDbLine
 10
358.447871
 20
97.315909
 30
0.0
 11
358.447871
 21
94.315918
 31
0.0
  0
LINE
  5
592
330
1F
100
AcDbEntity
  8
LC-001-100-D00-0
 62
     7
370
    50
100
AcDbLine
 10
-94.552138
 20
97.315909
 30
0.0
 11
-94.552138
 21
94.315918
 31
0.0
  0
LINE
  5
593
330
1F
100
AcDbEntity
  8
LC-001-100-D00-0
 62
     7
370
    50
100
AcDbLine
 10
358.447871
 20
-52.684084
 30
0.0
 11
358.447871
 21
-55.684084
 31
0.0
  0
LINE
  5
594
330
1F
100
AcDbEntity
  8
LC-001-100-D00-0
 62
     7
370
    50
100
AcDbLine
 10
358.447871
 20
147.315921
 30
0.0
 11
358.447871
 21
144.315915
 31
0.0
  0
LINE
  5
595
330
1F
100
AcDbEntity
  8
LC-001-100-D00-0
 62
     7
370
    50
100
AcDbLine
 10
-94.552138
 20
147.315921
 30
0.0
 11
-94.552138
 21
144.315915
 31
0.0
  0
LINE
  5
596
330
1F
100
AcDbEntity
  8
LC-001-100-D00-0
 62
     7
370
    50
100
AcDbLine
 10
-94.552138
 20
47.315912
 30
0.0
 11
-94.552138
 21
44.315914
 31
0.0
  0
LINE
  5
597
330
1F
100
AcDbEntity
  8
LC-001-100-D00-0
 62
     7
370
    50
100
AcDbLine
 10
358.447871
 20
47.315912
 30
0.0
 11
358.447871
 21
44.315914
 31
0.0
  0
LINE
  5
598
330
1F
100
AcDbEntity
  8
LC-001-100-D00-0
 62
     7
370
    50
100
AcDbLine
 10
90.462927
 20
-63.08285
 30
0.0
 11
85.123107
 21
-60.871026
 31
0.0
  0
LINE
  5
599
330
1F
100
AcDbEntity
  8
LC-001-100-D00-0
 62
     7
370
    50
100
AcDbLine
 10
85.888476
 20
-59.023265
 30
0.0
 11
91.228294
 21
-61.235091
 31
0.0
  0
LINE
  5
59A
330
1F
100
AcDbEntity
  8
LC-001-100-D00-0
 62
     7
370
    50
100
AcDbLine
 10
172.667442
 20
-61.235091
 30
0.0
 11
178.007259
 21
-59.023265
 31
0.0
  0
LINE
  5
59B
330
1F
100
AcDbEntity
  8
LC-001-100-D00-0
 62
     7
370
    50
100
AcDbLine
 10
178.772627
 20
-60.871026
 30
0.0
 11
173.432811
 21
-63.08285
 31
0.0
  0
LINE
  5
59C
330
1F
100
AcDbEntity
  8
LC-001-100-D00-0
 62
     7
370
    50
100
AcDbLine
 10
113.998877
 20
-38.464511
 30
0.0
 11
111.78705
 21
-33.124691
 31
0.0
  0
LINE
  5
59D
330
1F
100
AcDbEntity
  8
LC-001-100-D00-0
 62
     7
370
    50
100
AcDbLine
 10
113.634809
 20
-32.359323
 30
0.0
 11
115.846636
 21
-37.699143
 31
0.0
  0
LINE
  5
59E
330
1F
100
AcDbEntity
  8
LC-001-100-D00-0
 62
     7
370
    50
100
AcDbLine
 10
148.0491
 20
-37.699143
 30
0.0
 11
150.260924
 21
-32.359323
 31
0.0
  0
LINE
  5
59F
330
1F
100
AcDbEntity
  8
LC-001-100-D00-0
 62
     7
370
    50
100
AcDbLine
 10
152.108683
 20
-33.124691
 30
0.0
 11
149.896859
 21
-38.464511
 31
0.0
  0
CIRCLE
  5
5A0
330
1F
100
AcDbEntity
  8
LC-001-100-D00-0
 62
     7
370
    50
100
AcDbCircle
 10
31.947868
 20
20.815917
 30
0.0
 40
15.0
  0
CIRCLE
  5
5A1
330
1F
100
AcDbEntity
  8
LC-001-100-D00-0
 62
     7
370
    50
100
AcDbCircle
 10
231.947868
 20
20.815917
 30
0.0
 40
15.00000000000006
  0
ARC
  5
5A2
330
1F
100
AcDbEntity
  8
LC-001-100-D00-0
 62
     7
370
    50
100
AcDbCircle
 10
131.947868
 20
-79.184083
 30
0.0
 40
61.49999999999999
100
AcDbArc
 50
169.653575
 51
180.0
  0
ARC
  5
5A3
330
1F
100
AcDbEntity
  8
LC-001-100-D00-0
 62
     7
370
    50
100
AcDbCircle
 10
131.947868
 20
-79.184083
 30
0.0
 40
61.50000000000001
100
AcDbArc
 50
79.653575
 51
100.346425
  0
ARC
  5
5A4
330
1F
100
AcDbEntity
  8
LC-001-100-D00-0
 62
     7
370
    50
100
AcDbCircle
 10
131.947868
 20
-79.184083
 30
0.0
 40
61.5
100
AcDbArc
 50
0.0
 51
10.346425
  0
LINE
  5
5A5
330
1F
100
AcDbEntity
  8
LC-002-105-D00-0
 62
     7
370
    25
100
AcDbLine
 10
383.019148
 20
-79.184083
 30
0.0
 11
-121.085678
 21
-79.184083
 31
0.0
  0
LINE
  5
5A6
330
1F
100
AcDbEntity
  8
LC-002-105-D00-0
 62
     7
370
    25
100
AcDbLine
 10
131.94787
 20
-79.184083
 30
0.0
 11
131.94787
 21
147.315921
 31
0.0
  0
ARC
  5
5A7
330
1F
100
AcDbEntity
  8
LC-001-100-D00-0
 62
     7
370
    50
100
AcDbCircle
 10
364.850557
 20
-77.769209
 30
0.0
 40
68.50108188833487
100
AcDbArc
 50
161.191539
 51
181.183516
  0
DIMENSION
  5
5A8
330
1F
100
AcDbEntity
  8
LC-005-003-----0
 62
     7
370
    25
100
AcDbDimension
  2
*D35
 10
190.93404
 20
354.006262
 30
0.0
 11
141.195872
 21
384.806262
 31
0.0
 70
   160
  1
120
 71
     5
 42
118.999999
  3
LC-DIM-L-0140-02-02
100
AcDbAlignedDimension
 13
71.934041
 23
347.000844
 33
0.0
 14
190.93404
 24
347.000844
 34
0.0
100
AcDbRotatedDimension
  0
DIMENSION
  5
5B5
330
1F
100
AcDbEntity
  8
LC-005-003-----0
 62
     7
370
    25
100
AcDbDimension
  2
*D36
 10
309.613185
 20
347.000844
 30
0.0
 11
278.813185
 21
378.360262
 31
0.0
 70
   160
  1
7,5-23,5
 71
     5
 42
22.600001
 53
90.0
  3
LC-DIM-L-0140-02-02
100
AcDbAlignedDimension
 13
252.485847
 23
324.400842
 33
0.0
 14
190.93404
 24
347.000844
 34
0.0
 50
90.0
100
AcDbRotatedDimension
  0
ENDSEC
  0
SECTION
  2
OBJECTS
  0
DICTIONARY
  5
C
330
0
100
AcDbDictionary
281
     1
  3
ACAD_GROUP
350
D
  3
ACAD_LAYOUT
350
1A
  3
ACAD_MLINESTYLE
350
17
  3
ACAD_PLOTSETTINGS
350
19
  3
ACAD_PLOTSTYLENAME
350
E
  0
DICTIONARY
  5
D
102
{ACAD_REACTORS
330
C
102
}
330
C
100
AcDbDictionary
281
     1
  0
DICTIONARY
  5
1A
102
{ACAD_REACTORS
330
C
102
}
330
C
100
AcDbDictionary
281
     1
  3
Layout1
350
1E
  3
Layout2
350
26
  3
Model
350
22
  0
DICTIONARY
  5
17
102
{ACAD_REACTORS
330
C
102
}
330
C
100
AcDbDictionary
281
     1
  3
Standard
350
18
  0
DICTIONARY
  5
19
102
{ACAD_REACTORS
330
C
102
}
330
C
100
AcDbDictionary
281
     1
  0
ACDBDICTIONARYWDFLT
  5
E
102
{ACAD_REACTORS
330
C
102
}
330
C
100
AcDbDictionary
281
     1
  3
Normal
350
F
100
AcDbDictionaryWithDefault
340
F
  0
LAYOUT
  5
1E
102
{ACAD_REACTORS
330
1A
102
}
330
1A
100
AcDbPlotSettings
  1

  2

  4

  6

 40
0.0
 41
0.0
 42
0.0
 43
0.0
 44
0.0
 45
0.0
 46
0.0
 47
0.0
 48
0.0
 49
0.0
140
0.0
141
0.0
142
1.0
143
1.0
 70
   688
 72
     0
 73
     0
 74
     5
  7

 75
    16
147
1.0
148
0.0
149
0.0
100
AcDbLayout
  1
Layout1
 70
     1
 71
     1
 10
-271.75
 20
-87.335738
 11
568.25
 21
506.664262
 12
0.0
 22
0.0
 32
0.0
 14
-271.75
 24
-87.335738
 34
0.0
 15
568.25
 25
506.664262
 35
0.0
146
0.0
 13
0.0
 23
0.0
 33
0.0
 16
1.0
 26
0.0
 36
0.0
 17
0.0
 27
1.0
 37
0.0
 76
     0
330
1B
  0
LAYOUT
  5
26
102
{ACAD_REACTORS
330
1A
102
}
330
1A
100
AcDbPlotSettings
  1

  2

  4

  6

 40
0.0
 41
0.0
 42
0.0
 43
0.0
 44
0.0
 45
0.0
 46
0.0
 47
0.0
 48
0.0
 49
0.0
140
0.0
141
0.0
142
1.0
143
1.0
 70
   688
 72
     0
 73
     0
 74
     5
  7

 75
    16
147
1.0
148
0.0
149
0.0
100
AcDbLayout
  1
Layout2
 70
     1
 71
     2
 10
0.0
 20
0.0
 11
0.0
 21
0.0
 12
0.0
 22
0.0
 32
0.0
 14
0.0
 24
0.0
 34
0.0
 15
0.0
 25
0.0
 35
0.0
146
0.0
 13
0.0
 23
0.0
 33
0.0
 16
1.0
 26
0.0
 36
0.0
 17
0.0
 27
1.0
 37
0.0
 76
     0
330
23
  0
LAYOUT
  5
22
102
{ACAD_REACTORS
330
1A
102
}
330
1A
100
AcDbPlotSettings
  1

  2

  4

  6

 40
0.0
 41
0.0
 42
0.0
 43
0.0
 44
0.0
 45
0.0
 46
0.0
 47
0.0
 48
0.0
 49
0.0
140
0.0
141
0.0
142
1.0
143
1.0
 70
  1776
 72
     0
 73
     0
 74
     0
  7

 75
     0
147
1.0
148
0.0
149
0.0
100
AcDbLayout
  1
Model
 70
     1
 71
     0
 10
-271.75
 20
-87.335738
 11
568.25
 21
506.664262
 12
0.0
 22
0.0
 32
0.0
 14
-271.75
 24
-87.335738
 34
0.0
 15
568.25
 25
506.664262
 35
0.0
146
0.0
 13
0.0
 23
0.0
 33
0.0
 16
1.0
 26
0.0
 36
0.0
 17
0.0
 27
1.0
 37
0.0
 76
     0
330
1F
  0
MLINESTYLE
  5
18
102
{ACAD_REACTORS
330
17
102
}
330
17
100
AcDbMlineStyle
  2
Standard
 70
     0
  3

 62
   256
 51
90.0
 52
90.0
 71
     2
 49
0.5
 62
   256
  6
BYLAYER
 49
-0.5
 62
   256
  6
BYLAYER
  0
ACDBPLACEHOLDER
  5
F
102
{ACAD_REACTORS
330
E
102
}
330
E
  0
ENDSEC
  0
EOF
