  0
SECTION
  2
HEADER
  9
$ACADVER
  1
AC1015
  9
$ACADMAINTVER
 70
     6
  9
$DWGCODEPAGE
  3
ANSI_1252
  9
$INSBASE
 10
0.0
 20
0.0
 30
0.0
  9
$EXTMIN
 10
-231.750467
 20
-155.536593
 30
0.0
  9
$EXTMAX
 10
608.249533
 20
438.463407
 30
0.0
  9
$LIMMIN
 10
-231.750467
 20
-155.536593
  9
$LIMMAX
 10
608.249533
 20
438.463407
  9
$ORTHOMODE
 70
     0
  9
$REGENMODE
 70
     1
  9
$FILLMODE
 70
     1
  9
$QTEXTMODE
 70
     0
  9
$MIRRTEXT
 70
     1
  9
$LTSCALE
 40
2.0
  9
$ATTMODE
 70
     1
  9
$TEXTSIZE
 40
2.5
  9
$TRACEWID
 40
1.0
  9
$TEXTSTYLE
  7
Standard
  9
$CLAYER
  8
0
  9
$CELTYPE
  6
ByLayer
  9
$CECOLOR
 62
     7
  9
$CELTSCALE
 40
1.0
  9
$DISPSILH
 70
     0
  9
$DIMSCALE
 40
2.0
  9
$DIMASZ
 40
3.5
  9
$DIMEXO
 40
0.625
  9
$DIMDLI
 40
3.75
  9
$DIMRND
 40
0.0
  9
$DIMDLE
 40
0.0
  9
$DIMEXE
 40
1.25
  9
$DIMTP
 40
0.0
  9
$DIMTM
 40
0.0
  9
$DIMTXT
 40
3.5
  9
$DIMCEN
 40
2.5
  9
$DIMTSZ
 40
0.0
  9
$DIMTOL
 70
     0
  9
$DIMLIM
 70
     0
  9
$DIMTIH
 70
     0
  9
$DIMTOH
 70
     0
  9
$DIMSE1
 70
     0
  9
$DIMSE2
 70
     0
  9
$DIMTAD
 70
     1
  9
$DIMZIN
 70
     8
  9
$DIMBLK
  1

  9
$DIMASO
 70
     1
  9
$DIMSHO
 70
     1
  9
$DIMPOST
  1

  9
$DIMAPOST
  1

  9
$DIMALT
 70
     0
  9
$DIMALTD
 70
     3
  9
$DIMALTF
 40
0.03937
  9
$DIMLFAC
 40
1.0
  9
$DIMTOFL
 70
     1
  9
$DIMTVP
 40
0.0
  9
$DIMTIX
 70
     0
  9
$DIMSOXD
 70
     0
  9
$DIMSAH
 70
     0
  9
$DIMBLK1
  1

  9
$DIMBLK2
  1

  9
$DIMSTYLE
  2
ISO-25
  9
$DIMCLRD
 70
     0
  9
$DIMCLRE
 70
     0
  9
$DIMCLRT
 70
     0
  9
$DIMTFAC
 40
1.0
  9
$DIMGAP
 40
0.625
  9
$DIMJUST
 70
     0
  9
$DIMSD1
 70
     0
  9
$DIMSD2
 70
     0
  9
$DIMTOLJ
 70
     0
  9
$DIMTZIN
 70
     8
  9
$DIMALTZ
 70
     0
  9
$DIMALTTZ
 70
     0
  9
$DIMUPT
 70
     0
  9
$DIMDEC
 70
     2
  9
$DIMTDEC
 70
     2
  9
$DIMALTU
 70
     2
  9
$DIMALTTD
 70
     3
  9
$DIMTXSTY
  7
Standard
  9
$DIMAUNIT
 70
     0
  9
$DIMADEC
 70
     0
  9
$DIMALTRND
 40
0.0
  9
$DIMAZIN
 70
     0
  9
$DIMDSEP
 70
    44
  9
$DIMATFIT
 70
     3
  9
$DIMFRAC
 70
     0
  9
$DIMLDRBLK
  1

  9
$DIMLUNIT
 70
     2
  9
$DIMLWD
 70
    -2
  9
$DIMLWE
 70
    -2
  9
$DIMTMOVE
 70
     0
  9
$LUNITS
 70
     2
  9
$LUPREC
 70
     4
  9
$SKETCHINC
 40
1.0
  9
$FILLETRAD
 40
10.0
  9
$AUNITS
 70
     0
  9
$AUPREC
 70
     0
  9
$MENU
  1
.
  9
$ELEVATION
 40
0.0
  9
$PELEVATION
 40
0.0
  9
$THICKNESS
 40
0.0
  9
$LIMCHECK
 70
     0
  9
$CHAMFERA
 40
10.0
  9
$CHAMFERB
 40
10.0
  9
$CHAMFERC
 40
20.0
  9
$CHAMFERD
 40
0.0
  9
$SKPOLY
 70
     0
  9
$TDCREATE
 40
2455897.24326713
  9
$TDUCREATE
 40
2455897.201600463
  9
$TDUPDATE
 40
2455897.243267141
  9
$TDUUPDATE
 40
2455897.201600474
  9
$TDINDWG
 40
0.0000000116
  9
$TDUSRTIMER
 40
0.0000000116
  9
$USRTIMER
 70
     1
  9
$ANGBASE
 50
0.0
  9
$ANGDIR
 70
     0
  9
$PDMODE
 70
     0
  9
$PDSIZE
 40
0.0
  9
$PLINEWID
 40
0.0
  9
$SPLFRAME
 70
     0
  9
$SPLINETYPE
 70
     6
  9
$SPLINESEGS
 70
     8
  9
$HANDSEED
  5
662
  9
$SURFTAB1
 70
     6
  9
$SURFTAB2
 70
     6
  9
$SURFTYPE
 70
     6
  9
$SURFU
 70
     6
  9
$SURFV
 70
     6
  9
$UCSBASE
  2

  9
$UCSNAME
  2

  9
$UCSORG
 10
0.0
 20
0.0
 30
0.0
  9
$UCSXDIR
 10
1.0
 20
0.0
 30
0.0
  9
$UCSYDIR
 10
0.0
 20
1.0
 30
0.0
  9
$UCSORTHOREF
  2

  9
$UCSORTHOVIEW
 70
     0
  9
$UCSORGTOP
 10
0.0
 20
0.0
 30
0.0
  9
$UCSORGBOTTOM
 10
0.0
 20
0.0
 30
0.0
  9
$UCSORGLEFT
 10
0.0
 20
0.0
 30
0.0
  9
$UCSORGRIGHT
 10
0.0
 20
0.0
 30
0.0
  9
$UCSORGFRONT
 10
0.0
 20
0.0
 30
0.0
  9
$UCSORGBACK
 10
0.0
 20
0.0
 30
0.0
  9
$PUCSBASE
  2

  9
$PUCSNAME
  2

  9
$PUCSORG
 10
0.0
 20
0.0
 30
0.0
  9
$PUCSXDIR
 10
1.0
 20
0.0
 30
0.0
  9
$PUCSYDIR
 10
0.0
 20
1.0
 30
0.0
  9
$PUCSORTHOREF
  2

  9
$PUCSORTHOVIEW
 70
     0
  9
$PUCSORGTOP
 10
0.0
 20
0.0
 30
0.0
  9
$PUCSORGBOTTOM
 10
0.0
 20
0.0
 30
0.0
  9
$PUCSORGLEFT
 10
0.0
 20
0.0
 30
0.0
  9
$PUCSORGRIGHT
 10
0.0
 20
0.0
 30
0.0
  9
$PUCSORGFRONT
 10
0.0
 20
0.0
 30
0.0
  9
$PUCSORGBACK
 10
0.0
 20
0.0
 30
0.0
  9
$USERI1
 70
     0
  9
$USERI2
 70
     0
  9
$USERI3
 70
     0
  9
$USERI4
 70
     0
  9
$USERI5
 70
     0
  9
$USERR1
 40
0.0
  9
$USERR2
 40
0.0
  9
$USERR3
 40
0.0
  9
$USERR4
 40
0.0
  9
$USERR5
 40
0.0
  9
$WORLDVIEW
 70
     1
  9
$SHADEDGE
 70
     3
  9
$SHADEDIF
 70
    70
  9
$TILEMODE
 70
     1
  9
$MAXACTVP
 70
    64
  9
$PINSBASE
 10
0.0
 20
0.0
 30
0.0
  9
$PLIMCHECK
 70
     0
  9
$PEXTMIN
 10
-231.750467
 20
-155.536593
 30
0.0
  9
$PEXTMAX
 10
608.249533
 20
438.463407
 30
0.0
  9
$PLIMMIN
 10
-231.750467
 20
-155.536593
  9
$PLIMMAX
 10
608.249533
 20
438.463407
  9
$UNITMODE
 70
     0
  9
$VISRETAIN
 70
     1
  9
$PLINEGEN
 70
     0
  9
$PSLTSCALE
 70
     1
  9
$TREEDEPTH
 70
  3020
  9
$CMLSTYLE
  2
Standard
  9
$CMLJUST
 70
     0
  9
$CMLSCALE
 40
20.0
  9
$PROXYGRAPHICS
 70
     1
  9
$MEASUREMENT
 70
     1
  9
$CELWEIGHT
370
    -1
  9
$ENDCAPS
280
     0
  9
$JOINSTYLE
280
     0
  9
$LWDISPLAY
290
     0
  9
$INSUNITS
 70
     4
  9
$HYPERLINKBASE
  1

  9
$STYLESHEET
  1

  9
$XEDIT
290
     1
  9
$CEPSNTYPE
380
     0
  9
$PSTYLEMODE
290
     1
  9
$FINGERPRINTGUID
  2
{FAEB1C30-E019-11D5-929B-00C0DF256EC4}
  9
$VERSIONGUID
  2
{FAEB1C32-E019-11D5-929B-00C0DF256EC4}
  9
$EXTNAMES
290
     1
  9
$PSVPSCALE
 40
0.0
  9
$OLESTARTUP
290
     0
  0
ENDSEC
  0
SECTION
  2
CLASSES
  0
CLASS
  1
ACDBDICTIONARYWDFLT
  2
AcDbDictionaryWithDefault
  3
ObjectDBX Classes
 90
        0
280
     0
281
     0
  0
CLASS
  1
ACDBPLACEHOLDER
  2
AcDbPlaceHolder
  3
ObjectDBX Classes
 90
        0
280
     0
281
     0
  0
CLASS
  1
LAYOUT
  2
AcDbLayout
  3
ObjectDBX Classes
 90
        0
280
     0
281
     0
  0
ENDSEC
  0
SECTION
  2
TABLES
  0
TABLE
  2
VPORT
  5
8
330
0
100
AcDbSymbolTable
 70
     2
  0
VPORT
  5
29
330
8
100
AcDbSymbolTableRecord
100
AcDbViewportTableRecord
  2
*ACTIVE
 70
     0
 10
0.0
 20
0.0
 11
1.0
 21
1.0
 12
188.249533
 22
141.463407
 13
0.0
 23
0.0
 14
1.0
 24
1.0
 15
0.0
 25
0.0
 16
0.0
 26
0.0
 36
1.0
 17
0.0
 27
0.0
 37
0.0
 40
594.0
 41
1.414141
 42
50.0
 43
0.0
 44
0.0
 50
0.0
 51
0.0
 71
    16
 72
   100
 73
     1
 74
     0
 75
     0
 76
     0
 77
     0
 78
     0
281
     0
 65
     0
110
0.0
120
0.0
130
0.0
111
1.0
121
0.0
131
0.0
112
0.0
122
1.0
132
0.0
 79
     0
146
0.0
  0
ENDTAB
  0
TABLE
  2
LTYPE
  5
5
330
0
100
AcDbSymbolTable
 70
     3
  0
LTYPE
  5
14
330
5
100
AcDbSymbolTableRecord
100
AcDbLinetypeTableRecord
  2
ByBlock
 70
     0
  3

 72
    65
 73
     0
 40
0.0
  0
LTYPE
  5
15
330
5
100
AcDbSymbolTableRecord
100
AcDbLinetypeTableRecord
  2
ByLayer
 70
     0
  3

 72
    65
 73
     0
 40
0.0
  0
LTYPE
  5
16
330
5
100
AcDbSymbolTableRecord
100
AcDbLinetypeTableRecord
  2
Continuous
 70
     0
  3
Solid line
 72
    65
 73
     0
 40
0.0
  0
LTYPE
  5
2A
330
5
100
AcDbSymbolTableRecord
100
AcDbLinetypeTableRecord
  2
DASHED
 70
     0
  3
__ __ __ __ __
 72
    65
 73
     2
 40
6.25
 49
5.0
 74
     4
 75
     0
340
0
 46
1.0
 50
0.0
 44
0.0
 45
0.0
 49
-1.25
 74
     4
 75
     0
340
0
 46
1.0
 50
0.0
 44
0.0
 45
0.0
  0
LTYPE
  5
35
330
5
100
AcDbSymbolTableRecord
100
AcDbLinetypeTableRecord
  2
DASHDOT
 70
     0
  3
__ . __ . __ . __ . __
 72
    65
 73
     4
 40
7.5
 49
5.0
 74
     4
 75
     0
340
0
 46
1.0
 50
0.0
 44
0.0
 45
0.0
 49
-1.25
 74
     4
 75
     0
340
0
 46
1.0
 50
0.0
 44
0.0
 45
0.0
 49
0.0
 74
     4
 75
     0
340
0
 46
1.0
 50
0.0
 44
0.0
 45
0.0
 49
-1.25
 74
     4
 75
     0
340
0
 46
1.0
 50
0.0
 44
0.0
 45
0.0
  0
ENDTAB
  0
TABLE
  2
LAYER
  5
2
330
0
100
AcDbSymbolTable
 70
    12
  0
LAYER
  5
10
330
2
100
AcDbSymbolTableRecord
100
AcDbLayerTableRecord
  2
0
 70
     0
 62
     7
  6
Continuous
370
    -3
390
F
  0
LAYER
  5
2B
330
2
100
AcDbSymbolTableRecord
100
AcDbLayerTableRecord
  2
LC-INFO-1-2-mm-A3-0
 70
     1
 62
     7
  6
ByBlock
370
    -3
390
F
  0
LAYER
  5
2C
330
2
100
AcDbSymbolTableRecord
100
AcDbLayerTableRecord
  2
LC-CUT-HIDDEN
 70
     0
 62
     7
  6
DASHED
370
    -3
390
F
  0
LAYER
  5
2D
330
2
100
AcDbSymbolTableRecord
100
AcDbLayerTableRecord
  2
LC-VIEWPORT
 70
     0
 62
     7
  6
ByBlock
370
    -3
390
F
  0
LAYER
  5
2E
330
2
100
AcDbSymbolTableRecord
100
AcDbLayerTableRecord
  2
LC-3D-HIDDEN
 70
     0
 62
     9
  6
DASHED
370
    -3
390
F
  0
LAYER
  5
30
330
2
100
AcDbSymbolTableRecord
100
AcDbLayerTableRecord
  2
LC-001-100-D00-0
 70
     0
 62
     1
  6
ByBlock
370
    -3
390
F
  0
LAYER
  5
36
330
2
100
AcDbSymbolTableRecord
100
AcDbLayerTableRecord
  2
LC-002-002-----0
 70
     0
 62
     2
  6
DASHDOT
370
    -3
390
F
  0
LAYER
  5
44A
330
2
100
AcDbSymbolTableRecord
100
AcDbLayerTableRecord
  2
LC-003-004-----0
 70
     0
 62
     1
  6
ByBlock
370
    -3
390
F
  0
LAYER
  5
486
330
2
100
AcDbSymbolTableRecord
100
AcDbLayerTableRecord
  2
LC-004-005-----0
 70
     0
 62
     2
  6
ByBlock
370
    -3
390
F
  0
LAYER
  5
4B9
330
2
100
AcDbSymbolTableRecord
100
AcDbLayerTableRecord
  2
LC-005-002-RND-0
 70
     0
 62
     1
  6
ByBlock
370
    -3
390
F
  0
LAYER
  5
56B
330
2
100
AcDbSymbolTableRecord
100
AcDbLayerTableRecord
  2
LC-006-003-----0
 70
     0
 62
     2
  6
ByBlock
370
    -3
390
F
  0
LAYER
  5
56D
330
2
100
AcDbSymbolTableRecord
100
AcDbLayerTableRecord
  2
Defpoints
 70
     0
 62
     7
  6
Continuous
290
     0
370
    -3
390
F
  0
ENDTAB
  0
TABLE
  2
STYLE
  5
3
330
0
100
AcDbSymbolTable
 70
     3
  0
STYLE
  5
11
330
3
100
AcDbSymbolTableRecord
100
AcDbTextStyleTableRecord
  2
Standard
 70
     0
 40
0.0
 41
1.0
 50
0.0
 71
     0
 42
2.5
  3
txt
  4

  0
STYLE
  5
2F
330
3
100
AcDbSymbolTableRecord
100
AcDbTextStyleTableRecord
  2
LCTX15-400-0-0-Arial
 70
     0
 40
0.0
 41
0.9
 50
0.0
 71
     0
 42
3.5
  3

  4

1001
ACAD
1000
Arial
1071
 16777218
  0
STYLE
  5
569
330
3
100
AcDbSymbolTableRecord
100
AcDbTextStyleTableRecord
  2
LCTX15-400-0-0pDIN-Schrift
 70
     0
 40
2.5
 41
0.8
 50
15.0
 71
     0
 42
3.5
  3
STANDARD
  4

  0
ENDTAB
  0
TABLE
  2
VIEW
  5
6
330
0
100
AcDbSymbolTable
 70
     0
  0
ENDTAB
  0
TABLE
  2
UCS
  5
7
330
0
100
AcDbSymbolTable
 70
     0
  0
ENDTAB
  0
TABLE
  2
APPID
  5
9
330
0
100
AcDbSymbolTable
 70
     1
  0
APPID
  5
12
330
9
100
AcDbSymbolTableRecord
100
AcDbRegAppTableRecord
  2
ACAD
 70
     0
  0
ENDTAB
  0
TABLE
  2
DIMSTYLE
  5
A
330
0
100
AcDbSymbolTable
 70
     2
100
AcDbDimStyleTable
  0
DIMSTYLE
105
27
330
A
100
AcDbSymbolTableRecord
100
AcDbDimStyleTableRecord
  2
ISO-25
 70
     0
 41
2.5
 42
0.625
 43
3.75
 44
1.25
 73
     0
 74
     0
 77
     1
 78
     8
140
2.5
141
2.5
143
0.03937
147
0.625
171
     3
172
     1
271
     2
272
     2
274
     3
278
    44
283
     0
284
     8
340
11
  0
DIMSTYLE
105
56A
102
{ACAD_REACTORS
330
56C
330
57A
330
588
330
596
330
5A3
330
5B1
330
62F
102
}
330
A
100
AcDbSymbolTableRecord
100
AcDbDimStyleTableRecord
  2
LC-DIM-L-0140-02-02
 70
     0
 40
2.0
 41
14.0
 42
0.0
 43
7.5
 44
1.8
 73
     0
 74
     0
 77
     1
 78
     8
 79
     2
140
14.0
141
0.0
146
0.71
147
1.5
176
     2
177
     2
178
     2
179
     2
271
     2
278
    44
289
     1
340
569
  0
ENDTAB
  0
TABLE
  2
BLOCK_RECORD
  5
1
330
0
100
AcDbSymbolTable
 70
    58
  0
BLOCK_RECORD
  5
1F
330
1
100
AcDbSymbolTableRecord
100
AcDbBlockTableRecord
  2
*Model_Space
340
22
  0
BLOCK_RECORD
  5
1B
330
1
100
AcDbSymbolTableRecord
100
AcDbBlockTableRecord
  2
*Paper_Space
340
1E
  0
BLOCK_RECORD
  5
23
330
1
100
AcDbSymbolTableRecord
100
AcDbBlockTableRecord
  2
*Paper_Space0
340
26
  0
BLOCK_RECORD
  5
82
330
1
100
AcDbSymbolTableRecord
100
AcDbBlockTableRecord
  2
POLY1
340
0
102
{BLKREFS
331
9F
102
}
  0
BLOCK_RECORD
  5
A2
330
1
100
AcDbSymbolTableRecord
100
AcDbBlockTableRecord
  2
POLY2
340
0
102
{BLKREFS
331
BF
102
}
  0
BLOCK_RECORD
  5
C2
330
1
100
AcDbSymbolTableRecord
100
AcDbBlockTableRecord
  2
POLY3
340
0
102
{BLKREFS
331
DF
102
}
  0
BLOCK_RECORD
  5
E1
330
1
100
AcDbSymbolTableRecord
100
AcDbBlockTableRecord
  2
POLY4
340
0
102
{BLKREFS
331
FE
102
}
  0
BLOCK_RECORD
  5
102
330
1
100
AcDbSymbolTableRecord
100
AcDbBlockTableRecord
  2
POLY5
340
0
102
{BLKREFS
331
11F
102
}
  0
BLOCK_RECORD
  5
138
330
1
100
AcDbSymbolTableRecord
100
AcDbBlockTableRecord
  2
POLY6
340
0
102
{BLKREFS
331
153
102
}
  0
BLOCK_RECORD
  5
154
330
1
100
AcDbSymbolTableRecord
100
AcDbBlockTableRecord
  2
POLY7
340
0
102
{BLKREFS
331
16F
102
}
  0
BLOCK_RECORD
  5
170
330
1
100
AcDbSymbolTableRecord
100
AcDbBlockTableRecord
  2
POLY8
340
0
102
{BLKREFS
331
18B
102
}
  0
BLOCK_RECORD
  5
18C
330
1
100
AcDbSymbolTableRecord
100
AcDbBlockTableRecord
  2
POLY9
340
0
102
{BLKREFS
331
1A7
102
}
  0
BLOCK_RECORD
  5
1A8
330
1
100
AcDbSymbolTableRecord
100
AcDbBlockTableRecord
  2
POLY10
340
0
102
{BLKREFS
331
1C3
102
}
  0
BLOCK_RECORD
  5
1C4
330
1
100
AcDbSymbolTableRecord
100
AcDbBlockTableRecord
  2
POLY11
340
0
102
{BLKREFS
331
1DF
102
}
  0
BLOCK_RECORD
  5
1E0
330
1
100
AcDbSymbolTableRecord
100
AcDbBlockTableRecord
  2
POLY12
340
0
102
{BLKREFS
331
1FB
102
}
  0
BLOCK_RECORD
  5
1FC
330
1
100
AcDbSymbolTableRecord
100
AcDbBlockTableRecord
  2
POLY13
340
0
102
{BLKREFS
331
207
102
}
  0
BLOCK_RECORD
  5
20B
330
1
100
AcDbSymbolTableRecord
100
AcDbBlockTableRecord
  2
POLY14
340
0
102
{BLKREFS
331
21E
102
}
  0
BLOCK_RECORD
  5
21F
330
1
100
AcDbSymbolTableRecord
100
AcDbBlockTableRecord
  2
POLY15
340
0
102
{BLKREFS
331
22A
102
}
  0
BLOCK_RECORD
  5
22B
330
1
100
AcDbSymbolTableRecord
100
AcDbBlockTableRecord
  2
POLY16
340
0
102
{BLKREFS
331
23A
102
}
  0
BLOCK_RECORD
  5
23B
330
1
100
AcDbSymbolTableRecord
100
AcDbBlockTableRecord
  2
POLY17
340
0
102
{BLKREFS
331
24E
102
}
  0
BLOCK_RECORD
  5
24F
330
1
100
AcDbSymbolTableRecord
100
AcDbBlockTableRecord
  2
POLY18
340
0
102
{BLKREFS
331
25A
102
}
  0
BLOCK_RECORD
  5
25B
330
1
100
AcDbSymbolTableRecord
100
AcDbBlockTableRecord
  2
POLY19
340
0
102
{BLKREFS
331
26A
102
}
  0
BLOCK_RECORD
  5
285
330
1
100
AcDbSymbolTableRecord
100
AcDbBlockTableRecord
  2
KLON1
340
0
102
{BLKREFS
331
28A
102
}
  0
BLOCK_RECORD
  5
2AC
330
1
100
AcDbSymbolTableRecord
100
AcDbBlockTableRecord
  2
POLY20
340
0
102
{BLKREFS
331
2B5
102
}
  0
BLOCK_RECORD
  5
2B7
330
1
100
AcDbSymbolTableRecord
100
AcDbBlockTableRecord
  2
POLY21
340
0
102
{BLKREFS
331
2C4
102
}
  0
BLOCK_RECORD
  5
2C5
330
1
100
AcDbSymbolTableRecord
100
AcDbBlockTableRecord
  2
POLY22
340
0
102
{BLKREFS
331
2CE
102
}
  0
BLOCK_RECORD
  5
2D0
330
1
100
AcDbSymbolTableRecord
100
AcDbBlockTableRecord
  2
POLY23
340
0
102
{BLKREFS
331
2DD
102
}
  0
BLOCK_RECORD
  5
2EB
330
1
100
AcDbSymbolTableRecord
100
AcDbBlockTableRecord
  2
POLY24
340
0
102
{BLKREFS
331
2FC
102
}
  0
BLOCK_RECORD
  5
2FD
330
1
100
AcDbSymbolTableRecord
100
AcDbBlockTableRecord
  2
POLY25
340
0
102
{BLKREFS
331
310
102
}
  0
BLOCK_RECORD
  5
312
330
1
100
AcDbSymbolTableRecord
100
AcDbBlockTableRecord
  2
POLY26
340
0
102
{BLKREFS
331
325
102
}
  0
BLOCK_RECORD
  5
32D
330
1
100
AcDbSymbolTableRecord
100
AcDbBlockTableRecord
  2
POLY27
340
0
102
{BLKREFS
331
33E
102
}
  0
BLOCK_RECORD
  5
35D
330
1
100
AcDbSymbolTableRecord
100
AcDbBlockTableRecord
  2
POLY28
340
0
102
{BLKREFS
331
372
102
}
  0
BLOCK_RECORD
  5
373
330
1
100
AcDbSymbolTableRecord
100
AcDbBlockTableRecord
  2
POLY29
340
0
102
{BLKREFS
331
388
102
}
  0
BLOCK_RECORD
  5
389
330
1
100
AcDbSymbolTableRecord
100
AcDbBlockTableRecord
  2
POLY30
340
0
102
{BLKREFS
331
39C
102
}
  0
BLOCK_RECORD
  5
39D
330
1
100
AcDbSymbolTableRecord
100
AcDbBlockTableRecord
  2
POLY31
340
0
102
{BLKREFS
331
3B8
102
}
  0
BLOCK_RECORD
  5
3B9
330
1
100
AcDbSymbolTableRecord
100
AcDbBlockTableRecord
  2
POLY32
340
0
102
{BLKREFS
331
3CA
102
}
  0
BLOCK_RECORD
  5
3D8
330
1
100
AcDbSymbolTableRecord
100
AcDbBlockTableRecord
  2
POLY33
340
0
102
{BLKREFS
331
3EF
102
}
  0
BLOCK_RECORD
  5
3F0
330
1
100
AcDbSymbolTableRecord
100
AcDbBlockTableRecord
  2
POLY34
340
0
102
{BLKREFS
331
409
102
}
  0
BLOCK_RECORD
  5
40A
330
1
100
AcDbSymbolTableRecord
100
AcDbBlockTableRecord
  2
POLY35
340
0
102
{BLKREFS
331
425
102
}
  0
BLOCK_RECORD
  5
427
330
1
100
AcDbSymbolTableRecord
100
AcDbBlockTableRecord
  2
KLON2
340
0
102
{BLKREFS
331
42C
102
}
  0
BLOCK_RECORD
  5
42D
330
1
100
AcDbSymbolTableRecord
100
AcDbBlockTableRecord
  2
KLON3
340
0
102
{BLKREFS
331
439
102
}
  0
BLOCK_RECORD
  5
43A
330
1
100
AcDbSymbolTableRecord
100
AcDbBlockTableRecord
  2
KLON4
340
0
102
{BLKREFS
331
444
102
}
  0
BLOCK_RECORD
  5
483
330
1
100
AcDbSymbolTableRecord
100
AcDbBlockTableRecord
  2
*X140
340
0
102
{BLKREFS
331
49A
102
}
  0
BLOCK_RECORD
  5
519
330
1
100
AcDbSymbolTableRecord
100
AcDbBlockTableRecord
  2
*X241
340
0
102
{BLKREFS
331
524
102
}
  0
BLOCK_RECORD
  5
525
330
1
100
AcDbSymbolTableRecord
100
AcDbBlockTableRecord
  2
*X342
340
0
102
{BLKREFS
331
531
102
}
  0
BLOCK_RECORD
  5
534
330
1
100
AcDbSymbolTableRecord
100
AcDbBlockTableRecord
  2
*X443
340
0
102
{BLKREFS
331
54E
102
}
  0
BLOCK_RECORD
  5
54F
330
1
100
AcDbSymbolTableRecord
100
AcDbBlockTableRecord
  2
*X544
340
0
102
{BLKREFS
331
568
102
}
  0
BLOCK_RECORD
  5
56E
330
1
100
AcDbSymbolTableRecord
100
AcDbBlockTableRecord
  2
*D45
340
0
  0
BLOCK_RECORD
  5
57B
330
1
100
AcDbSymbolTableRecord
100
AcDbBlockTableRecord
  2
*D46
340
0
  0
BLOCK_RECORD
  5
589
330
1
100
AcDbSymbolTableRecord
100
AcDbBlockTableRecord
  2
*D47
340
0
  0
BLOCK_RECORD
  5
597
330
1
100
AcDbSymbolTableRecord
100
AcDbBlockTableRecord
  2
*D48
340
0
  0
BLOCK_RECORD
  5
5A4
330
1
100
AcDbSymbolTableRecord
100
AcDbBlockTableRecord
  2
*D49
340
0
  0
BLOCK_RECORD
  5
5B2
330
1
100
AcDbSymbolTableRecord
100
AcDbBlockTableRecord
  2
*D50
340
0
  0
BLOCK_RECORD
  5
5DC
330
1
100
AcDbSymbolTableRecord
100
AcDbBlockTableRecord
  2
POLY36
340
0
102
{BLKREFS
331
5E7
102
}
  0
BLOCK_RECORD
  5
5F1
330
1
100
AcDbSymbolTableRecord
100
AcDbBlockTableRecord
  2
KLON5
340
0
102
{BLKREFS
331
5F6
102
}
  0
BLOCK_RECORD
  5
5F8
330
1
100
AcDbSymbolTableRecord
100
AcDbBlockTableRecord
  2
POLY37
340
0
102
{BLKREFS
331
601
102
}
  0
BLOCK_RECORD
  5
603
330
1
100
AcDbSymbolTableRecord
100
AcDbBlockTableRecord
  2
POLY38
340
0
102
{BLKREFS
331
610
102
}
  0
BLOCK_RECORD
  5
611
330
1
100
AcDbSymbolTableRecord
100
AcDbBlockTableRecord
  2
POLY39
340
0
102
{BLKREFS
331
61A
102
}
  0
BLOCK_RECORD
  5
61C
330
1
100
AcDbSymbolTableRecord
100
AcDbBlockTableRecord
  2
POLY40
340
0
102
{BLKREFS
331
629
102
}
  0
BLOCK_RECORD
  5
630
330
1
100
AcDbSymbolTableRecord
100
AcDbBlockTableRecord
  2
*D57
340
0
  0
ENDTAB
  0
ENDSEC
  0
SECTION
  2
BLOCKS
  0
BLOCK
  5
20
330
1F
100
AcDbEntity
  8
0
100
AcDbBlockBegin
  2
*Model_Space
 70
     0
 71
     0
 10
0.0
 20
0.0
 30
0.0
  3
*Model_Space
  1

  0
ENDBLK
  5
21
330
1F
100
AcDbEntity
  8
0
100
AcDbBlockEnd
  0
BLOCK
  5
1C
330
1B
100
AcDbEntity
 67
     1
  8
0
100
AcDbBlockBegin
  2
*Paper_Space
 70
     0
 71
     0
 10
0.0
 20
0.0
 30
0.0
  3
*Paper_Space
  1

  0
ENDBLK
  5
1D
330
1B
100
AcDbEntity
 67
     1
  8
0
100
AcDbBlockEnd
  0
BLOCK
  5
24
330
23
100
AcDbEntity
  8
0
100
AcDbBlockBegin
  2
*Paper_Space0
 70
     0
 71
     0
 10
0.0
 20
0.0
 30
0.0
  3
*Paper_Space0
  1

  0
ENDBLK
  5
25
330
23
100
AcDbEntity
  8
0
100
AcDbBlockEnd
  0
BLOCK
  5
83
330
82
100
AcDbEntity
  8
0
100
AcDbBlockBegin
  2
POLY1
 70
     0
 71
     0
 10
0.0
 20
0.0
 30
0.0
  3
POLY1
  1

  4
POLY1
  0
LINE
  5
85
330
82
100
AcDbEntity
  8
LC-001-100-D00-0
 62
     7
370
    50
100
AcDbLine
 10
193.075019
 20
-45.599491
 30
0.0
 11
193.075019
 21
-45.599491
 31
0.0
  0
LINE
  5
86
330
82
100
AcDbEntity
  8
LC-001-100-D00-0
 62
     7
370
    50
100
AcDbLine
 10
193.075019
 20
-45.599491
 30
0.0
 11
193.170599
 21
-46.032927
 31
0.0
  0
LINE
  5
87
330
82
100
AcDbEntity
  8
LC-001-100-D00-0
 62
     7
370
    50
100
AcDbLine
 10
193.170599
 20
-46.032927
 30
0.0
 11
193.170599
 21
-46.032927
 31
0.0
  0
LINE
  5
88
330
82
100
AcDbEntity
  8
LC-001-100-D00-0
 62
     7
370
    50
100
AcDbLine
 10
193.170599
 20
-46.032927
 30
0.0
 11
193.32425
 21
-46.442828
 31
0.0
  0
LINE
  5
89
330
82
100
AcDbEntity
  8
LC-001-100-D00-0
 62
     7
370
    50
100
AcDbLine
 10
193.32425
 20
-46.442828
 30
0.0
 11
193.32425
 21
-46.442828
 31
0.0
  0
LINE
  5
8A
330
82
100
AcDbEntity
  8
LC-001-100-D00-0
 62
     7
370
    50
100
AcDbLine
 10
193.32425
 20
-46.442828
 30
0.0
 11
193.640809
 21
-47.022791
 31
0.0
  0
LINE
  5
8B
330
82
100
AcDbEntity
  8
LC-001-100-D00-0
 62
     7
370
    50
100
AcDbLine
 10
193.640809
 20
-47.022791
 30
0.0
 11
193.640809
 21
-47.022791
 31
0.0
  0
LINE
  5
8C
330
82
100
AcDbEntity
  8
LC-001-100-D00-0
 62
     7
370
    50
100
AcDbLine
 10
193.640809
 20
-47.022791
 30
0.0
 11
193.761417
 21
-47.210441
 31
0.0
  0
LINE
  5
8D
330
82
100
AcDbEntity
  8
LC-001-100-D00-0
 62
     7
370
    50
100
AcDbLine
 10
193.761417
 20
-47.210441
 30
0.0
 11
193.761417
 21
-47.210441
 31
0.0
  0
LINE
  5
8E
330
82
100
AcDbEntity
  8
LC-001-100-D00-0
 62
     7
370
    50
100
AcDbLine
 10
193.761417
 20
-47.210441
 30
0.0
 11
194.024469
 21
-47.561858
 31
0.0
  0
LINE
  5
8F
330
82
100
AcDbEntity
  8
LC-001-100-D00-0
 62
     7
370
    50
100
AcDbLine
 10
194.024469
 20
-47.561858
 30
0.0
 11
194.024469
 21
-47.561858
 31
0.0
  0
LINE
  5
90
330
82
100
AcDbEntity
  8
LC-001-100-D00-0
 62
     7
370
    50
100
AcDbLine
 10
194.024469
 20
-47.561858
 30
0.0
 11
194.167682
 21
-47.727249
 31
0.0
  0
LINE
  5
91
330
82
100
AcDbEntity
  8
LC-001-100-D00-0
 62
     7
370
    50
100
AcDbLine
 10
194.167682
 20
-47.727249
 30
0.0
 11
194.167682
 21
-47.727249
 31
0.0
  0
LINE
  5
92
330
82
100
AcDbEntity
  8
LC-001-100-D00-0
 62
     7
370
    50
100
AcDbLine
 10
194.167682
 20
-47.727249
 30
0.0
 11
194.477406
 21
-48.03746
 31
0.0
  0
LINE
  5
93
330
82
100
AcDbEntity
  8
LC-001-100-D00-0
 62
     7
370
    50
100
AcDbLine
 10
194.477406
 20
-48.03746
 30
0.0
 11
194.477406
 21
-48.03746
 31
0.0
  0
LINE
  5
94
330
82
100
AcDbEntity
  8
LC-001-100-D00-0
 62
     7
370
    50
100
AcDbLine
 10
194.477406
 20
-48.03746
 30
0.0
 11
194.645287
 21
-48.183261
 31
0.0
  0
LINE
  5
95
330
82
100
AcDbEntity
  8
LC-001-100-D00-0
 62
     7
370
    50
100
AcDbLine
 10
194.645287
 20
-48.183261
 30
0.0
 11
194.645287
 21
-48.183261
 31
0.0
  0
LINE
  5
96
330
82
100
AcDbEntity
  8
LC-001-100-D00-0
 62
     7
370
    50
100
AcDbLine
 10
194.645287
 20
-48.183261
 30
0.0
 11
194.998649
 21
-48.448056
 31
0.0
  0
LINE
  5
97
330
82
100
AcDbEntity
  8
LC-001-100-D00-0
 62
     7
370
    50
100
AcDbLine
 10
194.998649
 20
-48.448056
 30
0.0
 11
194.998649
 21
-48.448056
 31
0.0
  0
LINE
  5
98
330
82
100
AcDbEntity
  8
LC-001-100-D00-0
 62
     7
370
    50
100
AcDbLine
 10
194.998649
 20
-48.448056
 30
0.0
 11
195.183068
 21
-48.566605
 31
0.0
  0
LINE
  5
99
330
82
100
AcDbEntity
  8
LC-001-100-D00-0
 62
     7
370
    50
100
AcDbLine
 10
195.183068
 20
-48.566605
 30
0.0
 11
195.183068
 21
-48.566605
 31
0.0
  0
LINE
  5
9A
330
82
100
AcDbEntity
  8
LC-001-100-D00-0
 62
     7
370
    50
100
AcDbLine
 10
195.183068
 20
-48.566605
 30
0.0
 11
195.758861
 21
-48.881911
 31
0.0
  0
LINE
  5
9B
330
82
100
AcDbEntity
  8
LC-001-100-D00-0
 62
     7
370
    50
100
AcDbLine
 10
195.758861
 20
-48.881911
 30
0.0
 11
195.758861
 21
-48.881911
 31
0.0
  0
LINE
  5
9C
330
82
100
AcDbEntity
  8
LC-001-100-D00-0
 62
     7
370
    50
100
AcDbLine
 10
195.758861
 20
-48.881911
 30
0.0
 11
196.177096
 21
-49.03944
 31
0.0
  0
LINE
  5
9D
330
82
100
AcDbEntity
  8
LC-001-100-D00-0
 62
     7
370
    50
100
AcDbLine
 10
196.177096
 20
-49.03944
 30
0.0
 11
196.177096
 21
-49.03944
 31
0.0
  0
LINE
  5
9E
330
82
100
AcDbEntity
  8
LC-001-100-D00-0
 62
     7
370
    50
100
AcDbLine
 10
196.177096
 20
-49.03944
 30
0.0
 11
196.610553
 21
-49.135025
 31
0.0
  0
ENDBLK
  5
84
330
82
100
AcDbEntity
  8
0
100
AcDbBlockEnd
  0
BLOCK
  5
A3
330
A2
100
AcDbEntity
  8
0
100
AcDbBlockBegin
  2
POLY2
 70
     0
 71
     0
 10
0.0
 20
0.0
 30
0.0
  3
POLY2
  1

  4
POLY2
  0
LINE
  5
A5
330
A2
100
AcDbEntity
  8
LC-001-100-D00-0
 62
     7
370
    50
100
AcDbLine
 10
5.248349
 20
-49.135025
 30
0.0
 11
5.248349
 21
-49.135025
 31
0.0
  0
LINE
  5
A6
330
A2
100
AcDbEntity
  8
LC-001-100-D00-0
 62
     7
370
    50
100
AcDbLine
 10
5.248349
 20
-49.135025
 30
0.0
 11
5.681785
 21
-49.039445
 31
0.0
  0
LINE
  5
A7
330
A2
100
AcDbEntity
  8
LC-001-100-D00-0
 62
     7
370
    50
100
AcDbLine
 10
5.681785
 20
-49.039445
 30
0.0
 11
5.681785
 21
-49.039445
 31
0.0
  0
LINE
  5
A8
330
A2
100
AcDbEntity
  8
LC-001-100-D00-0
 62
     7
370
    50
100
AcDbLine
 10
5.681785
 20
-49.039445
 30
0.0
 11
6.091685
 21
-48.885794
 31
0.0
  0
LINE
  5
A9
330
A2
100
AcDbEntity
  8
LC-001-100-D00-0
 62
     7
370
    50
100
AcDbLine
 10
6.091685
 20
-48.885794
 30
0.0
 11
6.091685
 21
-48.885794
 31
0.0
  0
LINE
  5
AA
330
A2
100
AcDbEntity
  8
LC-001-100-D00-0
 62
     7
370
    50
100
AcDbLine
 10
6.091685
 20
-48.885794
 30
0.0
 11
6.671649
 21
-48.569235
 31
0.0
  0
LINE
  5
AB
330
A2
100
AcDbEntity
  8
LC-001-100-D00-0
 62
     7
370
    50
100
AcDbLine
 10
6.671649
 20
-48.569235
 30
0.0
 11
6.671649
 21
-48.569235
 31
0.0
  0
LINE
  5
AC
330
A2
100
AcDbEntity
  8
LC-001-100-D00-0
 62
     7
370
    50
100
AcDbLine
 10
6.671649
 20
-48.569235
 30
0.0
 11
6.859298
 21
-48.448627
 31
0.0
  0
LINE
  5
AD
330
A2
100
AcDbEntity
  8
LC-001-100-D00-0
 62
     7
370
    50
100
AcDbLine
 10
6.859298
 20
-48.448627
 30
0.0
 11
6.859298
 21
-48.448627
 31
0.0
  0
LINE
  5
AE
330
A2
100
AcDbEntity
  8
LC-001-100-D00-0
 62
     7
370
    50
100
AcDbLine
 10
6.859298
 20
-48.448627
 30
0.0
 11
7.210716
 21
-48.185575
 31
0.0
  0
LINE
  5
AF
330
A2
100
AcDbEntity
  8
LC-001-100-D00-0
 62
     7
370
    50
100
AcDbLine
 10
7.210716
 20
-48.185575
 30
0.0
 11
7.210716
 21
-48.185575
 31
0.0
  0
LINE
  5
B0
330
A2
100
AcDbEntity
  8
LC-001-100-D00-0
 62
     7
370
    50
100
AcDbLine
 10
7.210716
 20
-48.185575
 30
0.0
 11
7.376107
 21
-48.042362
 31
0.0
  0
LINE
  5
B1
330
A2
100
AcDbEntity
  8
LC-001-100-D00-0
 62
     7
370
    50
100
AcDbLine
 10
7.376107
 20
-48.042362
 30
0.0
 11
7.376107
 21
-48.042362
 31
0.0
  0
LINE
  5
B2
330
A2
100
AcDbEntity
  8
LC-001-100-D00-0
 62
     7
370
    50
100
AcDbLine
 10
7.376107
 20
-48.042362
 30
0.0
 11
7.686318
 21
-47.732638
 31
0.0
  0
LINE
  5
B3
330
A2
100
AcDbEntity
  8
LC-001-100-D00-0
 62
     7
370
    50
100
AcDbLine
 10
7.686318
 20
-47.732638
 30
0.0
 11
7.686318
 21
-47.732638
 31
0.0
  0
LINE
  5
B4
330
A2
100
AcDbEntity
  8
LC-001-100-D00-0
 62
     7
370
    50
100
AcDbLine
 10
7.686318
 20
-47.732638
 30
0.0
 11
7.832118
 21
-47.564757
 31
0.0
  0
LINE
  5
B5
330
A2
100
AcDbEntity
  8
LC-001-100-D00-0
 62
     7
370
    50
100
AcDbLine
 10
7.832118
 20
-47.564757
 30
0.0
 11
7.832118
 21
-47.564757
 31
0.0
  0
LINE
  5
B6
330
A2
100
AcDbEntity
  8
LC-001-100-D00-0
 62
     7
370
    50
100
AcDbLine
 10
7.832118
 20
-47.564757
 30
0.0
 11
8.096913
 21
-47.211395
 31
0.0
  0
LINE
  5
B7
330
A2
100
AcDbEntity
  8
LC-001-100-D00-0
 62
     7
370
    50
100
AcDbLine
 10
8.096913
 20
-47.211395
 30
0.0
 11
8.096913
 21
-47.211395
 31
0.0
  0
LINE
  5
B8
330
A2
100
AcDbEntity
  8
LC-001-100-D00-0
 62
     7
370
    50
100
AcDbLine
 10
8.096913
 20
-47.211395
 30
0.0
 11
8.215462
 21
-47.026976
 31
0.0
  0
LINE
  5
B9
330
A2
100
AcDbEntity
  8
LC-001-100-D00-0
 62
     7
370
    50
100
AcDbLine
 10
8.215462
 20
-47.026976
 30
0.0
 11
8.215462
 21
-47.026976
 31
0.0
  0
LINE
  5
BA
330
A2
100
AcDbEntity
  8
LC-001-100-D00-0
 62
     7
370
    50
100
AcDbLine
 10
8.215462
 20
-47.026976
 30
0.0
 11
8.530769
 21
-46.451183
 31
0.0
  0
LINE
  5
BB
330
A2
100
AcDbEntity
  8
LC-001-100-D00-0
 62
     7
370
    50
100
AcDbLine
 10
8.530769
 20
-46.451183
 30
0.0
 11
8.530769
 21
-46.451183
 31
0.0
  0
LINE
  5
BC
330
A2
100
AcDbEntity
  8
LC-001-100-D00-0
 62
     7
370
    50
100
AcDbLine
 10
8.530769
 20
-46.451183
 30
0.0
 11
8.688298
 21
-46.032948
 31
0.0
  0
LINE
  5
BD
330
A2
100
AcDbEntity
  8
LC-001-100-D00-0
 62
     7
370
    50
100
AcDbLine
 10
8.688298
 20
-46.032948
 30
0.0
 11
8.688298
 21
-46.032948
 31
0.0
  0
LINE
  5
BE
330
A2
100
AcDbEntity
  8
LC-001-100-D00-0
 62
     7
370
    50
100
AcDbLine
 10
8.688298
 20
-46.032948
 30
0.0
 11
8.783883
 21
-45.599491
 31
0.0
  0
ENDBLK
  5
A4
330
A2
100
AcDbEntity
  8
0
100
AcDbBlockEnd
  0
BLOCK
  5
C3
330
C2
100
AcDbEntity
  8
0
100
AcDbBlockBegin
  2
POLY3
 70
     0
 71
     0
 10
0.0
 20
0.0
 30
0.0
  3
POLY3
  1

  4
POLY3
  0
LINE
  5
C5
330
C2
100
AcDbEntity
  8
LC-001-100-D00-0
 62
     7
370
    50
100
AcDbLine
 10
-31.884061
 20
-143.780593
 30
0.0
 11
-31.884061
 21
-143.780593
 31
0.0
  0
LINE
  5
C6
330
C2
100
AcDbEntity
  8
LC-001-100-D00-0
 62
     7
370
    50
100
AcDbLine
 10
-31.884061
 20
-143.780593
 30
0.0
 11
-31.645161
 21
-143.406522
 31
0.0
  0
LINE
  5
C7
330
C2
100
AcDbEntity
  8
LC-001-100-D00-0
 62
     7
370
    50
100
AcDbLine
 10
-31.645161
 20
-143.406522
 30
0.0
 11
-31.645161
 21
-143.406522
 31
0.0
  0
LINE
  5
C8
330
C2
100
AcDbEntity
  8
LC-001-100-D00-0
 62
     7
370
    50
100
AcDbLine
 10
-31.645161
 20
-143.406522
 30
0.0
 11
-31.463965
 21
-143.008031
 31
0.0
  0
LINE
  5
C9
330
C2
100
AcDbEntity
  8
LC-001-100-D00-0
 62
     7
370
    50
100
AcDbLine
 10
-31.463965
 20
-143.008031
 30
0.0
 11
-31.463965
 21
-143.008031
 31
0.0
  0
LINE
  5
CA
330
C2
100
AcDbEntity
  8
LC-001-100-D00-0
 62
     7
370
    50
100
AcDbLine
 10
-31.463965
 20
-143.008031
 30
0.0
 11
-31.27771
 21
-142.374094
 31
0.0
  0
LINE
  5
CB
330
C2
100
AcDbEntity
  8
LC-001-100-D00-0
 62
     7
370
    50
100
AcDbLine
 10
-31.27771
 20
-142.374094
 30
0.0
 11
-31.27771
 21
-142.374094
 31
0.0
  0
LINE
  5
CC
330
C2
100
AcDbEntity
  8
LC-001-100-D00-0
 62
     7
370
    50
100
AcDbLine
 10
-31.27771
 20
-142.374094
 30
0.0
 11
-31.230305
 21
-142.156123
 31
0.0
  0
LINE
  5
CD
330
C2
100
AcDbEntity
  8
LC-001-100-D00-0
 62
     7
370
    50
100
AcDbLine
 10
-31.230305
 20
-142.156123
 30
0.0
 11
-31.230305
 21
-142.156123
 31
0.0
  0
LINE
  5
CE
330
C2
100
AcDbEntity
  8
LC-001-100-D00-0
 62
     7
370
    50
100
AcDbLine
 10
-31.230305
 20
-142.156123
 30
0.0
 11
-31.167821
 21
-141.721627
 31
0.0
  0
LINE
  5
CF
330
C2
100
AcDbEntity
  8
LC-001-100-D00-0
 62
     7
370
    50
100
AcDbLine
 10
-31.167821
 20
-141.721627
 30
0.0
 11
-31.167821
 21
-141.721627
 31
0.0
  0
LINE
  5
D0
330
C2
100
AcDbEntity
  8
LC-001-100-D00-0
 62
     7
370
    50
100
AcDbLine
 10
-31.167821
 20
-141.721627
 30
0.0
 11
-31.152139
 21
-141.503412
 31
0.0
  0
LINE
  5
D1
330
C2
100
AcDbEntity
  8
LC-001-100-D00-0
 62
     7
370
    50
100
AcDbLine
 10
-31.152139
 20
-141.503412
 30
0.0
 11
-31.152139
 21
-141.503412
 31
0.0
  0
LINE
  5
D2
330
C2
100
AcDbEntity
  8
LC-001-100-D00-0
 62
     7
370
    50
100
AcDbLine
 10
-31.152139
 20
-141.503412
 30
0.0
 11
-31.151794
 21
-141.065051
 31
0.0
  0
LINE
  5
D3
330
C2
100
AcDbEntity
  8
LC-001-100-D00-0
 62
     7
370
    50
100
AcDbLine
 10
-31.151794
 20
-141.065051
 30
0.0
 11
-31.151794
 21
-141.065051
 31
0.0
  0
LINE
  5
D4
330
C2
100
AcDbEntity
  8
LC-001-100-D00-0
 62
     7
370
    50
100
AcDbLine
 10
-31.151794
 20
-141.065051
 30
0.0
 11
-31.167407
 21
-140.843245
 31
0.0
  0
LINE
  5
D5
330
C2
100
AcDbEntity
  8
LC-001-100-D00-0
 62
     7
370
    50
100
AcDbLine
 10
-31.167407
 20
-140.843245
 30
0.0
 11
-31.167407
 21
-140.843245
 31
0.0
  0
LINE
  5
D6
330
C2
100
AcDbEntity
  8
LC-001-100-D00-0
 62
     7
370
    50
100
AcDbLine
 10
-31.167407
 20
-140.843245
 30
0.0
 11
-31.230034
 21
-140.406142
 31
0.0
  0
LINE
  5
D7
330
C2
100
AcDbEntity
  8
LC-001-100-D00-0
 62
     7
370
    50
100
AcDbLine
 10
-31.230034
 20
-140.406142
 30
0.0
 11
-31.230034
 21
-140.406142
 31
0.0
  0
LINE
  5
D8
330
C2
100
AcDbEntity
  8
LC-001-100-D00-0
 62
     7
370
    50
100
AcDbLine
 10
-31.230034
 20
-140.406142
 30
0.0
 11
-31.276611
 21
-140.191911
 31
0.0
  0
LINE
  5
D9
330
C2
100
AcDbEntity
  8
LC-001-100-D00-0
 62
     7
370
    50
100
AcDbLine
 10
-31.276611
 20
-140.191911
 30
0.0
 11
-31.276611
 21
-140.191911
 31
0.0
  0
LINE
  5
DA
330
C2
100
AcDbEntity
  8
LC-001-100-D00-0
 62
     7
370
    50
100
AcDbLine
 10
-31.276611
 20
-140.191911
 30
0.0
 11
-31.460803
 21
-139.561808
 31
0.0
  0
LINE
  5
DB
330
C2
100
AcDbEntity
  8
LC-001-100-D00-0
 62
     7
370
    50
100
AcDbLine
 10
-31.460803
 20
-139.561808
 30
0.0
 11
-31.460803
 21
-139.561808
 31
0.0
  0
LINE
  5
DC
330
C2
100
AcDbEntity
  8
LC-001-100-D00-0
 62
     7
370
    50
100
AcDbLine
 10
-31.460803
 20
-139.561808
 30
0.0
 11
-31.645149
 21
-139.154682
 31
0.0
  0
LINE
  5
DD
330
C2
100
AcDbEntity
  8
LC-001-100-D00-0
 62
     7
370
    50
100
AcDbLine
 10
-31.645149
 20
-139.154682
 30
0.0
 11
-31.645149
 21
-139.154682
 31
0.0
  0
LINE
  5
DE
330
C2
100
AcDbEntity
  8
LC-001-100-D00-0
 62
     7
370
    50
100
AcDbLine
 10
-31.645149
 20
-139.154682
 30
0.0
 11
-31.884061
 21
-138.780593
 31
0.0
  0
ENDBLK
  5
C4
330
C2
100
AcDbEntity
  8
0
100
AcDbBlockEnd
  0
BLOCK
  5
E2
330
E1
100
AcDbEntity
  8
0
100
AcDbBlockBegin
  2
POLY4
 70
     0
 71
     0
 10
0.0
 20
0.0
 30
0.0
  3
POLY4
  1

  4
POLY4
  0
LINE
  5
E4
330
E1
100
AcDbEntity
  8
LC-001-100-D00-0
 62
     7
370
    50
100
AcDbLine
 10
233.742963
 20
-138.780593
 30
0.0
 11
233.742963
 21
-138.780593
 31
0.0
  0
LINE
  5
E5
330
E1
100
AcDbEntity
  8
LC-001-100-D00-0
 62
     7
370
    50
100
AcDbLine
 10
233.742963
 20
-138.780593
 30
0.0
 11
233.504063
 21
-139.154664
 31
0.0
  0
LINE
  5
E6
330
E1
100
AcDbEntity
  8
LC-001-100-D00-0
 62
     7
370
    50
100
AcDbLine
 10
233.504063
 20
-139.154664
 30
0.0
 11
233.504063
 21
-139.154664
 31
0.0
  0
LINE
  5
E7
330
E1
100
AcDbEntity
  8
LC-001-100-D00-0
 62
     7
370
    50
100
AcDbLine
 10
233.504063
 20
-139.154664
 30
0.0
 11
233.322867
 21
-139.553155
 31
0.0
  0
LINE
  5
E8
330
E1
100
AcDbEntity
  8
LC-001-100-D00-0
 62
     7
370
    50
100
AcDbLine
 10
233.322867
 20
-139.553155
 30
0.0
 11
233.322867
 21
-139.553155
 31
0.0
  0
LINE
  5
E9
330
E1
100
AcDbEntity
  8
LC-001-100-D00-0
 62
     7
370
    50
100
AcDbLine
 10
233.322867
 20
-139.553155
 30
0.0
 11
233.136612
 21
-140.187092
 31
0.0
  0
LINE
  5
EA
330
E1
100
AcDbEntity
  8
LC-001-100-D00-0
 62
     7
370
    50
100
AcDbLine
 10
233.136612
 20
-140.187092
 30
0.0
 11
233.136612
 21
-140.187092
 31
0.0
  0
LINE
  5
EB
330
E1
100
AcDbEntity
  8
LC-001-100-D00-0
 62
     7
370
    50
100
AcDbLine
 10
233.136612
 20
-140.187092
 30
0.0
 11
233.089206
 21
-140.405063
 31
0.0
  0
LINE
  5
EC
330
E1
100
AcDbEntity
  8
LC-001-100-D00-0
 62
     7
370
    50
100
AcDbLine
 10
233.089206
 20
-140.405063
 30
0.0
 11
233.089206
 21
-140.405063
 31
0.0
  0
LINE
  5
ED
330
E1
100
AcDbEntity
  8
LC-001-100-D00-0
 62
     7
370
    50
100
AcDbLine
 10
233.089206
 20
-140.405063
 30
0.0
 11
233.026723
 21
-140.839559
 31
0.0
  0
LINE
  5
EE
330
E1
100
AcDbEntity
  8
LC-001-100-D00-0
 62
     7
370
    50
100
AcDbLine
 10
233.026723
 20
-140.839559
 30
0.0
 11
233.026723
 21
-140.839559
 31
0.0
  0
LINE
  5
EF
330
E1
100
AcDbEntity
  8
LC-001-100-D00-0
 62
     7
370
    50
100
AcDbLine
 10
233.026723
 20
-140.839559
 30
0.0
 11
233.01104
 21
-141.057775
 31
0.0
  0
LINE
  5
F0
330
E1
100
AcDbEntity
  8
LC-001-100-D00-0
 62
     7
370
    50
100
AcDbLine
 10
233.01104
 20
-141.057775
 30
0.0
 11
233.01104
 21
-141.057775
 31
0.0
  0
LINE
  5
F1
330
E1
100
AcDbEntity
  8
LC-001-100-D00-0
 62
     7
370
    50
100
AcDbLine
 10
233.01104
 20
-141.057775
 30
0.0
 11
233.010695
 21
-141.496135
 31
0.0
  0
LINE
  5
F2
330
E1
100
AcDbEntity
  8
LC-001-100-D00-0
 62
     7
370
    50
100
AcDbLine
 10
233.010695
 20
-141.496135
 30
0.0
 11
233.010695
 21
-141.496135
 31
0.0
  0
LINE
  5
F3
330
E1
100
AcDbEntity
  8
LC-001-100-D00-0
 62
     7
370
    50
100
AcDbLine
 10
233.010695
 20
-141.496135
 30
0.0
 11
233.026309
 21
-141.717941
 31
0.0
  0
LINE
  5
F4
330
E1
100
AcDbEntity
  8
LC-001-100-D00-0
 62
     7
370
    50
100
AcDbLine
 10
233.026309
 20
-141.717941
 30
0.0
 11
233.026309
 21
-141.717941
 31
0.0
  0
LINE
  5
F5
330
E1
100
AcDbEntity
  8
LC-001-100-D00-0
 62
     7
370
    50
100
AcDbLine
 10
233.026309
 20
-141.717941
 30
0.0
 11
233.088936
 21
-142.155044
 31
0.0
  0
LINE
  5
F6
330
E1
100
AcDbEntity
  8
LC-001-100-D00-0
 62
     7
370
    50
100
AcDbLine
 10
233.088936
 20
-142.155044
 30
0.0
 11
233.088936
 21
-142.155044
 31
0.0
  0
LINE
  5
F7
330
E1
100
AcDbEntity
  8
LC-001-100-D00-0
 62
     7
370
    50
100
AcDbLine
 10
233.088936
 20
-142.155044
 30
0.0
 11
233.135513
 21
-142.369275
 31
0.0
  0
LINE
  5
F8
330
E1
100
AcDbEntity
  8
LC-001-100-D00-0
 62
     7
370
    50
100
AcDbLine
 10
233.135513
 20
-142.369275
 30
0.0
 11
233.135513
 21
-142.369275
 31
0.0
  0
LINE
  5
F9
330
E1
100
AcDbEntity
  8
LC-001-100-D00-0
 62
     7
370
    50
100
AcDbLine
 10
233.135513
 20
-142.369275
 30
0.0
 11
233.319704
 21
-142.999378
 31
0.0
  0
LINE
  5
FA
330
E1
100
AcDbEntity
  8
LC-001-100-D00-0
 62
     7
370
    50
100
AcDbLine
 10
233.319704
 20
-142.999378
 30
0.0
 11
233.319704
 21
-142.999378
 31
0.0
  0
LINE
  5
FB
330
E1
100
AcDbEntity
  8
LC-001-100-D00-0
 62
     7
370
    50
100
AcDbLine
 10
233.319704
 20
-142.999378
 30
0.0
 11
233.504051
 21
-143.406504
 31
0.0
  0
LINE
  5
FC
330
E1
100
AcDbEntity
  8
LC-001-100-D00-0
 62
     7
370
    50
100
AcDbLine
 10
233.504051
 20
-143.406504
 30
0.0
 11
233.504051
 21
-143.406504
 31
0.0
  0
LINE
  5
FD
330
E1
100
AcDbEntity
  8
LC-001-100-D00-0
 62
     7
370
    50
100
AcDbLine
 10
233.504051
 20
-143.406504
 30
0.0
 11
233.742963
 21
-143.780593
 31
0.0
  0
ENDBLK
  5
E3
330
E1
100
AcDbEntity
  8
0
100
AcDbBlockEnd
  0
BLOCK
  5
103
330
102
100
AcDbEntity
  8
0
100
AcDbBlockBegin
  2
POLY5
 70
     0
 71
     0
 10
0.0
 20
0.0
 30
0.0
  3
POLY5
  1

  4
POLY5
  0
LINE
  5
105
330
102
100
AcDbEntity
  8
LC-001-100-D00-0
 62
     7
370
    50
100
AcDbLine
 10
98.429451
 20
-8.467081
 30
0.0
 11
98.429451
 21
-8.467081
 31
0.0
  0
LINE
  5
106
330
102
100
AcDbEntity
  8
LC-001-100-D00-0
 62
     7
370
    50
100
AcDbLine
 10
98.429451
 20
-8.467081
 30
0.0
 11
98.803522
 21
-8.705981
 31
0.0
  0
LINE
  5
107
330
102
100
AcDbEntity
  8
LC-001-100-D00-0
 62
     7
370
    50
100
AcDbLine
 10
98.803522
 20
-8.705981
 30
0.0
 11
98.803522
 21
-8.705981
 31
0.0
  0
LINE
  5
108
330
102
100
AcDbEntity
  8
LC-001-100-D00-0
 62
     7
370
    50
100
AcDbLine
 10
98.803522
 20
-8.705981
 30
0.0
 11
99.202013
 21
-8.887177
 31
0.0
  0
LINE
  5
109
330
102
100
AcDbEntity
  8
LC-001-100-D00-0
 62
     7
370
    50
100
AcDbLine
 10
99.202013
 20
-8.887177
 30
0.0
 11
99.202013
 21
-8.887177
 31
0.0
  0
LINE
  5
10A
330
102
100
AcDbEntity
  8
LC-001-100-D00-0
 62
     7
370
    50
100
AcDbLine
 10
99.202013
 20
-8.887177
 30
0.0
 11
99.83595
 21
-9.073432
 31
0.0
  0
LINE
  5
10B
330
102
100
AcDbEntity
  8
LC-001-100-D00-0
 62
     7
370
    50
100
AcDbLine
 10
99.83595
 20
-9.073432
 30
0.0
 11
99.83595
 21
-9.073432
 31
0.0
  0
LINE
  5
10C
330
102
100
AcDbEntity
  8
LC-001-100-D00-0
 62
     7
370
    50
100
AcDbLine
 10
99.83595
 20
-9.073432
 30
0.0
 11
100.053921
 21
-9.120838
 31
0.0
  0
LINE
  5
10D
330
102
100
AcDbEntity
  8
LC-001-100-D00-0
 62
     7
370
    50
100
AcDbLine
 10
100.053921
 20
-9.120838
 30
0.0
 11
100.053921
 21
-9.120838
 31
0.0
  0
LINE
  5
10E
330
102
100
AcDbEntity
  8
LC-001-100-D00-0
 62
     7
370
    50
100
AcDbLine
 10
100.053921
 20
-9.120838
 30
0.0
 11
100.488417
 21
-9.183321
 31
0.0
  0
LINE
  5
10F
330
102
100
AcDbEntity
  8
LC-001-100-D00-0
 62
     7
370
    50
100
AcDbLine
 10
100.488417
 20
-9.183321
 30
0.0
 11
100.488417
 21
-9.183321
 31
0.0
  0
LINE
  5
110
330
102
100
AcDbEntity
  8
LC-001-100-D00-0
 62
     7
370
    50
100
AcDbLine
 10
100.488417
 20
-9.183321
 30
0.0
 11
100.706632
 21
-9.199003
 31
0.0
  0
LINE
  5
111
330
102
100
AcDbEntity
  8
LC-001-100-D00-0
 62
     7
370
    50
100
AcDbLine
 10
100.706632
 20
-9.199003
 30
0.0
 11
100.706632
 21
-9.199003
 31
0.0
  0
LINE
  5
112
330
102
100
AcDbEntity
  8
LC-001-100-D00-0
 62
     7
370
    50
100
AcDbLine
 10
100.706632
 20
-9.199003
 30
0.0
 11
101.144993
 21
-9.199348
 31
0.0
  0
LINE
  5
113
330
102
100
AcDbEntity
  8
LC-001-100-D00-0
 62
     7
370
    50
100
AcDbLine
 10
101.144993
 20
-9.199348
 30
0.0
 11
101.144993
 21
-9.199348
 31
0.0
  0
LINE
  5
114
330
102
100
AcDbEntity
  8
LC-001-100-D00-0
 62
     7
370
    50
100
AcDbLine
 10
101.144993
 20
-9.199348
 30
0.0
 11
101.366799
 21
-9.183735
 31
0.0
  0
LINE
  5
115
330
102
100
AcDbEntity
  8
LC-001-100-D00-0
 62
     7
370
    50
100
AcDbLine
 10
101.366799
 20
-9.183735
 30
0.0
 11
101.366799
 21
-9.183735
 31
0.0
  0
LINE
  5
116
330
102
100
AcDbEntity
  8
LC-001-100-D00-0
 62
     7
370
    50
100
AcDbLine
 10
101.366799
 20
-9.183735
 30
0.0
 11
101.803902
 21
-9.121108
 31
0.0
  0
LINE
  5
117
330
102
100
AcDbEntity
  8
LC-001-100-D00-0
 62
     7
370
    50
100
AcDbLine
 10
101.803902
 20
-9.121108
 30
0.0
 11
101.803902
 21
-9.121108
 31
0.0
  0
LINE
  5
118
330
102
100
AcDbEntity
  8
LC-001-100-D00-0
 62
     7
370
    50
100
AcDbLine
 10
101.803902
 20
-9.121108
 30
0.0
 11
102.018133
 21
-9.074531
 31
0.0
  0
LINE
  5
119
330
102
100
AcDbEntity
  8
LC-001-100-D00-0
 62
     7
370
    50
100
AcDbLine
 10
102.018133
 20
-9.074531
 30
0.0
 11
102.018133
 21
-9.074531
 31
0.0
  0
LINE
  5
11A
330
102
100
AcDbEntity
  8
LC-001-100-D00-0
 62
     7
370
    50
100
AcDbLine
 10
102.018133
 20
-9.074531
 30
0.0
 11
102.648235
 21
-8.890339
 31
0.0
  0
LINE
  5
11B
330
102
100
AcDbEntity
  8
LC-001-100-D00-0
 62
     7
370
    50
100
AcDbLine
 10
102.648235
 20
-8.890339
 30
0.0
 11
102.648235
 21
-8.890339
 31
0.0
  0
LINE
  5
11C
330
102
100
AcDbEntity
  8
LC-001-100-D00-0
 62
     7
370
    50
100
AcDbLine
 10
102.648235
 20
-8.890339
 30
0.0
 11
103.055362
 21
-8.705993
 31
0.0
  0
LINE
  5
11D
330
102
100
AcDbEntity
  8
LC-001-100-D00-0
 62
     7
370
    50
100
AcDbLine
 10
103.055362
 20
-8.705993
 30
0.0
 11
103.055362
 21
-8.705993
 31
0.0
  0
LINE
  5
11E
330
102
100
AcDbEntity
  8
LC-001-100-D00-0
 62
     7
370
    50
100
AcDbLine
 10
103.055362
 20
-8.705993
 30
0.0
 11
103.429451
 21
-8.467081
 31
0.0
  0
ENDBLK
  5
104
330
102
100
AcDbEntity
  8
0
100
AcDbBlockEnd
  0
BLOCK
  5
139
330
138
100
AcDbEntity
  8
0
100
AcDbBlockBegin
  2
POLY6
 70
     0
 71
     0
 10
0.0
 20
0.0
 30
0.0
  3
POLY6
  1

  4
POLY6
  0
LINE
  5
13B
330
138
100
AcDbEntity
  8
LC-001-100-D00-0
 62
     7
370
    50
100
AcDbLine
 10
54.453645
 20
-139.780788
 30
0.0
 11
54.453645
 21
-139.780788
 31
0.0
  0
LINE
  5
13C
330
138
100
AcDbEntity
  8
LC-001-100-D00-0
 62
     7
370
    50
100
AcDbLine
 10
54.453645
 20
-139.780788
 30
0.0
 11
54.622028
 21
-139.800091
 31
0.0
  0
LINE
  5
13D
330
138
100
AcDbEntity
  8
LC-001-100-D00-0
 62
     7
370
    50
100
AcDbLine
 10
54.622028
 20
-139.800091
 30
0.0
 11
54.622028
 21
-139.800091
 31
0.0
  0
LINE
  5
13E
330
138
100
AcDbEntity
  8
LC-001-100-D00-0
 62
     7
370
    50
100
AcDbLine
 10
54.622028
 20
-139.800091
 30
0.0
 11
54.958793
 21
-139.838697
 31
0.0
  0
LINE
  5
13F
330
138
100
AcDbEntity
  8
LC-001-100-D00-0
 62
     7
370
    50
100
AcDbLine
 10
54.958793
 20
-139.838697
 30
0.0
 11
54.958793
 21
-139.838697
 31
0.0
  0
LINE
  5
140
330
138
100
AcDbEntity
  8
LC-001-100-D00-0
 62
     7
370
    50
100
AcDbLine
 10
54.958793
 20
-139.838697
 30
0.0
 11
55.40353
 21
-140.104477
 31
0.0
  0
LINE
  5
141
330
138
100
AcDbEntity
  8
LC-001-100-D00-0
 62
     7
370
    50
100
AcDbLine
 10
55.40353
 20
-140.104477
 30
0.0
 11
55.40353
 21
-140.104477
 31
0.0
  0
LINE
  5
142
330
138
100
AcDbEntity
  8
LC-001-100-D00-0
 62
     7
370
    50
100
AcDbLine
 10
55.40353
 20
-140.104477
 30
0.0
 11
55.738642
 21
-140.490716
 31
0.0
  0
LINE
  5
143
330
138
100
AcDbEntity
  8
LC-001-100-D00-0
 62
     7
370
    50
100
AcDbLine
 10
55.738642
 20
-140.490716
 30
0.0
 11
55.738642
 21
-140.490716
 31
0.0
  0
LINE
  5
144
330
138
100
AcDbEntity
  8
LC-001-100-D00-0
 62
     7
370
    50
100
AcDbLine
 10
55.738642
 20
-140.490716
 30
0.0
 11
55.926109
 21
-140.969253
 31
0.0
  0
LINE
  5
145
330
138
100
AcDbEntity
  8
LC-001-100-D00-0
 62
     7
370
    50
100
AcDbLine
 10
55.926109
 20
-140.969253
 30
0.0
 11
55.926109
 21
-140.969253
 31
0.0
  0
LINE
  5
146
330
138
100
AcDbEntity
  8
LC-001-100-D00-0
 62
     7
370
    50
100
AcDbLine
 10
55.926109
 20
-140.969253
 30
0.0
 11
55.944834
 21
-141.482044
 31
0.0
  0
LINE
  5
147
330
138
100
AcDbEntity
  8
LC-001-100-D00-0
 62
     7
370
    50
100
AcDbLine
 10
55.944834
 20
-141.482044
 30
0.0
 11
55.944834
 21
-141.482044
 31
0.0
  0
LINE
  5
148
330
138
100
AcDbEntity
  8
LC-001-100-D00-0
 62
     7
370
    50
100
AcDbLine
 10
55.944834
 20
-141.482044
 30
0.0
 11
55.792749
 21
-141.972273
 31
0.0
  0
LINE
  5
149
330
138
100
AcDbEntity
  8
LC-001-100-D00-0
 62
     7
370
    50
100
AcDbLine
 10
55.792749
 20
-141.972273
 30
0.0
 11
55.792749
 21
-141.972273
 31
0.0
  0
LINE
  5
14A
330
138
100
AcDbEntity
  8
LC-001-100-D00-0
 62
     7
370
    50
100
AcDbLine
 10
55.792749
 20
-141.972273
 30
0.0
 11
55.486842
 21
-142.384772
 31
0.0
  0
LINE
  5
14B
330
138
100
AcDbEntity
  8
LC-001-100-D00-0
 62
     7
370
    50
100
AcDbLine
 10
55.486842
 20
-142.384772
 30
0.0
 11
55.486842
 21
-142.384772
 31
0.0
  0
LINE
  5
14C
330
138
100
AcDbEntity
  8
LC-001-100-D00-0
 62
     7
370
    50
100
AcDbLine
 10
55.486842
 20
-142.384772
 30
0.0
 11
55.062148
 21
-142.671614
 31
0.0
  0
LINE
  5
14D
330
138
100
AcDbEntity
  8
LC-001-100-D00-0
 62
     7
370
    50
100
AcDbLine
 10
55.062148
 20
-142.671614
 30
0.0
 11
55.062148
 21
-142.671614
 31
0.0
  0
LINE
  5
14E
330
138
100
AcDbEntity
  8
LC-001-100-D00-0
 62
     7
370
    50
100
AcDbLine
 10
55.062148
 20
-142.671614
 30
0.0
 11
54.694355
 21
-142.770993
 31
0.0
  0
LINE
  5
14F
330
138
100
AcDbEntity
  8
LC-001-100-D00-0
 62
     7
370
    50
100
AcDbLine
 10
54.694355
 20
-142.770993
 30
0.0
 11
54.694355
 21
-142.770993
 31
0.0
  0
LINE
  5
150
330
138
100
AcDbEntity
  8
LC-001-100-D00-0
 62
     7
370
    50
100
AcDbLine
 10
54.694355
 20
-142.770993
 30
0.0
 11
54.490117
 21
-142.778973
 31
0.0
  0
LINE
  5
151
330
138
100
AcDbEntity
  8
LC-001-100-D00-0
 62
     7
370
    50
100
AcDbLine
 10
54.490117
 20
-142.778973
 30
0.0
 11
54.490117
 21
-142.778973
 31
0.0
  0
LINE
  5
152
330
138
100
AcDbEntity
  8
LC-001-100-D00-0
 62
     7
370
    50
100
AcDbLine
 10
54.490117
 20
-142.778973
 30
0.0
 11
54.453645
 21
-142.780398
 31
0.0
  0
ENDBLK
  5
13A
330
138
100
AcDbEntity
  8
0
100
AcDbBlockEnd
  0
BLOCK
  5
155
330
154
100
AcDbEntity
  8
0
100
AcDbBlockBegin
  2
POLY7
 70
     0
 71
     0
 10
0.0
 20
0.0
 30
0.0
  3
POLY7
  1

  4
POLY7
  0
LINE
  5
157
330
154
100
AcDbEntity
  8
LC-001-100-D00-0
 62
     7
370
    50
100
AcDbLine
 10
61.430123
 20
-116.743821
 30
0.0
 11
61.430123
 21
-116.743821
 31
0.0
  0
LINE
  5
158
330
154
100
AcDbEntity
  8
LC-001-100-D00-0
 62
     7
370
    50
100
AcDbLine
 10
61.430123
 20
-116.743821
 30
0.0
 11
61.566296
 21
-116.844729
 31
0.0
  0
LINE
  5
159
330
154
100
AcDbEntity
  8
LC-001-100-D00-0
 62
     7
370
    50
100
AcDbLine
 10
61.566296
 20
-116.844729
 30
0.0
 11
61.566296
 21
-116.844729
 31
0.0
  0
LINE
  5
15A
330
154
100
AcDbEntity
  8
LC-001-100-D00-0
 62
     7
370
    50
100
AcDbLine
 10
61.566296
 20
-116.844729
 30
0.0
 11
61.838641
 21
-117.046545
 31
0.0
  0
LINE
  5
15B
330
154
100
AcDbEntity
  8
LC-001-100-D00-0
 62
     7
370
    50
100
AcDbLine
 10
61.838641
 20
-117.046545
 30
0.0
 11
61.838641
 21
-117.046545
 31
0.0
  0
LINE
  5
15C
330
154
100
AcDbEntity
  8
LC-001-100-D00-0
 62
     7
370
    50
100
AcDbLine
 10
61.838641
 20
-117.046545
 30
0.0
 11
62.090904
 21
-117.499087
 31
0.0
  0
LINE
  5
15D
330
154
100
AcDbEntity
  8
LC-001-100-D00-0
 62
     7
370
    50
100
AcDbLine
 10
62.090904
 20
-117.499087
 30
0.0
 11
62.090904
 21
-117.499087
 31
0.0
  0
LINE
  5
15E
330
154
100
AcDbEntity
  8
LC-001-100-D00-0
 62
     7
370
    50
100
AcDbLine
 10
62.090904
 20
-117.499087
 30
0.0
 11
62.188002
 21
-118.001136
 31
0.0
  0
LINE
  5
15F
330
154
100
AcDbEntity
  8
LC-001-100-D00-0
 62
     7
370
    50
100
AcDbLine
 10
62.188002
 20
-118.001136
 30
0.0
 11
62.188002
 21
-118.001136
 31
0.0
  0
LINE
  5
160
330
154
100
AcDbEntity
  8
LC-001-100-D00-0
 62
     7
370
    50
100
AcDbLine
 10
62.188002
 20
-118.001136
 30
0.0
 11
62.111079
 21
-118.509293
 31
0.0
  0
LINE
  5
161
330
154
100
AcDbEntity
  8
LC-001-100-D00-0
 62
     7
370
    50
100
AcDbLine
 10
62.111079
 20
-118.509293
 30
0.0
 11
62.111079
 21
-118.509293
 31
0.0
  0
LINE
  5
162
330
154
100
AcDbEntity
  8
LC-001-100-D00-0
 62
     7
370
    50
100
AcDbLine
 10
62.111079
 20
-118.509293
 30
0.0
 11
61.870906
 21
-118.962748
 31
0.0
  0
LINE
  5
163
330
154
100
AcDbEntity
  8
LC-001-100-D00-0
 62
     7
370
    50
100
AcDbLine
 10
61.870906
 20
-118.962748
 30
0.0
 11
61.870906
 21
-118.962748
 31
0.0
  0
LINE
  5
164
330
154
100
AcDbEntity
  8
LC-001-100-D00-0
 62
     7
370
    50
100
AcDbLine
 10
61.870906
 20
-118.962748
 30
0.0
 11
61.494078
 21
-119.311251
 31
0.0
  0
LINE
  5
165
330
154
100
AcDbEntity
  8
LC-001-100-D00-0
 62
     7
370
    50
100
AcDbLine
 10
61.494078
 20
-119.311251
 30
0.0
 11
61.494078
 21
-119.311251
 31
0.0
  0
LINE
  5
166
330
154
100
AcDbEntity
  8
LC-001-100-D00-0
 62
     7
370
    50
100
AcDbLine
 10
61.494078
 20
-119.311251
 30
0.0
 11
61.022907
 21
-119.515537
 31
0.0
  0
LINE
  5
167
330
154
100
AcDbEntity
  8
LC-001-100-D00-0
 62
     7
370
    50
100
AcDbLine
 10
61.022907
 20
-119.515537
 30
0.0
 11
61.022907
 21
-119.515537
 31
0.0
  0
LINE
  5
168
330
154
100
AcDbEntity
  8
LC-001-100-D00-0
 62
     7
370
    50
100
AcDbLine
 10
61.022907
 20
-119.515537
 30
0.0
 11
60.51169
 21
-119.551599
 31
0.0
  0
LINE
  5
169
330
154
100
AcDbEntity
  8
LC-001-100-D00-0
 62
     7
370
    50
100
AcDbLine
 10
60.51169
 20
-119.551599
 30
0.0
 11
60.51169
 21
-119.551599
 31
0.0
  0
LINE
  5
16A
330
154
100
AcDbEntity
  8
LC-001-100-D00-0
 62
     7
370
    50
100
AcDbLine
 10
60.51169
 20
-119.551599
 30
0.0
 11
60.143484
 21
-119.453767
 31
0.0
  0
LINE
  5
16B
330
154
100
AcDbEntity
  8
LC-001-100-D00-0
 62
     7
370
    50
100
AcDbLine
 10
60.143484
 20
-119.453767
 30
0.0
 11
60.143484
 21
-119.453767
 31
0.0
  0
LINE
  5
16C
330
154
100
AcDbEntity
  8
LC-001-100-D00-0
 62
     7
370
    50
100
AcDbLine
 10
60.143484
 20
-119.453767
 30
0.0
 11
59.962617
 21
-119.358561
 31
0.0
  0
LINE
  5
16D
330
154
100
AcDbEntity
  8
LC-001-100-D00-0
 62
     7
370
    50
100
AcDbLine
 10
59.962617
 20
-119.358561
 30
0.0
 11
59.962617
 21
-119.358561
 31
0.0
  0
LINE
  5
16E
330
154
100
AcDbEntity
  8
LC-001-100-D00-0
 62
     7
370
    50
100
AcDbLine
 10
59.962617
 20
-119.358561
 30
0.0
 11
59.930318
 21
-119.341559
 31
0.0
  0
ENDBLK
  5
156
330
154
100
AcDbEntity
  8
0
100
AcDbBlockEnd
  0
BLOCK
  5
171
330
170
100
AcDbEntity
  8
0
100
AcDbBlockBegin
  2
POLY8
 70
     0
 71
     0
 10
0.0
 20
0.0
 30
0.0
  3
POLY8
  1

  4
POLY8
  0
LINE
  5
173
330
170
100
AcDbEntity
  8
LC-001-100-D00-0
 62
     7
370
    50
100
AcDbLine
 10
78.990417
 20
-100.28146
 30
0.0
 11
78.990417
 21
-100.28146
 31
0.0
  0
LINE
  5
174
330
170
100
AcDbEntity
  8
LC-001-100-D00-0
 62
     7
370
    50
100
AcDbLine
 10
78.990417
 20
-100.28146
 30
0.0
 11
79.057891
 21
-100.436936
 31
0.0
  0
LINE
  5
175
330
170
100
AcDbEntity
  8
LC-001-100-D00-0
 62
     7
370
    50
100
AcDbLine
 10
79.057891
 20
-100.436936
 30
0.0
 11
79.057891
 21
-100.436936
 31
0.0
  0
LINE
  5
176
330
170
100
AcDbEntity
  8
LC-001-100-D00-0
 62
     7
370
    50
100
AcDbLine
 10
79.057891
 20
-100.436936
 30
0.0
 11
79.192839
 21
-100.747887
 31
0.0
  0
LINE
  5
177
330
170
100
AcDbEntity
  8
LC-001-100-D00-0
 62
     7
370
    50
100
AcDbLine
 10
79.192839
 20
-100.747887
 30
0.0
 11
79.192839
 21
-100.747887
 31
0.0
  0
LINE
  5
178
330
170
100
AcDbEntity
  8
LC-001-100-D00-0
 62
     7
370
    50
100
AcDbLine
 10
79.192839
 20
-100.747887
 30
0.0
 11
79.185037
 21
-101.265931
 31
0.0
  0
LINE
  5
179
330
170
100
AcDbEntity
  8
LC-001-100-D00-0
 62
     7
370
    50
100
AcDbLine
 10
79.185037
 20
-101.265931
 30
0.0
 11
79.185037
 21
-101.265931
 31
0.0
  0
LINE
  5
17A
330
170
100
AcDbEntity
  8
LC-001-100-D00-0
 62
     7
370
    50
100
AcDbLine
 10
79.185037
 20
-101.265931
 30
0.0
 11
79.018104
 21
-101.749268
 31
0.0
  0
LINE
  5
17B
330
170
100
AcDbEntity
  8
LC-001-100-D00-0
 62
     7
370
    50
100
AcDbLine
 10
79.018104
 20
-101.749268
 30
0.0
 11
79.018104
 21
-101.749268
 31
0.0
  0
LINE
  5
17C
330
170
100
AcDbEntity
  8
LC-001-100-D00-0
 62
     7
370
    50
100
AcDbLine
 10
79.018104
 20
-101.749268
 30
0.0
 11
78.697406
 21
-102.150883
 31
0.0
  0
LINE
  5
17D
330
170
100
AcDbEntity
  8
LC-001-100-D00-0
 62
     7
370
    50
100
AcDbLine
 10
78.697406
 20
-102.150883
 30
0.0
 11
78.697406
 21
-102.150883
 31
0.0
  0
LINE
  5
17E
330
170
100
AcDbEntity
  8
LC-001-100-D00-0
 62
     7
370
    50
100
AcDbLine
 10
78.697406
 20
-102.150883
 30
0.0
 11
78.262681
 21
-102.423498
 31
0.0
  0
LINE
  5
17F
330
170
100
AcDbEntity
  8
LC-001-100-D00-0
 62
     7
370
    50
100
AcDbLine
 10
78.262681
 20
-102.423498
 30
0.0
 11
78.262681
 21
-102.423498
 31
0.0
  0
LINE
  5
180
330
170
100
AcDbEntity
  8
LC-001-100-D00-0
 62
     7
370
    50
100
AcDbLine
 10
78.262681
 20
-102.423498
 30
0.0
 11
77.762088
 21
-102.536902
 31
0.0
  0
LINE
  5
181
330
170
100
AcDbEntity
  8
LC-001-100-D00-0
 62
     7
370
    50
100
AcDbLine
 10
77.762088
 20
-102.536902
 30
0.0
 11
77.762088
 21
-102.536902
 31
0.0
  0
LINE
  5
182
330
170
100
AcDbEntity
  8
LC-001-100-D00-0
 62
     7
370
    50
100
AcDbLine
 10
77.762088
 20
-102.536902
 30
0.0
 11
77.251898
 21
-102.478228
 31
0.0
  0
LINE
  5
183
330
170
100
AcDbEntity
  8
LC-001-100-D00-0
 62
     7
370
    50
100
AcDbLine
 10
77.251898
 20
-102.478228
 30
0.0
 11
77.251898
 21
-102.478228
 31
0.0
  0
LINE
  5
184
330
170
100
AcDbEntity
  8
LC-001-100-D00-0
 62
     7
370
    50
100
AcDbLine
 10
77.251898
 20
-102.478228
 30
0.0
 11
76.791142
 21
-102.253849
 31
0.0
  0
LINE
  5
185
330
170
100
AcDbEntity
  8
LC-001-100-D00-0
 62
     7
370
    50
100
AcDbLine
 10
76.791142
 20
-102.253849
 30
0.0
 11
76.791142
 21
-102.253849
 31
0.0
  0
LINE
  5
186
330
170
100
AcDbEntity
  8
LC-001-100-D00-0
 62
     7
370
    50
100
AcDbLine
 10
76.791142
 20
-102.253849
 30
0.0
 11
76.521176
 21
-101.985026
 31
0.0
  0
LINE
  5
187
330
170
100
AcDbEntity
  8
LC-001-100-D00-0
 62
     7
370
    50
100
AcDbLine
 10
76.521176
 20
-101.985026
 30
0.0
 11
76.521176
 21
-101.985026
 31
0.0
  0
LINE
  5
188
330
170
100
AcDbEntity
  8
LC-001-100-D00-0
 62
     7
370
    50
100
AcDbLine
 10
76.521176
 20
-101.985026
 30
0.0
 11
76.412149
 21
-101.812139
 31
0.0
  0
LINE
  5
189
330
170
100
AcDbEntity
  8
LC-001-100-D00-0
 62
     7
370
    50
100
AcDbLine
 10
76.412149
 20
-101.812139
 30
0.0
 11
76.412149
 21
-101.812139
 31
0.0
  0
LINE
  5
18A
330
170
100
AcDbEntity
  8
LC-001-100-D00-0
 62
     7
370
    50
100
AcDbLine
 10
76.412149
 20
-101.812139
 30
0.0
 11
76.392679
 21
-101.781265
 31
0.0
  0
ENDBLK
  5
172
330
170
100
AcDbEntity
  8
0
100
AcDbBlockEnd
  0
BLOCK
  5
18D
330
18C
100
AcDbEntity
  8
0
100
AcDbBlockBegin
  2
POLY9
 70
     0
 71
     0
 10
0.0
 20
0.0
 30
0.0
  3
POLY9
  1

  4
POLY9
  0
LINE
  5
18F
330
18C
100
AcDbEntity
  8
LC-001-100-D00-0
 62
     7
370
    50
100
AcDbLine
 10
102.429256
 20
-94.804788
 30
0.0
 11
102.429256
 21
-94.804788
 31
0.0
  0
LINE
  5
190
330
18C
100
AcDbEntity
  8
LC-001-100-D00-0
 62
     7
370
    50
100
AcDbLine
 10
102.429256
 20
-94.804788
 30
0.0
 11
102.409953
 21
-94.97317
 31
0.0
  0
LINE
  5
191
330
18C
100
AcDbEntity
  8
LC-001-100-D00-0
 62
     7
370
    50
100
AcDbLine
 10
102.409953
 20
-94.97317
 30
0.0
 11
102.409953
 21
-94.97317
 31
0.0
  0
LINE
  5
192
330
18C
100
AcDbEntity
  8
LC-001-100-D00-0
 62
     7
370
    50
100
AcDbLine
 10
102.409953
 20
-94.97317
 30
0.0
 11
102.371347
 21
-95.309935
 31
0.0
  0
LINE
  5
193
330
18C
100
AcDbEntity
  8
LC-001-100-D00-0
 62
     7
370
    50
100
AcDbLine
 10
102.371347
 20
-95.309935
 30
0.0
 11
102.371347
 21
-95.309935
 31
0.0
  0
LINE
  5
194
330
18C
100
AcDbEntity
  8
LC-001-100-D00-0
 62
     7
370
    50
100
AcDbLine
 10
102.371347
 20
-95.309935
 30
0.0
 11
102.105567
 21
-95.754672
 31
0.0
  0
LINE
  5
195
330
18C
100
AcDbEntity
  8
LC-001-100-D00-0
 62
     7
370
    50
100
AcDbLine
 10
102.105567
 20
-95.754672
 30
0.0
 11
102.105567
 21
-95.754672
 31
0.0
  0
LINE
  5
196
330
18C
100
AcDbEntity
  8
LC-001-100-D00-0
 62
     7
370
    50
100
AcDbLine
 10
102.105567
 20
-95.754672
 30
0.0
 11
101.719328
 21
-96.089784
 31
0.0
  0
LINE
  5
197
330
18C
100
AcDbEntity
  8
LC-001-100-D00-0
 62
     7
370
    50
100
AcDbLine
 10
101.719328
 20
-96.089784
 30
0.0
 11
101.719328
 21
-96.089784
 31
0.0
  0
LINE
  5
198
330
18C
100
AcDbEntity
  8
LC-001-100-D00-0
 62
     7
370
    50
100
AcDbLine
 10
101.719328
 20
-96.089784
 30
0.0
 11
101.240791
 21
-96.277251
 31
0.0
  0
LINE
  5
199
330
18C
100
AcDbEntity
  8
LC-001-100-D00-0
 62
     7
370
    50
100
AcDbLine
 10
101.240791
 20
-96.277251
 30
0.0
 11
101.240791
 21
-96.277251
 31
0.0
  0
LINE
  5
19A
330
18C
100
AcDbEntity
  8
LC-001-100-D00-0
 62
     7
370
    50
100
AcDbLine
 10
101.240791
 20
-96.277251
 30
0.0
 11
100.727999
 21
-96.295977
 31
0.0
  0
LINE
  5
19B
330
18C
100
AcDbEntity
  8
LC-001-100-D00-0
 62
     7
370
    50
100
AcDbLine
 10
100.727999
 20
-96.295977
 30
0.0
 11
100.727999
 21
-96.295977
 31
0.0
  0
LINE
  5
19C
330
18C
100
AcDbEntity
  8
LC-001-100-D00-0
 62
     7
370
    50
100
AcDbLine
 10
100.727999
 20
-96.295977
 30
0.0
 11
100.237771
 21
-96.143891
 31
0.0
  0
LINE
  5
19D
330
18C
100
AcDbEntity
  8
LC-001-100-D00-0
 62
     7
370
    50
100
AcDbLine
 10
100.237771
 20
-96.143891
 30
0.0
 11
100.237771
 21
-96.143891
 31
0.0
  0
LINE
  5
19E
330
18C
100
AcDbEntity
  8
LC-001-100-D00-0
 62
     7
370
    50
100
AcDbLine
 10
100.237771
 20
-96.143891
 30
0.0
 11
99.825271
 21
-95.837984
 31
0.0
  0
LINE
  5
19F
330
18C
100
AcDbEntity
  8
LC-001-100-D00-0
 62
     7
370
    50
100
AcDbLine
 10
99.825271
 20
-95.837984
 30
0.0
 11
99.825271
 21
-95.837984
 31
0.0
  0
LINE
  5
1A0
330
18C
100
AcDbEntity
  8
LC-001-100-D00-0
 62
     7
370
    50
100
AcDbLine
 10
99.825271
 20
-95.837984
 30
0.0
 11
99.53843
 21
-95.41329
 31
0.0
  0
LINE
  5
1A1
330
18C
100
AcDbEntity
  8
LC-001-100-D00-0
 62
     7
370
    50
100
AcDbLine
 10
99.53843
 20
-95.41329
 30
0.0
 11
99.53843
 21
-95.41329
 31
0.0
  0
LINE
  5
1A2
330
18C
100
AcDbEntity
  8
LC-001-100-D00-0
 62
     7
370
    50
100
AcDbLine
 10
99.53843
 20
-95.41329
 30
0.0
 11
99.439051
 21
-95.045498
 31
0.0
  0
LINE
  5
1A3
330
18C
100
AcDbEntity
  8
LC-001-100-D00-0
 62
     7
370
    50
100
AcDbLine
 10
99.439051
 20
-95.045498
 30
0.0
 11
99.439051
 21
-95.045498
 31
0.0
  0
LINE
  5
1A4
330
18C
100
AcDbEntity
  8
LC-001-100-D00-0
 62
     7
370
    50
100
AcDbLine
 10
99.439051
 20
-95.045498
 30
0.0
 11
99.431071
 21
-94.841259
 31
0.0
  0
LINE
  5
1A5
330
18C
100
AcDbEntity
  8
LC-001-100-D00-0
 62
     7
370
    50
100
AcDbLine
 10
99.431071
 20
-94.841259
 30
0.0
 11
99.431071
 21
-94.841259
 31
0.0
  0
LINE
  5
1A6
330
18C
100
AcDbEntity
  8
LC-001-100-D00-0
 62
     7
370
    50
100
AcDbLine
 10
99.431071
 20
-94.841259
 30
0.0
 11
99.429646
 21
-94.804788
 31
0.0
  0
ENDBLK
  5
18E
330
18C
100
AcDbEntity
  8
0
100
AcDbBlockEnd
  0
BLOCK
  5
1A9
330
1A8
100
AcDbEntity
  8
0
100
AcDbBlockBegin
  2
POLY10
 70
     0
 71
     0
 10
0.0
 20
0.0
 30
0.0
  3
POLY10
  1

  4
POLY10
  0
LINE
  5
1AB
330
1A8
100
AcDbEntity
  8
LC-001-100-D00-0
 62
     7
370
    50
100
AcDbLine
 10
147.405256
 20
-142.780398
 30
0.0
 11
147.405256
 21
-142.780398
 31
0.0
  0
LINE
  5
1AC
330
1A8
100
AcDbEntity
  8
LC-001-100-D00-0
 62
     7
370
    50
100
AcDbLine
 10
147.405256
 20
-142.780398
 30
0.0
 11
147.236873
 21
-142.761095
 31
0.0
  0
LINE
  5
1AD
330
1A8
100
AcDbEntity
  8
LC-001-100-D00-0
 62
     7
370
    50
100
AcDbLine
 10
147.236873
 20
-142.761095
 30
0.0
 11
147.236873
 21
-142.761095
 31
0.0
  0
LINE
  5
1AE
330
1A8
100
AcDbEntity
  8
LC-001-100-D00-0
 62
     7
370
    50
100
AcDbLine
 10
147.236873
 20
-142.761095
 30
0.0
 11
146.900108
 21
-142.722489
 31
0.0
  0
LINE
  5
1AF
330
1A8
100
AcDbEntity
  8
LC-001-100-D00-0
 62
     7
370
    50
100
AcDbLine
 10
146.900108
 20
-142.722489
 30
0.0
 11
146.900108
 21
-142.722489
 31
0.0
  0
LINE
  5
1B0
330
1A8
100
AcDbEntity
  8
LC-001-100-D00-0
 62
     7
370
    50
100
AcDbLine
 10
146.900108
 20
-142.722489
 30
0.0
 11
146.455372
 21
-142.456709
 31
0.0
  0
LINE
  5
1B1
330
1A8
100
AcDbEntity
  8
LC-001-100-D00-0
 62
     7
370
    50
100
AcDbLine
 10
146.455372
 20
-142.456709
 30
0.0
 11
146.455372
 21
-142.456709
 31
0.0
  0
LINE
  5
1B2
330
1A8
100
AcDbEntity
  8
LC-001-100-D00-0
 62
     7
370
    50
100
AcDbLine
 10
146.455372
 20
-142.456709
 30
0.0
 11
146.12026
 21
-142.07047
 31
0.0
  0
LINE
  5
1B3
330
1A8
100
AcDbEntity
  8
LC-001-100-D00-0
 62
     7
370
    50
100
AcDbLine
 10
146.12026
 20
-142.07047
 30
0.0
 11
146.12026
 21
-142.07047
 31
0.0
  0
LINE
  5
1B4
330
1A8
100
AcDbEntity
  8
LC-001-100-D00-0
 62
     7
370
    50
100
AcDbLine
 10
146.12026
 20
-142.07047
 30
0.0
 11
145.932793
 21
-141.591933
 31
0.0
  0
LINE
  5
1B5
330
1A8
100
AcDbEntity
  8
LC-001-100-D00-0
 62
     7
370
    50
100
AcDbLine
 10
145.932793
 20
-141.591933
 30
0.0
 11
145.932793
 21
-141.591933
 31
0.0
  0
LINE
  5
1B6
330
1A8
100
AcDbEntity
  8
LC-001-100-D00-0
 62
     7
370
    50
100
AcDbLine
 10
145.932793
 20
-141.591933
 30
0.0
 11
145.914067
 21
-141.079142
 31
0.0
  0
LINE
  5
1B7
330
1A8
100
AcDbEntity
  8
LC-001-100-D00-0
 62
     7
370
    50
100
AcDbLine
 10
145.914067
 20
-141.079142
 30
0.0
 11
145.914067
 21
-141.079142
 31
0.0
  0
LINE
  5
1B8
330
1A8
100
AcDbEntity
  8
LC-001-100-D00-0
 62
     7
370
    50
100
AcDbLine
 10
145.914067
 20
-141.079142
 30
0.0
 11
146.066153
 21
-140.588914
 31
0.0
  0
LINE
  5
1B9
330
1A8
100
AcDbEntity
  8
LC-001-100-D00-0
 62
     7
370
    50
100
AcDbLine
 10
146.066153
 20
-140.588914
 30
0.0
 11
146.066153
 21
-140.588914
 31
0.0
  0
LINE
  5
1BA
330
1A8
100
AcDbEntity
  8
LC-001-100-D00-0
 62
     7
370
    50
100
AcDbLine
 10
146.066153
 20
-140.588914
 30
0.0
 11
146.37206
 21
-140.176414
 31
0.0
  0
LINE
  5
1BB
330
1A8
100
AcDbEntity
  8
LC-001-100-D00-0
 62
     7
370
    50
100
AcDbLine
 10
146.37206
 20
-140.176414
 30
0.0
 11
146.37206
 21
-140.176414
 31
0.0
  0
LINE
  5
1BC
330
1A8
100
AcDbEntity
  8
LC-001-100-D00-0
 62
     7
370
    50
100
AcDbLine
 10
146.37206
 20
-140.176414
 30
0.0
 11
146.796754
 21
-139.889573
 31
0.0
  0
LINE
  5
1BD
330
1A8
100
AcDbEntity
  8
LC-001-100-D00-0
 62
     7
370
    50
100
AcDbLine
 10
146.796754
 20
-139.889573
 30
0.0
 11
146.796754
 21
-139.889573
 31
0.0
  0
LINE
  5
1BE
330
1A8
100
AcDbEntity
  8
LC-001-100-D00-0
 62
     7
370
    50
100
AcDbLine
 10
146.796754
 20
-139.889573
 30
0.0
 11
147.164546
 21
-139.790193
 31
0.0
  0
LINE
  5
1BF
330
1A8
100
AcDbEntity
  8
LC-001-100-D00-0
 62
     7
370
    50
100
AcDbLine
 10
147.164546
 20
-139.790193
 30
0.0
 11
147.164546
 21
-139.790193
 31
0.0
  0
LINE
  5
1C0
330
1A8
100
AcDbEntity
  8
LC-001-100-D00-0
 62
     7
370
    50
100
AcDbLine
 10
147.164546
 20
-139.790193
 30
0.0
 11
147.368785
 21
-139.782213
 31
0.0
  0
LINE
  5
1C1
330
1A8
100
AcDbEntity
  8
LC-001-100-D00-0
 62
     7
370
    50
100
AcDbLine
 10
147.368785
 20
-139.782213
 30
0.0
 11
147.368785
 21
-139.782213
 31
0.0
  0
LINE
  5
1C2
330
1A8
100
AcDbEntity
  8
LC-001-100-D00-0
 62
     7
370
    50
100
AcDbLine
 10
147.368785
 20
-139.782213
 30
0.0
 11
147.405256
 21
-139.780788
 31
0.0
  0
ENDBLK
  5
1AA
330
1A8
100
AcDbEntity
  8
0
100
AcDbBlockEnd
  0
BLOCK
  5
1C5
330
1C4
100
AcDbEntity
  8
0
100
AcDbBlockBegin
  2
POLY11
 70
     0
 71
     0
 10
0.0
 20
0.0
 30
0.0
  3
POLY11
  1

  4
POLY11
  0
LINE
  5
1C7
330
1C4
100
AcDbEntity
  8
LC-001-100-D00-0
 62
     7
370
    50
100
AcDbLine
 10
125.466223
 20
-101.781265
 30
0.0
 11
125.466223
 21
-101.781265
 31
0.0
  0
LINE
  5
1C8
330
1C4
100
AcDbEntity
  8
LC-001-100-D00-0
 62
     7
370
    50
100
AcDbLine
 10
125.466223
 20
-101.781265
 30
0.0
 11
125.365315
 21
-101.917438
 31
0.0
  0
LINE
  5
1C9
330
1C4
100
AcDbEntity
  8
LC-001-100-D00-0
 62
     7
370
    50
100
AcDbLine
 10
125.365315
 20
-101.917438
 30
0.0
 11
125.365315
 21
-101.917438
 31
0.0
  0
LINE
  5
1CA
330
1C4
100
AcDbEntity
  8
LC-001-100-D00-0
 62
     7
370
    50
100
AcDbLine
 10
125.365315
 20
-101.917438
 30
0.0
 11
125.163499
 21
-102.189784
 31
0.0
  0
LINE
  5
1CB
330
1C4
100
AcDbEntity
  8
LC-001-100-D00-0
 62
     7
370
    50
100
AcDbLine
 10
125.163499
 20
-102.189784
 30
0.0
 11
125.163499
 21
-102.189784
 31
0.0
  0
LINE
  5
1CC
330
1C4
100
AcDbEntity
  8
LC-001-100-D00-0
 62
     7
370
    50
100
AcDbLine
 10
125.163499
 20
-102.189784
 30
0.0
 11
124.710957
 21
-102.442046
 31
0.0
  0
LINE
  5
1CD
330
1C4
100
AcDbEntity
  8
LC-001-100-D00-0
 62
     7
370
    50
100
AcDbLine
 10
124.710957
 20
-102.442046
 30
0.0
 11
124.710957
 21
-102.442046
 31
0.0
  0
LINE
  5
1CE
330
1C4
100
AcDbEntity
  8
LC-001-100-D00-0
 62
     7
370
    50
100
AcDbLine
 10
124.710957
 20
-102.442046
 30
0.0
 11
124.208908
 21
-102.539144
 31
0.0
  0
LINE
  5
1CF
330
1C4
100
AcDbEntity
  8
LC-001-100-D00-0
 62
     7
370
    50
100
AcDbLine
 10
124.208908
 20
-102.539144
 30
0.0
 11
124.208908
 21
-102.539144
 31
0.0
  0
LINE
  5
1D0
330
1C4
100
AcDbEntity
  8
LC-001-100-D00-0
 62
     7
370
    50
100
AcDbLine
 10
124.208908
 20
-102.539144
 30
0.0
 11
123.700751
 21
-102.462222
 31
0.0
  0
LINE
  5
1D1
330
1C4
100
AcDbEntity
  8
LC-001-100-D00-0
 62
     7
370
    50
100
AcDbLine
 10
123.700751
 20
-102.462222
 30
0.0
 11
123.700751
 21
-102.462222
 31
0.0
  0
LINE
  5
1D2
330
1C4
100
AcDbEntity
  8
LC-001-100-D00-0
 62
     7
370
    50
100
AcDbLine
 10
123.700751
 20
-102.462222
 30
0.0
 11
123.247296
 21
-102.222048
 31
0.0
  0
LINE
  5
1D3
330
1C4
100
AcDbEntity
  8
LC-001-100-D00-0
 62
     7
370
    50
100
AcDbLine
 10
123.247296
 20
-102.222048
 30
0.0
 11
123.247296
 21
-102.222048
 31
0.0
  0
LINE
  5
1D4
330
1C4
100
AcDbEntity
  8
LC-001-100-D00-0
 62
     7
370
    50
100
AcDbLine
 10
123.247296
 20
-102.222048
 30
0.0
 11
122.898792
 21
-101.845221
 31
0.0
  0
LINE
  5
1D5
330
1C4
100
AcDbEntity
  8
LC-001-100-D00-0
 62
     7
370
    50
100
AcDbLine
 10
122.898792
 20
-101.845221
 30
0.0
 11
122.898792
 21
-101.845221
 31
0.0
  0
LINE
  5
1D6
330
1C4
100
AcDbEntity
  8
LC-001-100-D00-0
 62
     7
370
    50
100
AcDbLine
 10
122.898792
 20
-101.845221
 30
0.0
 11
122.694507
 21
-101.374049
 31
0.0
  0
LINE
  5
1D7
330
1C4
100
AcDbEntity
  8
LC-001-100-D00-0
 62
     7
370
    50
100
AcDbLine
 10
122.694507
 20
-101.374049
 30
0.0
 11
122.694507
 21
-101.374049
 31
0.0
  0
LINE
  5
1D8
330
1C4
100
AcDbEntity
  8
LC-001-100-D00-0
 62
     7
370
    50
100
AcDbLine
 10
122.694507
 20
-101.374049
 30
0.0
 11
122.658445
 21
-100.862832
 31
0.0
  0
LINE
  5
1D9
330
1C4
100
AcDbEntity
  8
LC-001-100-D00-0
 62
     7
370
    50
100
AcDbLine
 10
122.658445
 20
-100.862832
 30
0.0
 11
122.658445
 21
-100.862832
 31
0.0
  0
LINE
  5
1DA
330
1C4
100
AcDbEntity
  8
LC-001-100-D00-0
 62
     7
370
    50
100
AcDbLine
 10
122.658445
 20
-100.862832
 30
0.0
 11
122.756277
 21
-100.494626
 31
0.0
  0
LINE
  5
1DB
330
1C4
100
AcDbEntity
  8
LC-001-100-D00-0
 62
     7
370
    50
100
AcDbLine
 10
122.756277
 20
-100.494626
 30
0.0
 11
122.756277
 21
-100.494626
 31
0.0
  0
LINE
  5
1DC
330
1C4
100
AcDbEntity
  8
LC-001-100-D00-0
 62
     7
370
    50
100
AcDbLine
 10
122.756277
 20
-100.494626
 30
0.0
 11
122.851483
 21
-100.313759
 31
0.0
  0
LINE
  5
1DD
330
1C4
100
AcDbEntity
  8
LC-001-100-D00-0
 62
     7
370
    50
100
AcDbLine
 10
122.851483
 20
-100.313759
 30
0.0
 11
122.851483
 21
-100.313759
 31
0.0
  0
LINE
  5
1DE
330
1C4
100
AcDbEntity
  8
LC-001-100-D00-0
 62
     7
370
    50
100
AcDbLine
 10
122.851483
 20
-100.313759
 30
0.0
 11
122.868484
 21
-100.28146
 31
0.0
  0
ENDBLK
  5
1C6
330
1C4
100
AcDbEntity
  8
0
100
AcDbBlockEnd
  0
BLOCK
  5
1E1
330
1E0
100
AcDbEntity
  8
0
100
AcDbBlockBegin
  2
POLY12
 70
     0
 71
     0
 10
0.0
 20
0.0
 30
0.0
  3
POLY12
  1

  4
POLY12
  0
LINE
  5
1E3
330
1E0
100
AcDbEntity
  8
LC-001-100-D00-0
 62
     7
370
    50
100
AcDbLine
 10
141.928584
 20
-119.341559
 30
0.0
 11
141.928584
 21
-119.341559
 31
0.0
  0
LINE
  5
1E4
330
1E0
100
AcDbEntity
  8
LC-001-100-D00-0
 62
     7
370
    50
100
AcDbLine
 10
141.928584
 20
-119.341559
 30
0.0
 11
141.773108
 21
-119.409033
 31
0.0
  0
LINE
  5
1E5
330
1E0
100
AcDbEntity
  8
LC-001-100-D00-0
 62
     7
370
    50
100
AcDbLine
 10
141.773108
 20
-119.409033
 30
0.0
 11
141.773108
 21
-119.409033
 31
0.0
  0
LINE
  5
1E6
330
1E0
100
AcDbEntity
  8
LC-001-100-D00-0
 62
     7
370
    50
100
AcDbLine
 10
141.773108
 20
-119.409033
 30
0.0
 11
141.462157
 21
-119.543981
 31
0.0
  0
LINE
  5
1E7
330
1E0
100
AcDbEntity
  8
LC-001-100-D00-0
 62
     7
370
    50
100
AcDbLine
 10
141.462157
 20
-119.543981
 30
0.0
 11
141.462157
 21
-119.543981
 31
0.0
  0
LINE
  5
1E8
330
1E0
100
AcDbEntity
  8
LC-001-100-D00-0
 62
     7
370
    50
100
AcDbLine
 10
141.462157
 20
-119.543981
 30
0.0
 11
140.944113
 21
-119.536179
 31
0.0
  0
LINE
  5
1E9
330
1E0
100
AcDbEntity
  8
LC-001-100-D00-0
 62
     7
370
    50
100
AcDbLine
 10
140.944113
 20
-119.536179
 30
0.0
 11
140.944113
 21
-119.536179
 31
0.0
  0
LINE
  5
1EA
330
1E0
100
AcDbEntity
  8
LC-001-100-D00-0
 62
     7
370
    50
100
AcDbLine
 10
140.944113
 20
-119.536179
 30
0.0
 11
140.460775
 21
-119.369246
 31
0.0
  0
LINE
  5
1EB
330
1E0
100
AcDbEntity
  8
LC-001-100-D00-0
 62
     7
370
    50
100
AcDbLine
 10
140.460775
 20
-119.369246
 30
0.0
 11
140.460775
 21
-119.369246
 31
0.0
  0
LINE
  5
1EC
330
1E0
100
AcDbEntity
  8
LC-001-100-D00-0
 62
     7
370
    50
100
AcDbLine
 10
140.460775
 20
-119.369246
 30
0.0
 11
140.059161
 21
-119.048548
 31
0.0
  0
LINE
  5
1ED
330
1E0
100
AcDbEntity
  8
LC-001-100-D00-0
 62
     7
370
    50
100
AcDbLine
 10
140.059161
 20
-119.048548
 30
0.0
 11
140.059161
 21
-119.048548
 31
0.0
  0
LINE
  5
1EE
330
1E0
100
AcDbEntity
  8
LC-001-100-D00-0
 62
     7
370
    50
100
AcDbLine
 10
140.059161
 20
-119.048548
 30
0.0
 11
139.786546
 21
-118.613824
 31
0.0
  0
LINE
  5
1EF
330
1E0
100
AcDbEntity
  8
LC-001-100-D00-0
 62
     7
370
    50
100
AcDbLine
 10
139.786546
 20
-118.613824
 30
0.0
 11
139.786546
 21
-118.613824
 31
0.0
  0
LINE
  5
1F0
330
1E0
100
AcDbEntity
  8
LC-001-100-D00-0
 62
     7
370
    50
100
AcDbLine
 10
139.786546
 20
-118.613824
 30
0.0
 11
139.673142
 21
-118.11323
 31
0.0
  0
LINE
  5
1F1
330
1E0
100
AcDbEntity
  8
LC-001-100-D00-0
 62
     7
370
    50
100
AcDbLine
 10
139.673142
 20
-118.11323
 30
0.0
 11
139.673142
 21
-118.11323
 31
0.0
  0
LINE
  5
1F2
330
1E0
100
AcDbEntity
  8
LC-001-100-D00-0
 62
     7
370
    50
100
AcDbLine
 10
139.673142
 20
-118.11323
 30
0.0
 11
139.731816
 21
-117.60304
 31
0.0
  0
LINE
  5
1F3
330
1E0
100
AcDbEntity
  8
LC-001-100-D00-0
 62
     7
370
    50
100
AcDbLine
 10
139.731816
 20
-117.60304
 30
0.0
 11
139.731816
 21
-117.60304
 31
0.0
  0
LINE
  5
1F4
330
1E0
100
AcDbEntity
  8
LC-001-100-D00-0
 62
     7
370
    50
100
AcDbLine
 10
139.731816
 20
-117.60304
 30
0.0
 11
139.956194
 21
-117.142285
 31
0.0
  0
LINE
  5
1F5
330
1E0
100
AcDbEntity
  8
LC-001-100-D00-0
 62
     7
370
    50
100
AcDbLine
 10
139.956194
 20
-117.142285
 30
0.0
 11
139.956194
 21
-117.142285
 31
0.0
  0
LINE
  5
1F6
330
1E0
100
AcDbEntity
  8
LC-001-100-D00-0
 62
     7
370
    50
100
AcDbLine
 10
139.956194
 20
-117.142285
 30
0.0
 11
140.225018
 21
-116.872318
 31
0.0
  0
LINE
  5
1F7
330
1E0
100
AcDbEntity
  8
LC-001-100-D00-0
 62
     7
370
    50
100
AcDbLine
 10
140.225018
 20
-116.872318
 30
0.0
 11
140.225018
 21
-116.872318
 31
0.0
  0
LINE
  5
1F8
330
1E0
100
AcDbEntity
  8
LC-001-100-D00-0
 62
     7
370
    50
100
AcDbLine
 10
140.225018
 20
-116.872318
 30
0.0
 11
140.397905
 21
-116.763291
 31
0.0
  0
LINE
  5
1F9
330
1E0
100
AcDbEntity
  8
LC-001-100-D00-0
 62
     7
370
    50
100
AcDbLine
 10
140.397905
 20
-116.763291
 30
0.0
 11
140.397905
 21
-116.763291
 31
0.0
  0
LINE
  5
1FA
330
1E0
100
AcDbEntity
  8
LC-001-100-D00-0
 62
     7
370
    50
100
AcDbLine
 10
140.397905
 20
-116.763291
 30
0.0
 11
140.428778
 21
-116.743821
 31
0.0
  0
ENDBLK
  5
1E2
330
1E0
100
AcDbEntity
  8
0
100
AcDbBlockEnd
  0
BLOCK
  5
1FD
330
1FC
100
AcDbEntity
  8
0
100
AcDbBlockBegin
  2
POLY13
 70
     0
 71
     0
 10
0.0
 20
0.0
 30
0.0
  3
POLY13
  1

  4
POLY13
  0
LINE
  5
1FF
330
1FC
100
AcDbEntity
  8
LC-001-100-D00-0
 62
     7
370
    50
100
AcDbLine
 10
10.190968
 20
233.77714
 30
0.0
 11
10.190968
 21
233.77714
 31
0.0
  0
LINE
  5
200
330
1FC
100
AcDbEntity
  8
LC-001-100-D00-0
 62
     7
370
    50
100
AcDbLine
 10
10.190968
 20
233.77714
 30
0.0
 11
10.342703
 21
234.559674
 31
0.0
  0
LINE
  5
201
330
1FC
100
AcDbEntity
  8
LC-001-100-D00-0
 62
     7
370
    50
100
AcDbLine
 10
10.342703
 20
234.559674
 30
0.0
 11
10.342703
 21
234.559674
 31
0.0
  0
LINE
  5
202
330
1FC
100
AcDbEntity
  8
LC-001-100-D00-0
 62
     7
370
    50
100
AcDbLine
 10
10.342703
 20
234.559674
 30
0.0
 11
11.033527
 21
238.122423
 31
0.0
  0
LINE
  5
203
330
1FC
100
AcDbEntity
  8
LC-001-100-D00-0
 62
     7
370
    50
100
AcDbLine
 10
11.033527
 20
238.122423
 30
0.0
 11
11.033527
 21
238.122423
 31
0.0
  0
LINE
  5
204
330
1FC
100
AcDbEntity
  8
LC-001-100-D00-0
 62
     7
370
    50
100
AcDbLine
 10
11.033527
 20
238.122423
 30
0.0
 11
11.723499
 21
241.685506
 31
0.0
  0
LINE
  5
205
330
1FC
100
AcDbEntity
  8
LC-001-100-D00-0
 62
     7
370
    50
100
AcDbLine
 10
11.723499
 20
241.685506
 30
0.0
 11
11.723499
 21
241.685506
 31
0.0
  0
LINE
  5
206
330
1FC
100
AcDbEntity
  8
LC-001-100-D00-0
 62
     7
370
    50
100
AcDbLine
 10
11.723499
 20
241.685506
 30
0.0
 11
12.261924
 21
244.465982
 31
0.0
  0
ENDBLK
  5
1FE
330
1FC
100
AcDbEntity
  8
0
100
AcDbBlockEnd
  0
BLOCK
  5
20C
330
20B
100
AcDbEntity
  8
0
100
AcDbBlockBegin
  2
POLY14
 70
     0
 71
     0
 10
0.0
 20
0.0
 30
0.0
  3
POLY14
  1

  4
POLY14
  0
LINE
  5
20E
330
20B
100
AcDbEntity
  8
LC-001-100-D00-0
 62
     7
370
    50
100
AcDbLine
 10
141.199567
 20
240.462963
 30
0.0
 11
141.199567
 21
240.462963
 31
0.0
  0
LINE
  5
20F
330
20B
100
AcDbEntity
  8
LC-001-100-D00-0
 62
     7
370
    50
100
AcDbLine
 10
141.199567
 20
240.462963
 30
0.0
 11
141.132529
 21
240.461977
 31
0.0
  0
LINE
  5
210
330
20B
100
AcDbEntity
  8
LC-001-100-D00-0
 62
     7
370
    50
100
AcDbLine
 10
141.132529
 20
240.461977
 30
0.0
 11
141.132529
 21
240.461977
 31
0.0
  0
LINE
  5
211
330
20B
100
AcDbEntity
  8
LC-001-100-D00-0
 62
     7
370
    50
100
AcDbLine
 10
141.132529
 20
240.461977
 30
0.0
 11
140.915347
 21
240.458782
 31
0.0
  0
LINE
  5
212
330
20B
100
AcDbEntity
  8
LC-001-100-D00-0
 62
     7
370
    50
100
AcDbLine
 10
140.915347
 20
240.458782
 30
0.0
 11
140.915347
 21
240.458782
 31
0.0
  0
LINE
  5
213
330
20B
100
AcDbEntity
  8
LC-001-100-D00-0
 62
     7
370
    50
100
AcDbLine
 10
140.915347
 20
240.458782
 30
0.0
 11
140.543093
 21
240.341781
 31
0.0
  0
LINE
  5
214
330
20B
100
AcDbEntity
  8
LC-001-100-D00-0
 62
     7
370
    50
100
AcDbLine
 10
140.543093
 20
240.341781
 30
0.0
 11
140.543093
 21
240.341781
 31
0.0
  0
LINE
  5
215
330
20B
100
AcDbEntity
  8
LC-001-100-D00-0
 62
     7
370
    50
100
AcDbLine
 10
140.543093
 20
240.341781
 30
0.0
 11
140.124052
 21
240.059417
 31
0.0
  0
LINE
  5
216
330
20B
100
AcDbEntity
  8
LC-001-100-D00-0
 62
     7
370
    50
100
AcDbLine
 10
140.124052
 20
240.059417
 30
0.0
 11
140.124052
 21
240.059417
 31
0.0
  0
LINE
  5
217
330
20B
100
AcDbEntity
  8
LC-001-100-D00-0
 62
     7
370
    50
100
AcDbLine
 10
140.124052
 20
240.059417
 30
0.0
 11
139.821855
 21
239.617955
 31
0.0
  0
LINE
  5
218
330
20B
100
AcDbEntity
  8
LC-001-100-D00-0
 62
     7
370
    50
100
AcDbLine
 10
139.821855
 20
239.617955
 30
0.0
 11
139.821855
 21
239.617955
 31
0.0
  0
LINE
  5
219
330
20B
100
AcDbEntity
  8
LC-001-100-D00-0
 62
     7
370
    50
100
AcDbLine
 10
139.821855
 20
239.617955
 30
0.0
 11
139.675528
 21
239.21889
 31
0.0
  0
LINE
  5
21A
330
20B
100
AcDbEntity
  8
LC-001-100-D00-0
 62
     7
370
    50
100
AcDbLine
 10
139.675528
 20
239.21889
 30
0.0
 11
139.675528
 21
239.21889
 31
0.0
  0
LINE
  5
21B
330
20B
100
AcDbEntity
  8
LC-001-100-D00-0
 62
     7
370
    50
100
AcDbLine
 10
139.675528
 20
239.21889
 30
0.0
 11
139.710754
 21
239.000574
 31
0.0
  0
LINE
  5
21C
330
20B
100
AcDbEntity
  8
LC-001-100-D00-0
 62
     7
370
    50
100
AcDbLine
 10
139.710754
 20
239.000574
 30
0.0
 11
139.710754
 21
239.000574
 31
0.0
  0
LINE
  5
21D
330
20B
100
AcDbEntity
  8
LC-001-100-D00-0
 62
     7
370
    50
100
AcDbLine
 10
139.710754
 20
239.000574
 30
0.0
 11
139.715993
 21
238.968109
 31
0.0
  0
ENDBLK
  5
20D
330
20B
100
AcDbEntity
  8
0
100
AcDbBlockEnd
  0
BLOCK
  5
220
330
21F
100
AcDbEntity
  8
0
100
AcDbBlockBegin
  2
POLY15
 70
     0
 71
     0
 10
0.0
 20
0.0
 30
0.0
  3
POLY15
  1

  4
POLY15
  0
LINE
  5
222
330
21F
100
AcDbEntity
  8
LC-001-100-D00-0
 62
     7
370
    50
100
AcDbLine
 10
61.276302
 20
240.334679
 30
0.0
 11
61.276302
 21
240.334679
 31
0.0
  0
LINE
  5
223
330
21F
100
AcDbEntity
  8
LC-001-100-D00-0
 62
     7
370
    50
100
AcDbLine
 10
61.276302
 20
240.334679
 30
0.0
 11
61.095212
 21
240.401771
 31
0.0
  0
LINE
  5
224
330
21F
100
AcDbEntity
  8
LC-001-100-D00-0
 62
     7
370
    50
100
AcDbLine
 10
61.095212
 20
240.401771
 30
0.0
 11
61.095212
 21
240.401771
 31
0.0
  0
LINE
  5
225
330
21F
100
AcDbEntity
  8
LC-001-100-D00-0
 62
     7
370
    50
100
AcDbLine
 10
61.095212
 20
240.401771
 30
0.0
 11
60.892586
 21
240.476841
 31
0.0
  0
LINE
  5
226
330
21F
100
AcDbEntity
  8
LC-001-100-D00-0
 62
     7
370
    50
100
AcDbLine
 10
60.892586
 20
240.476841
 30
0.0
 11
60.892586
 21
240.476841
 31
0.0
  0
LINE
  5
227
330
21F
100
AcDbEntity
  8
LC-001-100-D00-0
 62
     7
370
    50
100
AcDbLine
 10
60.892586
 20
240.476841
 30
0.0
 11
60.68163
 21
240.464297
 31
0.0
  0
LINE
  5
228
330
21F
100
AcDbEntity
  8
LC-001-100-D00-0
 62
     7
370
    50
100
AcDbLine
 10
60.68163
 20
240.464297
 30
0.0
 11
60.68163
 21
240.464297
 31
0.0
  0
LINE
  5
229
330
21F
100
AcDbEntity
  8
LC-001-100-D00-0
 62
     7
370
    50
100
AcDbLine
 10
60.68163
 20
240.464297
 30
0.0
 11
60.659208
 21
240.462963
 31
0.0
  0
ENDBLK
  5
221
330
21F
100
AcDbEntity
  8
0
100
AcDbBlockEnd
  0
BLOCK
  5
22C
330
22B
100
AcDbEntity
  8
0
100
AcDbBlockBegin
  2
POLY16
 70
     0
 71
     0
 10
0.0
 20
0.0
 30
0.0
  3
POLY16
  1

  4
POLY16
  0
LINE
  5
22E
330
22B
100
AcDbEntity
  8
LC-001-100-D00-0
 62
     7
370
    50
100
AcDbLine
 10
62.143028
 20
238.965933
 30
0.0
 11
62.143028
 21
238.965933
 31
0.0
  0
LINE
  5
22F
330
22B
100
AcDbEntity
  8
LC-001-100-D00-0
 62
     7
370
    50
100
AcDbLine
 10
62.143028
 20
238.965933
 30
0.0
 11
62.133702
 21
239.133643
 31
0.0
  0
LINE
  5
230
330
22B
100
AcDbEntity
  8
LC-001-100-D00-0
 62
     7
370
    50
100
AcDbLine
 10
62.133702
 20
239.133643
 30
0.0
 11
62.133702
 21
239.133643
 31
0.0
  0
LINE
  5
231
330
22B
100
AcDbEntity
  8
LC-001-100-D00-0
 62
     7
370
    50
100
AcDbLine
 10
62.133702
 20
239.133643
 30
0.0
 11
62.114865
 21
239.472376
 31
0.0
  0
LINE
  5
232
330
22B
100
AcDbEntity
  8
LC-001-100-D00-0
 62
     7
370
    50
100
AcDbLine
 10
62.114865
 20
239.472376
 30
0.0
 11
62.114865
 21
239.472376
 31
0.0
  0
LINE
  5
233
330
22B
100
AcDbEntity
  8
LC-001-100-D00-0
 62
     7
370
    50
100
AcDbLine
 10
62.114865
 20
239.472376
 30
0.0
 11
61.871418
 21
239.883288
 31
0.0
  0
LINE
  5
234
330
22B
100
AcDbEntity
  8
LC-001-100-D00-0
 62
     7
370
    50
100
AcDbLine
 10
61.871418
 20
239.883288
 30
0.0
 11
61.871418
 21
239.883288
 31
0.0
  0
LINE
  5
235
330
22B
100
AcDbEntity
  8
LC-001-100-D00-0
 62
     7
370
    50
100
AcDbLine
 10
61.871418
 20
239.883288
 30
0.0
 11
61.582047
 21
240.17284
 31
0.0
  0
LINE
  5
236
330
22B
100
AcDbEntity
  8
LC-001-100-D00-0
 62
     7
370
    50
100
AcDbLine
 10
61.582047
 20
240.17284
 30
0.0
 11
61.582047
 21
240.17284
 31
0.0
  0
LINE
  5
237
330
22B
100
AcDbEntity
  8
LC-001-100-D00-0
 62
     7
370
    50
100
AcDbLine
 10
61.582047
 20
240.17284
 30
0.0
 11
61.372379
 21
240.283823
 31
0.0
  0
LINE
  5
238
330
22B
100
AcDbEntity
  8
LC-001-100-D00-0
 62
     7
370
    50
100
AcDbLine
 10
61.372379
 20
240.283823
 30
0.0
 11
61.372379
 21
240.283823
 31
0.0
  0
LINE
  5
239
330
22B
100
AcDbEntity
  8
LC-001-100-D00-0
 62
     7
370
    50
100
AcDbLine
 10
61.372379
 20
240.283823
 30
0.0
 11
61.276302
 21
240.334679
 31
0.0
  0
ENDBLK
  5
22D
330
22B
100
AcDbEntity
  8
0
100
AcDbBlockEnd
  0
BLOCK
  5
23C
330
23B
100
AcDbEntity
  8
0
100
AcDbBlockBegin
  2
POLY17
 70
     0
 71
     0
 10
0.0
 20
0.0
 30
0.0
  3
POLY17
  1

  4
POLY17
  0
LINE
  5
23E
330
23B
100
AcDbEntity
  8
LC-001-100-D00-0
 62
     7
370
    50
100
AcDbLine
 10
124.178529
 20
240.462919
 30
0.0
 11
124.178529
 21
240.462919
 31
0.0
  0
LINE
  5
23F
330
23B
100
AcDbEntity
  8
LC-001-100-D00-0
 62
     7
370
    50
100
AcDbLine
 10
124.178529
 20
240.462919
 30
0.0
 11
124.111778
 21
240.461933
 31
0.0
  0
LINE
  5
240
330
23B
100
AcDbEntity
  8
LC-001-100-D00-0
 62
     7
370
    50
100
AcDbLine
 10
124.111778
 20
240.461933
 30
0.0
 11
124.111778
 21
240.461933
 31
0.0
  0
LINE
  5
241
330
23B
100
AcDbEntity
  8
LC-001-100-D00-0
 62
     7
370
    50
100
AcDbLine
 10
124.111778
 20
240.461933
 30
0.0
 11
123.894884
 21
240.458732
 31
0.0
  0
LINE
  5
242
330
23B
100
AcDbEntity
  8
LC-001-100-D00-0
 62
     7
370
    50
100
AcDbLine
 10
123.894884
 20
240.458732
 30
0.0
 11
123.894884
 21
240.458732
 31
0.0
  0
LINE
  5
243
330
23B
100
AcDbEntity
  8
LC-001-100-D00-0
 62
     7
370
    50
100
AcDbLine
 10
123.894884
 20
240.458732
 30
0.0
 11
123.522912
 21
240.341766
 31
0.0
  0
LINE
  5
244
330
23B
100
AcDbEntity
  8
LC-001-100-D00-0
 62
     7
370
    50
100
AcDbLine
 10
123.522912
 20
240.341766
 30
0.0
 11
123.522912
 21
240.341766
 31
0.0
  0
LINE
  5
245
330
23B
100
AcDbEntity
  8
LC-001-100-D00-0
 62
     7
370
    50
100
AcDbLine
 10
123.522912
 20
240.341766
 30
0.0
 11
123.103877
 21
240.059422
 31
0.0
  0
LINE
  5
246
330
23B
100
AcDbEntity
  8
LC-001-100-D00-0
 62
     7
370
    50
100
AcDbLine
 10
123.103877
 20
240.059422
 30
0.0
 11
123.103877
 21
240.059422
 31
0.0
  0
LINE
  5
247
330
23B
100
AcDbEntity
  8
LC-001-100-D00-0
 62
     7
370
    50
100
AcDbLine
 10
123.103877
 20
240.059422
 30
0.0
 11
122.801648
 21
239.617954
 31
0.0
  0
LINE
  5
248
330
23B
100
AcDbEntity
  8
LC-001-100-D00-0
 62
     7
370
    50
100
AcDbLine
 10
122.801648
 20
239.617954
 30
0.0
 11
122.801648
 21
239.617954
 31
0.0
  0
LINE
  5
249
330
23B
100
AcDbEntity
  8
LC-001-100-D00-0
 62
     7
370
    50
100
AcDbLine
 10
122.801648
 20
239.617954
 30
0.0
 11
122.655316
 21
239.21863
 31
0.0
  0
LINE
  5
24A
330
23B
100
AcDbEntity
  8
LC-001-100-D00-0
 62
     7
370
    50
100
AcDbLine
 10
122.655316
 20
239.21863
 30
0.0
 11
122.655316
 21
239.21863
 31
0.0
  0
LINE
  5
24B
330
23B
100
AcDbEntity
  8
LC-001-100-D00-0
 62
     7
370
    50
100
AcDbLine
 10
122.655316
 20
239.21863
 30
0.0
 11
122.690631
 21
239.000057
 31
0.0
  0
LINE
  5
24C
330
23B
100
AcDbEntity
  8
LC-001-100-D00-0
 62
     7
370
    50
100
AcDbLine
 10
122.690631
 20
239.000057
 30
0.0
 11
122.690631
 21
239.000057
 31
0.0
  0
LINE
  5
24D
330
23B
100
AcDbEntity
  8
LC-001-100-D00-0
 62
     7
370
    50
100
AcDbLine
 10
122.690631
 20
239.000057
 30
0.0
 11
122.695918
 21
238.967334
 31
0.0
  0
ENDBLK
  5
23D
330
23B
100
AcDbEntity
  8
0
100
AcDbBlockEnd
  0
BLOCK
  5
250
330
24F
100
AcDbEntity
  8
0
100
AcDbBlockBegin
  2
POLY18
 70
     0
 71
     0
 10
0.0
 20
0.0
 30
0.0
  3
POLY18
  1

  4
POLY18
  0
LINE
  5
252
330
24F
100
AcDbEntity
  8
LC-001-100-D00-0
 62
     7
370
    50
100
AcDbLine
 10
78.296485
 20
240.334679
 30
0.0
 11
78.296485
 21
240.334679
 31
0.0
  0
LINE
  5
253
330
24F
100
AcDbEntity
  8
LC-001-100-D00-0
 62
     7
370
    50
100
AcDbLine
 10
78.296485
 20
240.334679
 30
0.0
 11
78.115392
 21
240.401731
 31
0.0
  0
LINE
  5
254
330
24F
100
AcDbEntity
  8
LC-001-100-D00-0
 62
     7
370
    50
100
AcDbLine
 10
78.115392
 20
240.401731
 30
0.0
 11
78.115392
 21
240.401731
 31
0.0
  0
LINE
  5
255
330
24F
100
AcDbEntity
  8
LC-001-100-D00-0
 62
     7
370
    50
100
AcDbLine
 10
78.115392
 20
240.401731
 30
0.0
 11
77.912496
 21
240.476855
 31
0.0
  0
LINE
  5
256
330
24F
100
AcDbEntity
  8
LC-001-100-D00-0
 62
     7
370
    50
100
AcDbLine
 10
77.912496
 20
240.476855
 30
0.0
 11
77.912496
 21
240.476855
 31
0.0
  0
LINE
  5
257
330
24F
100
AcDbEntity
  8
LC-001-100-D00-0
 62
     7
370
    50
100
AcDbLine
 10
77.912496
 20
240.476855
 30
0.0
 11
77.701257
 21
240.464284
 31
0.0
  0
LINE
  5
258
330
24F
100
AcDbEntity
  8
LC-001-100-D00-0
 62
     7
370
    50
100
AcDbLine
 10
77.701257
 20
240.464284
 30
0.0
 11
77.701257
 21
240.464284
 31
0.0
  0
LINE
  5
259
330
24F
100
AcDbEntity
  8
LC-001-100-D00-0
 62
     7
370
    50
100
AcDbLine
 10
77.701257
 20
240.464284
 30
0.0
 11
77.678558
 21
240.462934
 31
0.0
  0
ENDBLK
  5
251
330
24F
100
AcDbEntity
  8
0
100
AcDbBlockEnd
  0
BLOCK
  5
25C
330
25B
100
AcDbEntity
  8
0
100
AcDbBlockBegin
  2
POLY19
 70
     0
 71
     0
 10
0.0
 20
0.0
 30
0.0
  3
POLY19
  1

  4
POLY19
  0
LINE
  5
25E
330
25B
100
AcDbEntity
  8
LC-001-100-D00-0
 62
     7
370
    50
100
AcDbLine
 10
79.162915
 20
238.968109
 30
0.0
 11
79.162915
 21
238.968109
 31
0.0
  0
LINE
  5
25F
330
25B
100
AcDbEntity
  8
LC-001-100-D00-0
 62
     7
370
    50
100
AcDbLine
 10
79.162915
 20
238.968109
 30
0.0
 11
79.153603
 21
239.135072
 31
0.0
  0
LINE
  5
260
330
25B
100
AcDbEntity
  8
LC-001-100-D00-0
 62
     7
370
    50
100
AcDbLine
 10
79.153603
 20
239.135072
 30
0.0
 11
79.153603
 21
239.135072
 31
0.0
  0
LINE
  5
261
330
25B
100
AcDbEntity
  8
LC-001-100-D00-0
 62
     7
370
    50
100
AcDbLine
 10
79.153603
 20
239.135072
 30
0.0
 11
79.134752
 21
239.473051
 31
0.0
  0
LINE
  5
262
330
25B
100
AcDbEntity
  8
LC-001-100-D00-0
 62
     7
370
    50
100
AcDbLine
 10
79.134752
 20
239.473051
 30
0.0
 11
79.134752
 21
239.473051
 31
0.0
  0
LINE
  5
263
330
25B
100
AcDbEntity
  8
LC-001-100-D00-0
 62
     7
370
    50
100
AcDbLine
 10
79.134752
 20
239.473051
 30
0.0
 11
78.891578
 21
239.883283
 31
0.0
  0
LINE
  5
264
330
25B
100
AcDbEntity
  8
LC-001-100-D00-0
 62
     7
370
    50
100
AcDbLine
 10
78.891578
 20
239.883283
 30
0.0
 11
78.891578
 21
239.883283
 31
0.0
  0
LINE
  5
265
330
25B
100
AcDbEntity
  8
LC-001-100-D00-0
 62
     7
370
    50
100
AcDbLine
 10
78.891578
 20
239.883283
 30
0.0
 11
78.602229
 21
240.17284
 31
0.0
  0
LINE
  5
266
330
25B
100
AcDbEntity
  8
LC-001-100-D00-0
 62
     7
370
    50
100
AcDbLine
 10
78.602229
 20
240.17284
 30
0.0
 11
78.602229
 21
240.17284
 31
0.0
  0
LINE
  5
267
330
25B
100
AcDbEntity
  8
LC-001-100-D00-0
 62
     7
370
    50
100
AcDbLine
 10
78.602229
 20
240.17284
 30
0.0
 11
78.392561
 21
240.283823
 31
0.0
  0
LINE
  5
268
330
25B
100
AcDbEntity
  8
LC-001-100-D00-0
 62
     7
370
    50
100
AcDbLine
 10
78.392561
 20
240.283823
 30
0.0
 11
78.392561
 21
240.283823
 31
0.0
  0
LINE
  5
269
330
25B
100
AcDbEntity
  8
LC-001-100-D00-0
 62
     7
370
    50
100
AcDbLine
 10
78.392561
 20
240.283823
 30
0.0
 11
78.296485
 21
240.334679
 31
0.0
  0
ENDBLK
  5
25D
330
25B
100
AcDbEntity
  8
0
100
AcDbBlockEnd
  0
BLOCK
  5
286
330
285
100
AcDbEntity
  8
0
100
AcDbBlockBegin
  2
KLON1
 70
     0
 71
     0
 10
0.0
 20
0.0
 30
0.0
  3
KLON1
  1

  4
KLON1
  0
LINE
  5
288
330
285
100
AcDbEntity
  8
LC-001-100-D00-0
 62
     7
370
    15
100
AcDbLine
 10
-28.740424
 20
240.467479
 30
0.0
 11
-29.954571
 21
235.936229
 31
0.0
  0
LINE
  5
289
330
285
100
AcDbEntity
  8
LC-001-100-D00-0
 62
     7
370
    15
100
AcDbLine
 10
-29.954571
 20
235.936229
 30
0.0
 11
-31.151968
 21
231.467475
 31
0.0
  0
ENDBLK
  5
287
330
285
100
AcDbEntity
  8
0
100
AcDbBlockEnd
  0
BLOCK
  5
2AD
330
2AC
100
AcDbEntity
  8
0
100
AcDbBlockBegin
  2
POLY20
 70
     0
 71
     0
 10
0.0
 20
0.0
 30
0.0
  3
POLY20
  1

  4
POLY20
  0
LINE
  5
2AF
330
2AC
100
AcDbEntity
  8
LC-001-100-D00-0
 62
     7
370
    50
100
AcDbLine
 10
4.398522
 20
231.467475
 30
0.0
 11
4.398522
 21
231.467475
 31
0.0
  0
LINE
  5
2B0
330
2AC
100
AcDbEntity
  8
LC-001-100-D00-0
 62
     7
370
    50
100
AcDbLine
 10
4.398522
 20
231.467475
 30
0.0
 11
4.288359
 21
230.96675
 31
0.0
  0
LINE
  5
2B1
330
2AC
100
AcDbEntity
  8
LC-001-100-D00-0
 62
     7
370
    50
100
AcDbLine
 10
4.288359
 20
230.96675
 30
0.0
 11
4.288359
 21
230.96675
 31
0.0
  0
LINE
  5
2B2
330
2AC
100
AcDbEntity
  8
LC-001-100-D00-0
 62
     7
370
    50
100
AcDbLine
 10
4.288359
 20
230.96675
 30
0.0
 11
4.17679
 21
230.466661
 31
0.0
  0
LINE
  5
2B3
330
2AC
100
AcDbEntity
  8
LC-001-100-D00-0
 62
     7
370
    50
100
AcDbLine
 10
4.17679
 20
230.466661
 30
0.0
 11
4.17679
 21
230.466661
 31
0.0
  0
LINE
  5
2B4
330
2AC
100
AcDbEntity
  8
LC-001-100-D00-0
 62
     7
370
    50
100
AcDbLine
 10
4.17679
 20
230.466661
 30
0.0
 11
4.063228
 21
229.967475
 31
0.0
  0
ENDBLK
  5
2AE
330
2AC
100
AcDbEntity
  8
0
100
AcDbBlockEnd
  0
BLOCK
  5
2B8
330
2B7
100
AcDbEntity
  8
0
100
AcDbBlockBegin
  2
POLY21
 70
     0
 71
     0
 10
0.0
 20
0.0
 30
0.0
  3
POLY21
  1

  4
POLY21
  0
LINE
  5
2BA
330
2B7
100
AcDbEntity
  8
LC-001-100-D00-0
 62
     7
370
    50
100
AcDbLine
 10
8.324552
 20
228.967475
 30
0.0
 11
8.324552
 21
228.967475
 31
0.0
  0
LINE
  5
2BB
330
2B7
100
AcDbEntity
  8
LC-001-100-D00-0
 62
     7
370
    50
100
AcDbLine
 10
8.324552
 20
228.967475
 30
0.0
 11
8.068209
 21
228.967475
 31
0.0
  0
LINE
  5
2BC
330
2B7
100
AcDbEntity
  8
LC-001-100-D00-0
 62
     7
370
    50
100
AcDbLine
 10
8.068209
 20
228.967475
 30
0.0
 11
8.068209
 21
228.967475
 31
0.0
  0
LINE
  5
2BD
330
2B7
100
AcDbEntity
  8
LC-001-100-D00-0
 62
     7
370
    50
100
AcDbLine
 10
8.068209
 20
228.967475
 30
0.0
 11
7.758756
 21
228.967475
 31
0.0
  0
LINE
  5
2BE
330
2B7
100
AcDbEntity
  8
LC-001-100-D00-0
 62
     7
370
    50
100
AcDbLine
 10
7.758756
 20
228.967475
 30
0.0
 11
7.758756
 21
228.967475
 31
0.0
  0
LINE
  5
2BF
330
2B7
100
AcDbEntity
  8
LC-001-100-D00-0
 62
     7
370
    50
100
AcDbLine
 10
7.758756
 20
228.967475
 30
0.0
 11
7.040414
 21
228.967475
 31
0.0
  0
LINE
  5
2C0
330
2B7
100
AcDbEntity
  8
LC-001-100-D00-0
 62
     7
370
    50
100
AcDbLine
 10
7.040414
 20
228.967475
 30
0.0
 11
7.040414
 21
228.967475
 31
0.0
  0
LINE
  5
2C1
330
2B7
100
AcDbEntity
  8
LC-001-100-D00-0
 62
     7
370
    50
100
AcDbLine
 10
7.040414
 20
228.967475
 30
0.0
 11
6.641625
 21
228.967475
 31
0.0
  0
LINE
  5
2C2
330
2B7
100
AcDbEntity
  8
LC-001-100-D00-0
 62
     7
370
    50
100
AcDbLine
 10
6.641625
 20
228.967475
 30
0.0
 11
6.641625
 21
228.967475
 31
0.0
  0
LINE
  5
2C3
330
2B7
100
AcDbEntity
  8
LC-001-100-D00-0
 62
     7
370
    50
100
AcDbLine
 10
6.641625
 20
228.967475
 30
0.0
 11
6.203231
 21
228.967475
 31
0.0
  0
ENDBLK
  5
2B9
330
2B7
100
AcDbEntity
  8
0
100
AcDbBlockEnd
  0
BLOCK
  5
2C6
330
2C5
100
AcDbEntity
  8
0
100
AcDbBlockBegin
  2
POLY22
 70
     0
 71
     0
 10
0.0
 20
0.0
 30
0.0
  3
POLY22
  1

  4
POLY22
  0
LINE
  5
2C8
330
2C5
100
AcDbEntity
  8
LC-001-100-D00-0
 62
     7
370
    50
100
AcDbLine
 10
4.044452
 20
229.708656
 30
0.0
 11
4.044452
 21
229.708656
 31
0.0
  0
LINE
  5
2C9
330
2C5
100
AcDbEntity
  8
LC-001-100-D00-0
 62
     7
370
    50
100
AcDbLine
 10
4.044452
 20
229.708656
 30
0.0
 11
4.036833
 21
229.795198
 31
0.0
  0
LINE
  5
2CA
330
2C5
100
AcDbEntity
  8
LC-001-100-D00-0
 62
     7
370
    50
100
AcDbLine
 10
4.036833
 20
229.795198
 30
0.0
 11
4.036833
 21
229.795198
 31
0.0
  0
LINE
  5
2CB
330
2C5
100
AcDbEntity
  8
LC-001-100-D00-0
 62
     7
370
    50
100
AcDbLine
 10
4.036833
 20
229.795198
 30
0.0
 11
4.043659
 21
229.881456
 31
0.0
  0
LINE
  5
2CC
330
2C5
100
AcDbEntity
  8
LC-001-100-D00-0
 62
     7
370
    50
100
AcDbLine
 10
4.043659
 20
229.881456
 30
0.0
 11
4.043659
 21
229.881456
 31
0.0
  0
LINE
  5
2CD
330
2C5
100
AcDbEntity
  8
LC-001-100-D00-0
 62
     7
370
    50
100
AcDbLine
 10
4.043659
 20
229.881456
 30
0.0
 11
4.063228
 21
229.967475
 31
0.0
  0
ENDBLK
  5
2C7
330
2C5
100
AcDbEntity
  8
0
100
AcDbBlockEnd
  0
BLOCK
  5
2D1
330
2D0
100
AcDbEntity
  8
0
100
AcDbBlockBegin
  2
POLY23
 70
     0
 71
     0
 10
0.0
 20
0.0
 30
0.0
  3
POLY23
  1

  4
POLY23
  0
LINE
  5
2D3
330
2D0
100
AcDbEntity
  8
LC-001-100-D00-0
 62
     7
370
    50
100
AcDbLine
 10
4.044452
 20
229.708656
 30
0.0
 11
4.044452
 21
229.708656
 31
0.0
  0
LINE
  5
2D4
330
2D0
100
AcDbEntity
  8
LC-001-100-D00-0
 62
     7
370
    50
100
AcDbLine
 10
4.044452
 20
229.708656
 30
0.0
 11
4.064805
 21
229.477462
 31
0.0
  0
LINE
  5
2D5
330
2D0
100
AcDbEntity
  8
LC-001-100-D00-0
 62
     7
370
    50
100
AcDbLine
 10
4.064805
 20
229.477462
 30
0.0
 11
4.064805
 21
229.477462
 31
0.0
  0
LINE
  5
2D6
330
2D0
100
AcDbEntity
  8
LC-001-100-D00-0
 62
     7
370
    50
100
AcDbLine
 10
4.064805
 20
229.477462
 30
0.0
 11
4.111385
 21
229.283906
 31
0.0
  0
LINE
  5
2D7
330
2D0
100
AcDbEntity
  8
LC-001-100-D00-0
 62
     7
370
    50
100
AcDbLine
 10
4.111385
 20
229.283906
 30
0.0
 11
4.111385
 21
229.283906
 31
0.0
  0
LINE
  5
2D8
330
2D0
100
AcDbEntity
  8
LC-001-100-D00-0
 62
     7
370
    50
100
AcDbLine
 10
4.111385
 20
229.283906
 30
0.0
 11
4.219287
 21
229.029267
 31
0.0
  0
LINE
  5
2D9
330
2D0
100
AcDbEntity
  8
LC-001-100-D00-0
 62
     7
370
    50
100
AcDbLine
 10
4.219287
 20
229.029267
 30
0.0
 11
4.219287
 21
229.029267
 31
0.0
  0
LINE
  5
2DA
330
2D0
100
AcDbEntity
  8
LC-001-100-D00-0
 62
     7
370
    50
100
AcDbLine
 10
4.219287
 20
229.029267
 30
0.0
 11
4.279312
 21
228.967475
 31
0.0
  0
LINE
  5
2DB
330
2D0
100
AcDbEntity
  8
LC-001-100-D00-0
 62
     7
370
    50
100
AcDbLine
 10
4.279312
 20
228.967475
 30
0.0
 11
4.279312
 21
228.967475
 31
0.0
  0
LINE
  5
2DC
330
2D0
100
AcDbEntity
  8
LC-001-100-D00-0
 62
     7
370
    50
100
AcDbLine
 10
4.279312
 20
228.967475
 30
0.0
 11
4.331917
 21
228.967475
 31
0.0
  0
ENDBLK
  5
2D2
330
2D0
100
AcDbEntity
  8
0
100
AcDbBlockEnd
  0
BLOCK
  5
2EC
330
2EB
100
AcDbEntity
  8
0
100
AcDbBlockBegin
  2
POLY24
 70
     0
 71
     0
 10
0.0
 20
0.0
 30
0.0
  3
POLY24
  1

  4
POLY24
  0
LINE
  5
2EE
330
2EB
100
AcDbEntity
  8
LC-001-100-D00-0
 62
     7
370
    50
100
AcDbLine
 10
147.429452
 20
240.467464
 30
0.0
 11
147.429452
 21
240.467464
 31
0.0
  0
LINE
  5
2EF
330
2EB
100
AcDbEntity
  8
LC-001-100-D00-0
 62
     7
370
    50
100
AcDbLine
 10
147.429452
 20
240.467464
 30
0.0
 11
147.304426
 21
240.45823
 31
0.0
  0
LINE
  5
2F0
330
2EB
100
AcDbEntity
  8
LC-001-100-D00-0
 62
     7
370
    50
100
AcDbLine
 10
147.304426
 20
240.45823
 30
0.0
 11
147.304426
 21
240.45823
 31
0.0
  0
LINE
  5
2F1
330
2EB
100
AcDbEntity
  8
LC-001-100-D00-0
 62
     7
370
    50
100
AcDbLine
 10
147.304426
 20
240.45823
 30
0.0
 11
147.011185
 21
240.436572
 31
0.0
  0
LINE
  5
2F2
330
2EB
100
AcDbEntity
  8
LC-001-100-D00-0
 62
     7
370
    50
100
AcDbLine
 10
147.011185
 20
240.436572
 30
0.0
 11
147.011185
 21
240.436572
 31
0.0
  0
LINE
  5
2F3
330
2EB
100
AcDbEntity
  8
LC-001-100-D00-0
 62
     7
370
    50
100
AcDbLine
 10
147.011185
 20
240.436572
 30
0.0
 11
146.581377
 21
240.238028
 31
0.0
  0
LINE
  5
2F4
330
2EB
100
AcDbEntity
  8
LC-001-100-D00-0
 62
     7
370
    50
100
AcDbLine
 10
146.581377
 20
240.238028
 30
0.0
 11
146.581377
 21
240.238028
 31
0.0
  0
LINE
  5
2F5
330
2EB
100
AcDbEntity
  8
LC-001-100-D00-0
 62
     7
370
    50
100
AcDbLine
 10
146.581377
 20
240.238028
 30
0.0
 11
146.21062
 21
239.888061
 31
0.0
  0
LINE
  5
2F6
330
2EB
100
AcDbEntity
  8
LC-001-100-D00-0
 62
     7
370
    50
100
AcDbLine
 10
146.21062
 20
239.888061
 30
0.0
 11
146.21062
 21
239.888061
 31
0.0
  0
LINE
  5
2F7
330
2EB
100
AcDbEntity
  8
LC-001-100-D00-0
 62
     7
370
    50
100
AcDbLine
 10
146.21062
 20
239.888061
 30
0.0
 11
145.972466
 21
239.444289
 31
0.0
  0
LINE
  5
2F8
330
2EB
100
AcDbEntity
  8
LC-001-100-D00-0
 62
     7
370
    50
100
AcDbLine
 10
145.972466
 20
239.444289
 30
0.0
 11
145.972466
 21
239.444289
 31
0.0
  0
LINE
  5
2F9
330
2EB
100
AcDbEntity
  8
LC-001-100-D00-0
 62
     7
370
    50
100
AcDbLine
 10
145.972466
 20
239.444289
 30
0.0
 11
145.94336
 21
239.121639
 31
0.0
  0
LINE
  5
2FA
330
2EB
100
AcDbEntity
  8
LC-001-100-D00-0
 62
     7
370
    50
100
AcDbLine
 10
145.94336
 20
239.121639
 30
0.0
 11
145.94336
 21
239.121639
 31
0.0
  0
LINE
  5
2FB
330
2EB
100
AcDbEntity
  8
LC-001-100-D00-0
 62
     7
370
    50
100
AcDbLine
 10
145.94336
 20
239.121639
 30
0.0
 11
145.929453
 21
238.967468
 31
0.0
  0
ENDBLK
  5
2ED
330
2EB
100
AcDbEntity
  8
0
100
AcDbBlockEnd
  0
BLOCK
  5
2FE
330
2FD
100
AcDbEntity
  8
0
100
AcDbBlockBegin
  2
POLY25
 70
     0
 71
     0
 10
0.0
 20
0.0
 30
0.0
  3
POLY25
  1

  4
POLY25
  0
LINE
  5
300
330
2FD
100
AcDbEntity
  8
LC-001-100-D00-0
 62
     7
370
    50
100
AcDbLine
 10
55.929449
 20
238.967468
 30
0.0
 11
55.929449
 21
238.967468
 31
0.0
  0
LINE
  5
301
330
2FD
100
AcDbEntity
  8
LC-001-100-D00-0
 62
     7
370
    50
100
AcDbLine
 10
55.929449
 20
238.967468
 30
0.0
 11
55.922473
 21
239.075718
 31
0.0
  0
LINE
  5
302
330
2FD
100
AcDbEntity
  8
LC-001-100-D00-0
 62
     7
370
    50
100
AcDbLine
 10
55.922473
 20
239.075718
 30
0.0
 11
55.922473
 21
239.075718
 31
0.0
  0
LINE
  5
303
330
2FD
100
AcDbEntity
  8
LC-001-100-D00-0
 62
     7
370
    50
100
AcDbLine
 10
55.922473
 20
239.075718
 30
0.0
 11
55.904663
 21
239.352093
 31
0.0
  0
LINE
  5
304
330
2FD
100
AcDbEntity
  8
LC-001-100-D00-0
 62
     7
370
    50
100
AcDbLine
 10
55.904663
 20
239.352093
 30
0.0
 11
55.904663
 21
239.352093
 31
0.0
  0
LINE
  5
305
330
2FD
100
AcDbEntity
  8
LC-001-100-D00-0
 62
     7
370
    50
100
AcDbLine
 10
55.904663
 20
239.352093
 30
0.0
 11
55.727952
 21
239.771822
 31
0.0
  0
LINE
  5
306
330
2FD
100
AcDbEntity
  8
LC-001-100-D00-0
 62
     7
370
    50
100
AcDbLine
 10
55.727952
 20
239.771822
 30
0.0
 11
55.727952
 21
239.771822
 31
0.0
  0
LINE
  5
307
330
2FD
100
AcDbEntity
  8
LC-001-100-D00-0
 62
     7
370
    50
100
AcDbLine
 10
55.727952
 20
239.771822
 30
0.0
 11
55.390381
 21
240.156679
 31
0.0
  0
LINE
  5
308
330
2FD
100
AcDbEntity
  8
LC-001-100-D00-0
 62
     7
370
    50
100
AcDbLine
 10
55.390381
 20
240.156679
 30
0.0
 11
55.390381
 21
240.156679
 31
0.0
  0
LINE
  5
309
330
2FD
100
AcDbEntity
  8
LC-001-100-D00-0
 62
     7
370
    50
100
AcDbLine
 10
55.390381
 20
240.156679
 30
0.0
 11
54.942494
 21
240.407556
 31
0.0
  0
LINE
  5
30A
330
2FD
100
AcDbEntity
  8
LC-001-100-D00-0
 62
     7
370
    50
100
AcDbLine
 10
54.942494
 20
240.407556
 30
0.0
 11
54.942494
 21
240.407556
 31
0.0
  0
LINE
  5
30B
330
2FD
100
AcDbEntity
  8
LC-001-100-D00-0
 62
     7
370
    50
100
AcDbLine
 10
54.942494
 20
240.407556
 30
0.0
 11
54.60204
 21
240.467239
 31
0.0
  0
LINE
  5
30C
330
2FD
100
AcDbEntity
  8
LC-001-100-D00-0
 62
     7
370
    50
100
AcDbLine
 10
54.60204
 20
240.467239
 30
0.0
 11
54.60204
 21
240.467239
 31
0.0
  0
LINE
  5
30D
330
2FD
100
AcDbEntity
  8
LC-001-100-D00-0
 62
     7
370
    50
100
AcDbLine
 10
54.60204
 20
240.467239
 30
0.0
 11
54.431805
 21
240.467461
 31
0.0
  0
LINE
  5
30E
330
2FD
100
AcDbEntity
  8
LC-001-100-D00-0
 62
     7
370
    50
100
AcDbLine
 10
54.431805
 20
240.467461
 30
0.0
 11
54.431805
 21
240.467461
 31
0.0
  0
LINE
  5
30F
330
2FD
100
AcDbEntity
  8
LC-001-100-D00-0
 62
     7
370
    50
100
AcDbLine
 10
54.431805
 20
240.467461
 30
0.0
 11
54.42945
 21
240.467464
 31
0.0
  0
ENDBLK
  5
2FF
330
2FD
100
AcDbEntity
  8
0
100
AcDbBlockEnd
  0
BLOCK
  5
313
330
312
100
AcDbEntity
  8
0
100
AcDbBlockBegin
  2
POLY26
 70
     0
 71
     0
 10
0.0
 20
0.0
 30
0.0
  3
POLY26
  1

  4
POLY26
  0
LINE
  5
315
330
312
100
AcDbEntity
  8
LC-001-100-D00-0
 62
     7
370
    50
100
AcDbLine
 10
141.199366
 20
240.467404
 30
0.0
 11
141.199366
 21
240.467404
 31
0.0
  0
LINE
  5
316
330
312
100
AcDbEntity
  8
LC-001-100-D00-0
 62
     7
370
    50
100
AcDbLine
 10
141.199366
 20
240.467404
 30
0.0
 11
141.199454
 21
240.467424
 31
0.0
  0
LINE
  5
317
330
312
100
AcDbEntity
  8
LC-001-100-D00-0
 62
     7
370
    50
100
AcDbLine
 10
141.199454
 20
240.467424
 30
0.0
 11
141.199454
 21
240.467424
 31
0.0
  0
LINE
  5
318
330
312
100
AcDbEntity
  8
LC-001-100-D00-0
 62
     7
370
    50
100
AcDbLine
 10
141.199454
 20
240.467424
 30
0.0
 11
141.283163
 21
240.486309
 31
0.0
  0
LINE
  5
319
330
312
100
AcDbEntity
  8
LC-001-100-D00-0
 62
     7
370
    50
100
AcDbLine
 10
141.283163
 20
240.486309
 30
0.0
 11
141.283163
 21
240.486309
 31
0.0
  0
LINE
  5
31A
330
312
100
AcDbEntity
  8
LC-001-100-D00-0
 62
     7
370
    50
100
AcDbLine
 10
141.283163
 20
240.486309
 30
0.0
 11
141.451144
 21
240.401338
 31
0.0
  0
LINE
  5
31B
330
312
100
AcDbEntity
  8
LC-001-100-D00-0
 62
     7
370
    50
100
AcDbLine
 10
141.451144
 20
240.401338
 30
0.0
 11
141.451144
 21
240.401338
 31
0.0
  0
LINE
  5
31C
330
312
100
AcDbEntity
  8
LC-001-100-D00-0
 62
     7
370
    50
100
AcDbLine
 10
141.451144
 20
240.401338
 30
0.0
 11
141.66908
 21
240.163752
 31
0.0
  0
LINE
  5
31D
330
312
100
AcDbEntity
  8
LC-001-100-D00-0
 62
     7
370
    50
100
AcDbLine
 10
141.66908
 20
240.163752
 30
0.0
 11
141.66908
 21
240.163752
 31
0.0
  0
LINE
  5
31E
330
312
100
AcDbEntity
  8
LC-001-100-D00-0
 62
     7
370
    50
100
AcDbLine
 10
141.66908
 20
240.163752
 30
0.0
 11
141.831395
 21
239.777736
 31
0.0
  0
LINE
  5
31F
330
312
100
AcDbEntity
  8
LC-001-100-D00-0
 62
     7
370
    50
100
AcDbLine
 10
141.831395
 20
239.777736
 30
0.0
 11
141.831395
 21
239.777736
 31
0.0
  0
LINE
  5
320
330
312
100
AcDbEntity
  8
LC-001-100-D00-0
 62
     7
370
    50
100
AcDbLine
 10
141.831395
 20
239.777736
 30
0.0
 11
141.916472
 21
239.35729
 31
0.0
  0
LINE
  5
321
330
312
100
AcDbEntity
  8
LC-001-100-D00-0
 62
     7
370
    50
100
AcDbLine
 10
141.916472
 20
239.35729
 30
0.0
 11
141.916472
 21
239.35729
 31
0.0
  0
LINE
  5
322
330
312
100
AcDbEntity
  8
LC-001-100-D00-0
 62
     7
370
    50
100
AcDbLine
 10
141.916472
 20
239.35729
 30
0.0
 11
141.925141
 21
239.07829
 31
0.0
  0
LINE
  5
323
330
312
100
AcDbEntity
  8
LC-001-100-D00-0
 62
     7
370
    50
100
AcDbLine
 10
141.925141
 20
239.07829
 30
0.0
 11
141.925141
 21
239.07829
 31
0.0
  0
LINE
  5
324
330
312
100
AcDbEntity
  8
LC-001-100-D00-0
 62
     7
370
    50
100
AcDbLine
 10
141.925141
 20
239.07829
 30
0.0
 11
141.928584
 21
238.967468
 31
0.0
  0
ENDBLK
  5
314
330
312
100
AcDbEntity
  8
0
100
AcDbBlockEnd
  0
BLOCK
  5
32E
330
32D
100
AcDbEntity
  8
0
100
AcDbBlockBegin
  2
POLY27
 70
     0
 71
     0
 10
0.0
 20
0.0
 30
0.0
  3
POLY27
  1

  4
POLY27
  0
LINE
  5
330
330
32D
100
AcDbEntity
  8
LC-001-100-D00-0
 62
     7
370
    50
100
AcDbLine
 10
59.930318
 20
238.967468
 30
0.0
 11
59.930318
 21
238.967468
 31
0.0
  0
LINE
  5
331
330
32D
100
AcDbEntity
  8
LC-001-100-D00-0
 62
     7
370
    50
100
AcDbLine
 10
59.930318
 20
238.967468
 30
0.0
 11
59.938128
 21
239.136094
 31
0.0
  0
LINE
  5
332
330
32D
100
AcDbEntity
  8
LC-001-100-D00-0
 62
     7
370
    50
100
AcDbLine
 10
59.938128
 20
239.136094
 30
0.0
 11
59.938128
 21
239.136094
 31
0.0
  0
LINE
  5
333
330
32D
100
AcDbEntity
  8
LC-001-100-D00-0
 62
     7
370
    50
100
AcDbLine
 10
59.938128
 20
239.136094
 30
0.0
 11
59.953749
 21
239.473341
 31
0.0
  0
LINE
  5
334
330
32D
100
AcDbEntity
  8
LC-001-100-D00-0
 62
     7
370
    50
100
AcDbLine
 10
59.953749
 20
239.473341
 30
0.0
 11
59.953749
 21
239.473341
 31
0.0
  0
LINE
  5
335
330
32D
100
AcDbEntity
  8
LC-001-100-D00-0
 62
     7
370
    50
100
AcDbLine
 10
59.953749
 20
239.473341
 30
0.0
 11
60.076359
 21
239.922825
 31
0.0
  0
LINE
  5
336
330
32D
100
AcDbEntity
  8
LC-001-100-D00-0
 62
     7
370
    50
100
AcDbLine
 10
60.076359
 20
239.922825
 30
0.0
 11
60.076359
 21
239.922825
 31
0.0
  0
LINE
  5
337
330
32D
100
AcDbEntity
  8
LC-001-100-D00-0
 62
     7
370
    50
100
AcDbLine
 10
60.076359
 20
239.922825
 30
0.0
 11
60.259306
 21
240.262051
 31
0.0
  0
LINE
  5
338
330
32D
100
AcDbEntity
  8
LC-001-100-D00-0
 62
     7
370
    50
100
AcDbLine
 10
60.259306
 20
240.262051
 30
0.0
 11
60.259306
 21
240.262051
 31
0.0
  0
LINE
  5
339
330
32D
100
AcDbEntity
  8
LC-001-100-D00-0
 62
     7
370
    50
100
AcDbLine
 10
60.259306
 20
240.262051
 30
0.0
 11
60.46523
 21
240.4418
 31
0.0
  0
LINE
  5
33A
330
32D
100
AcDbEntity
  8
LC-001-100-D00-0
 62
     7
370
    50
100
AcDbLine
 10
60.46523
 20
240.4418
 30
0.0
 11
60.46523
 21
240.4418
 31
0.0
  0
LINE
  5
33B
330
32D
100
AcDbEntity
  8
LC-001-100-D00-0
 62
     7
370
    50
100
AcDbLine
 10
60.46523
 20
240.4418
 30
0.0
 11
60.603987
 21
240.460134
 31
0.0
  0
LINE
  5
33C
330
32D
100
AcDbEntity
  8
LC-001-100-D00-0
 62
     7
370
    50
100
AcDbLine
 10
60.603987
 20
240.460134
 30
0.0
 11
60.603987
 21
240.460134
 31
0.0
  0
LINE
  5
33D
330
32D
100
AcDbEntity
  8
LC-001-100-D00-0
 62
     7
370
    50
100
AcDbLine
 10
60.603987
 20
240.460134
 30
0.0
 11
60.659007
 21
240.467404
 31
0.0
  0
ENDBLK
  5
32F
330
32D
100
AcDbEntity
  8
0
100
AcDbBlockEnd
  0
BLOCK
  5
35E
330
35D
100
AcDbEntity
  8
0
100
AcDbBlockBegin
  2
POLY28
 70
     0
 71
     0
 10
0.0
 20
0.0
 30
0.0
  3
POLY28
  1

  4
POLY28
  0
LINE
  5
360
330
35D
100
AcDbEntity
  8
LC-001-100-D00-0
 62
     7
370
    50
100
AcDbLine
 10
141.928584
 20
238.967468
 30
0.0
 11
141.928584
 21
238.967468
 31
0.0
  0
LINE
  5
361
330
35D
100
AcDbEntity
  8
LC-001-100-D00-0
 62
     7
370
    50
100
AcDbLine
 10
141.928584
 20
238.967468
 30
0.0
 11
141.773124
 21
238.967468
 31
0.0
  0
LINE
  5
362
330
35D
100
AcDbEntity
  8
LC-001-100-D00-0
 62
     7
370
    50
100
AcDbLine
 10
141.773124
 20
238.967468
 30
0.0
 11
141.773124
 21
238.967468
 31
0.0
  0
LINE
  5
363
330
35D
100
AcDbEntity
  8
LC-001-100-D00-0
 62
     7
370
    50
100
AcDbLine
 10
141.773124
 20
238.967468
 30
0.0
 11
141.462204
 21
238.967468
 31
0.0
  0
LINE
  5
364
330
35D
100
AcDbEntity
  8
LC-001-100-D00-0
 62
     7
370
    50
100
AcDbLine
 10
141.462204
 20
238.967468
 30
0.0
 11
141.462204
 21
238.967468
 31
0.0
  0
LINE
  5
365
330
35D
100
AcDbEntity
  8
LC-001-100-D00-0
 62
     7
370
    50
100
AcDbLine
 10
141.462204
 20
238.967468
 30
0.0
 11
140.943924
 21
238.967468
 31
0.0
  0
LINE
  5
366
330
35D
100
AcDbEntity
  8
LC-001-100-D00-0
 62
     7
370
    50
100
AcDbLine
 10
140.943924
 20
238.967468
 30
0.0
 11
140.943924
 21
238.967468
 31
0.0
  0
LINE
  5
367
330
35D
100
AcDbEntity
  8
LC-001-100-D00-0
 62
     7
370
    50
100
AcDbLine
 10
140.943924
 20
238.967468
 30
0.0
 11
140.461482
 21
238.967468
 31
0.0
  0
LINE
  5
368
330
35D
100
AcDbEntity
  8
LC-001-100-D00-0
 62
     7
370
    50
100
AcDbLine
 10
140.461482
 20
238.967468
 30
0.0
 11
140.461482
 21
238.967468
 31
0.0
  0
LINE
  5
369
330
35D
100
AcDbEntity
  8
LC-001-100-D00-0
 62
     7
370
    50
100
AcDbLine
 10
140.461482
 20
238.967468
 30
0.0
 11
140.056523
 21
238.967468
 31
0.0
  0
LINE
  5
36A
330
35D
100
AcDbEntity
  8
LC-001-100-D00-0
 62
     7
370
    50
100
AcDbLine
 10
140.056523
 20
238.967468
 30
0.0
 11
140.056523
 21
238.967468
 31
0.0
  0
LINE
  5
36B
330
35D
100
AcDbEntity
  8
LC-001-100-D00-0
 62
     7
370
    50
100
AcDbLine
 10
140.056523
 20
238.967468
 30
0.0
 11
139.796392
 21
238.967468
 31
0.0
  0
LINE
  5
36C
330
35D
100
AcDbEntity
  8
LC-001-100-D00-0
 62
     7
370
    50
100
AcDbLine
 10
139.796392
 20
238.967468
 30
0.0
 11
139.796392
 21
238.967468
 31
0.0
  0
LINE
  5
36D
330
35D
100
AcDbEntity
  8
LC-001-100-D00-0
 62
     7
370
    50
100
AcDbLine
 10
139.796392
 20
238.967468
 30
0.0
 11
139.681031
 21
238.967468
 31
0.0
  0
LINE
  5
36E
330
35D
100
AcDbEntity
  8
LC-001-100-D00-0
 62
     7
370
    50
100
AcDbLine
 10
139.681031
 20
238.967468
 30
0.0
 11
139.681031
 21
238.967468
 31
0.0
  0
LINE
  5
36F
330
35D
100
AcDbEntity
  8
LC-001-100-D00-0
 62
     7
370
    50
100
AcDbLine
 10
139.681031
 20
238.967468
 30
0.0
 11
139.707505
 21
238.967468
 31
0.0
  0
LINE
  5
370
330
35D
100
AcDbEntity
  8
LC-001-100-D00-0
 62
     7
370
    50
100
AcDbLine
 10
139.707505
 20
238.967468
 30
0.0
 11
139.707505
 21
238.967468
 31
0.0
  0
LINE
  5
371
330
35D
100
AcDbEntity
  8
LC-001-100-D00-0
 62
     7
370
    50
100
AcDbLine
 10
139.707505
 20
238.967468
 30
0.0
 11
139.711217
 21
238.967468
 31
0.0
  0
ENDBLK
  5
35F
330
35D
100
AcDbEntity
  8
0
100
AcDbBlockEnd
  0
BLOCK
  5
374
330
373
100
AcDbEntity
  8
0
100
AcDbBlockBegin
  2
POLY29
 70
     0
 71
     0
 10
0.0
 20
0.0
 30
0.0
  3
POLY29
  1

  4
POLY29
  0
LINE
  5
376
330
373
100
AcDbEntity
  8
LC-001-100-D00-0
 62
     7
370
    50
100
AcDbLine
 10
62.15445
 20
238.967468
 30
0.0
 11
62.15445
 21
238.967468
 31
0.0
  0
LINE
  5
377
330
373
100
AcDbEntity
  8
LC-001-100-D00-0
 62
     7
370
    50
100
AcDbLine
 10
62.15445
 20
238.967468
 30
0.0
 11
62.141559
 21
238.967468
 31
0.0
  0
LINE
  5
378
330
373
100
AcDbEntity
  8
LC-001-100-D00-0
 62
     7
370
    50
100
AcDbLine
 10
62.141559
 20
238.967468
 30
0.0
 11
62.141559
 21
238.967468
 31
0.0
  0
LINE
  5
379
330
373
100
AcDbEntity
  8
LC-001-100-D00-0
 62
     7
370
    50
100
AcDbLine
 10
62.141559
 20
238.967468
 30
0.0
 11
62.114946
 21
238.967468
 31
0.0
  0
LINE
  5
37A
330
373
100
AcDbEntity
  8
LC-001-100-D00-0
 62
     7
370
    50
100
AcDbLine
 10
62.114946
 20
238.967468
 30
0.0
 11
62.114946
 21
238.967468
 31
0.0
  0
LINE
  5
37B
330
373
100
AcDbEntity
  8
LC-001-100-D00-0
 62
     7
370
    50
100
AcDbLine
 10
62.114946
 20
238.967468
 30
0.0
 11
61.868509
 21
238.967468
 31
0.0
  0
LINE
  5
37C
330
373
100
AcDbEntity
  8
LC-001-100-D00-0
 62
     7
370
    50
100
AcDbLine
 10
61.868509
 20
238.967468
 30
0.0
 11
61.868509
 21
238.967468
 31
0.0
  0
LINE
  5
37D
330
373
100
AcDbEntity
  8
LC-001-100-D00-0
 62
     7
370
    50
100
AcDbLine
 10
61.868509
 20
238.967468
 30
0.0
 11
61.494721
 21
238.967468
 31
0.0
  0
LINE
  5
37E
330
373
100
AcDbEntity
  8
LC-001-100-D00-0
 62
     7
370
    50
100
AcDbLine
 10
61.494721
 20
238.967468
 30
0.0
 11
61.494721
 21
238.967468
 31
0.0
  0
LINE
  5
37F
330
373
100
AcDbEntity
  8
LC-001-100-D00-0
 62
     7
370
    50
100
AcDbLine
 10
61.494721
 20
238.967468
 30
0.0
 11
61.022734
 21
238.967468
 31
0.0
  0
LINE
  5
380
330
373
100
AcDbEntity
  8
LC-001-100-D00-0
 62
     7
370
    50
100
AcDbLine
 10
61.022734
 20
238.967468
 30
0.0
 11
61.022734
 21
238.967468
 31
0.0
  0
LINE
  5
381
330
373
100
AcDbEntity
  8
LC-001-100-D00-0
 62
     7
370
    50
100
AcDbLine
 10
61.022734
 20
238.967468
 30
0.0
 11
60.511738
 21
238.967468
 31
0.0
  0
LINE
  5
382
330
373
100
AcDbEntity
  8
LC-001-100-D00-0
 62
     7
370
    50
100
AcDbLine
 10
60.511738
 20
238.967468
 30
0.0
 11
60.511738
 21
238.967468
 31
0.0
  0
LINE
  5
383
330
373
100
AcDbEntity
  8
LC-001-100-D00-0
 62
     7
370
    50
100
AcDbLine
 10
60.511738
 20
238.967468
 30
0.0
 11
60.143482
 21
238.967468
 31
0.0
  0
LINE
  5
384
330
373
100
AcDbEntity
  8
LC-001-100-D00-0
 62
     7
370
    50
100
AcDbLine
 10
60.143482
 20
238.967468
 30
0.0
 11
60.143482
 21
238.967468
 31
0.0
  0
LINE
  5
385
330
373
100
AcDbEntity
  8
LC-001-100-D00-0
 62
     7
370
    50
100
AcDbLine
 10
60.143482
 20
238.967468
 30
0.0
 11
59.962617
 21
238.967468
 31
0.0
  0
LINE
  5
386
330
373
100
AcDbEntity
  8
LC-001-100-D00-0
 62
     7
370
    50
100
AcDbLine
 10
59.962617
 20
238.967468
 30
0.0
 11
59.962617
 21
238.967468
 31
0.0
  0
LINE
  5
387
330
373
100
AcDbEntity
  8
LC-001-100-D00-0
 62
     7
370
    50
100
AcDbLine
 10
59.962617
 20
238.967468
 30
0.0
 11
59.930318
 21
238.967468
 31
0.0
  0
ENDBLK
  5
375
330
373
100
AcDbEntity
  8
0
100
AcDbBlockEnd
  0
BLOCK
  5
38A
330
389
100
AcDbEntity
  8
0
100
AcDbBlockBegin
  2
POLY30
 70
     0
 71
     0
 10
0.0
 20
0.0
 30
0.0
  3
POLY30
  1

  4
POLY30
  0
LINE
  5
38C
330
389
100
AcDbEntity
  8
LC-001-100-D00-0
 62
     7
370
    50
100
AcDbLine
 10
124.178332
 20
240.467329
 30
0.0
 11
124.178332
 21
240.467329
 31
0.0
  0
LINE
  5
38D
330
389
100
AcDbEntity
  8
LC-001-100-D00-0
 62
     7
370
    50
100
AcDbLine
 10
124.178332
 20
240.467329
 30
0.0
 11
124.178705
 21
240.467374
 31
0.0
  0
LINE
  5
38E
330
389
100
AcDbEntity
  8
LC-001-100-D00-0
 62
     7
370
    50
100
AcDbLine
 10
124.178705
 20
240.467374
 30
0.0
 11
124.178705
 21
240.467374
 31
0.0
  0
LINE
  5
38F
330
389
100
AcDbEntity
  8
LC-001-100-D00-0
 62
     7
370
    50
100
AcDbLine
 10
124.178705
 20
240.467374
 30
0.0
 11
124.323944
 21
240.484825
 31
0.0
  0
LINE
  5
390
330
389
100
AcDbEntity
  8
LC-001-100-D00-0
 62
     7
370
    50
100
AcDbLine
 10
124.323944
 20
240.484825
 30
0.0
 11
124.323944
 21
240.484825
 31
0.0
  0
LINE
  5
391
330
389
100
AcDbEntity
  8
LC-001-100-D00-0
 62
     7
370
    50
100
AcDbLine
 10
124.323944
 20
240.484825
 30
0.0
 11
124.616969
 21
240.402056
 31
0.0
  0
LINE
  5
392
330
389
100
AcDbEntity
  8
LC-001-100-D00-0
 62
     7
370
    50
100
AcDbLine
 10
124.616969
 20
240.402056
 30
0.0
 11
124.616969
 21
240.402056
 31
0.0
  0
LINE
  5
393
330
389
100
AcDbEntity
  8
LC-001-100-D00-0
 62
     7
370
    50
100
AcDbLine
 10
124.616969
 20
240.402056
 30
0.0
 11
125.001801
 21
240.163559
 31
0.0
  0
LINE
  5
394
330
389
100
AcDbEntity
  8
LC-001-100-D00-0
 62
     7
370
    50
100
AcDbLine
 10
125.001801
 20
240.163559
 30
0.0
 11
125.001801
 21
240.163559
 31
0.0
  0
LINE
  5
395
330
389
100
AcDbEntity
  8
LC-001-100-D00-0
 62
     7
370
    50
100
AcDbLine
 10
125.001801
 20
240.163559
 30
0.0
 11
125.291452
 21
239.777789
 31
0.0
  0
LINE
  5
396
330
389
100
AcDbEntity
  8
LC-001-100-D00-0
 62
     7
370
    50
100
AcDbLine
 10
125.291452
 20
239.777789
 30
0.0
 11
125.291452
 21
239.777789
 31
0.0
  0
LINE
  5
397
330
389
100
AcDbEntity
  8
LC-001-100-D00-0
 62
     7
370
    50
100
AcDbLine
 10
125.291452
 20
239.777789
 30
0.0
 11
125.444414
 21
239.357282
 31
0.0
  0
LINE
  5
398
330
389
100
AcDbEntity
  8
LC-001-100-D00-0
 62
     7
370
    50
100
AcDbLine
 10
125.444414
 20
239.357282
 30
0.0
 11
125.444414
 21
239.357282
 31
0.0
  0
LINE
  5
399
330
389
100
AcDbEntity
  8
LC-001-100-D00-0
 62
     7
370
    50
100
AcDbLine
 10
125.444414
 20
239.357282
 30
0.0
 11
125.460023
 21
239.078288
 31
0.0
  0
LINE
  5
39A
330
389
100
AcDbEntity
  8
LC-001-100-D00-0
 62
     7
370
    50
100
AcDbLine
 10
125.460023
 20
239.078288
 30
0.0
 11
125.460023
 21
239.078288
 31
0.0
  0
LINE
  5
39B
330
389
100
AcDbEntity
  8
LC-001-100-D00-0
 62
     7
370
    50
100
AcDbLine
 10
125.460023
 20
239.078288
 30
0.0
 11
125.466223
 21
238.967468
 31
0.0
  0
ENDBLK
  5
38B
330
389
100
AcDbEntity
  8
0
100
AcDbBlockEnd
  0
BLOCK
  5
39E
330
39D
100
AcDbEntity
  8
0
100
AcDbBlockBegin
  2
POLY31
 70
     0
 71
     0
 10
0.0
 20
0.0
 30
0.0
  3
POLY31
  1

  4
POLY31
  0
LINE
  5
3A0
330
39D
100
AcDbEntity
  8
LC-001-100-D00-0
 62
     7
370
    50
100
AcDbLine
 10
99.429646
 20
238.967468
 30
0.0
 11
99.429646
 21
238.967468
 31
0.0
  0
LINE
  5
3A1
330
39D
100
AcDbEntity
  8
LC-001-100-D00-0
 62
     7
370
    50
100
AcDbLine
 10
99.429646
 20
238.967468
 30
0.0
 11
99.446217
 21
239.13613
 31
0.0
  0
LINE
  5
3A2
330
39D
100
AcDbEntity
  8
LC-001-100-D00-0
 62
     7
370
    50
100
AcDbLine
 10
99.446217
 20
239.13613
 30
0.0
 11
99.446217
 21
239.13613
 31
0.0
  0
LINE
  5
3A3
330
39D
100
AcDbEntity
  8
LC-001-100-D00-0
 62
     7
370
    50
100
AcDbLine
 10
99.446217
 20
239.13613
 30
0.0
 11
99.479359
 21
239.473451
 31
0.0
  0
LINE
  5
3A4
330
39D
100
AcDbEntity
  8
LC-001-100-D00-0
 62
     7
370
    50
100
AcDbLine
 10
99.479359
 20
239.473451
 30
0.0
 11
99.479359
 21
239.473451
 31
0.0
  0
LINE
  5
3A5
330
39D
100
AcDbEntity
  8
LC-001-100-D00-0
 62
     7
370
    50
100
AcDbLine
 10
99.479359
 20
239.473451
 30
0.0
 11
99.737866
 21
239.922384
 31
0.0
  0
LINE
  5
3A6
330
39D
100
AcDbEntity
  8
LC-001-100-D00-0
 62
     7
370
    50
100
AcDbLine
 10
99.737866
 20
239.922384
 30
0.0
 11
99.737866
 21
239.922384
 31
0.0
  0
LINE
  5
3A7
330
39D
100
AcDbEntity
  8
LC-001-100-D00-0
 62
     7
370
    50
100
AcDbLine
 10
99.737866
 20
239.922384
 30
0.0
 11
100.118315
 21
240.263707
 31
0.0
  0
LINE
  5
3A8
330
39D
100
AcDbEntity
  8
LC-001-100-D00-0
 62
     7
370
    50
100
AcDbLine
 10
100.118315
 20
240.263707
 30
0.0
 11
100.118315
 21
240.263707
 31
0.0
  0
LINE
  5
3A9
330
39D
100
AcDbEntity
  8
LC-001-100-D00-0
 62
     7
370
    50
100
AcDbLine
 10
100.118315
 20
240.263707
 30
0.0
 11
100.540202
 21
240.436581
 31
0.0
  0
LINE
  5
3AA
330
39D
100
AcDbEntity
  8
LC-001-100-D00-0
 62
     7
370
    50
100
AcDbLine
 10
100.540202
 20
240.436581
 30
0.0
 11
100.540202
 21
240.436581
 31
0.0
  0
LINE
  5
3AB
330
39D
100
AcDbEntity
  8
LC-001-100-D00-0
 62
     7
370
    50
100
AcDbLine
 10
100.540202
 20
240.436581
 30
0.0
 11
100.986575
 21
240.486197
 31
0.0
  0
LINE
  5
3AC
330
39D
100
AcDbEntity
  8
LC-001-100-D00-0
 62
     7
370
    50
100
AcDbLine
 10
100.986575
 20
240.486197
 30
0.0
 11
100.986575
 21
240.486197
 31
0.0
  0
LINE
  5
3AD
330
39D
100
AcDbEntity
  8
LC-001-100-D00-0
 62
     7
370
    50
100
AcDbLine
 10
100.986575
 20
240.486197
 30
0.0
 11
101.435299
 21
240.410115
 31
0.0
  0
LINE
  5
3AE
330
39D
100
AcDbEntity
  8
LC-001-100-D00-0
 62
     7
370
    50
100
AcDbLine
 10
101.435299
 20
240.410115
 30
0.0
 11
101.435299
 21
240.410115
 31
0.0
  0
LINE
  5
3AF
330
39D
100
AcDbEntity
  8
LC-001-100-D00-0
 62
     7
370
    50
100
AcDbLine
 10
101.435299
 20
240.410115
 30
0.0
 11
101.884475
 21
240.161398
 31
0.0
  0
LINE
  5
3B0
330
39D
100
AcDbEntity
  8
LC-001-100-D00-0
 62
     7
370
    50
100
AcDbLine
 10
101.884475
 20
240.161398
 30
0.0
 11
101.884475
 21
240.161398
 31
0.0
  0
LINE
  5
3B1
330
39D
100
AcDbEntity
  8
LC-001-100-D00-0
 62
     7
370
    50
100
AcDbLine
 10
101.884475
 20
240.161398
 30
0.0
 11
102.223695
 21
239.778373
 31
0.0
  0
LINE
  5
3B2
330
39D
100
AcDbEntity
  8
LC-001-100-D00-0
 62
     7
370
    50
100
AcDbLine
 10
102.223695
 20
239.778373
 30
0.0
 11
102.223695
 21
239.778373
 31
0.0
  0
LINE
  5
3B3
330
39D
100
AcDbEntity
  8
LC-001-100-D00-0
 62
     7
370
    50
100
AcDbLine
 10
102.223695
 20
239.778373
 30
0.0
 11
102.403595
 21
239.357192
 31
0.0
  0
LINE
  5
3B4
330
39D
100
AcDbEntity
  8
LC-001-100-D00-0
 62
     7
370
    50
100
AcDbLine
 10
102.403595
 20
239.357192
 30
0.0
 11
102.403595
 21
239.357192
 31
0.0
  0
LINE
  5
3B5
330
39D
100
AcDbEntity
  8
LC-001-100-D00-0
 62
     7
370
    50
100
AcDbLine
 10
102.403595
 20
239.357192
 30
0.0
 11
102.421961
 21
239.078262
 31
0.0
  0
LINE
  5
3B6
330
39D
100
AcDbEntity
  8
LC-001-100-D00-0
 62
     7
370
    50
100
AcDbLine
 10
102.421961
 20
239.078262
 30
0.0
 11
102.421961
 21
239.078262
 31
0.0
  0
LINE
  5
3B7
330
39D
100
AcDbEntity
  8
LC-001-100-D00-0
 62
     7
370
    50
100
AcDbLine
 10
102.421961
 20
239.078262
 30
0.0
 11
102.429256
 21
238.967468
 31
0.0
  0
ENDBLK
  5
39F
330
39D
100
AcDbEntity
  8
0
100
AcDbBlockEnd
  0
BLOCK
  5
3BA
330
3B9
100
AcDbEntity
  8
0
100
AcDbBlockBegin
  2
POLY32
 70
     0
 71
     0
 10
0.0
 20
0.0
 30
0.0
  3
POLY32
  1

  4
POLY32
  0
LINE
  5
3BC
330
3B9
100
AcDbEntity
  8
LC-001-100-D00-0
 62
     7
370
    50
100
AcDbLine
 10
76.392679
 20
238.967468
 30
0.0
 11
76.392679
 21
238.967468
 31
0.0
  0
LINE
  5
3BD
330
3B9
100
AcDbEntity
  8
LC-001-100-D00-0
 62
     7
370
    50
100
AcDbLine
 10
76.392679
 20
238.967468
 30
0.0
 11
76.406756
 21
239.136093
 31
0.0
  0
LINE
  5
3BE
330
3B9
100
AcDbEntity
  8
LC-001-100-D00-0
 62
     7
370
    50
100
AcDbLine
 10
76.406756
 20
239.136093
 30
0.0
 11
76.406756
 21
239.136093
 31
0.0
  0
LINE
  5
3BF
330
3B9
100
AcDbEntity
  8
LC-001-100-D00-0
 62
     7
370
    50
100
AcDbLine
 10
76.406756
 20
239.136093
 30
0.0
 11
76.434911
 21
239.47334
 31
0.0
  0
LINE
  5
3C0
330
3B9
100
AcDbEntity
  8
LC-001-100-D00-0
 62
     7
370
    50
100
AcDbLine
 10
76.434911
 20
239.47334
 30
0.0
 11
76.434911
 21
239.47334
 31
0.0
  0
LINE
  5
3C1
330
3B9
100
AcDbEntity
  8
LC-001-100-D00-0
 62
     7
370
    50
100
AcDbLine
 10
76.434911
 20
239.47334
 30
0.0
 11
76.65494
 21
239.922827
 31
0.0
  0
LINE
  5
3C2
330
3B9
100
AcDbEntity
  8
LC-001-100-D00-0
 62
     7
370
    50
100
AcDbLine
 10
76.65494
 20
239.922827
 30
0.0
 11
76.65494
 21
239.922827
 31
0.0
  0
LINE
  5
3C3
330
3B9
100
AcDbEntity
  8
LC-001-100-D00-0
 62
     7
370
    50
100
AcDbLine
 10
76.65494
 20
239.922827
 30
0.0
 11
76.980243
 21
240.262043
 31
0.0
  0
LINE
  5
3C4
330
3B9
100
AcDbEntity
  8
LC-001-100-D00-0
 62
     7
370
    50
100
AcDbLine
 10
76.980243
 20
240.262043
 30
0.0
 11
76.980243
 21
240.262043
 31
0.0
  0
LINE
  5
3C5
330
3B9
100
AcDbEntity
  8
LC-001-100-D00-0
 62
     7
370
    50
100
AcDbLine
 10
76.980243
 20
240.262043
 30
0.0
 11
77.342328
 21
240.441725
 31
0.0
  0
LINE
  5
3C6
330
3B9
100
AcDbEntity
  8
LC-001-100-D00-0
 62
     7
370
    50
100
AcDbLine
 10
77.342328
 20
240.441725
 30
0.0
 11
77.342328
 21
240.441725
 31
0.0
  0
LINE
  5
3C7
330
3B9
100
AcDbEntity
  8
LC-001-100-D00-0
 62
     7
370
    50
100
AcDbLine
 10
77.342328
 20
240.441725
 30
0.0
 11
77.583041
 21
240.460067
 31
0.0
  0
LINE
  5
3C8
330
3B9
100
AcDbEntity
  8
LC-001-100-D00-0
 62
     7
370
    50
100
AcDbLine
 10
77.583041
 20
240.460067
 30
0.0
 11
77.583041
 21
240.460067
 31
0.0
  0
LINE
  5
3C9
330
3B9
100
AcDbEntity
  8
LC-001-100-D00-0
 62
     7
370
    50
100
AcDbLine
 10
77.583041
 20
240.460067
 30
0.0
 11
77.678361
 21
240.467329
 31
0.0
  0
ENDBLK
  5
3BB
330
3B9
100
AcDbEntity
  8
0
100
AcDbBlockEnd
  0
BLOCK
  5
3D9
330
3D8
100
AcDbEntity
  8
0
100
AcDbBlockBegin
  2
POLY33
 70
     0
 71
     0
 10
0.0
 20
0.0
 30
0.0
  3
POLY33
  1

  4
POLY33
  0
LINE
  5
3DB
330
3D8
100
AcDbEntity
  8
LC-001-100-D00-0
 62
     7
370
    50
100
AcDbLine
 10
125.466223
 20
238.967468
 30
0.0
 11
125.466223
 21
238.967468
 31
0.0
  0
LINE
  5
3DC
330
3D8
100
AcDbEntity
  8
LC-001-100-D00-0
 62
     7
370
    50
100
AcDbLine
 10
125.466223
 20
238.967468
 30
0.0
 11
125.365313
 21
238.967468
 31
0.0
  0
LINE
  5
3DD
330
3D8
100
AcDbEntity
  8
LC-001-100-D00-0
 62
     7
370
    50
100
AcDbLine
 10
125.365313
 20
238.967468
 30
0.0
 11
125.365313
 21
238.967468
 31
0.0
  0
LINE
  5
3DE
330
3D8
100
AcDbEntity
  8
LC-001-100-D00-0
 62
     7
370
    50
100
AcDbLine
 10
125.365313
 20
238.967468
 30
0.0
 11
125.163494
 21
238.967468
 31
0.0
  0
LINE
  5
3DF
330
3D8
100
AcDbEntity
  8
LC-001-100-D00-0
 62
     7
370
    50
100
AcDbLine
 10
125.163494
 20
238.967468
 30
0.0
 11
125.163494
 21
238.967468
 31
0.0
  0
LINE
  5
3E0
330
3D8
100
AcDbEntity
  8
LC-001-100-D00-0
 62
     7
370
    50
100
AcDbLine
 10
125.163494
 20
238.967468
 30
0.0
 11
124.710976
 21
238.967468
 31
0.0
  0
LINE
  5
3E1
330
3D8
100
AcDbEntity
  8
LC-001-100-D00-0
 62
     7
370
    50
100
AcDbLine
 10
124.710976
 20
238.967468
 30
0.0
 11
124.710976
 21
238.967468
 31
0.0
  0
LINE
  5
3E2
330
3D8
100
AcDbEntity
  8
LC-001-100-D00-0
 62
     7
370
    50
100
AcDbLine
 10
124.710976
 20
238.967468
 30
0.0
 11
124.208836
 21
238.967468
 31
0.0
  0
LINE
  5
3E3
330
3D8
100
AcDbEntity
  8
LC-001-100-D00-0
 62
     7
370
    50
100
AcDbLine
 10
124.208836
 20
238.967468
 30
0.0
 11
124.208836
 21
238.967468
 31
0.0
  0
LINE
  5
3E4
330
3D8
100
AcDbEntity
  8
LC-001-100-D00-0
 62
     7
370
    50
100
AcDbLine
 10
124.208836
 20
238.967468
 30
0.0
 11
123.701021
 21
238.967468
 31
0.0
  0
LINE
  5
3E5
330
3D8
100
AcDbEntity
  8
LC-001-100-D00-0
 62
     7
370
    50
100
AcDbLine
 10
123.701021
 20
238.967468
 30
0.0
 11
123.701021
 21
238.967468
 31
0.0
  0
LINE
  5
3E6
330
3D8
100
AcDbEntity
  8
LC-001-100-D00-0
 62
     7
370
    50
100
AcDbLine
 10
123.701021
 20
238.967468
 30
0.0
 11
123.246287
 21
238.967468
 31
0.0
  0
LINE
  5
3E7
330
3D8
100
AcDbEntity
  8
LC-001-100-D00-0
 62
     7
370
    50
100
AcDbLine
 10
123.246287
 20
238.967468
 30
0.0
 11
123.246287
 21
238.967468
 31
0.0
  0
LINE
  5
3E8
330
3D8
100
AcDbEntity
  8
LC-001-100-D00-0
 62
     7
370
    50
100
AcDbLine
 10
123.246287
 20
238.967468
 30
0.0
 11
122.902556
 21
238.967468
 31
0.0
  0
LINE
  5
3E9
330
3D8
100
AcDbEntity
  8
LC-001-100-D00-0
 62
     7
370
    50
100
AcDbLine
 10
122.902556
 20
238.967468
 30
0.0
 11
122.902556
 21
238.967468
 31
0.0
  0
LINE
  5
3EA
330
3D8
100
AcDbEntity
  8
LC-001-100-D00-0
 62
     7
370
    50
100
AcDbLine
 10
122.902556
 20
238.967468
 30
0.0
 11
122.701878
 21
238.967468
 31
0.0
  0
LINE
  5
3EB
330
3D8
100
AcDbEntity
  8
LC-001-100-D00-0
 62
     7
370
    50
100
AcDbLine
 10
122.701878
 20
238.967468
 30
0.0
 11
122.701878
 21
238.967468
 31
0.0
  0
LINE
  5
3EC
330
3D8
100
AcDbEntity
  8
LC-001-100-D00-0
 62
     7
370
    50
100
AcDbLine
 10
122.701878
 20
238.967468
 30
0.0
 11
122.698388
 21
238.967468
 31
0.0
  0
LINE
  5
3ED
330
3D8
100
AcDbEntity
  8
LC-001-100-D00-0
 62
     7
370
    50
100
AcDbLine
 10
122.698388
 20
238.967468
 30
0.0
 11
122.698388
 21
238.967468
 31
0.0
  0
LINE
  5
3EE
330
3D8
100
AcDbEntity
  8
LC-001-100-D00-0
 62
     7
370
    50
100
AcDbLine
 10
122.698388
 20
238.967468
 30
0.0
 11
122.696939
 21
238.967468
 31
0.0
  0
ENDBLK
  5
3DA
330
3D8
100
AcDbEntity
  8
0
100
AcDbBlockEnd
  0
BLOCK
  5
3F1
330
3F0
100
AcDbEntity
  8
0
100
AcDbBlockBegin
  2
POLY34
 70
     0
 71
     0
 10
0.0
 20
0.0
 30
0.0
  3
POLY34
  1

  4
POLY34
  0
LINE
  5
3F3
330
3F0
100
AcDbEntity
  8
LC-001-100-D00-0
 62
     7
370
    50
100
AcDbLine
 10
79.158161
 20
238.967468
 30
0.0
 11
79.158161
 21
238.967468
 31
0.0
  0
LINE
  5
3F4
330
3F0
100
AcDbEntity
  8
LC-001-100-D00-0
 62
     7
370
    50
100
AcDbLine
 10
79.158161
 20
238.967468
 30
0.0
 11
79.162312
 21
238.967468
 31
0.0
  0
LINE
  5
3F5
330
3F0
100
AcDbEntity
  8
LC-001-100-D00-0
 62
     7
370
    50
100
AcDbLine
 10
79.162312
 20
238.967468
 30
0.0
 11
79.162312
 21
238.967468
 31
0.0
  0
LINE
  5
3F6
330
3F0
100
AcDbEntity
  8
LC-001-100-D00-0
 62
     7
370
    50
100
AcDbLine
 10
79.162312
 20
238.967468
 30
0.0
 11
79.174832
 21
238.967468
 31
0.0
  0
LINE
  5
3F7
330
3F0
100
AcDbEntity
  8
LC-001-100-D00-0
 62
     7
370
    50
100
AcDbLine
 10
79.174832
 20
238.967468
 30
0.0
 11
79.174832
 21
238.967468
 31
0.0
  0
LINE
  5
3F8
330
3F0
100
AcDbEntity
  8
LC-001-100-D00-0
 62
     7
370
    50
100
AcDbLine
 10
79.174832
 20
238.967468
 30
0.0
 11
79.012026
 21
238.967468
 31
0.0
  0
LINE
  5
3F9
330
3F0
100
AcDbEntity
  8
LC-001-100-D00-0
 62
     7
370
    50
100
AcDbLine
 10
79.012026
 20
238.967468
 30
0.0
 11
79.012026
 21
238.967468
 31
0.0
  0
LINE
  5
3FA
330
3F0
100
AcDbEntity
  8
LC-001-100-D00-0
 62
     7
370
    50
100
AcDbLine
 10
79.012026
 20
238.967468
 30
0.0
 11
78.699034
 21
238.967468
 31
0.0
  0
LINE
  5
3FB
330
3F0
100
AcDbEntity
  8
LC-001-100-D00-0
 62
     7
370
    50
100
AcDbLine
 10
78.699034
 20
238.967468
 30
0.0
 11
78.699034
 21
238.967468
 31
0.0
  0
LINE
  5
3FC
330
3F0
100
AcDbEntity
  8
LC-001-100-D00-0
 62
     7
370
    50
100
AcDbLine
 10
78.699034
 20
238.967468
 30
0.0
 11
78.262245
 21
238.967468
 31
0.0
  0
LINE
  5
3FD
330
3F0
100
AcDbEntity
  8
LC-001-100-D00-0
 62
     7
370
    50
100
AcDbLine
 10
78.262245
 20
238.967468
 30
0.0
 11
78.262245
 21
238.967468
 31
0.0
  0
LINE
  5
3FE
330
3F0
100
AcDbEntity
  8
LC-001-100-D00-0
 62
     7
370
    50
100
AcDbLine
 10
78.262245
 20
238.967468
 30
0.0
 11
77.762205
 21
238.967468
 31
0.0
  0
LINE
  5
3FF
330
3F0
100
AcDbEntity
  8
LC-001-100-D00-0
 62
     7
370
    50
100
AcDbLine
 10
77.762205
 20
238.967468
 30
0.0
 11
77.762205
 21
238.967468
 31
0.0
  0
LINE
  5
400
330
3F0
100
AcDbEntity
  8
LC-001-100-D00-0
 62
     7
370
    50
100
AcDbLine
 10
77.762205
 20
238.967468
 30
0.0
 11
77.251867
 21
238.967468
 31
0.0
  0
LINE
  5
401
330
3F0
100
AcDbEntity
  8
LC-001-100-D00-0
 62
     7
370
    50
100
AcDbLine
 10
77.251867
 20
238.967468
 30
0.0
 11
77.251867
 21
238.967468
 31
0.0
  0
LINE
  5
402
330
3F0
100
AcDbEntity
  8
LC-001-100-D00-0
 62
     7
370
    50
100
AcDbLine
 10
77.251867
 20
238.967468
 30
0.0
 11
76.791151
 21
238.967468
 31
0.0
  0
LINE
  5
403
330
3F0
100
AcDbEntity
  8
LC-001-100-D00-0
 62
     7
370
    50
100
AcDbLine
 10
76.791151
 20
238.967468
 30
0.0
 11
76.791151
 21
238.967468
 31
0.0
  0
LINE
  5
404
330
3F0
100
AcDbEntity
  8
LC-001-100-D00-0
 62
     7
370
    50
100
AcDbLine
 10
76.791151
 20
238.967468
 30
0.0
 11
76.521176
 21
238.967468
 31
0.0
  0
LINE
  5
405
330
3F0
100
AcDbEntity
  8
LC-001-100-D00-0
 62
     7
370
    50
100
AcDbLine
 10
76.521176
 20
238.967468
 30
0.0
 11
76.521176
 21
238.967468
 31
0.0
  0
LINE
  5
406
330
3F0
100
AcDbEntity
  8
LC-001-100-D00-0
 62
     7
370
    50
100
AcDbLine
 10
76.521176
 20
238.967468
 30
0.0
 11
76.412149
 21
238.967468
 31
0.0
  0
LINE
  5
407
330
3F0
100
AcDbEntity
  8
LC-001-100-D00-0
 62
     7
370
    50
100
AcDbLine
 10
76.412149
 20
238.967468
 30
0.0
 11
76.412149
 21
238.967468
 31
0.0
  0
LINE
  5
408
330
3F0
100
AcDbEntity
  8
LC-001-100-D00-0
 62
     7
370
    50
100
AcDbLine
 10
76.412149
 20
238.967468
 30
0.0
 11
76.392679
 21
238.967468
 31
0.0
  0
ENDBLK
  5
3F2
330
3F0
100
AcDbEntity
  8
0
100
AcDbBlockEnd
  0
BLOCK
  5
40B
330
40A
100
AcDbEntity
  8
0
100
AcDbBlockBegin
  2
POLY35
 70
     0
 71
     0
 10
0.0
 20
0.0
 30
0.0
  3
POLY35
  1

  4
POLY35
  0
LINE
  5
40D
330
40A
100
AcDbEntity
  8
LC-001-100-D00-0
 62
     7
370
    50
100
AcDbLine
 10
102.429256
 20
238.967468
 30
0.0
 11
102.429256
 21
238.967468
 31
0.0
  0
LINE
  5
40E
330
40A
100
AcDbEntity
  8
LC-001-100-D00-0
 62
     7
370
    50
100
AcDbLine
 10
102.429256
 20
238.967468
 30
0.0
 11
102.409953
 21
238.967468
 31
0.0
  0
LINE
  5
40F
330
40A
100
AcDbEntity
  8
LC-001-100-D00-0
 62
     7
370
    50
100
AcDbLine
 10
102.409953
 20
238.967468
 30
0.0
 11
102.409953
 21
238.967468
 31
0.0
  0
LINE
  5
410
330
40A
100
AcDbEntity
  8
LC-001-100-D00-0
 62
     7
370
    50
100
AcDbLine
 10
102.409953
 20
238.967468
 30
0.0
 11
102.371347
 21
238.967468
 31
0.0
  0
LINE
  5
411
330
40A
100
AcDbEntity
  8
LC-001-100-D00-0
 62
     7
370
    50
100
AcDbLine
 10
102.371347
 20
238.967468
 30
0.0
 11
102.371347
 21
238.967468
 31
0.0
  0
LINE
  5
412
330
40A
100
AcDbEntity
  8
LC-001-100-D00-0
 62
     7
370
    50
100
AcDbLine
 10
102.371347
 20
238.967468
 30
0.0
 11
102.105567
 21
238.967468
 31
0.0
  0
LINE
  5
413
330
40A
100
AcDbEntity
  8
LC-001-100-D00-0
 62
     7
370
    50
100
AcDbLine
 10
102.105567
 20
238.967468
 30
0.0
 11
102.105567
 21
238.967468
 31
0.0
  0
LINE
  5
414
330
40A
100
AcDbEntity
  8
LC-001-100-D00-0
 62
     7
370
    50
100
AcDbLine
 10
102.105567
 20
238.967468
 30
0.0
 11
101.719328
 21
238.967468
 31
0.0
  0
LINE
  5
415
330
40A
100
AcDbEntity
  8
LC-001-100-D00-0
 62
     7
370
    50
100
AcDbLine
 10
101.719328
 20
238.967468
 30
0.0
 11
101.719328
 21
238.967468
 31
0.0
  0
LINE
  5
416
330
40A
100
AcDbEntity
  8
LC-001-100-D00-0
 62
     7
370
    50
100
AcDbLine
 10
101.719328
 20
238.967468
 30
0.0
 11
101.240791
 21
238.967468
 31
0.0
  0
LINE
  5
417
330
40A
100
AcDbEntity
  8
LC-001-100-D00-0
 62
     7
370
    50
100
AcDbLine
 10
101.240791
 20
238.967468
 30
0.0
 11
101.240791
 21
238.967468
 31
0.0
  0
LINE
  5
418
330
40A
100
AcDbEntity
  8
LC-001-100-D00-0
 62
     7
370
    50
100
AcDbLine
 10
101.240791
 20
238.967468
 30
0.0
 11
100.727999
 21
238.967468
 31
0.0
  0
LINE
  5
419
330
40A
100
AcDbEntity
  8
LC-001-100-D00-0
 62
     7
370
    50
100
AcDbLine
 10
100.727999
 20
238.967468
 30
0.0
 11
100.727999
 21
238.967468
 31
0.0
  0
LINE
  5
41A
330
40A
100
AcDbEntity
  8
LC-001-100-D00-0
 62
     7
370
    50
100
AcDbLine
 10
100.727999
 20
238.967468
 30
0.0
 11
100.237771
 21
238.967468
 31
0.0
  0
LINE
  5
41B
330
40A
100
AcDbEntity
  8
LC-001-100-D00-0
 62
     7
370
    50
100
AcDbLine
 10
100.237771
 20
238.967468
 30
0.0
 11
100.237771
 21
238.967468
 31
0.0
  0
LINE
  5
41C
330
40A
100
AcDbEntity
  8
LC-001-100-D00-0
 62
     7
370
    50
100
AcDbLine
 10
100.237771
 20
238.967468
 30
0.0
 11
99.825271
 21
238.967468
 31
0.0
  0
LINE
  5
41D
330
40A
100
AcDbEntity
  8
LC-001-100-D00-0
 62
     7
370
    50
100
AcDbLine
 10
99.825271
 20
238.967468
 30
0.0
 11
99.825271
 21
238.967468
 31
0.0
  0
LINE
  5
41E
330
40A
100
AcDbEntity
  8
LC-001-100-D00-0
 62
     7
370
    50
100
AcDbLine
 10
99.825271
 20
238.967468
 30
0.0
 11
99.53843
 21
238.967468
 31
0.0
  0
LINE
  5
41F
330
40A
100
AcDbEntity
  8
LC-001-100-D00-0
 62
     7
370
    50
100
AcDbLine
 10
99.53843
 20
238.967468
 30
0.0
 11
99.53843
 21
238.967468
 31
0.0
  0
LINE
  5
420
330
40A
100
AcDbEntity
  8
LC-001-100-D00-0
 62
     7
370
    50
100
AcDbLine
 10
99.53843
 20
238.967468
 30
0.0
 11
99.439051
 21
238.967468
 31
0.0
  0
LINE
  5
421
330
40A
100
AcDbEntity
  8
LC-001-100-D00-0
 62
     7
370
    50
100
AcDbLine
 10
99.439051
 20
238.967468
 30
0.0
 11
99.439051
 21
238.967468
 31
0.0
  0
LINE
  5
422
330
40A
100
AcDbEntity
  8
LC-001-100-D00-0
 62
     7
370
    50
100
AcDbLine
 10
99.439051
 20
238.967468
 30
0.0
 11
99.431071
 21
238.967468
 31
0.0
  0
LINE
  5
423
330
40A
100
AcDbEntity
  8
LC-001-100-D00-0
 62
     7
370
    50
100
AcDbLine
 10
99.431071
 20
238.967468
 30
0.0
 11
99.431071
 21
238.967468
 31
0.0
  0
LINE
  5
424
330
40A
100
AcDbEntity
  8
LC-001-100-D00-0
 62
     7
370
    50
100
AcDbLine
 10
99.431071
 20
238.967468
 30
0.0
 11
99.429646
 21
238.967468
 31
0.0
  0
ENDBLK
  5
40C
330
40A
100
AcDbEntity
  8
0
100
AcDbBlockEnd
  0
BLOCK
  5
428
330
427
100
AcDbEntity
  8
0
100
AcDbBlockBegin
  2
KLON2
 70
     0
 71
     0
 10
0.0
 20
0.0
 30
0.0
  3
KLON2
  1

  4
KLON2
  0
LINE
  5
42A
330
427
100
AcDbEntity
  8
LC-001-100-D00-0
 62
     7
370
    25
100
AcDbLine
 10
163.61167
 20
242.167469
 30
0.0
 11
165.61167
 21
244.167469
 31
0.0
  0
LINE
  5
42B
330
427
100
AcDbEntity
  8
LC-001-100-D00-0
 62
     7
370
    25
100
AcDbLine
 10
154.631414
 20
242.167469
 30
0.0
 11
156.631414
 21
244.167469
 31
0.0
  0
ENDBLK
  5
429
330
427
100
AcDbEntity
  8
0
100
AcDbBlockEnd
  0
BLOCK
  5
42E
330
42D
100
AcDbEntity
  8
0
100
AcDbBlockBegin
  2
KLON3
 70
     0
 71
     0
 10
0.0
 20
0.0
 30
0.0
  3
KLON3
  1

  4
KLON3
  0
LINE
  5
430
330
42D
100
AcDbEntity
  8
LC-001-100-D00-0
 62
     7
370
    25
100
AcDbLine
 10
45.29862
 20
240.597749
 30
0.0
 11
45.740562
 21
241.039691
 31
0.0
  0
LINE
  5
431
330
42D
100
AcDbEntity
  8
LC-001-100-D00-0
 62
     7
370
    25
100
AcDbLine
 10
36.688085
 20
240.967469
 30
0.0
 11
37.188085
 21
241.467469
 31
0.0
  0
LINE
  5
432
330
42D
100
AcDbEntity
  8
LC-001-100-D00-0
 62
     7
370
    25
100
AcDbLine
 10
27.707828
 20
240.967469
 30
0.0
 11
28.207828
 21
241.467469
 31
0.0
  0
LINE
  5
433
330
42D
100
AcDbEntity
  8
LC-001-100-D00-0
 62
     7
370
    25
100
AcDbLine
 10
20.992725
 20
243.232622
 30
0.0
 11
21.346279
 21
243.586176
 31
0.0
  0
LINE
  5
434
330
42D
100
AcDbEntity
  8
LC-001-100-D00-0
 62
     7
370
    25
100
AcDbLine
 10
15.247316
 20
246.467469
 30
0.0
 11
15.747316
 21
246.967469
 31
0.0
  0
LINE
  5
435
330
42D
100
AcDbEntity
  8
LC-001-100-D00-0
 62
     7
370
    25
100
AcDbLine
 10
6.26706
 20
246.467469
 30
0.0
 11
6.76706
 21
246.967469
 31
0.0
  0
LINE
  5
436
330
42D
100
AcDbEntity
  8
LC-001-100-D00-0
 62
     7
370
    25
100
AcDbLine
 10
-2.713196
 20
246.467469
 30
0.0
 11
-2.213196
 21
246.967469
 31
0.0
  0
LINE
  5
437
330
42D
100
AcDbEntity
  8
LC-001-100-D00-0
 62
     7
370
    25
100
AcDbLine
 10
-11.693452
 20
246.467469
 30
0.0
 11
-11.193452
 21
246.967469
 31
0.0
  0
LINE
  5
438
330
42D
100
AcDbEntity
  8
LC-001-100-D00-0
 62
     7
370
    25
100
AcDbLine
 10
-20.673708
 20
246.467469
 30
0.0
 11
-20.173708
 21
246.967469
 31
0.0
  0
ENDBLK
  5
42F
330
42D
100
AcDbEntity
  8
0
100
AcDbBlockEnd
  0
BLOCK
  5
43B
330
43A
100
AcDbEntity
  8
0
100
AcDbBlockBegin
  2
KLON4
 70
     0
 71
     0
 10
0.0
 20
0.0
 30
0.0
  3
KLON4
  1

  4
KLON4
  0
LINE
  5
43D
330
43A
100
AcDbEntity
  8
LC-001-100-D00-0
 62
     7
370
    25
100
AcDbLine
 10
221.793207
 20
246.467469
 30
0.0
 11
222.293207
 21
246.967469
 31
0.0
  0
LINE
  5
43E
330
43A
100
AcDbEntity
  8
LC-001-100-D00-0
 62
     7
370
    25
100
AcDbLine
 10
212.812951
 20
246.467469
 30
0.0
 11
213.312951
 21
246.967469
 31
0.0
  0
LINE
  5
43F
330
43A
100
AcDbEntity
  8
LC-001-100-D00-0
 62
     7
370
    25
100
AcDbLine
 10
203.832695
 20
246.467469
 30
0.0
 11
204.332695
 21
246.967469
 31
0.0
  0
LINE
  5
440
330
43A
100
AcDbEntity
  8
LC-001-100-D00-0
 62
     7
370
    25
100
AcDbLine
 10
194.852439
 20
246.467469
 30
0.0
 11
195.352439
 21
246.967469
 31
0.0
  0
LINE
  5
441
330
43A
100
AcDbEntity
  8
LC-001-100-D00-0
 62
     7
370
    25
100
AcDbLine
 10
185.872183
 20
246.467469
 30
0.0
 11
186.372183
 21
246.967469
 31
0.0
  0
LINE
  5
442
330
43A
100
AcDbEntity
  8
LC-001-100-D00-0
 62
     7
370
    25
100
AcDbLine
 10
171.391926
 20
240.967469
 30
0.0
 11
171.891926
 21
241.467469
 31
0.0
  0
LINE
  5
443
330
43A
100
AcDbEntity
  8
LC-001-100-D00-0
 62
     7
370
    25
100
AcDbLine
 10
162.41167
 20
240.967469
 30
0.0
 11
162.91167
 21
241.467469
 31
0.0
  0
ENDBLK
  5
43C
330
43A
100
AcDbEntity
  8
0
100
AcDbBlockEnd
  0
BLOCK
  5
484
330
483
100
AcDbEntity
  8
0
100
AcDbBlockBegin
  2
*X140
 70
     1
 71
     0
 10
0.0
 20
0.0
 30
0.0
  3
*X140
  1

  4
*X1
  0
LINE
  5
487
330
483
100
AcDbEntity
  8
LC-004-005-----0
 62
     7
370
    25
100
AcDbLine
 10
157.651093
 20
24.715018
 30
0.0
 11
160.179451
 21
27.243376
 31
0.0
  0
LINE
  5
488
330
483
100
AcDbEntity
  8
LC-004-005-----0
 62
     7
370
    25
100
AcDbLine
 10
154.822666
 20
24.715018
 30
0.0
 11
159.822666
 21
29.715018
 31
0.0
  0
LINE
  5
489
330
483
100
AcDbEntity
  8
LC-004-005-----0
 62
     7
370
    25
100
AcDbLine
 10
152.979451
 20
25.70023
 30
0.0
 11
156.994239
 21
29.715018
 31
0.0
  0
LINE
  5
48A
330
483
100
AcDbEntity
  8
LC-004-005-----0
 62
     7
370
    25
100
AcDbLine
 10
152.979451
 20
28.528657
 30
0.0
 11
154.165811
 21
29.715018
 31
0.0
  0
LINE
  5
48B
330
483
100
AcDbEntity
  8
LC-004-005-----0
 62
     7
370
    25
100
AcDbLine
 10
88.626706
 20
37.715018
 30
0.0
 11
91.107607
 21
40.195918
 31
0.0
  0
LINE
  5
48C
330
483
100
AcDbEntity
  8
LC-004-005-----0
 62
     7
370
    25
100
AcDbLine
 10
85.798279
 20
37.715018
 30
0.0
 11
89.720078
 21
41.636817
 31
0.0
  0
LINE
  5
48D
330
483
100
AcDbEntity
  8
LC-004-005-----0
 62
     7
370
    25
100
AcDbLine
 10
82.969852
 20
37.715018
 30
0.0
 11
86.969852
 21
41.715018
 31
0.0
  0
LINE
  5
48E
330
483
100
AcDbEntity
  8
LC-004-005-----0
 62
     7
370
    25
100
AcDbLine
 10
80.141425
 20
37.715018
 30
0.0
 11
84.141425
 21
41.715018
 31
0.0
  0
LINE
  5
48F
330
483
100
AcDbEntity
  8
LC-004-005-----0
 62
     7
370
    25
100
AcDbLine
 10
77.312998
 20
37.715018
 30
0.0
 11
81.312998
 21
41.715018
 31
0.0
  0
LINE
  5
490
330
483
100
AcDbEntity
  8
LC-004-005-----0
 62
     7
370
    25
100
AcDbLine
 10
74.484571
 20
37.715018
 30
0.0
 11
78.484571
 21
41.715018
 31
0.0
  0
LINE
  5
491
330
483
100
AcDbEntity
  8
LC-004-005-----0
 62
     7
370
    25
100
AcDbLine
 10
71.656143
 20
37.715018
 30
0.0
 11
75.656143
 21
41.715018
 31
0.0
  0
LINE
  5
492
330
483
100
AcDbEntity
  8
LC-004-005-----0
 62
     7
370
    25
100
AcDbLine
 10
68.827716
 20
37.715018
 30
0.0
 11
70.827716
 21
39.715018
 31
0.0
  0
LINE
  5
493
330
483
100
AcDbEntity
  8
LC-004-005-----0
 62
     7
370
    25
100
AcDbLine
 10
65.999289
 20
37.715018
 30
0.0
 11
67.999289
 21
39.715018
 31
0.0
  0
LINE
  5
494
330
483
100
AcDbEntity
  8
LC-004-005-----0
 62
     7
370
    25
100
AcDbLine
 10
63.170862
 20
37.715018
 30
0.0
 11
65.170862
 21
39.715018
 31
0.0
  0
LINE
  5
495
330
483
100
AcDbEntity
  8
LC-004-005-----0
 62
     7
370
    25
100
AcDbLine
 10
60.342435
 20
37.715018
 30
0.0
 11
62.342435
 21
39.715018
 31
0.0
  0
LINE
  5
496
330
483
100
AcDbEntity
  8
LC-004-005-----0
 62
     7
370
    25
100
AcDbLine
 10
47.514008
 20
27.715018
 30
0.0
 11
59.514008
 21
39.715018
 31
0.0
  0
LINE
  5
497
330
483
100
AcDbEntity
  8
LC-004-005-----0
 62
     7
370
    25
100
AcDbLine
 10
41.685581
 20
24.715018
 30
0.0
 11
43.179451
 21
26.208888
 31
0.0
  0
LINE
  5
498
330
483
100
AcDbEntity
  8
LC-004-005-----0
 62
     7
370
    25
100
AcDbLine
 10
44.685581
 20
27.715018
 30
0.0
 11
46.685581
 21
29.715018
 31
0.0
  0
LINE
  5
499
330
483
100
AcDbEntity
  8
LC-004-005-----0
 62
     7
370
    25
100
AcDbLine
 10
41.679451
 20
27.537315
 30
0.0
 11
43.857154
 21
29.715018
 31
0.0
  0
ENDBLK
  5
485
330
483
100
AcDbEntity
  8
0
100
AcDbBlockEnd
  0
BLOCK
  5
51A
330
519
100
AcDbEntity
  8
0
100
AcDbBlockBegin
  2
*X241
 70
     1
 71
     0
 10
0.0
 20
0.0
 30
0.0
  3
*X241
  1

  4
*X2
  0
LINE
  5
51C
330
519
100
AcDbEntity
  8
LC-004-005-----0
  6
DASHED
 62
     7
370
    25
100
AcDbLine
 10
45.267056
 20
65.041602
 30
0.0
 11
42.032024
 21
68.276634
 31
0.0
  0
LINE
  5
51D
330
519
100
AcDbEntity
  8
LC-004-005-----0
  6
DASHED
 62
     7
370
    25
100
AcDbLine
 10
44.929451
 20
63.257887
 30
0.0
 11
40.731506
 21
67.455831
 31
0.0
  0
LINE
  5
51E
330
519
100
AcDbEntity
  8
LC-004-005-----0
 62
     7
370
    25
100
AcDbLine
 10
44.929451
 20
59.015246
 30
0.0
 11
39.929451
 21
64.015246
 31
0.0
  0
LINE
  5
51F
330
519
100
AcDbEntity
  8
LC-004-005-----0
 62
     7
370
    25
100
AcDbLine
 10
44.929451
 20
56.893926
 30
0.0
 11
43.61427
 21
58.209106
 31
0.0
  0
LINE
  5
520
330
519
100
AcDbEntity
  8
LC-004-005-----0
 62
     7
370
    25
100
AcDbLine
 10
41.909368
 20
59.914009
 30
0.0
 11
39.929451
 21
61.893926
 31
0.0
  0
LINE
  5
521
330
519
100
AcDbEntity
  8
LC-004-005-----0
  6
DASHED
 62
     7
370
    25
100
AcDbLine
 10
45.713393
 20
51.867343
 30
0.0
 11
40.929339
 21
56.651397
 31
0.0
  0
LINE
  5
522
330
519
100
AcDbEntity
  8
LC-004-005-----0
  6
DASHED
 62
     7
370
    25
100
AcDbLine
 10
44.929451
 20
50.529965
 30
0.0
 11
40.929339
 21
54.530077
 31
0.0
  0
LINE
  5
523
330
519
100
AcDbEntity
  8
LC-004-005-----0
 62
     7
370
    25
100
AcDbLine
 10
42.837394
 20
48.379381
 30
0.0
 11
39.929339
 21
51.287436
 31
0.0
  0
ENDBLK
  5
51B
330
519
100
AcDbEntity
  8
0
100
AcDbBlockEnd
  0
BLOCK
  5
526
330
525
100
AcDbEntity
  8
0
100
AcDbBlockBegin
  2
*X342
 70
     1
 71
     0
 10
0.0
 20
0.0
 30
0.0
  3
*X342
  1

  4
*X3
  0
LINE
  5
528
330
525
100
AcDbEntity
  8
LC-004-005-----0
  6
DASHED
 62
     7
370
    25
100
AcDbLine
 10
161.929451
 20
62.930506
 30
0.0
 11
156.465707
 21
68.39425
 31
0.0
  0
LINE
  5
529
330
525
100
AcDbEntity
  8
LC-004-005-----0
  6
DASHED
 62
     7
370
    25
100
AcDbLine
 10
161.929451
 20
60.809185
 30
0.0
 11
155.587235
 21
67.151401
 31
0.0
  0
LINE
  5
52A
330
525
100
AcDbEntity
  8
LC-004-005-----0
 62
     7
370
    25
100
AcDbLine
 10
158.625127
 20
59.870868
 30
0.0
 11
156.929451
 21
61.566545
 31
0.0
  0
LINE
  5
52B
330
525
100
AcDbEntity
  8
LC-004-005-----0
 62
     7
370
    25
100
AcDbLine
 10
154.477117
 20
64.018879
 30
0.0
 11
154.034321
 21
64.461674
 31
0.0
  0
LINE
  5
52C
330
525
100
AcDbEntity
  8
LC-004-005-----0
 62
     7
370
    25
100
AcDbLine
 10
160.929563
 20
55.445112
 30
0.0
 11
160.09563
 21
56.279045
 31
0.0
  0
LINE
  5
52D
330
525
100
AcDbEntity
  8
LC-004-005-----0
 62
     7
370
    25
100
AcDbLine
 10
159.429563
 20
56.945112
 30
0.0
 11
156.929451
 21
59.445224
 31
0.0
  0
LINE
  5
52E
330
525
100
AcDbEntity
  8
LC-004-005-----0
  6
DASHED
 62
     7
370
    25
100
AcDbLine
 10
161.929563
 20
50.202471
 30
0.0
 11
156.929451
 21
55.202584
 31
0.0
  0
LINE
  5
52F
330
525
100
AcDbEntity
  8
LC-004-005-----0
  6
DASHED
 62
     7
370
    25
100
AcDbLine
 10
161.280448
 20
48.730266
 30
0.0
 11
156.134693
 21
53.876021
 31
0.0
  0
LINE
  5
530
330
525
100
AcDbEntity
  8
LC-004-005-----0
 62
     7
370
    25
100
AcDbLine
 10
157.388693
 20
48.379381
 30
0.0
 11
156.929451
 21
48.838622
 31
0.0
  0
ENDBLK
  5
527
330
525
100
AcDbEntity
  8
0
100
AcDbBlockEnd
  0
BLOCK
  5
535
330
534
100
AcDbEntity
  8
0
100
AcDbBlockBegin
  2
*X443
 70
     1
 71
     0
 10
0.0
 20
0.0
 30
0.0
  3
*X443
  1

  4
*X4
  0
LINE
  5
537
330
534
100
AcDbEntity
  8
LC-004-005-----0
 62
     7
370
    25
100
AcDbLine
 10
99.967469
 20
99.967469
 30
0.0
 11
100.929451
 21
100.929451
 31
0.0
  0
LINE
  5
538
330
534
100
AcDbEntity
  8
LC-004-005-----0
 62
     7
370
    25
100
AcDbLine
 10
94.310615
 20
99.967469
 30
0.0
 11
100.929451
 21
106.586305
 31
0.0
  0
LINE
  5
539
330
534
100
AcDbEntity
  8
LC-004-005-----0
 62
     7
370
    25
100
AcDbLine
 10
88.653761
 20
99.967469
 30
0.0
 11
100.653761
 21
111.967469
 31
0.0
  0
LINE
  5
53A
330
534
100
AcDbEntity
  8
LC-004-005-----0
 62
     7
370
    25
100
AcDbLine
 10
82.996907
 20
99.967469
 30
0.0
 11
94.996907
 21
111.967469
 31
0.0
  0
LINE
  5
53B
330
534
100
AcDbEntity
  8
LC-004-005-----0
 62
     7
370
    25
100
AcDbLine
 10
77.340052
 20
99.967469
 30
0.0
 11
89.340052
 21
111.967469
 31
0.0
  0
LINE
  5
53C
330
534
100
AcDbEntity
  8
LC-004-005-----0
 62
     7
370
    25
100
AcDbLine
 10
71.683198
 20
99.967469
 30
0.0
 11
83.683198
 21
111.967469
 31
0.0
  0
LINE
  5
53D
330
534
100
AcDbEntity
  8
LC-004-005-----0
 62
     7
370
    25
100
AcDbLine
 10
66.026344
 20
99.967469
 30
0.0
 11
78.026344
 21
111.967469
 31
0.0
  0
LINE
  5
53E
330
534
100
AcDbEntity
  8
LC-004-005-----0
 62
     7
370
    25
100
AcDbLine
 10
60.36949
 20
99.967469
 30
0.0
 11
72.36949
 21
111.967469
 31
0.0
  0
LINE
  5
53F
330
534
100
AcDbEntity
  8
LC-004-005-----0
 62
     7
370
    25
100
AcDbLine
 10
54.712635
 20
99.967469
 30
0.0
 11
66.712635
 21
111.967469
 31
0.0
  0
LINE
  5
540
330
534
100
AcDbEntity
  8
LC-004-005-----0
 62
     7
370
    25
100
AcDbLine
 10
49.055781
 20
99.967469
 30
0.0
 11
61.055781
 21
111.967469
 31
0.0
  0
LINE
  5
541
330
534
100
AcDbEntity
  8
LC-004-005-----0
 62
     7
370
    25
100
AcDbLine
 10
48.629451
 20
105.197993
 30
0.0
 11
55.398927
 21
111.967469
 31
0.0
  0
LINE
  5
542
330
534
100
AcDbEntity
  8
LC-004-005-----0
 62
     7
370
    25
100
AcDbLine
 10
48.629451
 20
110.854848
 30
0.0
 11
49.742073
 21
111.967469
 31
0.0
  0
LINE
  5
543
330
534
100
AcDbEntity
  8
LC-004-005-----0
 62
     7
370
    25
100
AcDbLine
 10
100.929451
 20
108.374156
 30
0.0
 11
97.336138
 21
111.967469
 31
0.0
  0
LINE
  5
544
330
534
100
AcDbEntity
  8
LC-004-005-----0
 62
     7
370
    25
100
AcDbLine
 10
100.929451
 20
102.717302
 30
0.0
 11
91.679284
 21
111.967469
 31
0.0
  0
LINE
  5
545
330
534
100
AcDbEntity
  8
LC-004-005-----0
 62
     7
370
    25
100
AcDbLine
 10
98.022429
 20
99.967469
 30
0.0
 11
86.022429
 21
111.967469
 31
0.0
  0
LINE
  5
546
330
534
100
AcDbEntity
  8
LC-004-005-----0
 62
     7
370
    25
100
AcDbLine
 10
92.365575
 20
99.967469
 30
0.0
 11
80.365575
 21
111.967469
 31
0.0
  0
LINE
  5
547
330
534
100
AcDbEntity
  8
LC-004-005-----0
 62
     7
370
    25
100
AcDbLine
 10
86.708721
 20
99.967469
 30
0.0
 11
74.708721
 21
111.967469
 31
0.0
  0
LINE
  5
548
330
534
100
AcDbEntity
  8
LC-004-005-----0
 62
     7
370
    25
100
AcDbLine
 10
81.051867
 20
99.967469
 30
0.0
 11
69.051867
 21
111.967469
 31
0.0
  0
LINE
  5
549
330
534
100
AcDbEntity
  8
LC-004-005-----0
 62
     7
370
    25
100
AcDbLine
 10
75.395012
 20
99.967469
 30
0.0
 11
63.395012
 21
111.967469
 31
0.0
  0
LINE
  5
54A
330
534
100
AcDbEntity
  8
LC-004-005-----0
 62
     7
370
    25
100
AcDbLine
 10
69.738158
 20
99.967469
 30
0.0
 11
57.738158
 21
111.967469
 31
0.0
  0
LINE
  5
54B
330
534
100
AcDbEntity
  8
LC-004-005-----0
 62
     7
370
    25
100
AcDbLine
 10
64.081304
 20
99.967469
 30
0.0
 11
52.081304
 21
111.967469
 31
0.0
  0
LINE
  5
54C
330
534
100
AcDbEntity
  8
LC-004-005-----0
 62
     7
370
    25
100
AcDbLine
 10
58.42445
 20
99.967469
 30
0.0
 11
48.629451
 21
109.762468
 31
0.0
  0
LINE
  5
54D
330
534
100
AcDbEntity
  8
LC-004-005-----0
 62
     7
370
    25
100
AcDbLine
 10
52.767595
 20
99.967469
 30
0.0
 11
48.629451
 21
104.105614
 31
0.0
  0
ENDBLK
  5
536
330
534
100
AcDbEntity
  8
0
100
AcDbBlockEnd
  0
BLOCK
  5
550
330
54F
100
AcDbEntity
  8
0
100
AcDbBlockBegin
  2
*X544
 70
     1
 71
     0
 10
0.0
 20
0.0
 30
0.0
  3
*X544
  1

  4
*X5
  0
LINE
  5
552
330
54F
100
AcDbEntity
  8
LC-004-005-----0
 62
     7
370
    25
100
AcDbLine
 10
150.879158
 20
99.967469
 30
0.0
 11
153.229451
 21
102.317763
 31
0.0
  0
LINE
  5
553
330
54F
100
AcDbEntity
  8
LC-004-005-----0
 62
     7
370
    25
100
AcDbLine
 10
145.222303
 20
99.967469
 30
0.0
 11
153.229451
 21
107.974617
 31
0.0
  0
LINE
  5
554
330
54F
100
AcDbEntity
  8
LC-004-005-----0
 62
     7
370
    25
100
AcDbLine
 10
139.565449
 20
99.967469
 30
0.0
 11
151.565449
 21
111.967469
 31
0.0
  0
LINE
  5
555
330
54F
100
AcDbEntity
  8
LC-004-005-----0
 62
     7
370
    25
100
AcDbLine
 10
133.908595
 20
99.967469
 30
0.0
 11
145.908595
 21
111.967469
 31
0.0
  0
LINE
  5
556
330
54F
100
AcDbEntity
  8
LC-004-005-----0
 62
     7
370
    25
100
AcDbLine
 10
128.251741
 20
99.967469
 30
0.0
 11
140.251741
 21
111.967469
 31
0.0
  0
LINE
  5
557
330
54F
100
AcDbEntity
  8
LC-004-005-----0
 62
     7
370
    25
100
AcDbLine
 10
122.594886
 20
99.967469
 30
0.0
 11
134.594886
 21
111.967469
 31
0.0
  0
LINE
  5
558
330
54F
100
AcDbEntity
  8
LC-004-005-----0
 62
     7
370
    25
100
AcDbLine
 10
116.938032
 20
99.967469
 30
0.0
 11
128.938032
 21
111.967469
 31
0.0
  0
LINE
  5
559
330
54F
100
AcDbEntity
  8
LC-004-005-----0
 62
     7
370
    25
100
AcDbLine
 10
111.281178
 20
99.967469
 30
0.0
 11
123.281178
 21
111.967469
 31
0.0
  0
LINE
  5
55A
330
54F
100
AcDbEntity
  8
LC-004-005-----0
 62
     7
370
    25
100
AcDbLine
 10
105.624324
 20
99.967469
 30
0.0
 11
117.624324
 21
111.967469
 31
0.0
  0
LINE
  5
55B
330
54F
100
AcDbEntity
  8
LC-004-005-----0
 62
     7
370
    25
100
AcDbLine
 10
100.929451
 20
100.929451
 30
0.0
 11
111.967469
 21
111.967469
 31
0.0
  0
LINE
  5
55C
330
54F
100
AcDbEntity
  8
LC-004-005-----0
 62
     7
370
    25
100
AcDbLine
 10
100.929451
 20
106.586305
 30
0.0
 11
106.310615
 21
111.967469
 31
0.0
  0
LINE
  5
55D
330
54F
100
AcDbEntity
  8
LC-004-005-----0
 62
     7
370
    25
100
AcDbLine
 10
153.229451
 20
106.985845
 30
0.0
 11
148.247826
 21
111.967469
 31
0.0
  0
LINE
  5
55E
330
54F
100
AcDbEntity
  8
LC-004-005-----0
 62
     7
370
    25
100
AcDbLine
 10
153.229451
 20
101.32899
 30
0.0
 11
142.590972
 21
111.967469
 31
0.0
  0
LINE
  5
55F
330
54F
100
AcDbEntity
  8
LC-004-005-----0
 62
     7
370
    25
100
AcDbLine
 10
148.934118
 20
99.967469
 30
0.0
 11
136.934118
 21
111.967469
 31
0.0
  0
LINE
  5
560
330
54F
100
AcDbEntity
  8
LC-004-005-----0
 62
     7
370
    25
100
AcDbLine
 10
143.277263
 20
99.967469
 30
0.0
 11
131.277263
 21
111.967469
 31
0.0
  0
LINE
  5
561
330
54F
100
AcDbEntity
  8
LC-004-005-----0
 62
     7
370
    25
100
AcDbLine
 10
137.620409
 20
99.967469
 30
0.0
 11
125.620409
 21
111.967469
 31
0.0
  0
LINE
  5
562
330
54F
100
AcDbEntity
  8
LC-004-005-----0
 62
     7
370
    25
100
AcDbLine
 10
131.963555
 20
99.967469
 30
0.0
 11
119.963555
 21
111.967469
 31
0.0
  0
LINE
  5
563
330
54F
100
AcDbEntity
  8
LC-004-005-----0
 62
     7
370
    25
100
AcDbLine
 10
126.306701
 20
99.967469
 30
0.0
 11
114.306701
 21
111.967469
 31
0.0
  0
LINE
  5
564
330
54F
100
AcDbEntity
  8
LC-004-005-----0
 62
     7
370
    25
100
AcDbLine
 10
120.649846
 20
99.967469
 30
0.0
 11
108.649846
 21
111.967469
 31
0.0
  0
LINE
  5
565
330
54F
100
AcDbEntity
  8
LC-004-005-----0
 62
     7
370
    25
100
AcDbLine
 10
114.992992
 20
99.967469
 30
0.0
 11
102.992992
 21
111.967469
 31
0.0
  0
LINE
  5
566
330
54F
100
AcDbEntity
  8
LC-004-005-----0
 62
     7
370
    25
100
AcDbLine
 10
109.336138
 20
99.967469
 30
0.0
 11
100.929451
 21
108.374156
 31
0.0
  0
LINE
  5
567
330
54F
100
AcDbEntity
  8
LC-004-005-----0
 62
     7
370
    25
100
AcDbLine
 10
103.679284
 20
99.967469
 30
0.0
 11
100.929451
 21
102.717302
 31
0.0
  0
ENDBLK
  5
551
330
54F
100
AcDbEntity
  8
0
100
AcDbBlockEnd
  0
BLOCK
  5
578
330
56E
100
AcDbEntity
  8
0
100
AcDbBlockBegin
  2
*D45
 70
     1
 71
     0
 10
0.0
 20
0.0
 30
0.0
  3
*D45
  1

  0
LINE
  5
56F
330
56E
100
AcDbEntity
  8
LC-006-003-----0
 62
     2
370
    -2
100
AcDbLine
 10
45.929451
 20
104.467469
 30
0.0
 11
45.929451
 21
147.392448
 31
0.0
  0
LINE
  5
570
330
56E
100
AcDbEntity
  8
LC-006-003-----0
 62
     2
370
    -2
100
AcDbLine
 10
155.929451
 20
104.467469
 30
0.0
 11
155.929451
 21
147.392448
 31
0.0
  0
LINE
  5
571
330
56E
100
AcDbEntity
  8
LC-006-003-----0
 62
     2
370
    -2
100
AcDbLine
 10
73.929451
 20
143.792448
 30
0.0
 11
127.929451
 21
143.792448
 31
0.0
  0
SOLID
  5
572
330
56E
100
AcDbEntity
  8
LC-006-003-----0
 62
     2
100
AcDbTrace
 10
73.929451
 20
148.459114
 30
0.0
 11
73.929451
 21
139.125781
 31
0.0
 12
45.929451
 22
143.792448
 32
0.0
 13
45.929451
 23
143.792448
 33
0.0
  0
SOLID
  5
573
330
56E
100
AcDbEntity
  8
LC-006-003-----0
 62
     2
100
AcDbTrace
 10
127.929451
 20
139.125781
 30
0.0
 11
127.929451
 21
148.459114
 31
0.0
 12
155.929451
 22
143.792448
 32
0.0
 13
155.929451
 23
143.792448
 33
0.0
  0
MTEXT
  5
574
330
56E
100
AcDbEntity
  8
LC-006-003-----0
 62
     2
100
AcDbMText
 10
100.929451
 20
174.592448
 30
0.0
 40
28.0
 41
0.0
 71
     5
 72
     1
  1
\A1;%%c110
  7
LCTX15-400-0-0pDIN-Schrift
 73
     1
 44
1.0
  0
POINT
  5
575
330
56E
100
AcDbEntity
  8
Defpoints
 62
     0
100
AcDbPoint
 10
45.929451
 20
104.467469
 30
0.0
  0
POINT
  5
576
330
56E
100
AcDbEntity
  8
Defpoints
 62
     0
100
AcDbPoint
 10
155.929451
 20
104.467469
 30
0.0
  0
POINT
  5
577
330
56E
100
AcDbEntity
  8
Defpoints
 62
     0
100
AcDbPoint
 10
155.929451
 20
143.792448
 30
0.0
  0
ENDBLK
  5
579
330
56E
100
AcDbEntity
  8
0
100
AcDbBlockEnd
  0
BLOCK
  5
586
330
57B
100
AcDbEntity
  8
0
100
AcDbBlockBegin
  2
*D46
 70
     1
 71
     0
 10
0.0
 20
0.0
 30
0.0
  3
*D46
  1

  0
LINE
  5
57C
330
57B
100
AcDbEntity
  8
LC-006-003-----0
 62
     2
370
    -2
100
AcDbLine
 10
153.429449
 20
111.967469
 30
0.0
 11
236.574453
 21
111.967469
 31
0.0
  0
LINE
  5
57D
330
57B
100
AcDbEntity
  8
LC-006-003-----0
 62
     2
370
    -2
100
AcDbLine
 10
153.429449
 20
99.967469
 30
0.0
 11
236.574453
 21
99.967469
 31
0.0
  0
LINE
  5
57E
330
57B
100
AcDbEntity
  8
LC-006-003-----0
 62
     2
370
    -2
100
AcDbLine
 10
232.974453
 20
71.967469
 30
0.0
 11
232.974453
 21
43.967469
 31
0.0
  0
LINE
  5
57F
330
57B
100
AcDbEntity
  8
LC-006-003-----0
 62
     2
370
    -2
100
AcDbLine
 10
232.974453
 20
139.967469
 30
0.0
 11
232.974453
 21
163.209498
 31
0.0
  0
SOLID
  5
580
330
57B
100
AcDbEntity
  8
LC-006-003-----0
 62
     2
100
AcDbTrace
 10
228.307787
 20
139.967469
 30
0.0
 11
237.64112
 21
139.967469
 31
0.0
 12
232.974453
 22
111.967469
 32
0.0
 13
232.974453
 23
111.967469
 33
0.0
  0
SOLID
  5
581
330
57B
100
AcDbEntity
  8
LC-006-003-----0
 62
     2
100
AcDbTrace
 10
237.64112
 20
71.967469
 30
0.0
 11
228.307787
 21
71.967469
 31
0.0
 12
232.974453
 22
99.967469
 32
0.0
 13
232.974453
 23
99.967469
 33
0.0
  0
MTEXT
  5
582
330
57B
100
AcDbEntity
  8
LC-006-003-----0
 62
     2
100
AcDbMText
 10
202.174453
 20
143.839407
 30
0.0
 40
28.0
 41
0.0
 71
     5
 72
     1
  1
\A1;12
  7
LCTX15-400-0-0pDIN-Schrift
 11
6.123031769111886E-17
 21
1.0
 31
0.0
 73
     1
 44
1.0
  0
POINT
  5
583
330
57B
100
AcDbEntity
  8
Defpoints
 62
     0
100
AcDbPoint
 10
153.429449
 20
111.967469
 30
0.0
  0
POINT
  5
584
330
57B
100
AcDbEntity
  8
Defpoints
 62
     0
100
AcDbPoint
 10
153.429449
 20
99.967469
 30
0.0
  0
POINT
  5
585
330
57B
100
AcDbEntity
  8
Defpoints
 62
     0
100
AcDbPoint
 10
232.974453
 20
99.967469
 30
0.0
  0
ENDBLK
  5
587
330
57B
100
AcDbEntity
  8
0
100
AcDbBlockEnd
  0
BLOCK
  5
593
330
589
100
AcDbEntity
  8
0
100
AcDbBlockBegin
  2
*D47
 70
     1
 71
     0
 10
0.0
 20
0.0
 30
0.0
  3
*D47
  1

  0
LINE
  5
58A
330
589
100
AcDbEntity
  8
LC-006-003-----0
 62
     2
370
    -2
100
AcDbLine
 10
-49.070555
 20
246.967469
 30
0.0
 11
-49.070555
 21
319.308484
 31
0.0
  0
LINE
  5
58B
330
589
100
AcDbEntity
  8
LC-006-003-----0
 62
     2
370
    -2
100
AcDbLine
 10
250.929445
 20
246.967469
 30
0.0
 11
250.929445
 21
319.308484
 31
0.0
  0
LINE
  5
58C
330
589
100
AcDbEntity
  8
LC-006-003-----0
 62
     2
370
    -2
100
AcDbLine
 10
-21.070555
 20
315.708484
 30
0.0
 11
222.929445
 21
315.708484
 31
0.0
  0
SOLID
  5
58D
330
589
100
AcDbEntity
  8
LC-006-003-----0
 62
     2
100
AcDbTrace
 10
-21.070555
 20
320.375151
 30
0.0
 11
-21.070555
 21
311.041817
 31
0.0
 12
-49.070555
 22
315.708484
 32
0.0
 13
-49.070555
 23
315.708484
 33
0.0
  0
SOLID
  5
58E
330
589
100
AcDbEntity
  8
LC-006-003-----0
 62
     2
100
AcDbTrace
 10
222.929445
 20
311.041817
 30
0.0
 11
222.929445
 21
320.375151
 31
0.0
 12
250.929445
 22
315.708484
 32
0.0
 13
250.929445
 23
315.708484
 33
0.0
  0
MTEXT
  5
58F
330
589
100
AcDbEntity
  8
LC-006-003-----0
 62
     2
100
AcDbMText
 10
100.846559
 20
346.508484
 30
0.0
 40
28.0
 41
0.0
 71
     5
 72
     1
  1
%%c\A1;300
  7
LCTX15-400-0-0pDIN-Schrift
 73
     1
 44
1.0
  0
POINT
  5
590
330
589
100
AcDbEntity
  8
Defpoints
 62
     0
100
AcDbPoint
 10
-49.070555
 20
246.967469
 30
0.0
  0
POINT
  5
591
330
589
100
AcDbEntity
  8
Defpoints
 62
     0
100
AcDbPoint
 10
250.929445
 20
246.967469
 30
0.0
  0
POINT
  5
592
330
589
100
AcDbEntity
  8
Defpoints
 62
     0
100
AcDbPoint
 10
250.929445
 20
315.708484
 30
0.0
  0
ENDBLK
  5
594
330
589
100
AcDbEntity
  8
0
100
AcDbBlockEnd
  0
BLOCK
  5
5A1
330
597
100
AcDbEntity
  8
0
100
AcDbBlockBegin
  2
*D48
 70
     1
 71
     0
 10
0.0
 20
0.0
 30
0.0
  3
*D48
  1

  0
LINE
  5
598
330
597
100
AcDbEntity
  8
LC-006-003-----0
 62
     2
370
    -2
100
AcDbLine
 10
153.229451
 20
111.967469
 30
0.0
 11
301.532076
 21
111.967469
 31
0.0
  0
LINE
  5
599
330
597
100
AcDbEntity
  8
LC-006-003-----0
 62
     2
370
    -2
100
AcDbLine
 10
249.233975
 20
246.967469
 30
0.0
 11
301.532076
 21
246.967469
 31
0.0
  0
LINE
  5
59A
330
597
100
AcDbEntity
  8
LC-006-003-----0
 62
     2
370
    -2
100
AcDbLine
 10
297.932076
 20
139.967469
 30
0.0
 11
297.932076
 21
218.967469
 31
0.0
  0
SOLID
  5
59B
330
597
100
AcDbEntity
  8
LC-006-003-----0
 62
     2
100
AcDbTrace
 10
293.265409
 20
139.967469
 30
0.0
 11
302.598742
 21
139.967469
 31
0.0
 12
297.932076
 22
111.967469
 32
0.0
 13
297.932076
 23
111.967469
 33
0.0
  0
SOLID
  5
59C
330
597
100
AcDbEntity
  8
LC-006-003-----0
 62
     2
100
AcDbTrace
 10
302.598742
 20
218.967469
 30
0.0
 11
293.265409
 21
218.967469
 31
0.0
 12
297.932076
 22
246.967469
 32
0.0
 13
297.932076
 23
246.967469
 33
0.0
  0
MTEXT
  5
59D
330
597
100
AcDbEntity
  8
LC-006-003-----0
 62
     2
100
AcDbMText
 10
267.132076
 20
172.393438
 30
0.0
 40
28.0
 41
0.0
 71
     5
 72
     1
  1
\A1;16,5-135
  7
LCTX15-400-0-0pDIN-Schrift
 11
6.123031769111886E-17
 21
1.0
 31
0.0
 73
     1
 44
1.0
  0
POINT
  5
59E
330
597
100
AcDbEntity
  8
Defpoints
 62
     0
100
AcDbPoint
 10
153.229451
 20
111.967469
 30
0.0
  0
POINT
  5
59F
330
597
100
AcDbEntity
  8
Defpoints
 62
     0
100
AcDbPoint
 10
249.233975
 20
246.967469
 30
0.0
  0
POINT
  5
5A0
330
597
100
AcDbEntity
  8
Defpoints
 62
     0
100
AcDbPoint
 10
297.932076
 20
246.967469
 30
0.0
  0
ENDBLK
  5
5A2
330
597
100
AcDbEntity
  8
0
100
AcDbBlockEnd
  0
BLOCK
  5
5AF
330
5A4
100
AcDbEntity
  8
0
100
AcDbBlockBegin
  2
*D49
 70
     1
 71
     0
 10
0.0
 20
0.0
 30
0.0
  3
*D49
  1

  0
LINE
  5
5A5
330
5A4
100
AcDbEntity
  8
LC-006-003-----0
 62
     2
370
    -2
100
AcDbLine
 10
22.429448
 20
238.967468
 30
0.0
 11
-12.353092
 21
238.967468
 31
0.0
  0
LINE
  5
5A6
330
5A4
100
AcDbEntity
  8
LC-006-003-----0
 62
     2
370
    -2
100
AcDbLine
 10
-49.070555
 20
246.967469
 30
0.0
 11
-5.153092
 21
246.967469
 31
0.0
  0
LINE
  5
5A7
330
5A4
100
AcDbEntity
  8
LC-006-003-----0
 62
     2
370
    -2
100
AcDbLine
 10
-8.753092
 20
274.967469
 30
0.0
 11
-8.753092
 21
302.967469
 31
0.0
  0
LINE
  5
5A8
330
5A4
100
AcDbEntity
  8
LC-006-003-----0
 62
     2
370
    -2
100
AcDbLine
 10
-8.753092
 20
210.967468
 30
0.0
 11
-8.753092
 21
178.925215
 31
0.0
  0
SOLID
  5
5A9
330
5A4
100
AcDbEntity
  8
LC-006-003-----0
 62
     2
100
AcDbTrace
 10
-4.086425
 20
210.967468
 30
0.0
 11
-13.419758
 21
210.967468
 31
0.0
 12
-8.753092
 22
238.967468
 32
0.0
 13
-8.753092
 23
238.967468
 33
0.0
  0
SOLID
  5
5AA
330
5A4
100
AcDbEntity
  8
LC-006-003-----0
 62
     2
100
AcDbTrace
 10
-13.419758
 20
274.967469
 30
0.0
 11
-4.086425
 21
274.967469
 31
0.0
 12
-8.753092
 22
246.967469
 32
0.0
 13
-8.753092
 23
246.967469
 33
0.0
  0
MTEXT
  5
5AB
330
5A4
100
AcDbEntity
  8
LC-006-003-----0
 62
     2
100
AcDbMText
 10
-39.553092
 20
191.359407
 30
0.0
 40
28.0
 41
0.0
 71
     5
 72
     1
  1
\A1;8
  7
LCTX15-400-0-0pDIN-Schrift
 11
6.123031769111886E-17
 21
1.0
 31
0.0
 73
     1
 44
1.0
  0
POINT
  5
5AC
330
5A4
100
AcDbEntity
  8
Defpoints
 62
     0
100
AcDbPoint
 10
22.429448
 20
238.967468
 30
0.0
  0
POINT
  5
5AD
330
5A4
100
AcDbEntity
  8
Defpoints
 62
     0
100
AcDbPoint
 10
-49.070555
 20
246.967469
 30
0.0
  0
POINT
  5
5AE
330
5A4
100
AcDbEntity
  8
Defpoints
 62
     0
100
AcDbPoint
 10
-8.753092
 20
246.967469
 30
0.0
  0
ENDBLK
  5
5B0
330
5A4
100
AcDbEntity
  8
0
100
AcDbBlockEnd
  0
BLOCK
  5
5BC
330
5B2
100
AcDbEntity
  8
0
100
AcDbBlockBegin
  2
*D50
 70
     1
 71
     0
 10
0.0
 20
0.0
 30
0.0
  3
*D50
  1

  0
LINE
  5
5B3
330
5B2
100
AcDbEntity
  8
LC-006-003-----0
 62
     2
370
    -2
100
AcDbLine
 10
55.929449
 20
238.967468
 30
0.0
 11
55.929449
 21
264.660484
 31
0.0
  0
LINE
  5
5B4
330
5B2
100
AcDbEntity
  8
LC-006-003-----0
 62
     2
370
    -2
100
AcDbLine
 10
145.929453
 20
238.967468
 30
0.0
 11
145.929453
 21
264.660484
 31
0.0
  0
LINE
  5
5B5
330
5B2
100
AcDbEntity
  8
LC-006-003-----0
 62
     2
370
    -2
100
AcDbLine
 10
83.929449
 20
261.060484
 30
0.0
 11
117.929453
 21
261.060484
 31
0.0
  0
SOLID
  5
5B6
330
5B2
100
AcDbEntity
  8
LC-006-003-----0
 62
     2
100
AcDbTrace
 10
83.929449
 20
265.727151
 30
0.0
 11
83.929449
 21
256.393817
 31
0.0
 12
55.929449
 22
261.060484
 32
0.0
 13
55.929449
 23
261.060484
 33
0.0
  0
SOLID
  5
5B7
330
5B2
100
AcDbEntity
  8
LC-006-003-----0
 62
     2
100
AcDbTrace
 10
117.929453
 20
256.393817
 30
0.0
 11
117.929453
 21
265.727151
 31
0.0
 12
145.929453
 22
261.060484
 32
0.0
 13
145.929453
 23
261.060484
 33
0.0
  0
MTEXT
  5
5B8
330
5B2
100
AcDbEntity
  8
LC-006-003-----0
 62
     2
100
AcDbMText
 10
98.700426
 20
291.860484
 30
0.0
 40
28.0
 41
0.0
 71
     5
 72
     1
  1
\A1;%%c91,5
  7
LCTX15-400-0-0pDIN-Schrift
 73
     1
 44
1.0
  0
POINT
  5
5B9
330
5B2
100
AcDbEntity
  8
Defpoints
 62
     0
100
AcDbPoint
 10
55.929449
 20
238.967468
 30
0.0
  0
POINT
  5
5BA
330
5B2
100
AcDbEntity
  8
Defpoints
 62
     0
100
AcDbPoint
 10
145.929453
 20
238.967468
 30
0.0
  0
POINT
  5
5BB
330
5B2
100
AcDbEntity
  8
Defpoints
 62
     0
100
AcDbPoint
 10
145.929453
 20
261.060484
 30
0.0
  0
ENDBLK
  5
5BD
330
5B2
100
AcDbEntity
  8
0
100
AcDbBlockEnd
  0
BLOCK
  5
5DD
330
5DC
100
AcDbEntity
  8
0
100
AcDbBlockBegin
  2
POLY36
 70
     0
 71
     0
 10
0.0
 20
0.0
 30
0.0
  3
POLY36
  1

  4
POLY36
  0
LINE
  5
5DF
330
5DC
100
AcDbEntity
  8
LC-001-100-D00-0
 62
     7
370
    50
100
AcDbLine
 10
191.667934
 20
233.77714
 30
0.0
 11
191.667934
 21
233.77714
 31
0.0
  0
LINE
  5
5E0
330
5DC
100
AcDbEntity
  8
LC-001-100-D00-0
 62
     7
370
    50
100
AcDbLine
 10
191.667934
 20
233.77714
 30
0.0
 11
191.516199
 21
234.559674
 31
0.0
  0
LINE
  5
5E1
330
5DC
100
AcDbEntity
  8
LC-001-100-D00-0
 62
     7
370
    50
100
AcDbLine
 10
191.516199
 20
234.559674
 30
0.0
 11
191.516199
 21
234.559674
 31
0.0
  0
LINE
  5
5E2
330
5DC
100
AcDbEntity
  8
LC-001-100-D00-0
 62
     7
370
    50
100
AcDbLine
 10
191.516199
 20
234.559674
 30
0.0
 11
190.825375
 21
238.122423
 31
0.0
  0
LINE
  5
5E3
330
5DC
100
AcDbEntity
  8
LC-001-100-D00-0
 62
     7
370
    50
100
AcDbLine
 10
190.825375
 20
238.122423
 30
0.0
 11
190.825375
 21
238.122423
 31
0.0
  0
LINE
  5
5E4
330
5DC
100
AcDbEntity
  8
LC-001-100-D00-0
 62
     7
370
    50
100
AcDbLine
 10
190.825375
 20
238.122423
 30
0.0
 11
190.135402
 21
241.685506
 31
0.0
  0
LINE
  5
5E5
330
5DC
100
AcDbEntity
  8
LC-001-100-D00-0
 62
     7
370
    50
100
AcDbLine
 10
190.135402
 20
241.685506
 30
0.0
 11
190.135402
 21
241.685506
 31
0.0
  0
LINE
  5
5E6
330
5DC
100
AcDbEntity
  8
LC-001-100-D00-0
 62
     7
370
    50
100
AcDbLine
 10
190.135402
 20
241.685506
 30
0.0
 11
189.596978
 21
244.465982
 31
0.0
  0
ENDBLK
  5
5DE
330
5DC
100
AcDbEntity
  8
0
100
AcDbBlockEnd
  0
BLOCK
  5
5F2
330
5F1
100
AcDbEntity
  8
0
100
AcDbBlockBegin
  2
KLON5
 70
     0
 71
     0
 10
0.0
 20
0.0
 30
0.0
  3
KLON5
  1

  4
KLON5
  0
LINE
  5
5F4
330
5F1
100
AcDbEntity
  8
LC-001-100-D00-0
 62
     7
370
    15
100
AcDbLine
 10
230.599326
 20
240.467479
 30
0.0
 11
231.813472
 21
235.936229
 31
0.0
  0
LINE
  5
5F5
330
5F1
100
AcDbEntity
  8
LC-001-100-D00-0
 62
     7
370
    15
100
AcDbLine
 10
231.813472
 20
235.936229
 30
0.0
 11
233.01087
 21
231.467475
 31
0.0
  0
ENDBLK
  5
5F3
330
5F1
100
AcDbEntity
  8
0
100
AcDbBlockEnd
  0
BLOCK
  5
5F9
330
5F8
100
AcDbEntity
  8
0
100
AcDbBlockBegin
  2
POLY37
 70
     0
 71
     0
 10
0.0
 20
0.0
 30
0.0
  3
POLY37
  1

  4
POLY37
  0
LINE
  5
5FB
330
5F8
100
AcDbEntity
  8
LC-001-100-D00-0
 62
     7
370
    50
100
AcDbLine
 10
197.46038
 20
231.467475
 30
0.0
 11
197.46038
 21
231.467475
 31
0.0
  0
LINE
  5
5FC
330
5F8
100
AcDbEntity
  8
LC-001-100-D00-0
 62
     7
370
    50
100
AcDbLine
 10
197.46038
 20
231.467475
 30
0.0
 11
197.570543
 21
230.96675
 31
0.0
  0
LINE
  5
5FD
330
5F8
100
AcDbEntity
  8
LC-001-100-D00-0
 62
     7
370
    50
100
AcDbLine
 10
197.570543
 20
230.96675
 30
0.0
 11
197.570543
 21
230.96675
 31
0.0
  0
LINE
  5
5FE
330
5F8
100
AcDbEntity
  8
LC-001-100-D00-0
 62
     7
370
    50
100
AcDbLine
 10
197.570543
 20
230.96675
 30
0.0
 11
197.682111
 21
230.466661
 31
0.0
  0
LINE
  5
5FF
330
5F8
100
AcDbEntity
  8
LC-001-100-D00-0
 62
     7
370
    50
100
AcDbLine
 10
197.682111
 20
230.466661
 30
0.0
 11
197.682111
 21
230.466661
 31
0.0
  0
LINE
  5
600
330
5F8
100
AcDbEntity
  8
LC-001-100-D00-0
 62
     7
370
    50
100
AcDbLine
 10
197.682111
 20
230.466661
 30
0.0
 11
197.795674
 21
229.967475
 31
0.0
  0
ENDBLK
  5
5FA
330
5F8
100
AcDbEntity
  8
0
100
AcDbBlockEnd
  0
BLOCK
  5
604
330
603
100
AcDbEntity
  8
0
100
AcDbBlockBegin
  2
POLY38
 70
     0
 71
     0
 10
0.0
 20
0.0
 30
0.0
  3
POLY38
  1

  4
POLY38
  0
LINE
  5
606
330
603
100
AcDbEntity
  8
LC-001-100-D00-0
 62
     7
370
    50
100
AcDbLine
 10
193.53435
 20
228.967475
 30
0.0
 11
193.53435
 21
228.967475
 31
0.0
  0
LINE
  5
607
330
603
100
AcDbEntity
  8
LC-001-100-D00-0
 62
     7
370
    50
100
AcDbLine
 10
193.53435
 20
228.967475
 30
0.0
 11
193.790693
 21
228.967475
 31
0.0
  0
LINE
  5
608
330
603
100
AcDbEntity
  8
LC-001-100-D00-0
 62
     7
370
    50
100
AcDbLine
 10
193.790693
 20
228.967475
 30
0.0
 11
193.790693
 21
228.967475
 31
0.0
  0
LINE
  5
609
330
603
100
AcDbEntity
  8
LC-001-100-D00-0
 62
     7
370
    50
100
AcDbLine
 10
193.790693
 20
228.967475
 30
0.0
 11
194.100146
 21
228.967475
 31
0.0
  0
LINE
  5
60A
330
603
100
AcDbEntity
  8
LC-001-100-D00-0
 62
     7
370
    50
100
AcDbLine
 10
194.100146
 20
228.967475
 30
0.0
 11
194.100146
 21
228.967475
 31
0.0
  0
LINE
  5
60B
330
603
100
AcDbEntity
  8
LC-001-100-D00-0
 62
     7
370
    50
100
AcDbLine
 10
194.100146
 20
228.967475
 30
0.0
 11
194.818487
 21
228.967475
 31
0.0
  0
LINE
  5
60C
330
603
100
AcDbEntity
  8
LC-001-100-D00-0
 62
     7
370
    50
100
AcDbLine
 10
194.818487
 20
228.967475
 30
0.0
 11
194.818487
 21
228.967475
 31
0.0
  0
LINE
  5
60D
330
603
100
AcDbEntity
  8
LC-001-100-D00-0
 62
     7
370
    50
100
AcDbLine
 10
194.818487
 20
228.967475
 30
0.0
 11
195.217277
 21
228.967475
 31
0.0
  0
LINE
  5
60E
330
603
100
AcDbEntity
  8
LC-001-100-D00-0
 62
     7
370
    50
100
AcDbLine
 10
195.217277
 20
228.967475
 30
0.0
 11
195.217277
 21
228.967475
 31
0.0
  0
LINE
  5
60F
330
603
100
AcDbEntity
  8
LC-001-100-D00-0
 62
     7
370
    50
100
AcDbLine
 10
195.217277
 20
228.967475
 30
0.0
 11
195.65567
 21
228.967475
 31
0.0
  0
ENDBLK
  5
605
330
603
100
AcDbEntity
  8
0
100
AcDbBlockEnd
  0
BLOCK
  5
612
330
611
100
AcDbEntity
  8
0
100
AcDbBlockBegin
  2
POLY39
 70
     0
 71
     0
 10
0.0
 20
0.0
 30
0.0
  3
POLY39
  1

  4
POLY39
  0
LINE
  5
614
330
611
100
AcDbEntity
  8
LC-001-100-D00-0
 62
     7
370
    50
100
AcDbLine
 10
197.81445
 20
229.708656
 30
0.0
 11
197.81445
 21
229.708656
 31
0.0
  0
LINE
  5
615
330
611
100
AcDbEntity
  8
LC-001-100-D00-0
 62
     7
370
    50
100
AcDbLine
 10
197.81445
 20
229.708656
 30
0.0
 11
197.822068
 21
229.795198
 31
0.0
  0
LINE
  5
616
330
611
100
AcDbEntity
  8
LC-001-100-D00-0
 62
     7
370
    50
100
AcDbLine
 10
197.822068
 20
229.795198
 30
0.0
 11
197.822068
 21
229.795198
 31
0.0
  0
LINE
  5
617
330
611
100
AcDbEntity
  8
LC-001-100-D00-0
 62
     7
370
    50
100
AcDbLine
 10
197.822068
 20
229.795198
 30
0.0
 11
197.815243
 21
229.881456
 31
0.0
  0
LINE
  5
618
330
611
100
AcDbEntity
  8
LC-001-100-D00-0
 62
     7
370
    50
100
AcDbLine
 10
197.815243
 20
229.881456
 30
0.0
 11
197.815243
 21
229.881456
 31
0.0
  0
LINE
  5
619
330
611
100
AcDbEntity
  8
LC-001-100-D00-0
 62
     7
370
    50
100
AcDbLine
 10
197.815243
 20
229.881456
 30
0.0
 11
197.795674
 21
229.967475
 31
0.0
  0
ENDBLK
  5
613
330
611
100
AcDbEntity
  8
0
100
AcDbBlockEnd
  0
BLOCK
  5
61D
330
61C
100
AcDbEntity
  8
0
100
AcDbBlockBegin
  2
POLY40
 70
     0
 71
     0
 10
0.0
 20
0.0
 30
0.0
  3
POLY40
  1

  4
POLY40
  0
LINE
  5
61F
330
61C
100
AcDbEntity
  8
LC-001-100-D00-0
 62
     7
370
    50
100
AcDbLine
 10
197.81445
 20
229.708656
 30
0.0
 11
197.81445
 21
229.708656
 31
0.0
  0
LINE
  5
620
330
61C
100
AcDbEntity
  8
LC-001-100-D00-0
 62
     7
370
    50
100
AcDbLine
 10
197.81445
 20
229.708656
 30
0.0
 11
197.794097
 21
229.477462
 31
0.0
  0
LINE
  5
621
330
61C
100
AcDbEntity
  8
LC-001-100-D00-0
 62
     7
370
    50
100
AcDbLine
 10
197.794097
 20
229.477462
 30
0.0
 11
197.794097
 21
229.477462
 31
0.0
  0
LINE
  5
622
330
61C
100
AcDbEntity
  8
LC-001-100-D00-0
 62
     7
370
    50
100
AcDbLine
 10
197.794097
 20
229.477462
 30
0.0
 11
197.747516
 21
229.283906
 31
0.0
  0
LINE
  5
623
330
61C
100
AcDbEntity
  8
LC-001-100-D00-0
 62
     7
370
    50
100
AcDbLine
 10
197.747516
 20
229.283906
 30
0.0
 11
197.747516
 21
229.283906
 31
0.0
  0
LINE
  5
624
330
61C
100
AcDbEntity
  8
LC-001-100-D00-0
 62
     7
370
    50
100
AcDbLine
 10
197.747516
 20
229.283906
 30
0.0
 11
197.639614
 21
229.029267
 31
0.0
  0
LINE
  5
625
330
61C
100
AcDbEntity
  8
LC-001-100-D00-0
 62
     7
370
    50
100
AcDbLine
 10
197.639614
 20
229.029267
 30
0.0
 11
197.639614
 21
229.029267
 31
0.0
  0
LINE
  5
626
330
61C
100
AcDbEntity
  8
LC-001-100-D00-0
 62
     7
370
    50
100
AcDbLine
 10
197.639614
 20
229.029267
 30
0.0
 11
197.579589
 21
228.967475
 31
0.0
  0
LINE
  5
627
330
61C
100
AcDbEntity
  8
LC-001-100-D00-0
 62
     7
370
    50
100
AcDbLine
 10
197.579589
 20
228.967475
 30
0.0
 11
197.579589
 21
228.967475
 31
0.0
  0
LINE
  5
628
330
61C
100
AcDbEntity
  8
LC-001-100-D00-0
 62
     7
370
    50
100
AcDbLine
 10
197.579589
 20
228.967475
 30
0.0
 11
197.526985
 21
228.967475
 31
0.0
  0
ENDBLK
  5
61E
330
61C
100
AcDbEntity
  8
0
100
AcDbBlockEnd
  0
BLOCK
  5
63C
330
630
100
AcDbEntity
  8
0
100
AcDbBlockBegin
  2
*D57
 70
     1
 71
     0
 10
0.0
 20
0.0
 30
0.0
  3
*D57
  1

  0
LINE
  5
631
330
630
100
AcDbEntity
  8
LC-006-003-----0
 62
     2
370
    -2
100
AcDbLine
 10
-49.070555
 20
246.967469
 30
0.0
 11
-61.173158
 21
246.967469
 31
0.0
  0
LINE
  5
632
330
630
100
AcDbEntity
  8
LC-006-003-----0
 62
     2
370
    -2
100
AcDbLine
 10
-38.1737
 20
228.967478
 30
0.0
 11
-61.173158
 21
228.967478
 31
0.0
  0
LINE
  5
633
330
630
100
AcDbEntity
  8
LC-006-003-----0
 62
     2
370
    -2
100
AcDbLine
 10
-57.573158
 20
274.967469
 30
0.0
 11
-57.573158
 21
302.967469
 31
0.0
  0
LINE
  5
634
330
630
100
AcDbEntity
  8
LC-006-003-----0
 62
     2
370
    -2
100
AcDbLine
 10
-57.573158
 20
200.967478
 30
0.0
 11
-57.573158
 21
172.967478
 31
0.0
  0
LINE
  5
635
330
630
100
AcDbEntity
  8
LC-006-003-----0
 62
     2
370
    -2
100
AcDbLine
 10
-57.573158
 20
246.967469
 30
0.0
 11
-57.573158
 21
228.967478
 31
0.0
  0
SOLID
  5
636
330
630
100
AcDbEntity
  8
LC-006-003-----0
 62
     2
100
AcDbTrace
 10
-62.239824
 20
274.967469
 30
0.0
 11
-52.906491
 21
274.967469
 31
0.0
 12
-57.573158
 22
246.967469
 32
0.0
 13
-57.573158
 23
246.967469
 33
0.0
  0
SOLID
  5
637
330
630
100
AcDbEntity
  8
LC-006-003-----0
 62
     2
100
AcDbTrace
 10
-52.906491
 20
200.967478
 30
0.0
 11
-62.239824
 21
200.967478
 31
0.0
 12
-57.573158
 22
228.967478
 32
0.0
 13
-57.573158
 23
228.967478
 33
0.0
  0
MTEXT
  5
638
330
630
100
AcDbEntity
  8
LC-006-003-----0
 62
     2
100
AcDbMText
 10
-88.373158
 20
237.273106
 30
0.0
 40
28.0
 41
0.0
 71
     5
 72
     1
  1
\A1;18
  7
LCTX15-400-0-0pDIN-Schrift
 11
6.123031769111886E-17
 21
1.0
 31
0.0
 73
     1
 44
1.0
  0
POINT
  5
639
330
630
100
AcDbEntity
  8
Defpoints
 62
     0
100
AcDbPoint
 10
-49.070555
 20
246.967469
 30
0.0
  0
POINT
  5
63A
330
630
100
AcDbEntity
  8
Defpoints
 62
     0
100
AcDbPoint
 10
-38.1737
 20
228.967478
 30
0.0
  0
POINT
  5
63B
330
630
100
AcDbEntity
  8
Defpoints
 62
     0
100
AcDbPoint
 10
-57.573158
 20
228.967478
 30
0.0
  0
ENDBLK
  5
63D
330
630
100
AcDbEntity
  8
0
100
AcDbBlockEnd
  0
ENDSEC
  0
SECTION
  2
ENTITIES
  0
ARC
  5
31
330
1F
100
AcDbEntity
  8
LC-001-100-D00-0
 62
     7
370
    50
100
AcDbCircle
 10
-20.189153
 20
-77.254944
 30
0.0
 40
6.590074414334486
100
AcDbArc
 50
152.138199
 51
332.138199
  0
ARC
  5
32
330
1F
100
AcDbEntity
  8
LC-001-100-D00-0
 62
     7
370
    50
100
AcDbCircle
 10
-20.189153
 20
-77.254944
 30
0.0
 40
7.499999999999981
100
AcDbArc
 50
152.138199
 51
332.138199
  0
ARC
  5
33
330
1F
100
AcDbEntity
  8
LC-001-100-D00-0
 62
     7
370
    50
100
AcDbCircle
 10
36.903802
 20
-20.161989
 30
0.0
 40
6.590074414334524
100
AcDbArc
 50
297.861801
 51
117.861801
  0
ARC
  5
34
330
1F
100
AcDbEntity
  8
LC-001-100-D00-0
 62
     7
370
    50
100
AcDbCircle
 10
36.903802
 20
-20.161989
 30
0.0
 40
7.500000000000045
100
AcDbArc
 50
297.861801
 51
117.861801
  0
LINE
  5
37
330
1F
100
AcDbEntity
  8
LC-002-002-----0
 62
     7
370
    25
100
AcDbLine
 10
100.929451
 20
246.967469
 30
0.0
 11
100.929451
 21
184.867438
 31
0.0
  0
LINE
  5
38
330
1F
100
AcDbEntity
  8
LC-002-002-----0
  6
ByBlock
 62
     7
370
    50
100
AcDbLine
 10
-29.123239
 20
229.708657
 30
0.0
 11
-25.168571
 21
244.467472
 31
0.0
  0
ARC
  5
39
330
1F
100
AcDbEntity
  8
LC-001-100-D00-0
 62
     7
370
    50
100
AcDbCircle
 10
24.046292
 20
-27.88756
 30
0.0
 40
6.590074414334525
100
AcDbArc
 50
124.138199
 51
304.138199
  0
ARC
  5
3A
330
1F
100
AcDbEntity
  8
LC-001-100-D00-0
 62
     7
370
    50
100
AcDbCircle
 10
24.046292
 20
-27.88756
 30
0.0
 40
7.500000000000022
100
AcDbArc
 50
124.138199
 51
304.138199
  0
ARC
  5
3B
330
1F
100
AcDbEntity
  8
LC-001-100-D00-0
 62
     7
370
    50
100
AcDbCircle
 10
100.929451
 20
-141.280593
 30
0.0
 40
143.5900744143345
100
AcDbArc
 50
117.861801
 51
124.138199
  0
ARC
  5
3C
330
1F
100
AcDbEntity
  8
LC-001-100-D00-0
 62
     7
370
    50
100
AcDbCircle
 10
100.929451
 20
-141.280593
 30
0.0
 40
144.5
100
AcDbArc
 50
117.861801
 51
124.138199
  0
ARC
  5
3D
330
1F
100
AcDbEntity
  8
LC-001-100-D00-0
 62
     7
370
    50
100
AcDbCircle
 10
75.113071
 20
-6.735008
 30
0.0
 40
6.590074414334505
100
AcDbArc
 50
280.861801
 51
100.861801
  0
ARC
  5
3E
330
1F
100
AcDbEntity
  8
LC-001-100-D00-0
 62
     7
370
    50
100
AcDbCircle
 10
75.113071
 20
-6.735008
 30
0.0
 40
7.500000000000036
100
AcDbArc
 50
280.861801
 51
100.861801
  0
LINE
  5
3F
330
1F
100
AcDbEntity
  8
LC-002-002-----0
  6
ByBlock
 62
     7
370
    50
100
AcDbLine
 10
9.306268
 20
229.777124
 30
0.0
 11
10.190968
 21
233.77714
 31
0.0
  0
ARC
  5
40
330
1F
100
AcDbEntity
  8
LC-001-100-D00-0
 62
     7
370
    50
100
AcDbCircle
 10
60.558635
 20
-10.363836
 30
0.0
 40
6.590074414334478
100
AcDbArc
 50
107.138199
 51
287.138199
  0
ARC
  5
41
330
1F
100
AcDbEntity
  8
LC-001-100-D00-0
 62
     7
370
    50
100
AcDbCircle
 10
60.558635
 20
-10.363836
 30
0.0
 40
7.500000000000076
100
AcDbArc
 50
107.138199
 51
287.138199
  0
ARC
  5
42
330
1F
100
AcDbEntity
  8
LC-001-100-D00-0
 62
     7
370
    50
100
AcDbCircle
 10
100.929451
 20
-141.280593
 30
0.0
 40
143.5900744143345
100
AcDbArc
 50
100.861801
 51
107.138199
  0
ARC
  5
43
330
1F
100
AcDbEntity
  8
LC-001-100-D00-0
 62
     7
370
    50
100
AcDbCircle
 10
100.929451
 20
-141.280593
 30
0.0
 40
144.5
100
AcDbArc
 50
100.861801
 51
107.138199
  0
ARC
  5
44
330
1F
100
AcDbEntity
  8
LC-001-100-D00-0
 62
     7
370
    50
100
AcDbCircle
 10
100.929451
 20
-141.280593
 30
0.0
 40
130.4099255856654
100
AcDbArc
 50
10.861801
 51
17.138199
  0
ARC
  5
45
330
1F
100
AcDbEntity
  8
LC-001-100-D00-0
 62
     7
370
    50
100
AcDbCircle
 10
100.929451
 20
-141.280593
 30
0.0
 40
129.5000000000001
100
AcDbArc
 50
10.861801
 51
17.138199
  0
ARC
  5
46
330
1F
100
AcDbEntity
  8
LC-001-100-D00-0
 62
     7
370
    50
100
AcDbCircle
 10
231.846208
 20
-100.909777
 30
0.0
 40
6.590074414334486
100
AcDbArc
 50
17.138199
 51
197.138199
  0
ARC
  5
47
330
1F
100
AcDbEntity
  8
LC-001-100-D00-0
 62
     7
370
    50
100
AcDbCircle
 10
231.846208
 20
-100.909777
 30
0.0
 40
7.500000000000022
100
AcDbArc
 50
17.138199
 51
197.138199
  0
ARC
  5
48
330
1F
100
AcDbEntity
  8
LC-001-100-D00-0
 62
     7
370
    50
100
AcDbCircle
 10
164.9551
 20
-20.161989
 30
0.0
 40
6.590074414334573
100
AcDbArc
 50
62.138199
 51
242.138199
  0
ARC
  5
49
330
1F
100
AcDbEntity
  8
LC-001-100-D00-0
 62
     7
370
    50
100
AcDbCircle
 10
164.9551
 20
-20.161989
 30
0.0
 40
7.500000000000045
100
AcDbArc
 50
62.138199
 51
242.138199
  0
ARC
  5
4A
330
1F
100
AcDbEntity
  8
LC-001-100-D00-0
 62
     7
370
    50
100
AcDbCircle
 10
-29.987306
 20
-100.909777
 30
0.0
 40
6.59007441433454
100
AcDbArc
 50
342.861801
 51
162.861801
  0
ARC
  5
4B
330
1F
100
AcDbEntity
  8
LC-001-100-D00-0
 62
     7
370
    50
100
AcDbCircle
 10
-29.987306
 20
-100.909777
 30
0.0
 40
7.499999999999995
100
AcDbArc
 50
342.861801
 51
162.861801
  0
ARC
  5
4C
330
1F
100
AcDbEntity
  8
LC-001-100-D00-0
 62
     7
370
    50
100
AcDbCircle
 10
100.929451
 20
-141.280593
 30
0.0
 40
130.4099255856655
100
AcDbArc
 50
72.861801
 51
79.138199
  0
ARC
  5
4D
330
1F
100
AcDbEntity
  8
LC-001-100-D00-0
 62
     7
370
    50
100
AcDbCircle
 10
100.929451
 20
-141.280593
 30
0.0
 40
129.5
100
AcDbArc
 50
72.861801
 51
79.138199
  0
ARC
  5
4E
330
1F
100
AcDbEntity
  8
LC-001-100-D00-0
 62
     7
370
    50
100
AcDbCircle
 10
-12.463582
 20
-64.397435
 30
0.0
 40
6.590074414334525
100
AcDbArc
 50
325.861801
 51
145.861801
  0
ARC
  5
4F
330
1F
100
AcDbEntity
  8
LC-001-100-D00-0
 62
     7
370
    50
100
AcDbCircle
 10
-12.463582
 20
-64.397435
 30
0.0
 40
7.50000000000002
100
AcDbArc
 50
325.861801
 51
145.861801
  0
ARC
  5
50
330
1F
100
AcDbEntity
  8
LC-001-100-D00-0
 62
     7
370
    50
100
AcDbCircle
 10
100.929451
 20
-141.280593
 30
0.0
 40
130.4099255856656
100
AcDbArc
 50
145.861801
 51
152.138199
  0
ARC
  5
51
330
1F
100
AcDbEntity
  8
LC-001-100-D00-0
 62
     7
370
    50
100
AcDbCircle
 10
100.929451
 20
-141.280593
 30
0.0
 40
129.5000000000001
100
AcDbArc
 50
145.861801
 51
152.138199
  0
ARC
  5
52
330
1F
100
AcDbEntity
  8
LC-001-100-D00-0
 62
     7
370
    50
100
AcDbCircle
 10
100.929451
 20
-141.280593
 30
0.0
 40
130.4099255856655
100
AcDbArc
 50
55.861801
 51
62.138199
  0
ARC
  5
53
330
1F
100
AcDbEntity
  8
LC-001-100-D00-0
 62
     7
370
    50
100
AcDbCircle
 10
100.929451
 20
-141.280593
 30
0.0
 40
129.5000000000001
100
AcDbArc
 50
55.861801
 51
62.138199
  0
ARC
  5
54
330
1F
100
AcDbEntity
  8
LC-001-100-D00-0
 62
     7
370
    50
100
AcDbCircle
 10
100.929451
 20
-141.280593
 30
0.0
 40
127.5
100
AcDbArc
 50
0.0
 51
180.0
  0
ARC
  5
55
330
1F
100
AcDbEntity
  8
LC-001-100-D00-0
 62
     7
370
    50
100
AcDbCircle
 10
100.929451
 20
-141.280593
 30
0.0
 40
150.0
100
AcDbArc
 50
0.0
 51
180.0
  0
CIRCLE
  5
56
330
1F
100
AcDbEntity
  8
LC-001-100-D00-0
 62
     7
370
    50
100
AcDbCircle
 10
100.929451
 20
-4.280593
 30
0.0
 40
8.0
  0
CIRCLE
  5
57
330
1F
100
AcDbEntity
  8
LC-001-100-D00-0
 62
     7
370
    50
100
AcDbCircle
 10
197.80308
 20
-44.406964
 30
0.0
 40
7.999999999999943
  0
ARC
  5
58
330
1F
100
AcDbEntity
  8
LC-001-100-D00-0
 62
     7
370
    50
100
AcDbCircle
 10
237.929451
 20
-141.280593
 30
0.0
 40
8.0
100
AcDbArc
 50
0.0
 51
180.0
  0
ARC
  5
59
330
1F
100
AcDbEntity
  8
LC-001-100-D00-0
 62
     7
370
    50
100
AcDbCircle
 10
-36.070549
 20
-141.280593
 30
0.0
 40
8.000000000000004
100
AcDbArc
 50
0.0
 51
180.0
  0
CIRCLE
  5
5A
330
1F
100
AcDbEntity
  8
LC-001-100-D00-0
 62
     7
370
    50
100
AcDbCircle
 10
4.055822
 20
-44.406964
 30
0.0
 40
8.0
  0
ARC
  5
5B
330
1F
100
AcDbEntity
  8
LC-001-100-D00-0
 62
     7
370
    50
100
AcDbCircle
 10
126.745831
 20
-6.735008
 30
0.0
 40
7.499999999999981
100
AcDbArc
 50
79.138199
 51
259.138199
  0
ARC
  5
5C
330
1F
100
AcDbEntity
  8
LC-001-100-D00-0
 62
     7
370
    50
100
AcDbCircle
 10
141.300267
 20
-10.363836
 30
0.0
 40
7.500000000000076
100
AcDbArc
 50
252.861801
 51
72.861801
  0
ARC
  5
5D
330
1F
100
AcDbEntity
  8
LC-001-100-D00-0
 62
     7
370
    50
100
AcDbCircle
 10
100.929451
 20
-141.280593
 30
0.0
 40
144.5000000000001
100
AcDbArc
 50
72.861801
 51
79.138199
  0
ARC
  5
5E
330
1F
100
AcDbEntity
  8
LC-001-100-D00-0
 62
     7
370
    50
100
AcDbCircle
 10
177.812609
 20
-27.88756
 30
0.0
 40
7.500000000000068
100
AcDbArc
 50
235.861801
 51
55.861801
  0
ARC
  5
5F
330
1F
100
AcDbEntity
  8
LC-001-100-D00-0
 62
     7
370
    50
100
AcDbCircle
 10
100.929451
 20
-141.280593
 30
0.0
 40
144.5
100
AcDbArc
 50
55.861801
 51
62.138199
  0
ARC
  5
60
330
1F
100
AcDbEntity
  8
LC-001-100-D00-0
 62
     7
370
    50
100
AcDbCircle
 10
214.322484
 20
-64.397435
 30
0.0
 40
7.500000000000022
100
AcDbArc
 50
34.138199
 51
214.138199
  0
ARC
  5
61
330
1F
100
AcDbEntity
  8
LC-001-100-D00-0
 62
     7
370
    50
100
AcDbCircle
 10
100.929451
 20
-141.280593
 30
0.0
 40
129.5
100
AcDbArc
 50
27.861801
 51
34.138199
  0
ARC
  5
62
330
1F
100
AcDbEntity
  8
LC-001-100-D00-0
 62
     7
370
    50
100
AcDbCircle
 10
222.048055
 20
-77.254944
 30
0.0
 40
7.500000000000109
100
AcDbArc
 50
207.861801
 51
27.861801
  0
ARC
  5
63
330
1F
100
AcDbEntity
  8
LC-001-100-D00-0
 62
     7
370
    50
100
AcDbCircle
 10
100.929451
 20
-141.280593
 30
0.0
 40
144.5000000000001
100
AcDbArc
 50
27.861801
 51
34.138199
  0
ARC
  5
64
330
1F
100
AcDbEntity
  8
LC-001-100-D00-0
 62
     7
370
    50
100
AcDbCircle
 10
235.475036
 20
-115.464213
 30
0.0
 40
7.500000000000097
100
AcDbArc
 50
190.861801
 51
10.861801
  0
ARC
  5
65
330
1F
100
AcDbEntity
  8
LC-001-100-D00-0
 62
     7
370
    50
100
AcDbCircle
 10
100.929451
 20
-141.280593
 30
0.0
 40
144.5000000000001
100
AcDbArc
 50
10.861801
 51
17.138199
  0
ARC
  5
66
330
1F
100
AcDbEntity
  8
LC-001-100-D00-0
 62
     7
370
    50
100
AcDbCircle
 10
-33.616134
 20
-115.464213
 30
0.0
 40
7.500000000000013
100
AcDbArc
 50
169.138199
 51
349.138199
  0
ARC
  5
67
330
1F
100
AcDbEntity
  8
LC-001-100-D00-0
 62
     7
370
    50
100
AcDbCircle
 10
100.929451
 20
-141.280593
 30
0.0
 40
129.5
100
AcDbArc
 50
162.861801
 51
169.138199
  0
ARC
  5
68
330
1F
100
AcDbEntity
  8
LC-001-100-D00-0
 62
     7
370
    50
100
AcDbCircle
 10
100.929451
 20
-141.280593
 30
0.0
 40
144.5
100
AcDbArc
 50
162.861801
 51
169.138199
  0
ARC
  5
69
330
1F
100
AcDbEntity
  8
LC-001-100-D00-0
 62
     7
370
    50
100
AcDbCircle
 10
100.929451
 20
-141.280593
 30
0.0
 40
144.5
100
AcDbArc
 50
145.861801
 51
152.138199
  0
ARC
  5
6A
330
1F
100
AcDbEntity
  8
LC-001-100-D00-0
 62
     7
370
    50
100
AcDbCircle
 10
100.929451
 20
-141.280593
 30
0.0
 40
129.5
100
AcDbArc
 50
117.861801
 51
124.138199
  0
ARC
  5
6B
330
1F
100
AcDbEntity
  8
LC-001-100-D00-0
 62
     7
370
    50
100
AcDbCircle
 10
100.929451
 20
-141.280593
 30
0.0
 40
129.5
100
AcDbArc
 50
100.861801
 51
107.138199
  0
ARC
  5
6C
330
1F
100
AcDbEntity
  8
LC-001-100-D00-0
 62
     7
370
    50
100
AcDbCircle
 10
4.055822
 20
-44.406964
 30
0.0
 40
7.330127018922194
100
AcDbArc
 50
334.941359
 51
295.058641
  0
ARC
  5
6D
330
1F
100
AcDbEntity
  8
LC-001-100-D00-0
 62
     7
370
    50
100
AcDbCircle
 10
141.300267
 20
-10.363836
 30
0.0
 40
6.590074414334549
100
AcDbArc
 50
252.861801
 51
72.861801
  0
ARC
  5
6E
330
1F
100
AcDbEntity
  8
LC-001-100-D00-0
 62
     7
370
    50
100
AcDbCircle
 10
-36.070549
 20
-141.280593
 30
0.0
 40
7.330127018922192
100
AcDbArc
 50
19.941359
 51
180.0
  0
ARC
  5
6F
330
1F
100
AcDbEntity
  8
LC-001-100-D00-0
 62
     7
370
    50
100
AcDbCircle
 10
100.929451
 20
-141.280593
 30
0.0
 40
143.5900744143345
100
AcDbArc
 50
162.861801
 51
169.138199
  0
ARC
  5
70
330
1F
100
AcDbEntity
  8
LC-001-100-D00-0
 62
     7
370
    50
100
AcDbCircle
 10
100.929451
 20
-141.280593
 30
0.0
 40
130.4099255856656
100
AcDbArc
 50
100.861801
 51
107.138199
  0
ARC
  5
71
330
1F
100
AcDbEntity
  8
LC-001-100-D00-0
 62
     7
370
    50
100
AcDbCircle
 10
100.929451
 20
-141.280593
 30
0.0
 40
130.4099255856655
100
AcDbArc
 50
162.861801
 51
169.138199
  0
ARC
  5
72
330
1F
100
AcDbEntity
  8
LC-001-100-D00-0
 62
     7
370
    50
100
AcDbCircle
 10
100.929451
 20
-141.280593
 30
0.0
 40
130.4099255856656
100
AcDbArc
 50
117.861801
 51
124.138199
  0
ARC
  5
73
330
1F
100
AcDbEntity
  8
LC-001-100-D00-0
 62
     7
370
    50
100
AcDbCircle
 10
100.929451
 20
-141.280593
 30
0.0
 40
143.5900744143345
100
AcDbArc
 50
10.861801
 51
17.138199
  0
ARC
  5
74
330
1F
100
AcDbEntity
  8
LC-001-100-D00-0
 62
     7
370
    50
100
AcDbCircle
 10
214.322484
 20
-64.397435
 30
0.0
 40
6.590074414334477
100
AcDbArc
 50
34.138199
 51
214.138199
  0
ARC
  5
75
330
1F
100
AcDbEntity
  8
LC-001-100-D00-0
 62
     7
370
    50
100
AcDbCircle
 10
100.929451
 20
-141.280593
 30
0.0
 40
143.5900744143345
100
AcDbArc
 50
27.861801
 51
34.138199
  0
ARC
  5
76
330
1F
100
AcDbEntity
  8
LC-001-100-D00-0
 62
     7
370
    50
100
AcDbCircle
 10
235.475036
 20
-115.464213
 30
0.0
 40
6.590074414334505
100
AcDbArc
 50
190.861801
 51
10.861801
  0
ARC
  5
77
330
1F
100
AcDbEntity
  8
LC-001-100-D00-0
 62
     7
370
    50
100
AcDbCircle
 10
100.929451
 20
-4.280593
 30
0.0
 40
7.330127018922228
100
AcDbArc
 50
289.941359
 51
250.058641
  0
ARC
  5
78
330
1F
100
AcDbEntity
  8
LC-001-100-D00-0
 62
     7
370
    50
100
AcDbCircle
 10
197.80308
 20
-44.406964
 30
0.0
 40
7.330127018922169
100
AcDbArc
 50
244.941359
 51
205.058641
  0
ARC
  5
79
330
1F
100
AcDbEntity
  8
LC-001-100-D00-0
 62
     7
370
    50
100
AcDbCircle
 10
237.929451
 20
-141.280593
 30
0.0
 40
7.330127018923236
100
AcDbArc
 50
0.0
 51
160.058641
  0
ARC
  5
7A
330
1F
100
AcDbEntity
  8
LC-001-100-D00-0
 62
     7
370
    50
100
AcDbCircle
 10
100.929451
 20
-141.280593
 30
0.0
 40
143.5900744143346
100
AcDbArc
 50
145.861801
 51
152.138199
  0
ARC
  5
7B
330
1F
100
AcDbEntity
  8
LC-001-100-D00-0
 62
     7
370
    50
100
AcDbCircle
 10
-33.616134
 20
-115.464213
 30
0.0
 40
6.590074414334532
100
AcDbArc
 50
169.138199
 51
349.138199
  0
ARC
  5
7C
330
1F
100
AcDbEntity
  8
LC-001-100-D00-0
 62
     7
370
    50
100
AcDbCircle
 10
100.929451
 20
-141.280593
 30
0.0
 40
143.5900744143345
100
AcDbArc
 50
55.861801
 51
62.138199
  0
ARC
  5
7D
330
1F
100
AcDbEntity
  8
LC-001-100-D00-0
 62
     7
370
    50
100
AcDbCircle
 10
177.812609
 20
-27.88756
 30
0.0
 40
6.590074414334525
100
AcDbArc
 50
235.861801
 51
55.861801
  0
ARC
  5
7E
330
1F
100
AcDbEntity
  8
LC-001-100-D00-0
 62
     7
370
    50
100
AcDbCircle
 10
126.745831
 20
-6.735008
 30
0.0
 40
6.590074414334505
100
AcDbArc
 50
79.138199
 51
259.138199
  0
ARC
  5
7F
330
1F
100
AcDbEntity
  8
LC-001-100-D00-0
 62
     7
370
    50
100
AcDbCircle
 10
222.048055
 20
-77.254944
 30
0.0
 40
6.590074414334524
100
AcDbArc
 50
207.861801
 51
27.861801
  0
ARC
  5
80
330
1F
100
AcDbEntity
  8
LC-001-100-D00-0
 62
     7
370
    50
100
AcDbCircle
 10
100.929451
 20
-141.280593
 30
0.0
 40
143.5900744143345
100
AcDbArc
 50
72.861801
 51
79.138199
  0
ARC
  5
81
330
1F
100
AcDbEntity
  8
LC-001-100-D00-0
 62
     7
370
    50
100
AcDbCircle
 10
100.929451
 20
-141.280593
 30
0.0
 40
130.4099255856655
100
AcDbArc
 50
27.861801
 51
34.138199
  0
INSERT
  5
9F
330
1F
100
AcDbEntity
  8
LC-001-100-D00-0
 62
     7
370
    50
100
AcDbBlockReference
  2
POLY1
 10
0.0
 20
0.0
 30
0.0
  0
LINE
  5
A0
330
1F
100
AcDbEntity
  8
LC-001-100-D00-0
 62
     7
370
    50
100
AcDbLine
 10
193.07502
 20
-45.599492
 30
0.0
 11
191.162903
 21
-47.511609
 31
0.0
  0
LINE
  5
A1
330
1F
100
AcDbEntity
  8
LC-001-100-D00-0
 62
     7
370
    50
100
AcDbLine
 10
196.610552
 20
-49.135023
 30
0.0
 11
194.698435
 21
-51.04714
 31
0.0
  0
INSERT
  5
BF
330
1F
100
AcDbEntity
  8
LC-001-100-D00-0
 62
     7
370
    50
100
AcDbBlockReference
  2
POLY2
 10
0.0
 20
0.0
 30
0.0
  0
LINE
  5
C0
330
1F
100
AcDbEntity
  8
LC-001-100-D00-0
 62
     7
370
    50
100
AcDbLine
 10
5.24835
 20
-49.135023
 30
0.0
 11
7.160467
 21
-51.04714
 31
0.0
  0
LINE
  5
C1
330
1F
100
AcDbEntity
  8
LC-001-100-D00-0
 62
     7
370
    50
100
AcDbLine
 10
8.783881
 20
-45.599492
 30
0.0
 11
10.695998
 21
-47.511609
 31
0.0
  0
INSERT
  5
DF
330
1F
100
AcDbEntity
  8
LC-001-100-D00-0
 62
     7
370
    50
100
AcDbBlockReference
  2
POLY3
 10
0.0
 20
0.0
 30
0.0
  0
LINE
  5
E0
330
1F
100
AcDbEntity
  8
LC-001-100-D00-0
 62
     7
370
    50
100
AcDbLine
 10
-31.884062
 20
-138.780593
 30
0.0
 11
-29.179919
 21
-138.780593
 31
0.0
  0
INSERT
  5
FE
330
1F
100
AcDbEntity
  8
LC-001-100-D00-0
 62
     7
370
    50
100
AcDbBlockReference
  2
POLY4
 10
0.0
 20
0.0
 30
0.0
  0
LINE
  5
FF
330
1F
100
AcDbEntity
  8
LC-001-100-D00-0
 62
     7
370
    50
100
AcDbLine
 10
233.742964
 20
-138.780593
 30
0.0
 11
231.038821
 21
-138.780593
 31
0.0
  0
LINE
  5
100
330
1F
100
AcDbEntity
  8
LC-001-100-D00-0
 62
     7
370
    50
100
AcDbLine
 10
103.429451
 20
-8.46708
 30
0.0
 11
103.429451
 21
-11.171223
 31
0.0
  0
LINE
  5
101
330
1F
100
AcDbEntity
  8
LC-001-100-D00-0
 62
     7
370
    50
100
AcDbLine
 10
98.429451
 20
-8.46708
 30
0.0
 11
98.429451
 21
-11.171223
 31
0.0
  0
INSERT
  5
11F
330
1F
100
AcDbEntity
  8
LC-001-100-D00-0
 62
     7
370
    50
100
AcDbBlockReference
  2
POLY5
 10
0.0
 20
0.0
 30
0.0
  0
ARC
  5
120
330
1F
100
AcDbEntity
  8
LC-001-100-D00-0
 62
     7
370
    50
100
AcDbCircle
 10
100.929451
 20
-4.280593
 30
0.0
 40
4.918584287042137
100
AcDbArc
 50
300.549085
 51
239.450915
  0
ARC
  5
121
330
1F
100
AcDbEntity
  8
LC-001-100-D00-0
 62
     7
370
    50
100
AcDbCircle
 10
237.929451
 20
-141.280593
 30
0.0
 40
4.918584287042791
100
AcDbArc
 50
0.0
 51
149.450915
  0
ARC
  5
122
330
1F
100
AcDbEntity
  8
LC-001-100-D00-0
 62
     7
370
    50
100
AcDbCircle
 10
197.80308
 20
-44.406964
 30
0.0
 40
4.918584287042106
100
AcDbArc
 50
255.549085
 51
194.450915
  0
ARC
  5
123
330
1F
100
AcDbEntity
  8
LC-001-100-D00-0
 62
     7
370
    50
100
AcDbCircle
 10
-36.070549
 20
-141.280593
 30
0.0
 40
4.918584287042073
100
AcDbArc
 50
30.549085
 51
180.0
  0
ARC
  5
124
330
1F
100
AcDbEntity
  8
LC-001-100-D00-0
 62
     7
370
    50
100
AcDbCircle
 10
4.055822
 20
-44.406964
 30
0.0
 40
4.918584287042106
100
AcDbArc
 50
345.549085
 51
284.450915
  0
ARC
  5
125
330
1F
100
AcDbEntity
  8
LC-001-100-D00-0
 62
     7
370
    50
100
AcDbCircle
 10
100.929451
 20
-141.280593
 30
0.0
 40
82.96446609406732
100
AcDbArc
 50
0.0
 51
180.0
  0
ARC
  5
126
330
1F
100
AcDbEntity
  8
LC-001-100-D00-0
 62
     7
370
    50
100
AcDbCircle
 10
100.929451
 20
-141.280593
 30
0.0
 40
77.46446609406721
100
AcDbArc
 50
0.0
 51
180.0
  0
ARC
  5
127
330
1F
100
AcDbEntity
  8
LC-001-100-D00-0
 62
     7
370
    50
100
AcDbCircle
 10
100.929451
 20
-141.280593
 30
0.0
 40
47.49999999999997
100
AcDbArc
 50
0.0
 51
180.0
  0
ARC
  5
128
330
1F
100
AcDbEntity
  8
LC-001-100-D00-0
 62
     7
370
    50
100
AcDbCircle
 10
100.929451
 20
-141.280593
 30
0.0
 40
70.99999999999997
100
AcDbArc
 50
0.0
 51
180.0
  0
CIRCLE
  5
129
330
1F
100
AcDbEntity
  8
LC-001-100-D00-0
 62
     7
370
    50
100
AcDbCircle
 10
100.929451
 20
-86.780593
 30
0.0
 40
3.750000000000057
  0
ARC
  5
12A
330
1F
100
AcDbEntity
  8
LC-001-100-D00-0
 62
     7
370
    50
100
AcDbCircle
 10
100.929451
 20
-141.280593
 30
0.0
 40
46.99999999999986
100
AcDbArc
 50
0.0
 51
41.034894
  0
LINE
  5
12B
330
1F
100
AcDbEntity
  8
LC-001-100-D00-0
 62
     7
370
    50
100
AcDbLine
 10
136.382014
 20
-110.424222
 30
0.0
 11
136.736408
 21
-110.06983
 31
0.0
  0
ARC
  5
12C
330
1F
100
AcDbEntity
  8
LC-001-100-D00-0
 62
     7
370
    50
100
AcDbCircle
 10
100.929451
 20
-141.280593
 30
0.0
 40
46.99999999999994
100
AcDbArc
 50
138.965106
 51
180.0
  0
LINE
  5
12D
330
1F
100
AcDbEntity
  8
LC-001-100-D00-0
 62
     7
370
    50
100
AcDbLine
 10
65.122493
 20
-110.06983
 30
0.0
 11
65.476888
 21
-110.424222
 31
0.0
  0
LINE
  5
12E
330
1F
100
AcDbEntity
  8
LC-001-100-D00-0
 62
     7
370
    50
100
AcDbLine
 10
132.140214
 20
-105.473635
 30
0.0
 11
131.785822
 21
-105.82803
 31
0.0
  0
ARC
  5
12F
330
1F
100
AcDbEntity
  8
LC-001-100-D00-0
 62
     7
370
    50
100
AcDbCircle
 10
100.929451
 20
-141.280593
 30
0.0
 40
46.99999999999996
100
AcDbArc
 50
48.965106
 51
131.034894
  0
LINE
  5
130
330
1F
100
AcDbEntity
  8
LC-001-100-D00-0
 62
     7
370
    50
100
AcDbLine
 10
70.07308
 20
-105.82803
 30
0.0
 11
69.718687
 21
-105.473635
 31
0.0
  0
ARC
  5
131
330
1F
100
AcDbEntity
  8
LC-001-100-D00-0
 62
     7
370
    50
100
AcDbCircle
 10
100.929451
 20
-141.280593
 30
0.0
 40
46.49999999999997
100
AcDbArc
 50
49.007811
 51
130.992189
  0
LINE
  5
132
330
1F
100
AcDbEntity
  8
LC-001-100-D00-0
 62
     7
370
    50
100
AcDbLine
 10
131.431411
 20
-106.182439
 30
0.0
 11
131.785822
 21
-105.82803
 31
0.0
  0
LINE
  5
133
330
1F
100
AcDbEntity
  8
LC-001-100-D00-0
 62
     7
370
    50
100
AcDbLine
 10
70.07308
 20
-105.82803
 30
0.0
 11
70.427491
 21
-106.182439
 31
0.0
  0
ARC
  5
134
330
1F
100
AcDbEntity
  8
LC-001-100-D00-0
 62
     7
370
    50
100
AcDbCircle
 10
100.929451
 20
-141.280593
 30
0.0
 40
46.49999999999999
100
AcDbArc
 50
139.007811
 51
180.0
  0
LINE
  5
135
330
1F
100
AcDbEntity
  8
LC-001-100-D00-0
 62
     7
370
    50
100
AcDbLine
 10
65.831297
 20
-110.778633
 30
0.0
 11
65.476888
 21
-110.424222
 31
0.0
  0
ARC
  5
136
330
1F
100
AcDbEntity
  8
LC-001-100-D00-0
 62
     7
370
    50
100
AcDbCircle
 10
100.929451
 20
-141.280593
 30
0.0
 40
46.49999999999997
100
AcDbArc
 50
0.0
 51
40.992189
  0
LINE
  5
137
330
1F
100
AcDbEntity
  8
LC-001-100-D00-0
 62
     7
370
    50
100
AcDbLine
 10
136.382014
 20
-110.424222
 30
0.0
 11
136.027605
 21
-110.778633
 31
0.0
  0
INSERT
  5
153
330
1F
100
AcDbEntity
  8
LC-001-100-D00-0
 62
     7
370
    50
100
AcDbBlockReference
  2
POLY6
 10
0.0
 20
0.0
 30
0.0
  0
INSERT
  5
16F
330
1F
100
AcDbEntity
  8
LC-001-100-D00-0
 62
     7
370
    50
100
AcDbBlockReference
  2
POLY7
 10
0.0
 20
0.0
 30
0.0
  0
INSERT
  5
18B
330
1F
100
AcDbEntity
  8
LC-001-100-D00-0
 62
     7
370
    50
100
AcDbBlockReference
  2
POLY8
 10
0.0
 20
0.0
 30
0.0
  0
INSERT
  5
1A7
330
1F
100
AcDbEntity
  8
LC-001-100-D00-0
 62
     7
370
    50
100
AcDbBlockReference
  2
POLY9
 10
0.0
 20
0.0
 30
0.0
  0
INSERT
  5
1C3
330
1F
100
AcDbEntity
  8
LC-001-100-D00-0
 62
     7
370
    50
100
AcDbBlockReference
  2
POLY10
 10
0.0
 20
0.0
 30
0.0
  0
INSERT
  5
1DF
330
1F
100
AcDbEntity
  8
LC-001-100-D00-0
 62
     7
370
    50
100
AcDbBlockReference
  2
POLY11
 10
0.0
 20
0.0
 30
0.0
  0
INSERT
  5
1FB
330
1F
100
AcDbEntity
  8
LC-001-100-D00-0
 62
     7
370
    50
100
AcDbBlockReference
  2
POLY12
 10
0.0
 20
0.0
 30
0.0
  0
INSERT
  5
207
330
1F
100
AcDbEntity
  8
LC-001-100-D00-0
 62
     7
370
    50
100
AcDbBlockReference
  2
POLY13
 10
0.0
 20
0.0
 30
0.0
  0
LINE
  5
208
330
1F
100
AcDbEntity
  8
LC-001-100-D00-0
 62
     7
370
    50
100
AcDbLine
 10
-1.747501
 20
231.467474
 30
0.0
 11
-1.276222
 21
229.70866
 31
0.0
  0
ARC
  5
209
330
1F
100
AcDbEntity
  8
LC-001-100-D00-0
 62
     7
370
    50
100
AcDbCircle
 10
-0.310298
 20
229.967475
 30
0.0
 40
1.000000000000085
100
AcDbArc
 50
195.0
 51
270.0
  0
ARC
  5
20A
330
1F
100
AcDbEntity
  8
LC-001-100-D00-0
 62
     7
370
    50
100
AcDbCircle
 10
8.324552
 20
229.967475
 30
0.0
 40
1.0
100
AcDbArc
 50
270.0
 51
349.026724
  0
INSERT
  5
21E
330
1F
100
AcDbEntity
  8
LC-001-100-D00-0
 62
     7
370
    50
100
AcDbBlockReference
  2
POLY14
 10
0.0
 20
0.0
 30
0.0
  0
INSERT
  5
22A
330
1F
100
AcDbEntity
  8
LC-001-100-D00-0
 62
     7
370
    50
100
AcDbBlockReference
  2
POLY15
 10
0.0
 20
0.0
 30
0.0
  0
INSERT
  5
23A
330
1F
100
AcDbEntity
  8
LC-001-100-D00-0
 62
     7
370
    50
100
AcDbBlockReference
  2
POLY16
 10
0.0
 20
0.0
 30
0.0
  0
INSERT
  5
24E
330
1F
100
AcDbEntity
  8
LC-001-100-D00-0
 62
     7
370
    50
100
AcDbBlockReference
  2
POLY17
 10
0.0
 20
0.0
 30
0.0
  0
INSERT
  5
25A
330
1F
100
AcDbEntity
  8
LC-001-100-D00-0
 62
     7
370
    50
100
AcDbBlockReference
  2
POLY18
 10
0.0
 20
0.0
 30
0.0
  0
INSERT
  5
26A
330
1F
100
AcDbEntity
  8
LC-001-100-D00-0
 62
     7
370
    50
100
AcDbBlockReference
  2
POLY19
 10
0.0
 20
0.0
 30
0.0
  0
LINE
  5
26B
330
1F
100
AcDbEntity
  8
LC-001-100-D00-0
 62
     7
370
    50
100
AcDbLine
 10
-28.740424
 20
240.467479
 30
0.0
 11
-27.668614
 21
244.467472
 31
0.0
  0
LINE
  5
26C
330
1F
100
AcDbEntity
  8
LC-001-100-D00-0
 62
     7
370
    50
100
AcDbLine
 10
-27.668614
 20
244.467472
 30
0.0
 11
-43.400678
 21
244.467472
 31
0.0
  0
LINE
  5
26D
330
1F
100
AcDbEntity
  8
LC-001-100-D00-0
 62
     7
370
    50
100
AcDbLine
 10
-44.070545
 20
246.967469
 30
0.0
 11
-43.400678
 21
244.467472
 31
0.0
  0
LINE
  5
26E
330
1F
100
AcDbEntity
  8
LC-001-100-D00-0
 62
     7
370
    50
100
AcDbLine
 10
-28.070542
 20
246.967469
 30
0.0
 11
-44.070545
 21
246.967469
 31
0.0
  0
LINE
  5
26F
330
1F
100
AcDbEntity
  8
LC-001-100-D00-0
 62
     7
370
    50
100
AcDbLine
 10
-28.070542
 20
246.967469
 30
0.0
 11
-26.570547
 21
246.967469
 31
0.0
  0
LINE
  5
270
330
1F
100
AcDbEntity
  8
LC-001-100-D00-0
 62
     7
370
    50
100
AcDbLine
 10
-26.570547
 20
246.467476
 30
0.0
 11
-26.570547
 21
246.967469
 31
0.0
  0
LINE
  5
271
330
1F
100
AcDbEntity
  8
LC-001-100-D00-0
 62
     7
370
    50
100
AcDbLine
 10
-26.570547
 20
246.467476
 30
0.0
 11
17.757875
 21
246.467476
 31
0.0
  0
LINE
  5
272
330
1F
100
AcDbEntity
  8
LC-001-100-D00-0
 62
     7
370
    50
100
AcDbLine
 10
17.757875
 20
246.467476
 30
0.0
 11
23.257878
 21
240.967472
 31
0.0
  0
LINE
  5
273
330
1F
100
AcDbEntity
  8
LC-001-100-D00-0
 62
     7
370
    50
100
AcDbLine
 10
45.245804
 20
240.967472
 30
0.0
 11
23.257878
 21
240.967472
 31
0.0
  0
LINE
  5
274
330
1F
100
AcDbEntity
  8
LC-001-100-D00-0
 62
     7
370
    50
100
AcDbLine
 10
45.684476
 20
237.89676
 30
0.0
 11
45.245804
 21
240.967472
 31
0.0
  0
LINE
  5
275
330
1F
100
AcDbEntity
  8
LC-001-100-D00-0
 62
     7
370
    50
100
AcDbLine
 10
45.684476
 20
237.89676
 30
0.0
 11
46.179452
 21
237.967466
 31
0.0
  0
LINE
  5
276
330
1F
100
AcDbEntity
  8
LC-001-100-D00-0
 62
     7
370
    50
100
AcDbLine
 10
46.179452
 20
237.967466
 30
0.0
 11
47.329452
 21
237.967466
 31
0.0
  0
LINE
  5
277
330
1F
100
AcDbEntity
  8
LC-001-100-D00-0
 62
     7
370
    50
100
AcDbLine
 10
47.329452
 20
237.967466
 30
0.0
 11
48.429452
 21
236.867462
 31
0.0
  0
LINE
  5
278
330
1F
100
AcDbEntity
  8
LC-001-100-D00-0
 62
     7
370
    50
100
AcDbLine
 10
48.429452
 20
236.867462
 30
0.0
 11
48.429452
 21
99.967469
 31
0.0
  0
LINE
  5
279
330
1F
100
AcDbEntity
  8
LC-001-100-D00-0
 62
     7
370
    50
100
AcDbLine
 10
48.429452
 20
99.967469
 30
0.0
 11
47.001247
 21
99.967469
 31
0.0
  0
LINE
  5
27A
330
1F
100
AcDbEntity
  8
LC-001-100-D00-0
 62
     7
370
    50
100
AcDbLine
 10
47.001247
 20
99.967469
 30
0.0
 11
45.929451
 21
103.96747
 31
0.0
  0
LINE
  5
27B
330
1F
100
AcDbEntity
  8
LC-001-100-D00-0
 62
     7
370
    50
100
AcDbLine
 10
45.929451
 20
103.96747
 30
0.0
 11
45.929451
 21
235.967477
 31
0.0
  0
LINE
  5
27C
330
1F
100
AcDbEntity
  8
LC-001-100-D00-0
 62
     7
370
    50
100
AcDbLine
 10
42.929453
 20
238.967468
 30
0.0
 11
45.929451
 21
235.967477
 31
0.0
  0
LINE
  5
27D
330
1F
100
AcDbEntity
  8
LC-001-100-D00-0
 62
     7
370
    50
100
AcDbLine
 10
42.929453
 20
238.967468
 30
0.0
 11
22.429448
 21
238.967468
 31
0.0
  0
LINE
  5
27E
330
1F
100
AcDbEntity
  8
LC-001-100-D00-0
 62
     7
370
    50
100
AcDbLine
 10
16.929452
 20
244.467472
 30
0.0
 11
22.429448
 21
238.967468
 31
0.0
  0
LINE
  5
27F
330
1F
100
AcDbEntity
  8
LC-001-100-D00-0
 62
     7
370
    50
100
AcDbLine
 10
-25.168571
 20
244.467472
 30
0.0
 11
16.929452
 21
244.467472
 31
0.0
  0
ARC
  5
280
330
1F
100
AcDbEntity
  8
LC-001-100-D00-0
 62
     7
370
    50
100
AcDbCircle
 10
-30.089165
 20
229.967476
 30
0.0
 40
1.0
100
AcDbArc
 50
270.0
 51
345.0
  0
LINE
  5
281
330
1F
100
AcDbEntity
  8
LC-001-100-D00-0
 62
     7
370
    50
100
AcDbLine
 10
-30.087545
 20
228.967478
 30
0.0
 11
-39.551932
 21
228.967478
 31
0.0
  0
ARC
  5
282
330
1F
100
AcDbEntity
  8
LC-001-100-D00-0
 62
     7
370
    50
100
AcDbCircle
 10
-39.551933
 20
229.967476
 30
0.0
 40
1.00000000000003
100
AcDbArc
 50
195.0
 51
270.0
  0
LINE
  5
283
330
1F
100
AcDbEntity
  8
LC-001-100-D00-0
 62
     7
370
    50
100
AcDbLine
 10
-40.517855
 20
229.708661
 30
0.0
 11
-40.989134
 21
231.467475
 31
0.0
  0
LINE
  5
284
330
1F
100
AcDbEntity
  8
LC-001-100-D00-0
 62
     7
370
    50
100
AcDbLine
 10
-0.862765
 20
231.467475
 30
0.0
 11
-1.747501
 21
231.467475
 31
0.0
  0
INSERT
  5
28A
330
1F
100
AcDbEntity
  8
LC-001-100-D00-0
 62
     7
370
    50
100
AcDbBlockReference
  2
KLON1
 10
0.0
 20
0.0
 30
0.0
  0
LINE
  5
28B
330
1F
100
AcDbEntity
  8
LC-001-100-D00-0
 62
     7
370
    50
100
AcDbLine
 10
245.25958
 20
244.467472
 30
0.0
 11
245.929447
 21
246.967469
 31
0.0
  0
LINE
  5
28C
330
1F
100
AcDbEntity
  8
LC-001-100-D00-0
 62
     7
370
    50
100
AcDbLine
 10
245.25958
 20
244.467472
 30
0.0
 11
229.527516
 21
244.467472
 31
0.0
  0
LINE
  5
28D
330
1F
100
AcDbEntity
  8
LC-001-100-D00-0
 62
     7
370
    50
100
AcDbLine
 10
229.929444
 20
246.967469
 30
0.0
 11
230.599326
 21
244.467472
 31
0.0
  0
LINE
  5
28E
330
1F
100
AcDbEntity
  8
LC-001-100-D00-0
 62
     7
370
    50
100
AcDbLine
 10
245.929447
 20
246.967469
 30
0.0
 11
229.929444
 21
246.967469
 31
0.0
  0
LINE
  5
28F
330
1F
100
AcDbEntity
  8
LC-001-100-D00-0
 62
     7
370
    50
100
AcDbLine
 10
184.92945
 20
244.467472
 30
0.0
 11
227.027473
 21
244.467472
 31
0.0
  0
LINE
  5
290
330
1F
100
AcDbEntity
  8
LC-001-100-D00-0
 62
     7
370
    50
100
AcDbLine
 10
179.429453
 20
238.967468
 30
0.0
 11
184.92945
 21
244.467472
 31
0.0
  0
LINE
  5
291
330
1F
100
AcDbEntity
  8
LC-001-100-D00-0
 62
     7
370
    50
100
AcDbLine
 10
179.429453
 20
238.967468
 30
0.0
 11
158.929449
 21
238.967468
 31
0.0
  0
LINE
  5
292
330
1F
100
AcDbEntity
  8
LC-001-100-D00-0
 62
     7
370
    50
100
AcDbLine
 10
155.929451
 20
235.967477
 30
0.0
 11
158.929449
 21
238.967468
 31
0.0
  0
LINE
  5
293
330
1F
100
AcDbEntity
  8
LC-001-100-D00-0
 62
     7
370
    50
100
AcDbLine
 10
155.929451
 20
235.967477
 30
0.0
 11
155.929451
 21
103.96747
 31
0.0
  0
LINE
  5
294
330
1F
100
AcDbEntity
  8
LC-001-100-D00-0
 62
     7
370
    50
100
AcDbLine
 10
155.929451
 20
103.96747
 30
0.0
 11
154.857655
 21
99.967469
 31
0.0
  0
LINE
  5
295
330
1F
100
AcDbEntity
  8
LC-001-100-D00-0
 62
     7
370
    50
100
AcDbLine
 10
154.857655
 20
99.967469
 30
0.0
 11
153.429449
 21
99.967469
 31
0.0
  0
LINE
  5
296
330
1F
100
AcDbEntity
  8
LC-001-100-D00-0
 62
     7
370
    50
100
AcDbLine
 10
153.429449
 20
99.967469
 30
0.0
 11
153.429449
 21
236.867462
 31
0.0
  0
LINE
  5
297
330
1F
100
AcDbEntity
  8
LC-001-100-D00-0
 62
     7
370
    50
100
AcDbLine
 10
153.429449
 20
236.867462
 30
0.0
 11
154.529449
 21
237.967466
 31
0.0
  0
LINE
  5
298
330
1F
100
AcDbEntity
  8
LC-001-100-D00-0
 62
     7
370
    50
100
AcDbLine
 10
154.529449
 20
237.967466
 30
0.0
 11
155.67945
 21
237.967466
 31
0.0
  0
LINE
  5
299
330
1F
100
AcDbEntity
  8
LC-001-100-D00-0
 62
     7
370
    50
100
AcDbLine
 10
155.67945
 20
237.967466
 30
0.0
 11
156.174426
 21
237.89676
 31
0.0
  0
LINE
  5
29A
330
1F
100
AcDbEntity
  8
LC-001-100-D00-0
 62
     7
370
    50
100
AcDbLine
 10
156.613097
 20
240.967472
 30
0.0
 11
156.174426
 21
237.89676
 31
0.0
  0
LINE
  5
29B
330
1F
100
AcDbEntity
  8
LC-001-100-D00-0
 62
     7
370
    50
100
AcDbLine
 10
178.601023
 20
240.967472
 30
0.0
 11
156.613097
 21
240.967472
 31
0.0
  0
LINE
  5
29C
330
1F
100
AcDbEntity
  8
LC-001-100-D00-0
 62
     7
370
    50
100
AcDbLine
 10
178.601023
 20
240.967472
 30
0.0
 11
184.101027
 21
246.467476
 31
0.0
  0
LINE
  5
29D
330
1F
100
AcDbEntity
  8
LC-001-100-D00-0
 62
     7
370
    50
100
AcDbLine
 10
184.101027
 20
246.467476
 30
0.0
 11
228.429448
 21
246.467476
 31
0.0
  0
LINE
  5
29E
330
1F
100
AcDbEntity
  8
LC-001-100-D00-0
 62
     7
370
    50
100
AcDbLine
 10
228.429448
 20
246.967469
 30
0.0
 11
228.429448
 21
246.467476
 31
0.0
  0
LINE
  5
29F
330
1F
100
AcDbEntity
  8
LC-001-100-D00-0
 62
     7
370
    50
100
AcDbLine
 10
228.429448
 20
246.967469
 30
0.0
 11
229.929444
 21
246.967469
 31
0.0
  0
LINE
  5
2A0
330
1F
100
AcDbEntity
  8
LC-001-100-D00-0
 62
     7
370
    50
100
AcDbLine
 10
-31.884062
 20
231.467475
 30
0.0
 11
-27.97808
 21
244.467472
 31
0.0
  0
ARC
  5
2A1
330
1F
100
AcDbEntity
  8
LC-001-100-D00-0
 62
     7
370
    50
100
AcDbCircle
 10
-48.070549
 20
245.467469
 30
0.0
 40
0.9999999999999716
100
AcDbArc
 50
180.0
 51
270.0
  0
ARC
  5
2A2
330
1F
100
AcDbEntity
  8
LC-001-100-D00-0
 62
     7
370
    50
100
AcDbCircle
 10
249.929451
 20
245.467469
 30
0.0
 40
1.0
100
AcDbArc
 50
270.0
 51
0.0
  0
LINE
  5
2A3
330
1F
100
AcDbEntity
  8
LC-001-100-D00-0
 62
     7
370
    50
100
AcDbLine
 10
-49.070555
 20
245.467474
 30
0.0
 11
-49.070555
 21
246.967469
 31
0.0
  0
LINE
  5
2A4
330
1F
100
AcDbEntity
  8
LC-001-100-D00-0
 62
     7
370
    50
100
AcDbLine
 10
-49.070555
 20
246.967469
 30
0.0
 11
-44.070545
 21
246.967469
 31
0.0
  0
LINE
  5
2A5
330
1F
100
AcDbEntity
  8
LC-001-100-D00-0
 62
     7
370
    50
100
AcDbLine
 10
-48.070553
 20
244.467472
 30
0.0
 11
-43.400678
 21
244.467472
 31
0.0
  0
LINE
  5
2A6
330
1F
100
AcDbEntity
  8
LC-001-100-D00-0
 62
     7
370
    50
100
AcDbLine
 10
250.929457
 20
246.967469
 30
0.0
 11
250.929457
 21
245.467474
 31
0.0
  0
LINE
  5
2A7
330
1F
100
AcDbEntity
  8
LC-001-100-D00-0
 62
     7
370
    50
100
AcDbLine
 10
245.929447
 20
246.967469
 30
0.0
 11
250.929457
 21
246.967469
 31
0.0
  0
LINE
  5
2A8
330
1F
100
AcDbEntity
  8
LC-001-100-D00-0
 62
     7
370
    50
100
AcDbLine
 10
245.25958
 20
244.467472
 30
0.0
 11
249.929455
 21
244.467472
 31
0.0
  0
LINE
  5
2A9
330
1F
100
AcDbEntity
  8
LC-001-100-D00-0
 62
     7
370
    50
100
AcDbLine
 10
48.429452
 20
236.867462
 30
0.0
 11
153.429449
 21
236.867462
 31
0.0
  0
LINE
  5
2AA
330
1F
100
AcDbEntity
  8
LC-001-100-D00-0
 62
     7
370
    50
100
AcDbLine
 10
48.429452
 20
99.967469
 30
0.0
 11
153.429449
 21
99.967469
 31
0.0
  0
LINE
  5
2AB
330
1F
100
AcDbEntity
  8
LC-001-100-D00-0
 62
     7
370
    50
100
AcDbLine
 10
47.329452
 20
237.967466
 30
0.0
 11
154.529449
 21
237.967466
 31
0.0
  0
INSERT
  5
2B5
330
1F
100
AcDbEntity
  8
LC-001-100-D00-0
 62
     7
370
    50
100
AcDbBlockReference
  2
POLY20
 10
0.0
 20
0.0
 30
0.0
  0
LINE
  5
2B6
330
1F
100
AcDbEntity
  8
LC-001-100-D00-0
 62
     7
370
    50
100
AcDbLine
 10
4.398522
 20
231.467475
 30
0.0
 11
7.160467
 21
244.467472
 31
0.0
  0
INSERT
  5
2C4
330
1F
100
AcDbEntity
  8
LC-001-100-D00-0
 62
     7
370
    50
100
AcDbBlockReference
  2
POLY21
 10
0.0
 20
0.0
 30
0.0
  0
INSERT
  5
2CE
330
1F
100
AcDbEntity
  8
LC-001-100-D00-0
 62
     7
370
    50
100
AcDbBlockReference
  2
POLY22
 10
0.0
 20
0.0
 30
0.0
  0
LINE
  5
2CF
330
1F
100
AcDbEntity
  8
LC-001-100-D00-0
 62
     7
370
    50
100
AcDbLine
 10
6.20323
 20
228.967477
 30
0.0
 11
4.33192
 21
228.967477
 31
0.0
  0
INSERT
  5
2DD
330
1F
100
AcDbEntity
  8
LC-001-100-D00-0
 62
     7
370
    50
100
AcDbBlockReference
  2
POLY23
 10
0.0
 20
0.0
 30
0.0
  0
LINE
  5
2DE
330
1F
100
AcDbEntity
  8
LC-001-100-D00-0
 62
     7
370
    50
100
AcDbLine
 10
-1.747501
 20
231.467474
 30
0.0
 11
4.398521
 21
231.467474
 31
0.0
  0
LINE
  5
2DF
330
1F
100
AcDbEntity
  8
LC-001-100-D00-0
 62
     7
370
    50
100
AcDbLine
 10
4.33192
 20
228.967477
 30
0.0
 11
-0.310299
 21
228.967477
 31
0.0
  0
LINE
  5
2E0
330
1F
100
AcDbEntity
  8
LC-001-100-D00-0
 62
     7
370
    50
100
AcDbLine
 10
178.39392
 20
241.467466
 30
0.0
 11
183.893916
 21
246.967469
 31
0.0
  0
LINE
  5
2E1
330
1F
100
AcDbEntity
  8
LC-001-100-D00-0
 62
     7
370
    50
100
AcDbLine
 10
17.964986
 20
246.967469
 30
0.0
 11
23.464982
 21
241.467466
 31
0.0
  0
LINE
  5
2E2
330
1F
100
AcDbEntity
  8
LC-001-100-D00-0
 62
     7
370
    50
100
AcDbLine
 10
17.964986
 20
246.967469
 30
0.0
 11
183.893916
 21
246.967469
 31
0.0
  0
LINE
  5
2E3
330
1F
100
AcDbEntity
  8
LC-001-100-D00-0
 62
     7
370
    50
100
AcDbLine
 10
45.679451
 20
241.467466
 30
0.0
 11
52.179453
 21
241.467466
 31
0.0
  0
LINE
  5
2E4
330
1F
100
AcDbEntity
  8
LC-001-100-D00-0
 62
     7
370
    50
100
AcDbLine
 10
149.679449
 20
241.467466
 30
0.0
 11
156.179451
 21
241.467466
 31
0.0
  0
LINE
  5
2E5
330
1F
100
AcDbEntity
  8
LC-001-100-D00-0
 62
     7
370
    50
100
AcDbLine
 10
156.179451
 20
241.467466
 30
0.0
 11
155.67945
 21
237.967466
 31
0.0
  0
LINE
  5
2E6
330
1F
100
AcDbEntity
  8
LC-001-100-D00-0
 62
     7
370
    50
100
AcDbLine
 10
46.179452
 20
237.967466
 30
0.0
 11
45.679451
 21
241.467466
 31
0.0
  0
LINE
  5
2E7
330
1F
100
AcDbEntity
  8
LC-001-100-D00-0
 62
     7
370
    50
100
AcDbLine
 10
178.39392
 20
241.467466
 30
0.0
 11
156.179451
 21
241.467466
 31
0.0
  0
LINE
  5
2E8
330
1F
100
AcDbEntity
  8
LC-001-100-D00-0
 62
     7
370
    50
100
AcDbLine
 10
183.893916
 20
246.967469
 30
0.0
 11
228.429448
 21
246.967469
 31
0.0
  0
LINE
  5
2E9
330
1F
100
AcDbEntity
  8
LC-001-100-D00-0
 62
     7
370
    50
100
AcDbLine
 10
45.679451
 20
241.467466
 30
0.0
 11
23.464982
 21
241.467466
 31
0.0
  0
LINE
  5
2EA
330
1F
100
AcDbEntity
  8
LC-001-100-D00-0
 62
     7
370
    50
100
AcDbLine
 10
-26.570547
 20
246.967469
 30
0.0
 11
17.964986
 21
246.967469
 31
0.0
  0
INSERT
  5
2FC
330
1F
100
AcDbEntity
  8
LC-001-100-D00-0
 62
     7
370
    50
100
AcDbBlockReference
  2
POLY24
 10
0.0
 20
0.0
 30
0.0
  0
INSERT
  5
310
330
1F
100
AcDbEntity
  8
LC-001-100-D00-0
 62
     7
370
    50
100
AcDbBlockReference
  2
POLY25
 10
0.0
 20
0.0
 30
0.0
  0
LINE
  5
311
330
1F
100
AcDbEntity
  8
LC-001-100-D00-0
 62
     7
370
    50
100
AcDbLine
 10
145.929453
 20
238.967468
 30
0.0
 11
141.928584
 21
238.967468
 31
0.0
  0
INSERT
  5
325
330
1F
100
AcDbEntity
  8
LC-001-100-D00-0
 62
     7
370
    50
100
AcDbBlockReference
  2
POLY26
 10
0.0
 20
0.0
 30
0.0
  0
LINE
  5
326
330
1F
100
AcDbEntity
  8
LC-001-100-D00-0
 62
     7
370
    50
100
AcDbLine
 10
139.735349
 20
238.967468
 30
0.0
 11
136.027605
 21
238.967468
 31
0.0
  0
LINE
  5
327
330
1F
100
AcDbEntity
  8
LC-001-100-D00-0
 62
     7
370
    50
100
AcDbLine
 10
136.027605
 20
242.167463
 30
0.0
 11
136.027605
 21
238.967468
 31
0.0
  0
LINE
  5
328
330
1F
100
AcDbEntity
  8
LC-001-100-D00-0
 62
     7
370
    50
100
AcDbLine
 10
147.429452
 20
242.167463
 30
0.0
 11
136.027605
 21
242.167463
 31
0.0
  0
LINE
  5
329
330
1F
100
AcDbEntity
  8
LC-001-100-D00-0
 62
     7
370
    50
100
AcDbLine
 10
147.429452
 20
242.167463
 30
0.0
 11
147.429452
 21
240.467464
 31
0.0
  0
LINE
  5
32A
330
1F
100
AcDbEntity
  8
LC-001-100-D00-0
 62
     7
370
    50
100
AcDbLine
 10
65.831297
 20
242.167463
 30
0.0
 11
54.42945
 21
242.167463
 31
0.0
  0
LINE
  5
32B
330
1F
100
AcDbEntity
  8
LC-001-100-D00-0
 62
     7
370
    50
100
AcDbLine
 10
65.831297
 20
238.967468
 30
0.0
 11
65.831297
 21
242.167463
 31
0.0
  0
LINE
  5
32C
330
1F
100
AcDbEntity
  8
LC-001-100-D00-0
 62
     7
370
    50
100
AcDbLine
 10
65.831297
 20
238.967468
 30
0.0
 11
62.077348
 21
238.967468
 31
0.0
  0
INSERT
  5
33E
330
1F
100
AcDbEntity
  8
LC-001-100-D00-0
 62
     7
370
    50
100
AcDbBlockReference
  2
POLY27
 10
0.0
 20
0.0
 30
0.0
  0
LINE
  5
33F
330
1F
100
AcDbEntity
  8
LC-001-100-D00-0
 62
     7
370
    50
100
AcDbLine
 10
59.930318
 20
238.967468
 30
0.0
 11
55.929449
 21
238.967468
 31
0.0
  0
LINE
  5
340
330
1F
100
AcDbEntity
  8
LC-001-100-D00-0
 62
     7
370
    50
100
AcDbLine
 10
54.42945
 20
240.467464
 30
0.0
 11
54.42945
 21
242.167463
 31
0.0
  0
LINE
  5
341
330
1F
100
AcDbEntity
  8
LC-001-100-D00-0
 62
     7
370
    50
100
AcDbLine
 10
149.679449
 20
242.167463
 30
0.0
 11
171.929453
 21
242.167463
 31
0.0
  0
LINE
  5
342
330
1F
100
AcDbEntity
  8
LC-001-100-D00-0
 62
     7
370
    50
100
AcDbLine
 10
149.679449
 20
239.96747
 30
0.0
 11
149.679449
 21
242.167463
 31
0.0
  0
ARC
  5
343
330
1F
100
AcDbEntity
  8
LC-001-100-D00-0
 62
     7
370
    50
100
AcDbCircle
 10
148.679451
 20
239.967469
 30
0.0
 40
1.0
100
AcDbArc
 50
270.0
 51
0.0
  0
LINE
  5
344
330
1F
100
AcDbEntity
  8
LC-001-100-D00-0
 62
     7
370
    50
100
AcDbLine
 10
147.929449
 20
242.167463
 30
0.0
 11
147.429452
 21
242.167463
 31
0.0
  0
LINE
  5
345
330
1F
100
AcDbEntity
  8
LC-001-100-D00-0
 62
     7
370
    50
100
AcDbLine
 10
147.929449
 20
242.167463
 30
0.0
 11
148.42945
 21
242.667471
 31
0.0
  0
LINE
  5
346
330
1F
100
AcDbEntity
  8
LC-001-100-D00-0
 62
     7
370
    50
100
AcDbLine
 10
148.42945
 20
244.167467
 30
0.0
 11
148.42945
 21
242.667471
 31
0.0
  0
LINE
  5
347
330
1F
100
AcDbEntity
  8
LC-001-100-D00-0
 62
     7
370
    50
100
AcDbLine
 10
171.929453
 20
244.167467
 30
0.0
 11
148.42945
 21
244.167467
 31
0.0
  0
LINE
  5
348
330
1F
100
AcDbEntity
  8
LC-001-100-D00-0
 62
     7
370
    50
100
AcDbLine
 10
171.929453
 20
242.167463
 30
0.0
 11
171.929453
 21
244.167467
 31
0.0
  0
LINE
  5
349
330
1F
100
AcDbEntity
  8
LC-001-100-D00-0
 62
     7
370
    50
100
AcDbLine
 10
145.929453
 20
238.967468
 30
0.0
 11
148.679451
 21
238.967468
 31
0.0
  0
ARC
  5
34A
330
1F
100
AcDbEntity
  8
LC-001-100-D00-0
 62
     7
370
    50
100
AcDbCircle
 10
53.179451
 20
239.967469
 30
0.0
 40
1.0
100
AcDbArc
 50
180.0
 51
270.0
  0
LINE
  5
34B
330
1F
100
AcDbEntity
  8
LC-001-100-D00-0
 62
     7
370
    50
100
AcDbLine
 10
52.179453
 20
242.167463
 30
0.0
 11
52.179453
 21
239.96747
 31
0.0
  0
LINE
  5
34C
330
1F
100
AcDbEntity
  8
LC-001-100-D00-0
 62
     7
370
    50
100
AcDbLine
 10
136.736408
 20
242.667471
 30
0.0
 11
148.42945
 21
242.667471
 31
0.0
  0
LINE
  5
34D
330
1F
100
AcDbEntity
  8
LC-001-100-D00-0
 62
     7
370
    50
100
AcDbLine
 10
132.140214
 20
242.667471
 30
0.0
 11
132.140214
 21
238.967468
 31
0.0
  0
LINE
  5
34E
330
1F
100
AcDbEntity
  8
LC-001-100-D00-0
 62
     7
370
    50
100
AcDbLine
 10
69.718687
 20
242.667471
 30
0.0
 11
132.140214
 21
242.667471
 31
0.0
  0
LINE
  5
34F
330
1F
100
AcDbEntity
  8
LC-001-100-D00-0
 62
     7
370
    50
100
AcDbLine
 10
69.718687
 20
238.967468
 30
0.0
 11
69.718687
 21
242.667471
 31
0.0
  0
LINE
  5
350
330
1F
100
AcDbEntity
  8
LC-001-100-D00-0
 62
     7
370
    50
100
AcDbLine
 10
53.429451
 20
242.667471
 30
0.0
 11
65.122493
 21
242.667471
 31
0.0
  0
LINE
  5
351
330
1F
100
AcDbEntity
  8
LC-001-100-D00-0
 62
     7
370
    50
100
AcDbLine
 10
53.429451
 20
242.667471
 30
0.0
 11
53.429451
 21
244.167467
 31
0.0
  0
LINE
  5
352
330
1F
100
AcDbEntity
  8
LC-001-100-D00-0
 62
     7
370
    50
100
AcDbLine
 10
53.429451
 20
244.167467
 30
0.0
 11
148.42945
 21
244.167467
 31
0.0
  0
LINE
  5
353
330
1F
100
AcDbEntity
  8
LC-001-100-D00-0
 62
     7
370
    50
100
AcDbLine
 10
65.831297
 20
238.967468
 30
0.0
 11
69.718687
 21
238.967468
 31
0.0
  0
LINE
  5
354
330
1F
100
AcDbEntity
  8
LC-001-100-D00-0
 62
     7
370
    50
100
AcDbLine
 10
132.140214
 20
238.967468
 30
0.0
 11
136.027605
 21
238.967468
 31
0.0
  0
LINE
  5
355
330
1F
100
AcDbEntity
  8
LC-001-100-D00-0
 62
     7
370
    50
100
AcDbLine
 10
53.429451
 20
242.667471
 30
0.0
 11
53.929452
 21
242.167463
 31
0.0
  0
LINE
  5
356
330
1F
100
AcDbEntity
  8
LC-001-100-D00-0
 62
     7
370
    50
100
AcDbLine
 10
54.42945
 20
242.167463
 30
0.0
 11
53.929452
 21
242.167463
 31
0.0
  0
LINE
  5
357
330
1F
100
AcDbEntity
  8
LC-001-100-D00-0
 62
     7
370
    50
100
AcDbLine
 10
29.929449
 20
244.167467
 30
0.0
 11
29.929449
 21
242.167463
 31
0.0
  0
LINE
  5
358
330
1F
100
AcDbEntity
  8
LC-001-100-D00-0
 62
     7
370
    50
100
AcDbLine
 10
29.929449
 20
242.167463
 30
0.0
 11
52.179453
 21
242.167463
 31
0.0
  0
LINE
  5
359
330
1F
100
AcDbEntity
  8
LC-001-100-D00-0
 62
     7
370
    50
100
AcDbLine
 10
53.429451
 20
244.167467
 30
0.0
 11
29.929449
 21
244.167467
 31
0.0
  0
LINE
  5
35A
330
1F
100
AcDbEntity
  8
LC-001-100-D00-0
 62
     7
370
    50
100
AcDbLine
 10
53.179451
 20
238.967468
 30
0.0
 11
55.929449
 21
238.967468
 31
0.0
  0
LINE
  5
35B
330
1F
100
AcDbEntity
  8
LC-001-100-D00-0
 62
     7
370
    50
100
AcDbLine
 10
65.122493
 20
242.667471
 30
0.0
 11
65.476888
 21
242.167463
 31
0.0
  0
LINE
  5
35C
330
1F
100
AcDbEntity
  8
LC-001-100-D00-0
 62
     7
370
    50
100
AcDbLine
 10
136.382014
 20
242.167463
 30
0.0
 11
136.736408
 21
242.667471
 31
0.0
  0
INSERT
  5
372
330
1F
100
AcDbEntity
  8
LC-001-100-D00-0
 62
     7
370
    50
100
AcDbBlockReference
  2
POLY28
 10
0.0
 20
0.0
 30
0.0
  0
INSERT
  5
388
330
1F
100
AcDbEntity
  8
LC-001-100-D00-0
 62
     7
370
    50
100
AcDbBlockReference
  2
POLY29
 10
0.0
 20
0.0
 30
0.0
  0
INSERT
  5
39C
330
1F
100
AcDbEntity
  8
LC-001-100-D00-0
 62
     7
370
    50
100
AcDbBlockReference
  2
POLY30
 10
0.0
 20
0.0
 30
0.0
  0
INSERT
  5
3B8
330
1F
100
AcDbEntity
  8
LC-001-100-D00-0
 62
     7
370
    50
100
AcDbBlockReference
  2
POLY31
 10
0.0
 20
0.0
 30
0.0
  0
INSERT
  5
3CA
330
1F
100
AcDbEntity
  8
LC-001-100-D00-0
 62
     7
370
    50
100
AcDbBlockReference
  2
POLY32
 10
0.0
 20
0.0
 30
0.0
  0
LINE
  5
3CB
330
1F
100
AcDbEntity
  8
LC-001-100-D00-0
 62
     7
370
    50
100
AcDbLine
 10
70.427491
 20
242.167463
 30
0.0
 11
70.427491
 21
238.967468
 31
0.0
  0
LINE
  5
3CC
330
1F
100
AcDbEntity
  8
LC-001-100-D00-0
 62
     7
370
    50
100
AcDbLine
 10
131.431411
 20
242.167463
 30
0.0
 11
70.427491
 21
242.167463
 31
0.0
  0
LINE
  5
3CD
330
1F
100
AcDbEntity
  8
LC-001-100-D00-0
 62
     7
370
    50
100
AcDbLine
 10
131.431411
 20
238.967468
 30
0.0
 11
131.431411
 21
242.167463
 31
0.0
  0
LINE
  5
3CE
330
1F
100
AcDbEntity
  8
LC-001-100-D00-0
 62
     7
370
    50
100
AcDbLine
 10
76.392679
 20
238.967468
 30
0.0
 11
70.427491
 21
238.967468
 31
0.0
  0
LINE
  5
3CF
330
1F
100
AcDbEntity
  8
LC-001-100-D00-0
 62
     7
370
    50
100
AcDbLine
 10
99.429646
 20
238.967468
 30
0.0
 11
78.990417
 21
238.967468
 31
0.0
  0
LINE
  5
3D0
330
1F
100
AcDbEntity
  8
LC-001-100-D00-0
 62
     7
370
    50
100
AcDbLine
 10
122.868484
 20
238.967468
 30
0.0
 11
102.429256
 21
238.967468
 31
0.0
  0
LINE
  5
3D1
330
1F
100
AcDbEntity
  8
LC-001-100-D00-0
 62
     7
370
    50
100
AcDbLine
 10
131.431411
 20
238.967468
 30
0.0
 11
125.466223
 21
238.967468
 31
0.0
  0
LINE
  5
3D2
330
1F
100
AcDbEntity
  8
LC-001-100-D00-0
 62
     7
370
    50
100
AcDbLine
 10
70.07308
 20
242.167463
 30
0.0
 11
69.718687
 21
242.667471
 31
0.0
  0
LINE
  5
3D3
330
1F
100
AcDbEntity
  8
LC-001-100-D00-0
 62
     7
370
    50
100
AcDbLine
 10
70.07308
 20
242.167463
 30
0.0
 11
70.427491
 21
242.167463
 31
0.0
  0
LINE
  5
3D4
330
1F
100
AcDbEntity
  8
LC-001-100-D00-0
 62
     7
370
    50
100
AcDbLine
 10
70.427491
 20
238.967468
 30
0.0
 11
69.718687
 21
238.967468
 31
0.0
  0
LINE
  5
3D5
330
1F
100
AcDbEntity
  8
LC-001-100-D00-0
 62
     7
370
    50
100
AcDbLine
 10
132.140214
 20
242.667471
 30
0.0
 11
131.785822
 21
242.167463
 31
0.0
  0
LINE
  5
3D6
330
1F
100
AcDbEntity
  8
LC-001-100-D00-0
 62
     7
370
    50
100
AcDbLine
 10
131.431411
 20
242.167463
 30
0.0
 11
131.785822
 21
242.167463
 31
0.0
  0
LINE
  5
3D7
330
1F
100
AcDbEntity
  8
LC-001-100-D00-0
 62
     7
370
    50
100
AcDbLine
 10
132.140214
 20
238.967468
 30
0.0
 11
131.431411
 21
238.967468
 31
0.0
  0
INSERT
  5
3EF
330
1F
100
AcDbEntity
  8
LC-001-100-D00-0
 62
     7
370
    50
100
AcDbBlockReference
  2
POLY33
 10
0.0
 20
0.0
 30
0.0
  0
INSERT
  5
409
330
1F
100
AcDbEntity
  8
LC-001-100-D00-0
 62
     7
370
    50
100
AcDbBlockReference
  2
POLY34
 10
0.0
 20
0.0
 30
0.0
  0
INSERT
  5
425
330
1F
100
AcDbEntity
  8
LC-001-100-D00-0
 62
     7
370
    50
100
AcDbBlockReference
  2
POLY35
 10
0.0
 20
0.0
 30
0.0
  0
LINE
  5
426
330
1F
100
AcDbEntity
  8
LC-001-100-D00-0
 62
     7
370
    50
100
AcDbLine
 10
54.429451
 20
240.748323
 30
0.0
 11
54.429451
 21
240.748323
 31
0.0
  0
INSERT
  5
42C
330
1F
100
AcDbEntity
  8
LC-001-100-D00-0
 62
     7
370
    25
100
AcDbBlockReference
  2
KLON2
 10
0.0
 20
0.0
 30
0.0
  0
INSERT
  5
439
330
1F
100
AcDbEntity
  8
LC-001-100-D00-0
 62
     7
370
    25
100
AcDbBlockReference
  2
KLON3
 10
0.0
 20
0.0
 30
0.0
  0
INSERT
  5
444
330
1F
100
AcDbEntity
  8
LC-001-100-D00-0
 62
     7
370
    25
100
AcDbBlockReference
  2
KLON4
 10
0.0
 20
0.0
 30
0.0
  0
LINE
  5
445
330
1F
100
AcDbEntity
  8
LC-001-100-D00-0
 62
     7
370
    25
100
AcDbLine
 10
-48.995227
 20
245.086719
 30
0.0
 11
-47.114477
 21
246.967469
 31
0.0
  0
LINE
  5
446
330
1F
100
AcDbEntity
  8
LC-001-100-D00-0
 62
     7
370
    25
100
AcDbLine
 10
246.733975
 20
244.467469
 30
0.0
 11
249.233975
 21
246.967469
 31
0.0
  0
LINE
  5
447
330
1F
100
AcDbEntity
  8
LC-002-002-----0
 62
     7
370
    25
100
AcDbLine
 10
-49.070549
 20
-141.280593
 30
0.0
 11
250.929451
 21
-141.280593
 31
0.0
  0
LINE
  5
448
330
1F
100
AcDbEntity
  8
LC-002-002-----0
 62
     7
370
    25
100
AcDbLine
 10
100.929451
 20
8.719407
 30
0.0
 11
100.929451
 21
-141.280593
 31
0.0
  0
LINE
  5
449
330
1F
100
AcDbEntity
  8
LC-002-002-----0
  6
ByBlock
 62
     7
370
    50
100
AcDbLine
 10
24.841461
 20
84.53058
 30
0.0
 11
36.840201
 21
84.530548
 31
0.0
  0
LINE
  5
44B
102
{ACAD_REACTORS
330
646
102
}
330
1F
100
AcDbEntity
  8
LC-003-004-----0
 62
     7
370
    50
100
AcDbLine
 10
24.841461
 20
83.03058
 30
0.0
 11
30.841461
 21
83.030564
 31
0.0
  0
LINE
  5
44C
102
{ACAD_REACTORS
330
645
102
}
330
1F
100
AcDbEntity
  8
LC-003-004-----0
 62
     7
370
    50
100
AcDbLine
 10
27.841461
 20
83.030572
 30
0.0
 11
27.841429
 21
71.030572
 31
0.0
  0
LINE
  5
44D
102
{ACAD_REACTORS
330
644
102
}
330
1F
100
AcDbEntity
  8
LC-003-004-----0
 62
     7
370
    50
100
AcDbLine
 10
27.841429
 20
71.030572
 30
0.0
 11
30.841415
 21
66.030564
 31
0.0
  0
LINE
  5
44E
102
{ACAD_REACTORS
330
643
102
}
330
1F
100
AcDbEntity
  8
LC-003-004-----0
 62
     7
370
    25
100
AcDbLine
 10
27.841457
 20
81.530572
 30
0.0
 11
28.841457
 21
81.530569
 31
0.0
  0
LINE
  5
44F
102
{ACAD_REACTORS
330
642
102
}
330
1F
100
AcDbEntity
  8
LC-003-004-----0
 62
     7
370
    25
100
AcDbLine
 10
28.841457
 20
81.530569
 30
0.0
 11
28.841425
 21
69.530569
 31
0.0
  0
LINE
  5
450
102
{ACAD_REACTORS
330
641
102
}
330
1F
100
AcDbEntity
  8
LC-003-004-----0
 62
     7
370
    50
100
AcDbLine
 10
30.04147
 20
86.498558
 30
0.0
 11
30.041468
 21
85.529655
 31
0.0
  0
LINE
  5
451
102
{ACAD_REACTORS
330
640
102
}
330
1F
100
AcDbEntity
  8
LC-003-004-----0
 62
     7
370
    50
100
AcDbLine
 10
27.841429
 20
71.030572
 30
0.0
 11
30.841429
 21
71.030564
 31
0.0
  0
LINE
  5
452
102
{ACAD_REACTORS
330
64E
102
}
330
1F
100
AcDbEntity
  8
LC-003-004-----0
 62
     7
370
    50
100
AcDbLine
 10
36.8402
 20
83.029651
 30
0.0
 11
30.840201
 21
83.029655
 31
0.0
  0
LINE
  5
453
102
{ACAD_REACTORS
330
64D
102
}
330
1F
100
AcDbEntity
  8
LC-003-004-----0
 62
     7
370
    50
100
AcDbLine
 10
33.8402
 20
83.029653
 30
0.0
 11
33.840193
 21
71.029653
 31
0.0
  0
LINE
  5
454
102
{ACAD_REACTORS
330
64C
102
}
330
1F
100
AcDbEntity
  8
LC-003-004-----0
 62
     7
370
    50
100
AcDbLine
 10
33.840193
 20
71.029653
 30
0.0
 11
30.840189
 21
66.029655
 31
0.0
  0
LINE
  5
455
102
{ACAD_REACTORS
330
64B
102
}
330
1F
100
AcDbEntity
  8
LC-003-004-----0
 62
     7
370
    25
100
AcDbLine
 10
33.840199
 20
81.529653
 30
0.0
 11
28.841457
 21
81.529656
 31
0.0
  0
LINE
  5
456
102
{ACAD_REACTORS
330
64A
102
}
330
1F
100
AcDbEntity
  8
LC-003-004-----0
 62
     7
370
    25
100
AcDbLine
 10
32.840199
 20
81.529654
 30
0.0
 11
32.840192
 21
69.529654
 31
0.0
  0
LINE
  5
457
102
{ACAD_REACTORS
330
649
102
}
330
1F
100
AcDbEntity
  8
LC-003-004-----0
 62
     7
370
    50
100
AcDbLine
 10
31.640203
 20
86.498554
 30
0.0
 11
31.640202
 21
85.529654
 31
0.0
  0
LINE
  5
458
102
{ACAD_REACTORS
330
648
102
}
330
1F
100
AcDbEntity
  8
LC-003-004-----0
 62
     7
370
    50
100
AcDbLine
 10
33.840193
 20
71.029653
 30
0.0
 11
30.840193
 21
71.029655
 31
0.0
  0
LINE
  5
459
102
{ACAD_REACTORS
330
647
102
}
330
1F
100
AcDbEntity
  8
LC-003-004-----0
 62
     7
370
    50
100
AcDbLine
 10
24.841465
 20
84.53058
 30
0.0
 11
24.841461
 21
83.03058
 31
0.0
  0
ARC
  5
45A
330
1F
100
AcDbEntity
  8
LC-002-002-----0
  6
ByBlock
 62
     7
370
    50
100
AcDbCircle
 10
30.840812
 20
76.532453
 30
0.0
 40
9.998109803883326
100
AcDbArc
 50
94.585648
 51
126.873341
  0
LINE
  5
45B
330
1F
100
AcDbEntity
  8
LC-002-002-----0
  6
ByBlock
 62
     7
370
    50
100
AcDbLine
 10
31.640202
 20
85.529654
 30
0.0
 11
30.041468
 21
85.529655
 31
0.0
  0
LINE
  5
45C
102
{ACAD_REACTORS
330
653
102
}
330
1F
100
AcDbEntity
  8
LC-003-004-----0
 62
     7
370
    50
100
AcDbLine
 10
36.840201
 20
84.530548
 30
0.0
 11
36.8402
 21
83.029651
 31
0.0
  0
ARC
  5
45D
330
1F
100
AcDbEntity
  8
LC-002-002-----0
  6
ByBlock
 62
     7
370
    50
100
AcDbCircle
 10
30.840812
 20
76.532453
 30
0.0
 40
9.998109803883329
100
AcDbArc
 50
53.12635
 51
85.414066
  0
LINE
  5
45E
330
1F
100
AcDbEntity
  8
LC-002-002-----0
 62
     7
370
    25
100
AcDbLine
 10
30.395032
 20
86.506244
 30
0.0
 11
31.02466
 21
57.544279
 31
0.0
  0
LINE
  5
45F
330
1F
100
AcDbEntity
  8
LC-002-002-----0
  6
ByBlock
 62
     7
370
    50
100
AcDbLine
 10
177.017441
 20
84.53058
 30
0.0
 11
165.0187
 21
84.530548
 31
0.0
  0
LINE
  5
460
102
{ACAD_REACTORS
330
652
102
}
330
1F
100
AcDbEntity
  8
LC-003-004-----0
 62
     7
370
    50
100
AcDbLine
 10
177.017441
 20
83.03058
 30
0.0
 11
171.017441
 21
83.030564
 31
0.0
  0
LINE
  5
461
102
{ACAD_REACTORS
330
651
102
}
330
1F
100
AcDbEntity
  8
LC-003-004-----0
 62
     7
370
    50
100
AcDbLine
 10
174.017441
 20
83.030572
 30
0.0
 11
174.017473
 21
71.030572
 31
0.0
  0
LINE
  5
462
102
{ACAD_REACTORS
330
650
102
}
330
1F
100
AcDbEntity
  8
LC-003-004-----0
 62
     7
370
    50
100
AcDbLine
 10
174.017473
 20
71.030572
 30
0.0
 11
171.017486
 21
66.030564
 31
0.0
  0
LINE
  5
463
102
{ACAD_REACTORS
330
64F
102
}
330
1F
100
AcDbEntity
  8
LC-003-004-----0
 62
     7
370
    25
100
AcDbLine
 10
174.017445
 20
81.530572
 30
0.0
 11
173.017445
 21
81.530569
 31
0.0
  0
LINE
  5
464
102
{ACAD_REACTORS
330
65B
102
}
330
1F
100
AcDbEntity
  8
LC-003-004-----0
 62
     7
370
    25
100
AcDbLine
 10
173.017445
 20
81.530569
 30
0.0
 11
173.017477
 21
69.530569
 31
0.0
  0
LINE
  5
465
102
{ACAD_REACTORS
330
65A
102
}
330
1F
100
AcDbEntity
  8
LC-003-004-----0
 62
     7
370
    50
100
AcDbLine
 10
171.817431
 20
86.498558
 30
0.0
 11
171.817434
 21
85.529655
 31
0.0
  0
LINE
  5
466
102
{ACAD_REACTORS
330
659
102
}
330
1F
100
AcDbEntity
  8
LC-003-004-----0
 62
     7
370
    50
100
AcDbLine
 10
174.017473
 20
71.030572
 30
0.0
 11
171.017473
 21
71.030564
 31
0.0
  0
LINE
  5
467
102
{ACAD_REACTORS
330
658
102
}
330
1F
100
AcDbEntity
  8
LC-003-004-----0
 62
     7
370
    50
100
AcDbLine
 10
165.018701
 20
83.029651
 30
0.0
 11
171.018701
 21
83.029655
 31
0.0
  0
LINE
  5
468
102
{ACAD_REACTORS
330
657
102
}
330
1F
100
AcDbEntity
  8
LC-003-004-----0
 62
     7
370
    50
100
AcDbLine
 10
168.018701
 20
83.029653
 30
0.0
 11
168.018709
 21
71.029653
 31
0.0
  0
LINE
  5
469
102
{ACAD_REACTORS
330
656
102
}
330
1F
100
AcDbEntity
  8
LC-003-004-----0
 62
     7
370
    50
100
AcDbLine
 10
168.018709
 20
71.029653
 30
0.0
 11
171.018712
 21
66.029655
 31
0.0
  0
LINE
  5
46A
102
{ACAD_REACTORS
330
655
102
}
330
1F
100
AcDbEntity
  8
LC-003-004-----0
 62
     7
370
    25
100
AcDbLine
 10
168.018702
 20
81.529653
 30
0.0
 11
173.017445
 21
81.529656
 31
0.0
  0
LINE
  5
46B
102
{ACAD_REACTORS
330
654
102
}
330
1F
100
AcDbEntity
  8
LC-003-004-----0
 62
     7
370
    25
100
AcDbLine
 10
169.018702
 20
81.529654
 30
0.0
 11
169.01871
 21
69.529654
 31
0.0
  0
LINE
  5
46C
102
{ACAD_REACTORS
330
660
102
}
330
1F
100
AcDbEntity
  8
LC-003-004-----0
 62
     7
370
    50
100
AcDbLine
 10
170.218699
 20
86.498554
 30
0.0
 11
170.2187
 21
85.529654
 31
0.0
  0
LINE
  5
46D
102
{ACAD_REACTORS
330
65F
102
}
330
1F
100
AcDbEntity
  8
LC-003-004-----0
 62
     7
370
    50
100
AcDbLine
 10
168.018709
 20
71.029653
 30
0.0
 11
171.018709
 21
71.029655
 31
0.0
  0
LINE
  5
46E
102
{ACAD_REACTORS
330
65E
102
}
330
1F
100
AcDbEntity
  8
LC-003-004-----0
 62
     7
370
    50
100
AcDbLine
 10
177.017437
 20
84.53058
 30
0.0
 11
177.017441
 21
83.03058
 31
0.0
  0
ARC
  5
46F
330
1F
100
AcDbEntity
  8
LC-002-002-----0
  6
ByBlock
 62
     7
370
    50
100
AcDbCircle
 10
171.01809
 20
76.532453
 30
0.0
 40
9.998109803883342
100
AcDbArc
 50
53.126659
 51
85.414352
  0
LINE
  5
470
330
1F
100
AcDbEntity
  8
LC-002-002-----0
  6
ByBlock
 62
     7
370
    50
100
AcDbLine
 10
170.2187
 20
85.529654
 30
0.0
 11
171.817434
 21
85.529655
 31
0.0
  0
LINE
  5
471
102
{ACAD_REACTORS
330
65D
102
}
330
1F
100
AcDbEntity
  8
LC-003-004-----0
 62
     7
370
    50
100
AcDbLine
 10
165.0187
 20
84.530548
 30
0.0
 11
165.018701
 21
83.029651
 31
0.0
  0
ARC
  5
472
330
1F
100
AcDbEntity
  8
LC-002-002-----0
  6
ByBlock
 62
     7
370
    50
100
AcDbCircle
 10
171.01809
 20
76.532453
 30
0.0
 40
9.99810980388334
100
AcDbArc
 50
94.585934
 51
126.87365
  0
LINE
  5
473
330
1F
100
AcDbEntity
  8
LC-002-002-----0
 62
     7
370
    25
100
AcDbLine
 10
171.46387
 20
86.506244
 30
0.0
 11
170.834241
 21
57.544279
 31
0.0
  0
LINE
  5
474
330
1F
100
AcDbEntity
  8
LC-002-002-----0
 62
     7
370
    25
100
AcDbLine
 10
100.929451
 20
29.715018
 30
0.0
 11
100.929451
 21
24.715018
 31
0.0
  0
LINE
  5
475
102
{ACAD_REACTORS
330
65C
102
}
330
1F
100
AcDbEntity
  8
LC-002-002-----0
  6
ByBlock
 62
     7
370
    50
100
AcDbLine
 10
43.179451
 20
27.715018
 30
0.0
 11
43.179451
 21
24.715018
 31
0.0
  0
LINE
  5
476
102
{ACAD_REACTORS
330
65C
102
}
330
1F
100
AcDbEntity
  8
LC-002-002-----0
  6
ByBlock
 62
     7
370
    50
100
AcDbLine
 10
152.979451
 20
29.715018
 30
0.0
 11
152.979451
 21
24.715018
 31
0.0
  0
LINE
  5
477
102
{ACAD_REACTORS
330
65C
102
}
330
1F
100
AcDbEntity
  8
LC-002-002-----0
  6
ByBlock
 62
     7
370
    50
100
AcDbLine
 10
41.679451
 20
24.715018
 30
0.0
 11
160.179451
 21
24.715018
 31
0.0
  0
LINE
  5
478
102
{ACAD_REACTORS
330
65C
102
}
330
1F
100
AcDbEntity
  8
LC-002-002-----0
  6
ByBlock
 62
     7
370
    50
100
AcDbLine
 10
41.679451
 20
29.715018
 30
0.0
 11
49.179451
 21
29.715018
 31
0.0
  0
LINE
  5
479
102
{ACAD_REACTORS
330
65C
102
}
330
1F
100
AcDbEntity
  8
LC-002-002-----0
  6
ByBlock
 62
     7
370
    50
100
AcDbLine
 10
160.179451
 20
29.715018
 30
0.0
 11
160.179451
 21
24.715018
 31
0.0
  0
LINE
  5
47A
102
{ACAD_REACTORS
330
65C
102
}
330
1F
100
AcDbEntity
  8
LC-002-002-----0
  6
ByBlock
 62
     7
370
    50
100
AcDbLine
 10
41.679451
 20
29.715018
 30
0.0
 11
41.679451
 21
24.715018
 31
0.0
  0
LINE
  5
47B
102
{ACAD_REACTORS
330
65C
102
}
330
1F
100
AcDbEntity
  8
LC-002-002-----0
  6
ByBlock
 62
     7
370
    50
100
AcDbLine
 10
43.179451
 20
27.715018
 30
0.0
 11
50.007878
 21
27.715018
 31
0.0
  0
LINE
  5
47C
102
{ACAD_REACTORS
330
65C
102
}
330
1F
100
AcDbEntity
  8
LC-002-002-----0
  6
ByBlock
 62
     7
370
    50
100
AcDbLine
 10
59.179451
 20
39.715018
 30
0.0
 11
72.192618
 21
39.715018
 31
0.0
  0
LINE
  5
47D
102
{ACAD_REACTORS
330
65C
102
}
330
1F
100
AcDbEntity
  8
LC-002-002-----0
  6
ByBlock
 62
     7
370
    50
100
AcDbLine
 10
52.007878
 20
29.715018
 30
0.0
 11
160.179451
 21
29.715018
 31
0.0
  0
LINE
  5
47E
102
{ACAD_REACTORS
330
65C
102
}
330
1F
100
AcDbEntity
  8
LC-002-002-----0
  6
ByBlock
 62
     7
370
    50
100
AcDbLine
 10
49.179451
 20
29.715018
 30
0.0
 11
59.179451
 21
39.715018
 31
0.0
  0
LINE
  5
47F
102
{ACAD_REACTORS
330
65C
102
}
330
1F
100
AcDbEntity
  8
LC-002-002-----0
  6
ByBlock
 62
     7
370
    50
100
AcDbLine
 10
60.007878
 20
37.715018
 30
0.0
 11
96.179451
 21
37.715018
 31
0.0
  0
LINE
  5
480
102
{ACAD_REACTORS
330
65C
102
}
330
1F
100
AcDbEntity
  8
LC-002-002-----0
  6
ByBlock
 62
     7
370
    50
100
AcDbLine
 10
50.007878
 20
27.715018
 30
0.0
 11
60.007878
 21
37.715018
 31
0.0
  0
ARC
  5
481
102
{ACAD_REACTORS
330
65C
102
}
330
1F
100
AcDbEntity
  8
LC-002-002-----0
  6
ByBlock
 62
     7
370
    50
100
AcDbCircle
 10
89.166284
 20
39.715018
 30
0.0
 40
1.999999999999886
100
AcDbArc
 50
270.0
 51
90.0
  0
ARC
  5
482
102
{ACAD_REACTORS
330
65C
102
}
330
1F
100
AcDbEntity
  8
LC-002-002-----0
  6
ByBlock
 62
     7
370
    50
100
AcDbCircle
 10
74.192618
 20
39.715018
 30
0.0
 40
1.999999999999886
100
AcDbArc
 50
90.0
 51
180.0
  0
INSERT
  5
49A
102
{ACAD_REACTORS
330
65C
102
}
330
1F
100
AcDbEntity
  8
LC-004-005-----0
 62
     7
370
    25
100
AcDbBlockReference
  2
*X140
 10
0.0
 20
0.0
 30
0.0
  0
ARC
  5
49B
102
{ACAD_REACTORS
330
65C
102
}
330
1F
100
AcDbEntity
  8
LC-002-002-----0
  6
ByBlock
 62
     7
370
    50
100
AcDbCircle
 10
67.179451
 20
39.715018
 30
0.0
 40
1.999999999999886
100
AcDbArc
 50
90.0
 51
180.0
  0
ARC
  5
49C
102
{ACAD_REACTORS
330
65C
102
}
330
1F
100
AcDbEntity
  8
LC-002-002-----0
  6
ByBlock
 62
     7
370
    50
100
AcDbCircle
 10
96.179451
 20
39.715018
 30
0.0
 40
2.0
100
AcDbArc
 50
270.0
 51
90.0
  0
LINE
  5
49D
102
{ACAD_REACTORS
330
65C
102
}
330
1F
100
AcDbEntity
  8
LC-002-002-----0
  6
ByBlock
 62
     7
370
    50
100
AcDbLine
 10
67.179451
 20
41.715018
 30
0.0
 11
96.179451
 21
41.715018
 31
0.0
  0
LINE
  5
49E
102
{ACAD_REACTORS
330
65C
102
}
330
1F
100
AcDbEntity
  8
LC-002-002-----0
  6
ByBlock
 62
     7
370
    50
100
AcDbLine
 10
99.679451
 20
29.715018
 30
0.0
 11
99.679451
 21
24.715018
 31
0.0
  0
LINE
  5
49F
102
{ACAD_REACTORS
330
65C
102
}
330
1F
100
AcDbEntity
  8
LC-002-002-----0
  6
ByBlock
 62
     7
370
    50
100
AcDbLine
 10
75.986983
 20
29.715018
 30
0.0
 11
75.986983
 21
24.715018
 31
0.0
  0
LINE
  5
4A0
102
{ACAD_REACTORS
330
65C
102
}
330
1F
100
AcDbEntity
  8
LC-002-002-----0
  6
ByBlock
 62
     7
370
    50
100
AcDbLine
 10
73.821919
 20
29.715018
 30
0.0
 11
73.821919
 21
24.715018
 31
0.0
  0
LINE
  5
4A1
102
{ACAD_REACTORS
330
65C
102
}
330
1F
100
AcDbEntity
  8
LC-002-002-----0
  6
ByBlock
 62
     7
370
    50
100
AcDbLine
 10
70.978684
 20
29.715018
 30
0.0
 11
70.978684
 21
24.715018
 31
0.0
  0
LINE
  5
4A2
102
{ACAD_REACTORS
330
65C
102
}
330
1F
100
AcDbEntity
  8
LC-002-002-----0
  6
ByBlock
 62
     7
370
    50
100
AcDbLine
 10
55.227829
 20
29.715018
 30
0.0
 11
55.227829
 21
24.715018
 31
0.0
  0
LINE
  5
4A3
102
{ACAD_REACTORS
330
65C
102
}
330
1F
100
AcDbEntity
  8
LC-002-002-----0
  6
ByBlock
 62
     7
370
    50
100
AcDbLine
 10
56.477829
 20
29.715018
 30
0.0
 11
56.477829
 21
24.715018
 31
0.0
  0
LINE
  5
4A4
102
{ACAD_REACTORS
330
65C
102
}
330
1F
100
AcDbEntity
  8
LC-002-002-----0
  6
ByBlock
 62
     7
370
    50
100
AcDbLine
 10
50.303201
 20
28.010341
 30
0.0
 11
50.303201
 21
24.715018
 31
0.0
  0
LINE
  5
4A5
102
{ACAD_REACTORS
330
65C
102
}
330
1F
100
AcDbEntity
  8
LC-002-002-----0
  6
ByBlock
 62
     7
370
    50
100
AcDbLine
 10
102.179451
 20
29.715018
 30
0.0
 11
102.179451
 21
24.715018
 31
0.0
  0
LINE
  5
4A6
102
{ACAD_REACTORS
330
65C
102
}
330
1F
100
AcDbEntity
  8
LC-002-002-----0
  6
ByBlock
 62
     7
370
    50
100
AcDbLine
 10
125.871919
 20
29.715018
 30
0.0
 11
125.871919
 21
24.715018
 31
0.0
  0
LINE
  5
4A7
102
{ACAD_REACTORS
330
65C
102
}
330
1F
100
AcDbEntity
  8
LC-002-002-----0
  6
ByBlock
 62
     7
370
    50
100
AcDbLine
 10
130.880218
 20
29.715018
 30
0.0
 11
130.880218
 21
24.715018
 31
0.0
  0
LINE
  5
4A8
102
{ACAD_REACTORS
330
65C
102
}
330
1F
100
AcDbEntity
  8
LC-002-002-----0
  6
ByBlock
 62
     7
370
    50
100
AcDbLine
 10
128.036983
 20
29.715018
 30
0.0
 11
128.036983
 21
24.715018
 31
0.0
  0
LINE
  5
4A9
102
{ACAD_REACTORS
330
65C
102
}
330
1F
100
AcDbEntity
  8
LC-002-002-----0
  6
ByBlock
 62
     7
370
    50
100
AcDbLine
 10
145.381073
 20
29.715018
 30
0.0
 11
145.381073
 21
24.715018
 31
0.0
  0
LINE
  5
4AA
102
{ACAD_REACTORS
330
65C
102
}
330
1F
100
AcDbEntity
  8
LC-002-002-----0
  6
ByBlock
 62
     7
370
    50
100
AcDbLine
 10
146.631073
 20
29.715018
 30
0.0
 11
146.631073
 21
24.715018
 31
0.0
  0
LINE
  5
4AB
102
{ACAD_REACTORS
330
65C
102
}
330
1F
100
AcDbEntity
  8
LC-002-002-----0
  6
ByBlock
 62
     7
370
    50
100
AcDbLine
 10
151.555701
 20
29.715018
 30
0.0
 11
151.555701
 21
24.715018
 31
0.0
  0
LINE
  5
4AC
102
{ACAD_REACTORS
330
661
102
}
330
1F
100
AcDbEntity
  8
LC-002-002-----0
  6
ByBlock
 62
     7
370
    50
100
AcDbLine
 10
34.429429
 20
56.911593
 30
0.0
 11
34.429429
 21
54.411593
 31
0.0
  0
LINE
  5
4AD
102
{ACAD_REACTORS
330
661
102
}
330
1F
100
AcDbEntity
  8
LC-002-002-----0
  6
ByBlock
 62
     7
370
    50
100
AcDbLine
 10
27.429429
 20
56.911593
 30
0.0
 11
27.429429
 21
54.411593
 31
0.0
  0
LINE
  5
4AE
102
{ACAD_REACTORS
330
661
102
}
330
1F
100
AcDbEntity
  8
LC-002-002-----0
  6
ByBlock
 62
     7
370
    50
100
AcDbLine
 10
37.179429
 20
59.914009
 30
0.0
 11
37.179429
 21
56.911593
 31
0.0
  0
LINE
  5
4AF
102
{ACAD_REACTORS
330
661
102
}
330
1F
100
AcDbEntity
  8
LC-002-002-----0
  6
ByBlock
 62
     7
370
    50
100
AcDbLine
 10
24.679429
 20
59.914009
 30
0.0
 11
24.679429
 21
56.911593
 31
0.0
  0
ARC
  5
4B0
330
1F
100
AcDbEntity
  8
LC-002-002-----0
  6
ByBlock
 62
     7
370
    50
100
AcDbCircle
 10
43.429451
 20
52.884009
 30
0.0
 40
2.500000000001086
100
AcDbArc
 50
306.869898
 51
53.130102
  0
LINE
  5
4B1
102
{ACAD_REACTORS
330
661
102
}
330
1F
100
AcDbEntity
  8
LC-002-002-----0
  6
ByBlock
 62
    70
370
    50
100
AcDbLine
 10
42.945677
 20
59.914009
 30
0.0
 11
37.179429
 21
59.914009
 31
0.0
  0
LINE
  5
4B2
102
{ACAD_REACTORS
330
661
102
}
330
1F
100
AcDbEntity
  8
LC-002-002-----0
  6
ByBlock
 62
     7
370
    50
100
AcDbLine
 10
34.429429
 20
56.911593
 30
0.0
 11
27.429429
 21
56.911593
 31
0.0
  0
LINE
  5
4B3
102
{ACAD_REACTORS
330
661
102
}
330
1F
100
AcDbEntity
  8
LC-002-002-----0
  6
ByBlock
 62
     7
370
    50
100
AcDbLine
 10
27.429429
 20
56.911593
 30
0.0
 11
24.679429
 21
56.911593
 31
0.0
  0
LINE
  5
4B4
102
{ACAD_REACTORS
330
661
102
}
330
1F
100
AcDbEntity
  8
LC-002-002-----0
  6
ByBlock
 62
     7
370
    50
100
AcDbLine
 10
27.429429
 20
54.411593
 30
0.0
 11
20.179451
 21
54.411593
 31
0.0
  0
LINE
  5
4B5
102
{ACAD_REACTORS
330
661
102
}
330
1F
100
AcDbEntity
  8
LC-002-002-----0
  6
ByBlock
 62
     7
370
    50
100
AcDbLine
 10
34.429429
 20
54.411593
 30
0.0
 11
27.429429
 21
54.411593
 31
0.0
  0
LINE
  5
4B6
102
{ACAD_REACTORS
330
661
102
}
330
1F
100
AcDbEntity
  8
LC-002-002-----0
  6
ByBlock
 62
     7
370
    50
100
AcDbLine
 10
37.179429
 20
59.914009
 30
0.0
 11
24.679429
 21
59.914009
 31
0.0
  0
LINE
  5
4B7
102
{ACAD_REACTORS
330
661
102
}
330
1F
100
AcDbEntity
  8
LC-002-002-----0
  6
ByBlock
 62
     7
370
    50
100
AcDbLine
 10
24.679429
 20
59.914009
 30
0.0
 11
-3.044336
 21
59.914009
 31
0.0
  0
LINE
  5
4B8
102
{ACAD_REACTORS
330
661
102
}
330
1F
100
AcDbEntity
  8
LC-002-002-----0
  6
ByBlock
 62
    70
370
    50
100
AcDbLine
 10
37.428957
 20
59.914009
 30
0.0
 11
37.428957
 21
54.411593
 31
0.0
  0
ARC
  5
4BA
330
1F
100
AcDbEntity
  8
LC-005-002-RND-0
 62
     7
370
    50
100
AcDbCircle
 10
45.429451
 20
64.568709
 30
0.0
 40
0.4999999999999994
100
AcDbArc
 50
60.0
 51
180.0
  0
LINE
  5
4BB
102
{ACAD_REACTORS
330
661
102
}
330
1F
100
AcDbEntity
  8
LC-004-005-----0
 62
     7
370
    25
100
AcDbLine
 10
-1.047231
 20
59.914009
 30
0.0
 11
0.4096
 21
58.457178
 31
0.0
  0
LINE
  5
4BC
102
{ACAD_REACTORS
330
661
102
}
330
1F
100
AcDbEntity
  8
LC-004-005-----0
 62
     7
370
    25
100
AcDbLine
 10
3.19541
 20
59.914009
 30
0.0
 11
6.381217
 21
56.728202
 31
0.0
  0
LINE
  5
4BD
102
{ACAD_REACTORS
330
661
102
}
330
1F
100
AcDbEntity
  8
LC-004-005-----0
 62
     7
370
    25
100
AcDbLine
 10
7.438051
 20
59.914009
 30
0.0
 11
11.479881
 21
55.872178
 31
0.0
  0
LINE
  5
4BE
102
{ACAD_REACTORS
330
661
102
}
330
1F
100
AcDbEntity
  8
LC-004-005-----0
 62
     7
370
    25
100
AcDbLine
 10
11.680691
 20
59.914009
 30
0.0
 11
16.578545
 21
55.016155
 31
0.0
  0
LINE
  5
4BF
102
{ACAD_REACTORS
330
661
102
}
330
1F
100
AcDbEntity
  8
LC-004-005-----0
 62
     7
370
    25
100
AcDbLine
 10
15.923332
 20
59.914009
 30
0.0
 11
21.425748
 21
54.411593
 31
0.0
  0
LINE
  5
4C0
102
{ACAD_REACTORS
330
661
102
}
330
1F
100
AcDbEntity
  8
LC-004-005-----0
 62
     7
370
    25
100
AcDbLine
 10
20.165973
 20
59.914009
 30
0.0
 11
25.668389
 21
54.411593
 31
0.0
  0
LINE
  5
4C1
102
{ACAD_REACTORS
330
661
102
}
330
1F
100
AcDbEntity
  8
LC-004-005-----0
 62
     7
370
    25
100
AcDbLine
 10
24.408613
 20
59.914009
 30
0.0
 11
24.679429
 21
59.643193
 31
0.0
  0
LINE
  5
4C2
102
{ACAD_REACTORS
330
661
102
}
330
1F
100
AcDbEntity
  8
LC-004-005-----0
 62
     7
370
    25
100
AcDbLine
 10
36.896311
 20
56.911593
 30
0.0
 11
37.428957
 21
55.378946
 31
0.0
  0
LINE
  5
4C3
102
{ACAD_REACTORS
330
661
102
}
330
1F
100
AcDbEntity
  8
LC-004-005-----0
 62
     7
370
    25
100
AcDbLine
 10
37.179429
 20
59.871115
 30
0.0
 11
37.428957
 21
59.621587
 31
0.0
  0
LINE
  5
4C4
102
{ACAD_REACTORS
330
661
102
}
330
1F
100
AcDbEntity
  8
LC-004-005-----0
 62
     7
370
    25
100
AcDbLine
 10
164.415756
 20
59.914009
 30
0.0
 11
169.918172
 21
54.411593
 31
0.0
  0
LINE
  5
4C5
102
{ACAD_REACTORS
330
661
102
}
330
1F
100
AcDbEntity
  8
LC-004-005-----0
 62
     7
370
    25
100
AcDbLine
 10
168.658397
 20
59.914009
 30
0.0
 11
174.160813
 21
54.411593
 31
0.0
  0
LINE
  5
4C6
102
{ACAD_REACTORS
330
661
102
}
330
1F
100
AcDbEntity
  8
LC-004-005-----0
 62
     7
370
    25
100
AcDbLine
 10
172.901037
 20
59.914009
 30
0.0
 11
178.403453
 21
54.411593
 31
0.0
  0
LINE
  5
4C7
102
{ACAD_REACTORS
330
661
102
}
330
1F
100
AcDbEntity
  8
LC-004-005-----0
 62
     7
370
    25
100
AcDbLine
 10
177.143678
 20
59.914009
 30
0.0
 11
182.507133
 21
54.550554
 31
0.0
  0
LINE
  5
4C8
102
{ACAD_REACTORS
330
661
102
}
330
1F
100
AcDbEntity
  8
LC-004-005-----0
 62
     7
370
    25
100
AcDbLine
 10
181.386319
 20
59.914009
 30
0.0
 11
186.139868
 21
55.16046
 31
0.0
  0
LINE
  5
4C9
102
{ACAD_REACTORS
330
661
102
}
330
1F
100
AcDbEntity
  8
LC-004-005-----0
 62
     7
370
    25
100
AcDbLine
 10
185.62896
 20
59.914009
 30
0.0
 11
189.772602
 21
55.770366
 31
0.0
  0
LINE
  5
4CA
102
{ACAD_REACTORS
330
661
102
}
330
1F
100
AcDbEntity
  8
LC-004-005-----0
 62
     7
370
    25
100
AcDbLine
 10
189.8716
 20
59.914009
 30
0.0
 11
193.405337
 21
56.380272
 31
0.0
  0
LINE
  5
4CB
102
{ACAD_REACTORS
330
661
102
}
330
1F
100
AcDbEntity
  8
LC-004-005-----0
 62
     7
370
    25
100
AcDbLine
 10
194.114241
 20
59.914009
 30
0.0
 11
196.947432
 21
57.080818
 31
0.0
  0
LINE
  5
4CC
102
{ACAD_REACTORS
330
661
102
}
330
1F
100
AcDbEntity
  8
LC-004-005-----0
 62
     7
370
    25
100
AcDbLine
 10
198.356882
 20
59.914009
 30
0.0
 11
200.196678
 21
58.074212
 31
0.0
  0
LINE
  5
4CD
102
{ACAD_REACTORS
330
661
102
}
330
1F
100
AcDbEntity
  8
LC-004-005-----0
 62
     7
370
    25
100
AcDbLine
 10
202.599522
 20
59.914009
 30
0.0
 11
203.445924
 21
59.067607
 31
0.0
  0
LINE
  5
4CE
330
1F
100
AcDbEntity
  8
LC-002-002-----0
  6
ByBlock
 62
     7
370
    50
100
AcDbLine
 10
156.929451
 20
54.884009
 30
0.0
 11
44.929451
 21
54.884009
 31
0.0
  0
LINE
  5
4CF
330
1F
100
AcDbEntity
  8
LC-002-002-----0
  6
ByBlock
 62
     7
370
    50
100
AcDbLine
 10
44.929451
 20
50.884009
 30
0.0
 11
156.929451
 21
50.884009
 31
0.0
  0
LINE
  5
4D0
102
{ACAD_REACTORS
330
661
102
}
330
1F
100
AcDbEntity
  8
LC-002-002-----0
  6
ByBlock
 62
     7
370
    50
100
AcDbLine
 10
181.679451
 20
54.411593
 30
0.0
 11
160.929563
 21
54.411593
 31
0.0
  0
LINE
  5
4D1
102
{ACAD_REACTORS
330
661
102
}
330
1F
100
AcDbEntity
  8
LC-002-002-----0
  6
ByBlock
 62
     7
370
    50
100
AcDbLine
 10
20.179451
 20
54.411593
 30
0.0
 11
5.679451
 21
56.846023
 31
0.0
  0
LINE
  5
4D2
330
1F
100
AcDbEntity
  8
LC-002-002-----0
  6
ByBlock
 62
     7
370
    50
100
AcDbLine
 10
161.929563
 20
51.379381
 30
0.0
 11
161.929563
 21
49.379381
 31
0.0
  0
ARC
  5
4D3
102
{ACAD_REACTORS
330
661
102
}
330
1F
100
AcDbEntity
  8
LC-002-002-----0
  6
ByBlock
 62
     7
370
    50
100
AcDbCircle
 10
42.945677
 20
58.93046
 30
0.0
 40
0.9835487938923961
100
AcDbArc
 50
270.0
 51
90.0
  0
LINE
  5
4D4
102
{ACAD_REACTORS
330
661
102
}
330
1F
100
AcDbEntity
  8
LC-002-002-----0
  6
ByBlock
 62
     7
370
    50
100
AcDbLine
 10
158.913225
 20
59.914009
 30
0.0
 11
204.903238
 21
59.914009
 31
0.0
  0
LINE
  5
4D5
102
{ACAD_REACTORS
330
661
102
}
330
1F
100
AcDbEntity
  8
LC-002-002-----0
  6
ByBlock
 62
     7
370
    50
100
AcDbLine
 10
196.179451
 20
56.846023
 30
0.0
 11
181.679451
 21
54.411593
 31
0.0
  0
LINE
  5
4D6
330
1F
100
AcDbEntity
  8
LC-002-002-----0
  6
ByBlock
 62
     7
370
    50
100
AcDbLine
 10
160.929563
 20
48.379381
 30
0.0
 11
161.929563
 21
49.379381
 31
0.0
  0
LINE
  5
4D7
330
1F
100
AcDbEntity
  8
LC-002-002-----0
  6
ByBlock
 62
     7
370
    50
100
AcDbLine
 10
48.429451
 20
63.414009
 30
0.0
 11
153.429451
 21
63.414009
 31
0.0
  0
LINE
  5
4D8
330
1F
100
AcDbEntity
  8
LC-002-002-----0
  6
ByBlock
 62
     7
370
    50
100
AcDbLine
 10
164.429945
 20
59.914009
 30
0.0
 11
164.429945
 21
54.411593
 31
0.0
  0
LINE
  5
4D9
102
{ACAD_REACTORS
330
661
102
}
330
1F
100
AcDbEntity
  8
LC-002-002-----0
  6
ByBlock
 62
     7
370
    50
100
AcDbLine
 10
158.913225
 20
57.946911
 30
0.0
 11
159.429563
 21
57.946911
 31
0.0
  0
LINE
  5
4DA
102
{ACAD_REACTORS
330
661
102
}
330
1F
100
AcDbEntity
  8
LC-002-002-----0
  6
ByBlock
 62
     7
370
    50
100
AcDbLine
 10
196.179451
 20
56.846023
 30
0.0
 11
204.761712
 21
59.469883
 31
0.0
  0
LINE
  5
4DB
102
{ACAD_REACTORS
330
661
102
}
330
1F
100
AcDbEntity
  8
LC-002-002-----0
  6
ByBlock
 62
     7
370
    50
100
AcDbLine
 10
42.945677
 20
57.946911
 30
0.0
 11
42.429339
 21
57.946911
 31
0.0
  0
LINE
  5
4DC
102
{ACAD_REACTORS
330
661
102
}
330
1F
100
AcDbEntity
  8
LC-002-002-----0
  6
ByBlock
 62
     7
370
    50
100
AcDbLine
 10
5.679451
 20
56.846023
 30
0.0
 11
-2.90281
 21
59.469883
 31
0.0
  0
LINE
  5
4DD
102
{ACAD_REACTORS
330
661
102
}
330
1F
100
AcDbEntity
  8
LC-002-002-----0
  6
ByBlock
 62
     7
370
    50
100
AcDbLine
 10
159.929563
 20
55.946911
 30
0.0
 11
159.429563
 21
55.946911
 31
0.0
  0
LINE
  5
4DE
102
{ACAD_REACTORS
330
661
102
}
330
1F
100
AcDbEntity
  8
LC-002-002-----0
  6
ByBlock
 62
     7
370
    50
100
AcDbLine
 10
159.429563
 20
55.946911
 30
0.0
 11
159.429563
 21
57.946911
 31
0.0
  0
LINE
  5
4DF
102
{ACAD_REACTORS
330
661
102
}
330
1F
100
AcDbEntity
  8
LC-002-002-----0
  6
ByBlock
 62
     7
370
    50
100
AcDbLine
 10
41.929339
 20
55.946911
 30
0.0
 11
42.429339
 21
55.946911
 31
0.0
  0
LINE
  5
4E0
102
{ACAD_REACTORS
330
661
102
}
330
1F
100
AcDbEntity
  8
LC-002-002-----0
  6
ByBlock
 62
     7
370
    50
100
AcDbLine
 10
37.179429
 20
56.911593
 30
0.0
 11
34.429429
 21
56.911593
 31
0.0
  0
LINE
  5
4E1
102
{ACAD_REACTORS
330
661
102
}
330
1F
100
AcDbEntity
  8
LC-002-002-----0
  6
ByBlock
 62
     7
370
    50
100
AcDbLine
 10
42.429339
 20
55.946911
 30
0.0
 11
42.429339
 21
57.946911
 31
0.0
  0
LINE
  5
4E2
102
{ACAD_REACTORS
330
661
102
}
330
1F
100
AcDbEntity
  8
LC-002-002-----0
  6
ByBlock
 62
     7
370
    50
100
AcDbLine
 10
40.929339
 20
54.411593
 30
0.0
 11
34.429429
 21
54.411593
 31
0.0
  0
LINE
  5
4E3
102
{ACAD_REACTORS
330
661
102
}
330
1F
100
AcDbEntity
  8
LC-002-002-----0
  6
ByBlock
 62
     7
370
    50
100
AcDbLine
 10
41.929339
 20
55.946911
 30
0.0
 11
41.429339
 21
56.946911
 31
0.0
  0
LINE
  5
4E4
102
{ACAD_REACTORS
330
661
102
}
330
1F
100
AcDbEntity
  8
LC-002-002-----0
  6
ByBlock
 62
     7
370
    50
100
AcDbLine
 10
41.429339
 20
56.946911
 30
0.0
 11
39.435922
 21
56.946911
 31
0.0
  0
LINE
  5
4E5
102
{ACAD_REACTORS
330
661
102
}
330
1F
100
AcDbEntity
  8
LC-002-002-----0
  6
ByBlock
 62
     7
370
    50
100
AcDbLine
 10
159.929563
 20
55.946911
 30
0.0
 11
160.429563
 21
56.946911
 31
0.0
  0
LINE
  5
4E6
102
{ACAD_REACTORS
330
661
102
}
330
1F
100
AcDbEntity
  8
LC-002-002-----0
  6
ByBlock
 62
     7
370
    50
100
AcDbLine
 10
160.429563
 20
56.946911
 30
0.0
 11
162.422979
 21
56.946911
 31
0.0
  0
LINE
  5
4E7
102
{ACAD_REACTORS
330
661
102
}
330
1F
100
AcDbEntity
  8
LC-002-002-----0
  6
ByBlock
 62
     7
370
    50
100
AcDbLine
 10
162.422979
 20
56.946911
 30
0.0
 11
162.422979
 21
54.411593
 31
0.0
  0
LINE
  5
4E8
102
{ACAD_REACTORS
330
661
102
}
330
1F
100
AcDbEntity
  8
LC-002-002-----0
  6
ByBlock
 62
     7
370
    50
100
AcDbLine
 10
39.435922
 20
56.946911
 30
0.0
 11
39.435922
 21
54.411593
 31
0.0
  0
ARC
  5
4E9
102
{ACAD_REACTORS
330
661
102
}
330
1F
100
AcDbEntity
  8
LC-005-002-RND-0
 62
     7
370
    50
100
AcDbCircle
 10
-2.844336
 20
59.661144
 30
0.0
 40
0.1999999999999318
100
AcDbArc
 50
180.0
 51
253.0
  0
LINE
  5
4EA
102
{ACAD_REACTORS
330
661
102
}
330
1F
100
AcDbEntity
  8
LC-002-002-----0
  6
ByBlock
 62
     7
370
    50
100
AcDbLine
 10
-3.044336
 20
59.661144
 30
0.0
 11
-3.044336
 21
59.914009
 31
0.0
  0
LINE
  5
4EB
330
1F
100
AcDbEntity
  8
LC-002-002-----0
  6
ByBlock
 62
     7
370
    50
100
AcDbLine
 10
161.929563
 20
51.379381
 30
0.0
 11
160.929563
 21
52.379381
 31
0.0
  0
ARC
  5
4EC
102
{ACAD_REACTORS
330
661
102
}
330
1F
100
AcDbEntity
  8
LC-005-002-RND-0
 62
     7
370
    50
100
AcDbCircle
 10
204.703238
 20
59.661144
 30
0.0
 40
0.1999999999999649
100
AcDbArc
 50
287.0
 51
0.0
  0
LINE
  5
4ED
102
{ACAD_REACTORS
330
661
102
}
330
1F
100
AcDbEntity
  8
LC-002-002-----0
  6
ByBlock
 62
     7
370
    50
100
AcDbLine
 10
204.903238
 20
59.661144
 30
0.0
 11
204.903238
 21
59.914009
 31
0.0
  0
LINE
  5
4EE
330
1F
100
AcDbEntity
  8
LC-002-002-----0
  6
ByBlock
 62
     7
370
    50
100
AcDbLine
 10
161.929451
 20
59.914009
 30
0.0
 11
161.929451
 21
65.414009
 31
0.0
  0
LINE
  5
4EF
330
1F
100
AcDbEntity
  8
LC-002-002-----0
  6
ByBlock
 62
     7
370
    50
100
AcDbLine
 10
45.929451
 20
48.379381
 30
0.0
 11
100.929451
 21
48.379381
 31
0.0
  0
LINE
  5
4F0
330
1F
100
AcDbEntity
  8
LC-002-002-----0
  6
ByBlock
 62
     7
370
    50
100
AcDbLine
 10
44.486075
 20
68.414009
 30
0.0
 11
156.604877
 21
68.414009
 31
0.0
  0
ARC
  5
4F1
330
1F
100
AcDbEntity
  8
LC-002-002-----0
  6
ByBlock
 62
     7
370
    50
100
AcDbCircle
 10
158.913225
 20
58.93046
 30
0.0
 40
0.9835487938923961
100
AcDbArc
 50
90.0
 51
270.0
  0
LINE
  5
4F2
330
1F
100
AcDbEntity
  8
LC-002-002-----0
  6
ByBlock
 62
     7
370
    50
100
AcDbLine
 10
158.913225
 20
57.946911
 30
0.0
 11
159.429563
 21
57.946911
 31
0.0
  0
LINE
  5
4F3
330
1F
100
AcDbEntity
  8
LC-002-002-----0
  6
ByBlock
 62
     7
370
    50
100
AcDbLine
 10
159.929563
 20
55.946911
 30
0.0
 11
159.429563
 21
55.946911
 31
0.0
  0
LINE
  5
4F4
330
1F
100
AcDbEntity
  8
LC-002-002-----0
  6
ByBlock
 62
     7
370
    50
100
AcDbLine
 10
159.429563
 20
55.946911
 30
0.0
 11
159.429563
 21
57.946911
 31
0.0
  0
LINE
  5
4F5
330
1F
100
AcDbEntity
  8
LC-002-002-----0
  6
ByBlock
 62
     7
370
    50
100
AcDbLine
 10
159.929563
 20
55.946911
 30
0.0
 11
160.429563
 21
56.946911
 31
0.0
  0
LINE
  5
4F6
330
1F
100
AcDbEntity
  8
LC-002-002-----0
  6
ByBlock
 62
     7
370
    50
100
AcDbLine
 10
160.429563
 20
56.946911
 30
0.0
 11
160.929563
 21
56.946911
 31
0.0
  0
LINE
  5
4F7
330
1F
100
AcDbEntity
  8
LC-002-002-----0
  6
ByBlock
 62
     7
370
    50
100
AcDbLine
 10
160.929563
 20
48.379381
 30
0.0
 11
155.929451
 21
48.379381
 31
0.0
  0
LINE
  5
4F8
330
1F
100
AcDbEntity
  8
LC-002-002-----0
  6
ByBlock
 62
     7
370
    50
100
AcDbLine
 10
155.929451
 20
48.379381
 30
0.0
 11
100.929451
 21
48.379381
 31
0.0
  0
LINE
  5
4F9
330
1F
100
AcDbEntity
  8
LC-002-002-----0
  6
ByBlock
 62
     7
370
    50
100
AcDbLine
 10
160.929563
 20
56.946911
 30
0.0
 11
160.929563
 21
52.379381
 31
0.0
  0
LINE
  5
4FA
330
1F
100
AcDbEntity
  8
LC-002-002-----0
  6
ByBlock
 62
     7
370
    50
100
AcDbLine
 10
158.913225
 20
59.914009
 30
0.0
 11
161.929451
 21
59.914009
 31
0.0
  0
ARC
  5
4FB
330
1F
100
AcDbEntity
  8
LC-002-002-----0
  6
ByBlock
 62
     7
370
    50
100
AcDbCircle
 10
158.929451
 20
65.414009
 30
0.0
 40
3.0
100
AcDbArc
 50
0.0
 51
90.0
  0
ARC
  5
4FC
330
1F
100
AcDbEntity
  8
LC-002-002-----0
  6
ByBlock
 62
     7
370
    50
100
AcDbCircle
 10
158.913225
 20
58.93046
 30
0.0
 40
0.9835487938923961
100
AcDbArc
 50
90.0
 51
270.0
  0
LINE
  5
4FD
330
1F
100
AcDbEntity
  8
LC-002-002-----0
  6
ByBlock
 62
     7
370
    50
100
AcDbLine
 10
39.929451
 20
59.914009
 30
0.0
 11
39.929451
 21
65.414009
 31
0.0
  0
ARC
  5
4FE
330
1F
100
AcDbEntity
  8
LC-002-002-----0
  6
ByBlock
 62
     7
370
    50
100
AcDbCircle
 10
42.945677
 20
58.93046
 30
0.0
 40
0.9835487938923961
100
AcDbArc
 50
270.0
 51
90.0
  0
LINE
  5
4FF
330
1F
100
AcDbEntity
  8
LC-002-002-----0
  6
ByBlock
 62
     7
370
    50
100
AcDbLine
 10
42.945677
 20
57.946911
 30
0.0
 11
42.429339
 21
57.946911
 31
0.0
  0
LINE
  5
500
330
1F
100
AcDbEntity
  8
LC-002-002-----0
  6
ByBlock
 62
     7
370
    50
100
AcDbLine
 10
41.929339
 20
55.946911
 30
0.0
 11
42.429339
 21
55.946911
 31
0.0
  0
LINE
  5
501
330
1F
100
AcDbEntity
  8
LC-002-002-----0
  6
ByBlock
 62
     7
370
    50
100
AcDbLine
 10
42.429339
 20
55.946911
 30
0.0
 11
42.429339
 21
57.946911
 31
0.0
  0
LINE
  5
502
330
1F
100
AcDbEntity
  8
LC-002-002-----0
  6
ByBlock
 62
     7
370
    50
100
AcDbLine
 10
41.929339
 20
55.946911
 30
0.0
 11
41.429339
 21
56.946911
 31
0.0
  0
LINE
  5
503
330
1F
100
AcDbEntity
  8
LC-002-002-----0
  6
ByBlock
 62
     7
370
    50
100
AcDbLine
 10
41.429339
 20
56.946911
 30
0.0
 11
40.929339
 21
56.946911
 31
0.0
  0
LINE
  5
504
330
1F
100
AcDbEntity
  8
LC-002-002-----0
  6
ByBlock
 62
     7
370
    50
100
AcDbLine
 10
42.945677
 20
59.914009
 30
0.0
 11
39.929451
 21
59.914009
 31
0.0
  0
ARC
  5
505
330
1F
100
AcDbEntity
  8
LC-005-002-RND-0
 62
     7
370
    50
100
AcDbCircle
 10
45.254024
 20
67.914009
 30
0.0
 40
0.4999999999998857
100
AcDbArc
 50
30.0
 51
90.0
  0
LINE
  5
506
330
1F
100
AcDbEntity
  8
LC-002-002-----0
  6
ByBlock
 62
     7
370
    50
100
AcDbLine
 10
42.929451
 20
68.414009
 30
0.0
 11
44.486075
 21
68.414009
 31
0.0
  0
LINE
  5
507
330
1F
100
AcDbEntity
  8
LC-002-002-----0
  6
ByBlock
 62
     7
370
    50
100
AcDbLine
 10
45.687037
 20
68.164009
 30
0.0
 11
48.429451
 21
63.414009
 31
0.0
  0
ARC
  5
508
330
1F
100
AcDbEntity
  8
LC-002-002-----0
  6
ByBlock
 62
     7
370
    50
100
AcDbCircle
 10
42.929451
 20
65.414009
 30
0.0
 40
3.0
100
AcDbArc
 50
90.0
 51
180.0
  0
LINE
  5
509
330
1F
100
AcDbEntity
  8
LC-002-002-----0
  6
ByBlock
 62
     7
370
    50
100
AcDbLine
 10
40.929339
 20
48.379381
 30
0.0
 11
45.929451
 21
48.379381
 31
0.0
  0
LINE
  5
50A
330
1F
100
AcDbEntity
  8
LC-002-002-----0
  6
ByBlock
 62
     7
370
    50
100
AcDbLine
 10
40.929339
 20
56.946911
 30
0.0
 11
40.929339
 21
52.379381
 31
0.0
  0
LINE
  5
50B
330
1F
100
AcDbEntity
  8
LC-002-002-----0
  6
ByBlock
 62
     7
370
    50
100
AcDbLine
 10
39.929339
 20
51.379381
 30
0.0
 11
39.929339
 21
49.379381
 31
0.0
  0
LINE
  5
50C
330
1F
100
AcDbEntity
  8
LC-002-002-----0
  6
ByBlock
 62
     7
370
    50
100
AcDbLine
 10
40.929339
 20
48.379381
 30
0.0
 11
39.929339
 21
49.379381
 31
0.0
  0
LINE
  5
50D
330
1F
100
AcDbEntity
  8
LC-002-002-----0
  6
ByBlock
 62
     7
370
    50
100
AcDbLine
 10
39.929339
 20
51.379381
 30
0.0
 11
40.929339
 21
52.379381
 31
0.0
  0
LINE
  5
50E
330
1F
100
AcDbEntity
  8
LC-002-002-----0
  6
ByBlock
 62
     7
370
    50
100
AcDbLine
 10
45.679451
 20
65.001722
 30
0.0
 11
48.429451
 21
63.414009
 31
0.0
  0
LINE
  5
50F
330
1F
100
AcDbEntity
  8
LC-002-002-----0
  6
ByBlock
 62
     7
370
    50
100
AcDbLine
 10
44.929451
 20
64.568709
 30
0.0
 11
44.929451
 21
54.884009
 31
0.0
  0
LINE
  5
510
330
1F
100
AcDbEntity
  8
LC-002-002-----0
  6
ByBlock
 62
     7
370
    50
100
AcDbLine
 10
44.929451
 20
50.884009
 30
0.0
 11
44.929451
 21
48.379381
 31
0.0
  0
LINE
  5
511
330
1F
100
AcDbEntity
  8
LC-002-002-----0
  6
ByBlock
 62
     7
370
    50
100
AcDbLine
 10
156.929451
 20
64.568709
 30
0.0
 11
156.929451
 21
54.884009
 31
0.0
  0
ARC
  5
512
330
1F
100
AcDbEntity
  8
LC-002-002-----0
  6
ByBlock
 62
     7
370
    50
100
AcDbCircle
 10
158.429451
 20
52.884009
 30
0.0
 40
2.500000000001046
100
AcDbArc
 50
126.869898
 51
233.130102
  0
LINE
  5
513
330
1F
100
AcDbEntity
  8
LC-002-002-----0
  6
ByBlock
 62
     7
370
    50
100
AcDbLine
 10
156.929451
 20
50.884009
 30
0.0
 11
156.929451
 21
48.379381
 31
0.0
  0
LINE
  5
514
330
1F
100
AcDbEntity
  8
LC-002-002-----0
  6
ByBlock
 62
     7
370
    50
100
AcDbLine
 10
156.171865
 20
68.164009
 30
0.0
 11
153.429451
 21
63.414009
 31
0.0
  0
LINE
  5
515
330
1F
100
AcDbEntity
  8
LC-002-002-----0
  6
ByBlock
 62
     7
370
    50
100
AcDbLine
 10
156.179451
 20
65.001722
 30
0.0
 11
153.429451
 21
63.414009
 31
0.0
  0
ARC
  5
516
330
1F
100
AcDbEntity
  8
LC-005-002-RND-0
 62
     7
370
    50
100
AcDbCircle
 10
156.429451
 20
64.568709
 30
0.0
 40
0.5
100
AcDbArc
 50
0.0
 51
120.0
  0
ARC
  5
517
330
1F
100
AcDbEntity
  8
LC-005-002-RND-0
 62
     7
370
    50
100
AcDbCircle
 10
156.604877
 20
67.914009
 30
0.0
 40
0.4999999999998863
100
AcDbArc
 50
90.0
 51
150.0
  0
LINE
  5
518
330
1F
100
AcDbEntity
  8
LC-002-002-----0
  6
ByBlock
 62
     7
370
    50
100
AcDbLine
 10
158.929451
 20
68.414009
 30
0.0
 11
156.604877
 21
68.414009
 31
0.0
  0
INSERT
  5
524
330
1F
100
AcDbEntity
  8
LC-004-005-----0
 62
     7
370
    25
100
AcDbBlockReference
  2
*X241
 10
0.0
 20
0.0
 30
0.0
  0
INSERT
  5
531
330
1F
100
AcDbEntity
  8
LC-004-005-----0
 62
     7
370
    25
100
AcDbBlockReference
  2
*X342
 10
0.0
 20
0.0
 30
0.0
  0
LINE
  5
532
330
1F
100
AcDbEntity
  8
LC-002-002-----0
 62
     7
370
    25
100
AcDbLine
 10
100.929451
 20
68.414009
 30
0.0
 11
100.929451
 21
48.379381
 31
0.0
  0
LINE
  5
533
330
1F
100
AcDbEntity
  8
LC-002-002-----0
  6
ByBlock
 62
     7
370
    25
100
AcDbLine
 10
153.229451
 20
111.967469
 30
0.0
 11
48.629451
 21
111.967469
 31
0.0
  0
INSERT
  5
54E
330
1F
100
AcDbEntity
  8
LC-004-005-----0
 62
     7
370
    25
100
AcDbBlockReference
  2
*X443
 10
0.0
 20
0.0
 30
0.0
  0
INSERT
  5
568
330
1F
100
AcDbEntity
  8
LC-004-005-----0
 62
     7
370
    25
100
AcDbBlockReference
  2
*X544
 10
0.0
 20
0.0
 30
0.0
  0
DIMENSION
  5
56C
330
1F
100
AcDbEntity
  8
LC-006-003-----0
 62
     7
370
    25
100
AcDbDimension
  2
*D45
 10
155.929451
 20
143.792448
 30
0.0
 11
100.929451
 21
174.592448
 31
0.0
 70
   160
  1
%%c110
 71
     5
 42
110.0
  3
LC-DIM-L-0140-02-02
100
AcDbAlignedDimension
 13
45.929451
 23
104.467469
 33
0.0
 14
155.929451
 24
104.467469
 34
0.0
100
AcDbRotatedDimension
  0
DIMENSION
  5
57A
330
1F
100
AcDbEntity
  8
LC-006-003-----0
 62
     7
370
    25
100
AcDbDimension
  2
*D46
 10
232.974453
 20
99.967469
 30
0.0
 11
202.174453
 21
143.839407
 31
0.0
 70
   160
 71
     5
 42
12.0
 53
90.0
  3
LC-DIM-L-0140-02-02
100
AcDbAlignedDimension
 13
153.429449
 23
111.967469
 33
0.0
 14
153.429449
 24
99.967469
 34
0.0
 50
90.0
100
AcDbRotatedDimension
  0
DIMENSION
  5
588
330
1F
100
AcDbEntity
  8
LC-006-003-----0
 62
     7
370
    25
100
AcDbDimension
  2
*D47
 10
250.929445
 20
315.708484
 30
0.0
 11
100.846559
 21
346.508484
 31
0.0
 70
   160
  1
%%c<>
 71
     5
 42
300.0
  3
LC-DIM-L-0140-02-02
100
AcDbAlignedDimension
 13
-49.070555
 23
246.967469
 33
0.0
 14
250.929445
 24
246.967469
 34
0.0
100
AcDbRotatedDimension
  0
LINE
  5
595
330
1F
100
AcDbEntity
  8
LC-002-002-----0
 62
     7
370
    25
100
AcDbLine
 10
100.929451
 20
137.347438
 30
0.0
 11
100.929451
 21
99.967469
 31
0.0
  0
DIMENSION
  5
596
330
1F
100
AcDbEntity
  8
LC-006-003-----0
 62
     7
370
    25
100
AcDbDimension
  2
*D48
 10
297.932076
 20
246.967469
 30
0.0
 11
267.132076
 21
172.393438
 31
0.0
 70
   160
  1
16,5-135
 71
     5
 42
135.0
 53
90.0
  3
LC-DIM-L-0140-02-02
100
AcDbAlignedDimension
 13
153.229451
 23
111.967469
 33
0.0
 14
249.233975
 24
246.967469
 34
0.0
 50
90.0
100
AcDbRotatedDimension
  0
DIMENSION
  5
5A3
330
1F
100
AcDbEntity
  8
LC-006-003-----0
 62
     7
370
    25
100
AcDbDimension
  2
*D49
 10
-8.753092
 20
246.967469
 30
0.0
 11
-39.553092
 21
191.359407
 31
0.0
 70
   160
 71
     5
 42
8.000001
 53
90.0
  3
LC-DIM-L-0140-02-02
100
AcDbAlignedDimension
 13
22.429448
 23
238.967468
 33
0.0
 14
-49.070555
 24
246.967469
 34
0.0
 50
90.0
100
AcDbRotatedDimension
  0
DIMENSION
  5
5B1
330
1F
100
AcDbEntity
  8
LC-006-003-----0
 62
     7
370
    25
100
AcDbDimension
  2
*D50
 10
145.929453
 20
261.060484
 30
0.0
 11
98.700426
 21
291.860484
 31
0.0
 70
   160
  1
%%c91,5
 71
     5
 42
90.000004
  3
LC-DIM-L-0140-02-02
100
AcDbAlignedDimension
 13
55.929449
 23
238.967468
 33
0.0
 14
145.929453
 24
238.967468
 34
0.0
100
AcDbRotatedDimension
  0
LINE
  5
5BE
102
{ACAD_REACTORS
330
63E
102
}
330
1F
100
AcDbEntity
  8
LC-001-100-D00-0
 62
     7
370
    25
100
AcDbLine
 10
48.352439
 20
99.967469
 30
0.0
 11
48.429451
 21
100.044482
 31
0.0
  0
LINE
  5
5BF
102
{ACAD_REACTORS
330
63E
102
}
330
1F
100
AcDbEntity
  8
LC-001-100-D00-0
 62
     7
370
    25
100
AcDbLine
 10
45.929451
 20
106.524738
 30
0.0
 11
48.429451
 21
109.024738
 31
0.0
  0
LINE
  5
5C0
102
{ACAD_REACTORS
330
63E
102
}
330
1F
100
AcDbEntity
  8
LC-001-100-D00-0
 62
     7
370
    25
100
AcDbLine
 10
45.929451
 20
115.504994
 30
0.0
 11
48.429451
 21
118.004994
 31
0.0
  0
LINE
  5
5C1
102
{ACAD_REACTORS
330
63E
102
}
330
1F
100
AcDbEntity
  8
LC-001-100-D00-0
 62
     7
370
    25
100
AcDbLine
 10
45.929451
 20
124.48525
 30
0.0
 11
48.429451
 21
126.98525
 31
0.0
  0
LINE
  5
5C2
102
{ACAD_REACTORS
330
63E
102
}
330
1F
100
AcDbEntity
  8
LC-001-100-D00-0
 62
     7
370
    25
100
AcDbLine
 10
45.929451
 20
133.465506
 30
0.0
 11
48.429451
 21
135.965506
 31
0.0
  0
LINE
  5
5C3
102
{ACAD_REACTORS
330
63E
102
}
330
1F
100
AcDbEntity
  8
LC-001-100-D00-0
 62
     7
370
    25
100
AcDbLine
 10
45.929451
 20
142.445762
 30
0.0
 11
48.429451
 21
144.945762
 31
0.0
  0
LINE
  5
5C4
102
{ACAD_REACTORS
330
63E
102
}
330
1F
100
AcDbEntity
  8
LC-001-100-D00-0
 62
     7
370
    25
100
AcDbLine
 10
45.929451
 20
151.426018
 30
0.0
 11
48.429451
 21
153.926018
 31
0.0
  0
LINE
  5
5C5
102
{ACAD_REACTORS
330
63E
102
}
330
1F
100
AcDbEntity
  8
LC-001-100-D00-0
 62
     7
370
    25
100
AcDbLine
 10
45.929451
 20
160.406274
 30
0.0
 11
48.429451
 21
162.906274
 31
0.0
  0
LINE
  5
5C6
102
{ACAD_REACTORS
330
63E
102
}
330
1F
100
AcDbEntity
  8
LC-001-100-D00-0
 62
     7
370
    25
100
AcDbLine
 10
45.929451
 20
169.386531
 30
0.0
 11
48.429451
 21
171.886531
 31
0.0
  0
LINE
  5
5C7
102
{ACAD_REACTORS
330
63E
102
}
330
1F
100
AcDbEntity
  8
LC-001-100-D00-0
 62
     7
370
    25
100
AcDbLine
 10
45.929451
 20
178.366787
 30
0.0
 11
48.429451
 21
180.866787
 31
0.0
  0
LINE
  5
5C8
102
{ACAD_REACTORS
330
63E
102
}
330
1F
100
AcDbEntity
  8
LC-001-100-D00-0
 62
     7
370
    25
100
AcDbLine
 10
45.929451
 20
187.347043
 30
0.0
 11
48.429451
 21
189.847043
 31
0.0
  0
LINE
  5
5C9
102
{ACAD_REACTORS
330
63E
102
}
330
1F
100
AcDbEntity
  8
LC-001-100-D00-0
 62
     7
370
    25
100
AcDbLine
 10
45.929451
 20
196.327299
 30
0.0
 11
48.429451
 21
198.827299
 31
0.0
  0
LINE
  5
5CA
102
{ACAD_REACTORS
330
63E
102
}
330
1F
100
AcDbEntity
  8
LC-001-100-D00-0
 62
     7
370
    25
100
AcDbLine
 10
45.929451
 20
205.307555
 30
0.0
 11
48.429451
 21
207.807555
 31
0.0
  0
LINE
  5
5CB
102
{ACAD_REACTORS
330
63E
102
}
330
1F
100
AcDbEntity
  8
LC-001-100-D00-0
 62
     7
370
    25
100
AcDbLine
 10
45.929451
 20
214.287811
 30
0.0
 11
48.429451
 21
216.787811
 31
0.0
  0
LINE
  5
5CC
102
{ACAD_REACTORS
330
63E
102
}
330
1F
100
AcDbEntity
  8
LC-001-100-D00-0
 62
     7
370
    25
100
AcDbLine
 10
45.929451
 20
223.268067
 30
0.0
 11
48.429451
 21
225.768067
 31
0.0
  0
LINE
  5
5CD
102
{ACAD_REACTORS
330
63E
102
}
330
1F
100
AcDbEntity
  8
LC-001-100-D00-0
 62
     7
370
    25
100
AcDbLine
 10
45.929451
 20
232.248323
 30
0.0
 11
48.429451
 21
234.748323
 31
0.0
  0
LINE
  5
5CE
102
{ACAD_REACTORS
330
63E
102
}
330
1F
100
AcDbEntity
  8
LC-001-100-D00-0
 62
     7
370
    25
100
AcDbLine
 10
43.298896
 20
238.598024
 30
0.0
 11
45.29862
 21
240.597749
 31
0.0
  0
LINE
  5
5CF
102
{ACAD_REACTORS
330
63E
102
}
330
1F
100
AcDbEntity
  8
LC-001-100-D00-0
 62
     7
370
    25
100
AcDbLine
 10
34.688085
 20
238.967469
 30
0.0
 11
36.688085
 21
240.967469
 31
0.0
  0
LINE
  5
5D0
102
{ACAD_REACTORS
330
63E
102
}
330
1F
100
AcDbEntity
  8
LC-001-100-D00-0
 62
     7
370
    25
100
AcDbLine
 10
25.707828
 20
238.967469
 30
0.0
 11
27.707828
 21
240.967469
 31
0.0
  0
LINE
  5
5D1
102
{ACAD_REACTORS
330
63E
102
}
330
1F
100
AcDbEntity
  8
LC-001-100-D00-0
 62
     7
370
    25
100
AcDbLine
 10
19.578512
 20
241.818409
 30
0.0
 11
20.992725
 21
243.232622
 31
0.0
  0
LINE
  5
5D2
102
{ACAD_REACTORS
330
63E
102
}
330
1F
100
AcDbEntity
  8
LC-001-100-D00-0
 62
     7
370
    25
100
AcDbLine
 10
13.247316
 20
244.467469
 30
0.0
 11
15.247316
 21
246.467469
 31
0.0
  0
LINE
  5
5D3
102
{ACAD_REACTORS
330
63E
102
}
330
1F
100
AcDbEntity
  8
LC-001-100-D00-0
 62
     7
370
    25
100
AcDbLine
 10
4.26706
 20
244.467469
 30
0.0
 11
6.26706
 21
246.467469
 31
0.0
  0
LINE
  5
5D4
102
{ACAD_REACTORS
330
63E
102
}
330
1F
100
AcDbEntity
  8
LC-001-100-D00-0
 62
     7
370
    25
100
AcDbLine
 10
-4.713196
 20
244.467469
 30
0.0
 11
-2.713196
 21
246.467469
 31
0.0
  0
LINE
  5
5D5
102
{ACAD_REACTORS
330
63E
102
}
330
1F
100
AcDbEntity
  8
LC-001-100-D00-0
 62
     7
370
    25
100
AcDbLine
 10
-13.693452
 20
244.467469
 30
0.0
 11
-11.693452
 21
246.467469
 31
0.0
  0
LINE
  5
5D6
102
{ACAD_REACTORS
330
63E
102
}
330
1F
100
AcDbEntity
  8
LC-001-100-D00-0
 62
     7
370
    25
100
AcDbLine
 10
-38.1737
 20
228.967478
 30
0.0
 11
-35.673702
 21
231.467475
 31
0.0
  0
LINE
  5
5D7
102
{ACAD_REACTORS
330
63E
102
}
330
1F
100
AcDbEntity
  8
LC-001-100-D00-0
 62
     7
370
    25
100
AcDbLine
 10
-30.256369
 20
236.884809
 30
0.0
 11
-26.081773
 21
241.059405
 31
0.0
  0
LINE
  5
5D8
102
{ACAD_REACTORS
330
63E
102
}
330
1F
100
AcDbEntity
  8
LC-001-100-D00-0
 62
     7
370
    25
100
AcDbLine
 10
-22.673708
 20
244.467469
 30
0.0
 11
-20.673708
 21
246.467469
 31
0.0
  0
LINE
  5
5D9
330
1F
100
AcDbEntity
  8
LC-001-100-D00-0
 62
     7
370
    50
100
AcDbLine
 10
-28.651959
 20
231.467475
 30
0.0
 11
-40.989134
 21
231.467475
 31
0.0
  0
LINE
  5
5DA
330
1F
100
AcDbEntity
  8
LC-002-002-----0
  6
ByBlock
 62
     7
370
    50
100
AcDbLine
 10
230.982141
 20
229.708657
 30
0.0
 11
227.027473
 21
244.467472
 31
0.0
  0
LINE
  5
5DB
330
1F
100
AcDbEntity
  8
LC-002-002-----0
  6
ByBlock
 62
     7
370
    50
100
AcDbLine
 10
192.552634
 20
229.777124
 30
0.0
 11
191.667934
 21
233.77714
 31
0.0
  0
INSERT
  5
5E7
330
1F
100
AcDbEntity
  8
LC-001-100-D00-0
 62
     7
370
    50
100
AcDbBlockReference
  2
POLY36
 10
0.0
 20
0.0
 30
0.0
  0
LINE
  5
5E8
330
1F
100
AcDbEntity
  8
LC-001-100-D00-0
 62
     7
370
    50
100
AcDbLine
 10
203.606402
 20
231.467474
 30
0.0
 11
203.135123
 21
229.70866
 31
0.0
  0
ARC
  5
5E9
330
1F
100
AcDbEntity
  8
LC-001-100-D00-0
 62
     7
370
    50
100
AcDbCircle
 10
202.169199
 20
229.967475
 30
0.0
 40
1.000000000000085
100
AcDbArc
 50
270.0
 51
345.0
  0
ARC
  5
5EA
330
1F
100
AcDbEntity
  8
LC-001-100-D00-0
 62
     7
370
    50
100
AcDbCircle
 10
193.53435
 20
229.967475
 30
0.0
 40
0.9999999999999986
100
AcDbArc
 50
190.973276
 51
270.0
  0
LINE
  5
5EB
330
1F
100
AcDbEntity
  8
LC-001-100-D00-0
 62
     7
370
    50
100
AcDbLine
 10
230.599326
 20
240.467479
 30
0.0
 11
229.527516
 21
244.467472
 31
0.0
  0
ARC
  5
5EC
330
1F
100
AcDbEntity
  8
LC-001-100-D00-0
 62
     7
370
    50
100
AcDbCircle
 10
231.948067
 20
229.967476
 30
0.0
 40
1.000000000000003
100
AcDbArc
 50
195.0
 51
270.0
  0
LINE
  5
5ED
330
1F
100
AcDbEntity
  8
LC-001-100-D00-0
 62
     7
370
    50
100
AcDbLine
 10
231.946447
 20
228.967478
 30
0.0
 11
241.410833
 21
228.967478
 31
0.0
  0
ARC
  5
5EE
330
1F
100
AcDbEntity
  8
LC-001-100-D00-0
 62
     7
370
    50
100
AcDbCircle
 10
241.410835
 20
229.967476
 30
0.0
 40
1.000000000000028
100
AcDbArc
 50
270.0
 51
345.0
  0
LINE
  5
5EF
330
1F
100
AcDbEntity
  8
LC-001-100-D00-0
 62
     7
370
    50
100
AcDbLine
 10
242.376757
 20
229.708661
 30
0.0
 11
242.848036
 21
231.467475
 31
0.0
  0
LINE
  5
5F0
330
1F
100
AcDbEntity
  8
LC-001-100-D00-0
 62
     7
370
    50
100
AcDbLine
 10
202.721667
 20
231.467475
 30
0.0
 11
203.606403
 21
231.467475
 31
0.0
  0
INSERT
  5
5F6
330
1F
100
AcDbEntity
  8
LC-001-100-D00-0
 62
     7
370
    50
100
AcDbBlockReference
  2
KLON5
 10
0.0
 20
0.0
 30
0.0
  0
LINE
  5
5F7
330
1F
100
AcDbEntity
  8
LC-001-100-D00-0
 62
     7
370
    50
100
AcDbLine
 10
233.742964
 20
231.467475
 30
0.0
 11
229.836982
 21
244.467472
 31
0.0
  0
INSERT
  5
601
330
1F
100
AcDbEntity
  8
LC-001-100-D00-0
 62
     7
370
    50
100
AcDbBlockReference
  2
POLY37
 10
0.0
 20
0.0
 30
0.0
  0
LINE
  5
602
330
1F
100
AcDbEntity
  8
LC-001-100-D00-0
 62
     7
370
    50
100
AcDbLine
 10
197.46038
 20
231.467475
 30
0.0
 11
194.698435
 21
244.467472
 31
0.0
  0
INSERT
  5
610
330
1F
100
AcDbEntity
  8
LC-001-100-D00-0
 62
     7
370
    50
100
AcDbBlockReference
  2
POLY38
 10
0.0
 20
0.0
 30
0.0
  0
INSERT
  5
61A
330
1F
100
AcDbEntity
  8
LC-001-100-D00-0
 62
     7
370
    50
100
AcDbBlockReference
  2
POLY39
 10
0.0
 20
0.0
 30
0.0
  0
LINE
  5
61B
330
1F
100
AcDbEntity
  8
LC-001-100-D00-0
 62
     7
370
    50
100
AcDbLine
 10
195.655672
 20
228.967477
 30
0.0
 11
197.526982
 21
228.967477
 31
0.0
  0
INSERT
  5
629
330
1F
100
AcDbEntity
  8
LC-001-100-D00-0
 62
     7
370
    50
100
AcDbBlockReference
  2
POLY40
 10
0.0
 20
0.0
 30
0.0
  0
LINE
  5
62A
330
1F
100
AcDbEntity
  8
LC-001-100-D00-0
 62
     7
370
    50
100
AcDbLine
 10
203.606402
 20
231.467474
 30
0.0
 11
197.460381
 21
231.467474
 31
0.0
  0
LINE
  5
62B
330
1F
100
AcDbEntity
  8
LC-001-100-D00-0
 62
     7
370
    50
100
AcDbLine
 10
197.526982
 20
228.967477
 30
0.0
 11
202.1692
 21
228.967477
 31
0.0
  0
LINE
  5
62C
102
{ACAD_REACTORS
330
63F
102
}
330
1F
100
AcDbEntity
  8
LC-001-100-D00-0
 62
     7
370
    25
100
AcDbLine
 10
240.032602
 20
228.967478
 30
0.0
 11
237.532604
 21
231.467475
 31
0.0
  0
LINE
  5
62D
102
{ACAD_REACTORS
330
63F
102
}
330
1F
100
AcDbEntity
  8
LC-001-100-D00-0
 62
     7
370
    25
100
AcDbLine
 10
232.115271
 20
236.884809
 30
0.0
 11
227.940675
 21
241.059405
 31
0.0
  0
LINE
  5
62E
330
1F
100
AcDbEntity
  8
LC-001-100-D00-0
 62
     7
370
    50
100
AcDbLine
 10
230.51086
 20
231.467475
 30
0.0
 11
242.848036
 21
231.467475
 31
0.0
  0
DIMENSION
  5
62F
330
1F
100
AcDbEntity
  8
LC-006-003-----0
 62
     7
370
    25
100
AcDbDimension
  2
*D57
 10
-57.573158
 20
228.967478
 30
0.0
 11
-88.373158
 21
237.273106
 31
0.0
 70
   160
 71
     5
 42
17.999992
 53
90.0
  3
LC-DIM-L-0140-02-02
100
AcDbAlignedDimension
 13
-49.070555
 23
246.967469
 33
0.0
 14
-38.1737
 24
228.967478
 34
0.0
 50
90.0
100
AcDbRotatedDimension
  0
ENDSEC
  0
SECTION
  2
OBJECTS
  0
DICTIONARY
  5
C
330
0
100
AcDbDictionary
281
     1
  3
ACAD_GROUP
350
D
  3
ACAD_LAYOUT
350
1A
  3
ACAD_MLINESTYLE
350
17
  3
ACAD_PLOTSETTINGS
350
19
  3
ACAD_PLOTSTYLENAME
350
E
  0
DICTIONARY
  5
D
102
{ACAD_REACTORS
330
C
102
}
330
C
100
AcDbDictionary
281
     1
  3
LCGROUP31
350
63E
  3
LCGROUP435
350
646
  3
LCGROUP437
350
645
  3
LCGROUP439
350
644
  3
LCGROUP441
350
643
  3
LCGROUP443
350
642
  3
LCGROUP445
350
641
  3
LCGROUP447
350
640
  3
LCGROUP449
350
64E
  3
LCGROUP451
350
64D
  3
LCGROUP453
350
64C
  3
LCGROUP455
350
64B
  3
LCGROUP457
350
64A
  3
LCGROUP459
350
649
  3
LCGROUP461
350
648
  3
LCGROUP463
350
647
  3
LCGROUP467
350
653
  3
LCGROUP472
350
652
  3
LCGROUP474
350
651
  3
LCGROUP476
350
650
  3
LCGROUP478
350
64F
  3
LCGROUP480
350
65B
  3
LCGROUP482
350
65A
  3
LCGROUP484
350
659
  3
LCGROUP486
350
658
  3
LCGROUP488
350
657
  3
LCGROUP490
350
656
  3
LCGROUP492
350
655
  3
LCGROUP494
350
654
  3
LCGROUP496
350
660
  3
LCGROUP498
350
65F
  3
LCGROUP500
350
65E
  3
LCGROUP504
350
65D
  3
LCGROUP509
350
65C
  3
LCGROUP542
350
661
  3
LCGROUP719
350
63F
  0
DICTIONARY
  5
1A
102
{ACAD_REACTORS
330
C
102
}
330
C
100
AcDbDictionary
281
     1
  3
Layout1
350
1E
  3
Layout2
350
26
  3
Model
350
22
  0
DICTIONARY
  5
17
102
{ACAD_REACTORS
330
C
102
}
330
C
100
AcDbDictionary
281
     1
  3
Standard
350
18
  0
DICTIONARY
  5
19
102
{ACAD_REACTORS
330
C
102
}
330
C
100
AcDbDictionary
281
     1
  0
ACDBDICTIONARYWDFLT
  5
E
102
{ACAD_REACTORS
330
C
102
}
330
C
100
AcDbDictionary
281
     1
  3
Normal
350
F
100
AcDbDictionaryWithDefault
340
F
  0
GROUP
  5
63E
102
{ACAD_REACTORS
330
D
102
}
330
D
100
AcDbGroup
300
GRP31
 70
     1
 71
     1
340
5BE
340
5BF
340
5C0
340
5C1
340
5C2
340
5C3
340
5C4
340
5C5
340
5C6
340
5C7
340
5C8
340
5C9
340
5CA
340
5CB
340
5CC
340
5CD
340
5CE
340
5CF
340
5D0
340
5D1
340
5D2
340
5D3
340
5D4
340
5D5
340
5D6
340
5D7
340
5D8
  0
GROUP
  5
646
102
{ACAD_REACTORS
330
D
102
}
330
D
100
AcDbGroup
300
GRP435
 70
     1
 71
     1
340
44B
  0
GROUP
  5
645
102
{ACAD_REACTORS
330
D
102
}
330
D
100
AcDbGroup
300
GRP437
 70
     1
 71
     1
340
44C
  0
GROUP
  5
644
102
{ACAD_REACTORS
330
D
102
}
330
D
100
AcDbGroup
300
GRP439
 70
     1
 71
     1
340
44D
  0
GROUP
  5
643
102
{ACAD_REACTORS
330
D
102
}
330
D
100
AcDbGroup
300
GRP441
 70
     1
 71
     1
340
44E
  0
GROUP
  5
642
102
{ACAD_REACTORS
330
D
102
}
330
D
100
AcDbGroup
300
GRP443
 70
     1
 71
     1
340
44F
  0
GROUP
  5
641
102
{ACAD_REACTORS
330
D
102
}
330
D
100
AcDbGroup
300
GRP445
 70
     1
 71
     1
340
450
  0
GROUP
  5
640
102
{ACAD_REACTORS
330
D
102
}
330
D
100
AcDbGroup
300
GRP447
 70
     1
 71
     1
340
451
  0
GROUP
  5
64E
102
{ACAD_REACTORS
330
D
102
}
330
D
100
AcDbGroup
300
GRP449
 70
     1
 71
     1
340
452
  0
GROUP
  5
64D
102
{ACAD_REACTORS
330
D
102
}
330
D
100
AcDbGroup
300
GRP451
 70
     1
 71
     1
340
453
  0
GROUP
  5
64C
102
{ACAD_REACTORS
330
D
102
}
330
D
100
AcDbGroup
300
GRP453
 70
     1
 71
     1
340
454
  0
GROUP
  5
64B
102
{ACAD_REACTORS
330
D
102
}
330
D
100
AcDbGroup
300
GRP455
 70
     1
 71
     1
340
455
  0
GROUP
  5
64A
102
{ACAD_REACTORS
330
D
102
}
330
D
100
AcDbGroup
300
GRP457
 70
     1
 71
     1
340
456
  0
GROUP
  5
649
102
{ACAD_REACTORS
330
D
102
}
330
D
100
AcDbGroup
300
GRP459
 70
     1
 71
     1
340
457
  0
GROUP
  5
648
102
{ACAD_REACTORS
330
D
102
}
330
D
100
AcDbGroup
300
GRP461
 70
     1
 71
     1
340
458
  0
GROUP
  5
647
102
{ACAD_REACTORS
330
D
102
}
330
D
100
AcDbGroup
300
GRP463
 70
     1
 71
     1
340
459
  0
GROUP
  5
653
102
{ACAD_REACTORS
330
D
102
}
330
D
100
AcDbGroup
300
GRP467
 70
     1
 71
     1
340
45C
  0
GROUP
  5
652
102
{ACAD_REACTORS
330
D
102
}
330
D
100
AcDbGroup
300
GRP472
 70
     1
 71
     1
340
460
  0
GROUP
  5
651
102
{ACAD_REACTORS
330
D
102
}
330
D
100
AcDbGroup
300
GRP474
 70
     1
 71
     1
340
461
  0
GROUP
  5
650
102
{ACAD_REACTORS
330
D
102
}
330
D
100
AcDbGroup
300
GRP476
 70
     1
 71
     1
340
462
  0
GROUP
  5
64F
102
{ACAD_REACTORS
330
D
102
}
330
D
100
AcDbGroup
300
GRP478
 70
     1
 71
     1
340
463
  0
GROUP
  5
65B
102
{ACAD_REACTORS
330
D
102
}
330
D
100
AcDbGroup
300
GRP480
 70
     1
 71
     1
340
464
  0
GROUP
  5
65A
102
{ACAD_REACTORS
330
D
102
}
330
D
100
AcDbGroup
300
GRP482
 70
     1
 71
     1
340
465
  0
GROUP
  5
659
102
{ACAD_REACTORS
330
D
102
}
330
D
100
AcDbGroup
300
GRP484
 70
     1
 71
     1
340
466
  0
GROUP
  5
658
102
{ACAD_REACTORS
330
D
102
}
330
D
100
AcDbGroup
300
GRP486
 70
     1
 71
     1
340
467
  0
GROUP
  5
657
102
{ACAD_REACTORS
330
D
102
}
330
D
100
AcDbGroup
300
GRP488
 70
     1
 71
     1
340
468
  0
GROUP
  5
656
102
{ACAD_REACTORS
330
D
102
}
330
D
100
AcDbGroup
300
GRP490
 70
     1
 71
     1
340
469
  0
GROUP
  5
655
102
{ACAD_REACTORS
330
D
102
}
330
D
100
AcDbGroup
300
GRP492
 70
     1
 71
     1
340
46A
  0
GROUP
  5
654
102
{ACAD_REACTORS
330
D
102
}
330
D
100
AcDbGroup
300
GRP494
 70
     1
 71
     1
340
46B
  0
GROUP
  5
660
102
{ACAD_REACTORS
330
D
102
}
330
D
100
AcDbGroup
300
GRP496
 70
     1
 71
     1
340
46C
  0
GROUP
  5
65F
102
{ACAD_REACTORS
330
D
102
}
330
D
100
AcDbGroup
300
GRP498
 70
     1
 71
     1
340
46D
  0
GROUP
  5
65E
102
{ACAD_REACTORS
330
D
102
}
330
D
100
AcDbGroup
300
GRP500
 70
     1
 71
     1
340
46E
  0
GROUP
  5
65D
102
{ACAD_REACTORS
330
D
102
}
330
D
100
AcDbGroup
300
GRP504
 70
     1
 71
     1
340
471
  0
GROUP
  5
65C
102
{ACAD_REACTORS
330
D
102
}
330
D
100
AcDbGroup
300
E
 70
     1
 71
     1
340
475
340
476
340
477
340
478
340
479
340
47A
340
47B
340
47C
340
47D
340
47E
340
47F
340
480
340
481
340
482
340
49A
340
49B
340
49C
340
49D
340
49E
340
49F
340
4A0
340
4A1
340
4A2
340
4A3
340
4A4
340
4A5
340
4A6
340
4A7
340
4A8
340
4A9
340
4AA
340
4AB
  0
GROUP
  5
661
102
{ACAD_REACTORS
330
D
102
}
330
D
100
AcDbGroup
300
Gruppe 1391
 70
     1
 71
     1
340
4AC
340
4AD
340
4AE
340
4AF
340
4B1
340
4B2
340
4B3
340
4B4
340
4B5
340
4B6
340
4B7
340
4B8
340
4BB
340
4BC
340
4BD
340
4BE
340
4BF
340
4C0
340
4C1
340
4C2
340
4C3
340
4C4
340
4C5
340
4C6
340
4C7
340
4C8
340
4C9
340
4CA
340
4CB
340
4CC
340
4CD
340
4D0
340
4D1
340
4D3
340
4D4
340
4D5
340
4D9
340
4DA
340
4DB
340
4DC
340
4DD
340
4DE
340
4DF
340
4E0
340
4E1
340
4E2
340
4E3
340
4E4
340
4E5
340
4E6
340
4E7
340
4E8
340
4E9
340
4EA
340
4EC
340
4ED
  0
GROUP
  5
63F
102
{ACAD_REACTORS
330
D
102
}
330
D
100
AcDbGroup
300
Gruppe 719
 70
     1
 71
     1
340
62C
340
62D
  0
LAYOUT
  5
1E
102
{ACAD_REACTORS
330
1A
102
}
330
1A
100
AcDbPlotSettings
  1

  2

  4

  6

 40
0.0
 41
0.0
 42
0.0
 43
0.0
 44
0.0
 45
0.0
 46
0.0
 47
0.0
 48
0.0
 49
0.0
140
0.0
141
0.0
142
1.0
143
1.0
 70
   688
 72
     0
 73
     0
 74
     5
  7

 75
    16
147
1.0
148
0.0
149
0.0
100
AcDbLayout
  1
Layout1
 70
     1
 71
     1
 10
-231.750467
 20
-155.536593
 11
608.249533
 21
438.463407
 12
0.0
 22
0.0
 32
0.0
 14
-231.750467
 24
-155.536593
 34
0.0
 15
608.249533
 25
438.463407
 35
0.0
146
0.0
 13
0.0
 23
0.0
 33
0.0
 16
1.0
 26
0.0
 36
0.0
 17
0.0
 27
1.0
 37
0.0
 76
     0
330
1B
  0
LAYOUT
  5
26
102
{ACAD_REACTORS
330
1A
102
}
330
1A
100
AcDbPlotSettings
  1

  2

  4

  6

 40
0.0
 41
0.0
 42
0.0
 43
0.0
 44
0.0
 45
0.0
 46
0.0
 47
0.0
 48
0.0
 49
0.0
140
0.0
141
0.0
142
1.0
143
1.0
 70
   688
 72
     0
 73
     0
 74
     5
  7

 75
    16
147
1.0
148
0.0
149
0.0
100
AcDbLayout
  1
Layout2
 70
     1
 71
     2
 10
0.0
 20
0.0
 11
0.0
 21
0.0
 12
0.0
 22
0.0
 32
0.0
 14
0.0
 24
0.0
 34
0.0
 15
0.0
 25
0.0
 35
0.0
146
0.0
 13
0.0
 23
0.0
 33
0.0
 16
1.0
 26
0.0
 36
0.0
 17
0.0
 27
1.0
 37
0.0
 76
     0
330
23
  0
LAYOUT
  5
22
102
{ACAD_REACTORS
330
1A
102
}
330
1A
100
AcDbPlotSettings
  1

  2

  4

  6

 40
0.0
 41
0.0
 42
0.0
 43
0.0
 44
0.0
 45
0.0
 46
0.0
 47
0.0
 48
0.0
 49
0.0
140
0.0
141
0.0
142
1.0
143
1.0
 70
  1776
 72
     0
 73
     0
 74
     0
  7

 75
     0
147
1.0
148
0.0
149
0.0
100
AcDbLayout
  1
Model
 70
     1
 71
     0
 10
-231.750467
 20
-155.536593
 11
608.249533
 21
438.463407
 12
0.0
 22
0.0
 32
0.0
 14
-231.750467
 24
-155.536593
 34
0.0
 15
608.249533
 25
438.463407
 35
0.0
146
0.0
 13
0.0
 23
0.0
 33
0.0
 16
1.0
 26
0.0
 36
0.0
 17
0.0
 27
1.0
 37
0.0
 76
     0
330
1F
  0
MLINESTYLE
  5
18
102
{ACAD_REACTORS
330
17
102
}
330
17
100
AcDbMlineStyle
  2
Standard
 70
     0
  3

 62
   256
 51
90.0
 52
90.0
 71
     2
 49
0.5
 62
   256
  6
BYLAYER
 49
-0.5
 62
   256
  6
BYLAYER
  0
ACDBPLACEHOLDER
  5
F
102
{ACAD_REACTORS
330
E
102
}
330
E
  0
ENDSEC
  0
EOF
