  0
SECTION
  2
HEADER
  9
$ACADVER
  1
AC1015
  9
$ACADMAINTVER
 70
     6
  9
$DWGCODEPAGE
  3
DOS850
  9
$INSBASE
 10
-95.836967
 20
122.545525
 30
0.0
  9
$EXTMIN
 10
-338.121798
 20
9.829144
 30
0.0
  9
$EXTMAX
 10
501.878202
 20
603.829144
 30
0.0
  9
$LIMMIN
 10
-338.121798
 20
9.829144
  9
$LIMMAX
 10
501.878202
 20
603.829144
  9
$ORTHOMODE
 70
     0
  9
$REGENMODE
 70
     1
  9
$FILLMODE
 70
     1
  9
$QTEXTMODE
 70
     0
  9
$MIRRTEXT
 70
     1
  9
$LTSCALE
 40
2.0
  9
$ATTMODE
 70
     1
  9
$TEXTSIZE
 40
2.5
  9
$TRACEWID
 40
1.0
  9
$TEXTSTYLE
  7
Standard
  9
$CLAYER
  8
0
  9
$CELTYPE
  6
ByLayer
  9
$CECOLOR
 62
     7
  9
$CELTSCALE
 40
1.0
  9
$DISPSILH
 70
     0
  9
$DIMSCALE
 40
2.0
  9
$DIMASZ
 40
3.5
  9
$DIMEXO
 40
0.625
  9
$DIMDLI
 40
3.75
  9
$DIMRND
 40
0.0
  9
$DIMDLE
 40
0.0
  9
$DIMEXE
 40
1.25
  9
$DIMTP
 40
0.0
  9
$DIMTM
 40
0.0
  9
$DIMTXT
 40
3.5
  9
$DIMCEN
 40
2.5
  9
$DIMTSZ
 40
0.0
  9
$DIMTOL
 70
     0
  9
$DIMLIM
 70
     0
  9
$DIMTIH
 70
     0
  9
$DIMTOH
 70
     0
  9
$DIMSE1
 70
     0
  9
$DIMSE2
 70
     0
  9
$DIMTAD
 70
     1
  9
$DIMZIN
 70
     8
  9
$DIMBLK
  1

  9
$DIMASO
 70
     1
  9
$DIMSHO
 70
     1
  9
$DIMPOST
  1

  9
$DIMAPOST
  1

  9
$DIMALT
 70
     0
  9
$DIMALTD
 70
     3
  9
$DIMALTF
 40
0.03937
  9
$DIMLFAC
 40
1.0
  9
$DIMTOFL
 70
     1
  9
$DIMTVP
 40
0.0
  9
$DIMTIX
 70
     0
  9
$DIMSOXD
 70
     0
  9
$DIMSAH
 70
     0
  9
$DIMBLK1
  1

  9
$DIMBLK2
  1

  9
$DIMSTYLE
  2
ISO-25
  9
$DIMCLRD
 70
     0
  9
$DIMCLRE
 70
     0
  9
$DIMCLRT
 70
     0
  9
$DIMTFAC
 40
1.0
  9
$DIMGAP
 40
0.625
  9
$DIMJUST
 70
     0
  9
$DIMSD1
 70
     0
  9
$DIMSD2
 70
     0
  9
$DIMTOLJ
 70
     0
  9
$DIMTZIN
 70
     8
  9
$DIMALTZ
 70
     0
  9
$DIMALTTZ
 70
     0
  9
$DIMUPT
 70
     0
  9
$DIMDEC
 70
     2
  9
$DIMTDEC
 70
     2
  9
$DIMALTU
 70
     2
  9
$DIMALTTD
 70
     3
  9
$DIMTXSTY
  7
Standard
  9
$DIMAUNIT
 70
     0
  9
$DIMADEC
 70
     0
  9
$DIMALTRND
 40
0.0
  9
$DIMAZIN
 70
     0
  9
$DIMDSEP
 70
    44
  9
$DIMATFIT
 70
     3
  9
$DIMFRAC
 70
     0
  9
$DIMLDRBLK
  1

  9
$DIMLUNIT
 70
     2
  9
$DIMLWD
 70
    -2
  9
$DIMLWE
 70
    -2
  9
$DIMTMOVE
 70
     0
  9
$LUNITS
 70
     2
  9
$LUPREC
 70
     4
  9
$SKETCHINC
 40
1.0
  9
$FILLETRAD
 40
10.0
  9
$AUNITS
 70
     0
  9
$AUPREC
 70
     0
  9
$MENU
  1
.
  9
$ELEVATION
 40
0.0
  9
$PELEVATION
 40
0.0
  9
$THICKNESS
 40
0.0
  9
$LIMCHECK
 70
     0
  9
$CHAMFERA
 40
10.0
  9
$CHAMFERB
 40
10.0
  9
$CHAMFERC
 40
20.0
  9
$CHAMFERD
 40
0.0
  9
$SKPOLY
 70
     0
  9
$TDCREATE
 40
2453788.475217651
  9
$TDUCREATE
 40
2453788.433550984
  9
$TDUPDATE
 40
2453788.475217662
  9
$TDUUPDATE
 40
2453788.433550995
  9
$TDINDWG
 40
0.0000000116
  9
$TDUSRTIMER
 40
0.0000000116
  9
$USRTIMER
 70
     1
  9
$ANGBASE
 50
0.0
  9
$ANGDIR
 70
     0
  9
$PDMODE
 70
     0
  9
$PDSIZE
 40
0.0
  9
$PLINEWID
 40
0.0
  9
$SPLFRAME
 70
     0
  9
$SPLINETYPE
 70
     6
  9
$SPLINESEGS
 70
     8
  9
$HANDSEED
  5
2C0
  9
$SURFTAB1
 70
     6
  9
$SURFTAB2
 70
     6
  9
$SURFTYPE
 70
     6
  9
$SURFU
 70
     6
  9
$SURFV
 70
     6
  9
$UCSBASE
  2

  9
$UCSNAME
  2

  9
$UCSORG
 10
0.0
 20
0.0
 30
0.0
  9
$UCSXDIR
 10
1.0
 20
0.0
 30
0.0
  9
$UCSYDIR
 10
0.0
 20
1.0
 30
0.0
  9
$UCSORTHOREF
  2

  9
$UCSORTHOVIEW
 70
     0
  9
$UCSORGTOP
 10
0.0
 20
0.0
 30
0.0
  9
$UCSORGBOTTOM
 10
0.0
 20
0.0
 30
0.0
  9
$UCSORGLEFT
 10
0.0
 20
0.0
 30
0.0
  9
$UCSORGRIGHT
 10
0.0
 20
0.0
 30
0.0
  9
$UCSORGFRONT
 10
0.0
 20
0.0
 30
0.0
  9
$UCSORGBACK
 10
0.0
 20
0.0
 30
0.0
  9
$PUCSBASE
  2

  9
$PUCSNAME
  2

  9
$PUCSORG
 10
0.0
 20
0.0
 30
0.0
  9
$PUCSXDIR
 10
1.0
 20
0.0
 30
0.0
  9
$PUCSYDIR
 10
0.0
 20
1.0
 30
0.0
  9
$PUCSORTHOREF
  2

  9
$PUCSORTHOVIEW
 70
     0
  9
$PUCSORGTOP
 10
0.0
 20
0.0
 30
0.0
  9
$PUCSORGBOTTOM
 10
0.0
 20
0.0
 30
0.0
  9
$PUCSORGLEFT
 10
0.0
 20
0.0
 30
0.0
  9
$PUCSORGRIGHT
 10
0.0
 20
0.0
 30
0.0
  9
$PUCSORGFRONT
 10
0.0
 20
0.0
 30
0.0
  9
$PUCSORGBACK
 10
0.0
 20
0.0
 30
0.0
  9
$USERI1
 70
     0
  9
$USERI2
 70
     0
  9
$USERI3
 70
     0
  9
$USERI4
 70
     0
  9
$USERI5
 70
     0
  9
$USERR1
 40
0.0
  9
$USERR2
 40
0.0
  9
$USERR3
 40
0.0
  9
$USERR4
 40
0.0
  9
$USERR5
 40
0.0
  9
$WORLDVIEW
 70
     1
  9
$SHADEDGE
 70
     3
  9
$SHADEDIF
 70
    70
  9
$TILEMODE
 70
     1
  9
$MAXACTVP
 70
    64
  9
$PINSBASE
 10
0.0
 20
0.0
 30
0.0
  9
$PLIMCHECK
 70
     0
  9
$PEXTMIN
 10
-338.121798
 20
9.829144
 30
0.0
  9
$PEXTMAX
 10
501.878202
 20
603.829144
 30
0.0
  9
$PLIMMIN
 10
-338.121798
 20
9.829144
  9
$PLIMMAX
 10
501.878202
 20
603.829144
  9
$UNITMODE
 70
     0
  9
$VISRETAIN
 70
     1
  9
$PLINEGEN
 70
     0
  9
$PSLTSCALE
 70
     1
  9
$TREEDEPTH
 70
  3020
  9
$CMLSTYLE
  2
Standard
  9
$CMLJUST
 70
     0
  9
$CMLSCALE
 40
20.0
  9
$PROXYGRAPHICS
 70
     1
  9
$MEASUREMENT
 70
     1
  9
$CELWEIGHT
370
    -1
  9
$ENDCAPS
280
     0
  9
$JOINSTYLE
280
     0
  9
$LWDISPLAY
290
     0
  9
$INSUNITS
 70
     4
  9
$HYPERLINKBASE
  1

  9
$STYLESHEET
  1

  9
$XEDIT
290
     1
  9
$CEPSNTYPE
380
     0
  9
$PSTYLEMODE
290
     1
  9
$FINGERPRINTGUID
  2
{FAEB1C30-E019-11D5-929B-00C0DF256EC4}
  9
$VERSIONGUID
  2
{FAEB1C32-E019-11D5-929B-00C0DF256EC4}
  9
$EXTNAMES
290
     1
  9
$PSVPSCALE
 40
0.0
  9
$OLESTARTUP
290
     0
  0
ENDSEC
  0
SECTION
  2
CLASSES
  0
CLASS
  1
ACDBDICTIONARYWDFLT
  2
AcDbDictionaryWithDefault
  3
ObjectDBX Classes
 90
        0
280
     0
281
     0
  0
CLASS
  1
ACDBPLACEHOLDER
  2
AcDbPlaceHolder
  3
ObjectDBX Classes
 90
        0
280
     0
281
     0
  0
CLASS
  1
LAYOUT
  2
AcDbLayout
  3
ObjectDBX Classes
 90
        0
280
     0
281
     0
  0
ENDSEC
  0
SECTION
  2
TABLES
  0
TABLE
  2
VPORT
  5
8
330
0
100
AcDbSymbolTable
 70
     2
  0
VPORT
  5
29
330
8
100
AcDbSymbolTableRecord
100
AcDbViewportTableRecord
  2
*ACTIVE
 70
     0
 10
0.0
 20
0.0
 11
1.0
 21
1.0
 12
81.878202
 22
306.829144
 13
0.0
 23
0.0
 14
1.0
 24
1.0
 15
0.0
 25
0.0
 16
0.0
 26
0.0
 36
1.0
 17
0.0
 27
0.0
 37
0.0
 40
594.0
 41
1.414141
 42
50.0
 43
0.0
 44
0.0
 50
0.0
 51
0.0
 71
    16
 72
   100
 73
     1
 74
     0
 75
     0
 76
     0
 77
     0
 78
     0
281
     0
 65
     0
110
0.0
120
0.0
130
0.0
111
1.0
121
0.0
131
0.0
112
0.0
122
1.0
132
0.0
 79
     0
146
0.0
  0
ENDTAB
  0
TABLE
  2
LTYPE
  5
5
330
0
100
AcDbSymbolTable
 70
     3
  0
LTYPE
  5
14
330
5
100
AcDbSymbolTableRecord
100
AcDbLinetypeTableRecord
  2
ByBlock
 70
     0
  3

 72
    65
 73
     0
 40
0.0
  0
LTYPE
  5
15
330
5
100
AcDbSymbolTableRecord
100
AcDbLinetypeTableRecord
  2
ByLayer
 70
     0
  3

 72
    65
 73
     0
 40
0.0
  0
LTYPE
  5
16
330
5
100
AcDbSymbolTableRecord
100
AcDbLinetypeTableRecord
  2
Continuous
 70
     0
  3
Solid line
 72
    65
 73
     0
 40
0.0
  0
LTYPE
  5
2A
330
5
100
AcDbSymbolTableRecord
100
AcDbLinetypeTableRecord
  2
DASHED
 70
     0
  3
__ __ __ __ __
 72
    65
 73
     2
 40
6.25
 49
5.0
 74
     4
 75
     0
340
0
 46
1.0
 50
0.0
 44
0.0
 45
0.0
 49
-1.25
 74
     4
 75
     0
340
0
 46
1.0
 50
0.0
 44
0.0
 45
0.0
  0
LTYPE
  5
2B7
330
5
100
AcDbSymbolTableRecord
100
AcDbLinetypeTableRecord
  2
DASHDOT
 70
     0
  3
__ . __ . __ . __ . __
 72
    65
 73
     4
 40
7.5
 49
5.0
 74
     4
 75
     0
340
0
 46
1.0
 50
0.0
 44
0.0
 45
0.0
 49
-1.25
 74
     4
 75
     0
340
0
 46
1.0
 50
0.0
 44
0.0
 45
0.0
 49
0.0
 74
     4
 75
     0
340
0
 46
1.0
 50
0.0
 44
0.0
 45
0.0
 49
-1.25
 74
     4
 75
     0
340
0
 46
1.0
 50
0.0
 44
0.0
 45
0.0
  0
ENDTAB
  0
TABLE
  2
LAYER
  5
2
330
0
100
AcDbSymbolTable
 70
    10
  0
LAYER
  5
10
330
2
100
AcDbSymbolTableRecord
100
AcDbLayerTableRecord
  2
0
 70
     0
 62
     7
  6
Continuous
370
    -3
390
F
  0
LAYER
  5
2B
330
2
100
AcDbSymbolTableRecord
100
AcDbLayerTableRecord
  2
LC-INFO-1-2-mm-A3-0
 70
     1
 62
     7
  6
ByBlock
370
    -3
390
F
  0
LAYER
  5
2C
330
2
100
AcDbSymbolTableRecord
100
AcDbLayerTableRecord
  2
LC-CUT-HIDDEN
 70
     0
 62
     7
  6
DASHED
370
    -3
390
F
  0
LAYER
  5
2D
330
2
100
AcDbSymbolTableRecord
100
AcDbLayerTableRecord
  2
LC-VIEWPORT
 70
     0
 62
     7
  6
ByBlock
370
    -3
390
F
  0
LAYER
  5
2E
330
2
100
AcDbSymbolTableRecord
100
AcDbLayerTableRecord
  2
LC-3D-HIDDEN
 70
     0
 62
     9
  6
DASHED
370
    -3
390
F
  0
LAYER
  5
30
330
2
100
AcDbSymbolTableRecord
100
AcDbLayerTableRecord
  2
LC-001-002-----0
 70
     0
 62
     1
  6
ByBlock
370
    -3
390
F
  0
LAYER
  5
45
330
2
100
AcDbSymbolTableRecord
100
AcDbLayerTableRecord
  2
LC-002-003-----0
 70
     0
 62
     2
  6
ByBlock
370
    -3
390
F
  0
LAYER
  5
47
330
2
100
AcDbSymbolTableRecord
100
AcDbLayerTableRecord
  2
Defpoints
 70
     0
 62
     7
  6
Continuous
290
     0
370
    -3
390
F
  0
LAYER
  5
54
330
2
100
AcDbSymbolTableRecord
100
AcDbLayerTableRecord
  2
LC-003-002-RND-0
 70
     0
 62
     1
  6
ByBlock
370
    -3
390
F
  0
LAYER
  5
5D
330
2
100
AcDbSymbolTableRecord
100
AcDbLayerTableRecord
  2
LC-004-005-----0
 70
     0
 62
     2
  6
ByBlock
370
    -3
390
F
  0
ENDTAB
  0
TABLE
  2
STYLE
  5
3
330
0
100
AcDbSymbolTable
 70
     3
  0
STYLE
  5
11
330
3
100
AcDbSymbolTableRecord
100
AcDbTextStyleTableRecord
  2
Standard
 70
     0
 40
0.0
 41
1.0
 50
0.0
 71
     0
 42
2.5
  3
txt
  4

  0
STYLE
  5
2F
330
3
100
AcDbSymbolTableRecord
100
AcDbTextStyleTableRecord
  2
LCTX15-400-0-0-Arial
 70
     0
 40
0.0
 41
0.9
 50
0.0
 71
     0
 42
3.5
  3

  4

1001
ACAD
1000
Arial
1071
 16777218
  0
STYLE
  5
43
330
3
100
AcDbSymbolTableRecord
100
AcDbTextStyleTableRecord
  2
LCTX15-400-0-0pDIN-Schrift
 70
     0
 40
2.5
 41
0.8
 50
15.0
 71
     0
 42
3.5
  3
STANDARD
  4

  0
ENDTAB
  0
TABLE
  2
VIEW
  5
6
330
0
100
AcDbSymbolTable
 70
     0
  0
ENDTAB
  0
TABLE
  2
UCS
  5
7
330
0
100
AcDbSymbolTable
 70
     0
  0
ENDTAB
  0
TABLE
  2
APPID
  5
9
330
0
100
AcDbSymbolTable
 70
     1
  0
APPID
  5
12
330
9
100
AcDbSymbolTableRecord
100
AcDbRegAppTableRecord
  2
ACAD
 70
     0
  0
ENDTAB
  0
TABLE
  2
DIMSTYLE
  5
A
330
0
100
AcDbSymbolTable
 70
     3
100
AcDbDimStyleTable
  0
DIMSTYLE
105
27
330
A
100
AcDbSymbolTableRecord
100
AcDbDimStyleTableRecord
  2
ISO-25
 70
     0
 41
2.5
 42
0.625
 43
3.75
 44
1.25
 73
     0
 74
     0
 77
     1
 78
     8
140
2.5
141
2.5
143
0.03937
147
0.625
171
     3
172
     1
271
     2
272
     2
274
     3
278
    44
283
     0
284
     8
340
11
  0
DIMSTYLE
105
44
102
{ACAD_REACTORS
330
46
102
}
330
A
100
AcDbSymbolTableRecord
100
AcDbDimStyleTableRecord
  2
LC-DIM-L-0140-01-02
 70
     0
 40
2.0
 41
14.0
 42
0.0
 43
7.5
 44
1.8
 73
     0
 74
     0
 77
     1
 78
     8
 79
     2
140
14.0
141
0.0
146
0.71
147
1.5
176
     2
177
     2
178
     2
179
     1
271
     1
278
    44
289
     1
340
43
  0
DIMSTYLE
105
27C
102
{ACAD_REACTORS
330
27D
330
28C
330
299
330
2A9
102
}
330
A
100
AcDbSymbolTableRecord
100
AcDbDimStyleTableRecord
  2
LC-DIM-L-0140-02-02
 70
     0
 40
2.0
 41
14.0
 42
0.0
 43
7.5
 44
1.8
 73
     0
 74
     0
 77
     1
 78
     8
 79
     2
140
14.0
141
0.0
146
0.71
147
1.5
176
     2
177
     2
178
     2
179
     2
271
     2
278
    44
289
     1
340
43
  0
ENDTAB
  0
TABLE
  2
BLOCK_RECORD
  5
1
330
0
100
AcDbSymbolTable
 70
    15
  0
BLOCK_RECORD
  5
1F
330
1
100
AcDbSymbolTableRecord
100
AcDbBlockTableRecord
  2
*Model_Space
340
22
  0
BLOCK_RECORD
  5
1B
330
1
100
AcDbSymbolTableRecord
100
AcDbBlockTableRecord
  2
*Paper_Space
340
1E
  0
BLOCK_RECORD
  5
23
330
1
100
AcDbSymbolTableRecord
100
AcDbBlockTableRecord
  2
*Paper_Space0
340
26
  0
BLOCK_RECORD
  5
48
330
1
100
AcDbSymbolTableRecord
100
AcDbBlockTableRecord
  2
*D1
340
0
  0
BLOCK_RECORD
  5
5A
330
1
100
AcDbSymbolTableRecord
100
AcDbBlockTableRecord
  2
*X12
340
0
102
{BLKREFS
331
85
102
}
  0
BLOCK_RECORD
  5
88
330
1
100
AcDbSymbolTableRecord
100
AcDbBlockTableRecord
  2
*X23
340
0
102
{BLKREFS
331
B3
102
}
  0
BLOCK_RECORD
  5
C6
330
1
100
AcDbSymbolTableRecord
100
AcDbBlockTableRecord
  2
*X34
340
0
102
{BLKREFS
331
D2
102
}
  0
BLOCK_RECORD
  5
E7
330
1
100
AcDbSymbolTableRecord
100
AcDbBlockTableRecord
  2
*X45
340
0
102
{BLKREFS
331
102
102
}
  0
BLOCK_RECORD
  5
103
330
1
100
AcDbSymbolTableRecord
100
AcDbBlockTableRecord
  2
*X56
340
0
102
{BLKREFS
331
11D
102
}
  0
BLOCK_RECORD
  5
1C6
330
1
100
AcDbSymbolTableRecord
100
AcDbBlockTableRecord
  2
*X67
340
0
102
{BLKREFS
331
1EF
102
}
  0
BLOCK_RECORD
  5
1F7
330
1
100
AcDbSymbolTableRecord
100
AcDbBlockTableRecord
  2
*X78
340
0
102
{BLKREFS
331
203
102
}
  0
BLOCK_RECORD
  5
246
330
1
100
AcDbSymbolTableRecord
100
AcDbBlockTableRecord
  2
*X89
340
0
102
{BLKREFS
331
251
102
}
  0
BLOCK_RECORD
  5
26F
330
1
100
AcDbSymbolTableRecord
100
AcDbBlockTableRecord
  2
*X910
340
0
102
{BLKREFS
331
27B
102
}
  0
BLOCK_RECORD
  5
27E
330
1
100
AcDbSymbolTableRecord
100
AcDbBlockTableRecord
  2
*D11
340
0
  0
BLOCK_RECORD
  5
28D
330
1
100
AcDbSymbolTableRecord
100
AcDbBlockTableRecord
  2
*D12
340
0
  0
BLOCK_RECORD
  5
29A
330
1
100
AcDbSymbolTableRecord
100
AcDbBlockTableRecord
  2
*D13
340
0
  0
BLOCK_RECORD
  5
2AA
330
1
100
AcDbSymbolTableRecord
100
AcDbBlockTableRecord
  2
*D14
340
0
  0
ENDTAB
  0
ENDSEC
  0
SECTION
  2
BLOCKS
  0
BLOCK
  5
20
330
1F
100
AcDbEntity
  8
0
100
AcDbBlockBegin
  2
*Model_Space
 70
     0
 71
     0
 10
0.0
 20
0.0
 30
0.0
  3
*Model_Space
  1

  0
ENDBLK
  5
21
330
1F
100
AcDbEntity
  8
0
100
AcDbBlockEnd
  0
BLOCK
  5
1C
330
1B
100
AcDbEntity
 67
     1
  8
0
100
AcDbBlockBegin
  2
*Paper_Space
 70
     0
 71
     0
 10
0.0
 20
0.0
 30
0.0
  3
*Paper_Space
  1

  0
ENDBLK
  5
1D
330
1B
100
AcDbEntity
 67
     1
  8
0
100
AcDbBlockEnd
  0
BLOCK
  5
24
330
23
100
AcDbEntity
  8
0
100
AcDbBlockBegin
  2
*Paper_Space0
 70
     0
 71
     0
 10
0.0
 20
0.0
 30
0.0
  3
*Paper_Space0
  1

  0
ENDBLK
  5
25
330
23
100
AcDbEntity
  8
0
100
AcDbBlockEnd
  0
BLOCK
  5
52
330
48
100
AcDbEntity
  8
0
100
AcDbBlockBegin
  2
*D1
 70
     1
 71
     0
 10
0.0
 20
0.0
 30
0.0
  3
*D1
  1

  0
LINE
  5
49
330
48
100
AcDbEntity
  8
LC-002-003-----0
 62
     2
370
    -2
100
AcDbLine
 10
-46.080767
 20
323.304628
 30
0.0
 11
-46.080767
 21
270.8
 31
0.0
  0
LINE
  5
4A
330
48
100
AcDbEntity
  8
LC-002-003-----0
 62
     2
370
    -2
100
AcDbLine
 10
63.919233
 20
323.304628
 30
0.0
 11
63.919233
 21
270.8
 31
0.0
  0
LINE
  5
4B
330
48
100
AcDbEntity
  8
LC-002-003-----0
 62
     2
370
    -2
100
AcDbLine
 10
-18.080767
 20
274.4
 30
0.0
 11
35.919233
 21
274.4
 31
0.0
  0
SOLID
  5
4C
330
48
100
AcDbEntity
  8
LC-002-003-----0
 62
     2
100
AcDbTrace
 10
-18.080767
 20
279.066667
 30
0.0
 11
-18.080767
 21
269.733333
 31
0.0
 12
-46.080767
 22
274.4
 32
0.0
 13
-46.080767
 23
274.4
 33
0.0
  0
SOLID
  5
4D
330
48
100
AcDbEntity
  8
LC-002-003-----0
 62
     2
100
AcDbTrace
 10
35.919233
 20
269.733333
 30
0.0
 11
35.919233
 21
279.066667
 31
0.0
 12
63.919233
 22
274.4
 32
0.0
 13
63.919233
 23
274.4
 33
0.0
  0
MTEXT
  5
4E
330
48
100
AcDbEntity
  8
LC-002-003-----0
 62
     2
100
AcDbMText
 10
8.919233
 20
305.2
 30
0.0
 40
28.0
 41
0.0
 71
     5
 72
     1
  1
%%c\A1;110
  7
LCTX15-400-0-0pDIN-Schrift
 73
     1
 44
1.0
  0
POINT
  5
4F
330
48
100
AcDbEntity
  8
Defpoints
 62
     0
100
AcDbPoint
 10
-46.080767
 20
323.304628
 30
0.0
  0
POINT
  5
50
330
48
100
AcDbEntity
  8
Defpoints
 62
     0
100
AcDbPoint
 10
63.919233
 20
323.304628
 30
0.0
  0
POINT
  5
51
330
48
100
AcDbEntity
  8
Defpoints
 62
     0
100
AcDbPoint
 10
63.919233
 20
274.4
 30
0.0
  0
ENDBLK
  5
53
330
48
100
AcDbEntity
  8
0
100
AcDbBlockEnd
  0
BLOCK
  5
5B
330
5A
100
AcDbEntity
  8
0
100
AcDbBlockBegin
  2
*X12
 70
     1
 71
     0
 10
0.0
 20
0.0
 30
0.0
  3
*X12
  1

  4
*X1
  0
LINE
  5
5E
330
5A
100
AcDbEntity
  8
LC-004-005-----0
 62
     7
370
    25
100
AcDbLine
 10
62.089332
 20
322.304628
 30
0.0
 11
63.856972
 21
324.072268
 31
0.0
  0
LINE
  5
5F
330
5A
100
AcDbEntity
  8
LC-004-005-----0
 62
     7
370
    25
100
AcDbLine
 10
61.419233
 20
324.462956
 30
0.0
 11
63.919233
 21
326.962956
 31
0.0
  0
LINE
  5
60
330
5A
100
AcDbEntity
  8
LC-004-005-----0
 62
     7
370
    25
100
AcDbLine
 10
61.419233
 20
327.291383
 30
0.0
 11
63.919233
 21
329.791383
 31
0.0
  0
LINE
  5
61
330
5A
100
AcDbEntity
  8
LC-004-005-----0
 62
     7
370
    25
100
AcDbLine
 10
61.419233
 20
330.11981
 30
0.0
 11
63.919233
 21
332.61981
 31
0.0
  0
LINE
  5
62
330
5A
100
AcDbEntity
  8
LC-004-005-----0
 62
     7
370
    25
100
AcDbLine
 10
61.419233
 20
332.948237
 30
0.0
 11
63.919233
 21
335.448237
 31
0.0
  0
LINE
  5
63
330
5A
100
AcDbEntity
  8
LC-004-005-----0
 62
     7
370
    25
100
AcDbLine
 10
61.419233
 20
335.776664
 30
0.0
 11
63.919233
 21
338.276664
 31
0.0
  0
LINE
  5
64
330
5A
100
AcDbEntity
  8
LC-004-005-----0
 62
     7
370
    25
100
AcDbLine
 10
61.419233
 20
338.605091
 30
0.0
 11
63.919233
 21
341.105091
 31
0.0
  0
LINE
  5
65
330
5A
100
AcDbEntity
  8
LC-004-005-----0
 62
     7
370
    25
100
AcDbLine
 10
61.419233
 20
341.433518
 30
0.0
 11
63.919233
 21
343.933518
 31
0.0
  0
LINE
  5
66
330
5A
100
AcDbEntity
  8
LC-004-005-----0
 62
     7
370
    25
100
AcDbLine
 10
61.419233
 20
344.261945
 30
0.0
 11
63.919233
 21
346.761945
 31
0.0
  0
LINE
  5
67
330
5A
100
AcDbEntity
  8
LC-004-005-----0
 62
     7
370
    25
100
AcDbLine
 10
61.419233
 20
347.090373
 30
0.0
 11
63.919233
 21
349.590373
 31
0.0
  0
LINE
  5
68
330
5A
100
AcDbEntity
  8
LC-004-005-----0
 62
     7
370
    25
100
AcDbLine
 10
61.419233
 20
349.9188
 30
0.0
 11
63.919233
 21
352.4188
 31
0.0
  0
LINE
  5
69
330
5A
100
AcDbEntity
  8
LC-004-005-----0
 62
     7
370
    25
100
AcDbLine
 10
61.419233
 20
352.747227
 30
0.0
 11
63.919233
 21
355.247227
 31
0.0
  0
LINE
  5
6A
330
5A
100
AcDbEntity
  8
LC-004-005-----0
 62
     7
370
    25
100
AcDbLine
 10
61.419233
 20
355.575654
 30
0.0
 11
63.919233
 21
358.075654
 31
0.0
  0
LINE
  5
6B
330
5A
100
AcDbEntity
  8
LC-004-005-----0
 62
     7
370
    25
100
AcDbLine
 10
61.419233
 20
358.404081
 30
0.0
 11
63.919233
 21
360.904081
 31
0.0
  0
LINE
  5
6C
330
5A
100
AcDbEntity
  8
LC-004-005-----0
 62
     7
370
    25
100
AcDbLine
 10
61.419233
 20
361.232508
 30
0.0
 11
63.919233
 21
363.732508
 31
0.0
  0
LINE
  5
6D
330
5A
100
AcDbEntity
  8
LC-004-005-----0
 62
     7
370
    25
100
AcDbLine
 10
61.419233
 20
364.060935
 30
0.0
 11
63.919233
 21
366.560935
 31
0.0
  0
LINE
  5
6E
330
5A
100
AcDbEntity
  8
LC-004-005-----0
 62
     7
370
    25
100
AcDbLine
 10
61.419233
 20
366.889362
 30
0.0
 11
63.919233
 21
369.389362
 31
0.0
  0
LINE
  5
6F
330
5A
100
AcDbEntity
  8
LC-004-005-----0
 62
     7
370
    25
100
AcDbLine
 10
61.419233
 20
369.71779
 30
0.0
 11
63.919233
 21
372.21779
 31
0.0
  0
LINE
  5
70
330
5A
100
AcDbEntity
  8
LC-004-005-----0
 62
     7
370
    25
100
AcDbLine
 10
61.419233
 20
372.546217
 30
0.0
 11
63.919233
 21
375.046217
 31
0.0
  0
LINE
  5
71
330
5A
100
AcDbEntity
  8
LC-004-005-----0
 62
     7
370
    25
100
AcDbLine
 10
61.419233
 20
375.374644
 30
0.0
 11
63.919233
 21
377.874644
 31
0.0
  0
LINE
  5
72
330
5A
100
AcDbEntity
  8
LC-004-005-----0
 62
     7
370
    25
100
AcDbLine
 10
61.419233
 20
378.203071
 30
0.0
 11
63.919233
 21
380.703071
 31
0.0
  0
LINE
  5
73
330
5A
100
AcDbEntity
  8
LC-004-005-----0
 62
     7
370
    25
100
AcDbLine
 10
61.419233
 20
381.031498
 30
0.0
 11
63.919233
 21
383.531498
 31
0.0
  0
LINE
  5
74
330
5A
100
AcDbEntity
  8
LC-004-005-----0
 62
     7
370
    25
100
AcDbLine
 10
61.419233
 20
383.859925
 30
0.0
 11
63.919233
 21
386.359925
 31
0.0
  0
LINE
  5
75
330
5A
100
AcDbEntity
  8
LC-004-005-----0
 62
     7
370
    25
100
AcDbLine
 10
61.419233
 20
386.688352
 30
0.0
 11
63.919233
 21
389.188352
 31
0.0
  0
LINE
  5
76
330
5A
100
AcDbEntity
  8
LC-004-005-----0
 62
     7
370
    25
100
AcDbLine
 10
61.419233
 20
389.516779
 30
0.0
 11
63.919233
 21
392.016779
 31
0.0
  0
LINE
  5
77
330
5A
100
AcDbEntity
  8
LC-004-005-----0
 62
     7
370
    25
100
AcDbLine
 10
61.419233
 20
392.345207
 30
0.0
 11
63.919233
 21
394.845207
 31
0.0
  0
LINE
  5
78
330
5A
100
AcDbEntity
  8
LC-004-005-----0
 62
     7
370
    25
100
AcDbLine
 10
61.419233
 20
395.173634
 30
0.0
 11
63.919233
 21
397.673634
 31
0.0
  0
LINE
  5
79
330
5A
100
AcDbEntity
  8
LC-004-005-----0
 62
     7
370
    25
100
AcDbLine
 10
61.419233
 20
398.002061
 30
0.0
 11
63.919233
 21
400.502061
 31
0.0
  0
LINE
  5
7A
330
5A
100
AcDbEntity
  8
LC-004-005-----0
 62
     7
370
    25
100
AcDbLine
 10
61.419233
 20
400.830488
 30
0.0
 11
63.919233
 21
403.330488
 31
0.0
  0
LINE
  5
7B
330
5A
100
AcDbEntity
  8
LC-004-005-----0
 62
     7
370
    25
100
AcDbLine
 10
61.419233
 20
403.658915
 30
0.0
 11
63.919233
 21
406.158915
 31
0.0
  0
LINE
  5
7C
330
5A
100
AcDbEntity
  8
LC-004-005-----0
 62
     7
370
    25
100
AcDbLine
 10
61.419233
 20
406.487342
 30
0.0
 11
63.919233
 21
408.987342
 31
0.0
  0
LINE
  5
7D
330
5A
100
AcDbEntity
  8
LC-004-005-----0
 62
     7
370
    25
100
AcDbLine
 10
61.419233
 20
409.315769
 30
0.0
 11
63.919233
 21
411.815769
 31
0.0
  0
LINE
  5
7E
330
5A
100
AcDbEntity
  8
LC-004-005-----0
 62
     7
370
    25
100
AcDbLine
 10
61.419233
 20
412.144196
 30
0.0
 11
63.919233
 21
414.644196
 31
0.0
  0
LINE
  5
7F
330
5A
100
AcDbEntity
  8
LC-004-005-----0
 62
     7
370
    25
100
AcDbLine
 10
61.419233
 20
414.972623
 30
0.0
 11
63.919233
 21
417.472623
 31
0.0
  0
LINE
  5
80
330
5A
100
AcDbEntity
  8
LC-004-005-----0
 62
     7
370
    25
100
AcDbLine
 10
61.419233
 20
417.801051
 30
0.0
 11
63.919233
 21
420.301051
 31
0.0
  0
LINE
  5
81
330
5A
100
AcDbEntity
  8
LC-004-005-----0
 62
     7
370
    25
100
AcDbLine
 10
61.419233
 20
420.629478
 30
0.0
 11
63.919233
 21
423.129478
 31
0.0
  0
LINE
  5
82
330
5A
100
AcDbEntity
  8
LC-004-005-----0
 62
     7
370
    25
100
AcDbLine
 10
61.419233
 20
423.457905
 30
0.0
 11
63.919233
 21
425.957905
 31
0.0
  0
LINE
  5
83
330
5A
100
AcDbEntity
  8
LC-004-005-----0
 62
     7
370
    25
100
AcDbLine
 10
61.419233
 20
426.286332
 30
0.0
 11
63.919233
 21
428.786332
 31
0.0
  0
LINE
  5
84
330
5A
100
AcDbEntity
  8
LC-004-005-----0
 62
     7
370
    25
100
AcDbLine
 10
60.919233
 20
428.614759
 30
0.0
 11
63.919233
 21
431.614759
 31
0.0
  0
ENDBLK
  5
5C
330
5A
100
AcDbEntity
  8
0
100
AcDbBlockEnd
  0
BLOCK
  5
89
330
88
100
AcDbEntity
  8
0
100
AcDbBlockBegin
  2
*X23
 70
     1
 71
     0
 10
0.0
 20
0.0
 30
0.0
  3
*X23
  1

  4
*X2
  0
LINE
  5
8B
330
88
100
AcDbEntity
  8
LC-004-005-----0
 62
     7
370
    25
100
AcDbLine
 10
-45.390899
 20
322.304628
 30
0.0
 11
-43.580767
 21
324.114759
 31
0.0
  0
LINE
  5
8C
330
88
100
AcDbEntity
  8
LC-004-005-----0
 62
     7
370
    25
100
AcDbLine
 10
-46.080767
 20
324.443186
 30
0.0
 11
-43.580767
 21
326.943186
 31
0.0
  0
LINE
  5
8D
330
88
100
AcDbEntity
  8
LC-004-005-----0
 62
     7
370
    25
100
AcDbLine
 10
-46.080767
 20
327.271613
 30
0.0
 11
-43.580767
 21
329.771613
 31
0.0
  0
LINE
  5
8E
330
88
100
AcDbEntity
  8
LC-004-005-----0
 62
     7
370
    25
100
AcDbLine
 10
-46.080767
 20
330.10004
 30
0.0
 11
-43.580767
 21
332.60004
 31
0.0
  0
LINE
  5
8F
330
88
100
AcDbEntity
  8
LC-004-005-----0
 62
     7
370
    25
100
AcDbLine
 10
-46.080767
 20
332.928468
 30
0.0
 11
-43.580767
 21
335.428468
 31
0.0
  0
LINE
  5
90
330
88
100
AcDbEntity
  8
LC-004-005-----0
 62
     7
370
    25
100
AcDbLine
 10
-46.080767
 20
335.756895
 30
0.0
 11
-43.580767
 21
338.256895
 31
0.0
  0
LINE
  5
91
330
88
100
AcDbEntity
  8
LC-004-005-----0
 62
     7
370
    25
100
AcDbLine
 10
-46.080767
 20
338.585322
 30
0.0
 11
-43.580767
 21
341.085322
 31
0.0
  0
LINE
  5
92
330
88
100
AcDbEntity
  8
LC-004-005-----0
 62
     7
370
    25
100
AcDbLine
 10
-46.080767
 20
341.413749
 30
0.0
 11
-43.580767
 21
343.913749
 31
0.0
  0
LINE
  5
93
330
88
100
AcDbEntity
  8
LC-004-005-----0
 62
     7
370
    25
100
AcDbLine
 10
-46.080767
 20
344.242176
 30
0.0
 11
-43.580767
 21
346.742176
 31
0.0
  0
LINE
  5
94
330
88
100
AcDbEntity
  8
LC-004-005-----0
 62
     7
370
    25
100
AcDbLine
 10
-46.080767
 20
347.070603
 30
0.0
 11
-43.580767
 21
349.570603
 31
0.0
  0
LINE
  5
95
330
88
100
AcDbEntity
  8
LC-004-005-----0
 62
     7
370
    25
100
AcDbLine
 10
-46.080767
 20
349.89903
 30
0.0
 11
-43.580767
 21
352.39903
 31
0.0
  0
LINE
  5
96
330
88
100
AcDbEntity
  8
LC-004-005-----0
 62
     7
370
    25
100
AcDbLine
 10
-46.080767
 20
352.727457
 30
0.0
 11
-43.580767
 21
355.227457
 31
0.0
  0
LINE
  5
97
330
88
100
AcDbEntity
  8
LC-004-005-----0
 62
     7
370
    25
100
AcDbLine
 10
-46.080767
 20
355.555885
 30
0.0
 11
-43.580767
 21
358.055885
 31
0.0
  0
LINE
  5
98
330
88
100
AcDbEntity
  8
LC-004-005-----0
 62
     7
370
    25
100
AcDbLine
 10
-46.080767
 20
358.384312
 30
0.0
 11
-43.580767
 21
360.884312
 31
0.0
  0
LINE
  5
99
330
88
100
AcDbEntity
  8
LC-004-005-----0
 62
     7
370
    25
100
AcDbLine
 10
-46.080767
 20
361.212739
 30
0.0
 11
-43.580767
 21
363.712739
 31
0.0
  0
LINE
  5
9A
330
88
100
AcDbEntity
  8
LC-004-005-----0
 62
     7
370
    25
100
AcDbLine
 10
-46.080767
 20
364.041166
 30
0.0
 11
-43.580767
 21
366.541166
 31
0.0
  0
LINE
  5
9B
330
88
100
AcDbEntity
  8
LC-004-005-----0
 62
     7
370
    25
100
AcDbLine
 10
-46.080767
 20
366.869593
 30
0.0
 11
-43.580767
 21
369.369593
 31
0.0
  0
LINE
  5
9C
330
88
100
AcDbEntity
  8
LC-004-005-----0
 62
     7
370
    25
100
AcDbLine
 10
-46.080767
 20
369.69802
 30
0.0
 11
-43.580767
 21
372.19802
 31
0.0
  0
LINE
  5
9D
330
88
100
AcDbEntity
  8
LC-004-005-----0
 62
     7
370
    25
100
AcDbLine
 10
-46.080767
 20
372.526447
 30
0.0
 11
-43.580767
 21
375.026447
 31
0.0
  0
LINE
  5
9E
330
88
100
AcDbEntity
  8
LC-004-005-----0
 62
     7
370
    25
100
AcDbLine
 10
-46.080767
 20
375.354874
 30
0.0
 11
-43.580767
 21
377.854874
 31
0.0
  0
LINE
  5
9F
330
88
100
AcDbEntity
  8
LC-004-005-----0
 62
     7
370
    25
100
AcDbLine
 10
-46.080767
 20
378.183302
 30
0.0
 11
-43.580767
 21
380.683302
 31
0.0
  0
LINE
  5
A0
330
88
100
AcDbEntity
  8
LC-004-005-----0
 62
     7
370
    25
100
AcDbLine
 10
-46.080767
 20
381.011729
 30
0.0
 11
-43.580767
 21
383.511729
 31
0.0
  0
LINE
  5
A1
330
88
100
AcDbEntity
  8
LC-004-005-----0
 62
     7
370
    25
100
AcDbLine
 10
-46.080767
 20
383.840156
 30
0.0
 11
-43.580767
 21
386.340156
 31
0.0
  0
LINE
  5
A2
330
88
100
AcDbEntity
  8
LC-004-005-----0
 62
     7
370
    25
100
AcDbLine
 10
-46.080767
 20
386.668583
 30
0.0
 11
-43.580767
 21
389.168583
 31
0.0
  0
LINE
  5
A3
330
88
100
AcDbEntity
  8
LC-004-005-----0
 62
     7
370
    25
100
AcDbLine
 10
-46.080767
 20
389.49701
 30
0.0
 11
-43.580767
 21
391.99701
 31
0.0
  0
LINE
  5
A4
330
88
100
AcDbEntity
  8
LC-004-005-----0
 62
     7
370
    25
100
AcDbLine
 10
-46.080767
 20
392.325437
 30
0.0
 11
-43.580767
 21
394.825437
 31
0.0
  0
LINE
  5
A5
330
88
100
AcDbEntity
  8
LC-004-005-----0
 62
     7
370
    25
100
AcDbLine
 10
-46.080767
 20
395.153864
 30
0.0
 11
-43.580767
 21
397.653864
 31
0.0
  0
LINE
  5
A6
330
88
100
AcDbEntity
  8
LC-004-005-----0
 62
     7
370
    25
100
AcDbLine
 10
-46.080767
 20
397.982291
 30
0.0
 11
-43.580767
 21
400.482291
 31
0.0
  0
LINE
  5
A7
330
88
100
AcDbEntity
  8
LC-004-005-----0
 62
     7
370
    25
100
AcDbLine
 10
-46.080767
 20
400.810719
 30
0.0
 11
-43.580767
 21
403.310719
 31
0.0
  0
LINE
  5
A8
330
88
100
AcDbEntity
  8
LC-004-005-----0
 62
     7
370
    25
100
AcDbLine
 10
-46.080767
 20
403.639146
 30
0.0
 11
-43.580767
 21
406.139146
 31
0.0
  0
LINE
  5
A9
330
88
100
AcDbEntity
  8
LC-004-005-----0
 62
     7
370
    25
100
AcDbLine
 10
-46.080767
 20
406.467573
 30
0.0
 11
-43.580767
 21
408.967573
 31
0.0
  0
LINE
  5
AA
330
88
100
AcDbEntity
  8
LC-004-005-----0
 62
     7
370
    25
100
AcDbLine
 10
-46.080767
 20
409.296
 30
0.0
 11
-43.580767
 21
411.796
 31
0.0
  0
LINE
  5
AB
330
88
100
AcDbEntity
  8
LC-004-005-----0
 62
     7
370
    25
100
AcDbLine
 10
-46.080767
 20
412.124427
 30
0.0
 11
-43.580767
 21
414.624427
 31
0.0
  0
LINE
  5
AC
330
88
100
AcDbEntity
  8
LC-004-005-----0
 62
     7
370
    25
100
AcDbLine
 10
-46.080767
 20
414.952854
 30
0.0
 11
-43.580767
 21
417.452854
 31
0.0
  0
LINE
  5
AD
330
88
100
AcDbEntity
  8
LC-004-005-----0
 62
     7
370
    25
100
AcDbLine
 10
-46.080767
 20
417.781281
 30
0.0
 11
-43.580767
 21
420.281281
 31
0.0
  0
LINE
  5
AE
330
88
100
AcDbEntity
  8
LC-004-005-----0
 62
     7
370
    25
100
AcDbLine
 10
-46.080767
 20
420.609708
 30
0.0
 11
-43.580767
 21
423.109708
 31
0.0
  0
LINE
  5
AF
330
88
100
AcDbEntity
  8
LC-004-005-----0
 62
     7
370
    25
100
AcDbLine
 10
-46.080767
 20
423.438136
 30
0.0
 11
-43.580767
 21
425.938136
 31
0.0
  0
LINE
  5
B0
330
88
100
AcDbEntity
  8
LC-004-005-----0
 62
     7
370
    25
100
AcDbLine
 10
-46.080767
 20
426.266563
 30
0.0
 11
-43.080767
 21
429.266563
 31
0.0
  0
LINE
  5
B1
330
88
100
AcDbEntity
  8
LC-004-005-----0
 62
     7
370
    25
100
AcDbLine
 10
-46.080767
 20
429.09499
 30
0.0
 11
-44.762118
 21
430.413639
 31
0.0
  0
LINE
  5
B2
330
88
100
AcDbEntity
  8
LC-004-005-----0
 62
     7
370
    25
100
AcDbLine
 10
-46.080767
 20
431.923417
 30
0.0
 11
-45.699557
 21
432.304628
 31
0.0
  0
ENDBLK
  5
8A
330
88
100
AcDbEntity
  8
0
100
AcDbBlockEnd
  0
BLOCK
  5
C7
330
C6
100
AcDbEntity
  8
0
100
AcDbBlockBegin
  2
*X34
 70
     1
 71
     0
 10
0.0
 20
0.0
 30
0.0
  3
*X34
  1

  4
*X3
  0
LINE
  5
C9
330
C6
100
AcDbEntity
  8
LC-004-005-----0
 62
     7
370
    25
100
AcDbLine
 10
-45.562446
 20
319.304653
 30
0.0
 11
-43.080329
 21
321.78677
 31
0.0
  0
LINE
  5
CA
330
C6
100
AcDbEntity
  8
LC-004-005-----0
 62
     7
370
    25
100
AcDbLine
 10
-48.390873
 20
319.304653
 30
0.0
 11
-45.390899
 21
322.304628
 31
0.0
  0
LINE
  5
CB
330
C6
100
AcDbEntity
  8
LC-004-005-----0
 62
     7
370
    25
100
AcDbLine
 10
-51.080374
 20
319.443579
 30
0.0
 11
-46.080297
 21
324.443656
 31
0.0
  0
LINE
  5
CC
330
C6
100
AcDbEntity
  8
LC-004-005-----0
 62
     7
370
    25
100
AcDbLine
 10
-51.080374
 20
322.272006
 30
0.0
 11
-46.080289
 21
327.272092
 31
0.0
  0
LINE
  5
CD
330
C6
100
AcDbEntity
  8
LC-004-005-----0
 62
     7
370
    25
100
AcDbLine
 10
-51.080374
 20
325.100434
 30
0.0
 11
-46.08028
 21
330.100527
 31
0.0
  0
LINE
  5
CE
330
C6
100
AcDbEntity
  8
LC-004-005-----0
 62
     7
370
    25
100
AcDbLine
 10
-51.080374
 20
327.928861
 30
0.0
 11
-49.704666
 21
329.304569
 31
0.0
  0
LINE
  5
CF
330
C6
100
AcDbEntity
  8
LC-004-005-----0
 62
     7
370
    25
100
AcDbLine
 10
-48.08028
 20
330.928954
 30
0.0
 11
-46.080272
 21
332.928963
 31
0.0
  0
LINE
  5
D0
330
C6
100
AcDbEntity
  8
LC-004-005-----0
 62
     7
370
    25
100
AcDbLine
 10
-48.08028
 20
333.757382
 30
0.0
 11
-46.080263
 21
335.757399
 31
0.0
  0
LINE
  5
D1
330
C6
100
AcDbEntity
  8
LC-004-005-----0
 62
     7
370
    25
100
AcDbLine
 10
-48.08028
 20
336.585809
 30
0.0
 11
-46.720942
 21
337.945147
 31
0.0
  0
ENDBLK
  5
C8
330
C6
100
AcDbEntity
  8
0
100
AcDbBlockEnd
  0
BLOCK
  5
E8
330
E7
100
AcDbEntity
  8
0
100
AcDbBlockBegin
  2
*X45
 70
     1
 71
     0
 10
0.0
 20
0.0
 30
0.0
  3
*X45
  1

  4
*X4
  0
LINE
  5
EA
330
E7
100
AcDbEntity
  8
LC-004-005-----0
 62
     7
370
    25
100
AcDbLine
 10
5.52079
 20
322.304628
 30
0.0
 11
8.919233
 21
325.703071
 31
0.0
  0
LINE
  5
EB
330
E7
100
AcDbEntity
  8
LC-004-005-----0
 62
     7
370
    25
100
AcDbLine
 10
-0.136065
 20
322.304628
 30
0.0
 11
8.919233
 21
331.359925
 31
0.0
  0
LINE
  5
EC
330
E7
100
AcDbEntity
  8
LC-004-005-----0
 62
     7
370
    25
100
AcDbLine
 10
-5.792919
 20
322.304628
 30
0.0
 11
8.207081
 21
336.304628
 31
0.0
  0
LINE
  5
ED
330
E7
100
AcDbEntity
  8
LC-004-005-----0
 62
     7
370
    25
100
AcDbLine
 10
-11.449773
 20
322.304628
 30
0.0
 11
2.550227
 21
336.304628
 31
0.0
  0
LINE
  5
EE
330
E7
100
AcDbEntity
  8
LC-004-005-----0
 62
     7
370
    25
100
AcDbLine
 10
-17.106627
 20
322.304628
 30
0.0
 11
-3.106627
 21
336.304628
 31
0.0
  0
LINE
  5
EF
330
E7
100
AcDbEntity
  8
LC-004-005-----0
 62
     7
370
    25
100
AcDbLine
 10
-22.763482
 20
322.304628
 30
0.0
 11
-8.763482
 21
336.304628
 31
0.0
  0
LINE
  5
F0
330
E7
100
AcDbEntity
  8
LC-004-005-----0
 62
     7
370
    25
100
AcDbLine
 10
-28.420336
 20
322.304628
 30
0.0
 11
-14.420336
 21
336.304628
 31
0.0
  0
LINE
  5
F1
330
E7
100
AcDbEntity
  8
LC-004-005-----0
 62
     7
370
    25
100
AcDbLine
 10
-34.07719
 20
322.304628
 30
0.0
 11
-20.07719
 21
336.304628
 31
0.0
  0
LINE
  5
F2
330
E7
100
AcDbEntity
  8
LC-004-005-----0
 62
     7
370
    25
100
AcDbLine
 10
-39.734044
 20
322.304628
 30
0.0
 11
-25.734044
 21
336.304628
 31
0.0
  0
LINE
  5
F3
330
E7
100
AcDbEntity
  8
LC-004-005-----0
 62
     7
370
    25
100
AcDbLine
 10
-43.080767
 20
324.614759
 30
0.0
 11
-31.390899
 21
336.304628
 31
0.0
  0
LINE
  5
F4
330
E7
100
AcDbEntity
  8
LC-004-005-----0
 62
     7
370
    25
100
AcDbLine
 10
-43.080767
 20
330.271613
 30
0.0
 11
-37.047753
 21
336.304628
 31
0.0
  0
LINE
  5
F5
330
E7
100
AcDbEntity
  8
LC-004-005-----0
 62
     7
370
    25
100
AcDbLine
 10
-43.080767
 20
335.928468
 30
0.0
 11
-42.704607
 21
336.304628
 31
0.0
  0
LINE
  5
F6
330
E7
100
AcDbEntity
  8
LC-004-005-----0
 62
     7
370
    25
100
AcDbLine
 10
8.919233
 20
336.148876
 30
0.0
 11
8.763482
 21
336.304628
 31
0.0
  0
LINE
  5
F7
330
E7
100
AcDbEntity
  8
LC-004-005-----0
 62
     7
370
    25
100
AcDbLine
 10
8.919233
 20
330.492022
 30
0.0
 11
3.106627
 21
336.304628
 31
0.0
  0
LINE
  5
F8
330
E7
100
AcDbEntity
  8
LC-004-005-----0
 62
     7
370
    25
100
AcDbLine
 10
8.919233
 20
324.835168
 30
0.0
 11
-2.550227
 21
336.304628
 31
0.0
  0
LINE
  5
F9
330
E7
100
AcDbEntity
  8
LC-004-005-----0
 62
     7
370
    25
100
AcDbLine
 10
5.792919
 20
322.304628
 30
0.0
 11
-8.207081
 21
336.304628
 31
0.0
  0
LINE
  5
FA
330
E7
100
AcDbEntity
  8
LC-004-005-----0
 62
     7
370
    25
100
AcDbLine
 10
0.136065
 20
322.304628
 30
0.0
 11
-13.863935
 21
336.304628
 31
0.0
  0
LINE
  5
FB
330
E7
100
AcDbEntity
  8
LC-004-005-----0
 62
     7
370
    25
100
AcDbLine
 10
-5.52079
 20
322.304628
 30
0.0
 11
-19.52079
 21
336.304628
 31
0.0
  0
LINE
  5
FC
330
E7
100
AcDbEntity
  8
LC-004-005-----0
 62
     7
370
    25
100
AcDbLine
 10
-11.177644
 20
322.304628
 30
0.0
 11
-25.177644
 21
336.304628
 31
0.0
  0
LINE
  5
FD
330
E7
100
AcDbEntity
  8
LC-004-005-----0
 62
     7
370
    25
100
AcDbLine
 10
-16.834498
 20
322.304628
 30
0.0
 11
-30.834498
 21
336.304628
 31
0.0
  0
LINE
  5
FE
330
E7
100
AcDbEntity
  8
LC-004-005-----0
 62
     7
370
    25
100
AcDbLine
 10
-22.491352
 20
322.304628
 30
0.0
 11
-36.491352
 21
336.304628
 31
0.0
  0
LINE
  5
FF
330
E7
100
AcDbEntity
  8
LC-004-005-----0
 62
     7
370
    25
100
AcDbLine
 10
-28.148207
 20
322.304628
 30
0.0
 11
-42.148207
 21
336.304628
 31
0.0
  0
LINE
  5
100
330
E7
100
AcDbEntity
  8
LC-004-005-----0
 62
     7
370
    25
100
AcDbLine
 10
-33.805061
 20
322.304628
 30
0.0
 11
-43.080767
 21
331.580334
 31
0.0
  0
LINE
  5
101
330
E7
100
AcDbEntity
  8
LC-004-005-----0
 62
     7
370
    25
100
AcDbLine
 10
-39.461915
 20
322.304628
 30
0.0
 11
-43.080767
 21
325.92348
 31
0.0
  0
ENDBLK
  5
E9
330
E7
100
AcDbEntity
  8
0
100
AcDbBlockEnd
  0
BLOCK
  5
104
330
103
100
AcDbEntity
  8
0
100
AcDbBlockBegin
  2
*X56
 70
     1
 71
     0
 10
0.0
 20
0.0
 30
0.0
  3
*X56
  1

  4
*X5
  0
LINE
  5
106
330
103
100
AcDbEntity
  8
LC-004-005-----0
 62
     7
370
    25
100
AcDbLine
 10
56.432478
 20
322.304628
 30
0.0
 11
60.919233
 21
326.791383
 31
0.0
  0
LINE
  5
107
330
103
100
AcDbEntity
  8
LC-004-005-----0
 62
     7
370
    25
100
AcDbLine
 10
50.775624
 20
322.304628
 30
0.0
 11
60.919233
 21
332.448237
 31
0.0
  0
LINE
  5
108
330
103
100
AcDbEntity
  8
LC-004-005-----0
 62
     7
370
    25
100
AcDbLine
 10
45.118769
 20
322.304628
 30
0.0
 11
59.118769
 21
336.304628
 31
0.0
  0
LINE
  5
109
330
103
100
AcDbEntity
  8
LC-004-005-----0
 62
     7
370
    25
100
AcDbLine
 10
39.461915
 20
322.304628
 30
0.0
 11
53.461915
 21
336.304628
 31
0.0
  0
LINE
  5
10A
330
103
100
AcDbEntity
  8
LC-004-005-----0
 62
     7
370
    25
100
AcDbLine
 10
33.805061
 20
322.304628
 30
0.0
 11
47.805061
 21
336.304628
 31
0.0
  0
LINE
  5
10B
330
103
100
AcDbEntity
  8
LC-004-005-----0
 62
     7
370
    25
100
AcDbLine
 10
28.148207
 20
322.304628
 30
0.0
 11
42.148207
 21
336.304628
 31
0.0
  0
LINE
  5
10C
330
103
100
AcDbEntity
  8
LC-004-005-----0
 62
     7
370
    25
100
AcDbLine
 10
22.491352
 20
322.304628
 30
0.0
 11
36.491352
 21
336.304628
 31
0.0
  0
LINE
  5
10D
330
103
100
AcDbEntity
  8
LC-004-005-----0
 62
     7
370
    25
100
AcDbLine
 10
16.834498
 20
322.304628
 30
0.0
 11
30.834498
 21
336.304628
 31
0.0
  0
LINE
  5
10E
330
103
100
AcDbEntity
  8
LC-004-005-----0
 62
     7
370
    25
100
AcDbLine
 10
11.177644
 20
322.304628
 30
0.0
 11
25.177644
 21
336.304628
 31
0.0
  0
LINE
  5
10F
330
103
100
AcDbEntity
  8
LC-004-005-----0
 62
     7
370
    25
100
AcDbLine
 10
8.919233
 20
325.703071
 30
0.0
 11
19.52079
 21
336.304628
 31
0.0
  0
LINE
  5
110
330
103
100
AcDbEntity
  8
LC-004-005-----0
 62
     7
370
    25
100
AcDbLine
 10
8.919233
 20
331.359925
 30
0.0
 11
13.863935
 21
336.304628
 31
0.0
  0
LINE
  5
111
330
103
100
AcDbEntity
  8
LC-004-005-----0
 62
     7
370
    25
100
AcDbLine
 10
60.919233
 20
335.060565
 30
0.0
 11
59.67517
 21
336.304628
 31
0.0
  0
LINE
  5
112
330
103
100
AcDbEntity
  8
LC-004-005-----0
 62
     7
370
    25
100
AcDbLine
 10
60.919233
 20
329.40371
 30
0.0
 11
54.018316
 21
336.304628
 31
0.0
  0
LINE
  5
113
330
103
100
AcDbEntity
  8
LC-004-005-----0
 62
     7
370
    25
100
AcDbLine
 10
60.919233
 20
323.746856
 30
0.0
 11
48.361461
 21
336.304628
 31
0.0
  0
LINE
  5
114
330
103
100
AcDbEntity
  8
LC-004-005-----0
 62
     7
370
    25
100
AcDbLine
 10
56.704607
 20
322.304628
 30
0.0
 11
42.704607
 21
336.304628
 31
0.0
  0
LINE
  5
115
330
103
100
AcDbEntity
  8
LC-004-005-----0
 62
     7
370
    25
100
AcDbLine
 10
51.047753
 20
322.304628
 30
0.0
 11
37.047753
 21
336.304628
 31
0.0
  0
LINE
  5
116
330
103
100
AcDbEntity
  8
LC-004-005-----0
 62
     7
370
    25
100
AcDbLine
 10
45.390899
 20
322.304628
 30
0.0
 11
31.390899
 21
336.304628
 31
0.0
  0
LINE
  5
117
330
103
100
AcDbEntity
  8
LC-004-005-----0
 62
     7
370
    25
100
AcDbLine
 10
39.734044
 20
322.304628
 30
0.0
 11
25.734044
 21
336.304628
 31
0.0
  0
LINE
  5
118
330
103
100
AcDbEntity
  8
LC-004-005-----0
 62
     7
370
    25
100
AcDbLine
 10
34.07719
 20
322.304628
 30
0.0
 11
20.07719
 21
336.304628
 31
0.0
  0
LINE
  5
119
330
103
100
AcDbEntity
  8
LC-004-005-----0
 62
     7
370
    25
100
AcDbLine
 10
28.420336
 20
322.304628
 30
0.0
 11
14.420336
 21
336.304628
 31
0.0
  0
LINE
  5
11A
330
103
100
AcDbEntity
  8
LC-004-005-----0
 62
     7
370
    25
100
AcDbLine
 10
22.763482
 20
322.304628
 30
0.0
 11
8.919233
 21
336.148876
 31
0.0
  0
LINE
  5
11B
330
103
100
AcDbEntity
  8
LC-004-005-----0
 62
     7
370
    25
100
AcDbLine
 10
17.106627
 20
322.304628
 30
0.0
 11
8.919233
 21
330.492022
 31
0.0
  0
LINE
  5
11C
330
103
100
AcDbEntity
  8
LC-004-005-----0
 62
     7
370
    25
100
AcDbLine
 10
11.449773
 20
322.304628
 30
0.0
 11
8.919233
 21
324.835168
 31
0.0
  0
ENDBLK
  5
105
330
103
100
AcDbEntity
  8
0
100
AcDbBlockEnd
  0
BLOCK
  5
1C7
330
1C6
100
AcDbEntity
  8
0
100
AcDbBlockBegin
  2
*X67
 70
     1
 71
     0
 10
0.0
 20
0.0
 30
0.0
  3
*X67
  1

  4
*X6
  0
LINE
  5
1C9
330
1C6
100
AcDbEntity
  8
LC-004-005-----0
 62
     7
370
    25
100
AcDbLine
 10
66.22506
 20
436.749014
 30
0.0
 11
66.419233
 21
436.943186
 31
0.0
  0
LINE
  5
1CA
330
1C6
100
AcDbEntity
  8
LC-004-005-----0
 62
     7
370
    25
100
AcDbLine
 10
63.396633
 20
436.749014
 30
0.0
 11
66.419233
 21
439.771613
 31
0.0
  0
LINE
  5
1CB
330
1C6
100
AcDbEntity
  8
LC-004-005-----0
 62
     7
370
    25
100
AcDbLine
 10
60.568206
 20
436.749014
 30
0.0
 11
65.568206
 21
441.749014
 31
0.0
  0
LINE
  5
1CC
330
1C6
100
AcDbEntity
  8
LC-004-005-----0
 62
     7
370
    25
100
AcDbLine
 10
57.739779
 20
436.749014
 30
0.0
 11
62.739779
 21
441.749014
 31
0.0
  0
LINE
  5
1CD
330
1C6
100
AcDbEntity
  8
LC-004-005-----0
 62
     7
370
    25
100
AcDbLine
 10
54.911352
 20
436.749014
 30
0.0
 11
59.911352
 21
441.749014
 31
0.0
  0
LINE
  5
1CE
330
1C6
100
AcDbEntity
  8
LC-004-005-----0
 62
     7
370
    25
100
AcDbLine
 10
52.082925
 20
436.749014
 30
0.0
 11
57.082925
 21
441.749014
 31
0.0
  0
LINE
  5
1CF
330
1C6
100
AcDbEntity
  8
LC-004-005-----0
 62
     7
370
    25
100
AcDbLine
 10
49.254497
 20
436.749014
 30
0.0
 11
54.254497
 21
441.749014
 31
0.0
  0
LINE
  5
1D0
330
1C6
100
AcDbEntity
  8
LC-004-005-----0
 62
     7
370
    25
100
AcDbLine
 10
46.42607
 20
436.749014
 30
0.0
 11
51.42607
 21
441.749014
 31
0.0
  0
LINE
  5
1D1
330
1C6
100
AcDbEntity
  8
LC-004-005-----0
 62
     7
370
    25
100
AcDbLine
 10
45.819233
 20
438.970603
 30
0.0
 11
48.597643
 21
441.749014
 31
0.0
  0
LINE
  5
1D2
330
1C6
100
AcDbEntity
  8
LC-004-005-----0
 62
     7
370
    25
100
AcDbLine
 10
37.940789
 20
436.749014
 30
0.0
 11
38.519233
 21
437.327457
 31
0.0
  0
LINE
  5
1D3
330
1C6
100
AcDbEntity
  8
LC-004-005-----0
 62
     7
370
    25
100
AcDbLine
 10
35.112362
 20
436.749014
 30
0.0
 11
38.519233
 21
440.155885
 31
0.0
  0
LINE
  5
1D4
330
1C6
100
AcDbEntity
  8
LC-004-005-----0
 62
     7
370
    25
100
AcDbLine
 10
32.519233
 20
436.984312
 30
0.0
 11
37.283935
 21
441.749014
 31
0.0
  0
LINE
  5
1D5
330
1C6
100
AcDbEntity
  8
LC-004-005-----0
 62
     7
370
    25
100
AcDbLine
 10
32.519233
 20
439.812739
 30
0.0
 11
34.455508
 21
441.749014
 31
0.0
  0
LINE
  5
1D6
330
1C6
100
AcDbEntity
  8
LC-004-005-----0
 62
     7
370
    25
100
AcDbLine
 10
23.798653
 20
436.749014
 30
0.0
 11
25.219233
 21
438.169593
 31
0.0
  0
LINE
  5
1D7
330
1C6
100
AcDbEntity
  8
LC-004-005-----0
 62
     7
370
    25
100
AcDbLine
 10
20.970226
 20
436.749014
 30
0.0
 11
25.219233
 21
440.99802
 31
0.0
  0
LINE
  5
1D8
330
1C6
100
AcDbEntity
  8
LC-004-005-----0
 62
     7
370
    25
100
AcDbLine
 10
19.219233
 20
437.826447
 30
0.0
 11
23.141799
 21
441.749014
 31
0.0
  0
LINE
  5
1D9
330
1C6
100
AcDbEntity
  8
LC-004-005-----0
 62
     7
370
    25
100
AcDbLine
 10
19.219233
 20
440.654874
 30
0.0
 11
20.313372
 21
441.749014
 31
0.0
  0
LINE
  5
1DA
330
1C6
100
AcDbEntity
  8
LC-004-005-----0
 62
     7
370
    25
100
AcDbLine
 10
9.656518
 20
436.749014
 30
0.0
 11
11.919233
 21
439.011729
 31
0.0
  0
LINE
  5
1DB
330
1C6
100
AcDbEntity
  8
LC-004-005-----0
 62
     7
370
    25
100
AcDbLine
 10
6.828091
 20
436.749014
 30
0.0
 11
11.828091
 21
441.749014
 31
0.0
  0
LINE
  5
1DC
330
1C6
100
AcDbEntity
  8
LC-004-005-----0
 62
     7
370
    25
100
AcDbLine
 10
5.919233
 20
438.668583
 30
0.0
 11
8.999663
 21
441.749014
 31
0.0
  0
LINE
  5
1DD
330
1C6
100
AcDbEntity
  8
LC-004-005-----0
 62
     7
370
    25
100
AcDbLine
 10
5.919233
 20
441.49701
 30
0.0
 11
6.171236
 21
441.749014
 31
0.0
  0
LINE
  5
1DE
330
1C6
100
AcDbEntity
  8
LC-004-005-----0
 62
     7
370
    25
100
AcDbLine
 10
-1.657191
 20
436.749014
 30
0.0
 11
-1.380767
 21
437.025437
 31
0.0
  0
LINE
  5
1DF
330
1C6
100
AcDbEntity
  8
LC-004-005-----0
 62
     7
370
    25
100
AcDbLine
 10
-4.485618
 20
436.749014
 30
0.0
 11
-1.380767
 21
439.853864
 31
0.0
  0
LINE
  5
1E0
330
1C6
100
AcDbEntity
  8
LC-004-005-----0
 62
     7
370
    25
100
AcDbLine
 10
-7.314045
 20
436.749014
 30
0.0
 11
-2.314045
 21
441.749014
 31
0.0
  0
LINE
  5
1E1
330
1C6
100
AcDbEntity
  8
LC-004-005-----0
 62
     7
370
    25
100
AcDbLine
 10
-7.380767
 20
439.510719
 30
0.0
 11
-5.142472
 21
441.749014
 31
0.0
  0
LINE
  5
1E2
330
1C6
100
AcDbEntity
  8
LC-004-005-----0
 62
     7
370
    25
100
AcDbLine
 10
-15.799326
 20
436.749014
 30
0.0
 11
-14.680767
 21
437.867573
 31
0.0
  0
LINE
  5
1E3
330
1C6
100
AcDbEntity
  8
LC-004-005-----0
 62
     7
370
    25
100
AcDbLine
 10
-18.627754
 20
436.749014
 30
0.0
 11
-14.680767
 21
440.696
 31
0.0
  0
LINE
  5
1E4
330
1C6
100
AcDbEntity
  8
LC-004-005-----0
 62
     7
370
    25
100
AcDbLine
 10
-20.680767
 20
437.524427
 30
0.0
 11
-16.456181
 21
441.749014
 31
0.0
  0
LINE
  5
1E5
330
1C6
100
AcDbEntity
  8
LC-004-005-----0
 62
     7
370
    25
100
AcDbLine
 10
-20.680767
 20
440.352854
 30
0.0
 11
-19.284608
 21
441.749014
 31
0.0
  0
LINE
  5
1E6
330
1C6
100
AcDbEntity
  8
LC-004-005-----0
 62
     7
370
    25
100
AcDbLine
 10
-29.941462
 20
436.749014
 30
0.0
 11
-27.980767
 21
438.709708
 31
0.0
  0
LINE
  5
1E7
330
1C6
100
AcDbEntity
  8
LC-004-005-----0
 62
     7
370
    25
100
AcDbLine
 10
-32.769889
 20
436.749014
 30
0.0
 11
-27.980767
 21
441.538136
 31
0.0
  0
LINE
  5
1E8
330
1C6
100
AcDbEntity
  8
LC-004-005-----0
 62
     7
370
    25
100
AcDbLine
 10
-35.598316
 20
436.749014
 30
0.0
 11
-30.598316
 21
441.749014
 31
0.0
  0
LINE
  5
1E9
330
1C6
100
AcDbEntity
  8
LC-004-005-----0
 62
     7
370
    25
100
AcDbLine
 10
-38.426743
 20
436.749014
 30
0.0
 11
-33.426743
 21
441.749014
 31
0.0
  0
LINE
  5
1EA
330
1C6
100
AcDbEntity
  8
LC-004-005-----0
 62
     7
370
    25
100
AcDbLine
 10
-41.255171
 20
436.749014
 30
0.0
 11
-36.255171
 21
441.749014
 31
0.0
  0
LINE
  5
1EB
330
1C6
100
AcDbEntity
  8
LC-004-005-----0
 62
     7
370
    25
100
AcDbLine
 10
-44.083598
 20
436.749014
 30
0.0
 11
-39.083598
 21
441.749014
 31
0.0
  0
LINE
  5
1EC
330
1C6
100
AcDbEntity
  8
LC-004-005-----0
 62
     7
370
    25
100
AcDbLine
 10
-46.912025
 20
436.749014
 30
0.0
 11
-41.912025
 21
441.749014
 31
0.0
  0
LINE
  5
1ED
330
1C6
100
AcDbEntity
  8
LC-004-005-----0
 62
     7
370
    25
100
AcDbLine
 10
-48.580767
 20
437.908698
 30
0.0
 11
-44.740452
 21
441.749014
 31
0.0
  0
LINE
  5
1EE
330
1C6
100
AcDbEntity
  8
LC-004-005-----0
 62
     7
370
    25
100
AcDbLine
 10
-48.580767
 20
440.737125
 30
0.0
 11
-47.568879
 21
441.749014
 31
0.0
  0
ENDBLK
  5
1C8
330
1C6
100
AcDbEntity
  8
0
100
AcDbBlockEnd
  0
BLOCK
  5
1F8
330
1F7
100
AcDbEntity
  8
0
100
AcDbBlockBegin
  2
*X78
 70
     1
 71
     0
 10
0.0
 20
0.0
 30
0.0
  3
*X78
  1

  4
*X7
  0
LINE
  5
1FA
330
1F7
100
AcDbEntity
  8
LC-004-005-----0
 62
     7
370
    25
100
AcDbLine
 10
-42.411615
 20
424.278861
 30
0.0
 11
-41.861975
 21
424.828501
 31
0.0
  0
LINE
  5
1FB
330
1F7
100
AcDbEntity
  8
LC-004-005-----0
 62
     7
370
    25
100
AcDbLine
 10
-43.136272
 20
426.382631
 30
0.0
 11
-41.780767
 21
427.738136
 31
0.0
  0
LINE
  5
1FC
330
1F7
100
AcDbEntity
  8
LC-004-005-----0
 62
     7
370
    25
100
AcDbLine
 10
-42.480767
 20
429.866563
 30
0.0
 11
-41.780767
 21
430.566563
 31
0.0
  0
LINE
  5
1FD
330
1F7
100
AcDbEntity
  8
LC-004-005-----0
 62
     7
370
    25
100
AcDbLine
 10
-42.881153
 20
432.294604
 30
0.0
 11
-42.350173
 21
432.825584
 31
0.0
  0
LINE
  5
1FE
330
1F7
100
AcDbEntity
  8
LC-004-005-----0
 62
     7
370
    25
100
AcDbLine
 10
-45.517005
 20
432.487179
 30
0.0
 11
-44.987936
 21
433.016248
 31
0.0
  0
LINE
  5
1FF
330
1F7
100
AcDbEntity
  8
LC-004-005-----0
 62
     7
370
    25
100
AcDbLine
 10
-46.110903
 20
434.721708
 30
0.0
 11
-45.596053
 21
435.236558
 31
0.0
  0
LINE
  5
200
330
1F7
100
AcDbEntity
  8
LC-004-005-----0
 62
     7
370
    25
100
AcDbLine
 10
-48.112025
 20
435.549014
 30
0.0
 11
-47.460583
 21
436.200456
 31
0.0
  0
LINE
  5
201
330
1F7
100
AcDbEntity
  8
LC-004-005-----0
 62
     7
370
    25
100
AcDbLine
 10
-49.780112
 20
436.709354
 30
0.0
 11
-49.080767
 21
437.408698
 31
0.0
  0
LINE
  5
202
330
1F7
100
AcDbEntity
  8
LC-004-005-----0
 62
     7
370
    25
100
AcDbLine
 10
-50.068879
 20
439.249014
 30
0.0
 11
-49.080767
 21
440.237125
 31
0.0
  0
ENDBLK
  5
1F9
330
1F7
100
AcDbEntity
  8
0
100
AcDbBlockEnd
  0
BLOCK
  5
247
330
246
100
AcDbEntity
  8
0
100
AcDbBlockBegin
  2
*X89
 70
     1
 71
     0
 10
0.0
 20
0.0
 30
0.0
  3
*X89
  1

  4
*X8
  0
LINE
  5
249
330
246
100
AcDbEntity
  8
LC-004-005-----0
 62
     7
370
    25
100
AcDbLine
 10
59.551105
 20
424.418204
 30
0.0
 11
60.729811
 21
425.59691
 31
0.0
  0
LINE
  5
24A
330
246
100
AcDbEntity
  8
LC-004-005-----0
 62
     7
370
    25
100
AcDbLine
 10
59.619233
 20
427.314759
 30
0.0
 11
60.319233
 21
428.014759
 31
0.0
  0
LINE
  5
24B
330
246
100
AcDbEntity
  8
LC-004-005-----0
 62
     7
370
    25
100
AcDbLine
 10
59.619233
 20
430.143186
 30
0.0
 11
60.319233
 21
430.843186
 31
0.0
  0
LINE
  5
24C
330
246
100
AcDbEntity
  8
LC-004-005-----0
 62
     7
370
    25
100
AcDbLine
 10
61.780674
 20
432.304628
 30
0.0
 11
62.480674
 21
433.004628
 31
0.0
  0
LINE
  5
24D
330
246
100
AcDbEntity
  8
LC-004-005-----0
 62
     7
370
    25
100
AcDbLine
 10
63.219233
 20
433.743186
 30
0.0
 11
63.919233
 21
434.443186
 31
0.0
  0
LINE
  5
24E
330
246
100
AcDbEntity
  8
LC-004-005-----0
 62
     7
370
    25
100
AcDbLine
 10
64.75784
 20
435.281794
 30
0.0
 11
65.72506
 21
436.249014
 31
0.0
  0
LINE
  5
24F
330
246
100
AcDbEntity
  8
LC-004-005-----0
 62
     7
370
    25
100
AcDbLine
 10
66.919233
 20
437.443186
 30
0.0
 11
67.619233
 21
438.143186
 31
0.0
  0
LINE
  5
250
330
246
100
AcDbEntity
  8
LC-004-005-----0
 62
     7
370
    25
100
AcDbLine
 10
66.919233
 20
440.271613
 30
0.0
 11
68.151393
 21
441.503773
 31
0.0
  0
ENDBLK
  5
248
330
246
100
AcDbEntity
  8
0
100
AcDbBlockEnd
  0
BLOCK
  5
270
330
26F
100
AcDbEntity
  8
0
100
AcDbBlockBegin
  2
*X910
 70
     1
 71
     0
 10
0.0
 20
0.0
 30
0.0
  3
*X910
  1

  4
*X9
  0
LINE
  5
272
330
26F
100
AcDbEntity
  8
LC-004-005-----0
 62
     7
370
    25
100
AcDbLine
 10
67.574639
 20
319.304653
 30
0.0
 11
68.91884
 21
320.648854
 31
0.0
  0
LINE
  5
273
330
26F
100
AcDbEntity
  8
LC-004-005-----0
 62
     7
370
    25
100
AcDbLine
 10
64.746212
 20
319.304653
 30
0.0
 11
68.91884
 21
323.477281
 31
0.0
  0
LINE
  5
274
330
26F
100
AcDbEntity
  8
LC-004-005-----0
 62
     7
370
    25
100
AcDbLine
 10
61.917784
 20
319.304653
 30
0.0
 11
68.91884
 21
326.305708
 31
0.0
  0
LINE
  5
275
330
26F
100
AcDbEntity
  8
LC-004-005-----0
 62
     7
370
    25
100
AcDbLine
 10
60.918795
 20
321.134091
 30
0.0
 11
62.089332
 21
322.304628
 31
0.0
  0
LINE
  5
276
330
26F
100
AcDbEntity
  8
LC-004-005-----0
 62
     7
370
    25
100
AcDbLine
 10
63.918764
 20
324.13406
 30
0.0
 11
68.91884
 21
329.134135
 31
0.0
  0
LINE
  5
277
330
26F
100
AcDbEntity
  8
LC-004-005-----0
 62
     7
370
    25
100
AcDbLine
 10
63.918756
 20
326.962478
 30
0.0
 11
66.260846
 21
329.304569
 31
0.0
  0
LINE
  5
278
330
26F
100
AcDbEntity
  8
LC-004-005-----0
 62
     7
370
    25
100
AcDbLine
 10
63.918747
 20
329.790897
 30
0.0
 11
65.918746
 21
331.790896
 31
0.0
  0
LINE
  5
279
330
26F
100
AcDbEntity
  8
LC-004-005-----0
 62
     7
370
    25
100
AcDbLine
 10
63.918738
 20
332.619315
 30
0.0
 11
65.918746
 21
334.619323
 31
0.0
  0
LINE
  5
27A
330
26F
100
AcDbEntity
  8
LC-004-005-----0
 62
     7
370
    25
100
AcDbLine
 10
63.91873
 20
335.447734
 30
0.0
 11
65.918746
 21
337.44775
 31
0.0
  0
ENDBLK
  5
271
330
26F
100
AcDbEntity
  8
0
100
AcDbBlockEnd
  0
BLOCK
  5
28A
330
27E
100
AcDbEntity
  8
0
100
AcDbBlockBegin
  2
*D11
 70
     1
 71
     0
 10
0.0
 20
0.0
 30
0.0
  3
*D11
  1

  0
LINE
  5
27F
330
27E
100
AcDbEntity
  8
LC-002-003-----0
 62
     2
370
    -2
100
AcDbLine
 10
60.919233
 20
336.304628
 30
0.0
 11
121.210519
 21
336.302733
 31
0.0
  0
LINE
  5
280
330
27E
100
AcDbEntity
  8
LC-002-003-----0
 62
     2
370
    -2
100
AcDbLine
 10
60.918795
 20
322.304628
 30
0.0
 11
121.210079
 21
322.302733
 31
0.0
  0
LINE
  5
281
330
27E
100
AcDbEntity
  8
LC-002-003-----0
 62
     2
370
    -2
100
AcDbLine
 10
117.611399
 20
364.302846
 30
0.0
 11
117.612279
 21
392.302846
 31
0.0
  0
LINE
  5
282
330
27E
100
AcDbEntity
  8
LC-002-003-----0
 62
     2
370
    -2
100
AcDbLine
 10
117.609199
 20
294.302846
 30
0.0
 11
117.608319
 21
266.302846
 31
0.0
  0
LINE
  5
283
330
27E
100
AcDbEntity
  8
LC-002-003-----0
 62
     2
370
    -2
100
AcDbLine
 10
117.610519
 20
336.302846
 30
0.0
 11
117.610079
 21
322.302846
 31
0.0
  0
SOLID
  5
284
330
27E
100
AcDbEntity
  8
LC-002-003-----0
 62
     2
100
AcDbTrace
 10
112.944732
 20
364.302993
 30
0.0
 11
122.278065
 21
364.302699
 31
0.0
 12
117.610519
 22
336.302846
 32
0.0
 13
117.610519
 23
336.302846
 33
0.0
  0
SOLID
  5
285
330
27E
100
AcDbEntity
  8
LC-002-003-----0
 62
     2
100
AcDbTrace
 10
122.275866
 20
294.302699
 30
0.0
 11
112.942532
 21
294.302993
 31
0.0
 12
117.610079
 22
322.302846
 32
0.0
 13
117.610079
 23
322.302846
 33
0.0
  0
MTEXT
  5
286
330
27E
100
AcDbEntity
  8
LC-002-003-----0
 62
     2
100
AcDbMText
 10
86.810299
 20
329.303822
 30
0.0
 40
28.0
 41
0.0
 71
     5
 72
     1
  1
\A1;14
  7
LCTX15-400-0-0pDIN-Schrift
 11
-3.142530085787534E-5
 21
-0.9999999995062252
 31
0.0
 73
     1
 44
1.0
  0
POINT
  5
287
330
27E
100
AcDbEntity
  8
Defpoints
 62
     0
100
AcDbPoint
 10
60.919233
 20
336.304628
 30
0.0
  0
POINT
  5
288
330
27E
100
AcDbEntity
  8
Defpoints
 62
     0
100
AcDbPoint
 10
60.918795
 20
322.304628
 30
0.0
  0
POINT
  5
289
330
27E
100
AcDbEntity
  8
Defpoints
 62
     0
100
AcDbPoint
 10
117.610079
 20
322.302846
 30
0.0
  0
ENDBLK
  5
28B
330
27E
100
AcDbEntity
  8
0
100
AcDbBlockEnd
  0
BLOCK
  5
297
330
28D
100
AcDbEntity
  8
0
100
AcDbBlockBegin
  2
*D12
 70
     1
 71
     0
 10
0.0
 20
0.0
 30
0.0
  3
*D12
  1

  0
LINE
  5
28E
330
28D
100
AcDbEntity
  8
LC-002-003-----0
 62
     2
370
    -2
100
AcDbLine
 10
-50.480767
 20
441.049014
 30
0.0
 11
-50.480767
 21
474.0
 31
0.0
  0
LINE
  5
28F
330
28D
100
AcDbEntity
  8
LC-002-003-----0
 62
     2
370
    -2
100
AcDbLine
 10
68.319233
 20
441.049014
 30
0.0
 11
68.319233
 21
474.0
 31
0.0
  0
LINE
  5
290
330
28D
100
AcDbEntity
  8
LC-002-003-----0
 62
     2
370
    -2
100
AcDbLine
 10
-22.480767
 20
470.4
 30
0.0
 11
40.319233
 21
470.4
 31
0.0
  0
SOLID
  5
291
330
28D
100
AcDbEntity
  8
LC-002-003-----0
 62
     2
100
AcDbTrace
 10
-22.480767
 20
475.066667
 30
0.0
 11
-22.480767
 21
465.733333
 31
0.0
 12
-50.480767
 22
470.4
 32
0.0
 13
-50.480767
 23
470.4
 33
0.0
  0
SOLID
  5
292
330
28D
100
AcDbEntity
  8
LC-002-003-----0
 62
     2
100
AcDbTrace
 10
40.319233
 20
465.733333
 30
0.0
 11
40.319233
 21
475.066667
 31
0.0
 12
68.319233
 22
470.4
 32
0.0
 13
68.319233
 23
470.4
 33
0.0
  0
MTEXT
  5
293
330
28D
100
AcDbEntity
  8
LC-002-003-----0
 62
     2
100
AcDbMText
 10
8.919233
 20
501.2
 30
0.0
 40
28.0
 41
0.0
 71
     5
 72
     1
  1
\A1;120
  7
LCTX15-400-0-0pDIN-Schrift
 73
     1
 44
1.0
  0
POINT
  5
294
330
28D
100
AcDbEntity
  8
Defpoints
 62
     0
100
AcDbPoint
 10
-50.480767
 20
441.049014
 30
0.0
  0
POINT
  5
295
330
28D
100
AcDbEntity
  8
Defpoints
 62
     0
100
AcDbPoint
 10
68.319233
 20
441.049014
 30
0.0
  0
POINT
  5
296
330
28D
100
AcDbEntity
  8
Defpoints
 62
     0
100
AcDbPoint
 10
68.319233
 20
470.4
 30
0.0
  0
ENDBLK
  5
298
330
28D
100
AcDbEntity
  8
0
100
AcDbBlockEnd
  0
BLOCK
  5
2A4
330
29A
100
AcDbEntity
  8
0
100
AcDbBlockBegin
  2
*D13
 70
     1
 71
     0
 10
0.0
 20
0.0
 30
0.0
  3
*D13
  1

  0
LINE
  5
29B
330
29A
100
AcDbEntity
  8
LC-002-003-----0
 62
     2
370
    -2
100
AcDbLine
 10
60.919233
 20
336.304628
 30
0.0
 11
160.4
 21
336.304628
 31
0.0
  0
LINE
  5
29C
330
29A
100
AcDbEntity
  8
LC-002-003-----0
 62
     2
370
    -2
100
AcDbLine
 10
66.419233
 20
441.749014
 30
0.0
 11
160.4
 21
441.749014
 31
0.0
  0
LINE
  5
29D
330
29A
100
AcDbEntity
  8
LC-002-003-----0
 62
     2
370
    -2
100
AcDbLine
 10
156.8
 20
364.304628
 30
0.0
 11
156.8
 21
413.749014
 31
0.0
  0
SOLID
  5
29E
330
29A
100
AcDbEntity
  8
LC-002-003-----0
 62
     2
100
AcDbTrace
 10
152.133333
 20
364.304628
 30
0.0
 11
161.466667
 21
364.304628
 31
0.0
 12
156.8
 22
336.304628
 32
0.0
 13
156.8
 23
336.304628
 33
0.0
  0
SOLID
  5
29F
330
29A
100
AcDbEntity
  8
LC-002-003-----0
 62
     2
100
AcDbTrace
 10
161.466667
 20
413.749014
 30
0.0
 11
152.133333
 21
413.749014
 31
0.0
 12
156.8
 22
441.749014
 32
0.0
 13
156.8
 23
441.749014
 33
0.0
  0
MTEXT
  5
2A0
330
29A
100
AcDbEntity
  8
LC-002-003-----0
 62
     2
100
AcDbMText
 10
126.0
 20
389.026821
 30
0.0
 40
28.0
 41
0.0
 71
     5
 72
     1
  1
\A1;10-105,5
  7
LCTX15-400-0-0pDIN-Schrift
 11
6.123031769111886E-17
 21
1.0
 31
0.0
 73
     1
 44
1.0
  0
POINT
  5
2A1
330
29A
100
AcDbEntity
  8
Defpoints
 62
     0
100
AcDbPoint
 10
60.919233
 20
336.304628
 30
0.0
  0
POINT
  5
2A2
330
29A
100
AcDbEntity
  8
Defpoints
 62
     0
100
AcDbPoint
 10
66.419233
 20
441.749014
 30
0.0
  0
POINT
  5
2A3
330
29A
100
AcDbEntity
  8
Defpoints
 62
     0
100
AcDbPoint
 10
156.8
 20
441.749014
 30
0.0
  0
ENDBLK
  5
2A5
330
29A
100
AcDbEntity
  8
0
100
AcDbBlockEnd
  0
BLOCK
  5
2B5
330
2AA
100
AcDbEntity
  8
0
100
AcDbBlockBegin
  2
*D14
 70
     1
 71
     0
 10
0.0
 20
0.0
 30
0.0
  3
*D14
  1

  0
LINE
  5
2AB
330
2AA
100
AcDbEntity
  8
LC-002-003-----0
 62
     2
370
    -2
100
AcDbLine
 10
-49.780767
 20
441.749014
 30
0.0
 11
-82.0
 21
441.749014
 31
0.0
  0
LINE
  5
2AC
330
2AA
100
AcDbEntity
  8
LC-002-003-----0
 62
     2
370
    -2
100
AcDbLine
 10
-48.580767
 20
435.549014
 30
0.0
 11
-82.0
 21
435.549014
 31
0.0
  0
LINE
  5
2AD
330
2AA
100
AcDbEntity
  8
LC-002-003-----0
 62
     2
370
    -2
100
AcDbLine
 10
-78.4
 20
469.749014
 30
0.0
 11
-78.4
 21
497.749014
 31
0.0
  0
LINE
  5
2AE
330
2AA
100
AcDbEntity
  8
LC-002-003-----0
 62
     2
370
    -2
100
AcDbLine
 10
-78.4
 20
407.549014
 30
0.0
 11
-78.4
 21
356.681618
 31
0.0
  0
SOLID
  5
2AF
330
2AA
100
AcDbEntity
  8
LC-002-003-----0
 62
     2
100
AcDbTrace
 10
-83.066667
 20
469.749014
 30
0.0
 11
-73.733333
 21
469.749014
 31
0.0
 12
-78.4
 22
441.749014
 32
0.0
 13
-78.4
 23
441.749014
 33
0.0
  0
SOLID
  5
2B0
330
2AA
100
AcDbEntity
  8
LC-002-003-----0
 62
     2
100
AcDbTrace
 10
-73.733333
 20
407.549014
 30
0.0
 11
-83.066667
 21
407.549014
 31
0.0
 12
-78.4
 22
435.549014
 32
0.0
 13
-78.4
 23
435.549014
 33
0.0
  0
MTEXT
  5
2B1
330
2AA
100
AcDbEntity
  8
LC-002-003-----0
 62
     2
100
AcDbMText
 10
-109.2
 20
384.049144
 30
0.0
 40
28.0
 41
0.0
 71
     5
 72
     1
  1
\A1;6,2
  7
LCTX15-400-0-0pDIN-Schrift
 11
6.123031769111886E-17
 21
1.0
 31
0.0
 73
     1
 44
1.0
  0
POINT
  5
2B2
330
2AA
100
AcDbEntity
  8
Defpoints
 62
     0
100
AcDbPoint
 10
-49.780767
 20
441.749014
 30
0.0
  0
POINT
  5
2B3
330
2AA
100
AcDbEntity
  8
Defpoints
 62
     0
100
AcDbPoint
 10
-48.580767
 20
435.549014
 30
0.0
  0
POINT
  5
2B4
330
2AA
100
AcDbEntity
  8
Defpoints
 62
     0
100
AcDbPoint
 10
-78.4
 20
435.549014
 30
0.0
  0
ENDBLK
  5
2B6
330
2AA
100
AcDbEntity
  8
0
100
AcDbBlockEnd
  0
ENDSEC
  0
SECTION
  2
ENTITIES
  0
LINE
  5
31
102
{ACAD_REACTORS
330
2BA
102
}
330
1F
100
AcDbEntity
  8
LC-001-002-----0
 62
     7
370
    50
100
AcDbLine
 10
61.419233
 20
427.304628
 30
0.0
 11
61.419233
 21
322.304628
 31
0.0
  0
LINE
  5
32
102
{ACAD_REACTORS
330
2BA
102
}
330
1F
100
AcDbEntity
  8
LC-001-002-----0
 62
     7
370
    50
100
AcDbLine
 10
8.919233
 20
322.304628
 30
0.0
 11
-43.580767
 21
322.304628
 31
0.0
  0
LINE
  5
33
102
{ACAD_REACTORS
330
2BA
102
}
330
1F
100
AcDbEntity
  8
LC-001-002-----0
 62
     7
370
    50
100
AcDbLine
 10
63.919233
 20
324.304628
 30
0.0
 11
63.383335
 21
322.304628
 31
0.0
  0
LINE
  5
34
102
{ACAD_REACTORS
330
2BA
102
}
330
1F
100
AcDbEntity
  8
LC-001-002-----0
 62
     7
370
    50
100
AcDbLine
 10
8.919233
 20
322.304628
 30
0.0
 11
61.419233
 21
322.304628
 31
0.0
  0
LINE
  5
35
102
{ACAD_REACTORS
330
2BA
102
}
330
1F
100
AcDbEntity
  8
LC-001-002-----0
 62
     7
370
    50
100
AcDbLine
 10
62.669233
 20
430.604628
 30
0.0
 11
62.669233
 21
432.304628
 31
0.0
  0
LINE
  5
36
102
{ACAD_REACTORS
330
2BA
102
}
330
1F
100
AcDbEntity
  8
LC-001-002-----0
 62
     7
370
    50
100
AcDbLine
 10
-46.080767
 20
324.304628
 30
0.0
 11
-45.544869
 21
322.304628
 31
0.0
  0
LINE
  5
37
102
{ACAD_REACTORS
330
2BA
102
}
330
1F
100
AcDbEntity
  8
LC-001-002-----0
 62
     7
370
    50
100
AcDbLine
 10
-43.580767
 20
427.304628
 30
0.0
 11
-43.580767
 21
322.304628
 31
0.0
  0
LINE
  5
38
102
{ACAD_REACTORS
330
2BA
102
}
330
1F
100
AcDbEntity
  8
LC-001-002-----0
 62
     7
370
    50
100
AcDbLine
 10
-44.830767
 20
430.604628
 30
0.0
 11
-44.830767
 21
432.304628
 31
0.0
  0
LINE
  5
39
102
{ACAD_REACTORS
330
2BA
102
}
330
1F
100
AcDbEntity
  8
LC-001-002-----0
 62
     7
370
    50
100
AcDbLine
 10
61.419233
 20
427.304628
 30
0.0
 11
60.669233
 21
427.304628
 31
0.0
  0
LINE
  5
3A
102
{ACAD_REACTORS
330
2BA
102
}
330
1F
100
AcDbEntity
  8
LC-001-002-----0
 62
     7
370
    50
100
AcDbLine
 10
-43.580767
 20
427.304628
 30
0.0
 11
-43.080767
 21
427.304628
 31
0.0
  0
LINE
  5
3B
102
{ACAD_REACTORS
330
2BA
102
}
330
1F
100
AcDbEntity
  8
LC-001-002-----0
 62
     7
370
    50
100
AcDbLine
 10
-45.544869
 20
322.304628
 30
0.0
 11
-43.580767
 21
322.304628
 31
0.0
  0
LINE
  5
3C
102
{ACAD_REACTORS
330
2BA
102
}
330
1F
100
AcDbEntity
  8
LC-001-002-----0
 62
     7
370
    50
100
AcDbLine
 10
-46.080767
 20
432.304628
 30
0.0
 11
-46.080767
 21
324.304628
 31
0.0
  0
LINE
  5
3D
102
{ACAD_REACTORS
330
2BA
102
}
330
1F
100
AcDbEntity
  8
LC-001-002-----0
 62
     7
370
    50
100
AcDbLine
 10
61.419233
 20
430.304628
 30
0.0
 11
60.919233
 21
429.804628
 31
0.0
  0
LINE
  5
3E
102
{ACAD_REACTORS
330
2BA
102
}
330
1F
100
AcDbEntity
  8
LC-001-002-----0
 62
     7
370
    50
100
AcDbLine
 10
63.383335
 20
322.304628
 30
0.0
 11
61.419233
 21
322.304628
 31
0.0
  0
LINE
  5
3F
102
{ACAD_REACTORS
330
2BA
102
}
330
1F
100
AcDbEntity
  8
LC-001-002-----0
 62
     7
370
    50
100
AcDbLine
 10
63.919233
 20
432.304628
 30
0.0
 11
63.919233
 21
324.304628
 31
0.0
  0
LINE
  5
40
102
{ACAD_REACTORS
330
2BA
102
}
330
1F
100
AcDbEntity
  8
LC-001-002-----0
 62
     7
370
    50
100
AcDbLine
 10
-43.580767
 20
430.304628
 30
0.0
 11
-43.080767
 21
429.804628
 31
0.0
  0
LINE
  5
41
102
{ACAD_REACTORS
330
2BA
102
}
330
1F
100
AcDbEntity
  8
LC-001-002-----0
 62
     7
370
    50
100
AcDbLine
 10
61.419233
 20
430.304628
 30
0.0
 11
62.369233
 21
430.304628
 31
0.0
  0
LINE
  5
42
102
{ACAD_REACTORS
330
2BA
102
}
330
1F
100
AcDbEntity
  8
LC-001-002-----0
 62
     7
370
    50
100
AcDbLine
 10
-46.080767
 20
432.304628
 30
0.0
 11
-44.830767
 21
432.304628
 31
0.0
  0
DIMENSION
  5
46
330
1F
100
AcDbEntity
  8
LC-002-003-----0
 62
     7
370
    25
100
AcDbDimension
  2
*D1
 10
63.919233
 20
274.4
 30
0.0
 11
8.919233
 21
305.2
 31
0.0
 70
   160
  1
%%c<>
 71
     5
 42
110.0
  3
LC-DIM-L-0140-01-02
100
AcDbAlignedDimension
 13
-46.080767
 23
323.304628
 33
0.0
 14
63.919233
 24
323.304628
 34
0.0
100
AcDbRotatedDimension
  0
ARC
  5
55
102
{ACAD_REACTORS
330
2BA
102
}
330
1F
100
AcDbEntity
  8
LC-003-002-RND-0
 62
     7
370
    50
100
AcDbCircle
 10
62.369233
 20
430.604628
 30
0.0
 40
0.3000000000000114
100
AcDbArc
 50
270.0
 51
0.0
  0
ARC
  5
56
102
{ACAD_REACTORS
330
2BA
102
}
330
1F
100
AcDbEntity
  8
LC-003-002-RND-0
 62
     7
370
    50
100
AcDbCircle
 10
-44.530767
 20
430.604628
 30
0.0
 40
0.3000000000000114
100
AcDbArc
 50
180.0
 51
270.0
  0
LINE
  5
57
102
{ACAD_REACTORS
330
2BA
102
}
330
1F
100
AcDbEntity
  8
LC-001-002-----0
 62
     7
370
    50
100
AcDbLine
 10
-43.080767
 20
429.804628
 30
0.0
 11
-43.080767
 21
427.304628
 31
0.0
  0
LINE
  5
58
102
{ACAD_REACTORS
330
2BA
102
}
330
1F
100
AcDbEntity
  8
LC-001-002-----0
 62
     7
370
    50
100
AcDbLine
 10
60.919233
 20
429.804628
 30
0.0
 11
60.919233
 21
427.304628
 31
0.0
  0
LINE
  5
59
102
{ACAD_REACTORS
330
2BA
102
}
330
1F
100
AcDbEntity
  8
LC-001-002-----0
 62
     7
370
    50
100
AcDbLine
 10
61.419233
 20
430.304628
 30
0.0
 11
60.919233
 21
429.804628
 31
0.0
  0
INSERT
  5
85
102
{ACAD_REACTORS
330
2BA
102
}
330
1F
100
AcDbEntity
  8
LC-004-005-----0
 62
     7
370
    25
100
AcDbBlockReference
  2
*X12
 10
0.0
 20
0.0
 30
0.0
  0
LINE
  5
86
102
{ACAD_REACTORS
330
2BA
102
}
330
1F
100
AcDbEntity
  8
LC-001-002-----0
 62
     7
370
    50
100
AcDbLine
 10
-43.580767
 20
430.304628
 30
0.0
 11
-44.530767
 21
430.304628
 31
0.0
  0
LINE
  5
87
102
{ACAD_REACTORS
330
2BA
102
}
330
1F
100
AcDbEntity
  8
LC-001-002-----0
 62
     7
370
    50
100
AcDbLine
 10
62.669233
 20
432.304628
 30
0.0
 11
63.919233
 21
432.304628
 31
0.0
  0
INSERT
  5
B3
102
{ACAD_REACTORS
330
2BA
102
}
330
1F
100
AcDbEntity
  8
LC-004-005-----0
 62
     7
370
    25
100
AcDbBlockReference
  2
*X23
 10
0.0
 20
0.0
 30
0.0
  0
LINE
  5
B4
102
{ACAD_REACTORS
330
2BD
102
}
330
1F
100
AcDbEntity
  8
LC-001-002-----0
 62
     7
370
    50
100
AcDbLine
 10
63.918724
 20
337.304462
 30
0.0
 11
63.918748
 21
329.304569
 31
0.0
  0
LINE
  5
B5
102
{ACAD_REACTORS
330
2BD
102
}
330
1F
100
AcDbEntity
  8
LC-001-002-----0
 62
     7
370
    50
100
AcDbLine
 10
60.918795
 20
319.304653
 30
0.0
 11
68.91884
 21
319.304653
 31
0.0
  0
LINE
  5
B6
102
{ACAD_REACTORS
330
2BD
102
}
330
1F
100
AcDbEntity
  8
LC-001-002-----0
 62
     7
370
    50
100
AcDbLine
 10
44.612524
 20
319.304653
 30
0.0
 11
44.612524
 21
322.304628
 31
0.0
  0
LINE
  5
B7
102
{ACAD_REACTORS
330
2BD
102
}
330
1F
100
AcDbEntity
  8
LC-001-002-----0
 62
     7
370
    50
100
AcDbLine
 10
-26.774058
 20
319.304653
 30
0.0
 11
-26.774058
 21
322.304628
 31
0.0
  0
LINE
  5
B8
102
{ACAD_REACTORS
330
2BD
102
}
330
1F
100
AcDbEntity
  8
LC-001-002-----0
 62
     7
370
    50
100
AcDbLine
 10
-28.89536
 20
319.304653
 30
0.0
 11
-28.89536
 21
322.304628
 31
0.0
  0
LINE
  5
B9
102
{ACAD_REACTORS
330
2BD
102
}
330
1F
100
AcDbEntity
  8
LC-001-002-----0
 62
     7
370
    50
100
AcDbLine
 10
68.91884
 20
319.304653
 30
0.0
 11
68.91884
 21
329.303878
 31
0.0
  0
LINE
  5
BA
102
{ACAD_REACTORS
330
2BD
102
}
330
1F
100
AcDbEntity
  8
LC-001-002-----0
 62
     7
370
    50
100
AcDbLine
 10
65.918746
 20
339.304484
 30
0.0
 11
65.918746
 21
329.304569
 31
0.0
  0
LINE
  5
BB
102
{ACAD_REACTORS
330
2BD
102
}
330
1F
100
AcDbEntity
  8
LC-001-002-----0
 62
     7
370
    50
100
AcDbLine
 10
67.418852
 20
329.304569
 30
0.0
 11
68.91884
 21
329.304569
 31
0.0
  0
LINE
  5
BC
102
{ACAD_REACTORS
330
2BD
102
}
330
1F
100
AcDbEntity
  8
LC-001-002-----0
 62
     7
370
    50
100
AcDbLine
 10
65.918746
 20
339.304484
 30
0.0
 11
63.918724
 21
337.304462
 31
0.0
  0
LINE
  5
BD
102
{ACAD_REACTORS
330
2BD
102
}
330
1F
100
AcDbEntity
  8
LC-001-002-----0
 62
     7
370
    50
100
AcDbLine
 10
67.418852
 20
329.304569
 30
0.0
 11
65.918746
 21
329.304569
 31
0.0
  0
LINE
  5
BE
102
{ACAD_REACTORS
330
2BD
102
}
330
1F
100
AcDbEntity
  8
LC-001-002-----0
 62
     7
370
    50
100
AcDbLine
 10
7.419246
 20
322.304628
 30
0.0
 11
10.41922
 21
322.304628
 31
0.0
  0
LINE
  5
BF
102
{ACAD_REACTORS
330
2BD
102
}
330
1F
100
AcDbEntity
  8
LC-001-002-----0
 62
     7
370
    50
100
AcDbLine
 10
10.41922
 20
319.304653
 30
0.0
 11
10.41922
 21
322.304628
 31
0.0
  0
LINE
  5
C0
102
{ACAD_REACTORS
330
2BD
102
}
330
1F
100
AcDbEntity
  8
LC-001-002-----0
 62
     7
370
    50
100
AcDbLine
 10
-33.495229
 20
319.304653
 30
0.0
 11
-33.495229
 21
322.304628
 31
0.0
  0
LINE
  5
C1
102
{ACAD_REACTORS
330
2BD
102
}
330
1F
100
AcDbEntity
  8
LC-001-002-----0
 62
     7
370
    50
100
AcDbLine
 10
-33.495229
 20
322.304628
 30
0.0
 11
-26.774058
 21
322.304628
 31
0.0
  0
LINE
  5
C2
102
{ACAD_REACTORS
330
2BD
102
}
330
1F
100
AcDbEntity
  8
LC-001-002-----0
 62
     7
370
    50
100
AcDbLine
 10
-43.080329
 20
319.304653
 30
0.0
 11
10.41922
 21
319.304653
 31
0.0
  0
LINE
  5
C3
102
{ACAD_REACTORS
330
2BD
102
}
330
1F
100
AcDbEntity
  8
LC-001-002-----0
 62
     7
370
    50
100
AcDbLine
 10
10.41922
 20
319.304653
 30
0.0
 11
44.612524
 21
319.304653
 31
0.0
  0
LINE
  5
C4
102
{ACAD_REACTORS
330
2BD
102
}
330
1F
100
AcDbEntity
  8
LC-001-002-----0
 62
     7
370
    50
100
AcDbLine
 10
44.612524
 20
319.304653
 30
0.0
 11
60.897156
 21
319.304653
 31
0.0
  0
LINE
  5
C5
102
{ACAD_REACTORS
330
2BD
102
}
330
1F
100
AcDbEntity
  8
LC-001-002-----0
 62
     7
370
    50
100
AcDbLine
 10
7.419246
 20
319.304653
 30
0.0
 11
7.419246
 21
322.304628
 31
0.0
  0
INSERT
  5
D2
102
{ACAD_REACTORS
330
2BD
102
}
330
1F
100
AcDbEntity
  8
LC-004-005-----0
 62
     7
370
    25
100
AcDbBlockReference
  2
*X34
 10
0.0
 20
0.0
 30
0.0
  0
LINE
  5
D3
102
{ACAD_REACTORS
330
2BD
102
}
330
1F
100
AcDbEntity
  8
LC-001-002-----0
 62
     7
370
    50
100
AcDbLine
 10
-46.080258
 20
337.304462
 30
0.0
 11
-46.080304
 21
322.304628
 31
0.0
  0
LINE
  5
D4
102
{ACAD_REACTORS
330
2BD
102
}
330
1F
100
AcDbEntity
  8
LC-001-002-----0
 62
     7
370
    50
100
AcDbLine
 10
-43.080329
 20
319.304653
 30
0.0
 11
-51.080374
 21
319.304653
 31
0.0
  0
LINE
  5
D5
102
{ACAD_REACTORS
330
2BD
102
}
330
1F
100
AcDbEntity
  8
LC-001-002-----0
 62
     7
370
    50
100
AcDbLine
 10
-51.080374
 20
319.304653
 30
0.0
 11
-51.080374
 21
329.303878
 31
0.0
  0
LINE
  5
D6
102
{ACAD_REACTORS
330
2BD
102
}
330
1F
100
AcDbEntity
  8
LC-001-002-----0
 62
     7
370
    50
100
AcDbLine
 10
-48.08028
 20
339.304484
 30
0.0
 11
-48.08028
 21
329.304569
 31
0.0
  0
LINE
  5
D7
102
{ACAD_REACTORS
330
2BD
102
}
330
1F
100
AcDbEntity
  8
LC-001-002-----0
 62
     7
370
    50
100
AcDbLine
 10
-49.580387
 20
329.304569
 30
0.0
 11
-51.080374
 21
329.304569
 31
0.0
  0
LINE
  5
D8
102
{ACAD_REACTORS
330
2BD
102
}
330
1F
100
AcDbEntity
  8
LC-001-002-----0
 62
     7
370
    50
100
AcDbLine
 10
-48.08028
 20
339.304484
 30
0.0
 11
-46.080258
 21
337.304462
 31
0.0
  0
LINE
  5
D9
102
{ACAD_REACTORS
330
2BD
102
}
330
1F
100
AcDbEntity
  8
LC-001-002-----0
 62
     7
370
    50
100
AcDbLine
 10
-46.080304
 20
322.304628
 30
0.0
 11
-43.080329
 21
322.304628
 31
0.0
  0
LINE
  5
DA
102
{ACAD_REACTORS
330
2BD
102
}
330
1F
100
AcDbEntity
  8
LC-001-002-----0
 62
     7
370
    50
100
AcDbLine
 10
-43.080329
 20
322.304628
 30
0.0
 11
-43.080329
 21
319.304653
 31
0.0
  0
LINE
  5
DB
102
{ACAD_REACTORS
330
2BD
102
}
330
1F
100
AcDbEntity
  8
LC-001-002-----0
 62
     7
370
    50
100
AcDbLine
 10
-49.580387
 20
329.304569
 30
0.0
 11
-48.08028
 21
329.304569
 31
0.0
  0
LINE
  5
DC
102
{ACAD_REACTORS
330
2BD
102
}
330
1F
100
AcDbEntity
  8
LC-001-002-----0
 62
     7
370
    50
100
AcDbLine
 10
63.91877
 20
322.304628
 30
0.0
 11
60.918795
 21
322.304628
 31
0.0
  0
LINE
  5
DD
102
{ACAD_REACTORS
330
2BD
102
}
330
1F
100
AcDbEntity
  8
LC-001-002-----0
 62
     7
370
    50
100
AcDbLine
 10
60.918795
 20
322.304628
 30
0.0
 11
60.918795
 21
319.304653
 31
0.0
  0
LINE
  5
DE
102
{ACAD_REACTORS
330
2BD
102
}
330
1F
100
AcDbEntity
  8
LC-001-002-----0
 62
     7
370
    50
100
AcDbLine
 10
63.918724
 20
337.304462
 30
0.0
 11
63.91877
 21
322.304628
 31
0.0
  0
LINE
  5
DF
102
{ACAD_REACTORS
330
2BD
102
}
330
1F
100
AcDbEntity
  8
LC-001-002-----0
 62
     7
370
    50
100
AcDbLine
 10
65.918746
 20
339.304484
 30
0.0
 11
63.918724
 21
337.304462
 31
0.0
  0
LINE
  5
E0
102
{ACAD_REACTORS
330
2BD
102
}
330
1F
100
AcDbEntity
  8
LC-001-002-----0
 62
     7
370
    50
100
AcDbLine
 10
65.918746
 20
339.304484
 30
0.0
 11
65.918746
 21
329.304569
 31
0.0
  0
LINE
  5
E1
102
{ACAD_REACTORS
330
2BD
102
}
330
1F
100
AcDbEntity
  8
LC-001-002-----0
 62
     7
370
    50
100
AcDbLine
 10
68.91884
 20
319.304653
 30
0.0
 11
68.91884
 21
329.303878
 31
0.0
  0
LINE
  5
E2
102
{ACAD_REACTORS
330
2BD
102
}
330
1F
100
AcDbEntity
  8
LC-001-002-----0
 62
     7
370
    50
100
AcDbLine
 10
60.918795
 20
319.304653
 30
0.0
 11
68.91884
 21
319.304653
 31
0.0
  0
LINE
  5
E3
102
{ACAD_REACTORS
330
2BD
102
}
330
1F
100
AcDbEntity
  8
LC-001-002-----0
 62
     7
370
    50
100
AcDbLine
 10
51.333695
 20
319.304653
 30
0.0
 11
51.333695
 21
322.304628
 31
0.0
  0
LINE
  5
E4
102
{ACAD_REACTORS
330
2BD
102
}
330
1F
100
AcDbEntity
  8
LC-001-002-----0
 62
     7
370
    50
100
AcDbLine
 10
51.333695
 20
322.304628
 30
0.0
 11
44.612524
 21
322.304628
 31
0.0
  0
LINE
  5
E5
102
{ACAD_REACTORS
330
2BD
102
}
330
1F
100
AcDbEntity
  8
LC-001-002-----0
 62
     7
370
    50
100
AcDbLine
 10
46.733826
 20
319.304653
 30
0.0
 11
46.733826
 21
322.304628
 31
0.0
  0
LINE
  5
E6
330
1F
100
AcDbEntity
  8
LC-001-002-----0
 62
     7
370
    25
100
AcDbLine
 10
60.919233
 20
336.304628
 30
0.0
 11
-43.080767
 21
336.304628
 31
0.0
  0
INSERT
  5
102
330
1F
100
AcDbEntity
  8
LC-004-005-----0
 62
     7
370
    25
100
AcDbBlockReference
  2
*X45
 10
0.0
 20
0.0
 30
0.0
  0
INSERT
  5
11D
330
1F
100
AcDbEntity
  8
LC-004-005-----0
 62
     7
370
    25
100
AcDbBlockReference
  2
*X56
 10
0.0
 20
0.0
 30
0.0
  0
LINE
  5
11E
102
{ACAD_REACTORS
330
2BC
102
}
330
1F
100
AcDbEntity
  8
LC-001-002-----0
 62
     7
370
    50
100
AcDbLine
 10
168.819233
 20
323.026833
 30
0.0
 11
277.819233
 21
323.026833
 31
0.0
  0
LINE
  5
11F
102
{ACAD_REACTORS
330
2BC
102
}
330
1F
100
AcDbEntity
  8
LC-001-002-----0
 62
     7
370
    50
100
AcDbLine
 10
280.819233
 20
326.026833
 30
0.0
 11
280.819233
 21
435.026833
 31
0.0
  0
LINE
  5
120
102
{ACAD_REACTORS
330
2BC
102
}
330
1F
100
AcDbEntity
  8
LC-001-002-----0
 62
     7
370
    50
100
AcDbLine
 10
277.819233
 20
438.026833
 30
0.0
 11
168.819233
 21
438.026833
 31
0.0
  0
LINE
  5
121
102
{ACAD_REACTORS
330
2BC
102
}
330
1F
100
AcDbEntity
  8
LC-001-002-----0
 62
     7
370
    50
100
AcDbLine
 10
165.819233
 20
435.026833
 30
0.0
 11
165.819233
 21
326.026833
 31
0.0
  0
LINE
  5
122
102
{ACAD_REACTORS
330
2BC
102
}
330
1F
100
AcDbEntity
  8
LC-001-002-----0
 62
     7
370
    50
100
AcDbLine
 10
213.019233
 20
383.526833
 30
0.0
 11
220.319233
 21
383.526833
 31
0.0
  0
LINE
  5
123
102
{ACAD_REACTORS
330
2BC
102
}
330
1F
100
AcDbEntity
  8
LC-001-002-----0
 62
     7
370
    50
100
AcDbLine
 10
213.019233
 20
390.826833
 30
0.0
 11
220.319233
 21
390.826833
 31
0.0
  0
LINE
  5
124
102
{ACAD_REACTORS
330
2BC
102
}
330
1F
100
AcDbEntity
  8
LC-001-002-----0
 62
     7
370
    50
100
AcDbLine
 10
220.319233
 20
390.826833
 30
0.0
 11
220.319233
 21
383.526833
 31
0.0
  0
LINE
  5
125
102
{ACAD_REACTORS
330
2BC
102
}
330
1F
100
AcDbEntity
  8
LC-001-002-----0
 62
     7
370
    50
100
AcDbLine
 10
213.019233
 20
390.826833
 30
0.0
 11
213.019233
 21
383.526833
 31
0.0
  0
LINE
  5
126
102
{ACAD_REACTORS
330
2BC
102
}
330
1F
100
AcDbEntity
  8
LC-001-002-----0
 62
     7
370
    50
100
AcDbLine
 10
220.319233
 20
370.226833
 30
0.0
 11
220.319233
 21
377.526833
 31
0.0
  0
LINE
  5
127
102
{ACAD_REACTORS
330
2BC
102
}
330
1F
100
AcDbEntity
  8
LC-001-002-----0
 62
     7
370
    50
100
AcDbLine
 10
213.019233
 20
370.226833
 30
0.0
 11
213.019233
 21
377.526833
 31
0.0
  0
LINE
  5
128
102
{ACAD_REACTORS
330
2BC
102
}
330
1F
100
AcDbEntity
  8
LC-001-002-----0
 62
     7
370
    50
100
AcDbLine
 10
213.019233
 20
377.526833
 30
0.0
 11
220.319233
 21
377.526833
 31
0.0
  0
LINE
  5
129
102
{ACAD_REACTORS
330
2BC
102
}
330
1F
100
AcDbEntity
  8
LC-001-002-----0
 62
     7
370
    50
100
AcDbLine
 10
213.019233
 20
370.226833
 30
0.0
 11
220.319233
 21
370.226833
 31
0.0
  0
LINE
  5
12A
102
{ACAD_REACTORS
330
2BC
102
}
330
1F
100
AcDbEntity
  8
LC-001-002-----0
 62
     7
370
    50
100
AcDbLine
 10
233.619233
 20
377.526833
 30
0.0
 11
226.319233
 21
377.526833
 31
0.0
  0
LINE
  5
12B
102
{ACAD_REACTORS
330
2BC
102
}
330
1F
100
AcDbEntity
  8
LC-001-002-----0
 62
     7
370
    50
100
AcDbLine
 10
233.619233
 20
370.226833
 30
0.0
 11
226.319233
 21
370.226833
 31
0.0
  0
LINE
  5
12C
102
{ACAD_REACTORS
330
2BC
102
}
330
1F
100
AcDbEntity
  8
LC-001-002-----0
 62
     7
370
    50
100
AcDbLine
 10
226.319233
 20
370.226833
 30
0.0
 11
226.319233
 21
377.526833
 31
0.0
  0
LINE
  5
12D
102
{ACAD_REACTORS
330
2BC
102
}
330
1F
100
AcDbEntity
  8
LC-001-002-----0
 62
     7
370
    50
100
AcDbLine
 10
233.619233
 20
370.226833
 30
0.0
 11
233.619233
 21
377.526833
 31
0.0
  0
LINE
  5
12E
102
{ACAD_REACTORS
330
2BC
102
}
330
1F
100
AcDbEntity
  8
LC-001-002-----0
 62
     7
370
    50
100
AcDbLine
 10
226.319233
 20
390.826833
 30
0.0
 11
226.319233
 21
383.526833
 31
0.0
  0
LINE
  5
12F
102
{ACAD_REACTORS
330
2BC
102
}
330
1F
100
AcDbEntity
  8
LC-001-002-----0
 62
     7
370
    50
100
AcDbLine
 10
233.619233
 20
390.826833
 30
0.0
 11
233.619233
 21
383.526833
 31
0.0
  0
LINE
  5
130
102
{ACAD_REACTORS
330
2BC
102
}
330
1F
100
AcDbEntity
  8
LC-001-002-----0
 62
     7
370
    50
100
AcDbLine
 10
233.619233
 20
383.526833
 30
0.0
 11
226.319233
 21
383.526833
 31
0.0
  0
LINE
  5
131
102
{ACAD_REACTORS
330
2BC
102
}
330
1F
100
AcDbEntity
  8
LC-001-002-----0
 62
     7
370
    50
100
AcDbLine
 10
233.619233
 20
390.826833
 30
0.0
 11
226.319233
 21
390.826833
 31
0.0
  0
LINE
  5
132
102
{ACAD_REACTORS
330
2BC
102
}
330
1F
100
AcDbEntity
  8
LC-001-002-----0
 62
     7
370
    50
100
AcDbLine
 10
220.319233
 20
404.126833
 30
0.0
 11
220.319233
 21
396.826833
 31
0.0
  0
LINE
  5
133
102
{ACAD_REACTORS
330
2BC
102
}
330
1F
100
AcDbEntity
  8
LC-001-002-----0
 62
     7
370
    50
100
AcDbLine
 10
213.019233
 20
404.126833
 30
0.0
 11
213.019233
 21
396.826833
 31
0.0
  0
LINE
  5
134
102
{ACAD_REACTORS
330
2BC
102
}
330
1F
100
AcDbEntity
  8
LC-001-002-----0
 62
     7
370
    50
100
AcDbLine
 10
213.019233
 20
396.826833
 30
0.0
 11
220.319233
 21
396.826833
 31
0.0
  0
LINE
  5
135
102
{ACAD_REACTORS
330
2BC
102
}
330
1F
100
AcDbEntity
  8
LC-001-002-----0
 62
     7
370
    50
100
AcDbLine
 10
213.019233
 20
404.126833
 30
0.0
 11
220.319233
 21
404.126833
 31
0.0
  0
LINE
  5
136
102
{ACAD_REACTORS
330
2BC
102
}
330
1F
100
AcDbEntity
  8
LC-001-002-----0
 62
     7
370
    50
100
AcDbLine
 10
233.619233
 20
396.826833
 30
0.0
 11
226.319233
 21
396.826833
 31
0.0
  0
LINE
  5
137
102
{ACAD_REACTORS
330
2BC
102
}
330
1F
100
AcDbEntity
  8
LC-001-002-----0
 62
     7
370
    50
100
AcDbLine
 10
233.619233
 20
404.126833
 30
0.0
 11
226.319233
 21
404.126833
 31
0.0
  0
LINE
  5
138
102
{ACAD_REACTORS
330
2BC
102
}
330
1F
100
AcDbEntity
  8
LC-001-002-----0
 62
     7
370
    50
100
AcDbLine
 10
226.319233
 20
404.126833
 30
0.0
 11
226.319233
 21
396.826833
 31
0.0
  0
LINE
  5
139
102
{ACAD_REACTORS
330
2BC
102
}
330
1F
100
AcDbEntity
  8
LC-001-002-----0
 62
     7
370
    50
100
AcDbLine
 10
233.619233
 20
404.126833
 30
0.0
 11
233.619233
 21
396.826833
 31
0.0
  0
LINE
  5
13A
102
{ACAD_REACTORS
330
2BC
102
}
330
1F
100
AcDbEntity
  8
LC-001-002-----0
 62
     7
370
    50
100
AcDbLine
 10
220.319233
 20
356.926833
 30
0.0
 11
220.319233
 21
364.226833
 31
0.0
  0
LINE
  5
13B
102
{ACAD_REACTORS
330
2BC
102
}
330
1F
100
AcDbEntity
  8
LC-001-002-----0
 62
     7
370
    50
100
AcDbLine
 10
213.019233
 20
356.926833
 30
0.0
 11
213.019233
 21
364.226833
 31
0.0
  0
LINE
  5
13C
102
{ACAD_REACTORS
330
2BC
102
}
330
1F
100
AcDbEntity
  8
LC-001-002-----0
 62
     7
370
    50
100
AcDbLine
 10
213.019233
 20
364.226833
 30
0.0
 11
220.319233
 21
364.226833
 31
0.0
  0
LINE
  5
13D
102
{ACAD_REACTORS
330
2BC
102
}
330
1F
100
AcDbEntity
  8
LC-001-002-----0
 62
     7
370
    50
100
AcDbLine
 10
213.019233
 20
356.926833
 30
0.0
 11
220.319233
 21
356.926833
 31
0.0
  0
LINE
  5
13E
102
{ACAD_REACTORS
330
2BC
102
}
330
1F
100
AcDbEntity
  8
LC-001-002-----0
 62
     7
370
    50
100
AcDbLine
 10
233.619233
 20
364.226833
 30
0.0
 11
226.319233
 21
364.226833
 31
0.0
  0
LINE
  5
13F
102
{ACAD_REACTORS
330
2BC
102
}
330
1F
100
AcDbEntity
  8
LC-001-002-----0
 62
     7
370
    50
100
AcDbLine
 10
233.619233
 20
356.926833
 30
0.0
 11
226.319233
 21
356.926833
 31
0.0
  0
LINE
  5
140
102
{ACAD_REACTORS
330
2BC
102
}
330
1F
100
AcDbEntity
  8
LC-001-002-----0
 62
     7
370
    50
100
AcDbLine
 10
226.319233
 20
356.926833
 30
0.0
 11
226.319233
 21
364.226833
 31
0.0
  0
LINE
  5
141
102
{ACAD_REACTORS
330
2BC
102
}
330
1F
100
AcDbEntity
  8
LC-001-002-----0
 62
     7
370
    50
100
AcDbLine
 10
233.619233
 20
356.926833
 30
0.0
 11
233.619233
 21
364.226833
 31
0.0
  0
LINE
  5
142
102
{ACAD_REACTORS
330
2BC
102
}
330
1F
100
AcDbEntity
  8
LC-001-002-----0
 62
     7
370
    50
100
AcDbLine
 10
246.919233
 20
383.526833
 30
0.0
 11
239.619233
 21
383.526833
 31
0.0
  0
LINE
  5
143
102
{ACAD_REACTORS
330
2BC
102
}
330
1F
100
AcDbEntity
  8
LC-001-002-----0
 62
     7
370
    50
100
AcDbLine
 10
246.919233
 20
390.826833
 30
0.0
 11
239.619233
 21
390.826833
 31
0.0
  0
LINE
  5
144
102
{ACAD_REACTORS
330
2BC
102
}
330
1F
100
AcDbEntity
  8
LC-001-002-----0
 62
     7
370
    50
100
AcDbLine
 10
239.619233
 20
390.826833
 30
0.0
 11
239.619233
 21
383.526833
 31
0.0
  0
LINE
  5
145
102
{ACAD_REACTORS
330
2BC
102
}
330
1F
100
AcDbEntity
  8
LC-001-002-----0
 62
     7
370
    50
100
AcDbLine
 10
246.919233
 20
390.826833
 30
0.0
 11
246.919233
 21
383.526833
 31
0.0
  0
LINE
  5
146
102
{ACAD_REACTORS
330
2BC
102
}
330
1F
100
AcDbEntity
  8
LC-001-002-----0
 62
     7
370
    50
100
AcDbLine
 10
239.619233
 20
370.226833
 30
0.0
 11
239.619233
 21
377.526833
 31
0.0
  0
LINE
  5
147
102
{ACAD_REACTORS
330
2BC
102
}
330
1F
100
AcDbEntity
  8
LC-001-002-----0
 62
     7
370
    50
100
AcDbLine
 10
246.919233
 20
370.226833
 30
0.0
 11
246.919233
 21
377.526833
 31
0.0
  0
LINE
  5
148
102
{ACAD_REACTORS
330
2BC
102
}
330
1F
100
AcDbEntity
  8
LC-001-002-----0
 62
     7
370
    50
100
AcDbLine
 10
246.919233
 20
377.526833
 30
0.0
 11
239.619233
 21
377.526833
 31
0.0
  0
LINE
  5
149
102
{ACAD_REACTORS
330
2BC
102
}
330
1F
100
AcDbEntity
  8
LC-001-002-----0
 62
     7
370
    50
100
AcDbLine
 10
246.919233
 20
370.226833
 30
0.0
 11
239.619233
 21
370.226833
 31
0.0
  0
LINE
  5
14A
102
{ACAD_REACTORS
330
2BC
102
}
330
1F
100
AcDbEntity
  8
LC-001-002-----0
 62
     7
370
    50
100
AcDbLine
 10
239.619233
 20
404.126833
 30
0.0
 11
239.619233
 21
396.826833
 31
0.0
  0
LINE
  5
14B
102
{ACAD_REACTORS
330
2BC
102
}
330
1F
100
AcDbEntity
  8
LC-001-002-----0
 62
     7
370
    50
100
AcDbLine
 10
246.919233
 20
404.126833
 30
0.0
 11
246.919233
 21
396.826833
 31
0.0
  0
LINE
  5
14C
102
{ACAD_REACTORS
330
2BC
102
}
330
1F
100
AcDbEntity
  8
LC-001-002-----0
 62
     7
370
    50
100
AcDbLine
 10
246.919233
 20
396.826833
 30
0.0
 11
239.619233
 21
396.826833
 31
0.0
  0
LINE
  5
14D
102
{ACAD_REACTORS
330
2BC
102
}
330
1F
100
AcDbEntity
  8
LC-001-002-----0
 62
     7
370
    50
100
AcDbLine
 10
246.919233
 20
404.126833
 30
0.0
 11
239.619233
 21
404.126833
 31
0.0
  0
LINE
  5
14E
102
{ACAD_REACTORS
330
2BC
102
}
330
1F
100
AcDbEntity
  8
LC-001-002-----0
 62
     7
370
    50
100
AcDbLine
 10
239.619233
 20
356.926833
 30
0.0
 11
239.619233
 21
364.226833
 31
0.0
  0
LINE
  5
14F
102
{ACAD_REACTORS
330
2BC
102
}
330
1F
100
AcDbEntity
  8
LC-001-002-----0
 62
     7
370
    50
100
AcDbLine
 10
246.919233
 20
356.926833
 30
0.0
 11
246.919233
 21
364.226833
 31
0.0
  0
LINE
  5
150
102
{ACAD_REACTORS
330
2BC
102
}
330
1F
100
AcDbEntity
  8
LC-001-002-----0
 62
     7
370
    50
100
AcDbLine
 10
246.919233
 20
364.226833
 30
0.0
 11
239.619233
 21
364.226833
 31
0.0
  0
LINE
  5
151
102
{ACAD_REACTORS
330
2BC
102
}
330
1F
100
AcDbEntity
  8
LC-001-002-----0
 62
     7
370
    50
100
AcDbLine
 10
246.919233
 20
356.926833
 30
0.0
 11
239.619233
 21
356.926833
 31
0.0
  0
LINE
  5
152
102
{ACAD_REACTORS
330
2BC
102
}
330
1F
100
AcDbEntity
  8
LC-001-002-----0
 62
     7
370
    50
100
AcDbLine
 10
199.719233
 20
383.526833
 30
0.0
 11
207.019233
 21
383.526833
 31
0.0
  0
LINE
  5
153
102
{ACAD_REACTORS
330
2BC
102
}
330
1F
100
AcDbEntity
  8
LC-001-002-----0
 62
     7
370
    50
100
AcDbLine
 10
199.719233
 20
390.826833
 30
0.0
 11
207.019233
 21
390.826833
 31
0.0
  0
LINE
  5
154
102
{ACAD_REACTORS
330
2BC
102
}
330
1F
100
AcDbEntity
  8
LC-001-002-----0
 62
     7
370
    50
100
AcDbLine
 10
207.019233
 20
390.826833
 30
0.0
 11
207.019233
 21
383.526833
 31
0.0
  0
LINE
  5
155
102
{ACAD_REACTORS
330
2BC
102
}
330
1F
100
AcDbEntity
  8
LC-001-002-----0
 62
     7
370
    50
100
AcDbLine
 10
199.719233
 20
390.826833
 30
0.0
 11
199.719233
 21
383.526833
 31
0.0
  0
LINE
  5
156
102
{ACAD_REACTORS
330
2BC
102
}
330
1F
100
AcDbEntity
  8
LC-001-002-----0
 62
     7
370
    50
100
AcDbLine
 10
207.019233
 20
370.226833
 30
0.0
 11
207.019233
 21
377.526833
 31
0.0
  0
LINE
  5
157
102
{ACAD_REACTORS
330
2BC
102
}
330
1F
100
AcDbEntity
  8
LC-001-002-----0
 62
     7
370
    50
100
AcDbLine
 10
199.719233
 20
370.226833
 30
0.0
 11
199.719233
 21
377.526833
 31
0.0
  0
LINE
  5
158
102
{ACAD_REACTORS
330
2BC
102
}
330
1F
100
AcDbEntity
  8
LC-001-002-----0
 62
     7
370
    50
100
AcDbLine
 10
199.719233
 20
377.526833
 30
0.0
 11
207.019233
 21
377.526833
 31
0.0
  0
LINE
  5
159
102
{ACAD_REACTORS
330
2BC
102
}
330
1F
100
AcDbEntity
  8
LC-001-002-----0
 62
     7
370
    50
100
AcDbLine
 10
199.719233
 20
370.226833
 30
0.0
 11
207.019233
 21
370.226833
 31
0.0
  0
LINE
  5
15A
102
{ACAD_REACTORS
330
2BC
102
}
330
1F
100
AcDbEntity
  8
LC-001-002-----0
 62
     7
370
    50
100
AcDbLine
 10
207.019233
 20
404.126833
 30
0.0
 11
207.019233
 21
396.826833
 31
0.0
  0
LINE
  5
15B
102
{ACAD_REACTORS
330
2BC
102
}
330
1F
100
AcDbEntity
  8
LC-001-002-----0
 62
     7
370
    50
100
AcDbLine
 10
199.719233
 20
404.126833
 30
0.0
 11
199.719233
 21
396.826833
 31
0.0
  0
LINE
  5
15C
102
{ACAD_REACTORS
330
2BC
102
}
330
1F
100
AcDbEntity
  8
LC-001-002-----0
 62
     7
370
    50
100
AcDbLine
 10
199.719233
 20
396.826833
 30
0.0
 11
207.019233
 21
396.826833
 31
0.0
  0
LINE
  5
15D
102
{ACAD_REACTORS
330
2BC
102
}
330
1F
100
AcDbEntity
  8
LC-001-002-----0
 62
     7
370
    50
100
AcDbLine
 10
199.719233
 20
404.126833
 30
0.0
 11
207.019233
 21
404.126833
 31
0.0
  0
LINE
  5
15E
102
{ACAD_REACTORS
330
2BC
102
}
330
1F
100
AcDbEntity
  8
LC-001-002-----0
 62
     7
370
    50
100
AcDbLine
 10
207.019233
 20
356.926833
 30
0.0
 11
207.019233
 21
364.226833
 31
0.0
  0
LINE
  5
15F
102
{ACAD_REACTORS
330
2BC
102
}
330
1F
100
AcDbEntity
  8
LC-001-002-----0
 62
     7
370
    50
100
AcDbLine
 10
199.719233
 20
356.926833
 30
0.0
 11
199.719233
 21
364.226833
 31
0.0
  0
LINE
  5
160
102
{ACAD_REACTORS
330
2BC
102
}
330
1F
100
AcDbEntity
  8
LC-001-002-----0
 62
     7
370
    50
100
AcDbLine
 10
199.719233
 20
364.226833
 30
0.0
 11
207.019233
 21
364.226833
 31
0.0
  0
LINE
  5
161
102
{ACAD_REACTORS
330
2BC
102
}
330
1F
100
AcDbEntity
  8
LC-001-002-----0
 62
     7
370
    50
100
AcDbLine
 10
199.719233
 20
356.926833
 30
0.0
 11
207.019233
 21
356.926833
 31
0.0
  0
LINE
  5
162
102
{ACAD_REACTORS
330
2BC
102
}
330
1F
100
AcDbEntity
  8
LC-001-002-----0
 62
     7
370
    50
100
AcDbLine
 10
220.319233
 20
417.426833
 30
0.0
 11
220.319233
 21
410.126833
 31
0.0
  0
LINE
  5
163
102
{ACAD_REACTORS
330
2BC
102
}
330
1F
100
AcDbEntity
  8
LC-001-002-----0
 62
     7
370
    50
100
AcDbLine
 10
213.019233
 20
417.426833
 30
0.0
 11
213.019233
 21
410.126833
 31
0.0
  0
LINE
  5
164
102
{ACAD_REACTORS
330
2BC
102
}
330
1F
100
AcDbEntity
  8
LC-001-002-----0
 62
     7
370
    50
100
AcDbLine
 10
213.019233
 20
410.126833
 30
0.0
 11
220.319233
 21
410.126833
 31
0.0
  0
LINE
  5
165
102
{ACAD_REACTORS
330
2BC
102
}
330
1F
100
AcDbEntity
  8
LC-001-002-----0
 62
     7
370
    50
100
AcDbLine
 10
213.019233
 20
417.426833
 30
0.0
 11
220.319233
 21
417.426833
 31
0.0
  0
LINE
  5
166
102
{ACAD_REACTORS
330
2BC
102
}
330
1F
100
AcDbEntity
  8
LC-001-002-----0
 62
     7
370
    50
100
AcDbLine
 10
233.619233
 20
410.126833
 30
0.0
 11
226.319233
 21
410.126833
 31
0.0
  0
LINE
  5
167
102
{ACAD_REACTORS
330
2BC
102
}
330
1F
100
AcDbEntity
  8
LC-001-002-----0
 62
     7
370
    50
100
AcDbLine
 10
233.619233
 20
417.426833
 30
0.0
 11
226.319233
 21
417.426833
 31
0.0
  0
LINE
  5
168
102
{ACAD_REACTORS
330
2BC
102
}
330
1F
100
AcDbEntity
  8
LC-001-002-----0
 62
     7
370
    50
100
AcDbLine
 10
226.319233
 20
417.426833
 30
0.0
 11
226.319233
 21
410.126833
 31
0.0
  0
LINE
  5
169
102
{ACAD_REACTORS
330
2BC
102
}
330
1F
100
AcDbEntity
  8
LC-001-002-----0
 62
     7
370
    50
100
AcDbLine
 10
233.619233
 20
417.426833
 30
0.0
 11
233.619233
 21
410.126833
 31
0.0
  0
LINE
  5
16A
102
{ACAD_REACTORS
330
2BC
102
}
330
1F
100
AcDbEntity
  8
LC-001-002-----0
 62
     7
370
    50
100
AcDbLine
 10
239.619233
 20
417.426833
 30
0.0
 11
239.619233
 21
410.126833
 31
0.0
  0
LINE
  5
16B
102
{ACAD_REACTORS
330
2BC
102
}
330
1F
100
AcDbEntity
  8
LC-001-002-----0
 62
     7
370
    50
100
AcDbLine
 10
246.919233
 20
417.426833
 30
0.0
 11
246.919233
 21
410.126833
 31
0.0
  0
LINE
  5
16C
102
{ACAD_REACTORS
330
2BC
102
}
330
1F
100
AcDbEntity
  8
LC-001-002-----0
 62
     7
370
    50
100
AcDbLine
 10
246.919233
 20
410.126833
 30
0.0
 11
239.619233
 21
410.126833
 31
0.0
  0
LINE
  5
16D
102
{ACAD_REACTORS
330
2BC
102
}
330
1F
100
AcDbEntity
  8
LC-001-002-----0
 62
     7
370
    50
100
AcDbLine
 10
246.919233
 20
417.426833
 30
0.0
 11
239.619233
 21
417.426833
 31
0.0
  0
LINE
  5
16E
102
{ACAD_REACTORS
330
2BC
102
}
330
1F
100
AcDbEntity
  8
LC-001-002-----0
 62
     7
370
    50
100
AcDbLine
 10
207.019233
 20
417.426833
 30
0.0
 11
207.019233
 21
410.126833
 31
0.0
  0
LINE
  5
16F
102
{ACAD_REACTORS
330
2BC
102
}
330
1F
100
AcDbEntity
  8
LC-001-002-----0
 62
     7
370
    50
100
AcDbLine
 10
199.719233
 20
417.426833
 30
0.0
 11
199.719233
 21
410.126833
 31
0.0
  0
LINE
  5
170
102
{ACAD_REACTORS
330
2BC
102
}
330
1F
100
AcDbEntity
  8
LC-001-002-----0
 62
     7
370
    50
100
AcDbLine
 10
199.719233
 20
410.126833
 30
0.0
 11
207.019233
 21
410.126833
 31
0.0
  0
LINE
  5
171
102
{ACAD_REACTORS
330
2BC
102
}
330
1F
100
AcDbEntity
  8
LC-001-002-----0
 62
     7
370
    50
100
AcDbLine
 10
199.719233
 20
417.426833
 30
0.0
 11
207.019233
 21
417.426833
 31
0.0
  0
LINE
  5
172
102
{ACAD_REACTORS
330
2BC
102
}
330
1F
100
AcDbEntity
  8
LC-001-002-----0
 62
     7
370
    50
100
AcDbLine
 10
220.319233
 20
343.626833
 30
0.0
 11
220.319233
 21
350.926833
 31
0.0
  0
LINE
  5
173
102
{ACAD_REACTORS
330
2BC
102
}
330
1F
100
AcDbEntity
  8
LC-001-002-----0
 62
     7
370
    50
100
AcDbLine
 10
213.019233
 20
343.626833
 30
0.0
 11
213.019233
 21
350.926833
 31
0.0
  0
LINE
  5
174
102
{ACAD_REACTORS
330
2BC
102
}
330
1F
100
AcDbEntity
  8
LC-001-002-----0
 62
     7
370
    50
100
AcDbLine
 10
213.019233
 20
350.926833
 30
0.0
 11
220.319233
 21
350.926833
 31
0.0
  0
LINE
  5
175
102
{ACAD_REACTORS
330
2BC
102
}
330
1F
100
AcDbEntity
  8
LC-001-002-----0
 62
     7
370
    50
100
AcDbLine
 10
213.019233
 20
343.626833
 30
0.0
 11
220.319233
 21
343.626833
 31
0.0
  0
LINE
  5
176
102
{ACAD_REACTORS
330
2BC
102
}
330
1F
100
AcDbEntity
  8
LC-001-002-----0
 62
     7
370
    50
100
AcDbLine
 10
233.619233
 20
350.926833
 30
0.0
 11
226.319233
 21
350.926833
 31
0.0
  0
LINE
  5
177
102
{ACAD_REACTORS
330
2BC
102
}
330
1F
100
AcDbEntity
  8
LC-001-002-----0
 62
     7
370
    50
100
AcDbLine
 10
233.619233
 20
343.626833
 30
0.0
 11
226.319233
 21
343.626833
 31
0.0
  0
LINE
  5
178
102
{ACAD_REACTORS
330
2BC
102
}
330
1F
100
AcDbEntity
  8
LC-001-002-----0
 62
     7
370
    50
100
AcDbLine
 10
226.319233
 20
343.626833
 30
0.0
 11
226.319233
 21
350.926833
 31
0.0
  0
LINE
  5
179
102
{ACAD_REACTORS
330
2BC
102
}
330
1F
100
AcDbEntity
  8
LC-001-002-----0
 62
     7
370
    50
100
AcDbLine
 10
233.619233
 20
343.626833
 30
0.0
 11
233.619233
 21
350.926833
 31
0.0
  0
LINE
  5
17A
102
{ACAD_REACTORS
330
2BC
102
}
330
1F
100
AcDbEntity
  8
LC-001-002-----0
 62
     7
370
    50
100
AcDbLine
 10
239.619233
 20
343.626833
 30
0.0
 11
239.619233
 21
350.926833
 31
0.0
  0
LINE
  5
17B
102
{ACAD_REACTORS
330
2BC
102
}
330
1F
100
AcDbEntity
  8
LC-001-002-----0
 62
     7
370
    50
100
AcDbLine
 10
246.919233
 20
343.626833
 30
0.0
 11
246.919233
 21
350.926833
 31
0.0
  0
LINE
  5
17C
102
{ACAD_REACTORS
330
2BC
102
}
330
1F
100
AcDbEntity
  8
LC-001-002-----0
 62
     7
370
    50
100
AcDbLine
 10
246.919233
 20
350.926833
 30
0.0
 11
239.619233
 21
350.926833
 31
0.0
  0
LINE
  5
17D
102
{ACAD_REACTORS
330
2BC
102
}
330
1F
100
AcDbEntity
  8
LC-001-002-----0
 62
     7
370
    50
100
AcDbLine
 10
246.919233
 20
343.626833
 30
0.0
 11
239.619233
 21
343.626833
 31
0.0
  0
LINE
  5
17E
102
{ACAD_REACTORS
330
2BC
102
}
330
1F
100
AcDbEntity
  8
LC-001-002-----0
 62
     7
370
    50
100
AcDbLine
 10
207.019233
 20
343.626833
 30
0.0
 11
207.019233
 21
350.926833
 31
0.0
  0
LINE
  5
17F
102
{ACAD_REACTORS
330
2BC
102
}
330
1F
100
AcDbEntity
  8
LC-001-002-----0
 62
     7
370
    50
100
AcDbLine
 10
199.719233
 20
343.626833
 30
0.0
 11
199.719233
 21
350.926833
 31
0.0
  0
LINE
  5
180
102
{ACAD_REACTORS
330
2BC
102
}
330
1F
100
AcDbEntity
  8
LC-001-002-----0
 62
     7
370
    50
100
AcDbLine
 10
199.719233
 20
350.926833
 30
0.0
 11
207.019233
 21
350.926833
 31
0.0
  0
LINE
  5
181
102
{ACAD_REACTORS
330
2BC
102
}
330
1F
100
AcDbEntity
  8
LC-001-002-----0
 62
     7
370
    50
100
AcDbLine
 10
199.719233
 20
343.626833
 30
0.0
 11
207.019233
 21
343.626833
 31
0.0
  0
LINE
  5
182
102
{ACAD_REACTORS
330
2BC
102
}
330
1F
100
AcDbEntity
  8
LC-001-002-----0
 62
     7
370
    50
100
AcDbLine
 10
186.419233
 20
383.526833
 30
0.0
 11
193.719233
 21
383.526833
 31
0.0
  0
LINE
  5
183
102
{ACAD_REACTORS
330
2BC
102
}
330
1F
100
AcDbEntity
  8
LC-001-002-----0
 62
     7
370
    50
100
AcDbLine
 10
186.419233
 20
390.826833
 30
0.0
 11
193.719233
 21
390.826833
 31
0.0
  0
LINE
  5
184
102
{ACAD_REACTORS
330
2BC
102
}
330
1F
100
AcDbEntity
  8
LC-001-002-----0
 62
     7
370
    50
100
AcDbLine
 10
193.719233
 20
390.826833
 30
0.0
 11
193.719233
 21
383.526833
 31
0.0
  0
LINE
  5
185
102
{ACAD_REACTORS
330
2BC
102
}
330
1F
100
AcDbEntity
  8
LC-001-002-----0
 62
     7
370
    50
100
AcDbLine
 10
186.419233
 20
390.826833
 30
0.0
 11
186.419233
 21
383.526833
 31
0.0
  0
LINE
  5
186
102
{ACAD_REACTORS
330
2BC
102
}
330
1F
100
AcDbEntity
  8
LC-001-002-----0
 62
     7
370
    50
100
AcDbLine
 10
193.719233
 20
370.226833
 30
0.0
 11
193.719233
 21
377.526833
 31
0.0
  0
LINE
  5
187
102
{ACAD_REACTORS
330
2BC
102
}
330
1F
100
AcDbEntity
  8
LC-001-002-----0
 62
     7
370
    50
100
AcDbLine
 10
186.419233
 20
370.226833
 30
0.0
 11
186.419233
 21
377.526833
 31
0.0
  0
LINE
  5
188
102
{ACAD_REACTORS
330
2BC
102
}
330
1F
100
AcDbEntity
  8
LC-001-002-----0
 62
     7
370
    50
100
AcDbLine
 10
186.419233
 20
377.526833
 30
0.0
 11
193.719233
 21
377.526833
 31
0.0
  0
LINE
  5
189
102
{ACAD_REACTORS
330
2BC
102
}
330
1F
100
AcDbEntity
  8
LC-001-002-----0
 62
     7
370
    50
100
AcDbLine
 10
186.419233
 20
370.226833
 30
0.0
 11
193.719233
 21
370.226833
 31
0.0
  0
LINE
  5
18A
102
{ACAD_REACTORS
330
2BC
102
}
330
1F
100
AcDbEntity
  8
LC-001-002-----0
 62
     7
370
    50
100
AcDbLine
 10
193.719233
 20
404.126833
 30
0.0
 11
193.719233
 21
396.826833
 31
0.0
  0
LINE
  5
18B
102
{ACAD_REACTORS
330
2BC
102
}
330
1F
100
AcDbEntity
  8
LC-001-002-----0
 62
     7
370
    50
100
AcDbLine
 10
186.419233
 20
404.126833
 30
0.0
 11
186.419233
 21
396.826833
 31
0.0
  0
LINE
  5
18C
102
{ACAD_REACTORS
330
2BC
102
}
330
1F
100
AcDbEntity
  8
LC-001-002-----0
 62
     7
370
    50
100
AcDbLine
 10
186.419233
 20
396.826833
 30
0.0
 11
193.719233
 21
396.826833
 31
0.0
  0
LINE
  5
18D
102
{ACAD_REACTORS
330
2BC
102
}
330
1F
100
AcDbEntity
  8
LC-001-002-----0
 62
     7
370
    50
100
AcDbLine
 10
186.419233
 20
404.126833
 30
0.0
 11
193.719233
 21
404.126833
 31
0.0
  0
LINE
  5
18E
102
{ACAD_REACTORS
330
2BC
102
}
330
1F
100
AcDbEntity
  8
LC-001-002-----0
 62
     7
370
    50
100
AcDbLine
 10
193.719233
 20
356.926833
 30
0.0
 11
193.719233
 21
364.226833
 31
0.0
  0
LINE
  5
18F
102
{ACAD_REACTORS
330
2BC
102
}
330
1F
100
AcDbEntity
  8
LC-001-002-----0
 62
     7
370
    50
100
AcDbLine
 10
186.419233
 20
356.926833
 30
0.0
 11
186.419233
 21
364.226833
 31
0.0
  0
LINE
  5
190
102
{ACAD_REACTORS
330
2BC
102
}
330
1F
100
AcDbEntity
  8
LC-001-002-----0
 62
     7
370
    50
100
AcDbLine
 10
186.419233
 20
364.226833
 30
0.0
 11
193.719233
 21
364.226833
 31
0.0
  0
LINE
  5
191
102
{ACAD_REACTORS
330
2BC
102
}
330
1F
100
AcDbEntity
  8
LC-001-002-----0
 62
     7
370
    50
100
AcDbLine
 10
186.419233
 20
356.926833
 30
0.0
 11
193.719233
 21
356.926833
 31
0.0
  0
LINE
  5
192
102
{ACAD_REACTORS
330
2BC
102
}
330
1F
100
AcDbEntity
  8
LC-001-002-----0
 62
     7
370
    50
100
AcDbLine
 10
193.719233
 20
417.426833
 30
0.0
 11
193.719233
 21
410.126833
 31
0.0
  0
LINE
  5
193
102
{ACAD_REACTORS
330
2BC
102
}
330
1F
100
AcDbEntity
  8
LC-001-002-----0
 62
     7
370
    50
100
AcDbLine
 10
186.419233
 20
417.426833
 30
0.0
 11
186.419233
 21
410.126833
 31
0.0
  0
LINE
  5
194
102
{ACAD_REACTORS
330
2BC
102
}
330
1F
100
AcDbEntity
  8
LC-001-002-----0
 62
     7
370
    50
100
AcDbLine
 10
186.419233
 20
410.126833
 30
0.0
 11
193.719233
 21
410.126833
 31
0.0
  0
LINE
  5
195
102
{ACAD_REACTORS
330
2BC
102
}
330
1F
100
AcDbEntity
  8
LC-001-002-----0
 62
     7
370
    50
100
AcDbLine
 10
186.419233
 20
417.426833
 30
0.0
 11
193.719233
 21
417.426833
 31
0.0
  0
LINE
  5
196
102
{ACAD_REACTORS
330
2BC
102
}
330
1F
100
AcDbEntity
  8
LC-001-002-----0
 62
     7
370
    50
100
AcDbLine
 10
193.719233
 20
343.626833
 30
0.0
 11
193.719233
 21
350.926833
 31
0.0
  0
LINE
  5
197
102
{ACAD_REACTORS
330
2BC
102
}
330
1F
100
AcDbEntity
  8
LC-001-002-----0
 62
     7
370
    50
100
AcDbLine
 10
186.419233
 20
343.626833
 30
0.0
 11
186.419233
 21
350.926833
 31
0.0
  0
LINE
  5
198
102
{ACAD_REACTORS
330
2BC
102
}
330
1F
100
AcDbEntity
  8
LC-001-002-----0
 62
     7
370
    50
100
AcDbLine
 10
186.419233
 20
350.926833
 30
0.0
 11
193.719233
 21
350.926833
 31
0.0
  0
LINE
  5
199
102
{ACAD_REACTORS
330
2BC
102
}
330
1F
100
AcDbEntity
  8
LC-001-002-----0
 62
     7
370
    50
100
AcDbLine
 10
186.419233
 20
343.626833
 30
0.0
 11
193.719233
 21
343.626833
 31
0.0
  0
LINE
  5
19A
102
{ACAD_REACTORS
330
2BC
102
}
330
1F
100
AcDbEntity
  8
LC-001-002-----0
 62
     7
370
    50
100
AcDbLine
 10
260.219233
 20
383.526833
 30
0.0
 11
252.919233
 21
383.526833
 31
0.0
  0
LINE
  5
19B
102
{ACAD_REACTORS
330
2BC
102
}
330
1F
100
AcDbEntity
  8
LC-001-002-----0
 62
     7
370
    50
100
AcDbLine
 10
260.219233
 20
390.826833
 30
0.0
 11
252.919233
 21
390.826833
 31
0.0
  0
LINE
  5
19C
102
{ACAD_REACTORS
330
2BC
102
}
330
1F
100
AcDbEntity
  8
LC-001-002-----0
 62
     7
370
    50
100
AcDbLine
 10
252.919233
 20
390.826833
 30
0.0
 11
252.919233
 21
383.526833
 31
0.0
  0
LINE
  5
19D
102
{ACAD_REACTORS
330
2BC
102
}
330
1F
100
AcDbEntity
  8
LC-001-002-----0
 62
     7
370
    50
100
AcDbLine
 10
260.219233
 20
390.826833
 30
0.0
 11
260.219233
 21
383.526833
 31
0.0
  0
LINE
  5
19E
102
{ACAD_REACTORS
330
2BC
102
}
330
1F
100
AcDbEntity
  8
LC-001-002-----0
 62
     7
370
    50
100
AcDbLine
 10
252.919233
 20
370.226833
 30
0.0
 11
252.919233
 21
377.526833
 31
0.0
  0
LINE
  5
19F
102
{ACAD_REACTORS
330
2BC
102
}
330
1F
100
AcDbEntity
  8
LC-001-002-----0
 62
     7
370
    50
100
AcDbLine
 10
260.219233
 20
370.226833
 30
0.0
 11
260.219233
 21
377.526833
 31
0.0
  0
LINE
  5
1A0
102
{ACAD_REACTORS
330
2BC
102
}
330
1F
100
AcDbEntity
  8
LC-001-002-----0
 62
     7
370
    50
100
AcDbLine
 10
260.219233
 20
377.526833
 30
0.0
 11
252.919233
 21
377.526833
 31
0.0
  0
LINE
  5
1A1
102
{ACAD_REACTORS
330
2BC
102
}
330
1F
100
AcDbEntity
  8
LC-001-002-----0
 62
     7
370
    50
100
AcDbLine
 10
260.219233
 20
370.226833
 30
0.0
 11
252.919233
 21
370.226833
 31
0.0
  0
LINE
  5
1A2
102
{ACAD_REACTORS
330
2BC
102
}
330
1F
100
AcDbEntity
  8
LC-001-002-----0
 62
     7
370
    50
100
AcDbLine
 10
252.919233
 20
404.126833
 30
0.0
 11
252.919233
 21
396.826833
 31
0.0
  0
LINE
  5
1A3
102
{ACAD_REACTORS
330
2BC
102
}
330
1F
100
AcDbEntity
  8
LC-001-002-----0
 62
     7
370
    50
100
AcDbLine
 10
260.219233
 20
404.126833
 30
0.0
 11
260.219233
 21
396.826833
 31
0.0
  0
LINE
  5
1A4
102
{ACAD_REACTORS
330
2BC
102
}
330
1F
100
AcDbEntity
  8
LC-001-002-----0
 62
     7
370
    50
100
AcDbLine
 10
260.219233
 20
396.826833
 30
0.0
 11
252.919233
 21
396.826833
 31
0.0
  0
LINE
  5
1A5
102
{ACAD_REACTORS
330
2BC
102
}
330
1F
100
AcDbEntity
  8
LC-001-002-----0
 62
     7
370
    50
100
AcDbLine
 10
260.219233
 20
404.126833
 30
0.0
 11
252.919233
 21
404.126833
 31
0.0
  0
LINE
  5
1A6
102
{ACAD_REACTORS
330
2BC
102
}
330
1F
100
AcDbEntity
  8
LC-001-002-----0
 62
     7
370
    50
100
AcDbLine
 10
252.919233
 20
356.926833
 30
0.0
 11
252.919233
 21
364.226833
 31
0.0
  0
LINE
  5
1A7
102
{ACAD_REACTORS
330
2BC
102
}
330
1F
100
AcDbEntity
  8
LC-001-002-----0
 62
     7
370
    50
100
AcDbLine
 10
260.219233
 20
356.926833
 30
0.0
 11
260.219233
 21
364.226833
 31
0.0
  0
LINE
  5
1A8
102
{ACAD_REACTORS
330
2BC
102
}
330
1F
100
AcDbEntity
  8
LC-001-002-----0
 62
     7
370
    50
100
AcDbLine
 10
260.219233
 20
364.226833
 30
0.0
 11
252.919233
 21
364.226833
 31
0.0
  0
LINE
  5
1A9
102
{ACAD_REACTORS
330
2BC
102
}
330
1F
100
AcDbEntity
  8
LC-001-002-----0
 62
     7
370
    50
100
AcDbLine
 10
260.219233
 20
356.926833
 30
0.0
 11
252.919233
 21
356.926833
 31
0.0
  0
LINE
  5
1AA
102
{ACAD_REACTORS
330
2BC
102
}
330
1F
100
AcDbEntity
  8
LC-001-002-----0
 62
     7
370
    50
100
AcDbLine
 10
252.919233
 20
417.426833
 30
0.0
 11
252.919233
 21
410.126833
 31
0.0
  0
LINE
  5
1AB
102
{ACAD_REACTORS
330
2BC
102
}
330
1F
100
AcDbEntity
  8
LC-001-002-----0
 62
     7
370
    50
100
AcDbLine
 10
260.219233
 20
417.426833
 30
0.0
 11
260.219233
 21
410.126833
 31
0.0
  0
LINE
  5
1AC
102
{ACAD_REACTORS
330
2BC
102
}
330
1F
100
AcDbEntity
  8
LC-001-002-----0
 62
     7
370
    50
100
AcDbLine
 10
260.219233
 20
410.126833
 30
0.0
 11
252.919233
 21
410.126833
 31
0.0
  0
LINE
  5
1AD
102
{ACAD_REACTORS
330
2BC
102
}
330
1F
100
AcDbEntity
  8
LC-001-002-----0
 62
     7
370
    50
100
AcDbLine
 10
260.219233
 20
417.426833
 30
0.0
 11
252.919233
 21
417.426833
 31
0.0
  0
LINE
  5
1AE
102
{ACAD_REACTORS
330
2BC
102
}
330
1F
100
AcDbEntity
  8
LC-001-002-----0
 62
     7
370
    50
100
AcDbLine
 10
252.919233
 20
343.626833
 30
0.0
 11
252.919233
 21
350.926833
 31
0.0
  0
LINE
  5
1AF
102
{ACAD_REACTORS
330
2BC
102
}
330
1F
100
AcDbEntity
  8
LC-001-002-----0
 62
     7
370
    50
100
AcDbLine
 10
260.219233
 20
343.626833
 30
0.0
 11
260.219233
 21
350.926833
 31
0.0
  0
LINE
  5
1B0
102
{ACAD_REACTORS
330
2BC
102
}
330
1F
100
AcDbEntity
  8
LC-001-002-----0
 62
     7
370
    50
100
AcDbLine
 10
260.219233
 20
350.926833
 30
0.0
 11
252.919233
 21
350.926833
 31
0.0
  0
LINE
  5
1B1
102
{ACAD_REACTORS
330
2BC
102
}
330
1F
100
AcDbEntity
  8
LC-001-002-----0
 62
     7
370
    50
100
AcDbLine
 10
260.219233
 20
343.626833
 30
0.0
 11
252.919233
 21
343.626833
 31
0.0
  0
ARC
  5
1B2
102
{ACAD_REACTORS
330
2BC
102
}
330
1F
100
AcDbEntity
  8
LC-003-002-RND-0
 62
     7
370
    50
100
AcDbCircle
 10
168.819233
 20
435.026833
 30
0.0
 40
3.0
100
AcDbArc
 50
90.0
 51
180.0
  0
ARC
  5
1B3
102
{ACAD_REACTORS
330
2BC
102
}
330
1F
100
AcDbEntity
  8
LC-003-002-RND-0
 62
     7
370
    50
100
AcDbCircle
 10
277.819233
 20
435.026833
 30
0.0
 40
3.0
100
AcDbArc
 50
0.0
 51
90.0
  0
ARC
  5
1B4
102
{ACAD_REACTORS
330
2BC
102
}
330
1F
100
AcDbEntity
  8
LC-003-002-RND-0
 62
     7
370
    50
100
AcDbCircle
 10
277.819233
 20
326.026833
 30
0.0
 40
3.0
100
AcDbArc
 50
270.0
 51
0.0
  0
ARC
  5
1B5
102
{ACAD_REACTORS
330
2BC
102
}
330
1F
100
AcDbEntity
  8
LC-003-002-RND-0
 62
     7
370
    50
100
AcDbCircle
 10
168.819233
 20
326.026833
 30
0.0
 40
3.0
100
AcDbArc
 50
180.0
 51
270.0
  0
LINE
  5
1B6
102
{ACAD_REACTORS
330
2BB
102
}
330
1F
100
AcDbEntity
  8
LC-001-002-----0
 62
     7
370
    50
100
AcDbLine
 10
-48.580767
 20
436.749014
 30
0.0
 11
66.419233
 21
436.749014
 31
0.0
  0
LINE
  5
1B7
102
{ACAD_REACTORS
330
2BB
102
}
330
1F
100
AcDbEntity
  8
LC-001-002-----0
 62
     7
370
    50
100
AcDbLine
 10
66.419233
 20
436.749014
 30
0.0
 11
66.419233
 21
441.749014
 31
0.0
  0
LINE
  5
1B8
102
{ACAD_REACTORS
330
2BB
102
}
330
1F
100
AcDbEntity
  8
LC-001-002-----0
 62
     7
370
    50
100
AcDbLine
 10
66.419233
 20
441.749014
 30
0.0
 11
-48.580767
 21
441.749014
 31
0.0
  0
LINE
  5
1B9
102
{ACAD_REACTORS
330
2BB
102
}
330
1F
100
AcDbEntity
  8
LC-001-002-----0
 62
     7
370
    50
100
AcDbLine
 10
-48.580767
 20
441.749014
 30
0.0
 11
-48.580767
 21
436.749014
 31
0.0
  0
LINE
  5
1BA
102
{ACAD_REACTORS
330
2BB
102
}
330
1F
100
AcDbEntity
  8
LC-001-002-----0
 62
     7
370
    50
100
AcDbLine
 10
-27.980767
 20
436.749014
 30
0.0
 11
-27.980767
 21
441.749014
 31
0.0
  0
LINE
  5
1BB
102
{ACAD_REACTORS
330
2BB
102
}
330
1F
100
AcDbEntity
  8
LC-001-002-----0
 62
     7
370
    50
100
AcDbLine
 10
-20.680767
 20
436.749014
 30
0.0
 11
-20.680767
 21
441.749014
 31
0.0
  0
LINE
  5
1BC
102
{ACAD_REACTORS
330
2BB
102
}
330
1F
100
AcDbEntity
  8
LC-001-002-----0
 62
     7
370
    50
100
AcDbLine
 10
-14.680767
 20
436.749014
 30
0.0
 11
-14.680767
 21
441.749014
 31
0.0
  0
LINE
  5
1BD
102
{ACAD_REACTORS
330
2BB
102
}
330
1F
100
AcDbEntity
  8
LC-001-002-----0
 62
     7
370
    50
100
AcDbLine
 10
-7.380767
 20
436.749014
 30
0.0
 11
-7.380767
 21
441.749014
 31
0.0
  0
LINE
  5
1BE
102
{ACAD_REACTORS
330
2BB
102
}
330
1F
100
AcDbEntity
  8
LC-001-002-----0
 62
     7
370
    50
100
AcDbLine
 10
-1.380767
 20
436.749014
 30
0.0
 11
-1.380767
 21
441.749014
 31
0.0
  0
LINE
  5
1BF
102
{ACAD_REACTORS
330
2BB
102
}
330
1F
100
AcDbEntity
  8
LC-001-002-----0
 62
     7
370
    50
100
AcDbLine
 10
5.919233
 20
436.749014
 30
0.0
 11
5.919233
 21
441.749014
 31
0.0
  0
LINE
  5
1C0
102
{ACAD_REACTORS
330
2BB
102
}
330
1F
100
AcDbEntity
  8
LC-001-002-----0
 62
     7
370
    50
100
AcDbLine
 10
11.919233
 20
436.749014
 30
0.0
 11
11.919233
 21
441.749014
 31
0.0
  0
LINE
  5
1C1
102
{ACAD_REACTORS
330
2BB
102
}
330
1F
100
AcDbEntity
  8
LC-001-002-----0
 62
     7
370
    50
100
AcDbLine
 10
19.219233
 20
436.749014
 30
0.0
 11
19.219233
 21
441.749014
 31
0.0
  0
LINE
  5
1C2
102
{ACAD_REACTORS
330
2BB
102
}
330
1F
100
AcDbEntity
  8
LC-001-002-----0
 62
     7
370
    50
100
AcDbLine
 10
25.219233
 20
436.749014
 30
0.0
 11
25.219233
 21
441.749014
 31
0.0
  0
LINE
  5
1C3
102
{ACAD_REACTORS
330
2BB
102
}
330
1F
100
AcDbEntity
  8
LC-001-002-----0
 62
     7
370
    50
100
AcDbLine
 10
32.519233
 20
436.749014
 30
0.0
 11
32.519233
 21
441.749014
 31
0.0
  0
LINE
  5
1C4
102
{ACAD_REACTORS
330
2BB
102
}
330
1F
100
AcDbEntity
  8
LC-001-002-----0
 62
     7
370
    50
100
AcDbLine
 10
38.519233
 20
436.749014
 30
0.0
 11
38.519233
 21
441.749014
 31
0.0
  0
LINE
  5
1C5
102
{ACAD_REACTORS
330
2BB
102
}
330
1F
100
AcDbEntity
  8
LC-001-002-----0
 62
     7
370
    50
100
AcDbLine
 10
45.819233
 20
436.749014
 30
0.0
 11
45.819233
 21
441.749014
 31
0.0
  0
INSERT
  5
1EF
102
{ACAD_REACTORS
330
2BB
102
}
330
1F
100
AcDbEntity
  8
LC-004-005-----0
 62
     7
370
    25
100
AcDbBlockReference
  2
*X67
 10
0.0
 20
0.0
 30
0.0
  0
ARC
  5
1F0
102
{ACAD_REACTORS
330
2B9
102
}
330
1F
100
AcDbEntity
  8
LC-003-002-RND-0
 62
     7
370
    50
100
AcDbCircle
 10
167.319233
 20
436.526833
 30
0.0
 40
2.0
100
AcDbArc
 50
90.0
 51
180.0
  0
ARC
  5
1F1
102
{ACAD_REACTORS
330
2BE
102
}
330
1F
100
AcDbEntity
  8
LC-003-002-RND-0
 62
     7
370
    50
100
AcDbCircle
 10
64.419233
 20
434.550746
 30
0.0
 40
0.4999999999999812
100
AcDbArc
 50
112.0
 51
180.0
  0
ARC
  5
1F2
102
{ACAD_REACTORS
330
2BE
102
}
330
1F
100
AcDbEntity
  8
LC-003-002-RND-0
 62
     7
370
    50
100
AcDbCircle
 10
64.419233
 20
434.550746
 30
0.0
 40
1.200000000000007
100
AcDbArc
 50
112.0
 51
180.0
  0
LINE
  5
1F3
102
{ACAD_REACTORS
330
2BE
102
}
330
1F
100
AcDbEntity
  8
LC-001-002-----0
 62
     7
370
    50
100
AcDbLine
 10
-46.393464
 20
435.014338
 30
0.0
 11
-47.716833
 21
435.549014
 31
0.0
  0
LINE
  5
1F4
102
{ACAD_REACTORS
330
2BE
102
}
330
1F
100
AcDbEntity
  8
LC-001-002-----0
 62
     7
370
    50
100
AcDbLine
 10
-46.131239
 20
435.663366
 30
0.0
 11
-47.580767
 21
436.249014
 31
0.0
  0
ARC
  5
1F5
102
{ACAD_REACTORS
330
2BE
102
}
330
1F
100
AcDbEntity
  8
LC-003-002-RND-0
 62
     7
370
    50
100
AcDbCircle
 10
-46.580767
 20
434.550746
 30
0.0
 40
1.199999999999989
100
AcDbArc
 50
0.0
 51
68.0
  0
ARC
  5
1F6
102
{ACAD_REACTORS
330
2BE
102
}
330
1F
100
AcDbEntity
  8
LC-003-002-RND-0
 62
     7
370
    50
100
AcDbCircle
 10
-46.580767
 20
434.550746
 30
0.0
 40
0.5
100
AcDbArc
 50
360.0
 51
68.0
  0
INSERT
  5
203
102
{ACAD_REACTORS
330
2BE
102
}
330
1F
100
AcDbEntity
  8
LC-004-005-----0
 62
     7
370
    25
100
AcDbBlockReference
  2
*X78
 10
0.0
 20
0.0
 30
0.0
  0
ARC
  5
204
102
{ACAD_REACTORS
330
2B9
102
}
330
1F
100
AcDbEntity
  8
LC-003-002-RND-0
 62
     7
370
    50
100
AcDbCircle
 10
279.319233
 20
436.526833
 30
0.0
 40
2.000000000000057
100
AcDbArc
 50
0.0
 51
90.0
  0
LINE
  5
205
102
{ACAD_REACTORS
330
2BE
102
}
330
1F
100
AcDbEntity
  8
LC-001-002-----0
 62
     7
370
    50
100
AcDbLine
 10
67.619233
 20
441.749014
 30
0.0
 11
8.919233
 21
441.749014
 31
0.0
  0
LINE
  5
206
102
{ACAD_REACTORS
330
2BE
102
}
330
1F
100
AcDbEntity
  8
LC-001-002-----0
 62
     7
370
    50
100
AcDbLine
 10
66.419233
 20
435.549014
 30
0.0
 11
65.555299
 21
435.549014
 31
0.0
  0
LINE
  5
207
102
{ACAD_REACTORS
330
2BE
102
}
330
1F
100
AcDbEntity
  8
LC-001-002-----0
 62
     7
370
    50
100
AcDbLine
 10
59.982953
 20
426.781838
 30
0.0
 11
59.619233
 21
426.781838
 31
0.0
  0
ARC
  5
208
102
{ACAD_REACTORS
330
2BE
102
}
330
1F
100
AcDbEntity
  8
LC-003-002-RND-0
 62
     7
370
    50
100
AcDbCircle
 10
66.419233
 20
436.749014
 30
0.0
 40
1.200000000000046
100
AcDbArc
 50
270.0
 51
0.0
  0
LINE
  5
209
102
{ACAD_REACTORS
330
2BE
102
}
330
1F
100
AcDbEntity
  8
LC-001-002-----0
 62
     7
370
    50
100
AcDbLine
 10
66.419233
 20
436.249014
 30
0.0
 11
65.419233
 21
436.249014
 31
0.0
  0
ARC
  5
20A
102
{ACAD_REACTORS
330
2BE
102
}
330
1F
100
AcDbEntity
  8
LC-003-002-RND-0
 62
     7
370
    50
100
AcDbCircle
 10
66.419233
 20
436.749014
 30
0.0
 40
0.5
100
AcDbArc
 50
270.0
 51
0.0
  0
LINE
  5
20B
102
{ACAD_REACTORS
330
2BE
102
}
330
1F
100
AcDbEntity
  8
LC-001-002-----0
 62
     7
370
    50
100
AcDbLine
 10
-48.580767
 20
435.549014
 30
0.0
 11
-47.716833
 21
435.549014
 31
0.0
  0
ARC
  5
20C
102
{ACAD_REACTORS
330
2BE
102
}
330
1F
100
AcDbEntity
  8
LC-003-002-RND-0
 62
     7
370
    50
100
AcDbCircle
 10
-48.580767
 20
436.749014
 30
0.0
 40
1.199999999999989
100
AcDbArc
 50
180.0
 51
270.0
  0
ARC
  5
20D
102
{ACAD_REACTORS
330
2BE
102
}
330
1F
100
AcDbEntity
  8
LC-003-002-RND-0
 62
     7
370
    50
100
AcDbCircle
 10
-48.580767
 20
436.749014
 30
0.0
 40
0.5
100
AcDbArc
 50
180.0
 51
270.0
  0
ARC
  5
20E
102
{ACAD_REACTORS
330
2BE
102
}
330
1F
100
AcDbEntity
  8
LC-001-002-----0
 62
     7
370
    50
100
AcDbCircle
 10
-49.780767
 20
441.049014
 30
0.0
 40
0.6999999999998749
100
AcDbArc
 50
360.0
 51
180.0
  0
ARC
  5
20F
102
{ACAD_REACTORS
330
2BE
102
}
330
1F
100
AcDbEntity
  8
LC-003-002-RND-0
 62
     7
370
    50
100
AcDbCircle
 10
-44.880767
 20
433.504628
 30
0.0
 40
0.5
100
AcDbArc
 50
180.0
 51
270.0
  0
LINE
  5
210
102
{ACAD_REACTORS
330
2BE
102
}
330
1F
100
AcDbEntity
  8
LC-001-002-----0
 62
     7
370
    50
100
AcDbLine
 10
-49.780767
 20
439.249014
 30
0.0
 11
-50.480767
 21
439.249014
 31
0.0
  0
LINE
  5
211
102
{ACAD_REACTORS
330
2BE
102
}
330
1F
100
AcDbEntity
  8
LC-001-002-----0
 62
     7
370
    50
100
AcDbLine
 10
-49.780767
 20
436.749014
 30
0.0
 11
-49.780767
 21
440.554276
 31
0.0
  0
LINE
  5
212
102
{ACAD_REACTORS
330
2BE
102
}
330
1F
100
AcDbEntity
  8
LC-001-002-----0
 62
     7
370
    50
100
AcDbLine
 10
-49.080767
 20
436.749014
 30
0.0
 11
-49.080767
 21
441.049014
 31
0.0
  0
LINE
  5
213
102
{ACAD_REACTORS
330
2BE
102
}
330
1F
100
AcDbEntity
  8
LC-001-002-----0
 62
     7
370
    50
100
AcDbLine
 10
-50.480767
 20
439.249014
 30
0.0
 11
-50.480767
 21
441.049014
 31
0.0
  0
ARC
  5
214
102
{ACAD_REACTORS
330
2BE
102
}
330
1F
100
AcDbEntity
  8
LC-003-002-RND-0
 62
     7
370
    50
100
AcDbCircle
 10
-44.880767
 20
433.504628
 30
0.0
 40
1.199999999999989
100
AcDbArc
 50
180.0
 51
270.0
  0
ARC
  5
215
102
{ACAD_REACTORS
330
2BE
102
}
330
1F
100
AcDbEntity
  8
LC-003-002-RND-0
 62
     7
370
    50
100
AcDbCircle
 10
-42.980767
 20
431.804628
 30
0.0
 40
1.199999999999989
100
AcDbArc
 50
0.0
 51
90.0
  0
LINE
  5
216
102
{ACAD_REACTORS
330
2BE
102
}
330
1F
100
AcDbEntity
  8
LC-001-002-----0
 62
     7
370
    50
100
AcDbLine
 10
-42.980767
 20
432.304628
 30
0.0
 11
-44.880767
 21
432.304628
 31
0.0
  0
LINE
  5
217
102
{ACAD_REACTORS
330
2BE
102
}
330
1F
100
AcDbEntity
  8
LC-001-002-----0
 62
     7
370
    50
100
AcDbLine
 10
-45.380767
 20
434.550746
 30
0.0
 11
-45.380767
 21
433.504628
 31
0.0
  0
ARC
  5
218
102
{ACAD_REACTORS
330
2BE
102
}
330
1F
100
AcDbEntity
  8
LC-001-002-----0
 62
     7
370
    50
100
AcDbCircle
 10
67.619233
 20
441.049014
 30
0.0
 40
0.7000000000002729
100
AcDbArc
 50
0.0
 51
180.0
  0
LINE
  5
219
102
{ACAD_REACTORS
330
2BE
102
}
330
1F
100
AcDbEntity
  8
LC-001-002-----0
 62
     7
370
    50
100
AcDbLine
 10
-46.080767
 20
434.550746
 30
0.0
 11
-46.080767
 21
433.504628
 31
0.0
  0
ARC
  5
21A
102
{ACAD_REACTORS
330
2BE
102
}
330
1F
100
AcDbEntity
  8
LC-003-002-RND-0
 62
     7
370
    50
100
AcDbCircle
 10
62.719233
 20
433.504628
 30
0.0
 40
0.5
100
AcDbArc
 50
270.0
 51
0.0
  0
LINE
  5
21B
102
{ACAD_REACTORS
330
2BE
102
}
330
1F
100
AcDbEntity
  8
LC-001-002-----0
 62
     7
370
    50
100
AcDbLine
 10
67.619233
 20
439.249014
 30
0.0
 11
68.319233
 21
439.249014
 31
0.0
  0
ARC
  5
21C
102
{ACAD_REACTORS
330
2BE
102
}
330
1F
100
AcDbEntity
  8
LC-003-002-RND-0
 62
     7
370
    50
100
AcDbCircle
 10
-42.980767
 20
431.804628
 30
0.0
 40
0.5
100
AcDbArc
 50
0.0
 51
90.0
  0
LINE
  5
21D
102
{ACAD_REACTORS
330
2BE
102
}
330
1F
100
AcDbEntity
  8
LC-001-002-----0
 62
     7
370
    50
100
AcDbLine
 10
-41.780767
 20
426.781838
 30
0.0
 11
-41.780767
 21
431.804628
 31
0.0
  0
LINE
  5
21E
102
{ACAD_REACTORS
330
2BE
102
}
330
1F
100
AcDbEntity
  8
LC-001-002-----0
 62
     7
370
    50
100
AcDbLine
 10
-42.480767
 20
427.482193
 30
0.0
 11
-42.480767
 21
431.804628
 31
0.0
  0
LINE
  5
21F
102
{ACAD_REACTORS
330
2BE
102
}
330
1F
100
AcDbEntity
  8
LC-001-002-----0
 62
     7
370
    50
100
AcDbLine
 10
-42.144487
 20
426.781838
 30
0.0
 11
-41.780767
 21
426.781838
 31
0.0
  0
LINE
  5
220
102
{ACAD_REACTORS
330
2BE
102
}
330
1F
100
AcDbEntity
  8
LC-001-002-----0
 62
     7
370
    50
100
AcDbLine
 10
-42.426395
 20
426.379232
 30
0.0
 11
-41.430083
 21
423.641888
 31
0.0
  0
LINE
  5
221
102
{ACAD_REACTORS
330
2BE
102
}
330
1F
100
AcDbEntity
  8
LC-001-002-----0
 62
     7
370
    50
100
AcDbLine
 10
67.619233
 20
436.749014
 30
0.0
 11
67.619233
 21
440.642702
 31
0.0
  0
ARC
  5
222
102
{ACAD_REACTORS
330
2BE
102
}
330
1F
100
AcDbEntity
  8
LC-003-002-RND-0
 62
     7
370
    50
100
AcDbCircle
 10
-42.144487
 20
426.481838
 30
0.0
 40
0.3000000000000114
100
AcDbArc
 50
90.0
 51
200.0
  0
LINE
  5
223
102
{ACAD_REACTORS
330
2BE
102
}
330
1F
100
AcDbEntity
  8
LC-001-002-----0
 62
     7
370
    50
100
AcDbLine
 10
-41.430083
 20
423.641888
 30
0.0
 11
-42.092078
 21
423.400942
 31
0.0
  0
LINE
  5
224
102
{ACAD_REACTORS
330
2BE
102
}
330
1F
100
AcDbEntity
  8
LC-001-002-----0
 62
     7
370
    50
100
AcDbLine
 10
-43.073762
 20
426.098095
 30
0.0
 11
-42.092078
 21
423.400942
 31
0.0
  0
ARC
  5
225
102
{ACAD_REACTORS
330
2BE
102
}
330
1F
100
AcDbEntity
  8
LC-001-002-----0
 62
     7
370
    50
100
AcDbCircle
 10
-42.0401
 20
426.474317
 30
0.0
 40
1.099999999999964
100
AcDbArc
 50
113.616097
 51
200.0
  0
LINE
  5
226
102
{ACAD_REACTORS
330
2BE
102
}
330
1F
100
AcDbEntity
  8
LC-001-002-----0
 62
     7
370
    50
100
AcDbLine
 10
65.419233
 20
436.249014
 30
0.0
 11
8.919233
 21
436.249014
 31
0.0
  0
LINE
  5
227
102
{ACAD_REACTORS
330
2BE
102
}
330
1F
100
AcDbEntity
  8
LC-001-002-----0
 62
     7
370
    50
100
AcDbLine
 10
-49.780767
 20
441.749014
 30
0.0
 11
8.919233
 21
441.749014
 31
0.0
  0
LINE
  5
228
102
{ACAD_REACTORS
330
2BE
102
}
330
1F
100
AcDbEntity
  8
LC-001-002-----0
 62
     7
370
    50
100
AcDbLine
 10
-48.580767
 20
436.249014
 30
0.0
 11
-47.580767
 21
436.249014
 31
0.0
  0
LINE
  5
229
102
{ACAD_REACTORS
330
2BE
102
}
330
1F
100
AcDbEntity
  8
LC-001-002-----0
 62
     7
370
    50
100
AcDbLine
 10
8.919233
 20
433.004628
 30
0.0
 11
-42.980767
 21
433.004628
 31
0.0
  0
LINE
  5
22A
102
{ACAD_REACTORS
330
2BE
102
}
330
1F
100
AcDbEntity
  8
LC-001-002-----0
 62
     7
370
    50
100
AcDbLine
 10
-41.780767
 20
426.781838
 30
0.0
 11
8.919233
 21
426.781838
 31
0.0
  0
LINE
  5
22B
102
{ACAD_REACTORS
330
2BE
102
}
330
1F
100
AcDbEntity
  8
LC-001-002-----0
 62
     7
370
    50
100
AcDbLine
 10
66.919233
 20
436.749014
 30
0.0
 11
66.919233
 21
441.049014
 31
0.0
  0
LINE
  5
22C
102
{ACAD_REACTORS
330
2BE
102
}
330
1F
100
AcDbEntity
  8
LC-001-002-----0
 62
     7
370
    50
100
AcDbLine
 10
-41.431778
 20
423.646544
 30
0.0
 11
8.919233
 21
423.646544
 31
0.0
  0
LINE
  5
22D
102
{ACAD_REACTORS
330
2BE
102
}
330
1F
100
AcDbEntity
  8
LC-001-002-----0
 62
     7
370
    50
100
AcDbLine
 10
-42.092078
 20
423.400942
 30
0.0
 11
8.919233
 21
423.400942
 31
0.0
  0
LINE
  5
22E
102
{ACAD_REACTORS
330
2BE
102
}
330
1F
100
AcDbEntity
  8
LC-001-002-----0
 62
     7
370
    50
100
AcDbLine
 10
-47.580767
 20
436.249014
 30
0.0
 11
8.919233
 21
436.249014
 31
0.0
  0
LINE
  5
22F
102
{ACAD_REACTORS
330
2BE
102
}
330
1F
100
AcDbEntity
  8
LC-001-002-----0
 62
     7
370
    50
100
AcDbLine
 10
-42.980767
 20
433.004628
 30
0.0
 11
-44.880767
 21
433.004628
 31
0.0
  0
LINE
  5
230
102
{ACAD_REACTORS
330
2BE
102
}
330
1F
100
AcDbEntity
  8
LC-001-002-----0
 62
     7
370
    50
100
AcDbLine
 10
57.870021
 20
423.646544
 30
0.0
 11
8.919233
 21
423.646544
 31
0.0
  0
LINE
  5
231
102
{ACAD_REACTORS
330
2BE
102
}
330
1F
100
AcDbEntity
  8
LC-001-002-----0
 62
     7
370
    50
100
AcDbLine
 10
60.264861
 20
426.379232
 30
0.0
 11
59.268549
 21
423.641888
 31
0.0
  0
LINE
  5
232
102
{ACAD_REACTORS
330
2BE
102
}
330
1F
100
AcDbEntity
  8
LC-001-002-----0
 62
     7
370
    50
100
AcDbLine
 10
60.912228
 20
426.098095
 30
0.0
 11
59.930544
 21
423.400942
 31
0.0
  0
ARC
  5
233
102
{ACAD_REACTORS
330
2BE
102
}
330
1F
100
AcDbEntity
  8
LC-001-002-----0
 62
     7
370
    50
100
AcDbCircle
 10
59.878566
 20
426.474317
 30
0.0
 40
1.100000000000015
100
AcDbArc
 50
340.0
 51
66.383903
  0
ARC
  5
234
102
{ACAD_REACTORS
330
2BE
102
}
330
1F
100
AcDbEntity
  8
LC-003-002-RND-0
 62
     7
370
    50
100
AcDbCircle
 10
59.982953
 20
426.481838
 30
0.0
 40
0.2999999999999397
100
AcDbArc
 50
340.0
 51
90.0
  0
LINE
  5
235
102
{ACAD_REACTORS
330
2BE
102
}
330
1F
100
AcDbEntity
  8
LC-001-002-----0
 62
     7
370
    50
100
AcDbLine
 10
59.255758
 20
423.646544
 30
0.0
 11
8.919233
 21
423.646544
 31
0.0
  0
LINE
  5
236
102
{ACAD_REACTORS
330
2BE
102
}
330
1F
100
AcDbEntity
  8
LC-001-002-----0
 62
     7
370
    50
100
AcDbLine
 10
59.268549
 20
423.641888
 30
0.0
 11
59.930544
 21
423.400942
 31
0.0
  0
LINE
  5
237
102
{ACAD_REACTORS
330
2BE
102
}
330
1F
100
AcDbEntity
  8
LC-001-002-----0
 62
     7
370
    50
100
AcDbLine
 10
60.819233
 20
433.004628
 30
0.0
 11
62.719233
 21
433.004628
 31
0.0
  0
LINE
  5
238
102
{ACAD_REACTORS
330
2BE
102
}
330
1F
100
AcDbEntity
  8
LC-001-002-----0
 62
     7
370
    50
100
AcDbLine
 10
59.619233
 20
426.781838
 30
0.0
 11
8.919233
 21
426.781838
 31
0.0
  0
LINE
  5
239
102
{ACAD_REACTORS
330
2BE
102
}
330
1F
100
AcDbEntity
  8
LC-001-002-----0
 62
     7
370
    50
100
AcDbLine
 10
59.930544
 20
423.400942
 30
0.0
 11
8.919233
 21
423.400942
 31
0.0
  0
LINE
  5
23A
102
{ACAD_REACTORS
330
2BE
102
}
330
1F
100
AcDbEntity
  8
LC-001-002-----0
 62
     7
370
    50
100
AcDbLine
 10
63.969705
 20
435.663366
 30
0.0
 11
65.419233
 21
436.249014
 31
0.0
  0
LINE
  5
23B
102
{ACAD_REACTORS
330
2BE
102
}
330
1F
100
AcDbEntity
  8
LC-001-002-----0
 62
     7
370
    50
100
AcDbLine
 10
64.23193
 20
435.014338
 30
0.0
 11
65.555299
 21
435.549014
 31
0.0
  0
LINE
  5
23C
102
{ACAD_REACTORS
330
2BE
102
}
330
1F
100
AcDbEntity
  8
LC-001-002-----0
 62
     7
370
    50
100
AcDbLine
 10
68.319233
 20
439.249014
 30
0.0
 11
68.319233
 21
441.049014
 31
0.0
  0
ARC
  5
23D
102
{ACAD_REACTORS
330
2BE
102
}
330
1F
100
AcDbEntity
  8
LC-003-002-RND-0
 62
     7
370
    50
100
AcDbCircle
 10
62.719233
 20
433.504628
 30
0.0
 40
1.199999999999932
100
AcDbArc
 50
270.0
 51
0.0
  0
ARC
  5
23E
102
{ACAD_REACTORS
330
2BE
102
}
330
1F
100
AcDbEntity
  8
LC-003-002-RND-0
 62
     7
370
    50
100
AcDbCircle
 10
60.819233
 20
431.804628
 30
0.0
 40
1.200000000000046
100
AcDbArc
 50
90.0
 51
180.0
  0
LINE
  5
23F
102
{ACAD_REACTORS
330
2BE
102
}
330
1F
100
AcDbEntity
  8
LC-001-002-----0
 62
     7
370
    50
100
AcDbLine
 10
60.819233
 20
432.304628
 30
0.0
 11
62.719233
 21
432.304628
 31
0.0
  0
LINE
  5
240
102
{ACAD_REACTORS
330
2BE
102
}
330
1F
100
AcDbEntity
  8
LC-001-002-----0
 62
     7
370
    50
100
AcDbLine
 10
8.919233
 20
433.004628
 30
0.0
 11
60.819233
 21
433.004628
 31
0.0
  0
LINE
  5
241
102
{ACAD_REACTORS
330
2BE
102
}
330
1F
100
AcDbEntity
  8
LC-001-002-----0
 62
     7
370
    50
100
AcDbLine
 10
63.219233
 20
434.550746
 30
0.0
 11
63.219233
 21
433.504628
 31
0.0
  0
LINE
  5
242
102
{ACAD_REACTORS
330
2BE
102
}
330
1F
100
AcDbEntity
  8
LC-001-002-----0
 62
     7
370
    50
100
AcDbLine
 10
63.919233
 20
434.550746
 30
0.0
 11
63.919233
 21
433.504628
 31
0.0
  0
ARC
  5
243
102
{ACAD_REACTORS
330
2BE
102
}
330
1F
100
AcDbEntity
  8
LC-003-002-RND-0
 62
     7
370
    50
100
AcDbCircle
 10
60.819233
 20
431.804628
 30
0.0
 40
0.5
100
AcDbArc
 50
90.0
 51
180.0
  0
LINE
  5
244
102
{ACAD_REACTORS
330
2BE
102
}
330
1F
100
AcDbEntity
  8
LC-001-002-----0
 62
     7
370
    50
100
AcDbLine
 10
59.619233
 20
426.781838
 30
0.0
 11
59.619233
 21
431.804628
 31
0.0
  0
LINE
  5
245
102
{ACAD_REACTORS
330
2BE
102
}
330
1F
100
AcDbEntity
  8
LC-001-002-----0
 62
     7
370
    50
100
AcDbLine
 10
60.319233
 20
427.482193
 30
0.0
 11
60.319233
 21
431.804628
 31
0.0
  0
INSERT
  5
251
102
{ACAD_REACTORS
330
2BE
102
}
330
1F
100
AcDbEntity
  8
LC-004-005-----0
 62
     7
370
    25
100
AcDbBlockReference
  2
*X89
 10
0.0
 20
0.0
 30
0.0
  0
LINE
  5
252
102
{ACAD_REACTORS
330
2B9
102
}
330
1F
100
AcDbEntity
  8
LC-001-002-----0
 62
     7
370
    50
100
AcDbLine
 10
282.719233
 20
436.526833
 30
0.0
 11
282.719233
 21
324.526833
 31
0.0
  0
LINE
  5
253
102
{ACAD_REACTORS
330
2B9
102
}
330
1F
100
AcDbEntity
  8
LC-001-002-----0
 62
     7
370
    50
100
AcDbLine
 10
281.319233
 20
436.526833
 30
0.0
 11
281.319233
 21
324.526833
 31
0.0
  0
LINE
  5
254
102
{ACAD_REACTORS
330
2B9
102
}
330
1F
100
AcDbEntity
  8
LC-001-002-----0
 62
     7
370
    50
100
AcDbLine
 10
167.319233
 20
438.526833
 30
0.0
 11
279.319233
 21
438.526833
 31
0.0
  0
LINE
  5
255
102
{ACAD_REACTORS
330
2B9
102
}
330
1F
100
AcDbEntity
  8
LC-001-002-----0
 62
     7
370
    50
100
AcDbLine
 10
165.319233
 20
324.526833
 30
0.0
 11
165.319233
 21
436.526833
 31
0.0
  0
LINE
  5
256
102
{ACAD_REACTORS
330
2B9
102
}
330
1F
100
AcDbEntity
  8
LC-001-002-----0
 62
     7
370
    50
100
AcDbLine
 10
279.319233
 20
322.526833
 30
0.0
 11
167.319233
 21
322.526833
 31
0.0
  0
LINE
  5
257
102
{ACAD_REACTORS
330
2B9
102
}
330
1F
100
AcDbEntity
  8
LC-001-002-----0
 62
     7
370
    50
100
AcDbLine
 10
167.319233
 20
439.926833
 30
0.0
 11
279.319233
 21
439.926833
 31
0.0
  0
LINE
  5
258
102
{ACAD_REACTORS
330
2B9
102
}
330
1F
100
AcDbEntity
  8
LC-001-002-----0
 62
     7
370
    50
100
AcDbLine
 10
163.919233
 20
324.526833
 30
0.0
 11
163.919233
 21
436.526833
 31
0.0
  0
LINE
  5
259
102
{ACAD_REACTORS
330
2B9
102
}
330
1F
100
AcDbEntity
  8
LC-001-002-----0
 62
     7
370
    50
100
AcDbLine
 10
279.319233
 20
321.126833
 30
0.0
 11
167.319233
 21
321.126833
 31
0.0
  0
ARC
  5
25A
102
{ACAD_REACTORS
330
2B9
102
}
330
1F
100
AcDbEntity
  8
LC-003-002-RND-0
 62
     7
370
    50
100
AcDbCircle
 10
279.319233
 20
324.526833
 30
0.0
 40
2.0
100
AcDbArc
 50
270.0
 51
0.0
  0
ARC
  5
25B
102
{ACAD_REACTORS
330
2B9
102
}
330
1F
100
AcDbEntity
  8
LC-003-002-RND-0
 62
     7
370
    50
100
AcDbCircle
 10
167.319233
 20
324.526833
 30
0.0
 40
2.0
100
AcDbArc
 50
180.0
 51
270.0
  0
ARC
  5
25C
102
{ACAD_REACTORS
330
2B9
102
}
330
1F
100
AcDbEntity
  8
LC-003-002-RND-0
 62
     7
370
    50
100
AcDbCircle
 10
279.319233
 20
436.526833
 30
0.0
 40
3.400000000000034
100
AcDbArc
 50
0.0
 51
90.0
  0
ARC
  5
25D
102
{ACAD_REACTORS
330
2B9
102
}
330
1F
100
AcDbEntity
  8
LC-003-002-RND-0
 62
     7
370
    50
100
AcDbCircle
 10
279.319233
 20
324.526833
 30
0.0
 40
3.399999999999977
100
AcDbArc
 50
270.0
 51
0.0
  0
ARC
  5
25E
102
{ACAD_REACTORS
330
2B9
102
}
330
1F
100
AcDbEntity
  8
LC-003-002-RND-0
 62
     7
370
    50
100
AcDbCircle
 10
167.319233
 20
324.526833
 30
0.0
 40
3.399999999999977
100
AcDbArc
 50
180.0
 51
270.0
  0
ARC
  5
25F
102
{ACAD_REACTORS
330
2B9
102
}
330
1F
100
AcDbEntity
  8
LC-003-002-RND-0
 62
     7
370
    50
100
AcDbCircle
 10
167.319233
 20
436.526833
 30
0.0
 40
3.399999999999977
100
AcDbArc
 50
90.0
 51
180.0
  0
LINE
  5
260
102
{ACAD_REACTORS
330
2BE
102
}
330
1F
100
AcDbEntity
  8
LC-001-002-----0
 62
     7
370
    50
100
AcDbLine
 10
63.419233
 20
436.249014
 30
0.0
 11
63.419233
 21
436.249014
 31
0.0
  0
LINE
  5
261
102
{ACAD_REACTORS
330
2BE
102
}
330
1F
100
AcDbEntity
  8
LC-001-002-----0
 62
     7
370
    50
100
AcDbLine
 10
49.419233
 20
436.249014
 30
0.0
 11
49.419233
 21
436.249014
 31
0.0
  0
LINE
  5
262
102
{ACAD_REACTORS
330
2BE
102
}
330
1F
100
AcDbEntity
  8
LC-001-002-----0
 62
     7
370
    50
100
AcDbLine
 10
49.419233
 20
436.249014
 30
0.0
 11
49.419233
 21
436.249014
 31
0.0
  0
LINE
  5
263
102
{ACAD_REACTORS
330
2BE
102
}
330
1F
100
AcDbEntity
  8
LC-001-002-----0
 62
     7
370
    50
100
AcDbLine
 10
63.419233
 20
436.249014
 30
0.0
 11
63.419233
 21
436.249014
 31
0.0
  0
ARC
  5
264
102
{ACAD_REACTORS
330
2BE
102
}
330
1F
100
AcDbEntity
  8
LC-003-002-RND-0
 62
     7
370
    50
100
AcDbCircle
 10
49.919233
 20
436.249014
 30
0.0
 40
0.5
100
AcDbArc
 50
90.0
 51
180.0
  0
LINE
  5
265
102
{ACAD_REACTORS
330
2BE
102
}
330
1F
100
AcDbEntity
  8
LC-001-002-----0
 62
     7
370
    50
100
AcDbLine
 10
62.919233
 20
436.749014
 30
0.0
 11
49.919233
 21
436.749014
 31
0.0
  0
ARC
  5
266
102
{ACAD_REACTORS
330
2BE
102
}
330
1F
100
AcDbEntity
  8
LC-003-002-RND-0
 62
     7
370
    50
100
AcDbCircle
 10
62.919233
 20
436.249014
 30
0.0
 40
0.5
100
AcDbArc
 50
0.0
 51
90.0
  0
LINE
  5
267
102
{ACAD_REACTORS
330
2BF
102
}
330
1F
100
AcDbEntity
  8
LC-001-002-----0
 62
     7
370
    50
100
AcDbLine
 10
-45.380767
 20
434.550746
 30
0.0
 11
-45.380767
 21
433.504628
 31
0.0
  0
LINE
  5
268
102
{ACAD_REACTORS
330
2BF
102
}
330
1F
100
AcDbEntity
  8
LC-001-002-----0
 62
     7
370
    50
100
AcDbLine
 10
-45.580767
 20
436.249014
 30
0.0
 11
-45.580767
 21
436.249014
 31
0.0
  0
LINE
  5
269
102
{ACAD_REACTORS
330
2BF
102
}
330
1F
100
AcDbEntity
  8
LC-001-002-----0
 62
     7
370
    50
100
AcDbLine
 10
-31.580767
 20
436.249014
 30
0.0
 11
-31.580767
 21
436.249014
 31
0.0
  0
LINE
  5
26A
102
{ACAD_REACTORS
330
2BF
102
}
330
1F
100
AcDbEntity
  8
LC-001-002-----0
 62
     7
370
    50
100
AcDbLine
 10
-31.580767
 20
436.249014
 30
0.0
 11
-31.580767
 21
436.249014
 31
0.0
  0
LINE
  5
26B
102
{ACAD_REACTORS
330
2BF
102
}
330
1F
100
AcDbEntity
  8
LC-001-002-----0
 62
     7
370
    50
100
AcDbLine
 10
-45.580767
 20
436.249014
 30
0.0
 11
-45.580767
 21
436.249014
 31
0.0
  0
ARC
  5
26C
102
{ACAD_REACTORS
330
2BF
102
}
330
1F
100
AcDbEntity
  8
LC-003-002-RND-0
 62
     7
370
    50
100
AcDbCircle
 10
-32.080767
 20
436.249014
 30
0.0
 40
0.5
100
AcDbArc
 50
0.0
 51
90.0
  0
LINE
  5
26D
102
{ACAD_REACTORS
330
2BF
102
}
330
1F
100
AcDbEntity
  8
LC-001-002-----0
 62
     7
370
    50
100
AcDbLine
 10
-45.080767
 20
436.749014
 30
0.0
 11
-32.080767
 21
436.749014
 31
0.0
  0
ARC
  5
26E
102
{ACAD_REACTORS
330
2BF
102
}
330
1F
100
AcDbEntity
  8
LC-003-002-RND-0
 62
     7
370
    50
100
AcDbCircle
 10
-45.080767
 20
436.249014
 30
0.0
 40
0.5
100
AcDbArc
 50
90.0
 51
180.0
  0
INSERT
  5
27B
330
1F
100
AcDbEntity
  8
LC-004-005-----0
 62
     7
370
    25
100
AcDbBlockReference
  2
*X910
 10
0.0
 20
0.0
 30
0.0
  0
DIMENSION
  5
27D
330
1F
100
AcDbEntity
  8
LC-002-003-----0
 62
     7
370
    25
100
AcDbDimension
  2
*D11
 10
117.610079
 20
322.302846
 30
0.0
 11
86.810299
 21
329.303822
 31
0.0
 70
   160
 71
     5
 42
14.0
 53
269.998199
  3
LC-DIM-L-0140-02-02
100
AcDbAlignedDimension
 13
60.919233
 23
336.304628
 33
0.0
 14
60.918795
 24
322.304628
 34
0.0
 50
269.998199
100
AcDbRotatedDimension
  0
DIMENSION
  5
28C
330
1F
100
AcDbEntity
  8
LC-002-003-----0
 62
     7
370
    25
100
AcDbDimension
  2
*D12
 10
68.319233
 20
470.4
 30
0.0
 11
8.919233
 21
501.2
 31
0.0
 70
   160
  1
120
 71
     5
 42
118.8
  3
LC-DIM-L-0140-02-02
100
AcDbAlignedDimension
 13
-50.480767
 23
441.049014
 33
0.0
 14
68.319233
 24
441.049014
 34
0.0
100
AcDbRotatedDimension
  0
DIMENSION
  5
299
330
1F
100
AcDbEntity
  8
LC-002-003-----0
 62
     7
370
    25
100
AcDbDimension
  2
*D13
 10
156.8
 20
441.749014
 30
0.0
 11
126.0
 21
389.026821
 31
0.0
 70
   160
  1
10-105,5
 71
     5
 42
105.444386
 53
90.0
  3
LC-DIM-L-0140-02-02
100
AcDbAlignedDimension
 13
60.919233
 23
336.304628
 33
0.0
 14
66.419233
 24
441.749014
 34
0.0
 50
90.0
100
AcDbRotatedDimension
  0
LINE
  5
2A6
330
1F
100
AcDbEntity
  8
LC-001-002-----0
 62
     7
370
    25
100
AcDbLine
 10
-25.327301
 20
494.690589
 30
0.0
 11
-30.550598
 21
494.690589
 31
0.0
  0
LINE
  5
2A7
330
1F
100
AcDbEntity
  8
LC-001-002-----0
 62
     7
370
    25
100
AcDbLine
 10
-30.550598
 20
479.690589
 30
0.0
 11
-30.550598
 21
494.690589
 31
0.0
  0
LINE
  5
2A8
330
1F
100
AcDbEntity
  8
LC-001-002-----0
 62
     7
370
    25
100
AcDbLine
 10
-25.327301
 20
479.690589
 30
0.0
 11
-30.550598
 21
479.690589
 31
0.0
  0
DIMENSION
  5
2A9
330
1F
100
AcDbEntity
  8
LC-002-003-----0
 62
     7
370
    25
100
AcDbDimension
  2
*D14
 10
-78.4
 20
435.549014
 30
0.0
 11
-109.2
 21
384.049144
 31
0.0
 70
   160
 71
     5
 42
6.2
 53
90.0
  3
LC-DIM-L-0140-02-02
100
AcDbAlignedDimension
 13
-49.780767
 23
441.749014
 33
0.0
 14
-48.580767
 24
435.549014
 34
0.0
 50
90.0
100
AcDbRotatedDimension
  0
LINE
  5
2B8
330
1F
100
AcDbEntity
  8
LC-001-002-----0
  6
DASHDOT
 62
     7
370
    25
100
AcDbLine
 10
8.919233
 20
441.749014
 30
0.0
 11
8.919233
 21
319.304653
 31
0.0
  0
ENDSEC
  0
SECTION
  2
OBJECTS
  0
DICTIONARY
  5
C
330
0
100
AcDbDictionary
281
     1
  3
ACAD_GROUP
350
D
  3
ACAD_LAYOUT
350
1A
  3
ACAD_MLINESTYLE
350
17
  3
ACAD_PLOTSETTINGS
350
19
  3
ACAD_PLOTSTYLENAME
350
E
  0
DICTIONARY
  5
D
102
{ACAD_REACTORS
330
C
102
}
330
C
100
AcDbDictionary
281
     1
  3
LCGROUP193
350
2BD
  3
LCGROUP369
350
2BB
  3
LCGROUP667
350
2BC
  3
LCGROUP758
350
2BE
  3
LCGROUP815
350
2BF
  3
LCGROUP816
350
2B9
  3
LCGROUP94
350
2BA
  0
DICTIONARY
  5
1A
102
{ACAD_REACTORS
330
C
102
}
330
C
100
AcDbDictionary
281
     1
  3
Layout1
350
1E
  3
Layout2
350
26
  3
Model
350
22
  0
DICTIONARY
  5
17
102
{ACAD_REACTORS
330
C
102
}
330
C
100
AcDbDictionary
281
     1
  3
Standard
350
18
  0
DICTIONARY
  5
19
102
{ACAD_REACTORS
330
C
102
}
330
C
100
AcDbDictionary
281
     1
  0
ACDBDICTIONARYWDFLT
  5
E
102
{ACAD_REACTORS
330
C
102
}
330
C
100
AcDbDictionary
281
     1
  3
Normal
350
F
100
AcDbDictionaryWithDefault
340
F
  0
GROUP
  5
2BD
102
{ACAD_REACTORS
330
D
102
}
330
D
100
AcDbGroup
300
Zentrierring
 70
     1
 71
     1
340
B4
340
B5
340
B6
340
B7
340
B8
340
B9
340
BA
340
BB
340
BC
340
BD
340
BE
340
BF
340
C0
340
C1
340
C2
340
C3
340
C4
340
C5
340
D2
340
D3
340
D4
340
D5
340
D6
340
D7
340
D8
340
D9
340
DA
340
DB
340
DC
340
DD
340
DE
340
DF
340
E0
340
E1
340
E2
340
E3
340
E4
340
E5
  0
GROUP
  5
2BB
102
{ACAD_REACTORS
330
D
102
}
330
D
100
AcDbGroup
300
GRP369
 70
     1
 71
     1
340
1B6
340
1B7
340
1B8
340
1B9
340
1BA
340
1BB
340
1BC
340
1BD
340
1BE
340
1BF
340
1C0
340
1C1
340
1C2
340
1C3
340
1C4
340
1C5
340
1EF
  0
GROUP
  5
2BC
102
{ACAD_REACTORS
330
D
102
}
330
D
100
AcDbGroup
300
GRP667
 70
     1
 71
     1
340
11E
340
11F
340
120
340
121
340
122
340
123
340
124
340
125
340
126
340
127
340
128
340
129
340
12A
340
12B
340
12C
340
12D
340
12E
340
12F
340
130
340
131
340
132
340
133
340
134
340
135
340
136
340
137
340
138
340
139
340
13A
340
13B
340
13C
340
13D
340
13E
340
13F
340
140
340
141
340
142
340
143
340
144
340
145
340
146
340
147
340
148
340
149
340
14A
340
14B
340
14C
340
14D
340
14E
340
14F
340
150
340
151
340
152
340
153
340
154
340
155
340
156
340
157
340
158
340
159
340
15A
340
15B
340
15C
340
15D
340
15E
340
15F
340
160
340
161
340
162
340
163
340
164
340
165
340
166
340
167
340
168
340
169
340
16A
340
16B
340
16C
340
16D
340
16E
340
16F
340
170
340
171
340
172
340
173
340
174
340
175
340
176
340
177
340
178
340
179
340
17A
340
17B
340
17C
340
17D
340
17E
340
17F
340
180
340
181
340
182
340
183
340
184
340
185
340
186
340
187
340
188
340
189
340
18A
340
18B
340
18C
340
18D
340
18E
340
18F
340
190
340
191
340
192
340
193
340
194
340
195
340
196
340
197
340
198
340
199
340
19A
340
19B
340
19C
340
19D
340
19E
340
19F
340
1A0
340
1A1
340
1A2
340
1A3
340
1A4
340
1A5
340
1A6
340
1A7
340
1A8
340
1A9
340
1AA
340
1AB
340
1AC
340
1AD
340
1AE
340
1AF
340
1B0
340
1B1
340
1B2
340
1B3
340
1B4
340
1B5
  0
GROUP
  5
2BE
102
{ACAD_REACTORS
330
D
102
}
330
D
100
AcDbGroup
300
Rahmen SA
 70
     1
 71
     1
340
1F1
340
1F2
340
1F3
340
1F4
340
1F5
340
1F6
340
203
340
205
340
206
340
207
340
208
340
209
340
20A
340
20B
340
20C
340
20D
340
20E
340
20F
340
210
340
211
340
212
340
213
340
214
340
215
340
216
340
217
340
218
340
219
340
21A
340
21B
340
21C
340
21D
340
21E
340
21F
340
220
340
221
340
222
340
223
340
224
340
225
340
226
340
227
340
228
340
229
340
22A
340
22B
340
22C
340
22D
340
22E
340
22F
340
230
340
231
340
232
340
233
340
234
340
235
340
236
340
237
340
238
340
239
340
23A
340
23B
340
23C
340
23D
340
23E
340
23F
340
240
340
241
340
242
340
243
340
244
340
245
340
251
340
260
340
261
340
262
340
263
340
264
340
265
340
266
  0
GROUP
  5
2BF
102
{ACAD_REACTORS
330
D
102
}
330
D
100
AcDbGroup
300
Rahmen SA
 70
     1
 71
     1
340
267
340
268
340
269
340
26A
340
26B
340
26C
340
26D
340
26E
  0
GROUP
  5
2B9
102
{ACAD_REACTORS
330
D
102
}
330
D
100
AcDbGroup
300
GRP816
 70
     1
 71
     1
340
1F0
340
204
340
252
340
253
340
254
340
255
340
256
340
257
340
258
340
259
340
25A
340
25B
340
25C
340
25D
340
25E
340
25F
  0
GROUP
  5
2BA
102
{ACAD_REACTORS
330
D
102
}
330
D
100
AcDbGroup
300
GRP94
 70
     1
 71
     1
340
31
340
32
340
33
340
34
340
35
340
36
340
37
340
38
340
39
340
3A
340
3B
340
3C
340
3D
340
3E
340
3F
340
40
340
41
340
42
340
55
340
56
340
57
340
58
340
59
340
85
340
86
340
87
340
B3
  0
LAYOUT
  5
1E
102
{ACAD_REACTORS
330
1A
102
}
330
1A
100
AcDbPlotSettings
  1

  2

  4

  6

 40
0.0
 41
0.0
 42
0.0
 43
0.0
 44
0.0
 45
0.0
 46
0.0
 47
0.0
 48
0.0
 49
0.0
140
0.0
141
0.0
142
1.0
143
1.0
 70
   688
 72
     0
 73
     0
 74
     5
  7

 75
    16
147
1.0
148
0.0
149
0.0
100
AcDbLayout
  1
Layout1
 70
     1
 71
     1
 10
-338.121798
 20
9.829144
 11
501.878202
 21
603.829144
 12
0.0
 22
0.0
 32
0.0
 14
-338.121798
 24
9.829144
 34
0.0
 15
501.878202
 25
603.829144
 35
0.0
146
0.0
 13
0.0
 23
0.0
 33
0.0
 16
1.0
 26
0.0
 36
0.0
 17
0.0
 27
1.0
 37
0.0
 76
     0
330
1B
  0
LAYOUT
  5
26
102
{ACAD_REACTORS
330
1A
102
}
330
1A
100
AcDbPlotSettings
  1

  2

  4

  6

 40
0.0
 41
0.0
 42
0.0
 43
0.0
 44
0.0
 45
0.0
 46
0.0
 47
0.0
 48
0.0
 49
0.0
140
0.0
141
0.0
142
1.0
143
1.0
 70
   688
 72
     0
 73
     0
 74
     5
  7

 75
    16
147
1.0
148
0.0
149
0.0
100
AcDbLayout
  1
Layout2
 70
     1
 71
     2
 10
0.0
 20
0.0
 11
0.0
 21
0.0
 12
0.0
 22
0.0
 32
0.0
 14
0.0
 24
0.0
 34
0.0
 15
0.0
 25
0.0
 35
0.0
146
0.0
 13
0.0
 23
0.0
 33
0.0
 16
1.0
 26
0.0
 36
0.0
 17
0.0
 27
1.0
 37
0.0
 76
     0
330
23
  0
LAYOUT
  5
22
102
{ACAD_REACTORS
330
1A
102
}
330
1A
100
AcDbPlotSettings
  1

  2

  4

  6

 40
0.0
 41
0.0
 42
0.0
 43
0.0
 44
0.0
 45
0.0
 46
0.0
 47
0.0
 48
0.0
 49
0.0
140
0.0
141
0.0
142
1.0
143
1.0
 70
  1776
 72
     0
 73
     0
 74
     0
  7

 75
     0
147
1.0
148
0.0
149
0.0
100
AcDbLayout
  1
Model
 70
     1
 71
     0
 10
-338.121798
 20
9.829144
 11
501.878202
 21
603.829144
 12
-95.836967
 22
122.545525
 32
0.0
 14
-338.121798
 24
9.829144
 34
0.0
 15
501.878202
 25
603.829144
 35
0.0
146
0.0
 13
0.0
 23
0.0
 33
0.0
 16
1.0
 26
0.0
 36
0.0
 17
0.0
 27
1.0
 37
0.0
 76
     0
330
1F
  0
MLINESTYLE
  5
18
102
{ACAD_REACTORS
330
17
102
}
330
17
100
AcDbMlineStyle
  2
Standard
 70
     0
  3

 62
   256
 51
90.0
 52
90.0
 71
     2
 49
0.5
 62
   256
  6
BYLAYER
 49
-0.5
 62
   256
  6
BYLAYER
  0
ACDBPLACEHOLDER
  5
F
102
{ACAD_REACTORS
330
E
102
}
330
E
  0
ENDSEC
  0
EOF
