  0
SECTION
  2
HEADER
  9
$ACADVER
  1
AC1015
  9
$ACADMAINTVER
 70
     6
  9
$DWGCODEPAGE
  3
ANSI_1252
  9
$INSBASE
 10
0.0
 20
0.0
 30
0.0
  9
$EXTMIN
 10
-282.457552
 20
-226.26346
 30
0.0
  9
$EXTMAX
 10
557.542448
 20
367.73654
 30
0.0
  9
$LIMMIN
 10
-282.457552
 20
-226.26346
  9
$LIMMAX
 10
557.542448
 20
367.73654
  9
$ORTHOMODE
 70
     0
  9
$REGENMODE
 70
     1
  9
$FILLMODE
 70
     1
  9
$QTEXTMODE
 70
     0
  9
$MIRRTEXT
 70
     1
  9
$LTSCALE
 40
2.0
  9
$ATTMODE
 70
     1
  9
$TEXTSIZE
 40
2.5
  9
$TRACEWID
 40
1.0
  9
$TEXTSTYLE
  7
Standard
  9
$CLAYER
  8
0
  9
$CELTYPE
  6
ByLayer
  9
$CECOLOR
 62
     7
  9
$CELTSCALE
 40
1.0
  9
$DISPSILH
 70
     0
  9
$DIMSCALE
 40
2.0
  9
$DIMASZ
 40
3.5
  9
$DIMEXO
 40
0.625
  9
$DIMDLI
 40
3.75
  9
$DIMRND
 40
0.0
  9
$DIMDLE
 40
0.0
  9
$DIMEXE
 40
1.25
  9
$DIMTP
 40
0.0
  9
$DIMTM
 40
0.0
  9
$DIMTXT
 40
3.5
  9
$DIMCEN
 40
2.5
  9
$DIMTSZ
 40
0.0
  9
$DIMTOL
 70
     0
  9
$DIMLIM
 70
     0
  9
$DIMTIH
 70
     0
  9
$DIMTOH
 70
     0
  9
$DIMSE1
 70
     0
  9
$DIMSE2
 70
     0
  9
$DIMTAD
 70
     1
  9
$DIMZIN
 70
     8
  9
$DIMBLK
  1

  9
$DIMASO
 70
     1
  9
$DIMSHO
 70
     1
  9
$DIMPOST
  1

  9
$DIMAPOST
  1

  9
$DIMALT
 70
     0
  9
$DIMALTD
 70
     3
  9
$DIMALTF
 40
0.03937
  9
$DIMLFAC
 40
1.0
  9
$DIMTOFL
 70
     1
  9
$DIMTVP
 40
0.0
  9
$DIMTIX
 70
     0
  9
$DIMSOXD
 70
     0
  9
$DIMSAH
 70
     0
  9
$DIMBLK1
  1

  9
$DIMBLK2
  1

  9
$DIMSTYLE
  2
ISO-25
  9
$DIMCLRD
 70
     0
  9
$DIMCLRE
 70
     0
  9
$DIMCLRT
 70
     0
  9
$DIMTFAC
 40
1.0
  9
$DIMGAP
 40
0.625
  9
$DIMJUST
 70
     0
  9
$DIMSD1
 70
     0
  9
$DIMSD2
 70
     0
  9
$DIMTOLJ
 70
     0
  9
$DIMTZIN
 70
     8
  9
$DIMALTZ
 70
     0
  9
$DIMALTTZ
 70
     0
  9
$DIMUPT
 70
     0
  9
$DIMDEC
 70
     2
  9
$DIMTDEC
 70
     2
  9
$DIMALTU
 70
     2
  9
$DIMALTTD
 70
     3
  9
$DIMTXSTY
  7
Standard
  9
$DIMAUNIT
 70
     0
  9
$DIMADEC
 70
     0
  9
$DIMALTRND
 40
0.0
  9
$DIMAZIN
 70
     0
  9
$DIMDSEP
 70
    44
  9
$DIMATFIT
 70
     3
  9
$DIMFRAC
 70
     0
  9
$DIMLDRBLK
  1

  9
$DIMLUNIT
 70
     2
  9
$DIMLWD
 70
    -2
  9
$DIMLWE
 70
    -2
  9
$DIMTMOVE
 70
     0
  9
$LUNITS
 70
     2
  9
$LUPREC
 70
     4
  9
$SKETCHINC
 40
1.0
  9
$FILLETRAD
 40
10.0
  9
$AUNITS
 70
     0
  9
$AUPREC
 70
     0
  9
$MENU
  1
.
  9
$ELEVATION
 40
0.0
  9
$PELEVATION
 40
0.0
  9
$THICKNESS
 40
0.0
  9
$LIMCHECK
 70
     0
  9
$CHAMFERA
 40
10.0
  9
$CHAMFERB
 40
10.0
  9
$CHAMFERC
 40
20.0
  9
$CHAMFERD
 40
0.0
  9
$SKPOLY
 70
     0
  9
$TDCREATE
 40
2455519.251754722
  9
$TDUCREATE
 40
2455519.210088056
  9
$TDUPDATE
 40
2455519.251754734
  9
$TDUUPDATE
 40
2455519.210088067
  9
$TDINDWG
 40
0.0000000116
  9
$TDUSRTIMER
 40
0.0000000116
  9
$USRTIMER
 70
     1
  9
$ANGBASE
 50
0.0
  9
$ANGDIR
 70
     0
  9
$PDMODE
 70
     0
  9
$PDSIZE
 40
0.0
  9
$PLINEWID
 40
0.0
  9
$SPLFRAME
 70
     0
  9
$SPLINETYPE
 70
     6
  9
$SPLINESEGS
 70
     8
  9
$HANDSEED
  5
2C5
  9
$SURFTAB1
 70
     6
  9
$SURFTAB2
 70
     6
  9
$SURFTYPE
 70
     6
  9
$SURFU
 70
     6
  9
$SURFV
 70
     6
  9
$UCSBASE
  2

  9
$UCSNAME
  2

  9
$UCSORG
 10
0.0
 20
0.0
 30
0.0
  9
$UCSXDIR
 10
1.0
 20
0.0
 30
0.0
  9
$UCSYDIR
 10
0.0
 20
1.0
 30
0.0
  9
$UCSORTHOREF
  2

  9
$UCSORTHOVIEW
 70
     0
  9
$UCSORGTOP
 10
0.0
 20
0.0
 30
0.0
  9
$UCSORGBOTTOM
 10
0.0
 20
0.0
 30
0.0
  9
$UCSORGLEFT
 10
0.0
 20
0.0
 30
0.0
  9
$UCSORGRIGHT
 10
0.0
 20
0.0
 30
0.0
  9
$UCSORGFRONT
 10
0.0
 20
0.0
 30
0.0
  9
$UCSORGBACK
 10
0.0
 20
0.0
 30
0.0
  9
$PUCSBASE
  2

  9
$PUCSNAME
  2

  9
$PUCSORG
 10
0.0
 20
0.0
 30
0.0
  9
$PUCSXDIR
 10
1.0
 20
0.0
 30
0.0
  9
$PUCSYDIR
 10
0.0
 20
1.0
 30
0.0
  9
$PUCSORTHOREF
  2

  9
$PUCSORTHOVIEW
 70
     0
  9
$PUCSORGTOP
 10
0.0
 20
0.0
 30
0.0
  9
$PUCSORGBOTTOM
 10
0.0
 20
0.0
 30
0.0
  9
$PUCSORGLEFT
 10
0.0
 20
0.0
 30
0.0
  9
$PUCSORGRIGHT
 10
0.0
 20
0.0
 30
0.0
  9
$PUCSORGFRONT
 10
0.0
 20
0.0
 30
0.0
  9
$PUCSORGBACK
 10
0.0
 20
0.0
 30
0.0
  9
$USERI1
 70
     0
  9
$USERI2
 70
     0
  9
$USERI3
 70
     0
  9
$USERI4
 70
     0
  9
$USERI5
 70
     0
  9
$USERR1
 40
0.0
  9
$USERR2
 40
0.0
  9
$USERR3
 40
0.0
  9
$USERR4
 40
0.0
  9
$USERR5
 40
0.0
  9
$WORLDVIEW
 70
     1
  9
$SHADEDGE
 70
     3
  9
$SHADEDIF
 70
    70
  9
$TILEMODE
 70
     1
  9
$MAXACTVP
 70
    64
  9
$PINSBASE
 10
0.0
 20
0.0
 30
0.0
  9
$PLIMCHECK
 70
     0
  9
$PEXTMIN
 10
-282.457552
 20
-226.26346
 30
0.0
  9
$PEXTMAX
 10
557.542448
 20
367.73654
 30
0.0
  9
$PLIMMIN
 10
-282.457552
 20
-226.26346
  9
$PLIMMAX
 10
557.542448
 20
367.73654
  9
$UNITMODE
 70
     0
  9
$VISRETAIN
 70
     1
  9
$PLINEGEN
 70
     0
  9
$PSLTSCALE
 70
     1
  9
$TREEDEPTH
 70
  3020
  9
$CMLSTYLE
  2
Standard
  9
$CMLJUST
 70
     0
  9
$CMLSCALE
 40
20.0
  9
$PROXYGRAPHICS
 70
     1
  9
$MEASUREMENT
 70
     1
  9
$CELWEIGHT
370
    -1
  9
$ENDCAPS
280
     0
  9
$JOINSTYLE
280
     0
  9
$LWDISPLAY
290
     0
  9
$INSUNITS
 70
     4
  9
$HYPERLINKBASE
  1

  9
$STYLESHEET
  1

  9
$XEDIT
290
     1
  9
$CEPSNTYPE
380
     0
  9
$PSTYLEMODE
290
     1
  9
$FINGERPRINTGUID
  2
{FAEB1C30-E019-11D5-929B-00C0DF256EC4}
  9
$VERSIONGUID
  2
{FAEB1C32-E019-11D5-929B-00C0DF256EC4}
  9
$EXTNAMES
290
     1
  9
$PSVPSCALE
 40
0.0
  9
$OLESTARTUP
290
     0
  0
ENDSEC
  0
SECTION
  2
CLASSES
  0
CLASS
  1
ACDBDICTIONARYWDFLT
  2
AcDbDictionaryWithDefault
  3
ObjectDBX Classes
 90
        0
280
     0
281
     0
  0
CLASS
  1
ACDBPLACEHOLDER
  2
AcDbPlaceHolder
  3
ObjectDBX Classes
 90
        0
280
     0
281
     0
  0
CLASS
  1
LAYOUT
  2
AcDbLayout
  3
ObjectDBX Classes
 90
        0
280
     0
281
     0
  0
ENDSEC
  0
SECTION
  2
TABLES
  0
TABLE
  2
VPORT
  5
8
330
0
100
AcDbSymbolTable
 70
     2
  0
VPORT
  5
29
330
8
100
AcDbSymbolTableRecord
100
AcDbViewportTableRecord
  2
*ACTIVE
 70
     0
 10
0.0
 20
0.0
 11
1.0
 21
1.0
 12
137.542448
 22
70.73654
 13
0.0
 23
0.0
 14
1.0
 24
1.0
 15
0.0
 25
0.0
 16
0.0
 26
0.0
 36
1.0
 17
0.0
 27
0.0
 37
0.0
 40
594.0
 41
1.414141
 42
50.0
 43
0.0
 44
0.0
 50
0.0
 51
0.0
 71
    16
 72
   100
 73
     1
 74
     0
 75
     0
 76
     0
 77
     0
 78
     0
281
     0
 65
     0
110
0.0
120
0.0
130
0.0
111
1.0
121
0.0
131
0.0
112
0.0
122
1.0
132
0.0
 79
     0
146
0.0
  0
ENDTAB
  0
TABLE
  2
LTYPE
  5
5
330
0
100
AcDbSymbolTable
 70
     3
  0
LTYPE
  5
14
330
5
100
AcDbSymbolTableRecord
100
AcDbLinetypeTableRecord
  2
ByBlock
 70
     0
  3

 72
    65
 73
     0
 40
0.0
  0
LTYPE
  5
15
330
5
100
AcDbSymbolTableRecord
100
AcDbLinetypeTableRecord
  2
ByLayer
 70
     0
  3

 72
    65
 73
     0
 40
0.0
  0
LTYPE
  5
16
330
5
100
AcDbSymbolTableRecord
100
AcDbLinetypeTableRecord
  2
Continuous
 70
     0
  3
Solid line
 72
    65
 73
     0
 40
0.0
  0
LTYPE
  5
2A
330
5
100
AcDbSymbolTableRecord
100
AcDbLinetypeTableRecord
  2
DASHED
 70
     0
  3
__ __ __ __ __
 72
    65
 73
     2
 40
6.25
 49
5.0
 74
     4
 75
     0
340
0
 46
1.0
 50
0.0
 44
0.0
 45
0.0
 49
-1.25
 74
     4
 75
     0
340
0
 46
1.0
 50
0.0
 44
0.0
 45
0.0
  0
LTYPE
  5
30
330
5
100
AcDbSymbolTableRecord
100
AcDbLinetypeTableRecord
  2
DASHDOT
 70
     0
  3
__ . __ . __ . __ . __
 72
    65
 73
     4
 40
7.5
 49
5.0
 74
     4
 75
     0
340
0
 46
1.0
 50
0.0
 44
0.0
 45
0.0
 49
-1.25
 74
     4
 75
     0
340
0
 46
1.0
 50
0.0
 44
0.0
 45
0.0
 49
0.0
 74
     4
 75
     0
340
0
 46
1.0
 50
0.0
 44
0.0
 45
0.0
 49
-1.25
 74
     4
 75
     0
340
0
 46
1.0
 50
0.0
 44
0.0
 45
0.0
  0
ENDTAB
  0
TABLE
  2
LAYER
  5
2
330
0
100
AcDbSymbolTable
 70
     9
  0
LAYER
  5
10
330
2
100
AcDbSymbolTableRecord
100
AcDbLayerTableRecord
  2
0
 70
     0
 62
     7
  6
Continuous
370
    -3
390
F
  0
LAYER
  5
2B
330
2
100
AcDbSymbolTableRecord
100
AcDbLayerTableRecord
  2
LC-INFO-1-2-mm-A3-0
 70
     1
 62
     7
  6
ByBlock
370
    -3
390
F
  0
LAYER
  5
2C
330
2
100
AcDbSymbolTableRecord
100
AcDbLayerTableRecord
  2
LC-CUT-HIDDEN
 70
     0
 62
     7
  6
DASHED
370
    -3
390
F
  0
LAYER
  5
2D
330
2
100
AcDbSymbolTableRecord
100
AcDbLayerTableRecord
  2
LC-VIEWPORT
 70
     0
 62
     7
  6
ByBlock
370
    -3
390
F
  0
LAYER
  5
2E
330
2
100
AcDbSymbolTableRecord
100
AcDbLayerTableRecord
  2
LC-3D-HIDDEN
 70
     0
 62
     9
  6
DASHED
370
    -3
390
F
  0
LAYER
  5
31
330
2
100
AcDbSymbolTableRecord
100
AcDbLayerTableRecord
  2
LC-001-002-----0
 70
     0
 62
     2
  6
DASHDOT
370
    -3
390
F
  0
LAYER
  5
36
330
2
100
AcDbSymbolTableRecord
100
AcDbLayerTableRecord
  2
LC-002-100-D00-0
 70
     0
 62
     1
  6
ByBlock
370
    -3
390
F
  0
LAYER
  5
103
330
2
100
AcDbSymbolTableRecord
100
AcDbLayerTableRecord
  2
LC-003-003-----0
 70
     0
 62
     2
  6
ByBlock
370
    -3
390
F
  0
LAYER
  5
105
330
2
100
AcDbSymbolTableRecord
100
AcDbLayerTableRecord
  2
Defpoints
 70
     0
 62
     7
  6
Continuous
290
     0
370
    -3
390
F
  0
ENDTAB
  0
TABLE
  2
STYLE
  5
3
330
0
100
AcDbSymbolTable
 70
     3
  0
STYLE
  5
11
330
3
100
AcDbSymbolTableRecord
100
AcDbTextStyleTableRecord
  2
Standard
 70
     0
 40
0.0
 41
1.0
 50
0.0
 71
     0
 42
2.5
  3
txt
  4

  0
STYLE
  5
2F
330
3
100
AcDbSymbolTableRecord
100
AcDbTextStyleTableRecord
  2
LCTX15-400-0-0-Arial
 70
     0
 40
0.0
 41
0.8
 50
0.0
 71
     0
 42
3.5
  3

  4

1001
ACAD
1000
Arial
1071
 16777218
  0
STYLE
  5
101
330
3
100
AcDbSymbolTableRecord
100
AcDbTextStyleTableRecord
  2
LCTX15-400-0-0pDIN-Schrift
 70
     0
 40
2.5
 41
0.8
 50
15.0
 71
     0
 42
3.5
  3
STANDARD
  4

  0
ENDTAB
  0
TABLE
  2
VIEW
  5
6
330
0
100
AcDbSymbolTable
 70
     0
  0
ENDTAB
  0
TABLE
  2
UCS
  5
7
330
0
100
AcDbSymbolTable
 70
     0
  0
ENDTAB
  0
TABLE
  2
APPID
  5
9
330
0
100
AcDbSymbolTable
 70
     1
  0
APPID
  5
12
330
9
100
AcDbSymbolTableRecord
100
AcDbRegAppTableRecord
  2
ACAD
 70
     0
  0
ENDTAB
  0
TABLE
  2
DIMSTYLE
  5
A
330
0
100
AcDbSymbolTable
 70
     2
100
AcDbDimStyleTable
  0
DIMSTYLE
105
27
330
A
100
AcDbSymbolTableRecord
100
AcDbDimStyleTableRecord
  2
ISO-25
 70
     0
 41
2.5
 42
0.625
 43
3.75
 44
1.25
 73
     0
 74
     0
 77
     1
 78
     8
140
2.5
141
2.5
143
0.03937
147
0.625
171
     3
172
     1
271
     2
272
     2
274
     3
278
    44
283
     0
284
     8
340
11
  0
DIMSTYLE
105
102
102
{ACAD_REACTORS
330
104
330
112
330
11F
330
12E
102
}
330
A
100
AcDbSymbolTableRecord
100
AcDbDimStyleTableRecord
  2
LC-DIM-L-0140-02-02
 70
     0
 40
2.0
 41
14.0
 42
0.0
 43
7.5
 44
1.8
 73
     0
 74
     0
 77
     1
 78
     8
 79
     2
140
14.0
141
0.0
146
0.71
147
1.5
176
     2
177
     2
178
     2
179
     2
271
     2
278
    44
289
     1
340
101
  0
ENDTAB
  0
TABLE
  2
BLOCK_RECORD
  5
1
330
0
100
AcDbSymbolTable
 70
    32
  0
BLOCK_RECORD
  5
1F
330
1
100
AcDbSymbolTableRecord
100
AcDbBlockTableRecord
  2
*Model_Space
340
22
  0
BLOCK_RECORD
  5
1B
330
1
100
AcDbSymbolTableRecord
100
AcDbBlockTableRecord
  2
*Paper_Space
340
1E
  0
BLOCK_RECORD
  5
23
330
1
100
AcDbSymbolTableRecord
100
AcDbBlockTableRecord
  2
*Paper_Space0
340
26
  0
BLOCK_RECORD
  5
33
330
1
100
AcDbSymbolTableRecord
100
AcDbBlockTableRecord
  2
POLY1
340
0
102
{BLKREFS
331
4B
102
}
  0
BLOCK_RECORD
  5
84
330
1
100
AcDbSymbolTableRecord
100
AcDbBlockTableRecord
  2
POLY2
340
0
102
{BLKREFS
331
95
102
}
  0
BLOCK_RECORD
  5
96
330
1
100
AcDbSymbolTableRecord
100
AcDbBlockTableRecord
  2
POLY3
340
0
102
{BLKREFS
331
A1
102
}
  0
BLOCK_RECORD
  5
A6
330
1
100
AcDbSymbolTableRecord
100
AcDbBlockTableRecord
  2
POLY4
340
0
102
{BLKREFS
331
B7
102
}
  0
BLOCK_RECORD
  5
B8
330
1
100
AcDbSymbolTableRecord
100
AcDbBlockTableRecord
  2
POLY5
340
0
102
{BLKREFS
331
C3
102
}
  0
BLOCK_RECORD
  5
DE
330
1
100
AcDbSymbolTableRecord
100
AcDbBlockTableRecord
  2
KLON1
340
0
102
{BLKREFS
331
E6
102
}
  0
BLOCK_RECORD
  5
E7
330
1
100
AcDbSymbolTableRecord
100
AcDbBlockTableRecord
  2
KLON2
340
0
102
{BLKREFS
331
F0
102
}
  0
BLOCK_RECORD
  5
F1
330
1
100
AcDbSymbolTableRecord
100
AcDbBlockTableRecord
  2
KLON3
340
0
102
{BLKREFS
331
F6
102
}
  0
BLOCK_RECORD
  5
F7
330
1
100
AcDbSymbolTableRecord
100
AcDbBlockTableRecord
  2
KLON4
340
0
102
{BLKREFS
331
FF
102
}
  0
BLOCK_RECORD
  5
106
330
1
100
AcDbSymbolTableRecord
100
AcDbBlockTableRecord
  2
*D10
340
0
  0
BLOCK_RECORD
  5
113
330
1
100
AcDbSymbolTableRecord
100
AcDbBlockTableRecord
  2
*D11
340
0
  0
BLOCK_RECORD
  5
120
330
1
100
AcDbSymbolTableRecord
100
AcDbBlockTableRecord
  2
*D12
340
0
  0
BLOCK_RECORD
  5
12F
330
1
100
AcDbSymbolTableRecord
100
AcDbBlockTableRecord
  2
*D13
340
0
  0
BLOCK_RECORD
  5
156
330
1
100
AcDbSymbolTableRecord
100
AcDbBlockTableRecord
  2
POLY6
340
0
102
{BLKREFS
331
167
102
}
  0
BLOCK_RECORD
  5
168
330
1
100
AcDbSymbolTableRecord
100
AcDbBlockTableRecord
  2
POLY7
340
0
102
{BLKREFS
331
179
102
}
  0
BLOCK_RECORD
  5
17A
330
1
100
AcDbSymbolTableRecord
100
AcDbBlockTableRecord
  2
POLY8
340
0
102
{BLKREFS
331
18B
102
}
  0
BLOCK_RECORD
  5
18C
330
1
100
AcDbSymbolTableRecord
100
AcDbBlockTableRecord
  2
POLY9
340
0
102
{BLKREFS
331
19D
102
}
  0
BLOCK_RECORD
  5
19E
330
1
100
AcDbSymbolTableRecord
100
AcDbBlockTableRecord
  2
POLY10
340
0
102
{BLKREFS
331
1AF
102
}
  0
BLOCK_RECORD
  5
1B0
330
1
100
AcDbSymbolTableRecord
100
AcDbBlockTableRecord
  2
POLY11
340
0
102
{BLKREFS
331
1C1
102
}
  0
BLOCK_RECORD
  5
1C2
330
1
100
AcDbSymbolTableRecord
100
AcDbBlockTableRecord
  2
POLY12
340
0
102
{BLKREFS
331
1D3
102
}
  0
BLOCK_RECORD
  5
1D4
330
1
100
AcDbSymbolTableRecord
100
AcDbBlockTableRecord
  2
POLY13
340
0
102
{BLKREFS
331
1E5
102
}
  0
BLOCK_RECORD
  5
1E6
330
1
100
AcDbSymbolTableRecord
100
AcDbBlockTableRecord
  2
POLY14
340
0
102
{BLKREFS
331
1F7
102
}
  0
BLOCK_RECORD
  5
1F8
330
1
100
AcDbSymbolTableRecord
100
AcDbBlockTableRecord
  2
POLY15
340
0
102
{BLKREFS
331
209
102
}
  0
BLOCK_RECORD
  5
20A
330
1
100
AcDbSymbolTableRecord
100
AcDbBlockTableRecord
  2
POLY16
340
0
102
{BLKREFS
331
21B
102
}
  0
BLOCK_RECORD
  5
21C
330
1
100
AcDbSymbolTableRecord
100
AcDbBlockTableRecord
  2
POLY17
340
0
102
{BLKREFS
331
22D
102
}
  0
BLOCK_RECORD
  5
22E
330
1
100
AcDbSymbolTableRecord
100
AcDbBlockTableRecord
  2
POLY18
340
0
102
{BLKREFS
331
23F
102
}
  0
BLOCK_RECORD
  5
240
330
1
100
AcDbSymbolTableRecord
100
AcDbBlockTableRecord
  2
POLY19
340
0
102
{BLKREFS
331
251
102
}
  0
BLOCK_RECORD
  5
252
330
1
100
AcDbSymbolTableRecord
100
AcDbBlockTableRecord
  2
POLY20
340
0
102
{BLKREFS
331
263
102
}
  0
BLOCK_RECORD
  5
264
330
1
100
AcDbSymbolTableRecord
100
AcDbBlockTableRecord
  2
POLY21
340
0
102
{BLKREFS
331
275
102
}
  0
BLOCK_RECORD
  5
290
330
1
100
AcDbSymbolTableRecord
100
AcDbBlockTableRecord
  2
POLY22
340
0
102
{BLKREFS
331
29F
102
}
  0
BLOCK_RECORD
  5
2A2
330
1
100
AcDbSymbolTableRecord
100
AcDbBlockTableRecord
  2
POLY23
340
0
102
{BLKREFS
331
2BB
102
}
  0
ENDTAB
  0
ENDSEC
  0
SECTION
  2
BLOCKS
  0
BLOCK
  5
20
330
1F
100
AcDbEntity
  8
0
100
AcDbBlockBegin
  2
*Model_Space
 70
     0
 71
     0
 10
0.0
 20
0.0
 30
0.0
  3
*Model_Space
  1

  0
ENDBLK
  5
21
330
1F
100
AcDbEntity
  8
0
100
AcDbBlockEnd
  0
BLOCK
  5
1C
330
1B
100
AcDbEntity
 67
     1
  8
0
100
AcDbBlockBegin
  2
*Paper_Space
 70
     0
 71
     0
 10
0.0
 20
0.0
 30
0.0
  3
*Paper_Space
  1

  0
ENDBLK
  5
1D
330
1B
100
AcDbEntity
 67
     1
  8
0
100
AcDbBlockEnd
  0
BLOCK
  5
24
330
23
100
AcDbEntity
  8
0
100
AcDbBlockBegin
  2
*Paper_Space0
 70
     0
 71
     0
 10
0.0
 20
0.0
 30
0.0
  3
*Paper_Space0
  1

  0
ENDBLK
  5
25
330
23
100
AcDbEntity
  8
0
100
AcDbBlockEnd
  0
BLOCK
  5
34
330
33
100
AcDbEntity
  8
0
100
AcDbBlockBegin
  2
POLY1
 70
     0
 71
     0
 10
0.0
 20
0.0
 30
0.0
  3
POLY1
  1

  4
POLY1
  0
LINE
  5
37
330
33
100
AcDbEntity
  8
LC-002-100-D00-0
 62
     7
370
    50
100
AcDbLine
 10
102.680889
 20
131.886754
 30
0.0
 11
102.680889
 21
131.886754
 31
0.0
  0
LINE
  5
38
330
33
100
AcDbEntity
  8
LC-002-100-D00-0
 62
     7
370
    50
100
AcDbLine
 10
102.680889
 20
131.886754
 30
0.0
 11
102.688724
 21
131.898173
 31
0.0
  0
LINE
  5
39
330
33
100
AcDbEntity
  8
LC-002-100-D00-0
 62
     7
370
    50
100
AcDbLine
 10
102.688724
 20
131.898173
 30
0.0
 11
102.688724
 21
131.898173
 31
0.0
  0
LINE
  5
3A
330
33
100
AcDbEntity
  8
LC-002-100-D00-0
 62
     7
370
    50
100
AcDbLine
 10
102.688724
 20
131.898173
 30
0.0
 11
102.71461
 21
131.9359
 31
0.0
  0
LINE
  5
3B
330
33
100
AcDbEntity
  8
LC-002-100-D00-0
 62
     7
370
    50
100
AcDbLine
 10
102.71461
 20
131.9359
 30
0.0
 11
102.71461
 21
131.9359
 31
0.0
  0
LINE
  5
3C
330
33
100
AcDbEntity
  8
LC-002-100-D00-0
 62
     7
370
    50
100
AcDbLine
 10
102.71461
 20
131.9359
 30
0.0
 11
102.752448
 21
131.983507
 31
0.0
  0
LINE
  5
3D
330
33
100
AcDbEntity
  8
LC-002-100-D00-0
 62
     7
370
    50
100
AcDbLine
 10
102.752448
 20
131.983507
 30
0.0
 11
102.752448
 21
131.983507
 31
0.0
  0
LINE
  5
3E
330
33
100
AcDbEntity
  8
LC-002-100-D00-0
 62
     7
370
    50
100
AcDbLine
 10
102.752448
 20
131.983507
 30
0.0
 11
102.780977
 21
132.019051
 31
0.0
  0
LINE
  5
3F
330
33
100
AcDbEntity
  8
LC-002-100-D00-0
 62
     7
370
    50
100
AcDbLine
 10
102.780977
 20
132.019051
 30
0.0
 11
102.780977
 21
132.019051
 31
0.0
  0
LINE
  5
40
330
33
100
AcDbEntity
  8
LC-002-100-D00-0
 62
     7
370
    50
100
AcDbLine
 10
102.780977
 20
132.019051
 30
0.0
 11
102.793319
 21
132.034116
 31
0.0
  0
LINE
  5
41
330
33
100
AcDbEntity
  8
LC-002-100-D00-0
 62
     7
370
    50
100
AcDbLine
 10
102.793319
 20
132.034116
 30
0.0
 11
102.793319
 21
132.034116
 31
0.0
  0
LINE
  5
42
330
33
100
AcDbEntity
  8
LC-002-100-D00-0
 62
     7
370
    50
100
AcDbLine
 10
102.793319
 20
132.034116
 30
0.0
 11
102.803802
 21
132.046831
 31
0.0
  0
LINE
  5
43
330
33
100
AcDbEntity
  8
LC-002-100-D00-0
 62
     7
370
    50
100
AcDbLine
 10
102.803802
 20
132.046831
 30
0.0
 11
102.803802
 21
132.046831
 31
0.0
  0
LINE
  5
44
330
33
100
AcDbEntity
  8
LC-002-100-D00-0
 62
     7
370
    50
100
AcDbLine
 10
102.803802
 20
132.046831
 30
0.0
 11
102.817256
 21
132.062858
 31
0.0
  0
LINE
  5
45
330
33
100
AcDbEntity
  8
LC-002-100-D00-0
 62
     7
370
    50
100
AcDbLine
 10
102.817256
 20
132.062858
 30
0.0
 11
102.817256
 21
132.062858
 31
0.0
  0
LINE
  5
46
330
33
100
AcDbEntity
  8
LC-002-100-D00-0
 62
     7
370
    50
100
AcDbLine
 10
102.817256
 20
132.062858
 30
0.0
 11
102.83166
 21
132.079874
 31
0.0
  0
LINE
  5
47
330
33
100
AcDbEntity
  8
LC-002-100-D00-0
 62
     7
370
    50
100
AcDbLine
 10
102.83166
 20
132.079874
 30
0.0
 11
102.83166
 21
132.079874
 31
0.0
  0
LINE
  5
48
330
33
100
AcDbEntity
  8
LC-002-100-D00-0
 62
     7
370
    50
100
AcDbLine
 10
102.83166
 20
132.079874
 30
0.0
 11
102.84078
 21
132.09024
 31
0.0
  0
LINE
  5
49
330
33
100
AcDbEntity
  8
LC-002-100-D00-0
 62
     7
370
    50
100
AcDbLine
 10
102.84078
 20
132.09024
 30
0.0
 11
102.84078
 21
132.09024
 31
0.0
  0
LINE
  5
4A
330
33
100
AcDbEntity
  8
LC-002-100-D00-0
 62
     7
370
    50
100
AcDbLine
 10
102.84078
 20
132.09024
 30
0.0
 11
102.84659
 21
132.096844
 31
0.0
  0
ENDBLK
  5
35
330
33
100
AcDbEntity
  8
0
100
AcDbBlockEnd
  0
BLOCK
  5
85
330
84
100
AcDbEntity
  8
0
100
AcDbBlockBegin
  2
POLY2
 70
     0
 71
     0
 10
0.0
 20
0.0
 30
0.0
  3
POLY2
  1

  4
POLY2
  0
LINE
  5
87
330
84
100
AcDbEntity
  8
LC-002-100-D00-0
 62
     7
370
    50
100
AcDbLine
 10
107.610402
 20
133.178048
 30
0.0
 11
107.610402
 21
133.178048
 31
0.0
  0
LINE
  5
88
330
84
100
AcDbEntity
  8
LC-002-100-D00-0
 62
     7
370
    50
100
AcDbLine
 10
107.610402
 20
133.178048
 30
0.0
 11
107.615909
 21
133.121965
 31
0.0
  0
LINE
  5
89
330
84
100
AcDbEntity
  8
LC-002-100-D00-0
 62
     7
370
    50
100
AcDbLine
 10
107.615909
 20
133.121965
 30
0.0
 11
107.615909
 21
133.121965
 31
0.0
  0
LINE
  5
8A
330
84
100
AcDbEntity
  8
LC-002-100-D00-0
 62
     7
370
    50
100
AcDbLine
 10
107.615909
 20
133.121965
 30
0.0
 11
107.626922
 21
133.009789
 31
0.0
  0
LINE
  5
8B
330
84
100
AcDbEntity
  8
LC-002-100-D00-0
 62
     7
370
    50
100
AcDbLine
 10
107.626922
 20
133.009789
 30
0.0
 11
107.626922
 21
133.009789
 31
0.0
  0
LINE
  5
8C
330
84
100
AcDbEntity
  8
LC-002-100-D00-0
 62
     7
370
    50
100
AcDbLine
 10
107.626922
 20
133.009789
 30
0.0
 11
107.712475
 21
132.86069
 31
0.0
  0
LINE
  5
8D
330
84
100
AcDbEntity
  8
LC-002-100-D00-0
 62
     7
370
    50
100
AcDbLine
 10
107.712475
 20
132.86069
 30
0.0
 11
107.712475
 21
132.86069
 31
0.0
  0
LINE
  5
8E
330
84
100
AcDbEntity
  8
LC-002-100-D00-0
 62
     7
370
    50
100
AcDbLine
 10
107.712475
 20
132.86069
 30
0.0
 11
107.835517
 21
132.750258
 31
0.0
  0
LINE
  5
8F
330
84
100
AcDbEntity
  8
LC-002-100-D00-0
 62
     7
370
    50
100
AcDbLine
 10
107.835517
 20
132.750258
 30
0.0
 11
107.835517
 21
132.750258
 31
0.0
  0
LINE
  5
90
330
84
100
AcDbEntity
  8
LC-002-100-D00-0
 62
     7
370
    50
100
AcDbLine
 10
107.835517
 20
132.750258
 30
0.0
 11
107.977494
 21
132.687549
 31
0.0
  0
LINE
  5
91
330
84
100
AcDbEntity
  8
LC-002-100-D00-0
 62
     7
370
    50
100
AcDbLine
 10
107.977494
 20
132.687549
 30
0.0
 11
107.977494
 21
132.687549
 31
0.0
  0
LINE
  5
92
330
84
100
AcDbEntity
  8
LC-002-100-D00-0
 62
     7
370
    50
100
AcDbLine
 10
107.977494
 20
132.687549
 30
0.0
 11
108.067544
 21
132.681111
 31
0.0
  0
LINE
  5
93
330
84
100
AcDbEntity
  8
LC-002-100-D00-0
 62
     7
370
    50
100
AcDbLine
 10
108.067544
 20
132.681111
 30
0.0
 11
108.067544
 21
132.681111
 31
0.0
  0
LINE
  5
94
330
84
100
AcDbEntity
  8
LC-002-100-D00-0
 62
     7
370
    50
100
AcDbLine
 10
108.067544
 20
132.681111
 30
0.0
 11
108.110396
 21
132.678048
 31
0.0
  0
ENDBLK
  5
86
330
84
100
AcDbEntity
  8
0
100
AcDbBlockEnd
  0
BLOCK
  5
97
330
96
100
AcDbEntity
  8
0
100
AcDbBlockBegin
  2
POLY3
 70
     0
 71
     0
 10
0.0
 20
0.0
 30
0.0
  3
POLY3
  1

  4
POLY3
  0
LINE
  5
99
330
96
100
AcDbEntity
  8
LC-002-100-D00-0
 62
     7
370
    50
100
AcDbLine
 10
108.110396
 20
131.678048
 30
0.0
 11
108.110396
 21
131.678048
 31
0.0
  0
LINE
  5
9A
330
96
100
AcDbEntity
  8
LC-002-100-D00-0
 62
     7
370
    50
100
AcDbLine
 10
108.110396
 20
131.678048
 30
0.0
 11
108.021647
 21
131.681604
 31
0.0
  0
LINE
  5
9B
330
96
100
AcDbEntity
  8
LC-002-100-D00-0
 62
     7
370
    50
100
AcDbLine
 10
108.021647
 20
131.681604
 30
0.0
 11
108.021647
 21
131.681604
 31
0.0
  0
LINE
  5
9C
330
96
100
AcDbEntity
  8
LC-002-100-D00-0
 62
     7
370
    50
100
AcDbLine
 10
108.021647
 20
131.681604
 30
0.0
 11
107.859388
 21
131.688107
 31
0.0
  0
LINE
  5
9D
330
96
100
AcDbEntity
  8
LC-002-100-D00-0
 62
     7
370
    50
100
AcDbLine
 10
107.859388
 20
131.688107
 30
0.0
 11
107.859388
 21
131.688107
 31
0.0
  0
LINE
  5
9E
330
96
100
AcDbEntity
  8
LC-002-100-D00-0
 62
     7
370
    50
100
AcDbLine
 10
107.859388
 20
131.688107
 30
0.0
 11
107.688034
 21
131.740223
 31
0.0
  0
LINE
  5
9F
330
96
100
AcDbEntity
  8
LC-002-100-D00-0
 62
     7
370
    50
100
AcDbLine
 10
107.688034
 20
131.740223
 30
0.0
 11
107.688034
 21
131.740223
 31
0.0
  0
LINE
  5
A0
330
96
100
AcDbEntity
  8
LC-002-100-D00-0
 62
     7
370
    50
100
AcDbLine
 10
107.688034
 20
131.740223
 30
0.0
 11
107.610402
 21
131.763834
 31
0.0
  0
ENDBLK
  5
98
330
96
100
AcDbEntity
  8
0
100
AcDbBlockEnd
  0
BLOCK
  5
A7
330
A6
100
AcDbEntity
  8
0
100
AcDbBlockBegin
  2
POLY4
 70
     0
 71
     0
 10
0.0
 20
0.0
 30
0.0
  3
POLY4
  1

  4
POLY4
  0
LINE
  5
A9
330
A6
100
AcDbEntity
  8
LC-002-100-D00-0
 62
     7
370
    50
100
AcDbLine
 10
-40.889593
 20
132.678048
 30
0.0
 11
-40.889593
 21
132.678048
 31
0.0
  0
LINE
  5
AA
330
A6
100
AcDbEntity
  8
LC-002-100-D00-0
 62
     7
370
    50
100
AcDbLine
 10
-40.889593
 20
132.678048
 30
0.0
 11
-40.83994
 21
132.682122
 31
0.0
  0
LINE
  5
AB
330
A6
100
AcDbEntity
  8
LC-002-100-D00-0
 62
     7
370
    50
100
AcDbLine
 10
-40.83994
 20
132.682122
 30
0.0
 11
-40.83994
 21
132.682122
 31
0.0
  0
LINE
  5
AC
330
A6
100
AcDbEntity
  8
LC-002-100-D00-0
 62
     7
370
    50
100
AcDbLine
 10
-40.83994
 20
132.682122
 30
0.0
 11
-40.740468
 21
132.690283
 31
0.0
  0
LINE
  5
AD
330
A6
100
AcDbEntity
  8
LC-002-100-D00-0
 62
     7
370
    50
100
AcDbLine
 10
-40.740468
 20
132.690283
 30
0.0
 11
-40.740468
 21
132.690283
 31
0.0
  0
LINE
  5
AE
330
A6
100
AcDbEntity
  8
LC-002-100-D00-0
 62
     7
370
    50
100
AcDbLine
 10
-40.740468
 20
132.690283
 30
0.0
 11
-40.593905
 21
132.764278
 31
0.0
  0
LINE
  5
AF
330
A6
100
AcDbEntity
  8
LC-002-100-D00-0
 62
     7
370
    50
100
AcDbLine
 10
-40.593905
 20
132.764278
 30
0.0
 11
-40.593905
 21
132.764278
 31
0.0
  0
LINE
  5
B0
330
A6
100
AcDbEntity
  8
LC-002-100-D00-0
 62
     7
370
    50
100
AcDbLine
 10
-40.593905
 20
132.764278
 30
0.0
 11
-40.478954
 21
132.878889
 31
0.0
  0
LINE
  5
B1
330
A6
100
AcDbEntity
  8
LC-002-100-D00-0
 62
     7
370
    50
100
AcDbLine
 10
-40.478954
 20
132.878889
 30
0.0
 11
-40.478954
 21
132.878889
 31
0.0
  0
LINE
  5
B2
330
A6
100
AcDbEntity
  8
LC-002-100-D00-0
 62
     7
370
    50
100
AcDbLine
 10
-40.478954
 20
132.878889
 30
0.0
 11
-40.403722
 21
133.021465
 31
0.0
  0
LINE
  5
B3
330
A6
100
AcDbEntity
  8
LC-002-100-D00-0
 62
     7
370
    50
100
AcDbLine
 10
-40.403722
 20
133.021465
 30
0.0
 11
-40.403722
 21
133.021465
 31
0.0
  0
LINE
  5
B4
330
A6
100
AcDbEntity
  8
LC-002-100-D00-0
 62
     7
370
    50
100
AcDbLine
 10
-40.403722
 20
133.021465
 30
0.0
 11
-40.394252
 21
133.126471
 31
0.0
  0
LINE
  5
B5
330
A6
100
AcDbEntity
  8
LC-002-100-D00-0
 62
     7
370
    50
100
AcDbLine
 10
-40.394252
 20
133.126471
 30
0.0
 11
-40.394252
 21
133.126471
 31
0.0
  0
LINE
  5
B6
330
A6
100
AcDbEntity
  8
LC-002-100-D00-0
 62
     7
370
    50
100
AcDbLine
 10
-40.394252
 20
133.126471
 30
0.0
 11
-40.3896
 21
133.178048
 31
0.0
  0
ENDBLK
  5
A8
330
A6
100
AcDbEntity
  8
0
100
AcDbBlockEnd
  0
BLOCK
  5
B9
330
B8
100
AcDbEntity
  8
0
100
AcDbBlockBegin
  2
POLY5
 70
     0
 71
     0
 10
0.0
 20
0.0
 30
0.0
  3
POLY5
  1

  4
POLY5
  0
LINE
  5
BB
330
B8
100
AcDbEntity
  8
LC-002-100-D00-0
 62
     7
370
    50
100
AcDbLine
 10
-40.3896
 20
131.763834
 30
0.0
 11
-40.3896
 21
131.763834
 31
0.0
  0
LINE
  5
BC
330
B8
100
AcDbEntity
  8
LC-002-100-D00-0
 62
     7
370
    50
100
AcDbLine
 10
-40.3896
 20
131.763834
 30
0.0
 11
-40.483833
 21
131.736151
 31
0.0
  0
LINE
  5
BD
330
B8
100
AcDbEntity
  8
LC-002-100-D00-0
 62
     7
370
    50
100
AcDbLine
 10
-40.483833
 20
131.736151
 30
0.0
 11
-40.483833
 21
131.736151
 31
0.0
  0
LINE
  5
BE
330
B8
100
AcDbEntity
  8
LC-002-100-D00-0
 62
     7
370
    50
100
AcDbLine
 10
-40.483833
 20
131.736151
 30
0.0
 11
-40.656111
 21
131.685539
 31
0.0
  0
LINE
  5
BF
330
B8
100
AcDbEntity
  8
LC-002-100-D00-0
 62
     7
370
    50
100
AcDbLine
 10
-40.656111
 20
131.685539
 30
0.0
 11
-40.656111
 21
131.685539
 31
0.0
  0
LINE
  5
C0
330
B8
100
AcDbEntity
  8
LC-002-100-D00-0
 62
     7
370
    50
100
AcDbLine
 10
-40.656111
 20
131.685539
 30
0.0
 11
-40.816799
 21
131.680384
 31
0.0
  0
LINE
  5
C1
330
B8
100
AcDbEntity
  8
LC-002-100-D00-0
 62
     7
370
    50
100
AcDbLine
 10
-40.816799
 20
131.680384
 30
0.0
 11
-40.816799
 21
131.680384
 31
0.0
  0
LINE
  5
C2
330
B8
100
AcDbEntity
  8
LC-002-100-D00-0
 62
     7
370
    50
100
AcDbLine
 10
-40.816799
 20
131.680384
 30
0.0
 11
-40.889593
 21
131.678048
 31
0.0
  0
ENDBLK
  5
BA
330
B8
100
AcDbEntity
  8
0
100
AcDbBlockEnd
  0
BLOCK
  5
DF
330
DE
100
AcDbEntity
  8
0
100
AcDbBlockBegin
  2
KLON1
 70
     0
 71
     0
 10
0.0
 20
0.0
 30
0.0
  3
KLON1
  1

  4
KLON1
  0
LINE
  5
E1
330
DE
100
AcDbEntity
  8
LC-002-100-D00-0
 62
     7
370
    25
100
AcDbLine
 10
-22.639598
 20
87.765479
 30
0.0
 11
-20.139598
 21
90.265479
 31
0.0
  0
LINE
  5
E2
330
DE
100
AcDbEntity
  8
LC-002-100-D00-0
 62
     7
370
    25
100
AcDbLine
 10
-22.639598
 20
96.745735
 30
0.0
 11
-20.139598
 21
99.245735
 31
0.0
  0
LINE
  5
E3
330
DE
100
AcDbEntity
  8
LC-002-100-D00-0
 62
     7
370
    25
100
AcDbLine
 10
-22.639598
 20
105.725991
 30
0.0
 11
-20.139598
 21
108.225991
 31
0.0
  0
LINE
  5
E4
330
DE
100
AcDbEntity
  8
LC-002-100-D00-0
 62
     7
370
    25
100
AcDbLine
 10
-22.639598
 20
114.706248
 30
0.0
 11
-20.139598
 21
117.206248
 31
0.0
  0
LINE
  5
E5
330
DE
100
AcDbEntity
  8
LC-002-100-D00-0
 62
     7
370
    25
100
AcDbLine
 10
-22.639598
 20
123.686504
 30
0.0
 11
-20.639598
 21
125.686504
 31
0.0
  0
ENDBLK
  5
E0
330
DE
100
AcDbEntity
  8
0
100
AcDbBlockEnd
  0
BLOCK
  5
E8
330
E7
100
AcDbEntity
  8
0
100
AcDbBlockBegin
  2
KLON2
 70
     0
 71
     0
 10
0.0
 20
0.0
 30
0.0
  3
KLON2
  1

  4
KLON2
  0
LINE
  5
EA
330
E7
100
AcDbEntity
  8
LC-002-100-D00-0
 62
     7
370
    25
100
AcDbLine
 10
103.360402
 20
88.041894
 30
0.0
 11
105.860402
 21
90.541894
 31
0.0
  0
LINE
  5
EB
330
E7
100
AcDbEntity
  8
LC-002-100-D00-0
 62
     7
370
    25
100
AcDbLine
 10
103.360402
 20
97.02215
 30
0.0
 11
105.860402
 21
99.52215
 31
0.0
  0
LINE
  5
EC
330
E7
100
AcDbEntity
  8
LC-002-100-D00-0
 62
     7
370
    25
100
AcDbLine
 10
103.360402
 20
106.002406
 30
0.0
 11
105.860402
 21
108.502406
 31
0.0
  0
LINE
  5
ED
330
E7
100
AcDbEntity
  8
LC-002-100-D00-0
 62
     7
370
    25
100
AcDbLine
 10
103.360402
 20
114.982662
 30
0.0
 11
105.860402
 21
117.482662
 31
0.0
  0
LINE
  5
EE
330
E7
100
AcDbEntity
  8
LC-002-100-D00-0
 62
     7
370
    25
100
AcDbLine
 10
103.360402
 20
123.962918
 30
0.0
 11
103.475532
 21
124.078048
 31
0.0
  0
LINE
  5
EF
330
E7
100
AcDbEntity
  8
LC-002-100-D00-0
 62
     7
370
    25
100
AcDbLine
 10
103.860402
 20
124.462918
 30
0.0
 11
105.860402
 21
126.462918
 31
0.0
  0
ENDBLK
  5
E9
330
E7
100
AcDbEntity
  8
0
100
AcDbBlockEnd
  0
BLOCK
  5
F2
330
F1
100
AcDbEntity
  8
0
100
AcDbBlockBegin
  2
KLON3
 70
     0
 71
     0
 10
0.0
 20
0.0
 30
0.0
  3
KLON3
  1

  4
KLON3
  0
LINE
  5
F4
330
F1
100
AcDbEntity
  8
LC-002-100-D00-0
 62
     7
370
    25
100
AcDbLine
 10
103.110402
 20
132.693174
 30
0.0
 11
104.110402
 21
133.693174
 31
0.0
  0
LINE
  5
F5
330
F1
100
AcDbEntity
  8
LC-002-100-D00-0
 62
     7
370
    25
100
AcDbLine
 10
106.41552
 20
135.998292
 30
0.0
 11
107.132149
 21
136.71492
 31
0.0
  0
ENDBLK
  5
F3
330
F1
100
AcDbEntity
  8
0
100
AcDbBlockEnd
  0
BLOCK
  5
F8
330
F7
100
AcDbEntity
  8
0
100
AcDbBlockBegin
  2
KLON4
 70
     0
 71
     0
 10
0.0
 20
0.0
 30
0.0
  3
KLON4
  1

  4
KLON4
  0
LINE
  5
FA
330
F7
100
AcDbEntity
  8
LC-002-100-D00-0
 62
     7
370
    25
100
AcDbLine
 10
-20.321607
 20
126.004495
 30
0.0
 11
-18.889598
 21
127.436504
 31
0.0
  0
LINE
  5
FB
330
F7
100
AcDbEntity
  8
LC-002-100-D00-0
 62
     7
370
    25
100
AcDbLine
 10
-24.228309
 20
131.078048
 30
0.0
 11
-23.228309
 21
132.078048
 31
0.0
  0
LINE
  5
FC
330
F7
100
AcDbEntity
  8
LC-002-100-D00-0
 62
     7
370
    25
100
AcDbLine
 10
-33.208566
 20
131.078048
 30
0.0
 11
-32.208566
 21
132.078048
 31
0.0
  0
LINE
  5
FD
330
F7
100
AcDbEntity
  8
LC-002-100-D00-0
 62
     7
370
    25
100
AcDbLine
 10
-40.088822
 20
133.178048
 30
0.0
 11
-39.389598
 21
133.877272
 31
0.0
  0
LINE
  5
FE
330
F7
100
AcDbEntity
  8
LC-002-100-D00-0
 62
     7
370
    25
100
AcDbLine
 10
-37.161046
 20
136.105824
 30
0.0
 11
-36.45139
 21
136.81548
 31
0.0
  0
ENDBLK
  5
F9
330
F7
100
AcDbEntity
  8
0
100
AcDbBlockEnd
  0
BLOCK
  5
110
330
106
100
AcDbEntity
  8
0
100
AcDbBlockBegin
  2
*D10
 70
     1
 71
     0
 10
0.0
 20
0.0
 30
0.0
  3
*D10
  1

  0
LINE
  5
107
330
106
100
AcDbEntity
  8
LC-003-003-----0
 62
     2
370
    -2
100
AcDbLine
 10
-40.3896
 20
135.328048
 30
0.0
 11
-40.3896
 21
165.231511
 31
0.0
  0
LINE
  5
108
330
106
100
AcDbEntity
  8
LC-003-003-----0
 62
     2
370
    -2
100
AcDbLine
 10
107.610402
 20
135.328048
 30
0.0
 11
107.610402
 21
165.231511
 31
0.0
  0
LINE
  5
109
330
106
100
AcDbEntity
  8
LC-003-003-----0
 62
     2
370
    -2
100
AcDbLine
 10
-12.3896
 20
161.631511
 30
0.0
 11
79.610402
 21
161.631511
 31
0.0
  0
SOLID
  5
10A
330
106
100
AcDbEntity
  8
LC-003-003-----0
 62
     2
100
AcDbTrace
 10
-12.3896
 20
166.298177
 30
0.0
 11
-12.3896
 21
156.964844
 31
0.0
 12
-40.3896
 22
161.631511
 32
0.0
 13
-40.3896
 23
161.631511
 33
0.0
  0
SOLID
  5
10B
330
106
100
AcDbEntity
  8
LC-003-003-----0
 62
     2
100
AcDbTrace
 10
79.610402
 20
156.964844
 30
0.0
 11
79.610402
 21
166.298177
 31
0.0
 12
107.610402
 22
161.631511
 32
0.0
 13
107.610402
 23
161.631511
 33
0.0
  0
MTEXT
  5
10C
330
106
100
AcDbEntity
  8
LC-003-003-----0
 62
     2
100
AcDbMText
 10
35.131964
 20
192.431511
 30
0.0
 40
28.0
 41
0.0
 71
     5
 72
     1
  1
\A1;150
  7
LCTX15-400-0-0pDIN-Schrift
 73
     1
 44
1.0
  0
POINT
  5
10D
330
106
100
AcDbEntity
  8
Defpoints
 62
     0
100
AcDbPoint
 10
-40.3896
 20
135.328048
 30
0.0
  0
POINT
  5
10E
330
106
100
AcDbEntity
  8
Defpoints
 62
     0
100
AcDbPoint
 10
107.610402
 20
135.328048
 30
0.0
  0
POINT
  5
10F
330
106
100
AcDbEntity
  8
Defpoints
 62
     0
100
AcDbPoint
 10
107.610402
 20
161.631511
 30
0.0
  0
ENDBLK
  5
111
330
106
100
AcDbEntity
  8
0
100
AcDbBlockEnd
  0
BLOCK
  5
11D
330
113
100
AcDbEntity
  8
0
100
AcDbBlockBegin
  2
*D11
 70
     1
 71
     0
 10
0.0
 20
0.0
 30
0.0
  3
*D11
  1

  0
LINE
  5
114
330
113
100
AcDbEntity
  8
LC-003-003-----0
 62
     2
370
    -2
100
AcDbLine
 10
-22.639598
 20
87.765479
 30
0.0
 11
-22.639598
 21
28.52654
 31
0.0
  0
LINE
  5
115
330
113
100
AcDbEntity
  8
LC-003-003-----0
 62
     2
370
    -2
100
AcDbLine
 10
105.86041
 20
86.078048
 30
0.0
 11
105.86041
 21
28.52654
 31
0.0
  0
LINE
  5
116
330
113
100
AcDbEntity
  8
LC-003-003-----0
 62
     2
370
    -2
100
AcDbLine
 10
5.360402
 20
32.12654
 30
0.0
 11
77.86041
 21
32.12654
 31
0.0
  0
SOLID
  5
117
330
113
100
AcDbEntity
  8
LC-003-003-----0
 62
     2
100
AcDbTrace
 10
5.360402
 20
36.793206
 30
0.0
 11
5.360402
 21
27.459873
 31
0.0
 12
-22.639598
 22
32.12654
 32
0.0
 13
-22.639598
 23
32.12654
 33
0.0
  0
SOLID
  5
118
330
113
100
AcDbEntity
  8
LC-003-003-----0
 62
     2
100
AcDbTrace
 10
77.86041
 20
27.459873
 30
0.0
 11
77.86041
 21
36.793206
 31
0.0
 12
105.86041
 22
32.12654
 32
0.0
 13
105.86041
 23
32.12654
 33
0.0
  0
MTEXT
  5
119
330
113
100
AcDbEntity
  8
LC-003-003-----0
 62
     2
100
AcDbMText
 10
38.508696
 20
62.92654
 30
0.0
 40
28.0
 41
0.0
 71
     5
 72
     1
  1
%%c\A1;128,5
  7
LCTX15-400-0-0pDIN-Schrift
 73
     1
 44
1.0
  0
POINT
  5
11A
330
113
100
AcDbEntity
  8
Defpoints
 62
     0
100
AcDbPoint
 10
-22.639598
 20
87.765479
 30
0.0
  0
POINT
  5
11B
330
113
100
AcDbEntity
  8
Defpoints
 62
     0
100
AcDbPoint
 10
105.86041
 20
86.078048
 30
0.0
  0
POINT
  5
11C
330
113
100
AcDbEntity
  8
Defpoints
 62
     0
100
AcDbPoint
 10
105.86041
 20
32.12654
 30
0.0
  0
ENDBLK
  5
11E
330
113
100
AcDbEntity
  8
0
100
AcDbBlockEnd
  0
BLOCK
  5
12C
330
120
100
AcDbEntity
  8
0
100
AcDbBlockBegin
  2
*D12
 70
     1
 71
     0
 10
0.0
 20
0.0
 30
0.0
  3
*D12
  1

  0
LINE
  5
121
330
120
100
AcDbEntity
  8
LC-003-003-----0
 62
     2
370
    -2
100
AcDbLine
 10
105.360416
 20
137.578048
 30
0.0
 11
169.894182
 21
137.578048
 31
0.0
  0
LINE
  5
122
330
120
100
AcDbEntity
  8
LC-003-003-----0
 62
     2
370
    -2
100
AcDbLine
 10
105.86041
 20
86.078048
 30
0.0
 11
169.894182
 21
86.078048
 31
0.0
  0
LINE
  5
123
330
120
100
AcDbEntity
  8
LC-003-003-----0
 62
     2
370
    -2
100
AcDbLine
 10
166.294182
 20
165.578048
 30
0.0
 11
166.294182
 21
193.578048
 31
0.0
  0
LINE
  5
124
330
120
100
AcDbEntity
  8
LC-003-003-----0
 62
     2
370
    -2
100
AcDbLine
 10
166.294182
 20
58.078048
 30
0.0
 11
166.294182
 21
30.078048
 31
0.0
  0
LINE
  5
125
330
120
100
AcDbEntity
  8
LC-003-003-----0
 62
     2
370
    -2
100
AcDbLine
 10
166.294182
 20
137.578048
 30
0.0
 11
166.294182
 21
86.078048
 31
0.0
  0
SOLID
  5
126
330
120
100
AcDbEntity
  8
LC-003-003-----0
 62
     2
100
AcDbTrace
 10
161.627516
 20
165.578048
 30
0.0
 11
170.960849
 21
165.578048
 31
0.0
 12
166.294182
 22
137.578048
 32
0.0
 13
166.294182
 23
137.578048
 33
0.0
  0
SOLID
  5
127
330
120
100
AcDbEntity
  8
LC-003-003-----0
 62
     2
100
AcDbTrace
 10
170.960849
 20
58.078048
 30
0.0
 11
161.627516
 21
58.078048
 31
0.0
 12
166.294182
 22
86.078048
 32
0.0
 13
166.294182
 23
86.078048
 33
0.0
  0
MTEXT
  5
128
330
120
100
AcDbEntity
  8
LC-003-003-----0
 62
     2
100
AcDbMText
 10
135.494182
 20
119.44454
 30
0.0
 40
28.0
 41
0.0
 71
     5
 72
     1
  1
\A1;51,5
  7
LCTX15-400-0-0pDIN-Schrift
 11
6.123031769111886E-17
 21
1.0
 31
0.0
 73
     1
 44
1.0
  0
POINT
  5
129
330
120
100
AcDbEntity
  8
Defpoints
 62
     0
100
AcDbPoint
 10
105.360416
 20
137.578048
 30
0.0
  0
POINT
  5
12A
330
120
100
AcDbEntity
  8
Defpoints
 62
     0
100
AcDbPoint
 10
105.86041
 20
86.078048
 30
0.0
  0
POINT
  5
12B
330
120
100
AcDbEntity
  8
Defpoints
 62
     0
100
AcDbPoint
 10
166.294182
 20
86.078048
 30
0.0
  0
ENDBLK
  5
12D
330
120
100
AcDbEntity
  8
0
100
AcDbBlockEnd
  0
BLOCK
  5
13A
330
12F
100
AcDbEntity
  8
0
100
AcDbBlockBegin
  2
*D13
 70
     1
 71
     0
 10
0.0
 20
0.0
 30
0.0
  3
*D13
  1

  0
LINE
  5
130
330
12F
100
AcDbEntity
  8
LC-003-003-----0
 62
     2
370
    -2
100
AcDbLine
 10
-38.139599
 20
137.578048
 30
0.0
 11
-69.449451
 21
137.578048
 31
0.0
  0
LINE
  5
131
330
12F
100
AcDbEntity
  8
LC-003-003-----0
 62
     2
370
    -2
100
AcDbLine
 10
-41.389602
 20
131.678048
 30
0.0
 11
-69.449451
 21
131.678048
 31
0.0
  0
LINE
  5
132
330
12F
100
AcDbEntity
  8
LC-003-003-----0
 62
     2
370
    -2
100
AcDbLine
 10
-65.849451
 20
165.578048
 30
0.0
 11
-65.849451
 21
193.578048
 31
0.0
  0
LINE
  5
133
330
12F
100
AcDbEntity
  8
LC-003-003-----0
 62
     2
370
    -2
100
AcDbLine
 10
-65.849451
 20
103.678048
 30
0.0
 11
-65.849451
 21
113.244381
 31
0.0
  0
SOLID
  5
134
330
12F
100
AcDbEntity
  8
LC-003-003-----0
 62
     2
100
AcDbTrace
 10
-70.516118
 20
165.578048
 30
0.0
 11
-61.182785
 21
165.578048
 31
0.0
 12
-65.849451
 22
137.578048
 32
0.0
 13
-65.849451
 23
137.578048
 33
0.0
  0
SOLID
  5
135
330
12F
100
AcDbEntity
  8
LC-003-003-----0
 62
     2
100
AcDbTrace
 10
-61.182785
 20
103.678048
 30
0.0
 11
-70.516118
 21
103.678048
 31
0.0
 12
-65.849451
 22
131.678048
 32
0.0
 13
-65.849451
 23
131.678048
 33
0.0
  0
MTEXT
  5
136
330
12F
100
AcDbEntity
  8
LC-003-003-----0
 62
     2
100
AcDbMText
 10
-96.649451
 20
124.79054
 30
0.0
 40
28.0
 41
0.0
 71
     5
 72
     1
  1
\A1;6
  7
LCTX15-400-0-0pDIN-Schrift
 11
6.123031769111886E-17
 21
1.0
 31
0.0
 73
     1
 44
1.0
  0
POINT
  5
137
330
12F
100
AcDbEntity
  8
Defpoints
 62
     0
100
AcDbPoint
 10
-38.139599
 20
137.578048
 30
0.0
  0
POINT
  5
138
330
12F
100
AcDbEntity
  8
Defpoints
 62
     0
100
AcDbPoint
 10
-41.389602
 20
131.678048
 30
0.0
  0
POINT
  5
139
330
12F
100
AcDbEntity
  8
Defpoints
 62
     0
100
AcDbPoint
 10
-65.849451
 20
131.678048
 30
0.0
  0
ENDBLK
  5
13B
330
12F
100
AcDbEntity
  8
0
100
AcDbBlockEnd
  0
BLOCK
  5
157
330
156
100
AcDbEntity
  8
0
100
AcDbBlockBegin
  2
POLY6
 70
     0
 71
     0
 10
0.0
 20
0.0
 30
0.0
  3
POLY6
  1

  4
POLY6
  0
LINE
  5
159
330
156
100
AcDbEntity
  8
LC-002-100-D00-0
 62
     7
370
    50
100
AcDbLine
 10
205.86041
 20
159.85924
 30
0.0
 11
205.86041
 21
159.85924
 31
0.0
  0
LINE
  5
15A
330
156
100
AcDbEntity
  8
LC-002-100-D00-0
 62
     7
370
    50
100
AcDbLine
 10
205.86041
 20
159.85924
 30
0.0
 11
205.854912
 21
159.859311
 31
0.0
  0
LINE
  5
15B
330
156
100
AcDbEntity
  8
LC-002-100-D00-0
 62
     7
370
    50
100
AcDbLine
 10
205.854912
 20
159.859311
 30
0.0
 11
205.854912
 21
159.859311
 31
0.0
  0
LINE
  5
15C
330
156
100
AcDbEntity
  8
LC-002-100-D00-0
 62
     7
370
    50
100
AcDbLine
 10
205.854912
 20
159.859311
 30
0.0
 11
205.843916
 21
159.859454
 31
0.0
  0
LINE
  5
15D
330
156
100
AcDbEntity
  8
LC-002-100-D00-0
 62
     7
370
    50
100
AcDbLine
 10
205.843916
 20
159.859454
 30
0.0
 11
205.843916
 21
159.859454
 31
0.0
  0
LINE
  5
15E
330
156
100
AcDbEntity
  8
LC-002-100-D00-0
 62
     7
370
    50
100
AcDbLine
 10
205.843916
 20
159.859454
 30
0.0
 11
205.758314
 21
159.85603
 31
0.0
  0
LINE
  5
15F
330
156
100
AcDbEntity
  8
LC-002-100-D00-0
 62
     7
370
    50
100
AcDbLine
 10
205.758314
 20
159.85603
 30
0.0
 11
205.758314
 21
159.85603
 31
0.0
  0
LINE
  5
160
330
156
100
AcDbEntity
  8
LC-002-100-D00-0
 62
     7
370
    50
100
AcDbLine
 10
205.758314
 20
159.85603
 30
0.0
 11
205.635302
 21
159.836646
 31
0.0
  0
LINE
  5
161
330
156
100
AcDbEntity
  8
LC-002-100-D00-0
 62
     7
370
    50
100
AcDbLine
 10
205.635302
 20
159.836646
 30
0.0
 11
205.635302
 21
159.836646
 31
0.0
  0
LINE
  5
162
330
156
100
AcDbEntity
  8
LC-002-100-D00-0
 62
     7
370
    50
100
AcDbLine
 10
205.635302
 20
159.836646
 30
0.0
 11
205.493312
 21
159.794609
 31
0.0
  0
LINE
  5
163
330
156
100
AcDbEntity
  8
LC-002-100-D00-0
 62
     7
370
    50
100
AcDbLine
 10
205.493312
 20
159.794609
 30
0.0
 11
205.493312
 21
159.794609
 31
0.0
  0
LINE
  5
164
330
156
100
AcDbEntity
  8
LC-002-100-D00-0
 62
     7
370
    50
100
AcDbLine
 10
205.493312
 20
159.794609
 30
0.0
 11
205.40326
 21
159.747625
 31
0.0
  0
LINE
  5
165
330
156
100
AcDbEntity
  8
LC-002-100-D00-0
 62
     7
370
    50
100
AcDbLine
 10
205.40326
 20
159.747625
 30
0.0
 11
205.40326
 21
159.747625
 31
0.0
  0
LINE
  5
166
330
156
100
AcDbEntity
  8
LC-002-100-D00-0
 62
     7
370
    50
100
AcDbLine
 10
205.40326
 20
159.747625
 30
0.0
 11
205.360409
 21
159.725268
 31
0.0
  0
ENDBLK
  5
158
330
156
100
AcDbEntity
  8
0
100
AcDbBlockEnd
  0
BLOCK
  5
169
330
168
100
AcDbEntity
  8
0
100
AcDbBlockBegin
  2
POLY7
 70
     0
 71
     0
 10
0.0
 20
0.0
 30
0.0
  3
POLY7
  1

  4
POLY7
  0
LINE
  5
16B
330
168
100
AcDbEntity
  8
LC-002-100-D00-0
 62
     7
370
    50
100
AcDbLine
 10
205.360409
 20
144.993216
 30
0.0
 11
205.360409
 21
144.993216
 31
0.0
  0
LINE
  5
16C
330
168
100
AcDbEntity
  8
LC-002-100-D00-0
 62
     7
370
    50
100
AcDbLine
 10
205.360409
 20
144.993216
 30
0.0
 11
205.410068
 21
144.967733
 31
0.0
  0
LINE
  5
16D
330
168
100
AcDbEntity
  8
LC-002-100-D00-0
 62
     7
370
    50
100
AcDbLine
 10
205.410068
 20
144.967733
 30
0.0
 11
205.410068
 21
144.967733
 31
0.0
  0
LINE
  5
16E
330
168
100
AcDbEntity
  8
LC-002-100-D00-0
 62
     7
370
    50
100
AcDbLine
 10
205.410068
 20
144.967733
 30
0.0
 11
205.509545
 21
144.916684
 31
0.0
  0
LINE
  5
16F
330
168
100
AcDbEntity
  8
LC-002-100-D00-0
 62
     7
370
    50
100
AcDbLine
 10
205.509545
 20
144.916684
 30
0.0
 11
205.509545
 21
144.916684
 31
0.0
  0
LINE
  5
170
330
168
100
AcDbEntity
  8
LC-002-100-D00-0
 62
     7
370
    50
100
AcDbLine
 10
205.509545
 20
144.916684
 30
0.0
 11
205.656105
 21
144.877583
 31
0.0
  0
LINE
  5
171
330
168
100
AcDbEntity
  8
LC-002-100-D00-0
 62
     7
370
    50
100
AcDbLine
 10
205.656105
 20
144.877583
 30
0.0
 11
205.656105
 21
144.877583
 31
0.0
  0
LINE
  5
172
330
168
100
AcDbEntity
  8
LC-002-100-D00-0
 62
     7
370
    50
100
AcDbLine
 10
205.656105
 20
144.877583
 30
0.0
 11
205.771056
 21
144.861631
 31
0.0
  0
LINE
  5
173
330
168
100
AcDbEntity
  8
LC-002-100-D00-0
 62
     7
370
    50
100
AcDbLine
 10
205.771056
 20
144.861631
 30
0.0
 11
205.771056
 21
144.861631
 31
0.0
  0
LINE
  5
174
330
168
100
AcDbEntity
  8
LC-002-100-D00-0
 62
     7
370
    50
100
AcDbLine
 10
205.771056
 20
144.861631
 30
0.0
 11
205.846287
 21
144.859087
 31
0.0
  0
LINE
  5
175
330
168
100
AcDbEntity
  8
LC-002-100-D00-0
 62
     7
370
    50
100
AcDbLine
 10
205.846287
 20
144.859087
 30
0.0
 11
205.846287
 21
144.859087
 31
0.0
  0
LINE
  5
176
330
168
100
AcDbEntity
  8
LC-002-100-D00-0
 62
     7
370
    50
100
AcDbLine
 10
205.846287
 20
144.859087
 30
0.0
 11
205.855758
 21
144.85919
 31
0.0
  0
LINE
  5
177
330
168
100
AcDbEntity
  8
LC-002-100-D00-0
 62
     7
370
    50
100
AcDbLine
 10
205.855758
 20
144.85919
 30
0.0
 11
205.855758
 21
144.85919
 31
0.0
  0
LINE
  5
178
330
168
100
AcDbEntity
  8
LC-002-100-D00-0
 62
     7
370
    50
100
AcDbLine
 10
205.855758
 20
144.85919
 30
0.0
 11
205.86041
 21
144.85924
 31
0.0
  0
ENDBLK
  5
16A
330
168
100
AcDbEntity
  8
0
100
AcDbBlockEnd
  0
BLOCK
  5
17B
330
17A
100
AcDbEntity
  8
0
100
AcDbBlockBegin
  2
POLY8
 70
     0
 71
     0
 10
0.0
 20
0.0
 30
0.0
  3
POLY8
  1

  4
POLY8
  0
LINE
  5
17D
330
17A
100
AcDbEntity
  8
LC-002-100-D00-0
 62
     7
370
    50
100
AcDbLine
 10
247.360408
 20
186.359242
 30
0.0
 11
247.360408
 21
186.359242
 31
0.0
  0
LINE
  5
17E
330
17A
100
AcDbEntity
  8
LC-002-100-D00-0
 62
     7
370
    50
100
AcDbLine
 10
247.360408
 20
186.359242
 30
0.0
 11
247.360481
 21
186.36474
 31
0.0
  0
LINE
  5
17F
330
17A
100
AcDbEntity
  8
LC-002-100-D00-0
 62
     7
370
    50
100
AcDbLine
 10
247.360481
 20
186.36474
 30
0.0
 11
247.360481
 21
186.36474
 31
0.0
  0
LINE
  5
180
330
17A
100
AcDbEntity
  8
LC-002-100-D00-0
 62
     7
370
    50
100
AcDbLine
 10
247.360481
 20
186.36474
 30
0.0
 11
247.360628
 21
186.375736
 31
0.0
  0
LINE
  5
181
330
17A
100
AcDbEntity
  8
LC-002-100-D00-0
 62
     7
370
    50
100
AcDbLine
 10
247.360628
 20
186.375736
 30
0.0
 11
247.360628
 21
186.375736
 31
0.0
  0
LINE
  5
182
330
17A
100
AcDbEntity
  8
LC-002-100-D00-0
 62
     7
370
    50
100
AcDbLine
 10
247.360628
 20
186.375736
 30
0.0
 11
247.357195
 21
186.461337
 31
0.0
  0
LINE
  5
183
330
17A
100
AcDbEntity
  8
LC-002-100-D00-0
 62
     7
370
    50
100
AcDbLine
 10
247.357195
 20
186.461337
 30
0.0
 11
247.357195
 21
186.461337
 31
0.0
  0
LINE
  5
184
330
17A
100
AcDbEntity
  8
LC-002-100-D00-0
 62
     7
370
    50
100
AcDbLine
 10
247.357195
 20
186.461337
 30
0.0
 11
247.337821
 21
186.584351
 31
0.0
  0
LINE
  5
185
330
17A
100
AcDbEntity
  8
LC-002-100-D00-0
 62
     7
370
    50
100
AcDbLine
 10
247.337821
 20
186.584351
 30
0.0
 11
247.337821
 21
186.584351
 31
0.0
  0
LINE
  5
186
330
17A
100
AcDbEntity
  8
LC-002-100-D00-0
 62
     7
370
    50
100
AcDbLine
 10
247.337821
 20
186.584351
 30
0.0
 11
247.295775
 21
186.726339
 31
0.0
  0
LINE
  5
187
330
17A
100
AcDbEntity
  8
LC-002-100-D00-0
 62
     7
370
    50
100
AcDbLine
 10
247.295775
 20
186.726339
 30
0.0
 11
247.295775
 21
186.726339
 31
0.0
  0
LINE
  5
188
330
17A
100
AcDbEntity
  8
LC-002-100-D00-0
 62
     7
370
    50
100
AcDbLine
 10
247.295775
 20
186.726339
 30
0.0
 11
247.248792
 21
186.816392
 31
0.0
  0
LINE
  5
189
330
17A
100
AcDbEntity
  8
LC-002-100-D00-0
 62
     7
370
    50
100
AcDbLine
 10
247.248792
 20
186.816392
 30
0.0
 11
247.248792
 21
186.816392
 31
0.0
  0
LINE
  5
18A
330
17A
100
AcDbEntity
  8
LC-002-100-D00-0
 62
     7
370
    50
100
AcDbLine
 10
247.248792
 20
186.816392
 30
0.0
 11
247.226436
 21
186.859243
 31
0.0
  0
ENDBLK
  5
17C
330
17A
100
AcDbEntity
  8
0
100
AcDbBlockEnd
  0
BLOCK
  5
18D
330
18C
100
AcDbEntity
  8
0
100
AcDbBlockBegin
  2
POLY9
 70
     0
 71
     0
 10
0.0
 20
0.0
 30
0.0
  3
POLY9
  1

  4
POLY9
  0
LINE
  5
18F
330
18C
100
AcDbEntity
  8
LC-002-100-D00-0
 62
     7
370
    50
100
AcDbLine
 10
232.494384
 20
186.859243
 30
0.0
 11
232.494384
 21
186.859243
 31
0.0
  0
LINE
  5
190
330
18C
100
AcDbEntity
  8
LC-002-100-D00-0
 62
     7
370
    50
100
AcDbLine
 10
232.494384
 20
186.859243
 30
0.0
 11
232.4689
 21
186.809584
 31
0.0
  0
LINE
  5
191
330
18C
100
AcDbEntity
  8
LC-002-100-D00-0
 62
     7
370
    50
100
AcDbLine
 10
232.4689
 20
186.809584
 30
0.0
 11
232.4689
 21
186.809584
 31
0.0
  0
LINE
  5
192
330
18C
100
AcDbEntity
  8
LC-002-100-D00-0
 62
     7
370
    50
100
AcDbLine
 10
232.4689
 20
186.809584
 30
0.0
 11
232.417849
 21
186.710106
 31
0.0
  0
LINE
  5
193
330
18C
100
AcDbEntity
  8
LC-002-100-D00-0
 62
     7
370
    50
100
AcDbLine
 10
232.417849
 20
186.710106
 30
0.0
 11
232.417849
 21
186.710106
 31
0.0
  0
LINE
  5
194
330
18C
100
AcDbEntity
  8
LC-002-100-D00-0
 62
     7
370
    50
100
AcDbLine
 10
232.417849
 20
186.710106
 30
0.0
 11
232.378758
 21
186.56354
 31
0.0
  0
LINE
  5
195
330
18C
100
AcDbEntity
  8
LC-002-100-D00-0
 62
     7
370
    50
100
AcDbLine
 10
232.378758
 20
186.56354
 30
0.0
 11
232.378758
 21
186.56354
 31
0.0
  0
LINE
  5
196
330
18C
100
AcDbEntity
  8
LC-002-100-D00-0
 62
     7
370
    50
100
AcDbLine
 10
232.378758
 20
186.56354
 30
0.0
 11
232.362797
 21
186.448597
 31
0.0
  0
LINE
  5
197
330
18C
100
AcDbEntity
  8
LC-002-100-D00-0
 62
     7
370
    50
100
AcDbLine
 10
232.362797
 20
186.448597
 30
0.0
 11
232.362797
 21
186.448597
 31
0.0
  0
LINE
  5
198
330
18C
100
AcDbEntity
  8
LC-002-100-D00-0
 62
     7
370
    50
100
AcDbLine
 10
232.362797
 20
186.448597
 30
0.0
 11
232.360255
 21
186.373364
 31
0.0
  0
LINE
  5
199
330
18C
100
AcDbEntity
  8
LC-002-100-D00-0
 62
     7
370
    50
100
AcDbLine
 10
232.360255
 20
186.373364
 30
0.0
 11
232.360255
 21
186.373364
 31
0.0
  0
LINE
  5
19A
330
18C
100
AcDbEntity
  8
LC-002-100-D00-0
 62
     7
370
    50
100
AcDbLine
 10
232.360255
 20
186.373364
 30
0.0
 11
232.36036
 21
186.363894
 31
0.0
  0
LINE
  5
19B
330
18C
100
AcDbEntity
  8
LC-002-100-D00-0
 62
     7
370
    50
100
AcDbLine
 10
232.36036
 20
186.363894
 30
0.0
 11
232.36036
 21
186.363894
 31
0.0
  0
LINE
  5
19C
330
18C
100
AcDbEntity
  8
LC-002-100-D00-0
 62
     7
370
    50
100
AcDbLine
 10
232.36036
 20
186.363894
 30
0.0
 11
232.360411
 21
186.359242
 31
0.0
  0
ENDBLK
  5
18E
330
18C
100
AcDbEntity
  8
0
100
AcDbBlockEnd
  0
BLOCK
  5
19F
330
19E
100
AcDbEntity
  8
0
100
AcDbBlockBegin
  2
POLY10
 70
     0
 71
     0
 10
0.0
 20
0.0
 30
0.0
  3
POLY10
  1

  4
POLY10
  0
LINE
  5
1A1
330
19E
100
AcDbEntity
  8
LC-002-100-D00-0
 62
     7
370
    50
100
AcDbLine
 10
327.36041
 20
186.359242
 30
0.0
 11
327.36041
 21
186.359242
 31
0.0
  0
LINE
  5
1A2
330
19E
100
AcDbEntity
  8
LC-002-100-D00-0
 62
     7
370
    50
100
AcDbLine
 10
327.36041
 20
186.359242
 30
0.0
 11
327.360481
 21
186.36474
 31
0.0
  0
LINE
  5
1A3
330
19E
100
AcDbEntity
  8
LC-002-100-D00-0
 62
     7
370
    50
100
AcDbLine
 10
327.360481
 20
186.36474
 30
0.0
 11
327.360481
 21
186.36474
 31
0.0
  0
LINE
  5
1A4
330
19E
100
AcDbEntity
  8
LC-002-100-D00-0
 62
     7
370
    50
100
AcDbLine
 10
327.360481
 20
186.36474
 30
0.0
 11
327.360623
 21
186.375736
 31
0.0
  0
LINE
  5
1A5
330
19E
100
AcDbEntity
  8
LC-002-100-D00-0
 62
     7
370
    50
100
AcDbLine
 10
327.360623
 20
186.375736
 30
0.0
 11
327.360623
 21
186.375736
 31
0.0
  0
LINE
  5
1A6
330
19E
100
AcDbEntity
  8
LC-002-100-D00-0
 62
     7
370
    50
100
AcDbLine
 10
327.360623
 20
186.375736
 30
0.0
 11
327.3572
 21
186.461337
 31
0.0
  0
LINE
  5
1A7
330
19E
100
AcDbEntity
  8
LC-002-100-D00-0
 62
     7
370
    50
100
AcDbLine
 10
327.3572
 20
186.461337
 30
0.0
 11
327.3572
 21
186.461337
 31
0.0
  0
LINE
  5
1A8
330
19E
100
AcDbEntity
  8
LC-002-100-D00-0
 62
     7
370
    50
100
AcDbLine
 10
327.3572
 20
186.461337
 30
0.0
 11
327.337816
 21
186.58435
 31
0.0
  0
LINE
  5
1A9
330
19E
100
AcDbEntity
  8
LC-002-100-D00-0
 62
     7
370
    50
100
AcDbLine
 10
327.337816
 20
186.58435
 30
0.0
 11
327.337816
 21
186.58435
 31
0.0
  0
LINE
  5
1AA
330
19E
100
AcDbEntity
  8
LC-002-100-D00-0
 62
     7
370
    50
100
AcDbLine
 10
327.337816
 20
186.58435
 30
0.0
 11
327.295779
 21
186.726341
 31
0.0
  0
LINE
  5
1AB
330
19E
100
AcDbEntity
  8
LC-002-100-D00-0
 62
     7
370
    50
100
AcDbLine
 10
327.295779
 20
186.726341
 30
0.0
 11
327.295779
 21
186.726341
 31
0.0
  0
LINE
  5
1AC
330
19E
100
AcDbEntity
  8
LC-002-100-D00-0
 62
     7
370
    50
100
AcDbLine
 10
327.295779
 20
186.726341
 30
0.0
 11
327.248792
 21
186.816392
 31
0.0
  0
LINE
  5
1AD
330
19E
100
AcDbEntity
  8
LC-002-100-D00-0
 62
     7
370
    50
100
AcDbLine
 10
327.248792
 20
186.816392
 30
0.0
 11
327.248792
 21
186.816392
 31
0.0
  0
LINE
  5
1AE
330
19E
100
AcDbEntity
  8
LC-002-100-D00-0
 62
     7
370
    50
100
AcDbLine
 10
327.248792
 20
186.816392
 30
0.0
 11
327.226434
 21
186.859243
 31
0.0
  0
ENDBLK
  5
1A0
330
19E
100
AcDbEntity
  8
0
100
AcDbBlockEnd
  0
BLOCK
  5
1B1
330
1B0
100
AcDbEntity
  8
0
100
AcDbBlockBegin
  2
POLY11
 70
     0
 71
     0
 10
0.0
 20
0.0
 30
0.0
  3
POLY11
  1

  4
POLY11
  0
LINE
  5
1B3
330
1B0
100
AcDbEntity
  8
LC-002-100-D00-0
 62
     7
370
    50
100
AcDbLine
 10
312.494386
 20
186.859243
 30
0.0
 11
312.494386
 21
186.859243
 31
0.0
  0
LINE
  5
1B4
330
1B0
100
AcDbEntity
  8
LC-002-100-D00-0
 62
     7
370
    50
100
AcDbLine
 10
312.494386
 20
186.859243
 30
0.0
 11
312.4689
 21
186.809584
 31
0.0
  0
LINE
  5
1B5
330
1B0
100
AcDbEntity
  8
LC-002-100-D00-0
 62
     7
370
    50
100
AcDbLine
 10
312.4689
 20
186.809584
 30
0.0
 11
312.4689
 21
186.809584
 31
0.0
  0
LINE
  5
1B6
330
1B0
100
AcDbEntity
  8
LC-002-100-D00-0
 62
     7
370
    50
100
AcDbLine
 10
312.4689
 20
186.809584
 30
0.0
 11
312.417846
 21
186.710107
 31
0.0
  0
LINE
  5
1B7
330
1B0
100
AcDbEntity
  8
LC-002-100-D00-0
 62
     7
370
    50
100
AcDbLine
 10
312.417846
 20
186.710107
 30
0.0
 11
312.417846
 21
186.710107
 31
0.0
  0
LINE
  5
1B8
330
1B0
100
AcDbEntity
  8
LC-002-100-D00-0
 62
     7
370
    50
100
AcDbLine
 10
312.417846
 20
186.710107
 30
0.0
 11
312.378757
 21
186.56354
 31
0.0
  0
LINE
  5
1B9
330
1B0
100
AcDbEntity
  8
LC-002-100-D00-0
 62
     7
370
    50
100
AcDbLine
 10
312.378757
 20
186.56354
 30
0.0
 11
312.378757
 21
186.56354
 31
0.0
  0
LINE
  5
1BA
330
1B0
100
AcDbEntity
  8
LC-002-100-D00-0
 62
     7
370
    50
100
AcDbLine
 10
312.378757
 20
186.56354
 30
0.0
 11
312.362794
 21
186.448597
 31
0.0
  0
LINE
  5
1BB
330
1B0
100
AcDbEntity
  8
LC-002-100-D00-0
 62
     7
370
    50
100
AcDbLine
 10
312.362794
 20
186.448597
 30
0.0
 11
312.362794
 21
186.448597
 31
0.0
  0
LINE
  5
1BC
330
1B0
100
AcDbEntity
  8
LC-002-100-D00-0
 62
     7
370
    50
100
AcDbLine
 10
312.362794
 20
186.448597
 30
0.0
 11
312.360259
 21
186.373364
 31
0.0
  0
LINE
  5
1BD
330
1B0
100
AcDbEntity
  8
LC-002-100-D00-0
 62
     7
370
    50
100
AcDbLine
 10
312.360259
 20
186.373364
 30
0.0
 11
312.360259
 21
186.373364
 31
0.0
  0
LINE
  5
1BE
330
1B0
100
AcDbEntity
  8
LC-002-100-D00-0
 62
     7
370
    50
100
AcDbLine
 10
312.360259
 20
186.373364
 30
0.0
 11
312.36036
 21
186.363894
 31
0.0
  0
LINE
  5
1BF
330
1B0
100
AcDbEntity
  8
LC-002-100-D00-0
 62
     7
370
    50
100
AcDbLine
 10
312.36036
 20
186.363894
 30
0.0
 11
312.36036
 21
186.363894
 31
0.0
  0
LINE
  5
1C0
330
1B0
100
AcDbEntity
  8
LC-002-100-D00-0
 62
     7
370
    50
100
AcDbLine
 10
312.36036
 20
186.363894
 30
0.0
 11
312.360409
 21
186.359242
 31
0.0
  0
ENDBLK
  5
1B2
330
1B0
100
AcDbEntity
  8
0
100
AcDbBlockEnd
  0
BLOCK
  5
1C3
330
1C2
100
AcDbEntity
  8
0
100
AcDbBlockBegin
  2
POLY12
 70
     0
 71
     0
 10
0.0
 20
0.0
 30
0.0
  3
POLY12
  1

  4
POLY12
  0
LINE
  5
1C5
330
1C2
100
AcDbEntity
  8
LC-002-100-D00-0
 62
     7
370
    50
100
AcDbLine
 10
354.360413
 20
159.725268
 30
0.0
 11
354.360413
 21
159.725268
 31
0.0
  0
LINE
  5
1C6
330
1C2
100
AcDbEntity
  8
LC-002-100-D00-0
 62
     7
370
    50
100
AcDbLine
 10
354.360413
 20
159.725268
 30
0.0
 11
354.310754
 21
159.750752
 31
0.0
  0
LINE
  5
1C7
330
1C2
100
AcDbEntity
  8
LC-002-100-D00-0
 62
     7
370
    50
100
AcDbLine
 10
354.310754
 20
159.750752
 30
0.0
 11
354.310754
 21
159.750752
 31
0.0
  0
LINE
  5
1C8
330
1C2
100
AcDbEntity
  8
LC-002-100-D00-0
 62
     7
370
    50
100
AcDbLine
 10
354.310754
 20
159.750752
 30
0.0
 11
354.211276
 21
159.801803
 31
0.0
  0
LINE
  5
1C9
330
1C2
100
AcDbEntity
  8
LC-002-100-D00-0
 62
     7
370
    50
100
AcDbLine
 10
354.211276
 20
159.801803
 30
0.0
 11
354.211276
 21
159.801803
 31
0.0
  0
LINE
  5
1CA
330
1C2
100
AcDbEntity
  8
LC-002-100-D00-0
 62
     7
370
    50
100
AcDbLine
 10
354.211276
 20
159.801803
 30
0.0
 11
354.064709
 21
159.840893
 31
0.0
  0
LINE
  5
1CB
330
1C2
100
AcDbEntity
  8
LC-002-100-D00-0
 62
     7
370
    50
100
AcDbLine
 10
354.064709
 20
159.840893
 30
0.0
 11
354.064709
 21
159.840893
 31
0.0
  0
LINE
  5
1CC
330
1C2
100
AcDbEntity
  8
LC-002-100-D00-0
 62
     7
370
    50
100
AcDbLine
 10
354.064709
 20
159.840893
 30
0.0
 11
353.949766
 21
159.856856
 31
0.0
  0
LINE
  5
1CD
330
1C2
100
AcDbEntity
  8
LC-002-100-D00-0
 62
     7
370
    50
100
AcDbLine
 10
353.949766
 20
159.856856
 30
0.0
 11
353.949766
 21
159.856856
 31
0.0
  0
LINE
  5
1CE
330
1C2
100
AcDbEntity
  8
LC-002-100-D00-0
 62
     7
370
    50
100
AcDbLine
 10
353.949766
 20
159.856856
 30
0.0
 11
353.874534
 21
159.859391
 31
0.0
  0
LINE
  5
1CF
330
1C2
100
AcDbEntity
  8
LC-002-100-D00-0
 62
     7
370
    50
100
AcDbLine
 10
353.874534
 20
159.859391
 30
0.0
 11
353.874534
 21
159.859391
 31
0.0
  0
LINE
  5
1D0
330
1C2
100
AcDbEntity
  8
LC-002-100-D00-0
 62
     7
370
    50
100
AcDbLine
 10
353.874534
 20
159.859391
 30
0.0
 11
353.865063
 21
159.85929
 31
0.0
  0
LINE
  5
1D1
330
1C2
100
AcDbEntity
  8
LC-002-100-D00-0
 62
     7
370
    50
100
AcDbLine
 10
353.865063
 20
159.85929
 30
0.0
 11
353.865063
 21
159.85929
 31
0.0
  0
LINE
  5
1D2
330
1C2
100
AcDbEntity
  8
LC-002-100-D00-0
 62
     7
370
    50
100
AcDbLine
 10
353.865063
 20
159.85929
 30
0.0
 11
353.860412
 21
159.85924
 31
0.0
  0
ENDBLK
  5
1C4
330
1C2
100
AcDbEntity
  8
0
100
AcDbBlockEnd
  0
BLOCK
  5
1D5
330
1D4
100
AcDbEntity
  8
0
100
AcDbBlockBegin
  2
POLY13
 70
     0
 71
     0
 10
0.0
 20
0.0
 30
0.0
  3
POLY13
  1

  4
POLY13
  0
LINE
  5
1D7
330
1D4
100
AcDbEntity
  8
LC-002-100-D00-0
 62
     7
370
    50
100
AcDbLine
 10
353.860412
 20
144.85924
 30
0.0
 11
353.860412
 21
144.85924
 31
0.0
  0
LINE
  5
1D8
330
1D4
100
AcDbEntity
  8
LC-002-100-D00-0
 62
     7
370
    50
100
AcDbLine
 10
353.860412
 20
144.85924
 30
0.0
 11
353.865909
 21
144.859168
 31
0.0
  0
LINE
  5
1D9
330
1D4
100
AcDbEntity
  8
LC-002-100-D00-0
 62
     7
370
    50
100
AcDbLine
 10
353.865909
 20
144.859168
 30
0.0
 11
353.865909
 21
144.859168
 31
0.0
  0
LINE
  5
1DA
330
1D4
100
AcDbEntity
  8
LC-002-100-D00-0
 62
     7
370
    50
100
AcDbLine
 10
353.865909
 20
144.859168
 30
0.0
 11
353.876906
 21
144.859025
 31
0.0
  0
LINE
  5
1DB
330
1D4
100
AcDbEntity
  8
LC-002-100-D00-0
 62
     7
370
    50
100
AcDbLine
 10
353.876906
 20
144.859025
 30
0.0
 11
353.876906
 21
144.859025
 31
0.0
  0
LINE
  5
1DC
330
1D4
100
AcDbEntity
  8
LC-002-100-D00-0
 62
     7
370
    50
100
AcDbLine
 10
353.876906
 20
144.859025
 30
0.0
 11
353.962507
 21
144.862457
 31
0.0
  0
LINE
  5
1DD
330
1D4
100
AcDbEntity
  8
LC-002-100-D00-0
 62
     7
370
    50
100
AcDbLine
 10
353.962507
 20
144.862457
 30
0.0
 11
353.962507
 21
144.862457
 31
0.0
  0
LINE
  5
1DE
330
1D4
100
AcDbEntity
  8
LC-002-100-D00-0
 62
     7
370
    50
100
AcDbLine
 10
353.962507
 20
144.862457
 30
0.0
 11
354.085521
 21
144.881831
 31
0.0
  0
LINE
  5
1DF
330
1D4
100
AcDbEntity
  8
LC-002-100-D00-0
 62
     7
370
    50
100
AcDbLine
 10
354.085521
 20
144.881831
 30
0.0
 11
354.085521
 21
144.881831
 31
0.0
  0
LINE
  5
1E0
330
1D4
100
AcDbEntity
  8
LC-002-100-D00-0
 62
     7
370
    50
100
AcDbLine
 10
354.085521
 20
144.881831
 30
0.0
 11
354.227509
 21
144.923876
 31
0.0
  0
LINE
  5
1E1
330
1D4
100
AcDbEntity
  8
LC-002-100-D00-0
 62
     7
370
    50
100
AcDbLine
 10
354.227509
 20
144.923876
 30
0.0
 11
354.227509
 21
144.923876
 31
0.0
  0
LINE
  5
1E2
330
1D4
100
AcDbEntity
  8
LC-002-100-D00-0
 62
     7
370
    50
100
AcDbLine
 10
354.227509
 20
144.923876
 30
0.0
 11
354.317561
 21
144.970859
 31
0.0
  0
LINE
  5
1E3
330
1D4
100
AcDbEntity
  8
LC-002-100-D00-0
 62
     7
370
    50
100
AcDbLine
 10
354.317561
 20
144.970859
 30
0.0
 11
354.317561
 21
144.970859
 31
0.0
  0
LINE
  5
1E4
330
1D4
100
AcDbEntity
  8
LC-002-100-D00-0
 62
     7
370
    50
100
AcDbLine
 10
354.317561
 20
144.970859
 30
0.0
 11
354.360413
 21
144.993216
 31
0.0
  0
ENDBLK
  5
1D6
330
1D4
100
AcDbEntity
  8
0
100
AcDbBlockEnd
  0
BLOCK
  5
1E7
330
1E6
100
AcDbEntity
  8
0
100
AcDbBlockBegin
  2
POLY14
 70
     0
 71
     0
 10
0.0
 20
0.0
 30
0.0
  3
POLY14
  1

  4
POLY14
  0
LINE
  5
1E9
330
1E6
100
AcDbEntity
  8
LC-002-100-D00-0
 62
     7
370
    50
100
AcDbLine
 10
205.86041
 20
79.859242
 30
0.0
 11
205.86041
 21
79.859242
 31
0.0
  0
LINE
  5
1EA
330
1E6
100
AcDbEntity
  8
LC-002-100-D00-0
 62
     7
370
    50
100
AcDbLine
 10
205.86041
 20
79.859242
 30
0.0
 11
205.854912
 21
79.859314
 31
0.0
  0
LINE
  5
1EB
330
1E6
100
AcDbEntity
  8
LC-002-100-D00-0
 62
     7
370
    50
100
AcDbLine
 10
205.854912
 20
79.859314
 30
0.0
 11
205.854912
 21
79.859314
 31
0.0
  0
LINE
  5
1EC
330
1E6
100
AcDbEntity
  8
LC-002-100-D00-0
 62
     7
370
    50
100
AcDbLine
 10
205.854912
 20
79.859314
 30
0.0
 11
205.843915
 21
79.859457
 31
0.0
  0
LINE
  5
1ED
330
1E6
100
AcDbEntity
  8
LC-002-100-D00-0
 62
     7
370
    50
100
AcDbLine
 10
205.843915
 20
79.859457
 30
0.0
 11
205.843915
 21
79.859457
 31
0.0
  0
LINE
  5
1EE
330
1E6
100
AcDbEntity
  8
LC-002-100-D00-0
 62
     7
370
    50
100
AcDbLine
 10
205.843915
 20
79.859457
 30
0.0
 11
205.758315
 21
79.856025
 31
0.0
  0
LINE
  5
1EF
330
1E6
100
AcDbEntity
  8
LC-002-100-D00-0
 62
     7
370
    50
100
AcDbLine
 10
205.758315
 20
79.856025
 30
0.0
 11
205.758315
 21
79.856025
 31
0.0
  0
LINE
  5
1F0
330
1E6
100
AcDbEntity
  8
LC-002-100-D00-0
 62
     7
370
    50
100
AcDbLine
 10
205.758315
 20
79.856025
 30
0.0
 11
205.635301
 21
79.836651
 31
0.0
  0
LINE
  5
1F1
330
1E6
100
AcDbEntity
  8
LC-002-100-D00-0
 62
     7
370
    50
100
AcDbLine
 10
205.635301
 20
79.836651
 30
0.0
 11
205.635301
 21
79.836651
 31
0.0
  0
LINE
  5
1F2
330
1E6
100
AcDbEntity
  8
LC-002-100-D00-0
 62
     7
370
    50
100
AcDbLine
 10
205.635301
 20
79.836651
 30
0.0
 11
205.493312
 21
79.794606
 31
0.0
  0
LINE
  5
1F3
330
1E6
100
AcDbEntity
  8
LC-002-100-D00-0
 62
     7
370
    50
100
AcDbLine
 10
205.493312
 20
79.794606
 30
0.0
 11
205.493312
 21
79.794606
 31
0.0
  0
LINE
  5
1F4
330
1E6
100
AcDbEntity
  8
LC-002-100-D00-0
 62
     7
370
    50
100
AcDbLine
 10
205.493312
 20
79.794606
 30
0.0
 11
205.40326
 21
79.747623
 31
0.0
  0
LINE
  5
1F5
330
1E6
100
AcDbEntity
  8
LC-002-100-D00-0
 62
     7
370
    50
100
AcDbLine
 10
205.40326
 20
79.747623
 30
0.0
 11
205.40326
 21
79.747623
 31
0.0
  0
LINE
  5
1F6
330
1E6
100
AcDbEntity
  8
LC-002-100-D00-0
 62
     7
370
    50
100
AcDbLine
 10
205.40326
 20
79.747623
 30
0.0
 11
205.360409
 21
79.725266
 31
0.0
  0
ENDBLK
  5
1E8
330
1E6
100
AcDbEntity
  8
0
100
AcDbBlockEnd
  0
BLOCK
  5
1F9
330
1F8
100
AcDbEntity
  8
0
100
AcDbBlockBegin
  2
POLY15
 70
     0
 71
     0
 10
0.0
 20
0.0
 30
0.0
  3
POLY15
  1

  4
POLY15
  0
LINE
  5
1FB
330
1F8
100
AcDbEntity
  8
LC-002-100-D00-0
 62
     7
370
    50
100
AcDbLine
 10
205.360409
 20
64.993214
 30
0.0
 11
205.360409
 21
64.993214
 31
0.0
  0
LINE
  5
1FC
330
1F8
100
AcDbEntity
  8
LC-002-100-D00-0
 62
     7
370
    50
100
AcDbLine
 10
205.360409
 20
64.993214
 30
0.0
 11
205.410068
 21
64.96773
 31
0.0
  0
LINE
  5
1FD
330
1F8
100
AcDbEntity
  8
LC-002-100-D00-0
 62
     7
370
    50
100
AcDbLine
 10
205.410068
 20
64.96773
 30
0.0
 11
205.410068
 21
64.96773
 31
0.0
  0
LINE
  5
1FE
330
1F8
100
AcDbEntity
  8
LC-002-100-D00-0
 62
     7
370
    50
100
AcDbLine
 10
205.410068
 20
64.96773
 30
0.0
 11
205.509544
 21
64.916681
 31
0.0
  0
LINE
  5
1FF
330
1F8
100
AcDbEntity
  8
LC-002-100-D00-0
 62
     7
370
    50
100
AcDbLine
 10
205.509544
 20
64.916681
 30
0.0
 11
205.509544
 21
64.916681
 31
0.0
  0
LINE
  5
200
330
1F8
100
AcDbEntity
  8
LC-002-100-D00-0
 62
     7
370
    50
100
AcDbLine
 10
205.509544
 20
64.916681
 30
0.0
 11
205.656106
 21
64.877588
 31
0.0
  0
LINE
  5
201
330
1F8
100
AcDbEntity
  8
LC-002-100-D00-0
 62
     7
370
    50
100
AcDbLine
 10
205.656106
 20
64.877588
 30
0.0
 11
205.656106
 21
64.877588
 31
0.0
  0
LINE
  5
202
330
1F8
100
AcDbEntity
  8
LC-002-100-D00-0
 62
     7
370
    50
100
AcDbLine
 10
205.656106
 20
64.877588
 30
0.0
 11
205.771056
 21
64.861627
 31
0.0
  0
LINE
  5
203
330
1F8
100
AcDbEntity
  8
LC-002-100-D00-0
 62
     7
370
    50
100
AcDbLine
 10
205.771056
 20
64.861627
 30
0.0
 11
205.771056
 21
64.861627
 31
0.0
  0
LINE
  5
204
330
1F8
100
AcDbEntity
  8
LC-002-100-D00-0
 62
     7
370
    50
100
AcDbLine
 10
205.771056
 20
64.861627
 30
0.0
 11
205.846287
 21
64.859091
 31
0.0
  0
LINE
  5
205
330
1F8
100
AcDbEntity
  8
LC-002-100-D00-0
 62
     7
370
    50
100
AcDbLine
 10
205.846287
 20
64.859091
 30
0.0
 11
205.846287
 21
64.859091
 31
0.0
  0
LINE
  5
206
330
1F8
100
AcDbEntity
  8
LC-002-100-D00-0
 62
     7
370
    50
100
AcDbLine
 10
205.846287
 20
64.859091
 30
0.0
 11
205.855758
 21
64.859192
 31
0.0
  0
LINE
  5
207
330
1F8
100
AcDbEntity
  8
LC-002-100-D00-0
 62
     7
370
    50
100
AcDbLine
 10
205.855758
 20
64.859192
 30
0.0
 11
205.855758
 21
64.859192
 31
0.0
  0
LINE
  5
208
330
1F8
100
AcDbEntity
  8
LC-002-100-D00-0
 62
     7
370
    50
100
AcDbLine
 10
205.855758
 20
64.859192
 30
0.0
 11
205.86041
 21
64.859242
 31
0.0
  0
ENDBLK
  5
1FA
330
1F8
100
AcDbEntity
  8
0
100
AcDbBlockEnd
  0
BLOCK
  5
20B
330
20A
100
AcDbEntity
  8
0
100
AcDbBlockBegin
  2
POLY16
 70
     0
 71
     0
 10
0.0
 20
0.0
 30
0.0
  3
POLY16
  1

  4
POLY16
  0
LINE
  5
20D
330
20A
100
AcDbEntity
  8
LC-002-100-D00-0
 62
     7
370
    50
100
AcDbLine
 10
353.860412
 20
64.859242
 30
0.0
 11
353.860412
 21
64.859242
 31
0.0
  0
LINE
  5
20E
330
20A
100
AcDbEntity
  8
LC-002-100-D00-0
 62
     7
370
    50
100
AcDbLine
 10
353.860412
 20
64.859242
 30
0.0
 11
353.865909
 21
64.859171
 31
0.0
  0
LINE
  5
20F
330
20A
100
AcDbEntity
  8
LC-002-100-D00-0
 62
     7
370
    50
100
AcDbLine
 10
353.865909
 20
64.859171
 30
0.0
 11
353.865909
 21
64.859171
 31
0.0
  0
LINE
  5
210
330
20A
100
AcDbEntity
  8
LC-002-100-D00-0
 62
     7
370
    50
100
AcDbLine
 10
353.865909
 20
64.859171
 30
0.0
 11
353.876906
 21
64.859028
 31
0.0
  0
LINE
  5
211
330
20A
100
AcDbEntity
  8
LC-002-100-D00-0
 62
     7
370
    50
100
AcDbLine
 10
353.876906
 20
64.859028
 30
0.0
 11
353.876906
 21
64.859028
 31
0.0
  0
LINE
  5
212
330
20A
100
AcDbEntity
  8
LC-002-100-D00-0
 62
     7
370
    50
100
AcDbLine
 10
353.876906
 20
64.859028
 30
0.0
 11
353.962507
 21
64.862452
 31
0.0
  0
LINE
  5
213
330
20A
100
AcDbEntity
  8
LC-002-100-D00-0
 62
     7
370
    50
100
AcDbLine
 10
353.962507
 20
64.862452
 30
0.0
 11
353.962507
 21
64.862452
 31
0.0
  0
LINE
  5
214
330
20A
100
AcDbEntity
  8
LC-002-100-D00-0
 62
     7
370
    50
100
AcDbLine
 10
353.962507
 20
64.862452
 30
0.0
 11
354.08552
 21
64.881836
 31
0.0
  0
LINE
  5
215
330
20A
100
AcDbEntity
  8
LC-002-100-D00-0
 62
     7
370
    50
100
AcDbLine
 10
354.08552
 20
64.881836
 30
0.0
 11
354.08552
 21
64.881836
 31
0.0
  0
LINE
  5
216
330
20A
100
AcDbEntity
  8
LC-002-100-D00-0
 62
     7
370
    50
100
AcDbLine
 10
354.08552
 20
64.881836
 30
0.0
 11
354.22751
 21
64.923873
 31
0.0
  0
LINE
  5
217
330
20A
100
AcDbEntity
  8
LC-002-100-D00-0
 62
     7
370
    50
100
AcDbLine
 10
354.22751
 20
64.923873
 30
0.0
 11
354.22751
 21
64.923873
 31
0.0
  0
LINE
  5
218
330
20A
100
AcDbEntity
  8
LC-002-100-D00-0
 62
     7
370
    50
100
AcDbLine
 10
354.22751
 20
64.923873
 30
0.0
 11
354.317561
 21
64.970857
 31
0.0
  0
LINE
  5
219
330
20A
100
AcDbEntity
  8
LC-002-100-D00-0
 62
     7
370
    50
100
AcDbLine
 10
354.317561
 20
64.970857
 30
0.0
 11
354.317561
 21
64.970857
 31
0.0
  0
LINE
  5
21A
330
20A
100
AcDbEntity
  8
LC-002-100-D00-0
 62
     7
370
    50
100
AcDbLine
 10
354.317561
 20
64.970857
 30
0.0
 11
354.360413
 21
64.993214
 31
0.0
  0
ENDBLK
  5
20C
330
20A
100
AcDbEntity
  8
0
100
AcDbBlockEnd
  0
BLOCK
  5
21D
330
21C
100
AcDbEntity
  8
0
100
AcDbBlockBegin
  2
POLY17
 70
     0
 71
     0
 10
0.0
 20
0.0
 30
0.0
  3
POLY17
  1

  4
POLY17
  0
LINE
  5
21F
330
21C
100
AcDbEntity
  8
LC-002-100-D00-0
 62
     7
370
    50
100
AcDbLine
 10
354.360413
 20
79.725266
 30
0.0
 11
354.360413
 21
79.725266
 31
0.0
  0
LINE
  5
220
330
21C
100
AcDbEntity
  8
LC-002-100-D00-0
 62
     7
370
    50
100
AcDbLine
 10
354.360413
 20
79.725266
 30
0.0
 11
354.310754
 21
79.75075
 31
0.0
  0
LINE
  5
221
330
21C
100
AcDbEntity
  8
LC-002-100-D00-0
 62
     7
370
    50
100
AcDbLine
 10
354.310754
 20
79.75075
 30
0.0
 11
354.310754
 21
79.75075
 31
0.0
  0
LINE
  5
222
330
21C
100
AcDbEntity
  8
LC-002-100-D00-0
 62
     7
370
    50
100
AcDbLine
 10
354.310754
 20
79.75075
 30
0.0
 11
354.211276
 21
79.801799
 31
0.0
  0
LINE
  5
223
330
21C
100
AcDbEntity
  8
LC-002-100-D00-0
 62
     7
370
    50
100
AcDbLine
 10
354.211276
 20
79.801799
 30
0.0
 11
354.211276
 21
79.801799
 31
0.0
  0
LINE
  5
224
330
21C
100
AcDbEntity
  8
LC-002-100-D00-0
 62
     7
370
    50
100
AcDbLine
 10
354.211276
 20
79.801799
 30
0.0
 11
354.06471
 21
79.840898
 31
0.0
  0
LINE
  5
225
330
21C
100
AcDbEntity
  8
LC-002-100-D00-0
 62
     7
370
    50
100
AcDbLine
 10
354.06471
 20
79.840898
 30
0.0
 11
354.06471
 21
79.840898
 31
0.0
  0
LINE
  5
226
330
21C
100
AcDbEntity
  8
LC-002-100-D00-0
 62
     7
370
    50
100
AcDbLine
 10
354.06471
 20
79.840898
 30
0.0
 11
353.949766
 21
79.856851
 31
0.0
  0
LINE
  5
227
330
21C
100
AcDbEntity
  8
LC-002-100-D00-0
 62
     7
370
    50
100
AcDbLine
 10
353.949766
 20
79.856851
 30
0.0
 11
353.949766
 21
79.856851
 31
0.0
  0
LINE
  5
228
330
21C
100
AcDbEntity
  8
LC-002-100-D00-0
 62
     7
370
    50
100
AcDbLine
 10
353.949766
 20
79.856851
 30
0.0
 11
353.874534
 21
79.859395
 31
0.0
  0
LINE
  5
229
330
21C
100
AcDbEntity
  8
LC-002-100-D00-0
 62
     7
370
    50
100
AcDbLine
 10
353.874534
 20
79.859395
 30
0.0
 11
353.874534
 21
79.859395
 31
0.0
  0
LINE
  5
22A
330
21C
100
AcDbEntity
  8
LC-002-100-D00-0
 62
     7
370
    50
100
AcDbLine
 10
353.874534
 20
79.859395
 30
0.0
 11
353.865063
 21
79.859292
 31
0.0
  0
LINE
  5
22B
330
21C
100
AcDbEntity
  8
LC-002-100-D00-0
 62
     7
370
    50
100
AcDbLine
 10
353.865063
 20
79.859292
 30
0.0
 11
353.865063
 21
79.859292
 31
0.0
  0
LINE
  5
22C
330
21C
100
AcDbEntity
  8
LC-002-100-D00-0
 62
     7
370
    50
100
AcDbLine
 10
353.865063
 20
79.859292
 30
0.0
 11
353.860412
 21
79.859242
 31
0.0
  0
ENDBLK
  5
21E
330
21C
100
AcDbEntity
  8
0
100
AcDbBlockEnd
  0
BLOCK
  5
22F
330
22E
100
AcDbEntity
  8
0
100
AcDbBlockBegin
  2
POLY18
 70
     0
 71
     0
 10
0.0
 20
0.0
 30
0.0
  3
POLY18
  1

  4
POLY18
  0
LINE
  5
231
330
22E
100
AcDbEntity
  8
LC-002-100-D00-0
 62
     7
370
    50
100
AcDbLine
 10
232.360411
 20
38.35924
 30
0.0
 11
232.360411
 21
38.35924
 31
0.0
  0
LINE
  5
232
330
22E
100
AcDbEntity
  8
LC-002-100-D00-0
 62
     7
370
    50
100
AcDbLine
 10
232.360411
 20
38.35924
 30
0.0
 11
232.360338
 21
38.353742
 31
0.0
  0
LINE
  5
233
330
22E
100
AcDbEntity
  8
LC-002-100-D00-0
 62
     7
370
    50
100
AcDbLine
 10
232.360338
 20
38.353742
 30
0.0
 11
232.360338
 21
38.353742
 31
0.0
  0
LINE
  5
234
330
22E
100
AcDbEntity
  8
LC-002-100-D00-0
 62
     7
370
    50
100
AcDbLine
 10
232.360338
 20
38.353742
 30
0.0
 11
232.360192
 21
38.342746
 31
0.0
  0
LINE
  5
235
330
22E
100
AcDbEntity
  8
LC-002-100-D00-0
 62
     7
370
    50
100
AcDbLine
 10
232.360192
 20
38.342746
 30
0.0
 11
232.360192
 21
38.342746
 31
0.0
  0
LINE
  5
236
330
22E
100
AcDbEntity
  8
LC-002-100-D00-0
 62
     7
370
    50
100
AcDbLine
 10
232.360192
 20
38.342746
 30
0.0
 11
232.363625
 21
38.257145
 31
0.0
  0
LINE
  5
237
330
22E
100
AcDbEntity
  8
LC-002-100-D00-0
 62
     7
370
    50
100
AcDbLine
 10
232.363625
 20
38.257145
 30
0.0
 11
232.363625
 21
38.257145
 31
0.0
  0
LINE
  5
238
330
22E
100
AcDbEntity
  8
LC-002-100-D00-0
 62
     7
370
    50
100
AcDbLine
 10
232.363625
 20
38.257145
 30
0.0
 11
232.382999
 21
38.134131
 31
0.0
  0
LINE
  5
239
330
22E
100
AcDbEntity
  8
LC-002-100-D00-0
 62
     7
370
    50
100
AcDbLine
 10
232.382999
 20
38.134131
 30
0.0
 11
232.382999
 21
38.134131
 31
0.0
  0
LINE
  5
23A
330
22E
100
AcDbEntity
  8
LC-002-100-D00-0
 62
     7
370
    50
100
AcDbLine
 10
232.382999
 20
38.134131
 30
0.0
 11
232.425044
 21
37.992143
 31
0.0
  0
LINE
  5
23B
330
22E
100
AcDbEntity
  8
LC-002-100-D00-0
 62
     7
370
    50
100
AcDbLine
 10
232.425044
 20
37.992143
 30
0.0
 11
232.425044
 21
37.992143
 31
0.0
  0
LINE
  5
23C
330
22E
100
AcDbEntity
  8
LC-002-100-D00-0
 62
     7
370
    50
100
AcDbLine
 10
232.425044
 20
37.992143
 30
0.0
 11
232.472027
 21
37.90209
 31
0.0
  0
LINE
  5
23D
330
22E
100
AcDbEntity
  8
LC-002-100-D00-0
 62
     7
370
    50
100
AcDbLine
 10
232.472027
 20
37.90209
 30
0.0
 11
232.472027
 21
37.90209
 31
0.0
  0
LINE
  5
23E
330
22E
100
AcDbEntity
  8
LC-002-100-D00-0
 62
     7
370
    50
100
AcDbLine
 10
232.472027
 20
37.90209
 30
0.0
 11
232.494384
 21
37.859239
 31
0.0
  0
ENDBLK
  5
230
330
22E
100
AcDbEntity
  8
0
100
AcDbBlockEnd
  0
BLOCK
  5
241
330
240
100
AcDbEntity
  8
0
100
AcDbBlockBegin
  2
POLY19
 70
     0
 71
     0
 10
0.0
 20
0.0
 30
0.0
  3
POLY19
  1

  4
POLY19
  0
LINE
  5
243
330
240
100
AcDbEntity
  8
LC-002-100-D00-0
 62
     7
370
    50
100
AcDbLine
 10
247.226436
 20
37.859239
 30
0.0
 11
247.226436
 21
37.859239
 31
0.0
  0
LINE
  5
244
330
240
100
AcDbEntity
  8
LC-002-100-D00-0
 62
     7
370
    50
100
AcDbLine
 10
247.226436
 20
37.859239
 30
0.0
 11
247.25192
 21
37.908898
 31
0.0
  0
LINE
  5
245
330
240
100
AcDbEntity
  8
LC-002-100-D00-0
 62
     7
370
    50
100
AcDbLine
 10
247.25192
 20
37.908898
 30
0.0
 11
247.25192
 21
37.908898
 31
0.0
  0
LINE
  5
246
330
240
100
AcDbEntity
  8
LC-002-100-D00-0
 62
     7
370
    50
100
AcDbLine
 10
247.25192
 20
37.908898
 30
0.0
 11
247.30297
 21
38.008376
 31
0.0
  0
LINE
  5
247
330
240
100
AcDbEntity
  8
LC-002-100-D00-0
 62
     7
370
    50
100
AcDbLine
 10
247.30297
 20
38.008376
 30
0.0
 11
247.30297
 21
38.008376
 31
0.0
  0
LINE
  5
248
330
240
100
AcDbEntity
  8
LC-002-100-D00-0
 62
     7
370
    50
100
AcDbLine
 10
247.30297
 20
38.008376
 30
0.0
 11
247.342061
 21
38.154942
 31
0.0
  0
LINE
  5
249
330
240
100
AcDbEntity
  8
LC-002-100-D00-0
 62
     7
370
    50
100
AcDbLine
 10
247.342061
 20
38.154942
 30
0.0
 11
247.342061
 21
38.154942
 31
0.0
  0
LINE
  5
24A
330
240
100
AcDbEntity
  8
LC-002-100-D00-0
 62
     7
370
    50
100
AcDbLine
 10
247.342061
 20
38.154942
 30
0.0
 11
247.358022
 21
38.269885
 31
0.0
  0
LINE
  5
24B
330
240
100
AcDbEntity
  8
LC-002-100-D00-0
 62
     7
370
    50
100
AcDbLine
 10
247.358022
 20
38.269885
 30
0.0
 11
247.358022
 21
38.269885
 31
0.0
  0
LINE
  5
24C
330
240
100
AcDbEntity
  8
LC-002-100-D00-0
 62
     7
370
    50
100
AcDbLine
 10
247.358022
 20
38.269885
 30
0.0
 11
247.360565
 21
38.345118
 31
0.0
  0
LINE
  5
24D
330
240
100
AcDbEntity
  8
LC-002-100-D00-0
 62
     7
370
    50
100
AcDbLine
 10
247.360565
 20
38.345118
 30
0.0
 11
247.360565
 21
38.345118
 31
0.0
  0
LINE
  5
24E
330
240
100
AcDbEntity
  8
LC-002-100-D00-0
 62
     7
370
    50
100
AcDbLine
 10
247.360565
 20
38.345118
 30
0.0
 11
247.36046
 21
38.354588
 31
0.0
  0
LINE
  5
24F
330
240
100
AcDbEntity
  8
LC-002-100-D00-0
 62
     7
370
    50
100
AcDbLine
 10
247.36046
 20
38.354588
 30
0.0
 11
247.36046
 21
38.354588
 31
0.0
  0
LINE
  5
250
330
240
100
AcDbEntity
  8
LC-002-100-D00-0
 62
     7
370
    50
100
AcDbLine
 10
247.36046
 20
38.354588
 30
0.0
 11
247.360408
 21
38.35924
 31
0.0
  0
ENDBLK
  5
242
330
240
100
AcDbEntity
  8
0
100
AcDbBlockEnd
  0
BLOCK
  5
253
330
252
100
AcDbEntity
  8
0
100
AcDbBlockBegin
  2
POLY20
 70
     0
 71
     0
 10
0.0
 20
0.0
 30
0.0
  3
POLY20
  1

  4
POLY20
  0
LINE
  5
255
330
252
100
AcDbEntity
  8
LC-002-100-D00-0
 62
     7
370
    50
100
AcDbLine
 10
312.360409
 20
38.35924
 30
0.0
 11
312.360409
 21
38.35924
 31
0.0
  0
LINE
  5
256
330
252
100
AcDbEntity
  8
LC-002-100-D00-0
 62
     7
370
    50
100
AcDbLine
 10
312.360409
 20
38.35924
 30
0.0
 11
312.360338
 21
38.353743
 31
0.0
  0
LINE
  5
257
330
252
100
AcDbEntity
  8
LC-002-100-D00-0
 62
     7
370
    50
100
AcDbLine
 10
312.360338
 20
38.353743
 30
0.0
 11
312.360338
 21
38.353743
 31
0.0
  0
LINE
  5
258
330
252
100
AcDbEntity
  8
LC-002-100-D00-0
 62
     7
370
    50
100
AcDbLine
 10
312.360338
 20
38.353743
 30
0.0
 11
312.360196
 21
38.342746
 31
0.0
  0
LINE
  5
259
330
252
100
AcDbEntity
  8
LC-002-100-D00-0
 62
     7
370
    50
100
AcDbLine
 10
312.360196
 20
38.342746
 30
0.0
 11
312.360196
 21
38.342746
 31
0.0
  0
LINE
  5
25A
330
252
100
AcDbEntity
  8
LC-002-100-D00-0
 62
     7
370
    50
100
AcDbLine
 10
312.360196
 20
38.342746
 30
0.0
 11
312.36362
 21
38.257145
 31
0.0
  0
LINE
  5
25B
330
252
100
AcDbEntity
  8
LC-002-100-D00-0
 62
     7
370
    50
100
AcDbLine
 10
312.36362
 20
38.257145
 30
0.0
 11
312.36362
 21
38.257145
 31
0.0
  0
LINE
  5
25C
330
252
100
AcDbEntity
  8
LC-002-100-D00-0
 62
     7
370
    50
100
AcDbLine
 10
312.36362
 20
38.257145
 30
0.0
 11
312.383004
 21
38.134132
 31
0.0
  0
LINE
  5
25D
330
252
100
AcDbEntity
  8
LC-002-100-D00-0
 62
     7
370
    50
100
AcDbLine
 10
312.383004
 20
38.134132
 30
0.0
 11
312.383004
 21
38.134132
 31
0.0
  0
LINE
  5
25E
330
252
100
AcDbEntity
  8
LC-002-100-D00-0
 62
     7
370
    50
100
AcDbLine
 10
312.383004
 20
38.134132
 30
0.0
 11
312.42504
 21
37.992141
 31
0.0
  0
LINE
  5
25F
330
252
100
AcDbEntity
  8
LC-002-100-D00-0
 62
     7
370
    50
100
AcDbLine
 10
312.42504
 20
37.992141
 30
0.0
 11
312.42504
 21
37.992141
 31
0.0
  0
LINE
  5
260
330
252
100
AcDbEntity
  8
LC-002-100-D00-0
 62
     7
370
    50
100
AcDbLine
 10
312.42504
 20
37.992141
 30
0.0
 11
312.472027
 21
37.90209
 31
0.0
  0
LINE
  5
261
330
252
100
AcDbEntity
  8
LC-002-100-D00-0
 62
     7
370
    50
100
AcDbLine
 10
312.472027
 20
37.90209
 30
0.0
 11
312.472027
 21
37.90209
 31
0.0
  0
LINE
  5
262
330
252
100
AcDbEntity
  8
LC-002-100-D00-0
 62
     7
370
    50
100
AcDbLine
 10
312.472027
 20
37.90209
 30
0.0
 11
312.494386
 21
37.859239
 31
0.0
  0
ENDBLK
  5
254
330
252
100
AcDbEntity
  8
0
100
AcDbBlockEnd
  0
BLOCK
  5
265
330
264
100
AcDbEntity
  8
0
100
AcDbBlockBegin
  2
POLY21
 70
     0
 71
     0
 10
0.0
 20
0.0
 30
0.0
  3
POLY21
  1

  4
POLY21
  0
LINE
  5
267
330
264
100
AcDbEntity
  8
LC-002-100-D00-0
 62
     7
370
    50
100
AcDbLine
 10
327.226434
 20
37.859239
 30
0.0
 11
327.226434
 21
37.859239
 31
0.0
  0
LINE
  5
268
330
264
100
AcDbEntity
  8
LC-002-100-D00-0
 62
     7
370
    50
100
AcDbLine
 10
327.226434
 20
37.859239
 30
0.0
 11
327.25192
 21
37.908898
 31
0.0
  0
LINE
  5
269
330
264
100
AcDbEntity
  8
LC-002-100-D00-0
 62
     7
370
    50
100
AcDbLine
 10
327.25192
 20
37.908898
 30
0.0
 11
327.25192
 21
37.908898
 31
0.0
  0
LINE
  5
26A
330
264
100
AcDbEntity
  8
LC-002-100-D00-0
 62
     7
370
    50
100
AcDbLine
 10
327.25192
 20
37.908898
 30
0.0
 11
327.302973
 21
38.008375
 31
0.0
  0
LINE
  5
26B
330
264
100
AcDbEntity
  8
LC-002-100-D00-0
 62
     7
370
    50
100
AcDbLine
 10
327.302973
 20
38.008375
 30
0.0
 11
327.302973
 21
38.008375
 31
0.0
  0
LINE
  5
26C
330
264
100
AcDbEntity
  8
LC-002-100-D00-0
 62
     7
370
    50
100
AcDbLine
 10
327.302973
 20
38.008375
 30
0.0
 11
327.342062
 21
38.154942
 31
0.0
  0
LINE
  5
26D
330
264
100
AcDbEntity
  8
LC-002-100-D00-0
 62
     7
370
    50
100
AcDbLine
 10
327.342062
 20
38.154942
 30
0.0
 11
327.342062
 21
38.154942
 31
0.0
  0
LINE
  5
26E
330
264
100
AcDbEntity
  8
LC-002-100-D00-0
 62
     7
370
    50
100
AcDbLine
 10
327.342062
 20
38.154942
 30
0.0
 11
327.358026
 21
38.269885
 31
0.0
  0
LINE
  5
26F
330
264
100
AcDbEntity
  8
LC-002-100-D00-0
 62
     7
370
    50
100
AcDbLine
 10
327.358026
 20
38.269885
 30
0.0
 11
327.358026
 21
38.269885
 31
0.0
  0
LINE
  5
270
330
264
100
AcDbEntity
  8
LC-002-100-D00-0
 62
     7
370
    50
100
AcDbLine
 10
327.358026
 20
38.269885
 30
0.0
 11
327.360561
 21
38.345118
 31
0.0
  0
LINE
  5
271
330
264
100
AcDbEntity
  8
LC-002-100-D00-0
 62
     7
370
    50
100
AcDbLine
 10
327.360561
 20
38.345118
 30
0.0
 11
327.360561
 21
38.345118
 31
0.0
  0
LINE
  5
272
330
264
100
AcDbEntity
  8
LC-002-100-D00-0
 62
     7
370
    50
100
AcDbLine
 10
327.360561
 20
38.345118
 30
0.0
 11
327.36046
 21
38.354588
 31
0.0
  0
LINE
  5
273
330
264
100
AcDbEntity
  8
LC-002-100-D00-0
 62
     7
370
    50
100
AcDbLine
 10
327.36046
 20
38.354588
 30
0.0
 11
327.36046
 21
38.354588
 31
0.0
  0
LINE
  5
274
330
264
100
AcDbEntity
  8
LC-002-100-D00-0
 62
     7
370
    50
100
AcDbLine
 10
327.36046
 20
38.354588
 30
0.0
 11
327.36041
 21
38.35924
 31
0.0
  0
ENDBLK
  5
266
330
264
100
AcDbEntity
  8
0
100
AcDbBlockEnd
  0
BLOCK
  5
291
330
290
100
AcDbEntity
  8
0
100
AcDbBlockBegin
  2
POLY22
 70
     0
 71
     0
 10
0.0
 20
0.0
 30
0.0
  3
POLY22
  1

  4
POLY22
  0
LINE
  5
293
330
290
100
AcDbEntity
  8
LC-002-100-D00-0
 62
     7
370
    50
100
AcDbLine
 10
210.860412
 20
94.716963
 30
0.0
 11
210.860412
 21
94.716963
 31
0.0
  0
LINE
  5
294
330
290
100
AcDbEntity
  8
LC-002-100-D00-0
 62
     7
370
    50
100
AcDbLine
 10
210.860412
 20
94.716963
 30
0.0
 11
210.700576
 21
99.797832
 31
0.0
  0
LINE
  5
295
330
290
100
AcDbEntity
  8
LC-002-100-D00-0
 62
     7
370
    50
100
AcDbLine
 10
210.700576
 20
99.797832
 30
0.0
 11
210.700576
 21
99.797832
 31
0.0
  0
LINE
  5
296
330
290
100
AcDbEntity
  8
LC-002-100-D00-0
 62
     7
370
    50
100
AcDbLine
 10
210.700576
 20
99.797832
 30
0.0
 11
210.516076
 21
105.662727
 31
0.0
  0
LINE
  5
297
330
290
100
AcDbEntity
  8
LC-002-100-D00-0
 62
     7
370
    50
100
AcDbLine
 10
210.516076
 20
105.662727
 30
0.0
 11
210.47797
 21
110.222895
 31
0.0
  0
LINE
  5
298
330
290
100
AcDbEntity
  8
LC-002-100-D00-0
 62
     7
370
    50
100
AcDbLine
 10
210.47797
 20
110.222895
 30
0.0
 11
210.495315
 21
115.149029
 31
0.0
  0
LINE
  5
299
330
290
100
AcDbEntity
  8
LC-002-100-D00-0
 62
     7
370
    50
100
AcDbLine
 10
210.495315
 20
115.149029
 30
0.0
 11
210.495315
 21
115.149029
 31
0.0
  0
LINE
  5
29A
330
290
100
AcDbEntity
  8
LC-002-100-D00-0
 62
     7
370
    50
100
AcDbLine
 10
210.495315
 20
115.149029
 30
0.0
 11
210.564394
 21
121.830969
 31
0.0
  0
LINE
  5
29B
330
290
100
AcDbEntity
  8
LC-002-100-D00-0
 62
     7
370
    50
100
AcDbLine
 10
210.564394
 20
121.830969
 30
0.0
 11
210.564394
 21
121.830969
 31
0.0
  0
LINE
  5
29C
330
290
100
AcDbEntity
  8
LC-002-100-D00-0
 62
     7
370
    50
100
AcDbLine
 10
210.564394
 20
121.830969
 30
0.0
 11
210.777913
 21
127.724413
 31
0.0
  0
LINE
  5
29D
330
290
100
AcDbEntity
  8
LC-002-100-D00-0
 62
     7
370
    50
100
AcDbLine
 10
210.777913
 20
127.724413
 30
0.0
 11
210.777913
 21
127.724413
 31
0.0
  0
LINE
  5
29E
330
290
100
AcDbEntity
  8
LC-002-100-D00-0
 62
     7
370
    50
100
AcDbLine
 10
210.777913
 20
127.724413
 30
0.0
 11
210.860412
 21
130.001519
 31
0.0
  0
ENDBLK
  5
292
330
290
100
AcDbEntity
  8
0
100
AcDbBlockEnd
  0
BLOCK
  5
2A3
330
2A2
100
AcDbEntity
  8
0
100
AcDbBlockBegin
  2
POLY23
 70
     0
 71
     0
 10
0.0
 20
0.0
 30
0.0
  3
POLY23
  1

  4
POLY23
  0
LINE
  5
2A5
330
2A2
100
AcDbEntity
  8
LC-002-100-D00-0
 62
     7
370
    15
100
AcDbLine
 10
213.742297
 20
129.168025
 30
0.0
 11
213.742297
 21
129.168025
 31
0.0
  0
LINE
  5
2A6
330
2A2
100
AcDbEntity
  8
LC-002-100-D00-0
 62
     7
370
    15
100
AcDbLine
 10
213.742297
 20
129.168025
 30
0.0
 11
213.450253
 21
128.094117
 31
0.0
  0
LINE
  5
2A7
330
2A2
100
AcDbEntity
  8
LC-002-100-D00-0
 62
     7
370
    15
100
AcDbLine
 10
213.450253
 20
128.094117
 30
0.0
 11
213.450253
 21
128.094117
 31
0.0
  0
LINE
  5
2A8
330
2A2
100
AcDbEntity
  8
LC-002-100-D00-0
 62
     7
370
    15
100
AcDbLine
 10
213.450253
 20
128.094117
 30
0.0
 11
212.864548
 21
125.940357
 31
0.0
  0
LINE
  5
2A9
330
2A2
100
AcDbEntity
  8
LC-002-100-D00-0
 62
     7
370
    15
100
AcDbLine
 10
212.864548
 20
125.940357
 30
0.0
 11
212.864548
 21
125.940357
 31
0.0
  0
LINE
  5
2AA
330
2A2
100
AcDbEntity
  8
LC-002-100-D00-0
 62
     7
370
    15
100
AcDbLine
 10
212.864548
 20
125.940357
 30
0.0
 11
212.025522
 21
121.708992
 31
0.0
  0
LINE
  5
2AB
330
2A2
100
AcDbEntity
  8
LC-002-100-D00-0
 62
     7
370
    15
100
AcDbLine
 10
212.025522
 20
121.708992
 30
0.0
 11
212.025522
 21
121.708992
 31
0.0
  0
LINE
  5
2AC
330
2A2
100
AcDbEntity
  8
LC-002-100-D00-0
 62
     7
370
    15
100
AcDbLine
 10
212.025522
 20
121.708992
 30
0.0
 11
211.512476
 21
117.477644
 31
0.0
  0
LINE
  5
2AD
330
2A2
100
AcDbEntity
  8
LC-002-100-D00-0
 62
     7
370
    15
100
AcDbLine
 10
211.512476
 20
117.477644
 30
0.0
 11
211.512476
 21
117.477644
 31
0.0
  0
LINE
  5
2AE
330
2A2
100
AcDbEntity
  8
LC-002-100-D00-0
 62
     7
370
    15
100
AcDbLine
 10
211.512476
 20
117.477644
 30
0.0
 11
211.339501
 21
113.262389
 31
0.0
  0
LINE
  5
2AF
330
2A2
100
AcDbEntity
  8
LC-002-100-D00-0
 62
     7
370
    15
100
AcDbLine
 10
211.339501
 20
113.262389
 30
0.0
 11
211.339501
 21
113.262389
 31
0.0
  0
LINE
  5
2B0
330
2A2
100
AcDbEntity
  8
LC-002-100-D00-0
 62
     7
370
    15
100
AcDbLine
 10
211.339501
 20
113.262389
 30
0.0
 11
211.377491
 21
109.911948
 31
0.0
  0
LINE
  5
2B1
330
2A2
100
AcDbEntity
  8
LC-002-100-D00-0
 62
     7
370
    15
100
AcDbLine
 10
211.377491
 20
109.911948
 30
0.0
 11
211.377491
 21
109.911948
 31
0.0
  0
LINE
  5
2B2
330
2A2
100
AcDbEntity
  8
LC-002-100-D00-0
 62
     7
370
    15
100
AcDbLine
 10
211.377491
 20
109.911948
 30
0.0
 11
211.615378
 21
106.416638
 31
0.0
  0
LINE
  5
2B3
330
2A2
100
AcDbEntity
  8
LC-002-100-D00-0
 62
     7
370
    15
100
AcDbLine
 10
211.615378
 20
106.416638
 30
0.0
 11
211.615378
 21
106.416638
 31
0.0
  0
LINE
  5
2B4
330
2A2
100
AcDbEntity
  8
LC-002-100-D00-0
 62
     7
370
    15
100
AcDbLine
 10
211.615378
 20
106.416638
 30
0.0
 11
212.089185
 21
102.775375
 31
0.0
  0
LINE
  5
2B5
330
2A2
100
AcDbEntity
  8
LC-002-100-D00-0
 62
     7
370
    15
100
AcDbLine
 10
212.089185
 20
102.775375
 30
0.0
 11
212.089185
 21
102.775375
 31
0.0
  0
LINE
  5
2B6
330
2A2
100
AcDbEntity
  8
LC-002-100-D00-0
 62
     7
370
    15
100
AcDbLine
 10
212.089185
 20
102.775375
 30
0.0
 11
212.771889
 21
99.145144
 31
0.0
  0
LINE
  5
2B7
330
2A2
100
AcDbEntity
  8
LC-002-100-D00-0
 62
     7
370
    15
100
AcDbLine
 10
212.771889
 20
99.145144
 30
0.0
 11
212.771889
 21
99.145144
 31
0.0
  0
LINE
  5
2B8
330
2A2
100
AcDbEntity
  8
LC-002-100-D00-0
 62
     7
370
    15
100
AcDbLine
 10
212.771889
 20
99.145144
 30
0.0
 11
213.418894
 21
96.748437
 31
0.0
  0
LINE
  5
2B9
330
2A2
100
AcDbEntity
  8
LC-002-100-D00-0
 62
     7
370
    15
100
AcDbLine
 10
213.418894
 20
96.748437
 30
0.0
 11
213.418894
 21
96.748437
 31
0.0
  0
LINE
  5
2BA
330
2A2
100
AcDbEntity
  8
LC-002-100-D00-0
 62
     7
370
    15
100
AcDbLine
 10
213.418894
 20
96.748437
 30
0.0
 11
213.742297
 21
95.550454
 31
0.0
  0
ENDBLK
  5
2A4
330
2A2
100
AcDbEntity
  8
0
100
AcDbBlockEnd
  0
ENDSEC
  0
SECTION
  2
ENTITIES
  0
LINE
  5
32
330
1F
100
AcDbEntity
  8
LC-001-002-----0
 62
     7
370
    25
100
AcDbLine
 10
33.610401
 20
137.578048
 30
0.0
 11
33.610401
 21
132.078048
 31
0.0
  0
INSERT
  5
4B
330
1F
100
AcDbEntity
  8
LC-002-100-D00-0
 62
     7
370
    50
100
AcDbBlockReference
  2
POLY1
 10
0.0
 20
0.0
 30
0.0
  0
ARC
  5
4C
330
1F
100
AcDbEntity
  8
LC-002-100-D00-0
 62
     7
370
    50
100
AcDbCircle
 10
-32.989598
 20
131.078048
 30
0.0
 40
0.4000000000000341
100
AcDbArc
 50
180.0
 51
270.0
  0
ARC
  5
4D
330
1F
100
AcDbEntity
  8
LC-002-100-D00-0
 62
     7
370
    50
100
AcDbCircle
 10
-30.189598
 20
129.428048
 30
0.0
 40
1.25
100
AcDbArc
 50
0.0
 51
90.0
  0
LINE
  5
4E
330
1F
100
AcDbEntity
  8
LC-002-100-D00-0
 62
     7
370
    50
100
AcDbLine
 10
-28.939592
 20
129.428048
 30
0.0
 11
-28.939592
 21
128.178048
 31
0.0
  0
LINE
  5
4F
330
1F
100
AcDbEntity
  8
LC-002-100-D00-0
 62
     7
370
    50
100
AcDbLine
 10
-32.889592
 20
137.578048
 30
0.0
 11
-38.139599
 21
137.578048
 31
0.0
  0
LINE
  5
50
330
1F
100
AcDbEntity
  8
LC-002-100-D00-0
 62
     7
370
    50
100
AcDbLine
 10
105.360416
 20
137.578048
 30
0.0
 11
100.110409
 21
137.578048
 31
0.0
  0
LINE
  5
51
330
1F
100
AcDbEntity
  8
LC-002-100-D00-0
 62
     7
370
    50
100
AcDbLine
 10
100.110409
 20
137.578048
 30
0.0
 11
-32.889592
 21
137.578048
 31
0.0
  0
LINE
  5
52
330
1F
100
AcDbEntity
  8
LC-002-100-D00-0
 62
     7
370
    50
100
AcDbLine
 10
-18.889594
 20
126.378048
 30
0.0
 11
-18.889594
 21
129.078048
 31
0.0
  0
ARC
  5
53
330
1F
100
AcDbEntity
  8
LC-002-100-D00-0
 62
     7
370
    50
100
AcDbCircle
 10
-19.189598
 20
126.378048
 30
0.0
 40
0.3000000000000114
100
AcDbArc
 50
270.0
 51
0.0
  0
LINE
  5
54
330
1F
100
AcDbEntity
  8
LC-002-100-D00-0
 62
     7
370
    50
100
AcDbLine
 10
-19.189599
 20
126.078048
 30
0.0
 11
-19.252526
 21
126.078048
 31
0.0
  0
LINE
  5
55
330
1F
100
AcDbEntity
  8
LC-002-100-D00-0
 62
     7
370
    50
100
AcDbLine
 10
-19.252526
 20
126.078048
 30
0.0
 11
-18.889594
 21
125.299743
 31
0.0
  0
LINE
  5
56
330
1F
100
AcDbEntity
  8
LC-002-100-D00-0
 62
     7
370
    50
100
AcDbLine
 10
-18.889594
 20
124.078048
 30
0.0
 11
-18.889594
 21
125.299743
 31
0.0
  0
LINE
  5
57
330
1F
100
AcDbEntity
  8
LC-002-100-D00-0
 62
     7
370
    50
100
AcDbLine
 10
-18.889594
 20
124.078048
 30
0.0
 11
-19.889596
 21
124.078048
 31
0.0
  0
LINE
  5
58
330
1F
100
AcDbEntity
  8
LC-002-100-D00-0
 62
     7
370
    50
100
AcDbLine
 10
-19.889596
 20
124.078048
 30
0.0
 11
-19.889596
 21
125.078048
 31
0.0
  0
LINE
  5
59
330
1F
100
AcDbEntity
  8
LC-002-100-D00-0
 62
     7
370
    50
100
AcDbLine
 10
-19.889596
 20
125.078048
 30
0.0
 11
-20.49053
 21
126.366739
 31
0.0
  0
ARC
  5
5A
330
1F
100
AcDbEntity
  8
LC-002-100-D00-0
 62
     7
370
    50
100
AcDbCircle
 10
-20.03737
 20
126.578048
 30
0.0
 40
0.5000000000000568
100
AcDbArc
 50
90.0
 51
205.0
  0
LINE
  5
5B
330
1F
100
AcDbEntity
  8
LC-002-100-D00-0
 62
     7
370
    50
100
AcDbLine
 10
-20.03737
 20
127.078048
 30
0.0
 11
-19.889596
 21
127.078048
 31
0.0
  0
LINE
  5
5C
330
1F
100
AcDbEntity
  8
LC-002-100-D00-0
 62
     7
370
    50
100
AcDbLine
 10
-19.889596
 20
127.078048
 30
0.0
 11
-19.889596
 21
129.078048
 31
0.0
  0
ARC
  5
5D
330
1F
100
AcDbEntity
  8
LC-002-100-D00-0
 62
     7
370
    50
100
AcDbCircle
 10
-21.889598
 20
129.078048
 30
0.0
 40
2.0
100
AcDbArc
 50
0.0
 51
90.0
  0
LINE
  5
5E
330
1F
100
AcDbEntity
  8
LC-002-100-D00-0
 62
     7
370
    50
100
AcDbLine
 10
-21.8896
 20
131.078048
 30
0.0
 11
-35.389605
 21
131.078048
 31
0.0
  0
ARC
  5
5F
330
1F
100
AcDbEntity
  8
LC-002-100-D00-0
 62
     7
370
    50
100
AcDbCircle
 10
-35.389598
 20
132.578048
 30
0.0
 40
1.5
100
AcDbArc
 50
180.0
 51
270.0
  0
LINE
  5
60
330
1F
100
AcDbEntity
  8
LC-002-100-D00-0
 62
     7
370
    50
100
AcDbLine
 10
-36.8896
 20
132.578048
 30
0.0
 11
-36.8896
 21
135.328048
 31
0.0
  0
ARC
  5
61
330
1F
100
AcDbEntity
  8
LC-002-100-D00-0
 62
     7
370
    50
100
AcDbCircle
 10
-38.139598
 20
135.328048
 30
0.0
 40
1.250000000000028
100
AcDbArc
 50
0.0
 51
180.0
  0
LINE
  5
62
330
1F
100
AcDbEntity
  8
LC-002-100-D00-0
 62
     7
370
    50
100
AcDbLine
 10
-39.389598
 20
135.328048
 30
0.0
 11
-39.389598
 21
133.178048
 31
0.0
  0
LINE
  5
63
330
1F
100
AcDbEntity
  8
LC-002-100-D00-0
 62
     7
370
    50
100
AcDbLine
 10
-40.3896
 20
133.178048
 30
0.0
 11
-40.3896
 21
135.328048
 31
0.0
  0
ARC
  5
64
330
1F
100
AcDbEntity
  8
LC-002-100-D00-0
 62
     7
370
    50
100
AcDbCircle
 10
-38.139598
 20
135.328048
 30
0.0
 40
2.250000000000028
100
AcDbArc
 50
0.0
 51
180.0
  0
LINE
  5
65
330
1F
100
AcDbEntity
  8
LC-002-100-D00-0
 62
     7
370
    50
100
AcDbLine
 10
-35.889598
 20
135.328048
 30
0.0
 11
-35.889598
 21
132.578048
 31
0.0
  0
ARC
  5
66
330
1F
100
AcDbEntity
  8
LC-002-100-D00-0
 62
     7
370
    50
100
AcDbCircle
 10
-35.389598
 20
132.578048
 30
0.0
 40
0.5
100
AcDbArc
 50
180.0
 51
270.0
  0
LINE
  5
67
330
1F
100
AcDbEntity
  8
LC-002-100-D00-0
 62
     7
370
    50
100
AcDbLine
 10
-21.8896
 20
132.078048
 30
0.0
 11
-35.389605
 21
132.078048
 31
0.0
  0
ARC
  5
68
330
1F
100
AcDbEntity
  8
LC-002-100-D00-0
 62
     7
370
    50
100
AcDbCircle
 10
-21.889598
 20
129.078048
 30
0.0
 40
3.0
100
AcDbArc
 50
0.0
 51
90.0
  0
ARC
  5
69
330
1F
100
AcDbEntity
  8
LC-002-100-D00-0
 62
     7
370
    50
100
AcDbCircle
 10
103.258175
 20
126.578048
 30
0.0
 40
0.5000000000000823
100
AcDbArc
 50
335.0
 51
90.0
  0
LINE
  5
6A
330
1F
100
AcDbEntity
  8
LC-002-100-D00-0
 62
     7
370
    50
100
AcDbLine
 10
103.711334
 20
126.366739
 30
0.0
 11
103.1104
 21
125.078048
 31
0.0
  0
ARC
  5
6B
330
1F
100
AcDbEntity
  8
LC-002-100-D00-0
 62
     7
370
    50
100
AcDbCircle
 10
102.610402
 20
132.578048
 30
0.0
 40
0.5000000000000089
100
AcDbArc
 50
315.584691
 51
0.0
  0
LINE
  5
6C
330
1F
100
AcDbEntity
  8
LC-002-100-D00-0
 62
     7
370
    50
100
AcDbLine
 10
103.1104
 20
135.328048
 30
0.0
 11
103.1104
 21
132.578048
 31
0.0
  0
ARC
  5
6D
330
1F
100
AcDbEntity
  8
LC-002-100-D00-0
 62
     7
370
    50
100
AcDbCircle
 10
105.360402
 20
135.328048
 30
0.0
 40
2.25
100
AcDbArc
 50
0.0
 51
180.0
  0
LINE
  5
6E
330
1F
100
AcDbEntity
  8
LC-002-100-D00-0
 62
     7
370
    50
100
AcDbLine
 10
107.610402
 20
133.178048
 30
0.0
 11
107.610402
 21
135.328048
 31
0.0
  0
LINE
  5
6F
330
1F
100
AcDbEntity
  8
LC-002-100-D00-0
 62
     7
370
    50
100
AcDbLine
 10
106.610415
 20
135.328048
 30
0.0
 11
106.610415
 21
133.178048
 31
0.0
  0
ARC
  5
70
330
1F
100
AcDbEntity
  8
LC-002-100-D00-0
 62
     7
370
    50
100
AcDbCircle
 10
105.360402
 20
135.328048
 30
0.0
 40
1.25
100
AcDbArc
 50
0.0
 51
180.0
  0
LINE
  5
71
330
1F
100
AcDbEntity
  8
LC-002-100-D00-0
 62
     7
370
    50
100
AcDbLine
 10
104.110388
 20
132.578048
 30
0.0
 11
104.110388
 21
135.328048
 31
0.0
  0
ARC
  5
72
330
1F
100
AcDbEntity
  8
LC-002-100-D00-0
 62
     7
370
    50
100
AcDbCircle
 10
102.610402
 20
132.578048
 30
0.0
 40
1.500000000000026
100
AcDbArc
 50
315.584691
 51
0.0
  0
ARC
  5
73
330
1F
100
AcDbEntity
  8
LC-002-100-D00-0
 62
     7
370
    50
100
AcDbCircle
 10
105.110402
 20
130.128558
 30
0.0
 40
1.999999999999995
100
AcDbArc
 50
135.584691
 51
180.0
  0
LINE
  5
74
330
1F
100
AcDbEntity
  8
LC-002-100-D00-0
 62
     7
370
    50
100
AcDbLine
 10
103.1104
 20
130.128558
 30
0.0
 11
103.1104
 21
127.078048
 31
0.0
  0
LINE
  5
75
330
1F
100
AcDbEntity
  8
LC-002-100-D00-0
 62
     7
370
    50
100
AcDbLine
 10
103.1104
 20
127.078048
 30
0.0
 11
103.25816
 21
127.078048
 31
0.0
  0
LINE
  5
76
330
1F
100
AcDbEntity
  8
LC-002-100-D00-0
 62
     7
370
    50
100
AcDbLine
 10
103.1104
 20
125.078048
 30
0.0
 11
103.1104
 21
124.078048
 31
0.0
  0
LINE
  5
77
330
1F
100
AcDbEntity
  8
LC-002-100-D00-0
 62
     7
370
    50
100
AcDbLine
 10
103.1104
 20
124.078048
 30
0.0
 11
102.110413
 21
124.078048
 31
0.0
  0
LINE
  5
78
330
1F
100
AcDbEntity
  8
LC-002-100-D00-0
 62
     7
370
    50
100
AcDbLine
 10
102.110413
 20
125.299743
 30
0.0
 11
102.110413
 21
124.078048
 31
0.0
  0
LINE
  5
79
330
1F
100
AcDbEntity
  8
LC-002-100-D00-0
 62
     7
370
    50
100
AcDbLine
 10
102.110413
 20
125.299743
 30
0.0
 11
102.473346
 21
126.078048
 31
0.0
  0
LINE
  5
7A
330
1F
100
AcDbEntity
  8
LC-002-100-D00-0
 62
     7
370
    50
100
AcDbLine
 10
102.473346
 20
126.078048
 30
0.0
 11
102.410403
 21
126.078048
 31
0.0
  0
ARC
  5
7B
330
1F
100
AcDbEntity
  8
LC-002-100-D00-0
 62
     7
370
    50
100
AcDbCircle
 10
102.410402
 20
126.378048
 30
0.0
 40
0.2999999999999545
100
AcDbArc
 50
180.0
 51
270.0
  0
LINE
  5
7C
330
1F
100
AcDbEntity
  8
LC-002-100-D00-0
 62
     7
370
    50
100
AcDbLine
 10
102.110413
 20
130.128558
 30
0.0
 11
102.110413
 21
126.378048
 31
0.0
  0
ARC
  5
7D
330
1F
100
AcDbEntity
  8
LC-002-100-D00-0
 62
     7
370
    50
100
AcDbCircle
 10
105.110402
 20
130.128558
 30
0.0
 40
3.000000000000012
100
AcDbArc
 50
135.584691
 51
180.0
  0
LINE
  5
7E
330
1F
100
AcDbEntity
  8
LC-002-100-D00-0
 62
     7
370
    50
100
AcDbLine
 10
102.110413
 20
124.078048
 30
0.0
 11
-18.889594
 21
124.078048
 31
0.0
  0
LINE
  5
7F
330
1F
100
AcDbEntity
  8
LC-002-100-D00-0
 62
     7
370
    50
100
AcDbLine
 10
103.68183
 20
131.528267
 30
0.0
 11
103.680906
 21
131.527358
 31
0.0
  0
ARC
  5
80
330
1F
100
AcDbEntity
  8
LC-002-100-D00-0
 62
     7
370
    50
100
AcDbCircle
 10
108.110402
 20
133.178048
 30
0.0
 40
1.5
100
AcDbArc
 50
180.0
 51
250.528779
  0
LINE
  5
81
330
1F
100
AcDbEntity
  8
LC-002-100-D00-0
 62
     7
370
    50
100
AcDbLine
 10
108.110396
 20
132.678048
 30
0.0
 11
108.610389
 21
132.678048
 31
0.0
  0
LINE
  5
82
330
1F
100
AcDbEntity
  8
LC-002-100-D00-0
 62
     7
370
    50
100
AcDbLine
 10
108.610389
 20
132.678048
 30
0.0
 11
108.610389
 21
131.678048
 31
0.0
  0
LINE
  5
83
330
1F
100
AcDbEntity
  8
LC-002-100-D00-0
 62
     7
370
    50
100
AcDbLine
 10
108.610389
 20
131.678048
 30
0.0
 11
108.110396
 21
131.678048
 31
0.0
  0
INSERT
  5
95
330
1F
100
AcDbEntity
  8
LC-002-100-D00-0
 62
     7
370
    50
100
AcDbBlockReference
  2
POLY2
 10
0.0
 20
0.0
 30
0.0
  0
INSERT
  5
A1
330
1F
100
AcDbEntity
  8
LC-002-100-D00-0
 62
     7
370
    50
100
AcDbBlockReference
  2
POLY3
 10
0.0
 20
0.0
 30
0.0
  0
ARC
  5
A2
330
1F
100
AcDbEntity
  8
LC-002-100-D00-0
 62
     7
370
    50
100
AcDbCircle
 10
-40.889598
 20
133.178048
 30
0.0
 40
1.500000000000033
100
AcDbArc
 50
289.471221
 51
0.0
  0
LINE
  5
A3
330
1F
100
AcDbEntity
  8
LC-002-100-D00-0
 62
     7
370
    50
100
AcDbLine
 10
-40.889593
 20
131.678048
 30
0.0
 11
-41.389602
 21
131.678048
 31
0.0
  0
LINE
  5
A4
330
1F
100
AcDbEntity
  8
LC-002-100-D00-0
 62
     7
370
    50
100
AcDbLine
 10
-41.389602
 20
131.678048
 30
0.0
 11
-41.389602
 21
132.678048
 31
0.0
  0
LINE
  5
A5
330
1F
100
AcDbEntity
  8
LC-002-100-D00-0
 62
     7
370
    50
100
AcDbLine
 10
-41.389602
 20
132.678048
 30
0.0
 11
-40.889593
 21
132.678048
 31
0.0
  0
INSERT
  5
B7
330
1F
100
AcDbEntity
  8
LC-002-100-D00-0
 62
     7
370
    50
100
AcDbBlockReference
  2
POLY4
 10
0.0
 20
0.0
 30
0.0
  0
INSERT
  5
C3
330
1F
100
AcDbEntity
  8
LC-002-100-D00-0
 62
     7
370
    50
100
AcDbBlockReference
  2
POLY5
 10
0.0
 20
0.0
 30
0.0
  0
LINE
  5
C4
330
1F
100
AcDbEntity
  8
LC-002-100-D00-0
 62
     7
370
    50
100
AcDbLine
 10
-25.389599
 20
130.678048
 30
0.0
 11
-32.989594
 21
130.678048
 31
0.0
  0
LINE
  5
C5
330
1F
100
AcDbEntity
  8
LC-002-100-D00-0
 62
     7
370
    50
100
AcDbLine
 10
-22.639605
 20
130.678048
 30
0.0
 11
-25.389599
 21
130.678048
 31
0.0
  0
LINE
  5
C6
330
1F
100
AcDbEntity
  8
LC-002-100-D00-0
 62
     7
370
    50
100
AcDbLine
 10
-25.389599
 20
128.178048
 30
0.0
 11
-28.939592
 21
128.178048
 31
0.0
  0
LINE
  5
C7
330
1F
100
AcDbEntity
  8
LC-002-100-D00-0
 62
     7
370
    50
100
AcDbLine
 10
-22.639605
 20
128.178048
 30
0.0
 11
-25.389599
 21
128.178048
 31
0.0
  0
LINE
  5
C8
330
1F
100
AcDbEntity
  8
LC-002-100-D00-0
 62
     7
370
    50
100
AcDbLine
 10
-20.639601
 20
127.078048
 30
0.0
 11
-20.139592
 21
127.578048
 31
0.0
  0
LINE
  5
C9
330
1F
100
AcDbEntity
  8
LC-002-100-D00-0
 62
     7
370
    50
100
AcDbLine
 10
-20.639601
 20
127.078048
 30
0.0
 11
-20.639601
 21
124.078048
 31
0.0
  0
LINE
  5
CA
330
1F
100
AcDbEntity
  8
LC-002-100-D00-0
 62
     7
370
    50
100
AcDbLine
 10
-20.139592
 20
124.078048
 30
0.0
 11
-20.139592
 21
86.078048
 31
0.0
  0
LINE
  5
CB
330
1F
100
AcDbEntity
  8
LC-002-100-D00-0
 62
     7
370
    50
100
AcDbLine
 10
-22.639605
 20
86.078048
 30
0.0
 11
-20.139592
 21
86.078048
 31
0.0
  0
LINE
  5
CC
330
1F
100
AcDbEntity
  8
LC-002-100-D00-0
 62
     7
370
    50
100
AcDbLine
 10
-22.639605
 20
131.078048
 30
0.0
 11
-22.639605
 21
86.078048
 31
0.0
  0
ARC
  5
CD
330
1F
100
AcDbEntity
  8
LC-002-100-D00-0
 62
     7
370
    50
100
AcDbCircle
 10
-21.639598
 20
129.578048
 30
0.0
 40
1.5
100
AcDbArc
 50
0.0
 51
90.0
  0
LINE
  5
CE
330
1F
100
AcDbEntity
  8
LC-002-100-D00-0
 62
     7
370
    50
100
AcDbLine
 10
-20.139592
 20
129.578048
 30
0.0
 11
-20.139592
 21
127.578048
 31
0.0
  0
LINE
  5
CF
330
1F
100
AcDbEntity
  8
LC-002-100-D00-0
 62
     7
370
    50
100
AcDbLine
 10
-20.639601
 20
124.078048
 30
0.0
 11
-20.139592
 21
124.078048
 31
0.0
  0
LINE
  5
D0
330
1F
100
AcDbEntity
  8
LC-002-100-D00-0
 62
     7
370
    50
100
AcDbLine
 10
-21.639603
 20
131.078048
 30
0.0
 11
-22.639605
 21
131.078048
 31
0.0
  0
ARC
  5
D1
330
1F
100
AcDbEntity
  8
LC-002-100-D00-0
 62
     7
370
    50
100
AcDbCircle
 10
104.860402
 20
129.578048
 30
0.0
 40
1.5
100
AcDbArc
 50
90.0
 51
180.0
  0
LINE
  5
D2
330
1F
100
AcDbEntity
  8
LC-002-100-D00-0
 62
     7
370
    50
100
AcDbLine
 10
105.86041
 20
86.078048
 30
0.0
 11
105.86041
 21
131.078048
 31
0.0
  0
LINE
  5
D3
330
1F
100
AcDbEntity
  8
LC-002-100-D00-0
 62
     7
370
    50
100
AcDbLine
 10
103.360412
 20
86.078048
 30
0.0
 11
105.86041
 21
86.078048
 31
0.0
  0
LINE
  5
D4
330
1F
100
AcDbEntity
  8
LC-002-100-D00-0
 62
     7
370
    50
100
AcDbLine
 10
103.360412
 20
86.078048
 30
0.0
 11
103.360412
 21
124.078048
 31
0.0
  0
LINE
  5
D5
330
1F
100
AcDbEntity
  8
LC-002-100-D00-0
 62
     7
370
    50
100
AcDbLine
 10
103.860406
 20
124.078048
 30
0.0
 11
103.860406
 21
127.078048
 31
0.0
  0
LINE
  5
D6
330
1F
100
AcDbEntity
  8
LC-002-100-D00-0
 62
     7
370
    50
100
AcDbLine
 10
103.360412
 20
127.578048
 30
0.0
 11
103.860406
 21
127.078048
 31
0.0
  0
LINE
  5
D7
330
1F
100
AcDbEntity
  8
LC-002-100-D00-0
 62
     7
370
    50
100
AcDbLine
 10
103.360412
 20
127.578048
 30
0.0
 11
103.360412
 21
129.578048
 31
0.0
  0
LINE
  5
D8
330
1F
100
AcDbEntity
  8
LC-002-100-D00-0
 62
     7
370
    50
100
AcDbLine
 10
103.360412
 20
124.078048
 30
0.0
 11
103.860406
 21
124.078048
 31
0.0
  0
LINE
  5
D9
330
1F
100
AcDbEntity
  8
LC-002-100-D00-0
 62
     7
370
    50
100
AcDbLine
 10
105.86041
 20
131.078048
 30
0.0
 11
104.860393
 21
131.078048
 31
0.0
  0
LINE
  5
DA
330
1F
100
AcDbEntity
  8
LC-002-100-D00-0
 62
     7
370
    50
100
AcDbLine
 10
-20.139592
 20
86.078048
 30
0.0
 11
103.360412
 21
86.078048
 31
0.0
  0
LINE
  5
DB
330
1F
100
AcDbEntity
  8
LC-002-100-D00-0
 62
     7
370
    50
100
AcDbLine
 10
-20.139592
 20
124.078048
 30
0.0
 11
-19.889596
 21
124.078048
 31
0.0
  0
LINE
  5
DC
330
1F
100
AcDbEntity
  8
LC-002-100-D00-0
 62
     7
370
    50
100
AcDbLine
 10
103.1104
 20
124.078048
 30
0.0
 11
103.360412
 21
124.078048
 31
0.0
  0
LINE
  5
DD
330
1F
100
AcDbEntity
  8
LC-002-100-D00-0
 62
     7
370
    50
100
AcDbLine
 10
103.410301
 20
131.078048
 30
0.0
 11
104.860393
 21
131.078048
 31
0.0
  0
INSERT
  5
E6
330
1F
100
AcDbEntity
  8
LC-002-100-D00-0
 62
     7
370
    25
100
AcDbBlockReference
  2
KLON1
 10
0.0
 20
0.0
 30
0.0
  0
INSERT
  5
F0
330
1F
100
AcDbEntity
  8
LC-002-100-D00-0
 62
     7
370
    25
100
AcDbBlockReference
  2
KLON2
 10
0.0
 20
0.0
 30
0.0
  0
INSERT
  5
F6
330
1F
100
AcDbEntity
  8
LC-002-100-D00-0
 62
     7
370
    25
100
AcDbBlockReference
  2
KLON3
 10
0.0
 20
0.0
 30
0.0
  0
INSERT
  5
FF
330
1F
100
AcDbEntity
  8
LC-002-100-D00-0
 62
     7
370
    25
100
AcDbBlockReference
  2
KLON4
 10
0.0
 20
0.0
 30
0.0
  0
LINE
  5
100
330
1F
100
AcDbEntity
  8
LC-002-100-D00-0
  6
DASHDOT
 62
     7
370
    25
100
AcDbLine
 10
41.610402
 20
82.078048
 30
0.0
 11
41.610402
 21
128.078048
 31
0.0
  0
DIMENSION
  5
104
330
1F
100
AcDbEntity
  8
LC-003-003-----0
 62
     7
370
    25
100
AcDbDimension
  2
*D10
 10
107.610402
 20
161.631511
 30
0.0
 11
35.131964
 21
192.431511
 31
0.0
 70
   160
  1
150
 71
     5
 42
148.000002
  3
LC-DIM-L-0140-02-02
100
AcDbAlignedDimension
 13
-40.3896
 23
135.328048
 33
0.0
 14
107.610402
 24
135.328048
 34
0.0
100
AcDbRotatedDimension
  0
DIMENSION
  5
112
330
1F
100
AcDbEntity
  8
LC-003-003-----0
 62
     7
370
    25
100
AcDbDimension
  2
*D11
 10
105.86041
 20
32.12654
 30
0.0
 11
38.508696
 21
62.92654
 31
0.0
 70
   160
  1
%%c<>
 71
     5
 42
128.500007
  3
LC-DIM-L-0140-02-02
100
AcDbAlignedDimension
 13
-22.639598
 23
87.765479
 33
0.0
 14
105.86041
 24
86.078048
 34
0.0
100
AcDbRotatedDimension
  0
DIMENSION
  5
11F
330
1F
100
AcDbEntity
  8
LC-003-003-----0
 62
     7
370
    25
100
AcDbDimension
  2
*D12
 10
166.294182
 20
86.078048
 30
0.0
 11
135.494182
 21
119.44454
 31
0.0
 70
   160
 71
     5
 42
51.5
 53
90.0
  3
LC-DIM-L-0140-02-02
100
AcDbAlignedDimension
 13
105.360416
 23
137.578048
 33
0.0
 14
105.86041
 24
86.078048
 34
0.0
 50
90.0
100
AcDbRotatedDimension
  0
DIMENSION
  5
12E
330
1F
100
AcDbEntity
  8
LC-003-003-----0
 62
     7
370
    25
100
AcDbDimension
  2
*D13
 10
-65.849451
 20
131.678048
 30
0.0
 11
-96.649451
 21
124.79054
 31
0.0
 70
   160
  1
6
 71
     5
 42
5.9
 53
90.0
  3
LC-DIM-L-0140-02-02
100
AcDbAlignedDimension
 13
-38.139599
 23
137.578048
 33
0.0
 14
-41.389602
 24
131.678048
 34
0.0
 50
90.0
100
AcDbRotatedDimension
  0
LINE
  5
13C
330
1F
100
AcDbEntity
  8
LC-001-002-----0
  6
ByBlock
 62
     7
370
    50
100
AcDbLine
 10
-30.139598
 20
132.078048
 30
0.0
 11
-30.975384
 21
132.078048
 31
0.0
  0
LINE
  5
13D
330
1F
100
AcDbEntity
  8
LC-001-002-----0
  6
ByBlock
 62
     7
370
    50
100
AcDbLine
 10
-20.639598
 20
132.078048
 30
0.0
 11
-19.803811
 21
132.078048
 31
0.0
  0
LINE
  5
13E
330
1F
100
AcDbEntity
  8
LC-001-002-----0
  6
ByBlock
 62
     7
370
    50
100
AcDbLine
 10
98.196189
 20
132.078048
 30
0.0
 11
87.024616
 21
132.078048
 31
0.0
  0
LINE
  5
13F
330
1F
100
AcDbEntity
  8
LC-001-002-----0
  6
ByBlock
 62
     7
370
    50
100
AcDbLine
 10
-20.727172
 20
132.078048
 30
0.0
 11
-20.639598
 21
132.078048
 31
0.0
  0
LINE
  5
140
330
1F
100
AcDbEntity
  8
LC-001-002-----0
  6
ByBlock
 62
     7
370
    50
100
AcDbLine
 10
-30.139598
 20
132.078048
 30
0.0
 11
-20.727172
 21
132.078048
 31
0.0
  0
LINE
  5
141
102
{ACAD_REACTORS
330
2C4
102
}
330
1F
100
AcDbEntity
  8
LC-001-002-----0
  6
ByBlock
 62
     7
370
    50
100
AcDbLine
 10
-35.389598
 20
132.078048
 30
0.0
 11
102.610402
 21
132.078048
 31
0.0
  0
LINE
  5
142
102
{ACAD_REACTORS
330
2C3
102
}
330
1F
100
AcDbEntity
  8
LC-002-100-D00-0
 62
     7
370
    50
100
AcDbLine
 10
213.36041
 20
181.359239
 30
0.0
 11
346.36041
 21
181.359239
 31
0.0
  0
LINE
  5
143
102
{ACAD_REACTORS
330
2C3
102
}
330
1F
100
AcDbEntity
  8
LC-002-100-D00-0
 62
     7
370
    50
100
AcDbLine
 10
348.860409
 20
178.859241
 30
0.0
 11
348.860409
 21
45.859241
 31
0.0
  0
LINE
  5
144
102
{ACAD_REACTORS
330
2C3
102
}
330
1F
100
AcDbEntity
  8
LC-002-100-D00-0
 62
     7
370
    50
100
AcDbLine
 10
210.860412
 20
45.859241
 30
0.0
 11
210.860412
 21
178.859241
 31
0.0
  0
LINE
  5
145
102
{ACAD_REACTORS
330
2C3
102
}
330
1F
100
AcDbEntity
  8
LC-002-100-D00-0
 62
     7
370
    50
100
AcDbLine
 10
346.36041
 20
43.359243
 30
0.0
 11
213.36041
 21
43.359243
 31
0.0
  0
ARC
  5
146
102
{ACAD_REACTORS
330
2C3
102
}
330
1F
100
AcDbEntity
  8
LC-002-100-D00-0
 62
     7
370
    50
100
AcDbCircle
 10
213.36041
 20
178.859241
 30
0.0
 40
3.000000000000057
100
AcDbArc
 50
90.0
 51
180.0
  0
ARC
  5
147
102
{ACAD_REACTORS
330
2C3
102
}
330
1F
100
AcDbEntity
  8
LC-002-100-D00-0
 62
     7
370
    50
100
AcDbCircle
 10
213.36041
 20
178.859241
 30
0.0
 40
7.500000000000114
100
AcDbArc
 50
90.0
 51
180.0
  0
ARC
  5
148
102
{ACAD_REACTORS
330
2C3
102
}
330
1F
100
AcDbEntity
  8
LC-002-100-D00-0
 62
     7
370
    50
100
AcDbCircle
 10
346.36041
 20
178.859241
 30
0.0
 40
3.0
100
AcDbArc
 50
0.0
 51
90.0
  0
ARC
  5
149
102
{ACAD_REACTORS
330
2C3
102
}
330
1F
100
AcDbEntity
  8
LC-002-100-D00-0
 62
     7
370
    50
100
AcDbCircle
 10
346.36041
 20
178.859241
 30
0.0
 40
7.500000000000114
100
AcDbArc
 50
0.0
 51
90.0
  0
LINE
  5
14A
102
{ACAD_REACTORS
330
2C3
102
}
330
1F
100
AcDbEntity
  8
LC-002-100-D00-0
 62
     7
370
    50
100
AcDbLine
 10
346.360411
 20
181.85924
 30
0.0
 11
213.36041
 21
181.85924
 31
0.0
  0
LINE
  5
14B
102
{ACAD_REACTORS
330
2C3
102
}
330
1F
100
AcDbEntity
  8
LC-002-100-D00-0
 62
     7
370
    50
100
AcDbLine
 10
346.360411
 20
186.359242
 30
0.0
 11
213.36041
 21
186.359242
 31
0.0
  0
LINE
  5
14C
102
{ACAD_REACTORS
330
2C3
102
}
330
1F
100
AcDbEntity
  8
LC-002-100-D00-0
 62
     7
370
    50
100
AcDbLine
 10
349.36041
 20
45.85924
 30
0.0
 11
349.36041
 21
178.859242
 31
0.0
  0
LINE
  5
14D
102
{ACAD_REACTORS
330
2C3
102
}
330
1F
100
AcDbEntity
  8
LC-002-100-D00-0
 62
     7
370
    50
100
AcDbLine
 10
353.860412
 20
45.85924
 30
0.0
 11
353.860412
 21
178.859242
 31
0.0
  0
LINE
  5
14E
102
{ACAD_REACTORS
330
2C3
102
}
330
1F
100
AcDbEntity
  8
LC-002-100-D00-0
 62
     7
370
    50
100
AcDbLine
 10
205.86041
 20
45.85924
 30
0.0
 11
205.86041
 21
178.859242
 31
0.0
  0
LINE
  5
14F
102
{ACAD_REACTORS
330
2C3
102
}
330
1F
100
AcDbEntity
  8
LC-002-100-D00-0
 62
     7
370
    50
100
AcDbLine
 10
210.360411
 20
45.85924
 30
0.0
 11
210.360411
 21
178.859242
 31
0.0
  0
ARC
  5
150
102
{ACAD_REACTORS
330
2C3
102
}
330
1F
100
AcDbEntity
  8
LC-002-100-D00-0
 62
     7
370
    50
100
AcDbCircle
 10
213.36041
 20
45.859241
 30
0.0
 40
3.0
100
AcDbArc
 50
180.0
 51
270.0
  0
ARC
  5
151
102
{ACAD_REACTORS
330
2C3
102
}
330
1F
100
AcDbEntity
  8
LC-002-100-D00-0
 62
     7
370
    50
100
AcDbCircle
 10
213.36041
 20
45.859241
 30
0.0
 40
7.5
100
AcDbArc
 50
180.0
 51
270.0
  0
ARC
  5
152
102
{ACAD_REACTORS
330
2C3
102
}
330
1F
100
AcDbEntity
  8
LC-002-100-D00-0
 62
     7
370
    50
100
AcDbCircle
 10
346.36041
 20
45.859241
 30
0.0
 40
3.000000000000057
100
AcDbArc
 50
270.0
 51
0.0
  0
ARC
  5
153
102
{ACAD_REACTORS
330
2C3
102
}
330
1F
100
AcDbEntity
  8
LC-002-100-D00-0
 62
     7
370
    50
100
AcDbCircle
 10
346.36041
 20
45.859241
 30
0.0
 40
7.500000000000057
100
AcDbArc
 50
270.0
 51
0.0
  0
LINE
  5
154
102
{ACAD_REACTORS
330
2C3
102
}
330
1F
100
AcDbEntity
  8
LC-002-100-D00-0
 62
     7
370
    50
100
AcDbLine
 10
213.36041
 20
42.859242
 30
0.0
 11
346.360411
 21
42.859242
 31
0.0
  0
LINE
  5
155
102
{ACAD_REACTORS
330
2C3
102
}
330
1F
100
AcDbEntity
  8
LC-002-100-D00-0
 62
     7
370
    50
100
AcDbLine
 10
213.36041
 20
38.35924
 30
0.0
 11
346.360411
 21
38.35924
 31
0.0
  0
INSERT
  5
167
102
{ACAD_REACTORS
330
2C3
102
}
330
1F
100
AcDbEntity
  8
LC-002-100-D00-0
 62
     7
370
    50
100
AcDbBlockReference
  2
POLY6
 10
0.0
 20
0.0
 30
0.0
  0
INSERT
  5
179
102
{ACAD_REACTORS
330
2C3
102
}
330
1F
100
AcDbEntity
  8
LC-002-100-D00-0
 62
     7
370
    50
100
AcDbBlockReference
  2
POLY7
 10
0.0
 20
0.0
 30
0.0
  0
INSERT
  5
18B
102
{ACAD_REACTORS
330
2C3
102
}
330
1F
100
AcDbEntity
  8
LC-002-100-D00-0
 62
     7
370
    50
100
AcDbBlockReference
  2
POLY8
 10
0.0
 20
0.0
 30
0.0
  0
INSERT
  5
19D
102
{ACAD_REACTORS
330
2C3
102
}
330
1F
100
AcDbEntity
  8
LC-002-100-D00-0
 62
     7
370
    50
100
AcDbBlockReference
  2
POLY9
 10
0.0
 20
0.0
 30
0.0
  0
INSERT
  5
1AF
102
{ACAD_REACTORS
330
2C3
102
}
330
1F
100
AcDbEntity
  8
LC-002-100-D00-0
 62
     7
370
    50
100
AcDbBlockReference
  2
POLY10
 10
0.0
 20
0.0
 30
0.0
  0
INSERT
  5
1C1
102
{ACAD_REACTORS
330
2C3
102
}
330
1F
100
AcDbEntity
  8
LC-002-100-D00-0
 62
     7
370
    50
100
AcDbBlockReference
  2
POLY11
 10
0.0
 20
0.0
 30
0.0
  0
INSERT
  5
1D3
102
{ACAD_REACTORS
330
2C3
102
}
330
1F
100
AcDbEntity
  8
LC-002-100-D00-0
 62
     7
370
    50
100
AcDbBlockReference
  2
POLY12
 10
0.0
 20
0.0
 30
0.0
  0
INSERT
  5
1E5
102
{ACAD_REACTORS
330
2C3
102
}
330
1F
100
AcDbEntity
  8
LC-002-100-D00-0
 62
     7
370
    50
100
AcDbBlockReference
  2
POLY13
 10
0.0
 20
0.0
 30
0.0
  0
INSERT
  5
1F7
102
{ACAD_REACTORS
330
2C3
102
}
330
1F
100
AcDbEntity
  8
LC-002-100-D00-0
 62
     7
370
    50
100
AcDbBlockReference
  2
POLY14
 10
0.0
 20
0.0
 30
0.0
  0
INSERT
  5
209
102
{ACAD_REACTORS
330
2C3
102
}
330
1F
100
AcDbEntity
  8
LC-002-100-D00-0
 62
     7
370
    50
100
AcDbBlockReference
  2
POLY15
 10
0.0
 20
0.0
 30
0.0
  0
INSERT
  5
21B
102
{ACAD_REACTORS
330
2C3
102
}
330
1F
100
AcDbEntity
  8
LC-002-100-D00-0
 62
     7
370
    50
100
AcDbBlockReference
  2
POLY16
 10
0.0
 20
0.0
 30
0.0
  0
INSERT
  5
22D
102
{ACAD_REACTORS
330
2C3
102
}
330
1F
100
AcDbEntity
  8
LC-002-100-D00-0
 62
     7
370
    50
100
AcDbBlockReference
  2
POLY17
 10
0.0
 20
0.0
 30
0.0
  0
INSERT
  5
23F
102
{ACAD_REACTORS
330
2C3
102
}
330
1F
100
AcDbEntity
  8
LC-002-100-D00-0
 62
     7
370
    50
100
AcDbBlockReference
  2
POLY18
 10
0.0
 20
0.0
 30
0.0
  0
INSERT
  5
251
102
{ACAD_REACTORS
330
2C3
102
}
330
1F
100
AcDbEntity
  8
LC-002-100-D00-0
 62
     7
370
    50
100
AcDbBlockReference
  2
POLY19
 10
0.0
 20
0.0
 30
0.0
  0
INSERT
  5
263
102
{ACAD_REACTORS
330
2C3
102
}
330
1F
100
AcDbEntity
  8
LC-002-100-D00-0
 62
     7
370
    50
100
AcDbBlockReference
  2
POLY20
 10
0.0
 20
0.0
 30
0.0
  0
INSERT
  5
275
102
{ACAD_REACTORS
330
2C3
102
}
330
1F
100
AcDbEntity
  8
LC-002-100-D00-0
 62
     7
370
    50
100
AcDbBlockReference
  2
POLY21
 10
0.0
 20
0.0
 30
0.0
  0
LINE
  5
276
102
{ACAD_REACTORS
330
2C3
102
}
330
1F
100
AcDbEntity
  8
LC-002-100-D00-0
 62
     7
370
    50
100
AcDbLine
 10
326.360408
 20
187.359244
 30
0.0
 11
313.360412
 21
187.359244
 31
0.0
  0
ARC
  5
277
102
{ACAD_REACTORS
330
2C3
102
}
330
1F
100
AcDbEntity
  8
LC-002-100-D00-0
 62
     7
370
    50
100
AcDbCircle
 10
326.36041
 20
186.359241
 30
0.0
 40
1.00000000000011
100
AcDbArc
 50
30.0
 51
90.0
  0
ARC
  5
278
102
{ACAD_REACTORS
330
2C3
102
}
330
1F
100
AcDbEntity
  8
LC-002-100-D00-0
 62
     7
370
    50
100
AcDbCircle
 10
313.36041
 20
186.359241
 30
0.0
 40
1.0
100
AcDbArc
 50
90.0
 51
150.0
  0
LINE
  5
279
102
{ACAD_REACTORS
330
2C3
102
}
330
1F
100
AcDbEntity
  8
LC-002-100-D00-0
 62
     7
370
    50
100
AcDbLine
 10
233.36041
 20
187.359244
 30
0.0
 11
246.36041
 21
187.359244
 31
0.0
  0
ARC
  5
27A
102
{ACAD_REACTORS
330
2C3
102
}
330
1F
100
AcDbEntity
  8
LC-002-100-D00-0
 62
     7
370
    50
100
AcDbCircle
 10
246.36041
 20
186.359241
 30
0.0
 40
1.00000000000011
100
AcDbArc
 50
30.0
 51
90.0
  0
ARC
  5
27B
102
{ACAD_REACTORS
330
2C3
102
}
330
1F
100
AcDbEntity
  8
LC-002-100-D00-0
 62
     7
370
    50
100
AcDbCircle
 10
233.36041
 20
186.359241
 30
0.0
 40
1.0
100
AcDbArc
 50
90.0
 51
150.0
  0
LINE
  5
27C
102
{ACAD_REACTORS
330
2C3
102
}
330
1F
100
AcDbEntity
  8
LC-002-100-D00-0
 62
     7
370
    50
100
AcDbLine
 10
204.860408
 20
158.859242
 30
0.0
 11
204.860408
 21
145.859242
 31
0.0
  0
ARC
  5
27D
102
{ACAD_REACTORS
330
2C3
102
}
330
1F
100
AcDbEntity
  8
LC-002-100-D00-0
 62
     7
370
    50
100
AcDbCircle
 10
205.86041
 20
158.859241
 30
0.0
 40
0.9999999999999836
100
AcDbArc
 50
120.0
 51
180.0
  0
ARC
  5
27E
102
{ACAD_REACTORS
330
2C3
102
}
330
1F
100
AcDbEntity
  8
LC-002-100-D00-0
 62
     7
370
    50
100
AcDbCircle
 10
205.86041
 20
145.859241
 30
0.0
 40
1.000000000000057
100
AcDbArc
 50
180.0
 51
240.0
  0
LINE
  5
27F
102
{ACAD_REACTORS
330
2C3
102
}
330
1F
100
AcDbEntity
  8
LC-002-100-D00-0
 62
     7
370
    50
100
AcDbLine
 10
354.860406
 20
158.859242
 30
0.0
 11
354.860406
 21
145.859242
 31
0.0
  0
ARC
  5
280
102
{ACAD_REACTORS
330
2C3
102
}
330
1F
100
AcDbEntity
  8
LC-002-100-D00-0
 62
     7
370
    50
100
AcDbCircle
 10
353.86041
 20
145.859241
 30
0.0
 40
0.9999999999999344
100
AcDbArc
 50
300.0
 51
0.0
  0
ARC
  5
281
102
{ACAD_REACTORS
330
2C3
102
}
330
1F
100
AcDbEntity
  8
LC-002-100-D00-0
 62
     7
370
    50
100
AcDbCircle
 10
353.86041
 20
158.859241
 30
0.0
 40
1.0
100
AcDbArc
 50
0.0
 51
60.0
  0
LINE
  5
282
102
{ACAD_REACTORS
330
2C3
102
}
330
1F
100
AcDbEntity
  8
LC-002-100-D00-0
 62
     7
370
    50
100
AcDbLine
 10
354.860406
 20
65.85924
 30
0.0
 11
354.860406
 21
78.85924
 31
0.0
  0
ARC
  5
283
102
{ACAD_REACTORS
330
2C3
102
}
330
1F
100
AcDbEntity
  8
LC-002-100-D00-0
 62
     7
370
    50
100
AcDbCircle
 10
353.86041
 20
65.859241
 30
0.0
 40
0.9999999999999344
100
AcDbArc
 50
300.0
 51
0.0
  0
ARC
  5
284
102
{ACAD_REACTORS
330
2C3
102
}
330
1F
100
AcDbEntity
  8
LC-002-100-D00-0
 62
     7
370
    50
100
AcDbCircle
 10
353.86041
 20
78.859241
 30
0.0
 40
1.0
100
AcDbArc
 50
0.0
 51
60.0
  0
LINE
  5
285
102
{ACAD_REACTORS
330
2C3
102
}
330
1F
100
AcDbEntity
  8
LC-002-100-D00-0
 62
     7
370
    50
100
AcDbLine
 10
204.860408
 20
65.85924
 30
0.0
 11
204.860408
 21
78.85924
 31
0.0
  0
ARC
  5
286
102
{ACAD_REACTORS
330
2C3
102
}
330
1F
100
AcDbEntity
  8
LC-002-100-D00-0
 62
     7
370
    50
100
AcDbCircle
 10
205.86041
 20
78.859241
 30
0.0
 40
0.9999999999999836
100
AcDbArc
 50
120.0
 51
180.0
  0
ARC
  5
287
102
{ACAD_REACTORS
330
2C3
102
}
330
1F
100
AcDbEntity
  8
LC-002-100-D00-0
 62
     7
370
    50
100
AcDbCircle
 10
205.86041
 20
65.859241
 30
0.0
 40
1.000000000000057
100
AcDbArc
 50
180.0
 51
240.0
  0
LINE
  5
288
102
{ACAD_REACTORS
330
2C3
102
}
330
1F
100
AcDbEntity
  8
LC-002-100-D00-0
 62
     7
370
    50
100
AcDbLine
 10
233.36041
 20
37.359238
 30
0.0
 11
246.36041
 21
37.359238
 31
0.0
  0
ARC
  5
289
102
{ACAD_REACTORS
330
2C3
102
}
330
1F
100
AcDbEntity
  8
LC-002-100-D00-0
 62
     7
370
    50
100
AcDbCircle
 10
233.36041
 20
38.359241
 30
0.0
 40
1.000000000000033
100
AcDbArc
 50
210.0
 51
270.0
  0
ARC
  5
28A
102
{ACAD_REACTORS
330
2C3
102
}
330
1F
100
AcDbEntity
  8
LC-002-100-D00-0
 62
     7
370
    50
100
AcDbCircle
 10
246.36041
 20
38.359241
 30
0.0
 40
1.000000000000057
100
AcDbArc
 50
270.0
 51
330.0
  0
LINE
  5
28B
102
{ACAD_REACTORS
330
2C3
102
}
330
1F
100
AcDbEntity
  8
LC-002-100-D00-0
 62
     7
370
    50
100
AcDbLine
 10
326.360408
 20
37.359238
 30
0.0
 11
313.360412
 21
37.359238
 31
0.0
  0
ARC
  5
28C
102
{ACAD_REACTORS
330
2C3
102
}
330
1F
100
AcDbEntity
  8
LC-002-100-D00-0
 62
     7
370
    50
100
AcDbCircle
 10
313.36041
 20
38.359241
 30
0.0
 40
0.9999999999999836
100
AcDbArc
 50
210.0
 51
270.0
  0
ARC
  5
28D
102
{ACAD_REACTORS
330
2C3
102
}
330
1F
100
AcDbEntity
  8
LC-002-100-D00-0
 62
     7
370
    50
100
AcDbCircle
 10
326.36041
 20
38.359241
 30
0.0
 40
1.000000000000057
100
AcDbArc
 50
270.0
 51
330.0
  0
ARC
  5
28E
102
{ACAD_REACTORS
330
2C3
102
}
330
1F
100
AcDbEntity
  8
LC-002-100-D00-0
 62
     7
370
    50
100
AcDbCircle
 10
213.36041
 20
178.859241
 30
0.0
 40
2.500000000000114
100
AcDbArc
 50
90.0
 51
180.0
  0
ARC
  5
28F
102
{ACAD_REACTORS
330
2C3
102
}
330
1F
100
AcDbEntity
  8
LC-002-100-D00-0
 62
     7
370
    50
100
AcDbCircle
 10
346.36041
 20
178.859241
 30
0.0
 40
2.500000000000114
100
AcDbArc
 50
0.0
 51
90.0
  0
INSERT
  5
29F
102
{ACAD_REACTORS
330
2C3
102
}
330
1F
100
AcDbEntity
  8
LC-002-100-D00-0
 62
     7
370
    50
100
AcDbBlockReference
  2
POLY22
 10
0.0
 20
0.0
 30
0.0
  0
ARC
  5
2A0
102
{ACAD_REACTORS
330
2C3
102
}
330
1F
100
AcDbEntity
  8
LC-002-100-D00-0
 62
     7
370
    50
100
AcDbCircle
 10
346.36041
 20
45.859241
 30
0.0
 40
2.5
100
AcDbArc
 50
270.0
 51
0.0
  0
ARC
  5
2A1
102
{ACAD_REACTORS
330
2C3
102
}
330
1F
100
AcDbEntity
  8
LC-002-100-D00-0
 62
     7
370
    50
100
AcDbCircle
 10
213.36041
 20
45.859241
 30
0.0
 40
2.5
100
AcDbArc
 50
180.0
 51
270.0
  0
INSERT
  5
2BB
102
{ACAD_REACTORS
330
2C3
102
}
330
1F
100
AcDbEntity
  8
LC-002-100-D00-0
 62
     7
370
    15
100
AcDbBlockReference
  2
POLY23
 10
0.0
 20
0.0
 30
0.0
  0
CIRCLE
  5
2BC
102
{ACAD_REACTORS
330
2C3
102
}
330
1F
100
AcDbEntity
  8
LC-002-100-D00-0
 62
     7
370
    50
100
AcDbCircle
 10
338.860409
 20
171.35924
 30
0.0
 40
7.0
  0
CIRCLE
  5
2BD
102
{ACAD_REACTORS
330
2C3
102
}
330
1F
100
AcDbEntity
  8
LC-002-100-D00-0
 62
     7
370
    50
100
AcDbCircle
 10
220.860409
 20
171.35924
 30
0.0
 40
7.0
  0
ARC
  5
2BE
102
{ACAD_REACTORS
330
2C3
102
}
330
1F
100
AcDbEntity
  8
LC-002-100-D00-0
 62
     7
370
    50
100
AcDbCircle
 10
271.860409
 20
112.35924
 30
0.0
 40
60.50000000000008
100
AcDbArc
 50
196.130804
 51
163.869196
  0
CIRCLE
  5
2BF
102
{ACAD_REACTORS
330
2C3
102
}
330
1F
100
AcDbEntity
  8
LC-002-100-D00-0
 62
     7
370
    50
100
AcDbCircle
 10
338.860409
 20
53.35924
 30
0.0
 40
7.0
  0
CIRCLE
  5
2C0
102
{ACAD_REACTORS
330
2C3
102
}
330
1F
100
AcDbEntity
  8
LC-002-100-D00-0
 62
     7
370
    50
100
AcDbCircle
 10
220.860409
 20
53.35924
 30
0.0
 40
7.0
  0
CIRCLE
  5
2C1
102
{ACAD_REACTORS
330
2C3
102
}
330
1F
100
AcDbEntity
  8
LC-002-100-D00-0
 62
     7
370
    50
100
AcDbCircle
 10
220.860409
 20
171.35924
 30
0.0
 40
2.549999999999955
  0
CIRCLE
  5
2C2
102
{ACAD_REACTORS
330
2C3
102
}
330
1F
100
AcDbEntity
  8
LC-002-100-D00-0
 62
     7
370
    50
100
AcDbCircle
 10
338.860409
 20
53.35924
 30
0.0
 40
2.550000000000068
  0
ENDSEC
  0
SECTION
  2
OBJECTS
  0
DICTIONARY
  5
C
330
0
100
AcDbDictionary
281
     1
  3
ACAD_GROUP
350
D
  3
ACAD_LAYOUT
350
1A
  3
ACAD_MLINESTYLE
350
17
  3
ACAD_PLOTSETTINGS
350
19
  3
ACAD_PLOTSTYLENAME
350
E
  0
DICTIONARY
  5
D
102
{ACAD_REACTORS
330
C
102
}
330
C
100
AcDbDictionary
281
     1
  3
LCGROUP10
350
2C3
  3
LCGROUP1232
350
2C4
  0
DICTIONARY
  5
1A
102
{ACAD_REACTORS
330
C
102
}
330
C
100
AcDbDictionary
281
     1
  3
Layout1
350
1E
  3
Layout2
350
26
  3
Model
350
22
  0
DICTIONARY
  5
17
102
{ACAD_REACTORS
330
C
102
}
330
C
100
AcDbDictionary
281
     1
  3
Standard
350
18
  0
DICTIONARY
  5
19
102
{ACAD_REACTORS
330
C
102
}
330
C
100
AcDbDictionary
281
     1
  0
ACDBDICTIONARYWDFLT
  5
E
102
{ACAD_REACTORS
330
C
102
}
330
C
100
AcDbDictionary
281
     1
  3
Normal
350
F
100
AcDbDictionaryWithDefault
340
F
  0
GROUP
  5
2C3
102
{ACAD_REACTORS
330
D
102
}
330
D
100
AcDbGroup
300
Rahmen
 70
     1
 71
     1
340
142
340
143
340
144
340
145
340
146
340
147
340
148
340
149
340
14A
340
14B
340
14C
340
14D
340
14E
340
14F
340
150
340
151
340
152
340
153
340
154
340
155
340
167
340
179
340
18B
340
19D
340
1AF
340
1C1
340
1D3
340
1E5
340
1F7
340
209
340
21B
340
22D
340
23F
340
251
340
263
340
275
340
276
340
277
340
278
340
279
340
27A
340
27B
340
27C
340
27D
340
27E
340
27F
340
280
340
281
340
282
340
283
340
284
340
285
340
286
340
287
340
288
340
289
340
28A
340
28B
340
28C
340
28D
340
28E
340
28F
340
29F
340
2A0
340
2A1
340
2BB
340
2BC
340
2BD
340
2BE
340
2BF
340
2C0
340
2C1
340
2C2
  0
GROUP
  5
2C4
102
{ACAD_REACTORS
330
D
102
}
330
D
100
AcDbGroup
300
Q
 70
     1
 71
     1
340
141
  0
LAYOUT
  5
1E
102
{ACAD_REACTORS
330
1A
102
}
330
1A
100
AcDbPlotSettings
  1

  2

  4

  6

 40
0.0
 41
0.0
 42
0.0
 43
0.0
 44
0.0
 45
0.0
 46
0.0
 47
0.0
 48
0.0
 49
0.0
140
0.0
141
0.0
142
1.0
143
1.0
 70
   688
 72
     0
 73
     0
 74
     5
  7

 75
    16
147
1.0
148
0.0
149
0.0
100
AcDbLayout
  1
Layout1
 70
     1
 71
     1
 10
-282.457552
 20
-226.26346
 11
557.542448
 21
367.73654
 12
0.0
 22
0.0
 32
0.0
 14
-282.457552
 24
-226.26346
 34
0.0
 15
557.542448
 25
367.73654
 35
0.0
146
0.0
 13
0.0
 23
0.0
 33
0.0
 16
1.0
 26
0.0
 36
0.0
 17
0.0
 27
1.0
 37
0.0
 76
     0
330
1B
  0
LAYOUT
  5
26
102
{ACAD_REACTORS
330
1A
102
}
330
1A
100
AcDbPlotSettings
  1

  2

  4

  6

 40
0.0
 41
0.0
 42
0.0
 43
0.0
 44
0.0
 45
0.0
 46
0.0
 47
0.0
 48
0.0
 49
0.0
140
0.0
141
0.0
142
1.0
143
1.0
 70
   688
 72
     0
 73
     0
 74
     5
  7

 75
    16
147
1.0
148
0.0
149
0.0
100
AcDbLayout
  1
Layout2
 70
     1
 71
     2
 10
0.0
 20
0.0
 11
0.0
 21
0.0
 12
0.0
 22
0.0
 32
0.0
 14
0.0
 24
0.0
 34
0.0
 15
0.0
 25
0.0
 35
0.0
146
0.0
 13
0.0
 23
0.0
 33
0.0
 16
1.0
 26
0.0
 36
0.0
 17
0.0
 27
1.0
 37
0.0
 76
     0
330
23
  0
LAYOUT
  5
22
102
{ACAD_REACTORS
330
1A
102
}
330
1A
100
AcDbPlotSettings
  1

  2

  4

  6

 40
0.0
 41
0.0
 42
0.0
 43
0.0
 44
0.0
 45
0.0
 46
0.0
 47
0.0
 48
0.0
 49
0.0
140
0.0
141
0.0
142
1.0
143
1.0
 70
  1776
 72
     0
 73
     0
 74
     0
  7

 75
     0
147
1.0
148
0.0
149
0.0
100
AcDbLayout
  1
Model
 70
     1
 71
     0
 10
-282.457552
 20
-226.26346
 11
557.542448
 21
367.73654
 12
0.0
 22
0.0
 32
0.0
 14
-282.457552
 24
-226.26346
 34
0.0
 15
557.542448
 25
367.73654
 35
0.0
146
0.0
 13
0.0
 23
0.0
 33
0.0
 16
1.0
 26
0.0
 36
0.0
 17
0.0
 27
1.0
 37
0.0
 76
     0
330
1F
  0
MLINESTYLE
  5
18
102
{ACAD_REACTORS
330
17
102
}
330
17
100
AcDbMlineStyle
  2
Standard
 70
     0
  3

 62
   256
 51
90.0
 52
90.0
 71
     2
 49
0.5
 62
   256
  6
BYLAYER
 49
-0.5
 62
   256
  6
BYLAYER
  0
ACDBPLACEHOLDER
  5
F
102
{ACAD_REACTORS
330
E
102
}
330
E
  0
ENDSEC
  0
EOF
