  0
SECTION
  2
HEADER
  9
$ACADVER
  1
AC1009
  9
$DWGCODEPAGE
  3
dos850
  9
$INSBASE
 10
0.0
 20
0.0
 30
0.0
  9
$EXTMIN
 10
0.0
 20
0.0
 30
0.0
  9
$EXTMAX
 10
840.0
 20
594.0
 30
0.0
  9
$LIMMIN
 10
0.0
 20
0.0
  9
$LIMMAX
 10
840.0
 20
594.0
  9
$ORTHOMODE
 70
     0
  9
$REGENMODE
 70
     1
  9
$FILLMODE
 70
     1
  9
$QTEXTMODE
 70
     0
  9
$MIRRTEXT
 70
     1
  9
$DRAGMODE
 70
     2
  9
$LTSCALE
 40
2.0
  9
$OSMODE
 70
     0
  9
$ATTMODE
 70
     1
  9
$TEXTSIZE
 40
0.2
  9
$TRACEWID
 40
0.05
  9
$TEXTSTYLE
  7
STANDARD
  9
$CLAYER
  8
0
  9
$CELTYPE
  6
BYBLOCK
  9
$CECOLOR
 62
     7
  9
$DIMSCALE
 40
2.0
  9
$DIMASZ
 40
3.5
  9
$DIMEXO
 40
0.0625
  9
$DIMDLI
 40
0.38
  9
$DIMRND
 40
0.0
  9
$DIMDLE
 40
0.0
  9
$DIMEXE
 40
0.18
  9
$DIMTP
 40
0.0
  9
$DIMTM
 40
0.0
  9
$DIMTXT
 40
3.5
  9
$DIMCEN
 40
0.09
  9
$DIMTSZ
 40
0.0
  9
$DIMTOL
 70
     0
  9
$DIMLIM
 70
     0
  9
$DIMTIH
 70
     1
  9
$DIMTOH
 70
     1
  9
$DIMSE1
 70
     0
  9
$DIMSE2
 70
     0
  9
$DIMTAD
 70
     1
  9
$DIMZIN
 70
     0
  9
$DIMBLK
  1

  9
$DIMASO
 70
     1
  9
$DIMSHO
 70
     1
  9
$DIMPOST
  1

  9
$DIMAPOST
  1

  9
$DIMALT
 70
     0
  9
$DIMALTD
 70
     2
  9
$DIMALTF
 40
25.4
  9
$DIMLFAC
 40
1.0
  9
$DIMTOFL
 70
     0
  9
$DIMTVP
 40
0.0
  9
$DIMTIX
 70
     0
  9
$DIMSOXD
 70
     0
  9
$DIMSAH
 70
     0
  9
$DIMBLK1
  1

  9
$DIMBLK2
  1

  9
$DIMSTYLE
  2
STANDARD
  9
$DIMCLRD
 70
     0
  9
$DIMCLRE
 70
     0
  9
$DIMCLRT
 70
     0
  9
$DIMTFAC
 40
1.0
  9
$DIMGAP
 40
0.09
  9
$LUNITS
 70
     2
  9
$LUPREC
 70
     6
  9
$AXISMODE
 70
     0
  9
$AXISUNIT
 10
0.0
 20
0.0
  9
$SKETCHINC
 40
0.1
  9
$FILLETRAD
 40
0.0
  9
$AUNITS
 70
     0
  9
$AUPREC
 70
     0
  9
$MENU
  1
acad
  9
$ELEVATION
 40
0.0
  9
$PELEVATION
 40
0.0
  9
$THICKNESS
 40
0.0
  9
$LIMCHECK
 70
     0
  9
$BLIPMODE
 70
     1
  9
$CHAMFERA
 40
0.0
  9
$CHAMFERB
 40
0.0
  9
$SKPOLY
 70
     0
  9
$TDCREATE
 40
0.000000000
  9
$TDUPDATE
 40
0.000000000
  9
$TDINDWG
 40
0.0000000000
  9
$TDUSRTIMER
 40
0.0000000000
  9
$USRTIMER
 70
     1
  9
$ANGBASE
 50
0.0
  9
$ANGDIR
 70
     0
  9
$PDMODE
 70
     0
  9
$PDSIZE
 40
0.0
  9
$PLINEWID
 40
0.0
  9
$COORDS
 70
     0
  9
$SPLFRAME
 70
     0
  9
$SPLINETYPE
 70
     6
  9
$SPLINESEGS
 70
     8
  9
$ATTDIA
 70
     0
  9
$ATTREQ
 70
     1
  9
$HANDLING
 70
     1
  9
$HANDSEED
  5
13A
  9
$SURFTAB1
 70
     6
  9
$SURFTAB2
 70
     6
  9
$SURFTYPE
 70
     6
  9
$SURFU
 70
     6
  9
$SURFV
 70
     6
  9
$UCSNAME
  2

  9
$UCSORG
 10
0.0
 20
0.0
 30
0.0
  9
$UCSXDIR
 10
1.0
 20
0.0
 30
0.0
  9
$UCSYDIR
 10
0.0
 20
1.0
 30
0.0
  9
$PUCSNAME
  2

  9
$PUCSORG
 10
0.0
 20
0.0
 30
0.0
  9
$PUCSXDIR
 10
1.0
 20
0.0
 30
0.0
  9
$PUCSYDIR
 10
0.0
 20
1.0
 30
0.0
  9
$USERI1
 70
     0
  9
$USERI2
 70
     0
  9
$USERI3
 70
     0
  9
$USERI4
 70
     0
  9
$USERI5
 70
     0
  9
$USERR1
 40
0.0
  9
$USERR2
 40
0.0
  9
$USERR3
 40
0.0
  9
$USERR4
 40
0.0
  9
$USERR5
 40
0.0
  9
$WORLDVIEW
 70
     1
  9
$SHADEDGE
 70
     3
  9
$SHADEDIF
 70
    70
  9
$TILEMODE
 70
     1
  9
$MAXACTVP
 70
    16
  9
$PINSBASE
 10
0.0
 20
0.0
 30
0.0
  9
$PLIMCHECK
 70
     0
  9
$PEXTMIN
 10
0.0
 20
0.0
 30
0.0
  9
$PEXTMAX
 10
840.0
 20
594.0
 30
0.0
  9
$PLIMMIN
 10
0.0
 20
0.0
  9
$PLIMMAX
 10
840.0
 20
594.0
  9
$UNITMODE
 70
     0
  9
$VISRETAIN
 70
     0
  9
$PLINEGEN
 70
     1
  9
$PSLTSCALE
 70
     0
  9
$TREEDEPTH
 70
  3020
  0
ENDSEC
  0
SECTION
  2
TABLES
  0
TABLE
  2
VPORT
 70
     1
  0
VPORT
  2
*ACTIVE
 70
     0
 10
0.0
 20
0.0
 11
1.0
 21
1.0
 12
420.0
 22
297.0
 13
0.0
 23
0.0
 14
1.0
 24
1.0
 15
0.0
 25
0.0
 16
0.0
 26
0.0
 36
1.0
 17
0.0
 27
0.0
 37
0.0
 40
594.0
 41
1.604229
 42
50.0
 43
0.0
 44
0.0
 50
0.0
 51
0.0
 71
     0
 72
   100
 73
     1
 74
     1
 75
     0
 76
     0
 77
     0
 78
     0
  0
ENDTAB
  0
TABLE
  2
LTYPE
 70
     2
  0
LTYPE
  2
CONTINUOUS
 70
    64
  3
Solid line
 72
    65
 73
     0
 40
0.0
  0
LTYPE
  2
DASHDOT
 70
    64
  3
LC-Solid line
 72
    65
 73
     4
 40
4.0
 49
2.0
 49
-0.9
 49
0.2
 49
-0.9
  0
ENDTAB
  0
TABLE
  2
LAYER
 70
    11
  0
LAYER
  2
0
 70
     0
 62
     7
  6
CONTINUOUS
  0
LAYER
  2
LC-INFO-1-2-MM-A3-0
 70
     1
 62
   255
  6
BYBLOCK
  0
LAYER
  2
LC-3D-HIDDEN
 70
     0
 62
     9
  6
BYBLOCK
  0
LAYER
  2
LC-CUT-HIDDEN
 70
     0
 62
     9
  6
BYBLOCK
  0
LAYER
  2
LC-VIEWPORT
 70
     0
 62
     7
  6
BYBLOCK
  0
LAYER
  2
LC-001-002-----0
 70
     0
 62
     1
  6
BYBLOCK
  0
LAYER
  2
LC-002-005-----0
 70
     0
 62
     2
  6
BYBLOCK
  0
LAYER
  2
LC-003-003-MTH-0
 70
     0
 62
     2
  6
BYBLOCK
  0
LAYER
  2
LC-004-003-----0
 70
     0
 62
     2
  6
BYBLOCK
  0
LAYER
  2
LC-005-003-MTG-0
 70
     0
 62
     2
  6
BYBLOCK
  0
LAYER
  2
LC-006-002-RND-0
 70
     0
 62
     1
  6
BYBLOCK
  0
ENDTAB
  0
TABLE
  2
STYLE
 70
     3
  0
STYLE
  2
STANDARD
 70
     0
 40
0.0
 41
1.0
 50
0.0
 71
     0
 42
0.0
  3
txt
  4

  0
STYLE
  2
LCTX15-400-0-0-ARIAL
 70
    64
 40
3.5
 41
1.0
 50
0.0
 71
     0
 42
0.0
  3
Arial
  4

  0
STYLE
  2
LCTX15-400-0-0-DIN-SCHRIF2
 70
    64
 40
0.0
 41
1.0
 50
1.5
 71
     0
 42
3.5
  3
STANDARD
  4

  0
ENDTAB
  0
TABLE
  2
VIEW
 70
     0
  0
ENDTAB
  0
TABLE
  2
UCS
 70
     0
  0
ENDTAB
  0
TABLE
  2
APPID
 70
     1
  0
APPID
  2
ACAD
 70
     0
  0
ENDTAB
  0
TABLE
  2
DIMSTYLE
 70
     2
  0
DIMSTYLE
  2
STANDARD
 70
     0
  3

  4

  5

  6

  7

 40
1.0
 41
0.18
 42
0.0625
 43
0.38
 44
0.18
 45
0.0
 46
0.0
 47
0.0
 48
0.0
 71
     0
 72
     0
 73
     1
 74
     1
 75
     0
 76
     0
 77
     0
 78
     0
140
0.18
141
0.09
142
0.0
143
25.4
144
1.0
145
0.0
146
1.0
147
0.09
170
     0
171
     2
172
     0
173
     0
174
     0
175
     0
176
     0
177
     0
178
     0
  0
DIMSTYLE
  2
LC-DIM-L-0140-02-02
 70
     0
  3

  4

  5

  6

  7

 40
2.0
 41
3.5
 42
0.0
 43
7.5
 44
1.8
 45
0.0
 46
0.0
 47
0.0
 48
0.0
 71
     0
 72
     0
 73
     0
 74
     0
 75
     0
 76
     0
 77
     1
 78
     8
140
14.0
141
0.0
142
0.0
143
25.4
144
1.0
145
0.0
146
0.71
147
1.5
170
     0
171
     2
172
     0
173
     0
174
     0
175
     0
176
     2
177
     2
178
     2
  0
ENDTAB
  0
ENDSEC
  0
SECTION
  2
BLOCKS
  0
BLOCK
  8
0
  5
27
  2
*X0
 70
    65
 10
201.984964
 20
284.5
 30
0.0
  3
*X0
  0
LINE
  8
LC-002-005-----0
  6
BYBLOCK
 62
     2
  5
29
 10
221.434223
 20
301.824795
 30
0.0
 11
219.259018
 21
304.0
 31
0.0
  0
LINE
  8
LC-002-005-----0
 62
     2
  5
2A
 10
221.434223
 20
298.996368
 30
0.0
 11
220.434223
 21
299.996368
 31
0.0
  0
LINE
  8
LC-002-005-----0
 62
     2
  5
2B
 10
217.430591
 20
303.0
 30
0.0
 11
216.430591
 21
304.0
 31
0.0
  0
LINE
  8
LC-002-005-----0
 62
     2
  5
2C
 10
221.434223
 20
296.167941
 30
0.0
 11
220.434223
 21
297.167941
 31
0.0
  0
LINE
  8
LC-002-005-----0
 62
     2
  5
2D
 10
214.602164
 20
303.0
 30
0.0
 11
213.602164
 21
304.0
 31
0.0
  0
LINE
  8
LC-002-005-----0
 62
     2
  5
2E
 10
221.434223
 20
293.339514
 30
0.0
 11
220.434223
 21
294.339514
 31
0.0
  0
LINE
  8
LC-002-005-----0
 62
     2
  5
2F
 10
211.773737
 20
303.0
 30
0.0
 11
210.773737
 21
304.0
 31
0.0
  0
LINE
  8
LC-002-005-----0
 62
     2
  5
30
 10
208.434223
 20
306.339514
 30
0.0
 11
207.434223
 21
307.339514
 31
0.0
  0
LINE
  8
LC-002-005-----0
 62
     2
  5
31
 10
206.273737
 20
308.5
 30
0.0
 11
205.358417
 21
309.415319
 31
0.0
  0
LINE
  8
LC-002-005-----0
 62
     2
  5
32
 10
221.110687
 20
290.834623
 30
0.0
 11
220.347228
 21
291.598081
 31
0.0
  0
LINE
  8
LC-002-005-----0
 62
     2
  5
33
 10
208.94531
 20
303.0
 30
0.0
 11
207.434223
 21
304.511087
 31
0.0
  0
LINE
  8
LC-002-005-----0
 62
     2
  5
34
 10
204.941415
 20
307.003894
 30
0.0
 11
203.987359
 21
307.957951
 31
0.0
  0
LINE
  8
LC-002-005-----0
 62
     2
  5
35
 10
220.434147
 20
288.682736
 30
0.0
 11
219.649421
 21
289.467462
 31
0.0
  0
LINE
  8
LC-002-005-----0
 62
     2
  5
36
 10
204.983023
 20
304.133859
 30
0.0
 11
203.968313
 21
305.14857
 31
0.0
  0
LINE
  8
LC-002-005-----0
 62
     2
  5
37
 10
221.105004
 20
285.183451
 30
0.0
 11
219.597555
 21
286.690901
 31
0.0
  0
LINE
  8
LC-002-005-----0
 62
     2
  5
38
 10
203.762547
 20
302.525908
 30
0.0
 11
202.788455
 21
303.5
 31
0.0
  0
ENDBLK
  8
0
  5
39
  0
BLOCK
  8
0
  5
40
  2
*X1
 70
    65
 10
341.934223
 20
284.5
 30
0.0
  3
*X1
  0
LINE
  8
LC-002-005-----0
 62
     2
  5
41
 10
359.307077
 20
308.201724
 30
0.0
 11
358.135947
 21
309.372854
 31
0.0
  0
LINE
  8
LC-002-005-----0
 62
     2
  5
42
 10
359.467379
 20
305.212996
 30
0.0
 11
358.452668
 21
306.227706
 31
0.0
  0
LINE
  8
LC-002-005-----0
 62
     2
  5
43
 10
356.360985
 20
308.319389
 30
0.0
 11
355.648451
 21
309.031924
 31
0.0
  0
LINE
  8
LC-002-005-----0
 62
     2
  5
44
 10
355.934223
 20
305.917724
 30
0.0
 11
354.934223
 21
306.917724
 31
0.0
  0
LINE
  8
LC-002-005-----0
 62
     2
  5
45
 10
355.538592
 20
303.484929
 30
0.0
 11
354.934223
 21
304.089297
 31
0.0
  0
LINE
  8
LC-002-005-----0
 62
     2
  5
46
 10
353.195093
 20
303.0
 30
0.0
 11
352.195093
 21
304.0
 31
0.0
  0
LINE
  8
LC-002-005-----0
 62
     2
  5
47
 10
350.366666
 20
303.0
 30
0.0
 11
349.366666
 21
304.0
 31
0.0
  0
LINE
  8
LC-002-005-----0
 62
     2
  5
48
 10
347.538239
 20
303.0
 30
0.0
 11
346.538239
 21
304.0
 31
0.0
  0
LINE
  8
LC-002-005-----0
 62
     2
  5
49
 10
344.709812
 20
303.0
 30
0.0
 11
343.72119
 21
303.988622
 31
0.0
  0
LINE
  8
LC-002-005-----0
 62
     2
  5
4A
 10
342.934223
 20
301.947161
 30
0.0
 11
342.095217
 21
302.786167
 31
0.0
  0
LINE
  8
LC-002-005-----0
 62
     2
  5
4B
 10
342.934223
 20
299.118734
 30
0.0
 11
341.934223
 21
300.118734
 31
0.0
  0
LINE
  8
LC-002-005-----0
 62
     2
  5
4C
 10
342.934223
 20
296.290307
 30
0.0
 11
341.934223
 21
297.290307
 31
0.0
  0
LINE
  8
LC-002-005-----0
 62
     2
  5
4D
 10
342.934223
 20
293.46188
 30
0.0
 11
341.934223
 21
294.46188
 31
0.0
  0
LINE
  8
LC-002-005-----0
 62
     2
  5
4E
 10
343.533379
 20
290.034297
 30
0.0
 11
342.039807
 21
291.527869
 31
0.0
  0
LINE
  8
LC-002-005-----0
 62
     2
  5
4F
 10
343.839343
 20
286.899906
 30
0.0
 11
343.05095
 21
287.688299
 31
0.0
  0
LINE
  8
LC-002-005-----0
 62
     2
  5
50
 10
343.141536
 20
284.769286
 30
0.0
 11
342.37441
 21
285.536412
 31
0.0
  0
ENDBLK
  8
0
  5
51
  0
BLOCK
  8
0
  5
54
  2
*D2
 70
    65
 10
0.0
 20
0.0
 30
0.0
  3
*D2
  0
LINE
  8
LC-003-003-MTH-0
  6
BYBLOCK
 62
     2
  5
56
 10
202.484964
 20
302.5
 30
0.0
 11
140.0
 21
302.5
 31
0.0
  0
LINE
  8
LC-003-003-MTH-0
 62
     2
  5
57
 10
206.434223
 20
309.5
 30
0.0
 11
140.0
 21
309.5
 31
0.0
  0
LINE
  8
LC-004-003-----0
  6
BYBLOCK
 62
     2
  5
59
 10
160.454733
 20
274.739544
 30
0.0
 11
156.8
 21
302.5
 31
0.0
  0
LINE
  8
LC-004-003-----0
 62
     2
  5
5A
 10
156.8
 20
302.5
 30
0.0
 11
153.145267
 21
274.739544
 31
0.0
  0
LINE
  8
LC-004-003-----0
 62
     2
  5
5B
 10
153.145267
 20
274.739544
 30
0.0
 11
160.454733
 21
274.739544
 31
0.0
  0
LINE
  8
LC-004-003-----0
 62
     2
  5
5C
 10
159.504503
 20
274.677262
 30
0.0
 11
156.8
 21
295.22
 31
0.0
  0
LINE
  8
LC-004-003-----0
 62
     2
  5
5D
 10
156.8
 20
295.22
 30
0.0
 11
154.095497
 21
274.677262
 31
0.0
  0
LINE
  8
LC-004-003-----0
 62
     2
  5
5E
 10
158.554272
 20
274.614981
 30
0.0
 11
156.8
 21
287.94
 31
0.0
  0
LINE
  8
LC-004-003-----0
 62
     2
  5
5F
 10
156.8
 20
287.94
 30
0.0
 11
155.045728
 21
274.614981
 31
0.0
  0
LINE
  8
LC-004-003-----0
 62
     2
  5
60
 10
157.604041
 20
274.5527
 30
0.0
 11
156.8
 21
280.66
 31
0.0
  0
LINE
  8
LC-004-003-----0
 62
     2
  5
61
 10
156.8
 20
280.66
 30
0.0
 11
155.995959
 21
274.5527
 31
0.0
  0
LINE
  8
LC-004-003-----0
 62
     2
  5
62
 10
153.145267
 20
337.260456
 30
0.0
 11
156.8
 21
309.5
 31
0.0
  0
LINE
  8
LC-004-003-----0
 62
     2
  5
63
 10
156.8
 20
309.5
 30
0.0
 11
160.454733
 21
337.260456
 31
0.0
  0
LINE
  8
LC-004-003-----0
 62
     2
  5
64
 10
160.454733
 20
337.260456
 30
0.0
 11
153.145267
 21
337.260456
 31
0.0
  0
LINE
  8
LC-004-003-----0
 62
     2
  5
65
 10
154.095497
 20
337.322738
 30
0.0
 11
156.8
 21
316.78
 31
0.0
  0
LINE
  8
LC-004-003-----0
 62
     2
  5
66
 10
156.8
 20
316.78
 30
0.0
 11
159.504503
 21
337.322738
 31
0.0
  0
LINE
  8
LC-004-003-----0
 62
     2
  5
67
 10
155.045728
 20
337.385019
 30
0.0
 11
156.8
 21
324.06
 31
0.0
  0
LINE
  8
LC-004-003-----0
 62
     2
  5
68
 10
156.8
 20
324.06
 30
0.0
 11
158.554272
 21
337.385019
 31
0.0
  0
LINE
  8
LC-004-003-----0
 62
     2
  5
69
 10
155.995959
 20
337.4473
 30
0.0
 11
156.8
 21
331.34
 31
0.0
  0
LINE
  8
LC-004-003-----0
 62
     2
  5
6A
 10
156.8
 20
331.34
 30
0.0
 11
157.604041
 21
337.4473
 31
0.0
  0
LINE
  8
LC-005-003-MTG-0
  6
BYBLOCK
 62
     2
  5
6C
 10
156.8
 20
234.348
 30
0.0
 11
156.8
 21
348.7
 31
0.0
  0
TEXT
  8
LC-004-003-----0
 62
     7
  5
6D
 10
148.972446
 20
249.89616
 30
0.0
 40
28.0
  1
7
 50
90.0
 41
0.9
 51
15.0
  7
LCTX15-400-0-0-ARIAL
 72
     2
 11
148.972446
 21
267.64816
 31
0.0
  0
ENDBLK
  8
0
  5
6E
  0
BLOCK
  8
0
  5
74
  2
*D3
 70
    65
 10
0.0
 20
0.0
 30
0.0
  3
*D3
  0
LINE
  8
LC-003-003-MTH-0
 62
     2
  5
75
 10
344.254223
 20
258.000111
 30
0.0
 11
412.8
 21
258.000111
 31
0.0
  0
LINE
  8
LC-003-003-MTH-0
 62
     2
  5
76
 10
357.434223
 20
309.5
 30
0.0
 11
412.8
 21
309.5
 31
0.0
  0
LINE
  8
LC-004-003-----0
 62
     2
  5
77
 10
399.654733
 20
230.239655
 30
0.0
 11
396.0
 21
258.000111
 31
0.0
  0
LINE
  8
LC-004-003-----0
 62
     2
  5
78
 10
396.0
 20
258.000111
 30
0.0
 11
392.345267
 21
230.239655
 31
0.0
  0
LINE
  8
LC-004-003-----0
 62
     2
  5
79
 10
392.345267
 20
230.239655
 30
0.0
 11
399.654733
 21
230.239655
 31
0.0
  0
LINE
  8
LC-004-003-----0
 62
     2
  5
7A
 10
398.704503
 20
230.177373
 30
0.0
 11
396.0
 21
250.720111
 31
0.0
  0
LINE
  8
LC-004-003-----0
 62
     2
  5
7B
 10
396.0
 20
250.720111
 30
0.0
 11
393.295497
 21
230.177373
 31
0.0
  0
LINE
  8
LC-004-003-----0
 62
     2
  5
7C
 10
397.754272
 20
230.115092
 30
0.0
 11
396.0
 21
243.440111
 31
0.0
  0
LINE
  8
LC-004-003-----0
 62
     2
  5
7D
 10
396.0
 20
243.440111
 30
0.0
 11
394.245728
 21
230.115092
 31
0.0
  0
LINE
  8
LC-004-003-----0
 62
     2
  5
7E
 10
396.804041
 20
230.05281
 30
0.0
 11
396.0
 21
236.160111
 31
0.0
  0
LINE
  8
LC-004-003-----0
 62
     2
  5
7F
 10
396.0
 20
236.160111
 30
0.0
 11
395.195959
 21
230.05281
 31
0.0
  0
LINE
  8
LC-004-003-----0
 62
     2
  5
80
 10
392.345267
 20
337.260456
 30
0.0
 11
396.0
 21
309.5
 31
0.0
  0
LINE
  8
LC-004-003-----0
 62
     2
  5
81
 10
396.0
 20
309.5
 30
0.0
 11
399.654733
 21
337.260456
 31
0.0
  0
LINE
  8
LC-004-003-----0
 62
     2
  5
82
 10
399.654733
 20
337.260456
 30
0.0
 11
392.345267
 21
337.260456
 31
0.0
  0
LINE
  8
LC-004-003-----0
 62
     2
  5
83
 10
393.295497
 20
337.322738
 30
0.0
 11
396.0
 21
316.78
 31
0.0
  0
LINE
  8
LC-004-003-----0
 62
     2
  5
84
 10
396.0
 20
316.78
 30
0.0
 11
398.704503
 21
337.322738
 31
0.0
  0
LINE
  8
LC-004-003-----0
 62
     2
  5
85
 10
394.245728
 20
337.385019
 30
0.0
 11
396.0
 21
324.06
 31
0.0
  0
LINE
  8
LC-004-003-----0
 62
     2
  5
86
 10
396.0
 20
324.06
 30
0.0
 11
397.754272
 21
337.385019
 31
0.0
  0
LINE
  8
LC-004-003-----0
 62
     2
  5
87
 10
395.195959
 20
337.4473
 30
0.0
 11
396.0
 21
331.34
 31
0.0
  0
LINE
  8
LC-004-003-----0
 62
     2
  5
88
 10
396.0
 20
331.34
 30
0.0
 11
396.804041
 21
337.4473
 31
0.0
  0
LINE
  8
LC-005-003-MTG-0
 62
     2
  5
89
 10
396.0
 20
218.800111
 30
0.0
 11
396.0
 21
391.484
 31
0.0
  0
TEXT
  8
LC-004-003-----0
 62
     7
  5
8A
 10
388.172446
 20
353.04816
 30
0.0
 40
28.0
  1
52
 50
90.0
 41
0.8
 51
15.0
  7
LCTX15-400-0-0-ARIAL
  0
ENDBLK
  8
0
  5
8B
  0
BLOCK
  8
0
  5
AA
  2
*X4
 70
    65
 10
344.254223
 20
258.000111
 30
0.0
  3
*X4
  0
LINE
  8
LC-002-005-----0
 62
     2
  5
AB
 10
345.681352
 20
258.000111
 30
0.0
 11
346.141665
 21
258.460424
 31
0.0
  0
LINE
  8
LC-002-005-----0
 62
     2
  5
AC
 10
344.254223
 20
259.401409
 30
0.0
 11
346.554223
 21
261.701409
 31
0.0
  0
LINE
  8
LC-002-005-----0
 62
     2
  5
AD
 10
344.254223
 20
262.229836
 30
0.0
 11
346.554223
 21
264.529836
 31
0.0
  0
LINE
  8
LC-002-005-----0
 62
     2
  5
AE
 10
344.254223
 20
265.058263
 30
0.0
 11
346.554223
 21
267.358263
 31
0.0
  0
LINE
  8
LC-002-005-----0
 62
     2
  5
AF
 10
344.254223
 20
267.886691
 30
0.0
 11
346.554223
 21
270.186691
 31
0.0
  0
LINE
  8
LC-002-005-----0
 62
     2
  5
B0
 10
344.254223
 20
270.715118
 30
0.0
 11
346.554223
 21
273.015118
 31
0.0
  0
LINE
  8
LC-002-005-----0
 62
     2
  5
B1
 10
344.254223
 20
273.543545
 30
0.0
 11
346.554223
 21
275.843545
 31
0.0
  0
LINE
  8
LC-002-005-----0
 62
     2
  5
B2
 10
344.254223
 20
276.371972
 30
0.0
 11
346.554223
 21
278.671972
 31
0.0
  0
LINE
  8
LC-002-005-----0
 62
     2
  5
B3
 10
344.254223
 20
279.200399
 30
0.0
 11
346.554223
 21
281.500399
 31
0.0
  0
LINE
  8
LC-002-005-----0
 62
     2
  5
B4
 10
344.254223
 20
282.028826
 30
0.0
 11
346.554223
 21
284.328826
 31
0.0
  0
LINE
  8
LC-002-005-----0
 62
     2
  5
B5
 10
344.254223
 20
284.857253
 30
0.0
 11
346.554223
 21
287.157253
 31
0.0
  0
LINE
  8
LC-002-005-----0
 62
     2
  5
B6
 10
344.254223
 20
287.68568
 30
0.0
 11
346.554223
 21
289.98568
 31
0.0
  0
LINE
  8
LC-002-005-----0
 62
     2
  5
B7
 10
344.254223
 20
290.514108
 30
0.0
 11
346.554223
 21
292.814108
 31
0.0
  0
LINE
  8
LC-002-005-----0
 62
     2
  5
B8
 10
344.254223
 20
293.342535
 30
0.0
 11
346.554223
 21
295.642535
 31
0.0
  0
LINE
  8
LC-002-005-----0
 62
     2
  5
B9
 10
344.254223
 20
296.170962
 30
0.0
 11
346.554223
 21
298.470962
 31
0.0
  0
LINE
  8
LC-002-005-----0
 62
     2
  5
BA
 10
344.254223
 20
298.999389
 30
0.0
 11
346.554223
 21
301.299389
 31
0.0
  0
ENDBLK
  8
0
  5
BB
  0
BLOCK
  8
0
  5
BF
  2
*D5
 70
    65
 10
0.0
 20
0.0
 30
0.0
  3
*D5
  0
LINE
  8
LC-003-003-MTH-0
 62
     2
  5
C0
 10
203.934223
 20
307.5
 30
0.0
 11
203.934223
 21
365.8
 31
0.0
  0
LINE
  8
LC-003-003-MTH-0
 62
     2
  5
C1
 10
359.434223
 20
307.5
 30
0.0
 11
359.434223
 21
365.8
 31
0.0
  0
LINE
  8
LC-005-003-MTG-0
 62
     2
  5
C2
 10
203.934223
 20
349.0
 30
0.0
 11
359.434223
 21
349.0
 31
0.0
  0
LINE
  8
LC-004-003-----0
 62
     2
  5
C3
 10
231.694679
 20
352.654733
 30
0.0
 11
203.934223
 21
349.0
 31
0.0
  0
LINE
  8
LC-004-003-----0
 62
     2
  5
C4
 10
203.934223
 20
349.0
 30
0.0
 11
231.694679
 21
345.345267
 31
0.0
  0
LINE
  8
LC-004-003-----0
 62
     2
  5
C5
 10
231.694679
 20
345.345267
 30
0.0
 11
231.694679
 21
352.654733
 31
0.0
  0
LINE
  8
LC-004-003-----0
 62
     2
  5
C6
 10
231.75696
 20
351.704503
 30
0.0
 11
211.214223
 21
349.0
 31
0.0
  0
LINE
  8
LC-004-003-----0
 62
     2
  5
C7
 10
211.214223
 20
349.0
 30
0.0
 11
231.75696
 21
346.295497
 31
0.0
  0
LINE
  8
LC-004-003-----0
 62
     2
  5
C8
 10
231.819242
 20
350.754272
 30
0.0
 11
218.494223
 21
349.0
 31
0.0
  0
LINE
  8
LC-004-003-----0
 62
     2
  5
C9
 10
218.494223
 20
349.0
 30
0.0
 11
231.819242
 21
347.245728
 31
0.0
  0
LINE
  8
LC-004-003-----0
 62
     2
  5
CA
 10
231.881523
 20
349.804041
 30
0.0
 11
225.774223
 21
349.0
 31
0.0
  0
LINE
  8
LC-004-003-----0
 62
     2
  5
CB
 10
225.774223
 20
349.0
 30
0.0
 11
231.881523
 21
348.195959
 31
0.0
  0
LINE
  8
LC-004-003-----0
 62
     2
  5
CC
 10
331.673767
 20
345.345267
 30
0.0
 11
359.434223
 21
349.0
 31
0.0
  0
LINE
  8
LC-004-003-----0
 62
     2
  5
CD
 10
359.434223
 20
349.0
 30
0.0
 11
331.673767
 21
352.654733
 31
0.0
  0
LINE
  8
LC-004-003-----0
 62
     2
  5
CE
 10
331.673767
 20
352.654733
 30
0.0
 11
331.673767
 21
345.345267
 31
0.0
  0
LINE
  8
LC-004-003-----0
 62
     2
  5
CF
 10
331.611485
 20
346.295497
 30
0.0
 11
352.154223
 21
349.0
 31
0.0
  0
LINE
  8
LC-004-003-----0
 62
     2
  5
D0
 10
352.154223
 20
349.0
 30
0.0
 11
331.611485
 21
351.704503
 31
0.0
  0
LINE
  8
LC-004-003-----0
 62
     2
  5
D1
 10
331.549204
 20
347.245728
 30
0.0
 11
344.874223
 21
349.0
 31
0.0
  0
LINE
  8
LC-004-003-----0
 62
     2
  5
D2
 10
344.874223
 20
349.0
 30
0.0
 11
331.549204
 21
350.754272
 31
0.0
  0
LINE
  8
LC-004-003-----0
 62
     2
  5
D3
 10
331.486923
 20
348.195959
 30
0.0
 11
337.594223
 21
349.0
 31
0.0
  0
LINE
  8
LC-004-003-----0
 62
     2
  5
D4
 10
337.594223
 20
349.0
 30
0.0
 11
331.486923
 21
349.804041
 31
0.0
  0
TEXT
  8
LC-004-003-----0
 62
     7
  5
D5
 10
218.138865
 20
356.827554
 30
0.0
 40
28.0
  1
%%c155
 41
0.9
 51
15.0
  7
LCTX15-400-0-0-ARIAL
 72
     1
 11
281.138865
 21
356.827554
 31
0.0
  0
ENDBLK
  8
0
  5
D6
  0
BLOCK
  8
0
  5
E1
  2
*X6
 70
    65
 10
214.514223
 20
258.000111
 30
0.0
  3
*X6
  0
LINE
  8
LC-002-005-----0
 62
     2
  5
E2
 10
218.402131
 20
258.000111
 30
0.0
 11
219.114223
 21
258.712203
 31
0.0
  0
LINE
  8
LC-002-005-----0
 62
     2
  5
E3
 10
216.97472
 20
259.401127
 30
0.0
 11
219.114223
 21
261.54063
 31
0.0
  0
LINE
  8
LC-002-005-----0
 62
     2
  5
E4
 10
216.814223
 20
262.069057
 30
0.0
 11
219.114223
 21
264.369057
 31
0.0
  0
LINE
  8
LC-002-005-----0
 62
     2
  5
E5
 10
216.814223
 20
264.897484
 30
0.0
 11
219.114223
 21
267.197484
 31
0.0
  0
LINE
  8
LC-002-005-----0
 62
     2
  5
E6
 10
216.814223
 20
267.725911
 30
0.0
 11
219.114223
 21
270.025911
 31
0.0
  0
LINE
  8
LC-002-005-----0
 62
     2
  5
E7
 10
216.814223
 20
270.554338
 30
0.0
 11
219.114223
 21
272.854338
 31
0.0
  0
LINE
  8
LC-002-005-----0
 62
     2
  5
E8
 10
216.814223
 20
273.382765
 30
0.0
 11
219.114223
 21
275.682765
 31
0.0
  0
LINE
  8
LC-002-005-----0
 62
     2
  5
E9
 10
216.814223
 20
276.211193
 30
0.0
 11
219.114223
 21
278.511193
 31
0.0
  0
LINE
  8
LC-002-005-----0
 62
     2
  5
EA
 10
216.814223
 20
279.03962
 30
0.0
 11
219.114223
 21
281.33962
 31
0.0
  0
LINE
  8
LC-002-005-----0
 62
     2
  5
EB
 10
216.814223
 20
281.868047
 30
0.0
 11
219.114223
 21
284.168047
 31
0.0
  0
LINE
  8
LC-002-005-----0
 62
     2
  5
EC
 10
216.814223
 20
284.696474
 30
0.0
 11
219.114223
 21
286.996474
 31
0.0
  0
LINE
  8
LC-002-005-----0
 62
     2
  5
ED
 10
216.814223
 20
287.524901
 30
0.0
 11
219.114223
 21
289.824901
 31
0.0
  0
LINE
  8
LC-002-005-----0
 62
     2
  5
EE
 10
216.814223
 20
290.353328
 30
0.0
 11
219.114223
 21
292.653328
 31
0.0
  0
LINE
  8
LC-002-005-----0
 62
     2
  5
EF
 10
216.814223
 20
293.181755
 30
0.0
 11
219.114223
 21
295.481755
 31
0.0
  0
LINE
  8
LC-002-005-----0
 62
     2
  5
F0
 10
216.814223
 20
296.010182
 30
0.0
 11
219.114223
 21
298.310182
 31
0.0
  0
LINE
  8
LC-002-005-----0
 62
     2
  5
F1
 10
216.814223
 20
298.83861
 30
0.0
 11
219.078654
 21
301.103041
 31
0.0
  0
LINE
  8
LC-002-005-----0
 62
     2
  5
F2
 10
216.814223
 20
301.667037
 30
0.0
 11
217.883584
 21
302.736398
 31
0.0
  0
ENDBLK
  8
0
  5
F3
  0
BLOCK
  8
0
  5
11C
  2
*D7
 70
    65
 10
0.0
 20
0.0
 30
0.0
  3
*D7
  0
LINE
  8
LC-003-003-MTH-0
 62
     2
  5
11D
 10
216.814223
 20
260.000111
 30
0.0
 11
216.814223
 21
193.2
 31
0.0
  0
LINE
  8
LC-003-003-MTH-0
 62
     2
  5
11E
 10
346.554223
 20
260.000111
 30
0.0
 11
346.554223
 21
193.2
 31
0.0
  0
LINE
  8
LC-005-003-MTG-0
 62
     2
  5
11F
 10
216.814223
 20
210.0
 30
0.0
 11
346.554223
 21
210.0
 31
0.0
  0
LINE
  8
LC-004-003-----0
 62
     2
  5
120
 10
244.574679
 20
213.654733
 30
0.0
 11
216.814223
 21
210.0
 31
0.0
  0
LINE
  8
LC-004-003-----0
 62
     2
  5
121
 10
216.814223
 20
210.0
 30
0.0
 11
244.574679
 21
206.345267
 31
0.0
  0
LINE
  8
LC-004-003-----0
 62
     2
  5
122
 10
244.574679
 20
206.345267
 30
0.0
 11
244.574679
 21
213.654733
 31
0.0
  0
LINE
  8
LC-004-003-----0
 62
     2
  5
123
 10
244.63696
 20
212.704503
 30
0.0
 11
224.094223
 21
210.0
 31
0.0
  0
LINE
  8
LC-004-003-----0
 62
     2
  5
124
 10
224.094223
 20
210.0
 30
0.0
 11
244.63696
 21
207.295497
 31
0.0
  0
LINE
  8
LC-004-003-----0
 62
     2
  5
125
 10
244.699242
 20
211.754272
 30
0.0
 11
231.374223
 21
210.0
 31
0.0
  0
LINE
  8
LC-004-003-----0
 62
     2
  5
126
 10
231.374223
 20
210.0
 30
0.0
 11
244.699242
 21
208.245728
 31
0.0
  0
LINE
  8
LC-004-003-----0
 62
     2
  5
127
 10
244.761523
 20
210.804041
 30
0.0
 11
238.654223
 21
210.0
 31
0.0
  0
LINE
  8
LC-004-003-----0
 62
     2
  5
128
 10
238.654223
 20
210.0
 30
0.0
 11
244.761523
 21
209.195959
 31
0.0
  0
LINE
  8
LC-004-003-----0
 62
     2
  5
129
 10
318.793767
 20
206.345267
 30
0.0
 11
346.554223
 21
210.0
 31
0.0
  0
LINE
  8
LC-004-003-----0
 62
     2
  5
12A
 10
346.554223
 20
210.0
 30
0.0
 11
318.793767
 21
213.654733
 31
0.0
  0
LINE
  8
LC-004-003-----0
 62
     2
  5
12B
 10
318.793767
 20
213.654733
 30
0.0
 11
318.793767
 21
206.345267
 31
0.0
  0
LINE
  8
LC-004-003-----0
 62
     2
  5
12C
 10
318.731485
 20
207.295497
 30
0.0
 11
339.274223
 21
210.0
 31
0.0
  0
LINE
  8
LC-004-003-----0
 62
     2
  5
12D
 10
339.274223
 20
210.0
 30
0.0
 11
318.731485
 21
212.704503
 31
0.0
  0
LINE
  8
LC-004-003-----0
 62
     2
  5
12E
 10
318.669204
 20
208.245728
 30
0.0
 11
331.994223
 21
210.0
 31
0.0
  0
LINE
  8
LC-004-003-----0
 62
     2
  5
12F
 10
331.994223
 20
210.0
 30
0.0
 11
318.669204
 21
211.754272
 31
0.0
  0
LINE
  8
LC-004-003-----0
 62
     2
  5
130
 10
318.606923
 20
209.195959
 30
0.0
 11
324.714223
 21
210.0
 31
0.0
  0
LINE
  8
LC-004-003-----0
 62
     2
  5
131
 10
324.714223
 20
210.0
 30
0.0
 11
318.606923
 21
210.804041
 31
0.0
  0
TEXT
  8
LC-004-003-----0
 62
     7
  5
132
 10
209.732383
 20
217.827554
 30
0.0
 40
28.0
  1
%%c128,5
 41
0.9
 51
15.0
  7
LCTX15-400-0-0-ARIAL
 72
     1
 11
286.032383
 21
217.827554
 31
0.0
  0
ENDBLK
  8
0
  5
133
  0
ENDSEC
  0
SECTION
  2
ENTITIES
  0
VIEWPORT
  8
LC-VIEWPORT
  5
135
 67
     1
 68
     1
 10
420.0
 20
297.0
 30
0.0
 40
840.0
 41
594.0
 69
     1
1001
ACAD
1000
MVIEW
1002
{
1070
    16
1010
0.0
1020
0.0
1030
0.0
1010
0.0
1020
0.0
1030
1.0
1040
0.0
1040
594.0
1040
420.0
1040
297.0
1040
50.0
1040
0.0
1040
0.0
1070
     0
1070
   100
1070
     1
1070
     1
1070
     0
1070
     0
1070
     0
1070
     0
1040
0.0
1040
0.0
1040
0.0
1040
1.0
1040
1.0
1040
0.0
1040
0.0
1070
     0
1002
{
1002
}
1002
}
  0
LINE
  8
LC-001-002-----0
  6
BYBLOCK
 62
     1
  5
24
 10
360.984964
 20
303.5
 30
0.0
 11
360.984964
 21
302.5
 31
0.0
  0
LINE
  8
LC-001-002-----0
 62
     1
  5
25
 10
219.345328
 20
304.0
 30
0.0
 11
354.97494
 21
304.0
 31
0.0
  0
INSERT
  8
LC-002-005-----0
 62
     2
  5
3A
  2
*X0
 10
201.984964
 20
284.5
 30
0.0
  0
LINE
  8
LC-001-002-----0
 62
     1
  5
3B
 10
360.984964
 20
302.5
 30
0.0
 11
359.984964
 21
302.5
 31
0.0
  0
LINE
  8
LC-001-002-----0
 62
     1
  5
3C
 10
360.984964
 20
303.5
 30
0.0
 11
359.984964
 21
303.5
 31
0.0
  0
ARC
  8
LC-001-002-----0
 62
     1
  5
3D
 10
359.984964
 20
304.0
 30
0.0
 40
0.5
 50
180.0
 51
270.0
  0
ARC
  8
LC-001-002-----0
 62
     1
  5
3E
 10
359.984964
 20
304.0
 30
0.0
 40
1.5
 50
180.0
 51
270.0
  0
INSERT
  8
LC-002-005-----0
 62
     2
  5
52
  2
*X1
 10
341.934223
 20
284.5
 30
0.0
  0
DIMENSION
  8
LC-004-003-----0
 62
     2
  5
71
  2
*D2
 10
156.8
 20
267.894
 30
0.0
 11
156.8
 21
267.894
 31
0.0
  1
7
 13
206.434223
 23
309.5
 33
0.0
 14
202.484964
 24
302.5
 34
0.0
 50
90.0
  3
LC-DIM-L-0140-02-02
  0
LINE
  8
LC-001-002-----0
 62
     1
  5
72
 10
221.269136
 20
284.5
 30
0.0
 11
343.053341
 21
284.5
 31
0.0
  0
DIMENSION
  8
LC-004-003-----0
 62
     2
  5
8C
  2
*D3
 10
396.0
 20
283.750055
 30
0.0
 11
396.0
 21
283.750055
 31
0.0
  1
52
 13
357.434223
 23
309.5
 33
0.0
 14
344.254223
 24
258.000111
 34
0.0
 50
90.0
  3
LC-DIM-L-0140-02-02
  0
LINE
  8
LC-001-002-----0
 62
     1
  5
8D
 10
356.934223
 20
309.5
 30
0.0
 11
206.434223
 21
309.5
 31
0.0
  0
CIRCLE
  8
LC-001-002-----0
 62
     1
  5
8E
 10
525.554223
 20
297.0
 30
0.0
 40
60.25
  0
LINE
  8
LC-001-002-----0
 62
     1
  5
8F
 10
343.634223
 20
303.0
 30
0.0
 11
354.434223
 21
303.0
 31
0.0
  0
LINE
  8
LC-001-002-----0
  6
DASHDOT
 62
     2
  5
91
 10
281.684223
 20
309.5
 30
0.0
 11
281.684223
 21
258.000111
 31
0.0
  0
LINE
  8
LC-001-002-----0
 62
     1
  5
92
 10
202.484964
 20
303.5
 30
0.0
 11
202.484964
 21
302.5
 31
0.0
  0
LINE
  8
LC-001-002-----0
 62
     1
  5
93
 10
220.315105
 20
284.5
 30
0.0
 11
221.319877
 21
284.5
 31
0.0
  0
LINE
  8
LC-001-002-----0
 62
     1
  5
94
 10
216.814223
 20
303.000111
 30
0.0
 11
216.814223
 21
260.000111
 31
0.0
  0
LINE
  8
LC-001-002-----0
 62
     1
  5
95
 10
219.814223
 20
293.000111
 30
0.0
 11
219.114223
 21
295.000111
 31
0.0
  0
LINE
  8
LC-001-002-----0
 62
     1
  5
96
 10
346.554223
 20
303.000111
 30
0.0
 11
346.554223
 21
260.000111
 31
0.0
  0
LINE
  8
LC-001-002-----0
 62
     1
  5
97
 10
344.254223
 20
300.700111
 30
0.0
 11
344.254223
 21
258.000111
 31
0.0
  0
LINE
  8
LC-001-002-----0
 62
     1
  5
98
 10
346.554223
 20
260.000111
 30
0.0
 11
346.018325
 21
258.000111
 31
0.0
  0
LINE
  8
LC-001-002-----0
 62
     1
  5
99
 10
359.434223
 20
307.5
 30
0.0
 11
359.484964
 21
304.0
 31
0.0
  0
LINE
  8
LC-001-002-----0
 62
     1
  5
9A
 10
358.434223
 20
307.5
 30
0.0
 11
358.484964
 21
303.585032
 31
0.0
  0
ARC
  8
LC-001-002-----0
 62
     1
  5
9B
 10
346.554223
 20
300.700111
 30
0.0
 40
2.3
 50
90.0
 51
180.0
  0
LINE
  8
LC-001-002-----0
 62
     1
  5
9C
 10
343.554223
 20
291.000111
 30
0.0
 11
344.254223
 21
291.000111
 31
0.0
  0
ARC
  8
LC-001-002-----0
 62
     1
  5
9D
 10
357.434223
 20
307.5
 30
0.0
 40
2.0
 50
0.0
 51
90.0
  0
ARC
  8
LC-001-002-----0
 62
     1
  5
9E
 10
357.434223
 20
307.5
 30
0.0
 40
1.0
 50
0.0
 51
90.0
  0
LINE
  8
LC-001-002-----0
 62
     1
  5
9F
 10
356.809523
 20
308.5
 30
0.0
 11
357.434223
 21
308.5
 31
0.0
  0
LINE
  8
LC-001-002-----0
 62
     1
  5
A0
 10
356.934223
 20
309.5
 30
0.0
 11
357.434223
 21
309.5
 31
0.0
  0
ARC
  8
LC-001-002-----0
 62
     1
  5
A1
 10
356.934223
 20
307.5
 30
0.0
 40
2.0
 50
90.0
 51
180.0
  0
ARC
  8
LC-001-002-----0
 62
     1
  5
A2
 10
356.934223
 20
307.5
 30
0.0
 40
1.0
 50
90.0
 51
180.0
  0
LINE
  8
LC-001-002-----0
 62
     1
  5
A3
 10
355.934223
 20
307.5
 30
0.0
 11
355.934223
 21
304.5
 31
0.0
  0
LINE
  8
LC-001-002-----0
 62
     1
  5
A4
 10
354.934223
 20
307.5
 30
0.0
 11
354.934223
 21
304.0
 31
0.0
  0
LINE
  8
LC-001-002-----0
 62
     1
  5
A5
 10
343.554223
 20
293.000111
 30
0.0
 11
343.554223
 21
291.000111
 31
0.0
  0
ARC
  8
LC-006-002-RND-0
  6
BYBLOCK
 62
     1
  5
A7
 10
354.434223
 20
304.5
 30
0.0
 40
1.5
 50
270.0
 51
0.0
  0
ARC
  8
LC-006-002-RND-0
 62
     1
  5
A8
 10
208.934223
 20
304.5
 30
0.0
 40
1.5
 50
180.0
 51
270.0
  0
INSERT
  8
LC-002-005-----0
 62
     2
  5
BC
  2
*X4
 10
344.254223
 20
258.000111
 30
0.0
  0
LINE
  8
LC-001-002-----0
 62
     1
  5
BD
 10
219.114223
 20
300.700111
 30
0.0
 11
219.114223
 21
258.000111
 31
0.0
  0
DIMENSION
  8
LC-004-003-----0
 62
     2
  5
D7
  2
*D5
 10
276.790705
 20
349.0
 30
0.0
 11
276.790705
 21
349.0
 31
0.0
  1
%%c155
 13
203.934223
 23
307.5
 33
0.0
 14
359.434223
 24
307.5
 34
0.0
  3
LC-DIM-L-0140-02-02
  0
LINE
  8
LC-001-002-----0
 62
     1
  5
D8
 10
343.554223
 20
293.000111
 30
0.0
 11
344.254223
 21
295.000111
 31
0.0
  0
CIRCLE
  8
LC-001-002-----0
 62
     1
  5
D9
 10
525.554223
 20
297.0
 30
0.0
 40
77.5
  0
CIRCLE
  8
LC-001-002-----0
 62
     1
  5
DA
 10
525.554223
 20
297.0
 30
0.0
 40
79.0
  0
CIRCLE
  8
LC-001-002-----0
 62
     1
  5
DB
 10
525.554223
 20
297.0
 30
0.0
 40
72.5
  0
LINE
  8
LC-001-002-----0
 62
     1
  5
DC
 10
216.814223
 20
260.000111
 30
0.0
 11
217.350121
 21
258.000111
 31
0.0
  0
ARC
  8
LC-001-002-----0
 62
     1
  5
DD
 10
216.814223
 20
300.700111
 30
0.0
 40
2.3
 50
0.0
 51
90.0
  0
LINE
  8
LC-001-002-----0
 62
     1
  5
DE
 10
219.814223
 20
291.000111
 30
0.0
 11
219.114223
 21
291.000111
 31
0.0
  0
LINE
  8
LC-001-002-----0
 62
     1
  5
DF
 10
219.814223
 20
293.000111
 30
0.0
 11
219.814223
 21
291.000111
 31
0.0
  0
INSERT
  8
LC-002-005-----0
 62
     2
  5
F4
  2
*X6
 10
214.514223
 20
258.000111
 30
0.0
  0
LINE
  8
LC-001-002-----0
 62
     1
  5
F5
 10
217.350121
 20
258.000111
 30
0.0
 11
346.018325
 21
258.000111
 31
0.0
  0
LINE
  8
LC-001-002-----0
 62
     1
  5
F6
 10
203.934223
 20
307.5
 30
0.0
 11
203.984964
 21
304.0
 31
0.0
  0
ARC
  8
LC-001-002-----0
 62
     1
  5
F7
 10
203.484964
 20
304.0
 30
0.0
 40
0.5
 50
270.0
 51
0.0
  0
LINE
  8
LC-001-002-----0
 62
     1
  5
F8
 10
202.484964
 20
303.5
 30
0.0
 11
203.484964
 21
303.5
 31
0.0
  0
LINE
  8
LC-001-002-----0
 62
     1
  5
F9
 10
204.934223
 20
307.5
 30
0.0
 11
204.984964
 21
304.0
 31
0.0
  0
ARC
  8
LC-001-002-----0
 62
     1
  5
FA
 10
203.484964
 20
304.0
 30
0.0
 40
1.5
 50
270.0
 51
0.0
  0
LINE
  8
LC-001-002-----0
 62
     1
  5
FB
 10
202.484964
 20
302.5
 30
0.0
 11
203.484964
 21
302.5
 31
0.0
  0
LINE
  8
LC-001-002-----0
 62
     1
  5
FC
 10
341.934223
 20
303.25
 30
0.0
 11
341.934223
 21
291.863703
 31
0.0
  0
LINE
  8
LC-001-002-----0
 62
     1
  5
FD
 10
220.219499
 20
288.0
 30
0.0
 11
343.116865
 21
288.0
 31
0.0
  0
LINE
  8
LC-001-002-----0
 62
     1
  5
FE
 10
220.434223
 20
291.863703
 30
0.0
 11
219.219775
 21
288.155623
 31
0.0
  0
LINE
  8
LC-001-002-----0
 62
     1
  5
FF
 10
206.558922
 20
308.5
 30
0.0
 11
205.934223
 21
308.5
 31
0.0
  0
ARC
  8
LC-001-002-----0
 62
     1
  5
100
 10
205.934223
 20
307.5
 30
0.0
 40
2.0
 50
90.0
 51
180.0
  0
ARC
  8
LC-001-002-----0
 62
     1
  5
101
 10
206.434223
 20
307.5
 30
0.0
 40
1.0
 50
0.0
 51
90.0
  0
ARC
  8
LC-001-002-----0
 62
     1
  5
102
 10
205.934223
 20
307.5
 30
0.0
 40
1.0
 50
90.0
 51
180.0
  0
ARC
  8
LC-001-002-----0
 62
     1
  5
103
 10
219.69494
 20
288.0
 30
0.0
 40
0.5
 50
161.86566
 51
198.13434
  0
LINE
  8
LC-001-002-----0
 62
     1
  5
104
 10
342.934223
 20
302.25
 30
0.0
 11
342.934223
 21
291.863703
 31
0.0
  0
LINE
  8
LC-001-002-----0
 62
     1
  5
105
 10
220.434223
 20
302.0
 30
0.0
 11
220.434223
 21
291.863703
 31
0.0
  0
LINE
  8
LC-001-002-----0
 62
     1
  5
106
 10
208.434223
 20
304.0
 30
0.0
 11
219.434223
 21
304.0
 31
0.0
  0
ARC
  8
LC-001-002-----0
 62
     1
  5
107
 10
219.434223
 20
302.0
 30
0.0
 40
1.0
 50
0.0
 51
90.0
  0
LINE
  8
LC-001-002-----0
 62
     1
  5
108
 10
221.434223
 20
291.863703
 30
0.0
 11
220.219499
 21
288.0
 31
0.0
  0
LINE
  8
LC-001-002-----0
 62
     1
  5
109
 10
220.315105
 20
284.5
 30
0.0
 11
219.219775
 21
287.844377
 31
0.0
  0
ARC
  8
LC-001-002-----0
 62
     1
  5
10A
 10
219.434223
 20
302.0
 30
0.0
 40
2.0
 50
0.0
 51
90.0
  0
LINE
  8
LC-001-002-----0
 62
     1
  5
10B
 10
207.434223
 20
307.5
 30
0.0
 11
207.434223
 21
304.5
 31
0.0
  0
LINE
  8
LC-001-002-----0
 62
     1
  5
10C
 10
221.434223
 20
302.0
 30
0.0
 11
221.434223
 21
291.863703
 31
0.0
  0
ARC
  8
LC-001-002-----0
 62
     1
  5
10D
 10
206.434223
 20
307.5
 30
0.0
 40
2.0
 50
0.0
 51
90.0
  0
LINE
  8
LC-001-002-----0
 62
     1
  5
10E
 10
208.934223
 20
303.0
 30
0.0
 11
217.47917
 21
303.0
 31
0.0
  0
LINE
  8
LC-001-002-----0
 62
     1
  5
10F
 10
208.434223
 20
307.5
 30
0.0
 11
208.434223
 21
304.0
 31
0.0
  0
ARC
  8
LC-001-002-----0
 62
     1
  5
110
 10
343.684223
 20
302.25
 30
0.0
 40
0.75
 50
90.0
 51
180.0
  0
ARC
  8
LC-001-002-----0
 62
     1
  5
111
 10
342.684223
 20
303.25
 30
0.0
 40
0.75
 50
90.0
 51
180.0
  0
LINE
  8
LC-001-002-----0
 62
     1
  5
112
 10
221.319877
 20
284.5
 30
0.0
 11
220.219499
 21
288.0
 31
0.0
  0
LINE
  8
LC-001-002-----0
 62
     1
  5
113
 10
341.934223
 20
291.863703
 30
0.0
 11
343.148947
 21
288.0
 31
0.0
  0
LINE
  8
LC-001-002-----0
 62
     1
  5
114
 10
342.934223
 20
291.863703
 30
0.0
 11
344.148671
 21
288.155623
 31
0.0
  0
ARC
  8
LC-001-002-----0
 62
     1
  5
115
 10
343.673506
 20
288.0
 30
0.0
 40
0.5
 50
341.86566
 51
18.13434
  0
LINE
  8
LC-001-002-----0
 62
     1
  5
116
 10
343.053341
 20
284.5
 30
0.0
 11
344.148671
 21
287.844377
 31
0.0
  0
LINE
  8
LC-001-002-----0
 62
     1
  5
117
 10
342.048569
 20
284.5
 30
0.0
 11
343.148947
 21
288.0
 31
0.0
  0
LINE
  8
LC-001-002-----0
 62
     1
  5
118
 10
206.434223
 20
309.5
 30
0.0
 11
205.934223
 21
309.5
 31
0.0
  0
LINE
  8
LC-001-002-----0
 62
     1
  5
119
 10
220.434186
 20
291.98539
 30
0.0
 11
220.434186
 21
300.421687
 31
0.0
  0
LINE
  8
LC-001-002-----0
 62
     1
  5
11A
 10
219.574623
 20
303.0
 30
0.0
 11
208.934221
 21
303.0
 31
0.0
  0
DIMENSION
  8
LC-004-003-----0
 62
     2
  5
134
  2
*D7
 10
281.684223
 20
210.0
 30
0.0
 11
281.684223
 21
210.0
 31
0.0
  1
%%c128,5
 13
216.814223
 23
260.000111
 33
0.0
 14
346.554223
 24
260.000111
 34
0.0
  3
LC-DIM-L-0140-02-02
  0
ENDSEC
  0
EOF
