  0
SECTION
  2
HEADER
  9
$ACADVER
  1
AC1015
  9
$ACADMAINTVER
 70
     6
  9
$DWGCODEPAGE
  3
ANSI_1252
  9
$INSBASE
 10
0.0
 20
0.0
 30
0.0
  9
$EXTMIN
 10
-209.760318
 20
-147.978432
 30
0.0
  9
$EXTMAX
 10
630.239682
 20
446.021568
 30
0.0
  9
$LIMMIN
 10
-209.760318
 20
-147.978432
  9
$LIMMAX
 10
630.239682
 20
446.021568
  9
$ORTHOMODE
 70
     0
  9
$REGENMODE
 70
     1
  9
$FILLMODE
 70
     1
  9
$QTEXTMODE
 70
     0
  9
$MIRRTEXT
 70
     1
  9
$LTSCALE
 40
2.0
  9
$ATTMODE
 70
     1
  9
$TEXTSIZE
 40
2.5
  9
$TRACEWID
 40
1.0
  9
$TEXTSTYLE
  7
Standard
  9
$CLAYER
  8
0
  9
$CELTYPE
  6
ByLayer
  9
$CECOLOR
 62
     7
  9
$CELTSCALE
 40
1.0
  9
$DISPSILH
 70
     0
  9
$DIMSCALE
 40
2.0
  9
$DIMASZ
 40
3.5
  9
$DIMEXO
 40
0.625
  9
$DIMDLI
 40
3.75
  9
$DIMRND
 40
0.0
  9
$DIMDLE
 40
0.0
  9
$DIMEXE
 40
1.25
  9
$DIMTP
 40
0.0
  9
$DIMTM
 40
0.0
  9
$DIMTXT
 40
3.5
  9
$DIMCEN
 40
2.5
  9
$DIMTSZ
 40
0.0
  9
$DIMTOL
 70
     0
  9
$DIMLIM
 70
     0
  9
$DIMTIH
 70
     0
  9
$DIMTOH
 70
     0
  9
$DIMSE1
 70
     0
  9
$DIMSE2
 70
     0
  9
$DIMTAD
 70
     1
  9
$DIMZIN
 70
     8
  9
$DIMBLK
  1

  9
$DIMASO
 70
     1
  9
$DIMSHO
 70
     1
  9
$DIMPOST
  1

  9
$DIMAPOST
  1

  9
$DIMALT
 70
     0
  9
$DIMALTD
 70
     3
  9
$DIMALTF
 40
0.03937
  9
$DIMLFAC
 40
1.0
  9
$DIMTOFL
 70
     1
  9
$DIMTVP
 40
0.0
  9
$DIMTIX
 70
     0
  9
$DIMSOXD
 70
     0
  9
$DIMSAH
 70
     0
  9
$DIMBLK1
  1

  9
$DIMBLK2
  1

  9
$DIMSTYLE
  2
ISO-25
  9
$DIMCLRD
 70
     0
  9
$DIMCLRE
 70
     0
  9
$DIMCLRT
 70
     0
  9
$DIMTFAC
 40
1.0
  9
$DIMGAP
 40
0.625
  9
$DIMJUST
 70
     0
  9
$DIMSD1
 70
     0
  9
$DIMSD2
 70
     0
  9
$DIMTOLJ
 70
     0
  9
$DIMTZIN
 70
     8
  9
$DIMALTZ
 70
     0
  9
$DIMALTTZ
 70
     0
  9
$DIMUPT
 70
     0
  9
$DIMDEC
 70
     2
  9
$DIMTDEC
 70
     2
  9
$DIMALTU
 70
     2
  9
$DIMALTTD
 70
     3
  9
$DIMTXSTY
  7
Standard
  9
$DIMAUNIT
 70
     0
  9
$DIMADEC
 70
     0
  9
$DIMALTRND
 40
0.0
  9
$DIMAZIN
 70
     0
  9
$DIMDSEP
 70
    44
  9
$DIMATFIT
 70
     3
  9
$DIMFRAC
 70
     0
  9
$DIMLDRBLK
  1

  9
$DIMLUNIT
 70
     2
  9
$DIMLWD
 70
    -2
  9
$DIMLWE
 70
    -2
  9
$DIMTMOVE
 70
     0
  9
$LUNITS
 70
     2
  9
$LUPREC
 70
     4
  9
$SKETCHINC
 40
1.0
  9
$FILLETRAD
 40
10.0
  9
$AUNITS
 70
     0
  9
$AUPREC
 70
     0
  9
$MENU
  1
.
  9
$ELEVATION
 40
0.0
  9
$PELEVATION
 40
0.0
  9
$THICKNESS
 40
0.0
  9
$LIMCHECK
 70
     0
  9
$CHAMFERA
 40
10.0
  9
$CHAMFERB
 40
10.0
  9
$CHAMFERC
 40
20.0
  9
$CHAMFERD
 40
0.0
  9
$SKPOLY
 70
     0
  9
$TDCREATE
 40
2455657.347147604
  9
$TDUCREATE
 40
2455657.263814271
  9
$TDUPDATE
 40
2455657.347147616
  9
$TDUUPDATE
 40
2455657.263814283
  9
$TDINDWG
 40
0.0000000116
  9
$TDUSRTIMER
 40
0.0000000116
  9
$USRTIMER
 70
     1
  9
$ANGBASE
 50
0.0
  9
$ANGDIR
 70
     0
  9
$PDMODE
 70
     0
  9
$PDSIZE
 40
0.0
  9
$PLINEWID
 40
0.0
  9
$SPLFRAME
 70
     0
  9
$SPLINETYPE
 70
     6
  9
$SPLINESEGS
 70
     8
  9
$HANDSEED
  5
17D
  9
$SURFTAB1
 70
     6
  9
$SURFTAB2
 70
     6
  9
$SURFTYPE
 70
     6
  9
$SURFU
 70
     6
  9
$SURFV
 70
     6
  9
$UCSBASE
  2

  9
$UCSNAME
  2

  9
$UCSORG
 10
0.0
 20
0.0
 30
0.0
  9
$UCSXDIR
 10
1.0
 20
0.0
 30
0.0
  9
$UCSYDIR
 10
0.0
 20
1.0
 30
0.0
  9
$UCSORTHOREF
  2

  9
$UCSORTHOVIEW
 70
     0
  9
$UCSORGTOP
 10
0.0
 20
0.0
 30
0.0
  9
$UCSORGBOTTOM
 10
0.0
 20
0.0
 30
0.0
  9
$UCSORGLEFT
 10
0.0
 20
0.0
 30
0.0
  9
$UCSORGRIGHT
 10
0.0
 20
0.0
 30
0.0
  9
$UCSORGFRONT
 10
0.0
 20
0.0
 30
0.0
  9
$UCSORGBACK
 10
0.0
 20
0.0
 30
0.0
  9
$PUCSBASE
  2

  9
$PUCSNAME
  2

  9
$PUCSORG
 10
0.0
 20
0.0
 30
0.0
  9
$PUCSXDIR
 10
1.0
 20
0.0
 30
0.0
  9
$PUCSYDIR
 10
0.0
 20
1.0
 30
0.0
  9
$PUCSORTHOREF
  2

  9
$PUCSORTHOVIEW
 70
     0
  9
$PUCSORGTOP
 10
0.0
 20
0.0
 30
0.0
  9
$PUCSORGBOTTOM
 10
0.0
 20
0.0
 30
0.0
  9
$PUCSORGLEFT
 10
0.0
 20
0.0
 30
0.0
  9
$PUCSORGRIGHT
 10
0.0
 20
0.0
 30
0.0
  9
$PUCSORGFRONT
 10
0.0
 20
0.0
 30
0.0
  9
$PUCSORGBACK
 10
0.0
 20
0.0
 30
0.0
  9
$USERI1
 70
     0
  9
$USERI2
 70
     0
  9
$USERI3
 70
     0
  9
$USERI4
 70
     0
  9
$USERI5
 70
     0
  9
$USERR1
 40
0.0
  9
$USERR2
 40
0.0
  9
$USERR3
 40
0.0
  9
$USERR4
 40
0.0
  9
$USERR5
 40
0.0
  9
$WORLDVIEW
 70
     1
  9
$SHADEDGE
 70
     3
  9
$SHADEDIF
 70
    70
  9
$TILEMODE
 70
     1
  9
$MAXACTVP
 70
    64
  9
$PINSBASE
 10
0.0
 20
0.0
 30
0.0
  9
$PLIMCHECK
 70
     0
  9
$PEXTMIN
 10
-209.760318
 20
-147.978432
 30
0.0
  9
$PEXTMAX
 10
630.239682
 20
446.021568
 30
0.0
  9
$PLIMMIN
 10
-209.760318
 20
-147.978432
  9
$PLIMMAX
 10
630.239682
 20
446.021568
  9
$UNITMODE
 70
     0
  9
$VISRETAIN
 70
     1
  9
$PLINEGEN
 70
     0
  9
$PSLTSCALE
 70
     1
  9
$TREEDEPTH
 70
  3020
  9
$CMLSTYLE
  2
Standard
  9
$CMLJUST
 70
     0
  9
$CMLSCALE
 40
20.0
  9
$PROXYGRAPHICS
 70
     1
  9
$MEASUREMENT
 70
     1
  9
$CELWEIGHT
370
    -1
  9
$ENDCAPS
280
     0
  9
$JOINSTYLE
280
     0
  9
$LWDISPLAY
290
     0
  9
$INSUNITS
 70
     4
  9
$HYPERLINKBASE
  1

  9
$STYLESHEET
  1

  9
$XEDIT
290
     1
  9
$CEPSNTYPE
380
     0
  9
$PSTYLEMODE
290
     1
  9
$FINGERPRINTGUID
  2
{FAEB1C30-E019-11D5-929B-00C0DF256EC4}
  9
$VERSIONGUID
  2
{FAEB1C32-E019-11D5-929B-00C0DF256EC4}
  9
$EXTNAMES
290
     1
  9
$PSVPSCALE
 40
0.0
  9
$OLESTARTUP
290
     0
  0
ENDSEC
  0
SECTION
  2
CLASSES
  0
CLASS
  1
ACDBDICTIONARYWDFLT
  2
AcDbDictionaryWithDefault
  3
ObjectDBX Classes
 90
        0
280
     0
281
     0
  0
CLASS
  1
ACDBPLACEHOLDER
  2
AcDbPlaceHolder
  3
ObjectDBX Classes
 90
        0
280
     0
281
     0
  0
CLASS
  1
LAYOUT
  2
AcDbLayout
  3
ObjectDBX Classes
 90
        0
280
     0
281
     0
  0
ENDSEC
  0
SECTION
  2
TABLES
  0
TABLE
  2
VPORT
  5
8
330
0
100
AcDbSymbolTable
 70
     2
  0
VPORT
  5
29
330
8
100
AcDbSymbolTableRecord
100
AcDbViewportTableRecord
  2
*ACTIVE
 70
     0
 10
0.0
 20
0.0
 11
1.0
 21
1.0
 12
210.239682
 22
149.021568
 13
0.0
 23
0.0
 14
1.0
 24
1.0
 15
0.0
 25
0.0
 16
0.0
 26
0.0
 36
1.0
 17
0.0
 27
0.0
 37
0.0
 40
594.0
 41
1.414141
 42
50.0
 43
0.0
 44
0.0
 50
0.0
 51
0.0
 71
    16
 72
   100
 73
     1
 74
     0
 75
     0
 76
     0
 77
     0
 78
     0
281
     0
 65
     0
110
0.0
120
0.0
130
0.0
111
1.0
121
0.0
131
0.0
112
0.0
122
1.0
132
0.0
 79
     0
146
0.0
  0
ENDTAB
  0
TABLE
  2
LTYPE
  5
5
330
0
100
AcDbSymbolTable
 70
     2
  0
LTYPE
  5
14
330
5
100
AcDbSymbolTableRecord
100
AcDbLinetypeTableRecord
  2
ByBlock
 70
     0
  3

 72
    65
 73
     0
 40
0.0
  0
LTYPE
  5
15
330
5
100
AcDbSymbolTableRecord
100
AcDbLinetypeTableRecord
  2
ByLayer
 70
     0
  3

 72
    65
 73
     0
 40
0.0
  0
LTYPE
  5
16
330
5
100
AcDbSymbolTableRecord
100
AcDbLinetypeTableRecord
  2
Continuous
 70
     0
  3
Solid line
 72
    65
 73
     0
 40
0.0
  0
LTYPE
  5
2A
330
5
100
AcDbSymbolTableRecord
100
AcDbLinetypeTableRecord
  2
DASHED
 70
     0
  3
__ __ __ __ __
 72
    65
 73
     2
 40
6.25
 49
5.0
 74
     4
 75
     0
340
0
 46
1.0
 50
0.0
 44
0.0
 45
0.0
 49
-1.25
 74
     4
 75
     0
340
0
 46
1.0
 50
0.0
 44
0.0
 45
0.0
  0
ENDTAB
  0
TABLE
  2
LAYER
  5
2
330
0
100
AcDbSymbolTable
 70
     8
  0
LAYER
  5
10
330
2
100
AcDbSymbolTableRecord
100
AcDbLayerTableRecord
  2
0
 70
     0
 62
     7
  6
Continuous
370
    -3
390
F
  0
LAYER
  5
2B
330
2
100
AcDbSymbolTableRecord
100
AcDbLayerTableRecord
  2
LC-INFO-1-2-mm-A3-0
 70
     1
 62
     7
  6
ByBlock
370
    -3
390
F
  0
LAYER
  5
2C
330
2
100
AcDbSymbolTableRecord
100
AcDbLayerTableRecord
  2
LC-CUT-HIDDEN
 70
     0
 62
     7
  6
DASHED
370
    -3
390
F
  0
LAYER
  5
2D
330
2
100
AcDbSymbolTableRecord
100
AcDbLayerTableRecord
  2
LC-VIEWPORT
 70
     0
 62
     7
  6
ByBlock
370
    -3
390
F
  0
LAYER
  5
2E
330
2
100
AcDbSymbolTableRecord
100
AcDbLayerTableRecord
  2
LC-3D-HIDDEN
 70
     0
 62
     9
  6
DASHED
370
    -3
390
F
  0
LAYER
  5
31
330
2
100
AcDbSymbolTableRecord
100
AcDbLayerTableRecord
  2
LC-001-100-D00-0
 70
     0
 62
     2
  6
ByBlock
370
    -3
390
F
  0
LAYER
  5
16E
330
2
100
AcDbSymbolTableRecord
100
AcDbLayerTableRecord
  2
LC-002-003-----0
 70
     0
 62
     2
  6
ByBlock
370
    -3
390
F
  0
LAYER
  5
170
330
2
100
AcDbSymbolTableRecord
100
AcDbLayerTableRecord
  2
Defpoints
 70
     0
 62
     7
  6
Continuous
290
     0
370
    -3
390
F
  0
ENDTAB
  0
TABLE
  2
STYLE
  5
3
330
0
100
AcDbSymbolTable
 70
     4
  0
STYLE
  5
11
330
3
100
AcDbSymbolTableRecord
100
AcDbTextStyleTableRecord
  2
Standard
 70
     0
 40
0.0
 41
1.0
 50
0.0
 71
     0
 42
2.5
  3
txt
  4

  0
STYLE
  5
2F
330
3
100
AcDbSymbolTableRecord
100
AcDbTextStyleTableRecord
  2
LCTX0-400-0-0pDIN-Schrift
 70
     0
 40
0.0
 41
0.75
 50
0.0
 71
     0
 42
3.5
  3
TXT
  4

  0
STYLE
  5
30
330
3
100
AcDbSymbolTableRecord
100
AcDbTextStyleTableRecord
  2
LCTX15-400-0-0-Arial
 70
     0
 40
0.0
 41
0.8
 50
0.0
 71
     0
 42
3.5
  3

  4

1001
ACAD
1000
Arial
1071
 16777218
  0
STYLE
  5
16C
330
3
100
AcDbSymbolTableRecord
100
AcDbTextStyleTableRecord
  2
LCTX15-400-0-0pDIN-Schrift
 70
     0
 40
2.5
 41
0.8
 50
15.0
 71
     0
 42
3.5
  3
STANDARD
  4

  0
ENDTAB
  0
TABLE
  2
VIEW
  5
6
330
0
100
AcDbSymbolTable
 70
     0
  0
ENDTAB
  0
TABLE
  2
UCS
  5
7
330
0
100
AcDbSymbolTable
 70
     0
  0
ENDTAB
  0
TABLE
  2
APPID
  5
9
330
0
100
AcDbSymbolTable
 70
     1
  0
APPID
  5
12
330
9
100
AcDbSymbolTableRecord
100
AcDbRegAppTableRecord
  2
ACAD
 70
     0
  0
ENDTAB
  0
TABLE
  2
DIMSTYLE
  5
A
330
0
100
AcDbSymbolTable
 70
     2
100
AcDbDimStyleTable
  0
DIMSTYLE
105
27
330
A
100
AcDbSymbolTableRecord
100
AcDbDimStyleTableRecord
  2
ISO-25
 70
     0
 41
2.5
 42
0.625
 43
3.75
 44
1.25
 73
     0
 74
     0
 77
     1
 78
     8
140
2.5
141
2.5
143
0.03937
147
0.625
171
     3
172
     1
271
     2
272
     2
274
     3
278
    44
283
     0
284
     8
340
11
  0
DIMSTYLE
105
16D
102
{ACAD_REACTORS
330
16F
102
}
330
A
100
AcDbSymbolTableRecord
100
AcDbDimStyleTableRecord
  2
LC-DIM-L-0140-02-02
 70
     0
 40
2.0
 41
14.0
 42
0.0
 43
7.5
 44
1.8
 73
     0
 74
     0
 77
     1
 78
     8
 79
     2
140
14.0
141
0.0
146
0.71
147
1.5
176
     2
177
     2
178
     2
179
     2
271
     2
278
    44
289
     1
340
16C
  0
ENDTAB
  0
TABLE
  2
BLOCK_RECORD
  5
1
330
0
100
AcDbSymbolTable
 70
     2
  0
BLOCK_RECORD
  5
1F
330
1
100
AcDbSymbolTableRecord
100
AcDbBlockTableRecord
  2
*Model_Space
340
22
  0
BLOCK_RECORD
  5
1B
330
1
100
AcDbSymbolTableRecord
100
AcDbBlockTableRecord
  2
*Paper_Space
340
1E
  0
BLOCK_RECORD
  5
23
330
1
100
AcDbSymbolTableRecord
100
AcDbBlockTableRecord
  2
*Paper_Space0
340
26
  0
BLOCK_RECORD
  5
171
330
1
100
AcDbSymbolTableRecord
100
AcDbBlockTableRecord
  2
*D1
340
0
  0
ENDTAB
  0
ENDSEC
  0
SECTION
  2
BLOCKS
  0
BLOCK
  5
20
330
1F
100
AcDbEntity
  8
0
100
AcDbBlockBegin
  2
*Model_Space
 70
     0
 71
     0
 10
0.0
 20
0.0
 30
0.0
  3
*Model_Space
  1

  0
ENDBLK
  5
21
330
1F
100
AcDbEntity
  8
0
100
AcDbBlockEnd
  0
BLOCK
  5
1C
330
1B
100
AcDbEntity
 67
     1
  8
0
100
AcDbBlockBegin
  2
*Paper_Space
 70
     0
 71
     0
 10
0.0
 20
0.0
 30
0.0
  3
*Paper_Space
  1

  0
ENDBLK
  5
1D
330
1B
100
AcDbEntity
 67
     1
  8
0
100
AcDbBlockEnd
  0
BLOCK
  5
24
330
23
100
AcDbEntity
  8
0
100
AcDbBlockBegin
  2
*Paper_Space0
 70
     0
 71
     0
 10
0.0
 20
0.0
 30
0.0
  3
*Paper_Space0
  1

  0
ENDBLK
  5
25
330
23
100
AcDbEntity
  8
0
100
AcDbBlockEnd
  0
BLOCK
  5
17B
330
171
100
AcDbEntity
  8
0
100
AcDbBlockBegin
  2
*D1
 70
     1
 71
     0
 10
0.0
 20
0.0
 30
0.0
  3
*D1
  1

  0
LINE
  5
172
330
171
100
AcDbEntity
  8
LC-002-003-----0
 62
     2
370
    -2
100
AcDbLine
 10
179.487578
 20
200.107758
 30
0.0
 11
179.487578
 21
218.779916
 31
0.0
  0
LINE
  5
173
330
171
100
AcDbEntity
  8
LC-002-003-----0
 62
     2
370
    -2
100
AcDbLine
 10
270.487578
 20
200.107758
 30
0.0
 11
270.487578
 21
218.779916
 31
0.0
  0
LINE
  5
174
330
171
100
AcDbEntity
  8
LC-002-003-----0
 62
     2
370
    -2
100
AcDbLine
 10
207.487578
 20
215.179916
 30
0.0
 11
242.487578
 21
215.179916
 31
0.0
  0
SOLID
  5
175
330
171
100
AcDbEntity
  8
LC-002-003-----0
 62
     2
100
AcDbTrace
 10
207.487578
 20
219.846583
 30
0.0
 11
207.487578
 21
210.51325
 31
0.0
 12
179.487578
 22
215.179916
 32
0.0
 13
179.487578
 23
215.179916
 33
0.0
  0
SOLID
  5
176
330
171
100
AcDbEntity
  8
LC-002-003-----0
 62
     2
100
AcDbTrace
 10
242.487578
 20
210.51325
 30
0.0
 11
242.487578
 21
219.846583
 31
0.0
 12
270.487578
 22
215.179916
 32
0.0
 13
270.487578
 23
215.179916
 33
0.0
  0
MTEXT
  5
177
330
171
100
AcDbEntity
  8
LC-002-003-----0
 62
     2
100
AcDbMText
 10
220.854061
 20
245.979916
 30
0.0
 40
28.0
 41
0.0
 71
     5
 72
     1
  1
\A1;90
  7
LCTX15-400-0-0pDIN-Schrift
 73
     1
 44
1.0
  0
POINT
  5
178
330
171
100
AcDbEntity
  8
Defpoints
 62
     0
100
AcDbPoint
 10
179.487578
 20
200.107758
 30
0.0
  0
POINT
  5
179
330
171
100
AcDbEntity
  8
Defpoints
 62
     0
100
AcDbPoint
 10
270.487578
 20
200.107758
 30
0.0
  0
POINT
  5
17A
330
171
100
AcDbEntity
  8
Defpoints
 62
     0
100
AcDbPoint
 10
270.487578
 20
215.179916
 30
0.0
  0
ENDBLK
  5
17C
330
171
100
AcDbEntity
  8
0
100
AcDbBlockEnd
  0
ENDSEC
  0
SECTION
  2
ENTITIES
  0
LINE
  5
32
330
1F
100
AcDbEntity
  8
LC-001-100-D00-0
 62
     7
370
    25
100
AcDbLine
 10
256.7418
 20
119.260316
 30
0.0
 11
256.7418
 21
119.198592
 31
0.0
  0
ARC
  5
33
330
1F
100
AcDbEntity
  8
LC-001-100-D00-0
 62
     7
370
    25
100
AcDbCircle
 10
256.322849
 20
119.260316
 30
0.0
 40
0.418950000000109
100
AcDbArc
 50
0.0
 51
90.0
  0
LINE
  5
34
330
1F
100
AcDbEntity
  8
LC-001-100-D00-0
 62
     7
370
    25
100
AcDbLine
 10
255.438399
 20
119.679266
 30
0.0
 11
256.32285
 21
119.679266
 31
0.0
  0
LINE
  5
35
330
1F
100
AcDbEntity
  8
LC-001-100-D00-0
 62
     7
370
    25
100
AcDbLine
 10
255.438399
 20
118.779642
 30
0.0
 11
255.438399
 21
119.679266
 31
0.0
  0
LINE
  5
36
330
1F
100
AcDbEntity
  8
LC-001-100-D00-0
 62
     7
370
    25
100
AcDbLine
 10
256.32285
 20
118.779642
 30
0.0
 11
255.438399
 21
118.779642
 31
0.0
  0
ARC
  5
37
330
1F
100
AcDbEntity
  8
LC-001-100-D00-0
 62
     7
370
    25
100
AcDbCircle
 10
256.322849
 20
119.198591
 30
0.0
 40
0.4189499999999953
100
AcDbArc
 50
270.0
 51
0.0
  0
ARC
  5
38
330
1F
100
AcDbEntity
  8
LC-001-100-D00-0
 62
     7
370
    25
100
AcDbCircle
 10
256.834899
 20
118.956436
 30
0.0
 40
0.465500000000256
100
AcDbArc
 50
281.536959
 51
0.0
  0
ARC
  5
39
330
1F
100
AcDbEntity
  8
LC-001-100-D00-0
 62
     7
370
    25
100
AcDbCircle
 10
256.834899
 20
118.044246
 30
0.0
 40
0.4655000000001341
100
AcDbArc
 50
359.999998
 51
78.463041
  0
LINE
  5
3A
330
1F
100
AcDbEntity
  8
LC-001-100-D00-0
 62
     7
370
    25
100
AcDbLine
 10
257.3004
 20
117.29004
 30
0.0
 11
257.3004
 21
118.044247
 31
0.0
  0
LINE
  5
3B
330
1F
100
AcDbEntity
  8
LC-001-100-D00-0
 62
     7
370
    25
100
AcDbLine
 10
256.7418
 20
117.29004
 30
0.0
 11
257.3004
 21
117.29004
 31
0.0
  0
LINE
  5
3C
330
1F
100
AcDbEntity
  8
LC-001-100-D00-0
 62
     7
370
    25
100
AcDbLine
 10
256.7418
 20
117.802092
 30
0.0
 11
256.7418
 21
117.29004
 31
0.0
  0
ARC
  5
3D
330
1F
100
AcDbEntity
  8
LC-001-100-D00-0
 62
     7
370
    25
100
AcDbCircle
 10
256.322849
 20
117.802091
 30
0.0
 40
0.418950000000109
100
AcDbArc
 50
0.0
 51
90.0
  0
LINE
  5
3E
330
1F
100
AcDbEntity
  8
LC-001-100-D00-0
 62
     7
370
    25
100
AcDbLine
 10
255.438399
 20
118.221042
 30
0.0
 11
256.32285
 21
118.221042
 31
0.0
  0
LINE
  5
3F
330
1F
100
AcDbEntity
  8
LC-001-100-D00-0
 62
     7
370
    25
100
AcDbLine
 10
255.438399
 20
117.29004
 30
0.0
 11
255.438399
 21
118.221042
 31
0.0
  0
LINE
  5
40
330
1F
100
AcDbEntity
  8
LC-001-100-D00-0
 62
     7
370
    25
100
AcDbLine
 10
254.879799
 20
117.29004
 30
0.0
 11
255.438399
 21
117.29004
 31
0.0
  0
LINE
  5
41
330
1F
100
AcDbEntity
  8
LC-001-100-D00-0
 62
     7
370
    25
100
AcDbLine
 10
254.879799
 20
120.237866
 30
0.0
 11
254.879799
 21
117.29004
 31
0.0
  0
LINE
  5
42
330
1F
100
AcDbEntity
  8
LC-001-100-D00-0
 62
     7
370
    25
100
AcDbLine
 10
256.834899
 20
120.237866
 30
0.0
 11
254.879799
 21
120.237866
 31
0.0
  0
ARC
  5
43
330
1F
100
AcDbEntity
  8
LC-001-100-D00-0
 62
     7
370
    25
100
AcDbCircle
 10
256.834899
 20
119.772366
 30
0.0
 40
0.46550000000002
100
AcDbArc
 50
0.0
 51
90.0
  0
LINE
  5
44
330
1F
100
AcDbEntity
  8
LC-001-100-D00-0
 62
     7
370
    25
100
AcDbLine
 10
257.3004
 20
118.956437
 30
0.0
 11
257.3004
 21
119.772365
 31
0.0
  0
LINE
  5
45
330
1F
100
AcDbEntity
  8
LC-001-100-D00-0
 62
     7
370
    25
100
AcDbLine
 10
252.831599
 20
119.679266
 30
0.0
 11
252.831599
 21
119.136353
 31
0.0
  0
LINE
  5
46
330
1F
100
AcDbEntity
  8
LC-001-100-D00-0
 62
     7
370
    25
100
AcDbLine
 10
252.831599
 20
119.679266
 30
0.0
 11
254.228099
 21
119.679266
 31
0.0
  0
LINE
  5
47
330
1F
100
AcDbEntity
  8
LC-001-100-D00-0
 62
     7
370
    25
100
AcDbLine
 10
254.228099
 20
120.424067
 30
0.0
 11
254.228099
 21
119.679266
 31
0.0
  0
LINE
  5
48
330
1F
100
AcDbEntity
  8
LC-001-100-D00-0
 62
     7
370
    25
100
AcDbLine
 10
251.900599
 20
120.424067
 30
0.0
 11
254.228099
 21
120.424067
 31
0.0
  0
LINE
  5
49
330
1F
100
AcDbEntity
  8
LC-001-100-D00-0
 62
     7
370
    25
100
AcDbLine
 10
251.900599
 20
120.424067
 30
0.0
 11
251.900599
 21
117.103842
 31
0.0
  0
LINE
  5
4A
330
1F
100
AcDbEntity
  8
LC-001-100-D00-0
 62
     7
370
    25
100
AcDbLine
 10
251.900599
 20
117.103842
 30
0.0
 11
254.228099
 21
117.103842
 31
0.0
  0
LINE
  5
4B
330
1F
100
AcDbEntity
  8
LC-001-100-D00-0
 62
     7
370
    25
100
AcDbLine
 10
254.228099
 20
117.84864
 30
0.0
 11
254.228099
 21
117.103842
 31
0.0
  0
LINE
  5
4C
330
1F
100
AcDbEntity
  8
LC-001-100-D00-0
 62
     7
370
    25
100
AcDbLine
 10
252.831599
 20
117.84864
 30
0.0
 11
254.228099
 21
117.84864
 31
0.0
  0
LINE
  5
4D
330
1F
100
AcDbEntity
  8
LC-001-100-D00-0
 62
     7
370
    25
100
AcDbLine
 10
252.831599
 20
118.391552
 30
0.0
 11
252.831599
 21
117.84864
 31
0.0
  0
LINE
  5
4E
330
1F
100
AcDbEntity
  8
LC-001-100-D00-0
 62
     7
370
    25
100
AcDbLine
 10
254.228099
 20
118.391552
 30
0.0
 11
252.831599
 21
118.391552
 31
0.0
  0
LINE
  5
4F
330
1F
100
AcDbEntity
  8
LC-001-100-D00-0
 62
     7
370
    25
100
AcDbLine
 10
254.228099
 20
119.136353
 30
0.0
 11
254.228099
 21
118.391552
 31
0.0
  0
ARC
  5
50
330
1F
100
AcDbEntity
  8
LC-001-100-D00-0
 62
     7
370
    25
100
AcDbCircle
 10
248.884254
 20
119.772366
 30
0.0
 40
0.6516999999998923
100
AcDbArc
 50
45.584691
 51
90.0
  0
LINE
  5
51
330
1F
100
AcDbEntity
  8
LC-001-100-D00-0
 62
     7
370
    25
100
AcDbLine
 10
247.8973
 20
120.424067
 30
0.0
 11
248.884254
 21
120.424067
 31
0.0
  0
ARC
  5
52
330
1F
100
AcDbEntity
  8
LC-001-100-D00-0
 62
     7
370
    25
100
AcDbCircle
 10
247.897299
 20
119.772366
 30
0.0
 40
0.6517000000000053
100
AcDbArc
 50
90.0
 51
180.0
  0
LINE
  5
53
330
1F
100
AcDbEntity
  8
LC-001-100-D00-0
 62
     7
370
    25
100
AcDbLine
 10
247.245599
 20
119.772365
 30
0.0
 11
247.245599
 21
117.103842
 31
0.0
  0
LINE
  5
54
330
1F
100
AcDbEntity
  8
LC-001-100-D00-0
 62
     7
370
    25
100
AcDbLine
 10
247.245599
 20
117.103842
 30
0.0
 11
248.1766
 21
117.103842
 31
0.0
  0
LINE
  5
55
330
1F
100
AcDbEntity
  8
LC-001-100-D00-0
 62
     7
370
    25
100
AcDbLine
 10
248.1766
 20
119.260316
 30
0.0
 11
248.1766
 21
117.103842
 31
0.0
  0
ARC
  5
56
330
1F
100
AcDbEntity
  8
LC-001-100-D00-0
 62
     7
370
    25
100
AcDbCircle
 10
248.409349
 20
119.260316
 30
0.0
 40
0.23275000000001
100
AcDbArc
 50
90.0
 51
180.0
  0
LINE
  5
57
330
1F
100
AcDbEntity
  8
LC-001-100-D00-0
 62
     7
370
    25
100
AcDbLine
 10
248.40935
 20
119.493065
 30
0.0
 11
248.642099
 21
119.493065
 31
0.0
  0
ARC
  5
58
330
1F
100
AcDbEntity
  8
LC-001-100-D00-0
 62
     7
370
    25
100
AcDbCircle
 10
248.642099
 20
119.260316
 30
0.0
 40
0.23275000000001
100
AcDbArc
 50
0.0
 51
90.0
  0
LINE
  5
59
330
1F
100
AcDbEntity
  8
LC-001-100-D00-0
 62
     7
370
    25
100
AcDbLine
 10
248.874849
 20
119.260316
 30
0.0
 11
248.874849
 21
117.103842
 31
0.0
  0
LINE
  5
5A
330
1F
100
AcDbEntity
  8
LC-001-100-D00-0
 62
     7
370
    25
100
AcDbLine
 10
248.874849
 20
117.103842
 30
0.0
 11
249.80585
 21
117.103842
 31
0.0
  0
LINE
  5
5B
330
1F
100
AcDbEntity
  8
LC-001-100-D00-0
 62
     7
370
    25
100
AcDbLine
 10
249.80585
 20
119.260316
 30
0.0
 11
249.80585
 21
117.103842
 31
0.0
  0
ARC
  5
5C
330
1F
100
AcDbEntity
  8
LC-001-100-D00-0
 62
     7
370
    25
100
AcDbCircle
 10
250.038599
 20
119.260316
 30
0.0
 40
0.2327499999999532
100
AcDbArc
 50
90.0
 51
180.0
  0
LINE
  5
5D
330
1F
100
AcDbEntity
  8
LC-001-100-D00-0
 62
     7
370
    25
100
AcDbLine
 10
250.0386
 20
119.493065
 30
0.0
 11
250.271349
 21
119.493065
 31
0.0
  0
ARC
  5
5E
330
1F
100
AcDbEntity
  8
LC-001-100-D00-0
 62
     7
370
    25
100
AcDbCircle
 10
250.271349
 20
119.260316
 30
0.0
 40
0.23275000000001
100
AcDbArc
 50
0.0
 51
90.0
  0
LINE
  5
5F
330
1F
100
AcDbEntity
  8
LC-001-100-D00-0
 62
     7
370
    25
100
AcDbLine
 10
250.504099
 20
119.260316
 30
0.0
 11
250.504099
 21
117.103842
 31
0.0
  0
LINE
  5
60
330
1F
100
AcDbEntity
  8
LC-001-100-D00-0
 62
     7
370
    25
100
AcDbLine
 10
250.504099
 20
117.103842
 30
0.0
 11
251.4351
 21
117.103842
 31
0.0
  0
LINE
  5
61
330
1F
100
AcDbEntity
  8
LC-001-100-D00-0
 62
     7
370
    25
100
AcDbLine
 10
251.4351
 20
119.772365
 30
0.0
 11
251.4351
 21
117.103842
 31
0.0
  0
ARC
  5
62
330
1F
100
AcDbEntity
  8
LC-001-100-D00-0
 62
     7
370
    25
100
AcDbCircle
 10
250.783399
 20
119.772366
 30
0.0
 40
0.6516999954940843
100
AcDbArc
 50
0.0
 51
90.0
  0
LINE
  5
63
330
1F
100
AcDbEntity
  8
LC-001-100-D00-0
 62
     7
370
    25
100
AcDbLine
 10
249.796445
 20
120.424067
 30
0.0
 11
250.783399
 21
120.424067
 31
0.0
  0
ARC
  5
64
330
1F
100
AcDbEntity
  8
LC-001-100-D00-0
 62
     7
370
    25
100
AcDbCircle
 10
249.796444
 20
119.772366
 30
0.0
 40
0.6516999954940278
100
AcDbArc
 50
89.999998
 51
134.415309
  0
LINE
  5
65
330
1F
100
AcDbEntity
  8
LC-001-100-D00-0
 62
     7
370
    25
100
AcDbLine
 10
242.590599
 20
117.103842
 30
0.0
 11
244.4526
 21
117.103842
 31
0.0
  0
LINE
  5
66
330
1F
100
AcDbEntity
  8
LC-001-100-D00-0
 62
     7
370
    25
100
AcDbLine
 10
244.4526
 20
118.034841
 30
0.0
 11
244.4526
 21
117.103842
 31
0.0
  0
LINE
  5
67
330
1F
100
AcDbEntity
  8
LC-001-100-D00-0
 62
     7
370
    25
100
AcDbLine
 10
243.5216
 20
118.034841
 30
0.0
 11
244.4526
 21
118.034841
 31
0.0
  0
LINE
  5
68
330
1F
100
AcDbEntity
  8
LC-001-100-D00-0
 62
     7
370
    25
100
AcDbLine
 10
243.5216
 20
120.424067
 30
0.0
 11
243.5216
 21
118.034841
 31
0.0
  0
LINE
  5
69
330
1F
100
AcDbEntity
  8
LC-001-100-D00-0
 62
     7
370
    25
100
AcDbLine
 10
242.590599
 20
120.424067
 30
0.0
 11
243.5216
 21
120.424067
 31
0.0
  0
LINE
  5
6A
330
1F
100
AcDbEntity
  8
LC-001-100-D00-0
 62
     7
370
    25
100
AcDbLine
 10
242.590599
 20
120.424067
 30
0.0
 11
242.590599
 21
117.103842
 31
0.0
  0
LINE
  5
6B
330
1F
100
AcDbEntity
  8
LC-001-100-D00-0
 62
     7
370
    25
100
AcDbLine
 10
236.539099
 20
120.424067
 30
0.0
 11
238.2149
 21
120.424067
 31
0.0
  0
LINE
  5
6C
330
1F
100
AcDbEntity
  8
LC-001-100-D00-0
 62
     7
370
    25
100
AcDbLine
 10
236.539099
 20
120.424067
 30
0.0
 11
236.539099
 21
117.165567
 31
0.0
  0
LINE
  5
6D
330
1F
100
AcDbEntity
  8
LC-001-100-D00-0
 62
     7
370
    25
100
AcDbLine
 10
236.539099
 20
117.165567
 30
0.0
 11
238.2149
 21
117.165567
 31
0.0
  0
ARC
  5
6E
330
1F
100
AcDbEntity
  8
LC-001-100-D00-0
 62
     7
370
    25
100
AcDbCircle
 10
238.214899
 20
117.817266
 30
0.0
 40
0.6517000000000621
100
AcDbArc
 50
270.0
 51
0.0
  0
LINE
  5
6F
330
1F
100
AcDbEntity
  8
LC-001-100-D00-0
 62
     7
370
    25
100
AcDbLine
 10
238.866599
 20
119.772365
 30
0.0
 11
238.866599
 21
117.817265
 31
0.0
  0
ARC
  5
70
330
1F
100
AcDbEntity
  8
LC-001-100-D00-0
 62
     7
370
    25
100
AcDbCircle
 10
238.214899
 20
119.772366
 30
0.0
 40
0.6517000000002895
100
AcDbArc
 50
0.0
 51
90.0
  0
LINE
  5
71
330
1F
100
AcDbEntity
  8
LC-001-100-D00-0
 62
     7
370
    25
100
AcDbLine
 10
234.00953
 20
117.057608
 30
0.0
 11
235.759238
 21
117.69445
 31
0.0
  0
LINE
  5
72
330
1F
100
AcDbEntity
  8
LC-001-100-D00-0
 62
     7
370
    25
100
AcDbLine
 10
235.122396
 20
119.444155
 30
0.0
 11
235.759238
 21
117.69445
 31
0.0
  0
LINE
  5
73
330
1F
100
AcDbEntity
  8
LC-001-100-D00-0
 62
     7
370
    25
100
AcDbLine
 10
235.122396
 20
119.444155
 30
0.0
 11
234.485555
 21
121.193865
 31
0.0
  0
LINE
  5
74
330
1F
100
AcDbEntity
  8
LC-001-100-D00-0
 62
     7
370
    25
100
AcDbLine
 10
232.735847
 20
120.557023
 30
0.0
 11
234.485555
 21
121.193865
 31
0.0
  0
LINE
  5
75
330
1F
100
AcDbEntity
  8
LC-001-100-D00-0
 62
     7
370
    25
100
AcDbLine
 10
232.735847
 20
120.557023
 30
0.0
 11
230.98614
 21
119.92018
 31
0.0
  0
LINE
  5
76
330
1F
100
AcDbEntity
  8
LC-001-100-D00-0
 62
     7
370
    25
100
AcDbLine
 10
231.622982
 20
118.170471
 30
0.0
 11
230.98614
 21
119.92018
 31
0.0
  0
LINE
  5
77
330
1F
100
AcDbEntity
  8
LC-001-100-D00-0
 62
     7
370
    25
100
AcDbLine
 10
231.622982
 20
118.170471
 30
0.0
 11
232.259823
 21
116.420766
 31
0.0
  0
LINE
  5
78
330
1F
100
AcDbEntity
  8
LC-001-100-D00-0
 62
     7
370
    25
100
AcDbLine
 10
234.00953
 20
117.057608
 30
0.0
 11
232.259823
 21
116.420766
 31
0.0
  0
LINE
  5
79
330
1F
100
AcDbEntity
  8
LC-001-100-D00-0
 62
     7
370
    50
100
AcDbLine
 10
229.487578
 20
179.107758
 30
0.0
 11
229.487578
 21
173.107758
 31
0.0
  0
LINE
  5
7A
330
1F
100
AcDbEntity
  8
LC-001-100-D00-0
 62
     7
370
    50
100
AcDbLine
 10
229.487578
 20
173.107758
 30
0.0
 11
257.487577
 21
173.107758
 31
0.0
  0
LINE
  5
7B
330
1F
100
AcDbEntity
  8
LC-001-100-D00-0
 62
     7
370
    50
100
AcDbLine
 10
257.487577
 20
173.107758
 30
0.0
 11
257.487577
 21
179.107758
 31
0.0
  0
LINE
  5
7C
330
1F
100
AcDbEntity
  8
LC-001-100-D00-0
 62
     7
370
    50
100
AcDbLine
 10
257.487577
 20
179.107758
 30
0.0
 11
229.487578
 21
179.107758
 31
0.0
  0
LINE
  5
7D
330
1F
100
AcDbEntity
  8
LC-001-100-D00-0
 62
     7
370
    50
100
AcDbLine
 10
203.487578
 20
162.107758
 30
0.0
 11
209.487579
 21
162.107758
 31
0.0
  0
LINE
  5
7E
330
1F
100
AcDbEntity
  8
LC-001-100-D00-0
 62
     7
370
    50
100
AcDbLine
 10
209.487579
 20
162.107758
 30
0.0
 11
209.487579
 21
190.107757
 31
0.0
  0
LINE
  5
7F
330
1F
100
AcDbEntity
  8
LC-001-100-D00-0
 62
     7
370
    50
100
AcDbLine
 10
209.487579
 20
190.107757
 30
0.0
 11
203.487578
 21
190.107757
 31
0.0
  0
LINE
  5
80
330
1F
100
AcDbEntity
  8
LC-001-100-D00-0
 62
     7
370
    50
100
AcDbLine
 10
203.487578
 20
190.107757
 30
0.0
 11
203.487578
 21
162.107758
 31
0.0
  0
LINE
  5
81
330
1F
100
AcDbEntity
  8
LC-001-100-D00-0
 62
     7
370
    50
100
AcDbLine
 10
220.487579
 20
136.107757
 30
0.0
 11
220.487579
 21
142.107758
 31
0.0
  0
LINE
  5
82
330
1F
100
AcDbEntity
  8
LC-001-100-D00-0
 62
     7
370
    50
100
AcDbLine
 10
220.487579
 20
142.107758
 30
0.0
 11
192.487579
 21
142.107758
 31
0.0
  0
LINE
  5
83
330
1F
100
AcDbEntity
  8
LC-001-100-D00-0
 62
     7
370
    50
100
AcDbLine
 10
192.487579
 20
142.107758
 30
0.0
 11
192.487579
 21
136.107757
 31
0.0
  0
LINE
  5
84
330
1F
100
AcDbEntity
  8
LC-001-100-D00-0
 62
     7
370
    50
100
AcDbLine
 10
192.487579
 20
136.107757
 30
0.0
 11
220.487579
 21
136.107757
 31
0.0
  0
LINE
  5
85
330
1F
100
AcDbEntity
  8
LC-001-100-D00-0
 62
     7
370
    50
100
AcDbLine
 10
229.487578
 20
190.107757
 30
0.0
 11
229.487578
 21
184.107757
 31
0.0
  0
LINE
  5
86
330
1F
100
AcDbEntity
  8
LC-001-100-D00-0
 62
     7
370
    50
100
AcDbLine
 10
229.487578
 20
184.107757
 30
0.0
 11
257.487577
 21
184.107757
 31
0.0
  0
LINE
  5
87
330
1F
100
AcDbEntity
  8
LC-001-100-D00-0
 62
     7
370
    50
100
AcDbLine
 10
257.487577
 20
184.107757
 30
0.0
 11
257.487577
 21
190.107757
 31
0.0
  0
LINE
  5
88
330
1F
100
AcDbEntity
  8
LC-001-100-D00-0
 62
     7
370
    50
100
AcDbLine
 10
257.487577
 20
190.107757
 30
0.0
 11
229.487578
 21
190.107757
 31
0.0
  0
LINE
  5
89
330
1F
100
AcDbEntity
  8
LC-001-100-D00-0
 62
     7
370
    50
100
AcDbLine
 10
192.487579
 20
162.107758
 30
0.0
 11
198.487579
 21
162.107758
 31
0.0
  0
LINE
  5
8A
330
1F
100
AcDbEntity
  8
LC-001-100-D00-0
 62
     7
370
    50
100
AcDbLine
 10
198.487579
 20
162.107758
 30
0.0
 11
198.487579
 21
190.107757
 31
0.0
  0
LINE
  5
8B
330
1F
100
AcDbEntity
  8
LC-001-100-D00-0
 62
     7
370
    50
100
AcDbLine
 10
198.487579
 20
190.107757
 30
0.0
 11
192.487579
 21
190.107757
 31
0.0
  0
LINE
  5
8C
330
1F
100
AcDbEntity
  8
LC-001-100-D00-0
 62
     7
370
    50
100
AcDbLine
 10
192.487579
 20
190.107757
 30
0.0
 11
192.487579
 21
162.107758
 31
0.0
  0
LINE
  5
8D
330
1F
100
AcDbEntity
  8
LC-001-100-D00-0
 62
     7
370
    50
100
AcDbLine
 10
220.487579
 20
125.107759
 30
0.0
 11
220.487579
 21
131.107758
 31
0.0
  0
LINE
  5
8E
330
1F
100
AcDbEntity
  8
LC-001-100-D00-0
 62
     7
370
    50
100
AcDbLine
 10
220.487579
 20
131.107758
 30
0.0
 11
192.487579
 21
131.107758
 31
0.0
  0
LINE
  5
8F
330
1F
100
AcDbEntity
  8
LC-001-100-D00-0
 62
     7
370
    50
100
AcDbLine
 10
192.487579
 20
131.107758
 30
0.0
 11
192.487579
 21
125.107759
 31
0.0
  0
LINE
  5
90
330
1F
100
AcDbEntity
  8
LC-001-100-D00-0
 62
     7
370
    50
100
AcDbLine
 10
192.487579
 20
125.107759
 30
0.0
 11
220.487579
 21
125.107759
 31
0.0
  0
LINE
  5
91
330
1F
100
AcDbEntity
  8
LC-001-100-D00-0
 62
     7
370
    50
100
AcDbLine
 10
229.487578
 20
162.107758
 30
0.0
 11
257.487577
 21
162.107758
 31
0.0
  0
LINE
  5
92
330
1F
100
AcDbEntity
  8
LC-001-100-D00-0
 62
     7
370
    50
100
AcDbLine
 10
257.487577
 20
162.107758
 30
0.0
 11
257.487577
 21
168.107758
 31
0.0
  0
LINE
  5
93
330
1F
100
AcDbEntity
  8
LC-001-100-D00-0
 62
     7
370
    50
100
AcDbLine
 10
257.487577
 20
168.107758
 30
0.0
 11
229.487578
 21
168.107758
 31
0.0
  0
LINE
  5
94
330
1F
100
AcDbEntity
  8
LC-001-100-D00-0
 62
     7
370
    50
100
AcDbLine
 10
229.487578
 20
168.107758
 30
0.0
 11
229.487578
 21
162.107758
 31
0.0
  0
LINE
  5
95
330
1F
100
AcDbEntity
  8
LC-001-100-D00-0
 62
     7
370
    50
100
AcDbLine
 10
220.487579
 20
162.107758
 30
0.0
 11
220.487579
 21
190.107757
 31
0.0
  0
LINE
  5
96
330
1F
100
AcDbEntity
  8
LC-001-100-D00-0
 62
     7
370
    50
100
AcDbLine
 10
220.487579
 20
190.107757
 30
0.0
 11
214.487578
 21
190.107757
 31
0.0
  0
LINE
  5
97
330
1F
100
AcDbEntity
  8
LC-001-100-D00-0
 62
     7
370
    50
100
AcDbLine
 10
214.487578
 20
190.107757
 30
0.0
 11
214.487578
 21
162.107758
 31
0.0
  0
LINE
  5
98
330
1F
100
AcDbEntity
  8
LC-001-100-D00-0
 62
     7
370
    50
100
AcDbLine
 10
214.487578
 20
162.107758
 30
0.0
 11
220.487579
 21
162.107758
 31
0.0
  0
LINE
  5
99
330
1F
100
AcDbEntity
  8
LC-001-100-D00-0
 62
     7
370
    50
100
AcDbLine
 10
220.487579
 20
153.107758
 30
0.0
 11
192.487579
 21
153.107758
 31
0.0
  0
LINE
  5
9A
330
1F
100
AcDbEntity
  8
LC-001-100-D00-0
 62
     7
370
    50
100
AcDbLine
 10
192.487579
 20
153.107758
 30
0.0
 11
192.487579
 21
147.107758
 31
0.0
  0
LINE
  5
9B
330
1F
100
AcDbEntity
  8
LC-001-100-D00-0
 62
     7
370
    50
100
AcDbLine
 10
192.487579
 20
147.107758
 30
0.0
 11
220.487579
 21
147.107758
 31
0.0
  0
LINE
  5
9C
330
1F
100
AcDbEntity
  8
LC-001-100-D00-0
 62
     7
370
    50
100
AcDbLine
 10
220.487579
 20
147.107758
 30
0.0
 11
220.487579
 21
153.107758
 31
0.0
  0
LINE
  5
9D
330
1F
100
AcDbEntity
  8
LC-001-100-D00-0
 62
     7
370
    50
100
AcDbLine
 10
246.487579
 20
153.107758
 30
0.0
 11
240.487578
 21
153.107758
 31
0.0
  0
LINE
  5
9E
330
1F
100
AcDbEntity
  8
LC-001-100-D00-0
 62
     7
370
    50
100
AcDbLine
 10
240.487578
 20
153.107758
 30
0.0
 11
240.487578
 21
125.107759
 31
0.0
  0
LINE
  5
9F
330
1F
100
AcDbEntity
  8
LC-001-100-D00-0
 62
     7
370
    50
100
AcDbLine
 10
240.487578
 20
125.107759
 30
0.0
 11
246.487579
 21
125.107759
 31
0.0
  0
LINE
  5
A0
330
1F
100
AcDbEntity
  8
LC-001-100-D00-0
 62
     7
370
    50
100
AcDbLine
 10
246.487579
 20
125.107759
 30
0.0
 11
246.487579
 21
153.107758
 31
0.0
  0
LINE
  5
A1
330
1F
100
AcDbEntity
  8
LC-001-100-D00-0
 62
     7
370
    50
100
AcDbLine
 10
257.487577
 20
153.107758
 30
0.0
 11
251.487578
 21
153.107758
 31
0.0
  0
LINE
  5
A2
330
1F
100
AcDbEntity
  8
LC-001-100-D00-0
 62
     7
370
    50
100
AcDbLine
 10
251.487578
 20
153.107758
 30
0.0
 11
251.487578
 21
125.107759
 31
0.0
  0
LINE
  5
A3
330
1F
100
AcDbEntity
  8
LC-001-100-D00-0
 62
     7
370
    50
100
AcDbLine
 10
251.487578
 20
125.107759
 30
0.0
 11
257.487577
 21
125.107759
 31
0.0
  0
LINE
  5
A4
330
1F
100
AcDbEntity
  8
LC-001-100-D00-0
 62
     7
370
    50
100
AcDbLine
 10
257.487577
 20
125.107759
 30
0.0
 11
257.487577
 21
153.107758
 31
0.0
  0
ARC
  5
A5
330
1F
100
AcDbEntity
  8
LC-001-100-D00-0
 62
     7
370
    50
100
AcDbCircle
 10
182.487578
 20
200.107758
 30
0.0
 40
3.0
100
AcDbArc
 50
90.0
 51
180.0
  0
LINE
  5
A6
330
1F
100
AcDbEntity
  8
LC-001-100-D00-0
 62
     7
370
    50
100
AcDbLine
 10
267.487579
 20
203.107757
 30
0.0
 11
182.487578
 21
203.107757
 31
0.0
  0
ARC
  5
A7
330
1F
100
AcDbEntity
  8
LC-001-100-D00-0
 62
     7
370
    50
100
AcDbCircle
 10
267.487578
 20
200.107758
 30
0.0
 40
3.0
100
AcDbArc
 50
0.0
 51
90.0
  0
LINE
  5
A8
330
1F
100
AcDbEntity
  8
LC-001-100-D00-0
 62
     7
370
    50
100
AcDbLine
 10
270.487577
 20
115.107757
 30
0.0
 11
270.487577
 21
200.107758
 31
0.0
  0
ARC
  5
A9
330
1F
100
AcDbEntity
  8
LC-001-100-D00-0
 62
     7
370
    50
100
AcDbCircle
 10
267.487578
 20
115.107758
 30
0.0
 40
3.000000000000028
100
AcDbArc
 50
270.0
 51
0.0
  0
LINE
  5
AA
330
1F
100
AcDbEntity
  8
LC-001-100-D00-0
 62
     7
370
    50
100
AcDbLine
 10
182.487578
 20
112.107759
 30
0.0
 11
267.487579
 21
112.107759
 31
0.0
  0
ARC
  5
AB
330
1F
100
AcDbEntity
  8
LC-001-100-D00-0
 62
     7
370
    50
100
AcDbCircle
 10
182.487578
 20
115.107758
 30
0.0
 40
3.0
100
AcDbArc
 50
180.0
 51
270.0
  0
LINE
  5
AC
330
1F
100
AcDbEntity
  8
LC-001-100-D00-0
 62
     7
370
    50
100
AcDbLine
 10
179.487579
 20
200.107758
 30
0.0
 11
179.487579
 21
115.107757
 31
0.0
  0
LINE
  5
AD
330
1F
100
AcDbEntity
  8
LC-001-100-D00-0
 62
     7
370
    50
100
AcDbLine
 10
235.487578
 20
153.107758
 30
0.0
 11
229.487578
 21
153.107758
 31
0.0
  0
LINE
  5
AE
330
1F
100
AcDbEntity
  8
LC-001-100-D00-0
 62
     7
370
    50
100
AcDbLine
 10
229.487578
 20
153.107758
 30
0.0
 11
229.487578
 21
125.107759
 31
0.0
  0
LINE
  5
AF
330
1F
100
AcDbEntity
  8
LC-001-100-D00-0
 62
     7
370
    50
100
AcDbLine
 10
229.487578
 20
125.107759
 30
0.0
 11
235.487578
 21
125.107759
 31
0.0
  0
LINE
  5
B0
330
1F
100
AcDbEntity
  8
LC-001-100-D00-0
 62
     7
370
    50
100
AcDbLine
 10
235.487578
 20
125.107759
 30
0.0
 11
235.487578
 21
153.107758
 31
0.0
  0
LINE
  5
B1
330
1F
100
AcDbEntity
  8
LC-001-100-D00-0
 62
     7
370
    25
100
AcDbLine
 10
239.9838
 20
120.424067
 30
0.0
 11
241.4734
 21
120.424067
 31
0.0
  0
ARC
  5
B2
330
1F
100
AcDbEntity
  8
LC-001-100-D00-0
 62
     7
370
    25
100
AcDbCircle
 10
239.983799
 20
119.772366
 30
0.0
 40
0.6516999999999769
100
AcDbArc
 50
90.0
 51
180.0
  0
LINE
  5
B3
330
1F
100
AcDbEntity
  8
LC-001-100-D00-0
 62
     7
370
    25
100
AcDbLine
 10
239.332099
 20
119.772365
 30
0.0
 11
239.332099
 21
117.103842
 31
0.0
  0
LINE
  5
B4
330
1F
100
AcDbEntity
  8
LC-001-100-D00-0
 62
     7
370
    25
100
AcDbLine
 10
239.332099
 20
117.103842
 30
0.0
 11
240.2631
 21
117.103842
 31
0.0
  0
LINE
  5
B5
330
1F
100
AcDbEntity
  8
LC-001-100-D00-0
 62
     7
370
    25
100
AcDbLine
 10
240.2631
 20
118.034841
 30
0.0
 11
240.2631
 21
117.103842
 31
0.0
  0
LINE
  5
B6
330
1F
100
AcDbEntity
  8
LC-001-100-D00-0
 62
     7
370
    25
100
AcDbLine
 10
240.2631
 20
118.034841
 30
0.0
 11
241.1941
 21
118.034841
 31
0.0
  0
LINE
  5
B7
330
1F
100
AcDbEntity
  8
LC-001-100-D00-0
 62
     7
370
    25
100
AcDbLine
 10
241.1941
 20
118.034841
 30
0.0
 11
241.1941
 21
117.103842
 31
0.0
  0
LINE
  5
B8
330
1F
100
AcDbEntity
  8
LC-001-100-D00-0
 62
     7
370
    25
100
AcDbLine
 10
241.1941
 20
117.103842
 30
0.0
 11
242.1251
 21
117.103842
 31
0.0
  0
LINE
  5
B9
330
1F
100
AcDbEntity
  8
LC-001-100-D00-0
 62
     7
370
    25
100
AcDbLine
 10
242.1251
 20
119.772365
 30
0.0
 11
242.1251
 21
117.103842
 31
0.0
  0
ARC
  5
BA
330
1F
100
AcDbEntity
  8
LC-001-100-D00-0
 62
     7
370
    25
100
AcDbCircle
 10
241.473399
 20
119.772366
 30
0.0
 40
0.6517000000000053
100
AcDbArc
 50
0.0
 51
90.0
  0
LINE
  5
BB
330
1F
100
AcDbEntity
  8
LC-001-100-D00-0
 62
     7
370
    25
100
AcDbLine
 10
244.918099
 20
117.103842
 30
0.0
 11
246.7801
 21
117.103842
 31
0.0
  0
LINE
  5
BC
330
1F
100
AcDbEntity
  8
LC-001-100-D00-0
 62
     7
370
    25
100
AcDbLine
 10
246.7801
 20
118.034841
 30
0.0
 11
246.7801
 21
117.103842
 31
0.0
  0
LINE
  5
BD
330
1F
100
AcDbEntity
  8
LC-001-100-D00-0
 62
     7
370
    25
100
AcDbLine
 10
245.8491
 20
118.034841
 30
0.0
 11
246.7801
 21
118.034841
 31
0.0
  0
LINE
  5
BE
330
1F
100
AcDbEntity
  8
LC-001-100-D00-0
 62
     7
370
    25
100
AcDbLine
 10
245.8491
 20
120.424067
 30
0.0
 11
245.8491
 21
118.034841
 31
0.0
  0
LINE
  5
BF
330
1F
100
AcDbEntity
  8
LC-001-100-D00-0
 62
     7
370
    25
100
AcDbLine
 10
244.918099
 20
120.424067
 30
0.0
 11
245.8491
 21
120.424067
 31
0.0
  0
LINE
  5
C0
330
1F
100
AcDbEntity
  8
LC-001-100-D00-0
 62
     7
370
    25
100
AcDbLine
 10
244.918099
 20
120.424067
 30
0.0
 11
244.918099
 21
117.103842
 31
0.0
  0
ARC
  5
C1
330
1F
100
AcDbEntity
  8
LC-001-100-D00-0
 62
     7
370
    25
100
AcDbCircle
 10
256.834899
 20
118.956436
 30
0.0
 40
0.6517000000458075
100
AcDbArc
 50
315.584691
 51
0.0
  0
LINE
  5
C2
330
1F
100
AcDbEntity
  8
LC-001-100-D00-0
 62
     7
370
    25
100
AcDbLine
 10
257.486601
 20
119.772365
 30
0.0
 11
257.486601
 21
118.956437
 31
0.0
  0
ARC
  5
C3
330
1F
100
AcDbEntity
  8
LC-001-100-D00-0
 62
     7
370
    25
100
AcDbCircle
 10
256.834899
 20
119.772366
 30
0.0
 40
0.6517000000458211
100
AcDbArc
 50
0.0
 51
90.0
  0
LINE
  5
C4
330
1F
100
AcDbEntity
  8
LC-001-100-D00-0
 62
     7
370
    25
100
AcDbLine
 10
254.6936
 20
120.424067
 30
0.0
 11
256.834899
 21
120.424067
 31
0.0
  0
LINE
  5
C5
330
1F
100
AcDbEntity
  8
LC-001-100-D00-0
 62
     7
370
    25
100
AcDbLine
 10
254.6936
 20
120.424067
 30
0.0
 11
254.6936
 21
117.103842
 31
0.0
  0
LINE
  5
C6
330
1F
100
AcDbEntity
  8
LC-001-100-D00-0
 62
     7
370
    25
100
AcDbLine
 10
254.6936
 20
117.103842
 30
0.0
 11
255.624599
 21
117.103842
 31
0.0
  0
LINE
  5
C7
330
1F
100
AcDbEntity
  8
LC-001-100-D00-0
 62
     7
370
    25
100
AcDbLine
 10
255.624599
 20
118.034841
 30
0.0
 11
255.624599
 21
117.103842
 31
0.0
  0
LINE
  5
C8
330
1F
100
AcDbEntity
  8
LC-001-100-D00-0
 62
     7
370
    25
100
AcDbLine
 10
255.624599
 20
118.034841
 30
0.0
 11
256.32285
 21
118.034841
 31
0.0
  0
ARC
  5
C9
330
1F
100
AcDbEntity
  8
LC-001-100-D00-0
 62
     7
370
    25
100
AcDbCircle
 10
256.322849
 20
117.802091
 30
0.0
 40
0.2327500000001237
100
AcDbArc
 50
0.0
 51
90.0
  0
LINE
  5
CA
330
1F
100
AcDbEntity
  8
LC-001-100-D00-0
 62
     7
370
    25
100
AcDbLine
 10
256.555599
 20
117.802092
 30
0.0
 11
256.555599
 21
117.103842
 31
0.0
  0
LINE
  5
CB
330
1F
100
AcDbEntity
  8
LC-001-100-D00-0
 62
     7
370
    25
100
AcDbLine
 10
256.555599
 20
117.103842
 30
0.0
 11
257.486601
 21
117.103842
 31
0.0
  0
LINE
  5
CC
330
1F
100
AcDbEntity
  8
LC-001-100-D00-0
 62
     7
370
    25
100
AcDbLine
 10
257.486601
 20
118.044247
 30
0.0
 11
257.486601
 21
117.103842
 31
0.0
  0
ARC
  5
CD
330
1F
100
AcDbEntity
  8
LC-001-100-D00-0
 62
     7
370
    25
100
AcDbCircle
 10
256.834899
 20
118.044246
 30
0.0
 40
0.6516999977469599
100
AcDbArc
 50
359.999998
 51
44.415309
  0
LINE
  5
CE
330
1F
100
AcDbEntity
  8
LC-001-100-D00-0
 62
     7
370
    25
100
AcDbLine
 10
254.228099
 20
119.136353
 30
0.0
 11
252.831599
 21
119.136353
 31
0.0
  0
LINE
  5
CF
330
1F
100
AcDbEntity
  8
LC-001-100-D00-0
 62
     7
370
    25
100
AcDbLine
 10
240.495849
 20
119.679266
 30
0.0
 11
240.961349
 21
119.679266
 31
0.0
  0
ARC
  5
D0
330
1F
100
AcDbEntity
  8
LC-001-100-D00-0
 62
     7
370
    25
100
AcDbCircle
 10
240.495849
 20
119.260316
 30
0.0
 40
0.4189499999999953
100
AcDbArc
 50
90.0
 51
180.0
  0
LINE
  5
D1
330
1F
100
AcDbEntity
  8
LC-001-100-D00-0
 62
     7
370
    25
100
AcDbLine
 10
240.076899
 20
118.779642
 30
0.0
 11
240.076899
 21
119.260316
 31
0.0
  0
LINE
  5
D2
330
1F
100
AcDbEntity
  8
LC-001-100-D00-0
 62
     7
370
    25
100
AcDbLine
 10
241.380299
 20
118.779642
 30
0.0
 11
240.076899
 21
118.779642
 31
0.0
  0
LINE
  5
D3
330
1F
100
AcDbEntity
  8
LC-001-100-D00-0
 62
     7
370
    25
100
AcDbLine
 10
241.380299
 20
119.260316
 30
0.0
 11
241.380299
 21
118.779642
 31
0.0
  0
ARC
  5
D4
330
1F
100
AcDbEntity
  8
LC-001-100-D00-0
 62
     7
370
    25
100
AcDbCircle
 10
240.961349
 20
119.260316
 30
0.0
 40
0.4189500000000521
100
AcDbArc
 50
0.0
 51
90.0
  0
ARC
  5
D5
330
1F
100
AcDbEntity
  8
LC-001-100-D00-0
 62
     7
370
    25
100
AcDbCircle
 10
241.473399
 20
119.772366
 30
0.0
 40
0.4655000000001337
100
AcDbArc
 50
360.0
 51
90.0
  0
LINE
  5
D6
330
1F
100
AcDbEntity
  8
LC-001-100-D00-0
 62
     7
370
    25
100
AcDbLine
 10
241.938899
 20
117.29004
 30
0.0
 11
241.938899
 21
119.772365
 31
0.0
  0
LINE
  5
D7
330
1F
100
AcDbEntity
  8
LC-001-100-D00-0
 62
     7
370
    25
100
AcDbLine
 10
241.380299
 20
117.29004
 30
0.0
 11
241.938899
 21
117.29004
 31
0.0
  0
LINE
  5
D8
330
1F
100
AcDbEntity
  8
LC-001-100-D00-0
 62
     7
370
    25
100
AcDbLine
 10
241.380299
 20
118.221042
 30
0.0
 11
241.380299
 21
117.29004
 31
0.0
  0
LINE
  5
D9
330
1F
100
AcDbEntity
  8
LC-001-100-D00-0
 62
     7
370
    25
100
AcDbLine
 10
240.076899
 20
118.221042
 30
0.0
 11
241.380299
 21
118.221042
 31
0.0
  0
LINE
  5
DA
330
1F
100
AcDbEntity
  8
LC-001-100-D00-0
 62
     7
370
    25
100
AcDbLine
 10
240.076899
 20
117.29004
 30
0.0
 11
240.076899
 21
118.221042
 31
0.0
  0
LINE
  5
DB
330
1F
100
AcDbEntity
  8
LC-001-100-D00-0
 62
     7
370
    25
100
AcDbLine
 10
239.518299
 20
117.29004
 30
0.0
 11
240.076899
 21
117.29004
 31
0.0
  0
LINE
  5
DC
330
1F
100
AcDbEntity
  8
LC-001-100-D00-0
 62
     7
370
    25
100
AcDbLine
 10
239.518299
 20
119.772365
 30
0.0
 11
239.518299
 21
117.29004
 31
0.0
  0
ARC
  5
DD
330
1F
100
AcDbEntity
  8
LC-001-100-D00-0
 62
     7
370
    25
100
AcDbCircle
 10
239.983799
 20
119.772366
 30
0.0
 40
0.46550000000002
100
AcDbArc
 50
90.0
 51
180.0
  0
LINE
  5
DE
330
1F
100
AcDbEntity
  8
LC-001-100-D00-0
 62
     7
370
    25
100
AcDbLine
 10
241.4734
 20
120.237866
 30
0.0
 11
239.9838
 21
120.237866
 31
0.0
  0
LINE
  5
DF
330
1F
100
AcDbEntity
  8
LC-001-100-D00-0
 62
     7
370
    25
100
AcDbLine
 10
238.1218
 20
119.260316
 30
0.0
 11
238.1218
 21
118.329318
 31
0.0
  0
ARC
  5
E0
330
1F
100
AcDbEntity
  8
LC-001-100-D00-0
 62
     7
370
    25
100
AcDbCircle
 10
237.702849
 20
119.260316
 30
0.0
 40
0.4189500000000521
100
AcDbArc
 50
0.0
 51
90.0
  0
LINE
  5
E1
330
1F
100
AcDbEntity
  8
LC-001-100-D00-0
 62
     7
370
    25
100
AcDbLine
 10
237.283899
 20
119.679266
 30
0.0
 11
237.702849
 21
119.679266
 31
0.0
  0
LINE
  5
E2
330
1F
100
AcDbEntity
  8
LC-001-100-D00-0
 62
     7
370
    25
100
AcDbLine
 10
237.283899
 20
117.910368
 30
0.0
 11
237.283899
 21
119.679266
 31
0.0
  0
LINE
  5
E3
330
1F
100
AcDbEntity
  8
LC-001-100-D00-0
 62
     7
370
    25
100
AcDbLine
 10
237.702849
 20
117.910368
 30
0.0
 11
237.283899
 21
117.910368
 31
0.0
  0
ARC
  5
E4
330
1F
100
AcDbEntity
  8
LC-001-100-D00-0
 62
     7
370
    25
100
AcDbCircle
 10
237.702849
 20
118.329316
 30
0.0
 40
0.4189499999999953
100
AcDbArc
 50
270.0
 51
0.0
  0
ARC
  5
E5
330
1F
100
AcDbEntity
  8
LC-001-100-D00-0
 62
     7
370
    25
100
AcDbCircle
 10
238.214899
 20
117.817266
 30
0.0
 40
0.46550000000002
100
AcDbArc
 50
270.0
 51
0.0
  0
LINE
  5
E6
330
1F
100
AcDbEntity
  8
LC-001-100-D00-0
 62
     7
370
    25
100
AcDbLine
 10
236.725299
 20
117.351764
 30
0.0
 11
238.2149
 21
117.351764
 31
0.0
  0
LINE
  5
E7
330
1F
100
AcDbEntity
  8
LC-001-100-D00-0
 62
     7
370
    25
100
AcDbLine
 10
236.725299
 20
120.237866
 30
0.0
 11
236.725299
 21
117.351764
 31
0.0
  0
LINE
  5
E8
330
1F
100
AcDbEntity
  8
LC-001-100-D00-0
 62
     7
370
    25
100
AcDbLine
 10
238.2149
 20
120.237866
 30
0.0
 11
236.725299
 21
120.237866
 31
0.0
  0
ARC
  5
E9
330
1F
100
AcDbEntity
  8
LC-001-100-D00-0
 62
     7
370
    25
100
AcDbCircle
 10
238.214899
 20
119.772366
 30
0.0
 40
0.4655000000002474
100
AcDbArc
 50
0.0
 51
90.0
  0
LINE
  5
EA
330
1F
100
AcDbEntity
  8
LC-001-100-D00-0
 62
     7
370
    25
100
AcDbLine
 10
238.6804
 20
117.817265
 30
0.0
 11
238.6804
 21
119.772365
 31
0.0
  0
LINE
  5
EB
330
1F
100
AcDbEntity
  8
LC-001-100-D00-0
 62
     7
370
    25
100
AcDbLine
 10
255.624599
 20
118.965839
 30
0.0
 11
256.32285
 21
118.965839
 31
0.0
  0
LINE
  5
EC
330
1F
100
AcDbEntity
  8
LC-001-100-D00-0
 62
     7
370
    25
100
AcDbLine
 10
255.624599
 20
119.493065
 30
0.0
 11
255.624599
 21
118.965839
 31
0.0
  0
LINE
  5
ED
330
1F
100
AcDbEntity
  8
LC-001-100-D00-0
 62
     7
370
    25
100
AcDbLine
 10
255.624599
 20
119.493065
 30
0.0
 11
256.32285
 21
119.493065
 31
0.0
  0
ARC
  5
EE
330
1F
100
AcDbEntity
  8
LC-001-100-D00-0
 62
     7
370
    25
100
AcDbCircle
 10
256.322849
 20
119.260316
 30
0.0
 40
0.23275000000001
100
AcDbArc
 50
0.0
 51
90.0
  0
LINE
  5
EF
330
1F
100
AcDbEntity
  8
LC-001-100-D00-0
 62
     7
370
    25
100
AcDbLine
 10
256.555599
 20
119.260316
 30
0.0
 11
256.555599
 21
119.198592
 31
0.0
  0
ARC
  5
F0
330
1F
100
AcDbEntity
  8
LC-001-100-D00-0
 62
     7
370
    25
100
AcDbCircle
 10
256.322849
 20
119.198591
 30
0.0
 40
0.23275000000001
100
AcDbArc
 50
270.0
 51
0.0
  0
LINE
  5
F1
330
1F
100
AcDbEntity
  8
LC-001-100-D00-0
 62
     7
370
    25
100
AcDbLine
 10
246.593899
 20
117.84864
 30
0.0
 11
245.6629
 21
117.84864
 31
0.0
  0
LINE
  5
F2
330
1F
100
AcDbEntity
  8
LC-001-100-D00-0
 62
     7
370
    25
100
AcDbLine
 10
246.593899
 20
117.29004
 30
0.0
 11
246.593899
 21
117.84864
 31
0.0
  0
LINE
  5
F3
330
1F
100
AcDbEntity
  8
LC-001-100-D00-0
 62
     7
370
    25
100
AcDbLine
 10
245.104299
 20
117.29004
 30
0.0
 11
246.593899
 21
117.29004
 31
0.0
  0
LINE
  5
F4
330
1F
100
AcDbEntity
  8
LC-001-100-D00-0
 62
     7
370
    25
100
AcDbLine
 10
245.104299
 20
120.237866
 30
0.0
 11
245.104299
 21
117.29004
 31
0.0
  0
LINE
  5
F5
330
1F
100
AcDbEntity
  8
LC-001-100-D00-0
 62
     7
370
    25
100
AcDbLine
 10
245.6629
 20
120.237866
 30
0.0
 11
245.104299
 21
120.237866
 31
0.0
  0
LINE
  5
F6
330
1F
100
AcDbEntity
  8
LC-001-100-D00-0
 62
     7
370
    25
100
AcDbLine
 10
245.6629
 20
117.84864
 30
0.0
 11
245.6629
 21
120.237866
 31
0.0
  0
LINE
  5
F7
330
1F
100
AcDbEntity
  8
LC-001-100-D00-0
 62
     7
370
    25
100
AcDbLine
 10
232.498157
 20
117.399187
 30
0.0
 11
231.797631
 21
119.323866
 31
0.0
  0
ARC
  5
F8
330
1F
100
AcDbEntity
  8
LC-001-100-D00-0
 62
     7
370
    25
100
AcDbCircle
 10
231.710145
 20
119.292023
 30
0.0
 40
0.0930999999999956
100
AcDbArc
 50
20.0
 51
200.0
  0
LINE
  5
F9
330
1F
100
AcDbEntity
  8
LC-001-100-D00-0
 62
     7
370
    25
100
AcDbLine
 10
231.972923
 20
118.297843
 30
0.0
 11
231.62266
 21
119.260182
 31
0.0
  0
LINE
  5
FA
330
1F
100
AcDbEntity
  8
LC-001-100-D00-0
 62
     7
370
    25
100
AcDbLine
 10
231.972923
 20
118.297843
 30
0.0
 11
232.323186
 21
117.335503
 31
0.0
  0
ARC
  5
FB
330
1F
100
AcDbEntity
  8
LC-001-100-D00-0
 62
     7
370
    25
100
AcDbCircle
 10
232.410671
 20
117.367344
 30
0.0
 40
0.0931000000001218
100
AcDbArc
 50
200.0
 51
20.0
  0
ARC
  5
FC
330
1F
100
AcDbEntity
  8
LC-001-100-D00-0
 62
     7
370
    25
100
AcDbCircle
 10
232.203376
 20
119.025707
 30
0.0
 40
0.0931000000000587
100
AcDbArc
 50
20.0
 51
200.0
  0
LINE
  5
FD
330
1F
100
AcDbEntity
  8
LC-001-100-D00-0
 62
     7
370
    25
100
AcDbLine
 10
232.529838
 20
117.856556
 30
0.0
 11
232.115891
 21
118.993865
 31
0.0
  0
ARC
  5
FE
330
1F
100
AcDbEntity
  8
LC-001-100-D00-0
 62
     7
370
    25
100
AcDbCircle
 10
232.617323
 20
117.888397
 30
0.0
 40
0.0931000000000587
100
AcDbArc
 50
200.0
 51
20.0
  0
LINE
  5
FF
330
1F
100
AcDbEntity
  8
LC-001-100-D00-0
 62
     7
370
    25
100
AcDbLine
 10
232.704809
 20
117.92024
 30
0.0
 11
232.290862
 21
119.057549
 31
0.0
  0
ARC
  5
100
330
1F
100
AcDbEntity
  8
LC-001-100-D00-0
 62
     7
370
    25
100
AcDbCircle
 10
232.974824
 20
119.356028
 30
0.0
 40
0.0930999999999689
100
AcDbArc
 50
110.0
 51
290.0
  0
LINE
  5
101
330
1F
100
AcDbEntity
  8
LC-001-100-D00-0
 62
     7
370
    25
100
AcDbLine
 10
233.356608
 20
119.395913
 30
0.0
 11
233.006666
 21
119.268542
 31
0.0
  0
ARC
  5
102
330
1F
100
AcDbEntity
  8
LC-001-100-D00-0
 62
     7
370
    25
100
AcDbCircle
 10
233.324765
 20
119.483397
 30
0.0
 40
0.0930999999999956
100
AcDbArc
 50
290.0
 51
110.0
  0
LINE
  5
103
330
1F
100
AcDbEntity
  8
LC-001-100-D00-0
 62
     7
370
    25
100
AcDbLine
 10
233.117953
 20
119.507199
 30
0.0
 11
233.292923
 21
119.570882
 31
0.0
  0
LINE
  5
104
330
1F
100
AcDbEntity
  8
LC-001-100-D00-0
 62
     7
370
    25
100
AcDbLine
 10
233.117953
 20
119.507199
 30
0.0
 11
232.942982
 21
119.443515
 31
0.0
  0
ARC
  5
105
330
1F
100
AcDbEntity
  8
LC-001-100-D00-0
 62
     7
370
    25
100
AcDbCircle
 10
232.453771
 20
119.562681
 30
0.0
 40
0.0931000000001218
100
AcDbArc
 50
110.0
 51
290.0
  0
LINE
  5
106
330
1F
100
AcDbEntity
  8
LC-001-100-D00-0
 62
     7
370
    25
100
AcDbLine
 10
233.054269
 20
119.682168
 30
0.0
 11
232.485614
 21
119.475195
 31
0.0
  0
LINE
  5
107
330
1F
100
AcDbEntity
  8
LC-001-100-D00-0
 62
     7
370
    25
100
AcDbLine
 10
233.054269
 20
119.682168
 30
0.0
 11
233.622923
 21
119.889141
 31
0.0
  0
ARC
  5
108
330
1F
100
AcDbEntity
  8
LC-001-100-D00-0
 62
     7
370
    25
100
AcDbCircle
 10
233.591081
 20
119.976627
 30
0.0
 40
0.0931000000000223
100
AcDbArc
 50
290.0
 51
110.0
  0
LINE
  5
109
330
1F
100
AcDbEntity
  8
LC-001-100-D00-0
 62
     7
370
    25
100
AcDbLine
 10
232.990584
 20
119.857137
 30
0.0
 11
233.559239
 21
120.064111
 31
0.0
  0
LINE
  5
10A
330
1F
100
AcDbEntity
  8
LC-001-100-D00-0
 62
     7
370
    25
100
AcDbLine
 10
232.990584
 20
119.857137
 30
0.0
 11
232.421929
 21
119.650168
 31
0.0
  0
LINE
  5
10B
330
1F
100
AcDbEntity
  8
LC-001-100-D00-0
 62
     7
370
    25
100
AcDbLine
 10
233.825556
 20
120.557343
 30
0.0
 11
231.900877
 21
119.856817
 31
0.0
  0
ARC
  5
10C
330
1F
100
AcDbEntity
  8
LC-001-100-D00-0
 62
     7
370
    25
100
AcDbCircle
 10
231.932718
 20
119.769333
 30
0.0
 40
0.0930999999999956
100
AcDbArc
 50
110.0
 51
290.0
  0
LINE
  5
10D
330
1F
100
AcDbEntity
  8
LC-001-100-D00-0
 62
     7
370
    25
100
AcDbLine
 10
232.9269
 20
120.032111
 30
0.0
 11
231.96456
 21
119.681848
 31
0.0
  0
LINE
  5
10E
330
1F
100
AcDbEntity
  8
LC-001-100-D00-0
 62
     7
370
    25
100
AcDbLine
 10
232.9269
 20
120.032111
 30
0.0
 11
233.88924
 21
120.382374
 31
0.0
  0
ARC
  5
10F
330
1F
100
AcDbEntity
  8
LC-001-100-D00-0
 62
     7
370
    25
100
AcDbCircle
 10
233.857397
 20
120.469858
 30
0.0
 40
0.0930999999999956
100
AcDbArc
 50
290.0
 51
110.0
  0
ARC
  5
110
330
1F
100
AcDbEntity
  8
LC-001-100-D00-0
 62
     7
370
    25
100
AcDbCircle
 10
235.035232
 20
118.322607
 30
0.0
 40
0.0931000000001218
100
AcDbArc
 50
200.0
 51
20.0
  0
LINE
  5
111
330
1F
100
AcDbEntity
  8
LC-001-100-D00-0
 62
     7
370
    25
100
AcDbLine
 10
234.422193
 20
120.279127
 30
0.0
 11
235.122718
 21
118.354448
 31
0.0
  0
ARC
  5
112
330
1F
100
AcDbEntity
  8
LC-001-100-D00-0
 62
     7
370
    25
100
AcDbCircle
 10
234.334707
 20
120.247285
 30
0.0
 40
0.0931000000000587
100
AcDbArc
 50
20.0
 51
200.0
  0
LINE
  5
113
330
1F
100
AcDbEntity
  8
LC-001-100-D00-0
 62
     7
370
    25
100
AcDbLine
 10
234.247222
 20
120.215443
 30
0.0
 11
234.947747
 21
118.290765
 31
0.0
  0
LINE
  5
114
330
1F
100
AcDbEntity
  8
LC-001-100-D00-0
 62
     7
370
    25
100
AcDbLine
 10
234.04057
 20
119.694391
 30
0.0
 11
234.454517
 21
118.557082
 31
0.0
  0
ARC
  5
115
330
1F
100
AcDbEntity
  8
LC-001-100-D00-0
 62
     7
370
    25
100
AcDbCircle
 10
234.542002
 20
118.588923
 30
0.0
 40
0.0931000000000053
100
AcDbArc
 50
200.0
 51
20.0
  0
LINE
  5
116
330
1F
100
AcDbEntity
  8
LC-001-100-D00-0
 62
     7
370
    25
100
AcDbLine
 10
234.422513
 20
119.18942
 30
0.0
 11
234.629488
 21
118.620766
 31
0.0
  0
LINE
  5
117
330
1F
100
AcDbEntity
  8
LC-001-100-D00-0
 62
     7
370
    25
100
AcDbLine
 10
234.422513
 20
119.18942
 30
0.0
 11
234.215541
 21
119.758074
 31
0.0
  0
ARC
  5
118
330
1F
100
AcDbEntity
  8
LC-001-100-D00-0
 62
     7
370
    25
100
AcDbCircle
 10
234.128055
 20
119.726233
 30
0.0
 40
0.0931000000001218
100
AcDbArc
 50
20.0
 51
200.0
  0
ARC
  5
119
330
1F
100
AcDbEntity
  8
LC-001-100-D00-0
 62
     7
370
    25
100
AcDbCircle
 10
233.154297
 20
117.638002
 30
0.0
 40
0.0931000000000417
100
AcDbArc
 50
110.0
 51
290.0
  0
LINE
  5
11A
330
1F
100
AcDbEntity
  8
LC-001-100-D00-0
 62
     7
370
    25
100
AcDbLine
 10
234.323449
 20
117.964463
 30
0.0
 11
233.186139
 21
117.550516
 31
0.0
  0
ARC
  5
11B
330
1F
100
AcDbEntity
  8
LC-001-100-D00-0
 62
     7
370
    25
100
AcDbCircle
 10
234.291607
 20
118.051949
 30
0.0
 40
0.0931000000000223
100
AcDbArc
 50
290.0
 51
110.0
  0
LINE
  5
11C
330
1F
100
AcDbEntity
  8
LC-001-100-D00-0
 62
     7
370
    25
100
AcDbLine
 10
234.259765
 20
118.139436
 30
0.0
 11
233.122456
 21
117.725489
 31
0.0
  0
ARC
  5
11D
330
1F
100
AcDbEntity
  8
LC-001-100-D00-0
 62
     7
370
    25
100
AcDbCircle
 10
232.887981
 20
117.144771
 30
0.0
 40
0.0931000000000951
100
AcDbArc
 50
110.0
 51
290.0
  0
LINE
  5
11E
330
1F
100
AcDbEntity
  8
LC-001-100-D00-0
 62
     7
370
    25
100
AcDbLine
 10
233.882162
 20
117.40755
 30
0.0
 11
232.919823
 21
117.057287
 31
0.0
  0
LINE
  5
11F
330
1F
100
AcDbEntity
  8
LC-001-100-D00-0
 62
     7
370
    25
100
AcDbLine
 10
233.882162
 20
117.40755
 30
0.0
 11
234.844502
 21
117.757813
 31
0.0
  0
ARC
  5
120
330
1F
100
AcDbEntity
  8
LC-001-100-D00-0
 62
     7
370
    25
100
AcDbCircle
 10
234.812659
 20
117.845297
 30
0.0
 40
0.0930999999999956
100
AcDbArc
 50
290.0
 51
110.0
  0
LINE
  5
121
330
1F
100
AcDbEntity
  8
LC-001-100-D00-0
 62
     7
370
    25
100
AcDbLine
 10
233.818479
 20
117.58252
 30
0.0
 11
234.780817
 21
117.932783
 31
0.0
  0
LINE
  5
122
330
1F
100
AcDbEntity
  8
LC-001-100-D00-0
 62
     7
370
    25
100
AcDbLine
 10
233.818479
 20
117.58252
 30
0.0
 11
232.856139
 21
117.232257
 31
0.0
  0
LINE
  5
123
330
1F
100
AcDbEntity
  8
LC-001-100-D00-0
 62
     7
370
    25
100
AcDbLine
 10
232.799532
 20
120.382053
 30
0.0
 11
231.224796
 21
119.808895
 31
0.0
  0
LINE
  5
124
330
1F
100
AcDbEntity
  8
LC-001-100-D00-0
 62
     7
370
    25
100
AcDbLine
 10
232.799532
 20
120.382053
 30
0.0
 11
234.374269
 21
120.955208
 31
0.0
  0
LINE
  5
125
330
1F
100
AcDbEntity
  8
LC-001-100-D00-0
 62
     7
370
    25
100
AcDbLine
 10
234.947426
 20
119.380472
 30
0.0
 11
234.374269
 21
120.955208
 31
0.0
  0
LINE
  5
126
330
1F
100
AcDbEntity
  8
LC-001-100-D00-0
 62
     7
370
    25
100
AcDbLine
 10
234.947426
 20
119.380472
 30
0.0
 11
235.520583
 21
117.805735
 31
0.0
  0
LINE
  5
127
330
1F
100
AcDbEntity
  8
LC-001-100-D00-0
 62
     7
370
    25
100
AcDbLine
 10
232.371109
 20
116.659423
 30
0.0
 11
235.520583
 21
117.805735
 31
0.0
  0
LINE
  5
128
330
1F
100
AcDbEntity
  8
LC-001-100-D00-0
 62
     7
370
    25
100
AcDbLine
 10
231.224796
 20
119.808895
 30
0.0
 11
232.371109
 21
116.659423
 31
0.0
  0
LINE
  5
129
330
1F
100
AcDbEntity
  8
LC-001-100-D00-0
 62
     7
370
    25
100
AcDbLine
 10
233.627425
 20
118.107432
 30
0.0
 11
233.452456
 21
118.043748
 31
0.0
  0
LINE
  5
12A
330
1F
100
AcDbEntity
  8
LC-001-100-D00-0
 62
     7
370
    25
100
AcDbLine
 10
233.627425
 20
118.107432
 30
0.0
 11
233.802397
 21
118.171116
 31
0.0
  0
ARC
  5
12B
330
1F
100
AcDbEntity
  8
LC-001-100-D00-0
 62
     7
370
    25
100
AcDbCircle
 10
233.770554
 20
118.258601
 30
0.0
 40
0.0930999999999689
100
AcDbArc
 50
290.0
 51
110.0
  0
LINE
  5
12C
330
1F
100
AcDbEntity
  8
LC-001-100-D00-0
 62
     7
370
    25
100
AcDbLine
 10
233.388771
 20
118.218717
 30
0.0
 11
233.738713
 21
118.346085
 31
0.0
  0
ARC
  5
12D
330
1F
100
AcDbEntity
  8
LC-001-100-D00-0
 62
     7
370
    25
100
AcDbCircle
 10
233.420613
 20
118.131233
 30
0.0
 40
0.0930999999999956
100
AcDbArc
 50
110.0
 51
290.0
  0
LINE
  5
12E
330
1F
100
AcDbEntity
  8
LC-001-100-D00-0
 62
     7
370
    25
100
AcDbLine
 10
233.897601
 20
118.998369
 30
0.0
 11
233.833917
 21
119.173338
 31
0.0
  0
LINE
  5
12F
330
1F
100
AcDbEntity
  8
LC-001-100-D00-0
 62
     7
370
    25
100
AcDbLine
 10
233.897601
 20
118.998369
 30
0.0
 11
233.961286
 21
118.823395
 31
0.0
  0
ARC
  5
130
330
1F
100
AcDbEntity
  8
LC-001-100-D00-0
 62
     7
370
    25
100
AcDbCircle
 10
234.048771
 20
118.855239
 30
0.0
 40
0.0931000000000587
100
AcDbArc
 50
200.0
 51
20.0
  0
LINE
  5
131
330
1F
100
AcDbEntity
  8
LC-001-100-D00-0
 62
     7
370
    25
100
AcDbLine
 10
234.008888
 20
119.237022
 30
0.0
 11
234.136257
 21
118.887079
 31
0.0
  0
ARC
  5
132
330
1F
100
AcDbEntity
  8
LC-001-100-D00-0
 62
     7
370
    25
100
AcDbCircle
 10
233.921402
 20
119.20518
 30
0.0
 40
0.0931000000000587
100
AcDbArc
 50
20.0
 51
200.0
  0
LINE
  5
133
330
1F
100
AcDbEntity
  8
LC-001-100-D00-0
 62
     7
370
    25
100
AcDbLine
 10
232.847778
 20
118.616262
 30
0.0
 11
232.911461
 21
118.441292
 31
0.0
  0
LINE
  5
134
330
1F
100
AcDbEntity
  8
LC-001-100-D00-0
 62
     7
370
    25
100
AcDbLine
 10
232.847778
 20
118.616262
 30
0.0
 11
232.784093
 21
118.791231
 31
0.0
  0
ARC
  5
135
330
1F
100
AcDbEntity
  8
LC-001-100-D00-0
 62
     7
370
    25
100
AcDbCircle
 10
232.696607
 20
118.759391
 30
0.0
 40
0.0931000000000587
100
AcDbArc
 50
20.0
 51
200.0
  0
LINE
  5
136
330
1F
100
AcDbEntity
  8
LC-001-100-D00-0
 62
     7
370
    25
100
AcDbLine
 10
232.672807
 20
118.552578
 30
0.0
 11
232.73649
 21
118.377609
 31
0.0
  0
LINE
  5
137
330
1F
100
AcDbEntity
  8
LC-001-100-D00-0
 62
     7
370
    25
100
AcDbLine
 10
232.672807
 20
118.552578
 30
0.0
 11
232.609122
 21
118.727547
 31
0.0
  0
ARC
  5
138
330
1F
100
AcDbEntity
  8
LC-001-100-D00-0
 62
     7
370
    25
100
AcDbCircle
 10
232.823975
 20
118.409449
 30
0.0
 40
0.0931000000000587
100
AcDbArc
 50
200.0
 51
20.0
  0
LINE
  5
139
330
1F
100
AcDbEntity
  8
LC-001-100-D00-0
 62
     7
370
    25
100
AcDbLine
 10
237.470099
 20
118.096565
 30
0.0
 11
237.702849
 21
118.096565
 31
0.0
  0
LINE
  5
13A
330
1F
100
AcDbEntity
  8
LC-001-100-D00-0
 62
     7
370
    25
100
AcDbLine
 10
237.470099
 20
119.493065
 30
0.0
 11
237.470099
 21
118.096565
 31
0.0
  0
LINE
  5
13B
330
1F
100
AcDbEntity
  8
LC-001-100-D00-0
 62
     7
370
    25
100
AcDbLine
 10
237.470099
 20
119.493065
 30
0.0
 11
237.702849
 21
119.493065
 31
0.0
  0
ARC
  5
13C
330
1F
100
AcDbEntity
  8
LC-001-100-D00-0
 62
     7
370
    25
100
AcDbCircle
 10
237.702849
 20
119.260316
 30
0.0
 40
0.23275000000001
100
AcDbArc
 50
0.0
 51
90.0
  0
LINE
  5
13D
330
1F
100
AcDbEntity
  8
LC-001-100-D00-0
 62
     7
370
    25
100
AcDbLine
 10
237.9356
 20
119.260316
 30
0.0
 11
237.9356
 21
118.329318
 31
0.0
  0
ARC
  5
13E
330
1F
100
AcDbEntity
  8
LC-001-100-D00-0
 62
     7
370
    25
100
AcDbCircle
 10
237.702849
 20
118.329316
 30
0.0
 40
0.23275000000001
100
AcDbArc
 50
270.0
 51
0.0
  0
LINE
  5
13F
330
1F
100
AcDbEntity
  8
LC-001-100-D00-0
 62
     7
370
    25
100
AcDbLine
 10
240.495849
 20
119.493065
 30
0.0
 11
240.961349
 21
119.493065
 31
0.0
  0
ARC
  5
140
330
1F
100
AcDbEntity
  8
LC-001-100-D00-0
 62
     7
370
    25
100
AcDbCircle
 10
240.961349
 20
119.260316
 30
0.0
 40
0.23275000000001
100
AcDbArc
 50
0.0
 51
90.0
  0
LINE
  5
141
330
1F
100
AcDbEntity
  8
LC-001-100-D00-0
 62
     7
370
    25
100
AcDbLine
 10
241.1941
 20
119.260316
 30
0.0
 11
241.1941
 21
118.965839
 31
0.0
  0
LINE
  5
142
330
1F
100
AcDbEntity
  8
LC-001-100-D00-0
 62
     7
370
    25
100
AcDbLine
 10
240.2631
 20
118.965839
 30
0.0
 11
241.1941
 21
118.965839
 31
0.0
  0
LINE
  5
143
330
1F
100
AcDbEntity
  8
LC-001-100-D00-0
 62
     7
370
    25
100
AcDbLine
 10
240.2631
 20
119.260316
 30
0.0
 11
240.2631
 21
118.965839
 31
0.0
  0
ARC
  5
144
330
1F
100
AcDbEntity
  8
LC-001-100-D00-0
 62
     7
370
    25
100
AcDbCircle
 10
240.495849
 20
119.260316
 30
0.0
 40
0.23275000000001
100
AcDbArc
 50
90.0
 51
180.0
  0
LINE
  5
145
330
1F
100
AcDbEntity
  8
LC-001-100-D00-0
 62
     7
370
    25
100
AcDbLine
 10
243.335399
 20
117.84864
 30
0.0
 11
243.335399
 21
120.237866
 31
0.0
  0
LINE
  5
146
330
1F
100
AcDbEntity
  8
LC-001-100-D00-0
 62
     7
370
    25
100
AcDbLine
 10
244.266399
 20
117.84864
 30
0.0
 11
243.335399
 21
117.84864
 31
0.0
  0
LINE
  5
147
330
1F
100
AcDbEntity
  8
LC-001-100-D00-0
 62
     7
370
    25
100
AcDbLine
 10
244.266399
 20
117.29004
 30
0.0
 11
244.266399
 21
117.84864
 31
0.0
  0
LINE
  5
148
330
1F
100
AcDbEntity
  8
LC-001-100-D00-0
 62
     7
370
    25
100
AcDbLine
 10
242.776799
 20
117.29004
 30
0.0
 11
244.266399
 21
117.29004
 31
0.0
  0
LINE
  5
149
330
1F
100
AcDbEntity
  8
LC-001-100-D00-0
 62
     7
370
    25
100
AcDbLine
 10
243.335399
 20
120.237866
 30
0.0
 11
242.776799
 21
120.237866
 31
0.0
  0
LINE
  5
14A
330
1F
100
AcDbEntity
  8
LC-001-100-D00-0
 62
     7
370
    25
100
AcDbLine
 10
242.776799
 20
120.237866
 30
0.0
 11
242.776799
 21
117.29004
 31
0.0
  0
LINE
  5
14B
330
1F
100
AcDbEntity
  8
LC-001-100-D00-0
 62
     7
370
    25
100
AcDbLine
 10
254.0419
 20
118.950152
 30
0.0
 11
252.6454
 21
118.950152
 31
0.0
  0
LINE
  5
14C
330
1F
100
AcDbEntity
  8
LC-001-100-D00-0
 62
     7
370
    25
100
AcDbLine
 10
254.0419
 20
118.577753
 30
0.0
 11
254.0419
 21
118.950152
 31
0.0
  0
LINE
  5
14D
330
1F
100
AcDbEntity
  8
LC-001-100-D00-0
 62
     7
370
    25
100
AcDbLine
 10
252.6454
 20
117.662442
 30
0.0
 11
252.6454
 21
118.577753
 31
0.0
  0
LINE
  5
14E
330
1F
100
AcDbEntity
  8
LC-001-100-D00-0
 62
     7
370
    25
100
AcDbLine
 10
254.0419
 20
120.237866
 30
0.0
 11
252.0868
 21
120.237866
 31
0.0
  0
LINE
  5
14F
330
1F
100
AcDbEntity
  8
LC-001-100-D00-0
 62
     7
370
    25
100
AcDbLine
 10
252.6454
 20
119.865467
 30
0.0
 11
254.0419
 21
119.865467
 31
0.0
  0
LINE
  5
150
330
1F
100
AcDbEntity
  8
LC-001-100-D00-0
 62
     7
370
    25
100
AcDbLine
 10
252.6454
 20
118.950152
 30
0.0
 11
252.6454
 21
119.865467
 31
0.0
  0
LINE
  5
151
330
1F
100
AcDbEntity
  8
LC-001-100-D00-0
 62
     7
370
    25
100
AcDbLine
 10
252.6454
 20
118.577753
 30
0.0
 11
254.0419
 21
118.577753
 31
0.0
  0
LINE
  5
152
330
1F
100
AcDbEntity
  8
LC-001-100-D00-0
 62
     7
370
    25
100
AcDbLine
 10
254.0419
 20
119.865467
 30
0.0
 11
254.0419
 21
120.237866
 31
0.0
  0
LINE
  5
153
330
1F
100
AcDbEntity
  8
LC-001-100-D00-0
 62
     7
370
    25
100
AcDbLine
 10
254.0419
 20
117.662442
 30
0.0
 11
252.6454
 21
117.662442
 31
0.0
  0
LINE
  5
154
330
1F
100
AcDbEntity
  8
LC-001-100-D00-0
 62
     7
370
    25
100
AcDbLine
 10
252.0868
 20
117.29004
 30
0.0
 11
254.0419
 21
117.29004
 31
0.0
  0
LINE
  5
155
330
1F
100
AcDbEntity
  8
LC-001-100-D00-0
 62
     7
370
    25
100
AcDbLine
 10
252.0868
 20
120.237866
 30
0.0
 11
252.0868
 21
117.29004
 31
0.0
  0
LINE
  5
156
330
1F
100
AcDbEntity
  8
LC-001-100-D00-0
 62
     7
370
    25
100
AcDbLine
 10
254.0419
 20
117.29004
 30
0.0
 11
254.0419
 21
117.662442
 31
0.0
  0
LINE
  5
157
330
1F
100
AcDbEntity
  8
LC-001-100-D00-0
 62
     7
370
    25
100
AcDbLine
 10
250.783399
 20
120.237866
 30
0.0
 11
249.796445
 21
120.237866
 31
0.0
  0
ARC
  5
158
330
1F
100
AcDbEntity
  8
LC-001-100-D00-0
 62
     7
370
    25
100
AcDbCircle
 10
250.783399
 20
119.772366
 30
0.0
 40
0.4655000000000769
100
AcDbArc
 50
0.0
 51
90.0
  0
LINE
  5
159
330
1F
100
AcDbEntity
  8
LC-001-100-D00-0
 62
     7
370
    25
100
AcDbLine
 10
250.690299
 20
117.29004
 30
0.0
 11
251.248899
 21
117.29004
 31
0.0
  0
ARC
  5
15A
330
1F
100
AcDbEntity
  8
LC-001-100-D00-0
 62
     7
370
    25
100
AcDbCircle
 10
250.271349
 20
119.260316
 30
0.0
 40
0.4189500000000521
100
AcDbArc
 50
0.0
 51
90.0
  0
LINE
  5
15B
330
1F
100
AcDbEntity
  8
LC-001-100-D00-0
 62
     7
370
    25
100
AcDbLine
 10
249.619649
 20
117.29004
 30
0.0
 11
249.619649
 21
119.260316
 31
0.0
  0
LINE
  5
15C
330
1F
100
AcDbEntity
  8
LC-001-100-D00-0
 62
     7
370
    25
100
AcDbLine
 10
249.061049
 20
117.29004
 30
0.0
 11
249.619649
 21
117.29004
 31
0.0
  0
ARC
  5
15D
330
1F
100
AcDbEntity
  8
LC-001-100-D00-0
 62
     7
370
    25
100
AcDbCircle
 10
248.642099
 20
119.260316
 30
0.0
 40
0.4189500000000521
100
AcDbArc
 50
0.0
 51
90.0
  0
LINE
  5
15E
330
1F
100
AcDbEntity
  8
LC-001-100-D00-0
 62
     7
370
    25
100
AcDbLine
 10
250.0386
 20
119.679266
 30
0.0
 11
250.271349
 21
119.679266
 31
0.0
  0
LINE
  5
15F
330
1F
100
AcDbEntity
  8
LC-001-100-D00-0
 62
     7
370
    25
100
AcDbLine
 10
247.431799
 20
117.29004
 30
0.0
 11
247.9904
 21
117.29004
 31
0.0
  0
LINE
  5
160
330
1F
100
AcDbEntity
  8
LC-001-100-D00-0
 62
     7
370
    25
100
AcDbLine
 10
247.431799
 20
119.772365
 30
0.0
 11
247.431799
 21
117.29004
 31
0.0
  0
LINE
  5
161
330
1F
100
AcDbEntity
  8
LC-001-100-D00-0
 62
     7
370
    25
100
AcDbLine
 10
247.9904
 20
117.29004
 30
0.0
 11
247.9904
 21
119.260316
 31
0.0
  0
ARC
  5
162
330
1F
100
AcDbEntity
  8
LC-001-100-D00-0
 62
     7
370
    25
100
AcDbCircle
 10
248.884254
 20
119.772366
 30
0.0
 40
0.4655000000000663
100
AcDbArc
 50
11.536959
 51
90.0
  0
LINE
  5
163
330
1F
100
AcDbEntity
  8
LC-001-100-D00-0
 62
     7
370
    25
100
AcDbLine
 10
250.690299
 20
119.260316
 30
0.0
 11
250.690299
 21
117.29004
 31
0.0
  0
ARC
  5
164
330
1F
100
AcDbEntity
  8
LC-001-100-D00-0
 62
     7
370
    25
100
AcDbCircle
 10
248.409349
 20
119.260316
 30
0.0
 40
0.4189499999999669
100
AcDbArc
 50
90.0
 51
180.0
  0
ARC
  5
165
330
1F
100
AcDbEntity
  8
LC-001-100-D00-0
 62
     7
370
    25
100
AcDbCircle
 10
249.796444
 20
119.772366
 30
0.0
 40
0.4655000000001341
100
AcDbArc
 50
89.999998
 51
168.463041
  0
LINE
  5
166
330
1F
100
AcDbEntity
  8
LC-001-100-D00-0
 62
     7
370
    25
100
AcDbLine
 10
249.061049
 20
119.260316
 30
0.0
 11
249.061049
 21
117.29004
 31
0.0
  0
LINE
  5
167
330
1F
100
AcDbEntity
  8
LC-001-100-D00-0
 62
     7
370
    25
100
AcDbLine
 10
248.884254
 20
120.237866
 30
0.0
 11
247.8973
 21
120.237866
 31
0.0
  0
LINE
  5
168
330
1F
100
AcDbEntity
  8
LC-001-100-D00-0
 62
     7
370
    25
100
AcDbLine
 10
251.248899
 20
117.29004
 30
0.0
 11
251.248899
 21
119.772365
 31
0.0
  0
ARC
  5
169
330
1F
100
AcDbEntity
  8
LC-001-100-D00-0
 62
     7
370
    25
100
AcDbCircle
 10
250.038599
 20
119.260316
 30
0.0
 40
0.4189499999999953
100
AcDbArc
 50
90.0
 51
180.0
  0
LINE
  5
16A
330
1F
100
AcDbEntity
  8
LC-001-100-D00-0
 62
     7
370
    25
100
AcDbLine
 10
248.40935
 20
119.679266
 30
0.0
 11
248.642099
 21
119.679266
 31
0.0
  0
ARC
  5
16B
330
1F
100
AcDbEntity
  8
LC-001-100-D00-0
 62
     7
370
    25
100
AcDbCircle
 10
247.897299
 20
119.772366
 30
0.0
 40
0.46550000000002
100
AcDbArc
 50
90.0
 51
180.0
  0
DIMENSION
  5
16F
330
1F
100
AcDbEntity
  8
LC-002-003-----0
 62
     7
370
    25
100
AcDbDimension
  2
*D1
 10
270.487578
 20
215.179916
 30
0.0
 11
220.854061
 21
245.979916
 31
0.0
 70
   160
  1
90
 71
     5
 42
91.0
  3
LC-DIM-L-0140-02-02
100
AcDbAlignedDimension
 13
179.487578
 23
200.107758
 33
0.0
 14
270.487578
 24
200.107758
 34
0.0
100
AcDbRotatedDimension
  0
ENDSEC
  0
SECTION
  2
OBJECTS
  0
DICTIONARY
  5
C
330
0
100
AcDbDictionary
281
     1
  3
ACAD_GROUP
350
D
  3
ACAD_LAYOUT
350
1A
  3
ACAD_MLINESTYLE
350
17
  3
ACAD_PLOTSETTINGS
350
19
  3
ACAD_PLOTSTYLENAME
350
E
  0
DICTIONARY
  5
D
102
{ACAD_REACTORS
330
C
102
}
330
C
100
AcDbDictionary
281
     1
  0
DICTIONARY
  5
1A
102
{ACAD_REACTORS
330
C
102
}
330
C
100
AcDbDictionary
281
     1
  3
Layout1
350
1E
  3
Layout2
350
26
  3
Model
350
22
  0
DICTIONARY
  5
17
102
{ACAD_REACTORS
330
C
102
}
330
C
100
AcDbDictionary
281
     1
  3
Standard
350
18
  0
DICTIONARY
  5
19
102
{ACAD_REACTORS
330
C
102
}
330
C
100
AcDbDictionary
281
     1
  0
ACDBDICTIONARYWDFLT
  5
E
102
{ACAD_REACTORS
330
C
102
}
330
C
100
AcDbDictionary
281
     1
  3
Normal
350
F
100
AcDbDictionaryWithDefault
340
F
  0
LAYOUT
  5
1E
102
{ACAD_REACTORS
330
1A
102
}
330
1A
100
AcDbPlotSettings
  1

  2

  4

  6

 40
0.0
 41
0.0
 42
0.0
 43
0.0
 44
0.0
 45
0.0
 46
0.0
 47
0.0
 48
0.0
 49
0.0
140
0.0
141
0.0
142
1.0
143
1.0
 70
   688
 72
     0
 73
     0
 74
     5
  7

 75
    16
147
1.0
148
0.0
149
0.0
100
AcDbLayout
  1
Layout1
 70
     1
 71
     1
 10
-209.760318
 20
-147.978432
 11
630.239682
 21
446.021568
 12
0.0
 22
0.0
 32
0.0
 14
-209.760318
 24
-147.978432
 34
0.0
 15
630.239682
 25
446.021568
 35
0.0
146
0.0
 13
0.0
 23
0.0
 33
0.0
 16
1.0
 26
0.0
 36
0.0
 17
0.0
 27
1.0
 37
0.0
 76
     0
330
1B
  0
LAYOUT
  5
26
102
{ACAD_REACTORS
330
1A
102
}
330
1A
100
AcDbPlotSettings
  1

  2

  4

  6

 40
0.0
 41
0.0
 42
0.0
 43
0.0
 44
0.0
 45
0.0
 46
0.0
 47
0.0
 48
0.0
 49
0.0
140
0.0
141
0.0
142
1.0
143
1.0
 70
   688
 72
     0
 73
     0
 74
     5
  7

 75
    16
147
1.0
148
0.0
149
0.0
100
AcDbLayout
  1
Layout2
 70
     1
 71
     2
 10
0.0
 20
0.0
 11
0.0
 21
0.0
 12
0.0
 22
0.0
 32
0.0
 14
0.0
 24
0.0
 34
0.0
 15
0.0
 25
0.0
 35
0.0
146
0.0
 13
0.0
 23
0.0
 33
0.0
 16
1.0
 26
0.0
 36
0.0
 17
0.0
 27
1.0
 37
0.0
 76
     0
330
23
  0
LAYOUT
  5
22
102
{ACAD_REACTORS
330
1A
102
}
330
1A
100
AcDbPlotSettings
  1

  2

  4

  6

 40
0.0
 41
0.0
 42
0.0
 43
0.0
 44
0.0
 45
0.0
 46
0.0
 47
0.0
 48
0.0
 49
0.0
140
0.0
141
0.0
142
1.0
143
1.0
 70
  1776
 72
     0
 73
     0
 74
     0
  7

 75
     0
147
1.0
148
0.0
149
0.0
100
AcDbLayout
  1
Model
 70
     1
 71
     0
 10
-209.760318
 20
-147.978432
 11
630.239682
 21
446.021568
 12
0.0
 22
0.0
 32
0.0
 14
-209.760318
 24
-147.978432
 34
0.0
 15
630.239682
 25
446.021568
 35
0.0
146
0.0
 13
0.0
 23
0.0
 33
0.0
 16
1.0
 26
0.0
 36
0.0
 17
0.0
 27
1.0
 37
0.0
 76
     0
330
1F
  0
MLINESTYLE
  5
18
102
{ACAD_REACTORS
330
17
102
}
330
17
100
AcDbMlineStyle
  2
Standard
 70
     0
  3

 62
   256
 51
90.0
 52
90.0
 71
     2
 49
0.5
 62
   256
  6
BYLAYER
 49
-0.5
 62
   256
  6
BYLAYER
  0
ACDBPLACEHOLDER
  5
F
102
{ACAD_REACTORS
330
E
102
}
330
E
  0
ENDSEC
  0
EOF
