  0
SECTION
  2
HEADER
  9
$ACADVER
  1
AC1009
  9
$INSBASE
 10
0.0
 20
0.0
 30
0.0
  9
$EXTMIN
 10
-315.0
 20
-148.5
 30
0.0
  9
$EXTMAX
 10
525.0
 20
445.5
 30
0.0
  9
$LIMMIN
 10
-315.0
 20
-148.5
  9
$LIMMAX
 10
525.0
 20
445.5
  9
$ORTHOMODE
 70
     0
  9
$REGENMODE
 70
     1
  9
$FILLMODE
 70
     1
  9
$QTEXTMODE
 70
     0
  9
$MIRRTEXT
 70
     1
  9
$DRAGMODE
 70
     2
  9
$LTSCALE
 40
2.0
  9
$OSMODE
 70
     0
  9
$ATTMODE
 70
     1
  9
$TEXTSIZE
 40
0.2
  9
$TRACEWID
 40
0.05
  9
$TEXTSTYLE
  7
STANDARD
  9
$CLAYER
  8
0
  9
$CELTYPE
  6
BYLAYER
  9
$CECOLOR
 62
     7
  9
$DIMSCALE
 40
2.0
  9
$DIMASZ
 40
3.5
  9
$DIMEXO
 40
0.0625
  9
$DIMDLI
 40
0.38
  9
$DIMRND
 40
0.0
  9
$DIMDLE
 40
0.0
  9
$DIMEXE
 40
0.18
  9
$DIMTP
 40
0.0
  9
$DIMTM
 40
0.0
  9
$DIMTXT
 40
3.5
  9
$DIMCEN
 40
0.09
  9
$DIMTSZ
 40
0.0
  9
$DIMTOL
 70
     0
  9
$DIMLIM
 70
     0
  9
$DIMTIH
 70
     1
  9
$DIMTOH
 70
     1
  9
$DIMSE1
 70
     0
  9
$DIMSE2
 70
     0
  9
$DIMTAD
 70
     1
  9
$DIMZIN
 70
     0
  9
$DIMBLK
  1

  9
$DIMASO
 70
     1
  9
$DIMSHO
 70
     1
  9
$DIMPOST
  1

  9
$DIMAPOST
  1

  9
$DIMALT
 70
     0
  9
$DIMALTD
 70
     2
  9
$DIMALTF
 40
25.4
  9
$DIMLFAC
 40
1.0
  9
$DIMTOFL
 70
     0
  9
$DIMTVP
 40
0.0
  9
$DIMTIX
 70
     0
  9
$DIMSOXD
 70
     0
  9
$DIMSAH
 70
     0
  9
$DIMBLK1
  1

  9
$DIMBLK2
  1

  9
$DIMSTYLE
  2
STANDARD
  9
$DIMCLRD
 70
     0
  9
$DIMCLRE
 70
     0
  9
$DIMCLRT
 70
     0
  9
$DIMTFAC
 40
1.0
  9
$DIMGAP
 40
0.09
  9
$LUNITS
 70
     2
  9
$LUPREC
 70
     2
  9
$AXISMODE
 70
     0
  9
$AXISUNIT
 10
0.0
 20
0.0
  9
$SKETCHINC
 40
0.1
  9
$FILLETRAD
 40
0.0
  9
$AUNITS
 70
     0
  9
$AUPREC
 70
     0
  9
$MENU
  1
acad
  9
$ELEVATION
 40
0.0
  9
$PELEVATION
 40
0.0
  9
$THICKNESS
 40
0.0
  9
$LIMCHECK
 70
     0
  9
$BLIPMODE
 70
     1
  9
$CHAMFERA
 40
0.0
  9
$CHAMFERB
 40
0.0
  9
$SKPOLY
 70
     0
  9
$TDCREATE
 40
0.000000000
  9
$TDUPDATE
 40
0.000000000
  9
$TDINDWG
 40
0.0000000000
  9
$TDUSRTIMER
 40
0.0000000000
  9
$USRTIMER
 70
     1
  9
$ANGBASE
 50
0.0
  9
$ANGDIR
 70
     0
  9
$PDMODE
 70
     0
  9
$PDSIZE
 40
0.0
  9
$PLINEWID
 40
0.0
  9
$COORDS
 70
     0
  9
$SPLFRAME
 70
     0
  9
$SPLINETYPE
 70
     6
  9
$SPLINESEGS
 70
     8
  9
$ATTDIA
 70
     0
  9
$ATTREQ
 70
     1
  9
$HANDLING
 70
     1
  9
$HANDSEED
  5
13E
  9
$SURFTAB1
 70
     6
  9
$SURFTAB2
 70
     6
  9
$SURFTYPE
 70
     6
  9
$SURFU
 70
     6
  9
$SURFV
 70
     6
  9
$UCSNAME
  2

  9
$UCSORG
 10
0.0
 20
0.0
 30
0.0
  9
$UCSXDIR
 10
1.0
 20
0.0
 30
0.0
  9
$UCSYDIR
 10
0.0
 20
1.0
 30
0.0
  9
$PUCSNAME
  2

  9
$PUCSORG
 10
0.0
 20
0.0
 30
0.0
  9
$PUCSXDIR
 10
1.0
 20
0.0
 30
0.0
  9
$PUCSYDIR
 10
0.0
 20
1.0
 30
0.0
  9
$USERI1
 70
     0
  9
$USERI2
 70
     0
  9
$USERI3
 70
     0
  9
$USERI4
 70
     0
  9
$USERI5
 70
     0
  9
$USERR1
 40
0.0
  9
$USERR2
 40
0.0
  9
$USERR3
 40
0.0
  9
$USERR4
 40
0.0
  9
$USERR5
 40
0.0
  9
$WORLDVIEW
 70
     1
  9
$SHADEDGE
 70
     3
  9
$SHADEDIF
 70
    70
  9
$TILEMODE
 70
     1
  9
$MAXACTVP
 70
    16
  9
$PINSBASE
 10
0.0
 20
0.0
 30
0.0
  9
$PLIMCHECK
 70
     0
  9
$PEXTMIN
 10
1.000000E+20
 20
1.000000E+20
 30
1.000000E+20
  9
$PEXTMAX
 10
-1.000000E+20
 20
-1.000000E+20
 30
-1.000000E+20
  9
$PLIMMIN
 10
-315.0
 20
-148.5
  9
$PLIMMAX
 10
525.0
 20
445.5
  9
$UNITMODE
 70
     0
  9
$VISRETAIN
 70
     0
  9
$PLINEGEN
 70
     1
  9
$PSLTSCALE
 70
     0
  9
$TREEDEPTH
 70
  3020
  9
$DWGCODEPAGE
  3
dos850
  0
ENDSEC
  0
SECTION
  2
TABLES
  0
TABLE
  2
VPORT
 70
     1
  0
VPORT
  2
*ACTIVE
 70
     0
 10
0.0
 20
0.0
 11
1.0
 21
1.0
 12
420.0
 22
297.0
 13
0.0
 23
0.0
 14
1.0
 24
1.0
 15
0.0
 25
0.0
 16
0.0
 26
0.0
 36
1.0
 17
-315.0
 27
-148.5
 37
0.0
 40
594.0
 41
1.604229
 42
50.0
 43
0.0
 44
0.0
 50
0.0
 51
0.0
 71
     0
 72
   100
 73
     1
 74
     1
 75
     0
 76
     0
 77
     0
 78
     0
  0
ENDTAB
  0
TABLE
  2
LTYPE
 70
     1
  0
LTYPE
  2
CONTINUOUS
 70
    64
  3
Solid line
 72
    65
 73
     0
 40
0.0
  0
ENDTAB
  0
TABLE
  2
LAYER
 70
     8
  0
LAYER
  2
0
 70
     0
 62
     7
  6
CONTINUOUS
  0
LAYER
  2
LC-INFO-1-2-MM-A3-0
 70
     1
 62
    -1
  6
CONTINUOUS
  0
LAYER
  2
LC-002-003-MTH-0
 70
     0
 62
     2
  6
CONTINUOUS
  0
LAYER
  2
LC-003-003-MTG-0
 70
     0
 62
     2
  6
CONTINUOUS
  0
LAYER
  2
LC-001-003-----0
 70
     0
 62
     2
  6
CONTINUOUS
  0
LAYER
  2
LC-004-000-----0
 70
     0
 62
     7
  6
CONTINUOUS
  0
LAYER
  2
LC-005-002-----0
 70
     0
 62
     1
  6
CONTINUOUS
  0
LAYER
  2
LC-000
 70
     0
 62
     7
  6
CONTINUOUS
  0
ENDTAB
  0
TABLE
  2
STYLE
 70
     4
  0
STYLE
  2
STANDARD
 70
     0
 40
0.0
 41
1.0
 50
0.0
 71
     0
 42
0.0
  3
txt
  4

  0
STYLE
  2
LC-STANDARD
 70
    64
 40
0.0
 41
1.0
 50
0.0
 71
     0
 42
3.5
  3
MONOTXT
  4

  0
STYLE
  2
LC-TXTSTYLE-150-400-0-0-A2
 70
    64
 40
0.0
 41
1.0
 50
15.0
 71
     0
 42
3.5
  3
MONOTXT
  4

  0
STYLE
  2
LC-TXTSTYLE-150-400-0-0-D3
 70
    64
 40
0.0
 41
1.0
 50
15.0
 71
     0
 42
3.5
  3
LC-STANDARD
  4

  0
ENDTAB
  0
TABLE
  2
VIEW
 70
     0
  0
ENDTAB
  0
TABLE
  2
UCS
 70
     0
  0
ENDTAB
  0
TABLE
  2
APPID
 70
     1
  0
APPID
  2
ACAD
 70
     0
  0
ENDTAB
  0
TABLE
  2
DIMSTYLE
 70
     3
  0
DIMSTYLE
  2
STANDARD
 70
     0
  3

  4

  5

  6

  7

 40
1.0
 41
0.18
 42
0.0625
 43
0.38
 44
0.18
 45
0.0
 46
0.0
 47
0.0
 48
0.0
 71
     0
 72
     0
 73
     1
 74
     1
 75
     0
 76
     0
 77
     0
 78
     0
140
0.18
141
0.09
142
0.0
143
25.4
144
1.0
145
0.0
146
1.0
147
0.09
170
     0
171
     2
172
     0
173
     0
174
     0
175
     0
176
     0
177
     0
178
     0
  0
DIMSTYLE
  2
LC-STANDARD
 70
     0
  3

  4

  5

  6

  7

 40
1.0
 41
3.5
 42
0.0
 43
7.5
 44
1.8
 45
0.0
 46
0.0
 47
0.0
 48
0.0
 71
     0
 72
     0
 73
     0
 74
     0
 75
     0
 76
     0
 77
     1
 78
     8
140
3.5
141
0.0
142
0.0
143
25.4
144
1.0
145
0.0
146
0.71
147
1.5
170
     0
171
     2
172
     1
173
     0
174
     0
175
     0
176
     0
177
     0
178
     3
  0
DIMSTYLE
  2
LC-DIM-L-0140-02-02
 70
     0
  3

  4

  5

  6

  7

 40
2.0
 41
3.5
 42
0.0
 43
7.5
 44
1.8
 45
0.0
 46
0.0
 47
0.0
 48
0.0
 71
     0
 72
     0
 73
     0
 74
     0
 75
     0
 76
     0
 77
     1
 78
     8
140
14.0
141
0.0
142
0.0
143
25.4
144
1.0
145
0.0
146
0.71
147
1.5
170
     0
171
     2
172
     0
173
     0
174
     0
175
     0
176
     2
177
     2
178
     8
  0
ENDTAB
  0
ENDSEC
  0
SECTION
  2
BLOCKS
  0
BLOCK
  8
0
  5
23
  2
*D0
 70
    65
 10
0.0
 20
0.0
 30
0.0
  3
*D0
  0
LINE
  8
LC-002-003-MTH-0
  6
CONTINUOUS
  5
25
 10
57.59936
 20
260.736
 30
0.0
 11
57.59936
 21
289.887
 31
0.0
  0
LINE
  8
LC-002-003-MTH-0
  6
CONTINUOUS
  5
26
 10
172.59936
 20
260.736
 30
0.0
 11
172.59936
 21
289.887
 31
0.0
  0
LINE
  8
LC-003-003-MTG-0
  6
CONTINUOUS
  5
28
 10
57.59936
 20
273.087
 30
0.0
 11
172.59936
 21
273.087
 31
0.0
  0
LINE
  8
LC-001-003-----0
  6
CONTINUOUS
  5
2A
 10
85.359816
 20
276.741733
 30
0.0
 11
57.59936
 21
273.087
 31
0.0
  0
LINE
  8
LC-001-003-----0
  6
CONTINUOUS
  5
2B
 10
57.59936
 20
273.087
 30
0.0
 11
85.359816
 21
269.432267
 31
0.0
  0
LINE
  8
LC-001-003-----0
  6
CONTINUOUS
  5
2C
 10
85.359816
 20
269.432267
 30
0.0
 11
85.359816
 21
276.741733
 31
0.0
  0
LINE
  8
LC-001-003-----0
  6
CONTINUOUS
  5
2D
 10
85.422097
 20
275.791503
 30
0.0
 11
64.87936
 21
273.087
 31
0.0
  0
LINE
  8
LC-001-003-----0
  6
CONTINUOUS
  5
2E
 10
64.87936
 20
273.087
 30
0.0
 11
85.422097
 21
270.382497
 31
0.0
  0
LINE
  8
LC-001-003-----0
  6
CONTINUOUS
  5
2F
 10
85.484379
 20
274.841272
 30
0.0
 11
72.15936
 21
273.087
 31
0.0
  0
LINE
  8
LC-001-003-----0
  6
CONTINUOUS
  5
30
 10
72.15936
 20
273.087
 30
0.0
 11
85.484379
 21
271.332728
 31
0.0
  0
LINE
  8
LC-001-003-----0
  6
CONTINUOUS
  5
31
 10
85.54666
 20
273.891041
 30
0.0
 11
79.43936
 21
273.087
 31
0.0
  0
LINE
  8
LC-001-003-----0
  6
CONTINUOUS
  5
32
 10
79.43936
 20
273.087
 30
0.0
 11
85.54666
 21
272.282959
 31
0.0
  0
LINE
  8
LC-001-003-----0
  6
CONTINUOUS
  5
33
 10
144.838904
 20
269.432267
 30
0.0
 11
172.59936
 21
273.087
 31
0.0
  0
LINE
  8
LC-001-003-----0
  6
CONTINUOUS
  5
34
 10
172.59936
 20
273.087
 30
0.0
 11
144.838904
 21
276.741733
 31
0.0
  0
LINE
  8
LC-001-003-----0
  6
CONTINUOUS
  5
35
 10
144.838904
 20
276.741733
 30
0.0
 11
144.838904
 21
269.432267
 31
0.0
  0
LINE
  8
LC-001-003-----0
  6
CONTINUOUS
  5
36
 10
144.776622
 20
270.382497
 30
0.0
 11
165.31936
 21
273.087
 31
0.0
  0
LINE
  8
LC-001-003-----0
  6
CONTINUOUS
  5
37
 10
165.31936
 20
273.087
 30
0.0
 11
144.776622
 21
275.791503
 31
0.0
  0
LINE
  8
LC-001-003-----0
  6
CONTINUOUS
  5
38
 10
144.714341
 20
271.332728
 30
0.0
 11
158.03936
 21
273.087
 31
0.0
  0
LINE
  8
LC-001-003-----0
  6
CONTINUOUS
  5
39
 10
158.03936
 20
273.087
 30
0.0
 11
144.714341
 21
274.841272
 31
0.0
  0
LINE
  8
LC-001-003-----0
  6
CONTINUOUS
  5
3A
 10
144.652059
 20
272.282959
 30
0.0
 11
150.75936
 21
273.087
 31
0.0
  0
LINE
  8
LC-001-003-----0
  6
CONTINUOUS
  5
3B
 10
150.75936
 20
273.087
 30
0.0
 11
144.652059
 21
273.891041
 31
0.0
  0
TEXT
  8
LC-001-003-----0
  6
CONTINUOUS
 62
     8
  5
3D
 10
89.82669
 20
280.914554
 30
0.0
 40
28.0
  1
115
 41
0.9
 51
15.0
  7
LC-TXTSTYLE-150-400-0-0-D0
 72
     1
 11
119.590469
 21
280.914554
 31
0.0
  0
ENDBLK
  8
0
  5
3E
  0
BLOCK
  8
0
  5
40
  2
BLK1
 70
    64
 10
0.0
 20
0.0
 30
0.0
  3
BLK1
  0
ENDBLK
  8
0
  5
41
  0
ENDSEC
  0
SECTION
  2
ENTITIES
  0
VIEWPORT
  8
LC-000
  5
139
 67
     1
 68
     1
 10
420.0
 20
297.0
 30
0.0
 40
840.0
 41
594.0
 69
     1
1001
ACAD
1000
MVIEW
1002
{
1070
    16
1010
0.0
1020
0.0
1030
0.0
1010
0.0
1020
0.0
1030
1.0
1040
0.0
1040
594.0
1040
420.0
1040
297.0
1040
50.0
1040
0.0
1040
0.0
1070
     0
1070
   100
1070
     1
1070
     1
1070
     0
1070
     0
1070
     0
1070
     0
1040
0.0
1040
0.0
1040
0.0
1040
1.0
1040
1.0
1040
0.0
1040
0.0
1070
     0
1002
{
1002
}
1002
}
  0
VIEWPORT
  8
0
  5
13A
 67
     1
 68
     1
 10
0.0
 20
0.0
 30
0.0
 40
0.0
 41
0.0
 69
     1
1001
ACAD
1000
MVIEW
1002
{
1070
    16
1010
0.0
1020
0.0
1030
0.0
1010
0.0
1020
0.0
1030
1.0
1040
0.0
1040
594.0
1040
0.0
1040
0.0
1040
50.0
1040
0.0
1040
0.0
1070
     0
1070
   100
1070
     0
1070
     1
1070
     0
1070
     0
1070
     0
1070
     0
1040
0.0
1040
0.0
1040
0.0
1040
0.5
1040
0.5
1040
0.5
1040
0.5
1070
     0
1002
{
1002
}
1002
}
  0
DIMENSION
  8
0
  5
42
  2
*D0
 10
115.242309
 20
273.087
 30
0.0
 11
115.242309
 21
273.087
 31
0.0
 13
57.59936
 23
260.736
 33
0.0
 14
172.59936
 24
260.736
 34
0.0
  3
LC-DIM-L-0140-02-02
  0
INSERT
  8
0
  5
44
  2
BLK1
 10
0.0
 20
0.0
 30
0.0
  0
ARC
  8
LC-005-002-----0
  6
CONTINUOUS
  5
46
 10
166.098012
 20
211.727517
 30
0.0
 40
20.0
 50
163.844902
 51
195.145989
  0
ARC
  8
LC-005-002-----0
  6
CONTINUOUS
  5
47
 10
108.086863
 20
177.872041
 30
0.0
 40
25.0
 50
165.107292
 51
196.260887
  0
LINE
  8
LC-005-002-----0
  6
CONTINUOUS
  5
48
 10
150.792733
 20
206.501914
 30
0.0
 11
151.73094
 21
203.035826
 31
0.0
  0
LINE
  8
LC-005-002-----0
  6
CONTINUOUS
  5
49
 10
111.925393
 20
243.736
 30
0.0
 11
115.875231
 21
243.736
 31
0.0
  0
ARC
  8
LC-005-002-----0
  6
CONTINUOUS
  5
4A
 10
101.955749
 20
177.211528
 30
0.0
 40
25.0
 50
0.0
 51
16.606638
  0
ARC
  8
LC-005-002-----0
  6
CONTINUOUS
  5
4B
 10
101.955749
 20
177.211528
 30
0.0
 40
25.0
 50
355.541277
 51
0.0
  0
ARC
  8
LC-005-002-----0
  6
CONTINUOUS
  5
4C
 10
98.850864
 20
204.607616
 30
0.0
 40
5.0
 50
180.0
 51
206.581163
  0
LINE
  8
LC-005-002-----0
  6
CONTINUOUS
  5
4D
 10
129.627151
 20
197.912595
 30
0.0
 11
128.581856
 21
194.020612
 31
0.0
  0
ARC
  8
LC-005-002-----0
  6
CONTINUOUS
  5
4E
 10
94.053168
 20
234.153155
 30
0.0
 40
10.0
 50
0.0
 51
7.749471
  0
ARC
  8
LC-005-002-----0
  6
CONTINUOUS
  5
4F
 10
94.053168
 20
234.153155
 30
0.0
 40
10.0
 50
331.894753
 51
0.0
  0
ARC
  8
LC-005-002-----0
  6
CONTINUOUS
  5
50
 10
102.958292
 20
233.23771
 30
0.0
 40
25.0
 50
175.541277
 51
196.606638
  0
LINE
  8
LC-005-002-----0
  6
CONTINUOUS
  5
51
 10
102.338655
 20
173.98088
 30
0.0
 11
101.846574
 21
177.162258
 31
0.0
  0
LINE
  8
LC-005-002-----0
  6
CONTINUOUS
  5
52
 10
138.254571
 20
193.47684
 30
0.0
 11
136.516001
 21
201.714535
 31
0.0
  0
LINE
  8
LC-005-002-----0
  6
CONTINUOUS
  5
53
 10
141.264939
 20
217.639596
 30
0.0
 11
140.082573
 21
212.058932
 31
0.0
  0
ARC
  8
LC-005-002-----0
  6
CONTINUOUS
  5
54
 10
104.086863
 20
177.872041
 30
0.0
 40
25.0
 50
165.107292
 51
196.260887
  0
LINE
  8
LC-005-002-----0
  6
CONTINUOUS
  5
55
 10
112.905232
 20
187.541708
 30
0.0
 11
113.428139
 21
190.024565
 31
0.0
  0
ARC
  8
LC-005-002-----0
  6
CONTINUOUS
  5
56
 10
165.869404
 20
207.909598
 30
0.0
 40
30.0
 50
168.037736
 51
191.917416
  0
ARC
  8
LC-005-002-----0
  6
CONTINUOUS
  5
57
 10
137.368592
 20
182.389567
 30
0.0
 40
25.0
 50
168.106907
 51
187.168285
  0
ARC
  8
LC-005-002-----0
  6
CONTINUOUS
  5
58
 10
94.136089
 20
214.269881
 30
0.0
 40
5.0
 50
154.027272
 51
189.5637
  0
LINE
  8
LC-005-002-----0
  6
CONTINUOUS
  5
59
 10
96.982205
 20
239.255581
 30
0.0
 11
96.656135
 21
234.647724
 31
0.0
  0
LINE
  8
LC-005-002-----0
  6
CONTINUOUS
  5
5A
 10
125.912971
 20
184.356497
 30
0.0
 11
124.656704
 21
188.568778
 31
0.0
  0
LINE
  8
LC-005-002-----0
  6
CONTINUOUS
  5
5B
 10
150.107415
 20
243.736
 30
0.0
 11
150.062426
 21
243.407952
 31
0.0
  0
LINE
  8
LC-005-002-----0
  6
CONTINUOUS
  5
5C
 10
146.887756
 20
217.292271
 30
0.0
 11
147.124262
 21
218.108715
 31
0.0
  0
LINE
  8
LC-005-002-----0
  6
CONTINUOUS
  5
5D
 10
127.614121
 20
243.736
 30
0.0
 11
128.82708
 21
239.577467
 31
0.0
  0
LINE
  8
LC-005-002-----0
  6
CONTINUOUS
  5
5E
 10
78.701013
 20
243.736
 30
0.0
 11
82.701013
 21
243.736
 31
0.0
  0
ARC
  8
LC-005-002-----0
  6
CONTINUOUS
  5
5F
 10
112.692731
 20
242.08682
 30
0.0
 40
10.0
 50
173.273608
 51
195.804485
  0
LINE
  8
LC-005-002-----0
  6
CONTINUOUS
  5
60
 10
79.926628
 20
184.297272
 30
0.0
 11
79.940399
 21
184.349053
 31
0.0
  0
LINE
  8
LC-005-002-----0
  6
CONTINUOUS
  5
61
 10
118.075136
 20
209.87956
 30
0.0
 11
117.597225
 21
206.975515
 31
0.0
  0
LINE
  8
LC-005-002-----0
  6
CONTINUOUS
  5
62
 10
90.610423
 20
186.166392
 30
0.0
 11
90.914253
 21
192.864351
 31
0.0
  0
ARC
  8
LC-005-002-----0
  6
CONTINUOUS
  5
63
 10
138.239614
 20
191.426787
 30
0.0
 40
10.0
 50
164.966484
 51
196.606638
  0
LINE
  8
LC-005-002-----0
  6
CONTINUOUS
  5
64
 10
95.851514
 20
178.568664
 30
0.0
 11
94.458509
 21
172.770472
 31
0.0
  0
LINE
  8
LC-005-002-----0
  6
CONTINUOUS
  5
65
 10
96.569377
 20
243.736
 30
0.0
 11
96.982205
 21
239.255581
 31
0.0
  0
LINE
  8
LC-005-002-----0
  6
CONTINUOUS
  5
66
 10
107.09891
 20
243.736
 30
0.0
 11
107.929955
 21
238.020988
 31
0.0
  0
LINE
  8
LC-005-002-----0
  6
CONTINUOUS
  5
67
 10
130.37073
 20
168.736
 30
0.0
 11
126.37073
 21
168.736
 31
0.0
  0
LINE
  8
LC-005-002-----0
  6
CONTINUOUS
  5
68
 10
142.337138
 20
185.274784
 30
0.0
 11
141.573135
 21
179.012823
 31
0.0
  0
ARC
  8
LC-005-002-----0
  6
CONTINUOUS
  5
69
 10
92.240567
 20
201.833867
 30
0.0
 40
10.0
 50
3.96862
 51
21.036094
  0
ARC
  8
LC-005-002-----0
  6
CONTINUOUS
  5
6A
 10
170.830616
 20
240.011271
 30
0.0
 40
25.0
 50
172.191194
 51
196.568075
  0
ARC
  8
LC-005-002-----0
  6
CONTINUOUS
  5
6B
 10
111.392025
 20
224.164299
 30
0.0
 40
10.0
 50
151.894753
 51
167.993304
  0
ARC
  8
LC-005-002-----0
  6
CONTINUOUS
  5
6C
 10
89.176998
 20
218.595666
 30
0.0
 40
25.0
 50
0.0
 51
8.779691
  0
ARC
  8
LC-005-002-----0
  6
CONTINUOUS
  5
6D
 10
89.176998
 20
218.595666
 30
0.0
 40
25.0
 50
350.178139
 51
0.0
  0
ARC
  8
LC-005-002-----0
  6
CONTINUOUS
  5
6E
 10
86.989866
 20
179.736684
 30
0.0
 40
5.0
 50
0.0
 51
13.272324
  0
ARC
  8
LC-005-002-----0
  6
CONTINUOUS
  5
6F
 10
86.989866
 20
179.736684
 30
0.0
 40
5.0
 50
346.490823
 51
0.0
  0
LINE
  8
LC-005-002-----0
  6
CONTINUOUS
  5
70
 10
136.520859
 20
214.127606
 30
0.0
 11
137.67716
 21
219.585245
 31
0.0
  0
ARC
  8
LC-005-002-----0
  6
CONTINUOUS
  5
71
 10
103.431232
 20
206.052026
 30
0.0
 40
25.0
 50
164.966484
 51
195.47755
  0
LINE
  8
LC-005-002-----0
  6
CONTINUOUS
  5
72
 10
82.701013
 20
243.736
 30
0.0
 11
82.033937
 21
235.181216
 31
0.0
  0
LINE
  8
LC-005-002-----0
  6
CONTINUOUS
  5
73
 10
147.073501
 20
232.193535
 30
0.0
 11
146.86856
 21
232.882398
 31
0.0
  0
LINE
  8
LC-005-002-----0
  6
CONTINUOUS
  5
74
 10
147.73094
 20
203.035826
 30
0.0
 11
146.792733
 21
206.501914
 31
0.0
  0
LINE
  8
LC-005-002-----0
  6
CONTINUOUS
  5
75
 10
83.940399
 20
184.349053
 30
0.0
 11
83.926628
 21
184.297272
 31
0.0
  0
ARC
  8
LC-005-002-----0
  6
CONTINUOUS
  5
76
 10
94.850864
 20
204.607616
 30
0.0
 40
5.0
 50
180.0
 51
206.581163
  0
LINE
  8
LC-005-002-----0
  6
CONTINUOUS
  5
77
 10
106.267888
 20
186.143055
 30
0.0
 11
105.81522
 21
180.155588
 31
0.0
  0
LINE
  8
LC-005-002-----0
  6
CONTINUOUS
  5
78
 10
101.574097
 20
205.423412
 30
0.0
 11
101.248226
 21
206.27074
 31
0.0
  0
ARC
  8
LC-005-002-----0
  6
CONTINUOUS
  5
79
 10
172.016546
 20
182.970749
 30
0.0
 40
25.0
 50
170.356768
 51
184.87313
  0
LINE
  8
LC-005-002-----0
  6
CONTINUOUS
  5
7A
 10
102.817913
 20
243.736
 30
0.0
 11
107.09891
 21
243.736
 31
0.0
  0
LINE
  8
LC-005-002-----0
  6
CONTINUOUS
  5
7B
 10
137.774368
 20
227.387174
 30
0.0
 11
134.734083
 21
243.736
 31
0.0
  0
ARC
  8
LC-005-002-----0
  6
CONTINUOUS
  5
7C
 10
111.266353
 20
190.640377
 30
0.0
 40
10.0
 50
168.879341
 51
185.183859
  0
LINE
  8
LC-005-002-----0
  6
CONTINUOUS
  5
7D
 10
84.709883
 20
168.736
 30
0.0
 11
80.709883
 21
168.736
 31
0.0
  0
LINE
  8
LC-005-002-----0
  6
CONTINUOUS
  5
7E
 10
106.715585
 20
168.736
 30
0.0
 11
102.152028
 21
168.736
 31
0.0
  0
ARC
  8
LC-005-002-----0
  6
CONTINUOUS
  5
7F
 10
90.747934
 20
221.937607
 30
0.0
 40
5.0
 50
0.0
 51
3.835699
  0
ARC
  8
LC-005-002-----0
  6
CONTINUOUS
  5
80
 10
90.747934
 20
221.937607
 30
0.0
 40
5.0
 50
334.027272
 51
0.0
  0
ARC
  8
LC-005-002-----0
  6
CONTINUOUS
  5
81
 10
149.133847
 20
219.674924
 30
0.0
 40
25.0
 50
165.107292
 51
195.47755
  0
LINE
  8
LC-005-002-----0
  6
CONTINUOUS
  5
82
 10
93.850849
 20
209.609251
 30
0.0
 11
93.850849
 21
204.607601
 31
0.0
  0
ARC
  8
LC-005-002-----0
  6
CONTINUOUS
  5
83
 10
88.117865
 20
235.811599
 30
0.0
 40
25.0
 50
0.0
 51
13.509177
  0
ARC
  8
LC-005-002-----0
  6
CONTINUOUS
  5
84
 10
88.117865
 20
235.811599
 30
0.0
 40
25.0
 50
356.977078
 51
0.0
  0
LINE
  8
LC-005-002-----0
  6
CONTINUOUS
  5
85
 10
152.246108
 20
192.316025
 30
0.0
 11
151.369783
 21
187.158551
 31
0.0
  0
ARC
  8
LC-005-002-----0
  6
CONTINUOUS
  5
86
 10
170.098012
 20
211.727517
 30
0.0
 40
20.0
 50
163.844902
 51
195.145989
  0
LINE
  8
LC-005-002-----0
  6
CONTINUOUS
  5
87
 10
113.309317
 20
198.796597
 30
0.0
 11
113.236979
 21
199.099179
 31
0.0
  0
LINE
  8
LC-005-002-----0
  6
CONTINUOUS
  5
88
 10
118.21211
 20
169.959306
 30
0.0
 11
118.21211
 21
168.736
 31
0.0
  0
LINE
  8
LC-005-002-----0
  6
CONTINUOUS
  5
89
 10
124.82708
 20
239.577467
 30
0.0
 11
123.614121
 21
243.736
 31
0.0
  0
LINE
  8
LC-005-002-----0
  6
CONTINUOUS
  5
8A
 10
152.139457
 20
168.736
 30
0.0
 11
148.139457
 21
168.736
 31
0.0
  0
LINE
  8
LC-005-002-----0
  6
CONTINUOUS
  5
8B
 10
89.641061
 20
216.459582
 30
0.0
 11
91.242932
 21
219.747876
 31
0.0
  0
LINE
  8
LC-005-002-----0
  6
CONTINUOUS
  5
8C
 10
124.973612
 20
226.100154
 30
0.0
 11
124.987383
 21
226.151936
 31
0.0
  0
LINE
  8
LC-005-002-----0
  6
CONTINUOUS
  5
8D
 10
96.656135
 20
234.647724
 30
0.0
 11
95.351853
 21
228.01241
 31
0.0
  0
ARC
  8
LC-005-002-----0
  6
CONTINUOUS
  5
8E
 10
98.246996
 20
230.414598
 30
0.0
 40
10.0
 50
0.0
 51
2.455755
  0
ARC
  8
LC-005-002-----0
  6
CONTINUOUS
  5
8F
 10
98.246996
 20
230.414598
 30
0.0
 40
10.0
 50
334.243534
 51
0.0
  0
LINE
  8
LC-005-002-----0
  6
CONTINUOUS
  5
90
 10
101.737608
 20
179.104306
 30
0.0
 11
101.904963
 21
183.148403
 31
0.0
  0
LINE
  8
LC-005-002-----0
  6
CONTINUOUS
  5
91
 10
130.880074
 20
175.267991
 30
0.0
 11
130.37073
 21
168.736
 31
0.0
  0
LINE
  8
LC-005-002-----0
  6
CONTINUOUS
  5
92
 10
113.884047
 20
222.411539
 30
0.0
 11
113.206127
 21
226.800922
 31
0.0
  0
ARC
  8
LC-005-002-----0
  6
CONTINUOUS
  5
93
 10
137.913206
 20
230.616826
 30
0.0
 40
25.0
 50
176.977078
 51
188.779691
  0
LINE
  8
LC-005-002-----0
  6
CONTINUOUS
  5
94
 10
128.656704
 20
188.568778
 30
0.0
 11
129.912971
 21
184.356497
 31
0.0
  0
LINE
  8
LC-005-002-----0
  6
CONTINUOUS
  5
95
 10
92.656135
 20
234.647724
 30
0.0
 11
92.982205
 21
239.255581
 31
0.0
  0
ARC
  8
LC-005-002-----0
  6
CONTINUOUS
  5
96
 10
176.016546
 20
182.970749
 30
0.0
 40
25.0
 50
170.356768
 51
184.87313
  0
ARC
  8
LC-005-002-----0
  6
CONTINUOUS
  5
97
 10
161.425935
 20
176.590662
 30
0.0
 40
20.0
 50
173.043899
 51
201.291599
  0
LINE
  8
LC-005-002-----0
  6
CONTINUOUS
  5
98
 10
105.852372
 20
217.763051
 30
0.0
 11
105.852372
 21
210.276422
 31
0.0
  0
ARC
  8
LC-005-002-----0
  6
CONTINUOUS
  5
99
 10
93.406957
 20
213.939157
 30
0.0
 40
25.0
 50
0.0
 51
7.465753
  0
ARC
  8
LC-005-002-----0
  6
CONTINUOUS
  5
9A
 10
93.406957
 20
213.939157
 30
0.0
 40
25.0
 50
350.654743
 51
0.0
  0
LINE
  8
LC-005-002-----0
  6
CONTINUOUS
  5
9B
 10
117.440362
 20
174.801542
 30
0.0
 11
118.21211
 21
169.959306
 31
0.0
  0
LINE
  8
LC-005-002-----0
  6
CONTINUOUS
  5
9C
 10
146.107415
 20
243.736
 30
0.0
 11
150.107415
 21
243.736
 31
0.0
  0
ARC
  8
LC-005-002-----0
  6
CONTINUOUS
  5
9D
 10
104.827178
 20
232.577196
 30
0.0
 40
25.0
 50
0.0
 51
16.260887
  0
ARC
  8
LC-005-002-----0
  6
CONTINUOUS
  5
9E
 10
104.827178
 20
232.577196
 30
0.0
 40
25.0
 50
345.107292
 51
0.0
  0
LINE
  8
LC-005-002-----0
  6
CONTINUOUS
  5
9F
 10
83.33784
 20
199.380491
 30
0.0
 11
83.873556
 21
197.445817
 31
0.0
  0
LINE
  8
LC-005-002-----0
  6
CONTINUOUS
  5
A0
 10
92.982205
 20
239.255581
 30
0.0
 11
92.569377
 21
243.736
 31
0.0
  0
LINE
  8
LC-005-002-----0
  6
CONTINUOUS
  5
A1
 10
128.987383
 20
226.151936
 30
0.0
 11
128.973612
 21
226.100154
 31
0.0
  0
LINE
  8
LC-005-002-----0
  6
CONTINUOUS
  5
A2
 10
94.106045
 20
168.736
 30
0.0
 11
90.106045
 21
168.736
 31
0.0
  0
ARC
  8
LC-005-002-----0
  6
CONTINUOUS
  5
A3
 10
142.265434
 20
202.915948
 30
0.0
 40
25.0
 50
170.654743
 51
192.237955
  0
LINE
  8
LC-005-002-----0
  6
CONTINUOUS
  5
A4
 10
101.454106
 20
192.569119
 30
0.0
 11
102.528238
 21
198.033583
 31
0.0
  0
LINE
  8
LC-005-002-----0
  6
CONTINUOUS
  5
A5
 10
117.833526
 20
197.616627
 30
0.0
 11
118.09982
 21
196.38891
 31
0.0
  0
LINE
  8
LC-005-002-----0
  6
CONTINUOUS
  5
A6
 10
78.033937
 20
235.181216
 30
0.0
 11
78.701013
 21
243.736
 31
0.0
  0
LINE
  8
LC-005-002-----0
  6
CONTINUOUS
  5
A7
 10
57.59936
 20
151.736
 30
0.0
 11
57.59936
 21
260.736
 31
0.0
  0
LINE
  8
LC-005-002-----0
  6
CONTINUOUS
  5
A8
 10
90.914253
 20
192.864351
 30
0.0
 11
91.706579
 21
197.566978
 31
0.0
  0
LINE
  8
LC-005-002-----0
  6
CONTINUOUS
  5
A9
 10
147.369783
 20
187.158551
 30
0.0
 11
148.246108
 21
192.316025
 31
0.0
  0
LINE
  8
LC-005-002-----0
  6
CONTINUOUS
  5
AA
 10
112.918225
 20
209.1767
 30
0.0
 11
113.810555
 21
214.331014
 31
0.0
  0
ARC
  8
LC-005-002-----0
  6
CONTINUOUS
  5
AB
 10
118.685661
 20
189.346823
 30
0.0
 40
20.0
 50
0.0
 51
11.917416
  0
ARC
  8
LC-005-002-----0
  6
CONTINUOUS
  5
AC
 10
118.685661
 20
189.346823
 30
0.0
 40
20.0
 50
353.043899
 51
0.0
  0
ARC
  8
LC-005-002-----0
  6
CONTINUOUS
  5
AD
 10
90.989866
 20
179.736684
 30
0.0
 40
5.0
 50
0.0
 51
13.272324
  0
ARC
  8
LC-005-002-----0
  6
CONTINUOUS
  5
AE
 10
90.989866
 20
179.736684
 30
0.0
 40
5.0
 50
346.490823
 51
0.0
  0
ARC
  8
LC-005-002-----0
  6
CONTINUOUS
  5
AF
 10
106.958292
 20
233.23771
 30
0.0
 40
25.0
 50
175.541277
 51
196.606638
  0
LINE
  8
LC-005-002-----0
  6
CONTINUOUS
  5
B0
 10
134.734083
 20
243.736
 30
0.0
 11
138.734083
 21
243.736
 31
0.0
  0
ARC
  8
LC-005-002-----0
  6
CONTINUOUS
  5
B1
 10
105.955749
 20
177.211528
 30
0.0
 40
25.0
 50
0.0
 51
16.606638
  0
ARC
  8
LC-005-002-----0
  6
CONTINUOUS
  5
B2
 10
105.955749
 20
177.211528
 30
0.0
 40
25.0
 50
355.541277
 51
0.0
  0
LINE
  8
LC-005-002-----0
  6
CONTINUOUS
  5
B3
 10
102.152028
 20
168.736
 30
0.0
 11
102.412651
 21
171.520345
 31
0.0
  0
ARC
  8
LC-005-002-----0
  6
CONTINUOUS
  5
B4
 10
60.599375
 20
260.736015
 30
0.0
 40
3.0
 50
90.0
 51
180.0
  0
ARC
  8
LC-005-002-----0
  6
CONTINUOUS
  5
B5
 10
127.599375
 20
196.503857
 30
0.0
 40
25.0
 50
0.0
 51
15.145989
  0
ARC
  8
LC-005-002-----0
  6
CONTINUOUS
  5
B6
 10
127.599375
 20
196.503857
 30
0.0
 40
25.0
 50
350.356768
 51
0.0
  0
LINE
  8
LC-005-002-----0
  6
CONTINUOUS
  5
B7
 10
79.286861
 20
212.536612
 30
0.0
 11
80.332155
 21
216.428595
 31
0.0
  0
ARC
  8
LC-005-002-----0
  6
CONTINUOUS
  5
B8
 10
59.780194
 20
190.774313
 30
0.0
 40
25.0
 50
0.0
 51
15.47755
  0
ARC
  8
LC-005-002-----0
  6
CONTINUOUS
  5
B9
 10
59.780194
 20
190.774313
 30
0.0
 40
25.0
 50
345.107292
 51
0.0
  0
ARC
  8
LC-005-002-----0
  6
CONTINUOUS
  5
BA
 10
110.581785
 20
209.860314
 30
0.0
 40
10.0
 50
179.160623
 51
201.036094
  0
ARC
  8
LC-005-002-----0
  6
CONTINUOUS
  5
BB
 10
142.128782
 20
178.736355
 30
0.0
 40
25.0
 50
166.876634
 51
189.055547
  0
LINE
  8
LC-005-002-----0
  6
CONTINUOUS
  5
BC
 10
94.610423
 20
186.166392
 30
0.0
 11
95.8563
 21
180.884567
 31
0.0
  0
ARC
  8
LC-005-002-----0
  6
CONTINUOUS
  5
BD
 10
98.136089
 20
214.269881
 30
0.0
 40
5.0
 50
154.027272
 51
189.5637
  0
ARC
  8
LC-005-002-----0
  6
CONTINUOUS
  5
BE
 10
55.780194
 20
190.774313
 30
0.0
 40
25.0
 50
0.0
 51
15.47755
  0
ARC
  8
LC-005-002-----0
  6
CONTINUOUS
  5
BF
 10
55.780194
 20
190.774313
 30
0.0
 40
25.0
 50
345.107292
 51
0.0
  0
ARC
  8
LC-005-002-----0
  6
CONTINUOUS
  5
C0
 10
86.747934
 20
221.937607
 30
0.0
 40
5.0
 50
0.0
 51
3.835699
  0
ARC
  8
LC-005-002-----0
  6
CONTINUOUS
  5
C1
 10
86.747934
 20
221.937607
 30
0.0
 40
5.0
 50
334.027272
 51
0.0
  0
LINE
  8
LC-005-002-----0
  6
CONTINUOUS
  5
C2
 10
172.59936
 20
260.736
 30
0.0
 11
172.59936
 21
151.736
 31
0.0
  0
LINE
  8
LC-005-002-----0
  6
CONTINUOUS
  5
C3
 10
106.579526
 20
171.081719
 30
0.0
 11
106.715585
 21
168.736
 31
0.0
  0
LINE
  8
LC-005-002-----0
  6
CONTINUOUS
  5
C4
 10
148.139457
 20
168.736
 30
0.0
 11
147.1069
 21
180.846992
 31
0.0
  0
ARC
  8
LC-005-002-----0
  6
CONTINUOUS
  5
C5
 10
93.667942
 20
191.089619
 30
0.0
 40
25.0
 50
0.0
 51
12.237955
  0
ARC
  8
LC-005-002-----0
  6
CONTINUOUS
  5
C6
 10
93.667942
 20
191.089619
 30
0.0
 40
25.0
 50
346.876634
 51
0.0
  0
LINE
  8
LC-005-002-----0
  6
CONTINUOUS
  5
C7
 10
112.426163
 20
241.651611
 30
0.0
 11
111.925393
 21
243.736
 31
0.0
  0
ARC
  8
LC-005-002-----0
  6
CONTINUOUS
  5
C8
 10
105.482809
 20
204.397211
 30
0.0
 40
25.0
 50
0.0
 51
15.47755
  0
ARC
  8
LC-005-002-----0
  6
CONTINUOUS
  5
C9
 10
105.482809
 20
204.397211
 30
0.0
 40
25.0
 50
344.966484
 51
0.0
  0
LINE
  8
LC-005-002-----0
  6
CONTINUOUS
  5
CA
 10
142.791031
 20
169.328354
 30
0.0
 11
143.02188
 21
168.736
 31
0.0
  0
LINE
  8
LC-005-002-----0
  6
CONTINUOUS
  5
CB
 10
91.351853
 20
228.01241
 30
0.0
 11
92.656135
 21
234.647724
 31
0.0
  0
LINE
  8
LC-005-002-----0
  6
CONTINUOUS
  5
CC
 10
124.581856
 20
194.020612
 30
0.0
 11
125.627151
 21
197.912595
 31
0.0
  0
ARC
  8
LC-005-002-----0
  6
CONTINUOUS
  5
CD
 10
92.456188
 20
172.452318
 30
0.0
 40
10.0
 50
0.0
 51
8.792571
  0
ARC
  8
LC-005-002-----0
  6
CONTINUOUS
  5
CE
 10
92.456188
 20
172.452318
 30
0.0
 40
10.0
 50
354.652514
 51
0.0
  0
ARC
  8
LC-005-002-----0
  6
CONTINUOUS
  5
CF
 10
96.797551
 20
201.971084
 30
0.0
 40
10.0
 50
0.0
 51
7.003929
  0
ARC
  8
LC-005-002-----0
  6
CONTINUOUS
  5
D0
 10
96.797551
 20
201.971084
 30
0.0
 40
10.0
 50
351.291751
 51
0.0
  0
LINE
  8
LC-005-002-----0
  6
CONTINUOUS
  5
D1
 10
137.877876
 20
181.510554
 30
0.0
 11
138.538431
 21
186.924631
 31
0.0
  0
LINE
  8
LC-005-002-----0
  6
CONTINUOUS
  5
D2
 10
102.571172
 20
228.87521
 30
0.0
 11
102.873991
 21
229.442214
 31
0.0
  0
LINE
  8
LC-005-002-----0
  6
CONTINUOUS
  5
D3
 10
92.569377
 20
243.736
 30
0.0
 11
96.569377
 21
243.736
 31
0.0
  0
LINE
  8
LC-005-002-----0
  6
CONTINUOUS
  5
D4
 10
115.875231
 20
243.736
 30
0.0
 11
116.965495
 21
238.433794
 31
0.0
  0
LINE
  8
LC-005-002-----0
  6
CONTINUOUS
  5
D5
 10
102.761548
 20
243.258087
 30
0.0
 11
102.817913
 21
243.736
 31
0.0
  0
ARC
  8
LC-005-002-----0
  6
CONTINUOUS
  5
D6
 10
111.916424
 20
223.857634
 30
0.0
 40
30.0
 50
0.0
 51
10.534587
  0
ARC
  8
LC-005-002-----0
  6
CONTINUOUS
  5
D7
 10
111.916424
 20
223.857634
 30
0.0
 40
30.0
 50
348.037736
 51
0.0
  0
LINE
  8
LC-005-002-----0
  6
CONTINUOUS
  5
D8
 10
129.040455
 20
213.00339
 30
0.0
 11
129.576171
 21
211.068716
 31
0.0
  0
LINE
  8
LC-005-002-----0
  6
CONTINUOUS
  5
D9
 10
80.257307
 20
221.88043
 30
0.0
 11
79.001041
 21
226.09271
 31
0.0
  0
LINE
  8
LC-005-002-----0
  6
CONTINUOUS
  5
DA
 10
95.706579
 20
197.566978
 30
0.0
 11
94.914253
 21
192.864351
 31
0.0
  0
LINE
  8
LC-005-002-----0
  6
CONTINUOUS
  5
DB
 10
105.852372
 20
195.038931
 30
0.0
 11
106.267888
 21
186.143055
 31
0.0
  0
LINE
  8
LC-005-002-----0
  6
CONTINUOUS
  5
DC
 10
118.21211
 20
168.736
 30
0.0
 11
113.888803
 21
168.736
 31
0.0
  0
LINE
  8
LC-005-002-----0
  6
CONTINUOUS
  5
DD
 10
80.709883
 20
168.736
 30
0.0
 11
80.086931
 21
170.871741
 31
0.0
  0
ARC
  8
LC-005-002-----0
  6
CONTINUOUS
  5
DE
 10
60.599375
 20
151.736015
 30
0.0
 40
3.0
 50
180.0
 51
270.0
  0
ARC
  8
LC-005-002-----0
  6
CONTINUOUS
  5
DF
 10
142.207066
 20
226.357688
 30
0.0
 40
25.0
 50
177.369072
 51
187.465753
  0
LINE
  8
LC-005-002-----0
  6
CONTINUOUS
  5
E0
 10
113.888803
 20
168.736
 30
0.0
 11
112.563979
 21
179.269951
 31
0.0
  0
ARC
  8
LC-005-002-----0
  6
CONTINUOUS
  5
E1
 10
90.776086
 20
198.397713
 30
0.0
 40
5.0
 50
0.0
 51
26.581163
  0
ARC
  8
LC-005-002-----0
  6
CONTINUOUS
  5
E2
 10
90.776086
 20
198.397713
 30
0.0
 40
5.0
 50
350.4363
 51
0.0
  0
LINE
  8
LC-005-002-----0
  6
CONTINUOUS
  5
E3
 10
84.086931
 20
170.871741
 30
0.0
 11
84.709883
 21
168.736
 31
0.0
  0
LINE
  8
LC-005-002-----0
  6
CONTINUOUS
  5
E4
 10
106.682257
 20
200.457038
 30
0.0
 11
105.852372
 21
195.038931
 31
0.0
  0
LINE
  8
LC-005-002-----0
  6
CONTINUOUS
  5
E5
 10
143.02188
 20
168.736
 30
0.0
 11
139.083694
 21
168.736
 31
0.0
  0
ARC
  8
LC-005-002-----0
  6
CONTINUOUS
  5
E6
 10
111.729071
 20
178.69085
 30
0.0
 40
10.0
 50
177.630312
 51
188.792571
  0
ARC
  8
LC-005-002-----0
  6
CONTINUOUS
  5
E7
 10
174.830616
 20
240.011271
 30
0.0
 40
25.0
 50
172.191194
 51
196.568075
  0
ARC
  8
LC-005-002-----0
  6
CONTINUOUS
  5
E8
 10
86.776086
 20
198.397713
 30
0.0
 40
5.0
 50
0.0
 51
26.581163
  0
ARC
  8
LC-005-002-----0
  6
CONTINUOUS
  5
E9
 10
86.776086
 20
198.397713
 30
0.0
 40
5.0
 50
350.4363
 51
0.0
  0
ARC
  8
LC-005-002-----0
  6
CONTINUOUS
  5
EA
 10
123.599375
 20
196.503857
 30
0.0
 40
25.0
 50
0.0
 51
15.145989
  0
ARC
  8
LC-005-002-----0
  6
CONTINUOUS
  5
EB
 10
123.599375
 20
196.503857
 30
0.0
 40
25.0
 50
350.356768
 51
0.0
  0
ARC
  8
LC-005-002-----0
  6
CONTINUOUS
  5
EC
 10
127.111476
 20
225.064692
 30
0.0
 40
25.0
 50
0.0
 51
16.568075
  0
ARC
  8
LC-005-002-----0
  6
CONTINUOUS
  5
ED
 10
127.111476
 20
225.064692
 30
0.0
 40
25.0
 50
343.844902
 51
0.0
  0
LINE
  8
LC-005-002-----0
  6
CONTINUOUS
  5
EE
 10
123.614121
 20
243.736
 30
0.0
 11
127.614121
 21
243.736
 31
0.0
  0
LINE
  8
LC-005-002-----0
  6
CONTINUOUS
  5
EF
 10
117.418983
 20
223.109335
 30
0.0
 11
118.195009
 21
217.187481
 31
0.0
  0
ARC
  8
LC-005-002-----0
  6
CONTINUOUS
  5
F0
 10
107.431232
 20
206.052026
 30
0.0
 40
25.0
 50
164.966484
 51
195.47755
  0
ARC
  8
LC-005-002-----0
  6
CONTINUOUS
  5
F1
 10
112.557976
 20
188.908064
 30
0.0
 40
30.0
 50
0.0
 51
11.917416
  0
ARC
  8
LC-005-002-----0
  6
CONTINUOUS
  5
F2
 10
112.557976
 20
188.908064
 30
0.0
 40
30.0
 50
353.043899
 51
0.0
  0
LINE
  8
LC-005-002-----0
  6
CONTINUOUS
  5
F3
 10
90.106045
 20
168.736
 30
0.0
 11
90.458509
 21
172.770472
 31
0.0
  0
ARC
  8
LC-005-002-----0
  6
CONTINUOUS
  5
F4
 10
101.482809
 20
204.397211
 30
0.0
 40
25.0
 50
0.0
 51
15.47755
  0
ARC
  8
LC-005-002-----0
  6
CONTINUOUS
  5
F5
 10
101.482809
 20
204.397211
 30
0.0
 40
25.0
 50
344.966484
 51
0.0
  0
LINE
  8
LC-005-002-----0
  6
CONTINUOUS
  5
F6
 10
125.576171
 20
211.068716
 30
0.0
 11
125.040455
 21
213.00339
 31
0.0
  0
ARC
  8
LC-005-002-----0
  6
CONTINUOUS
  5
F7
 10
169.599375
 20
260.736015
 30
0.0
 40
3.0
 50
0.0
 51
90.0
  0
LINE
  8
LC-005-002-----0
  6
CONTINUOUS
  5
F8
 10
84.332155
 20
216.428595
 30
0.0
 11
83.286861
 21
212.536612
 31
0.0
  0
LINE
  8
LC-005-002-----0
  6
CONTINUOUS
  5
F9
 10
94.379342
 20
202.370276
 30
0.0
 11
95.247578
 21
200.635023
 31
0.0
  0
LINE
  8
LC-005-002-----0
  6
CONTINUOUS
  5
FA
 10
126.37073
 20
168.736
 30
0.0
 11
126.880074
 21
175.267991
 31
0.0
  0
LINE
  8
LC-005-002-----0
  6
CONTINUOUS
  5
FB
 10
107.253473
 20
226.069114
 30
0.0
 11
106.475647
 21
224.456978
 31
0.0
  0
ARC
  8
LC-005-002-----0
  6
CONTINUOUS
  5
FC
 10
70.674427
 20
219.022451
 30
0.0
 40
10.0
 50
0.0
 51
16.606638
  0
ARC
  8
LC-005-002-----0
  6
CONTINUOUS
  5
FD
 10
70.674427
 20
219.022451
 30
0.0
 40
10.0
 50
344.966484
 51
0.0
  0
LINE
  8
LC-005-002-----0
  6
CONTINUOUS
  5
FE
 10
91.247578
 20
200.635023
 30
0.0
 11
90.379342
 21
202.370276
 31
0.0
  0
LINE
  8
LC-005-002-----0
  6
CONTINUOUS
  5
FF
 10
90.458509
 20
172.770472
 30
0.0
 11
91.851514
 21
178.568664
 31
0.0
  0
LINE
  8
LC-005-002-----0
  6
CONTINUOUS
  5
100
 10
151.1069
 20
180.846992
 30
0.0
 11
152.139457
 21
168.736
 31
0.0
  0
LINE
  8
LC-005-002-----0
  6
CONTINUOUS
  5
101
 10
118.015014
 20
185.413392
 30
0.0
 11
117.781681
 21
184.412552
 31
0.0
  0
LINE
  8
LC-005-002-----0
  6
CONTINUOUS
  5
102
 10
91.8563
 20
180.884567
 30
0.0
 11
90.610423
 21
186.166392
 31
0.0
  0
ARC
  8
LC-005-002-----0
  6
CONTINUOUS
  5
103
 10
118.111488
 20
223.730608
 30
0.0
 40
20.0
 50
0.0
 51
10.534587
  0
ARC
  8
LC-005-002-----0
  6
CONTINUOUS
  5
104
 10
118.111488
 20
223.730608
 30
0.0
 40
20.0
 50
348.037736
 51
0.0
  0
LINE
  8
LC-005-002-----0
  6
CONTINUOUS
  5
105
 10
94.458509
 20
172.770472
 30
0.0
 11
94.106045
 21
168.736
 31
0.0
  0
LINE
  8
LC-005-002-----0
  6
CONTINUOUS
  5
106
 10
106.475647
 20
224.456978
 30
0.0
 11
105.852372
 21
217.763051
 31
0.0
  0
LINE
  8
LC-005-002-----0
  6
CONTINUOUS
  5
107
 10
103.961825
 20
235.501558
 30
0.0
 11
103.774788
 21
236.875974
 31
0.0
  0
LINE
  8
LC-005-002-----0
  6
CONTINUOUS
  5
108
 10
91.736719
 20
222.27207
 30
0.0
 11
91.351853
 21
228.01241
 31
0.0
  0
LINE
  8
LC-005-002-----0
  6
CONTINUOUS
  5
109
 10
102.528238
 20
198.033583
 30
0.0
 11
102.216573
 21
202.525953
 31
0.0
  0
LINE
  8
LC-005-002-----0
  6
CONTINUOUS
  5
10A
 10
117.451472
 20
232.250969
 30
0.0
 11
117.233403
 21
227.505229
 31
0.0
  0
LINE
  8
LC-005-002-----0
  6
CONTINUOUS
  5
10B
 10
146.062426
 20
243.407952
 30
0.0
 11
146.107415
 21
243.736
 31
0.0
  0
LINE
  8
LC-005-002-----0
  6
CONTINUOUS
  5
10C
 10
138.734083
 20
243.736
 30
0.0
 11
141.41075
 21
229.34249
 31
0.0
  0
LINE
  8
LC-005-002-----0
  6
CONTINUOUS
  5
10D
 10
105.837834
 20
178.392357
 30
0.0
 11
106.579526
 21
171.081719
 31
0.0
  0
ARC
  8
LC-005-002-----0
  6
CONTINUOUS
  5
10E
 10
100.827178
 20
232.577196
 30
0.0
 40
25.0
 50
0.0
 51
16.260887
  0
ARC
  8
LC-005-002-----0
  6
CONTINUOUS
  5
10F
 10
100.827178
 20
232.577196
 30
0.0
 40
25.0
 50
345.107292
 51
0.0
  0
ARC
  8
LC-005-002-----0
  6
CONTINUOUS
  5
110
 10
167.657068
 20
177.877304
 30
0.0
 40
30.0
 50
173.043899
 51
197.740695
  0
LINE
  8
LC-005-002-----0
  6
CONTINUOUS
  5
111
 10
150.86856
 20
232.882398
 30
0.0
 11
151.073501
 21
232.193535
 31
0.0
  0
LINE
  8
LC-005-002-----0
  6
CONTINUOUS
  5
112
 10
105.852372
 20
210.276422
 30
0.0
 11
106.722914
 21
203.190444
 31
0.0
  0
ARC
  8
LC-005-002-----0
  6
CONTINUOUS
  5
113
 10
93.857477
 20
194.146304
 30
0.0
 40
20.0
 50
0.0
 51
13.445209
  0
ARC
  8
LC-005-002-----0
  6
CONTINUOUS
  5
114
 10
93.857477
 20
194.146304
 30
0.0
 40
20.0
 50
348.106907
 51
0.0
  0
LINE
  8
LC-005-002-----0
  6
CONTINUOUS
  5
115
 10
101.904963
 20
183.148403
 30
0.0
 11
101.307239
 21
189.736841
 31
0.0
  0
LINE
  8
LC-005-002-----0
  6
CONTINUOUS
  5
116
 10
140.079334
 20
203.783551
 30
0.0
 11
141.911349
 21
195.103097
 31
0.0
  0
LINE
  8
LC-005-002-----0
  6
CONTINUOUS
  5
117
 10
100.965664
 20
223.21127
 30
0.0
 11
101.610777
 21
226.244543
 31
0.0
  0
ARC
  8
LC-005-002-----0
  6
CONTINUOUS
  5
118
 10
137.551812
 20
204.912079
 30
0.0
 40
25.0
 50
170.178139
 51
193.445209
  0
LINE
  8
LC-005-002-----0
  6
CONTINUOUS
  5
119
 10
95.351853
 20
228.01241
 30
0.0
 11
95.736719
 21
222.27207
 31
0.0
  0
LINE
  8
LC-005-002-----0
  6
CONTINUOUS
  5
11A
 10
60.59936
 20
263.736
 30
0.0
 11
169.59936
 21
263.736
 31
0.0
  0
LINE
  8
LC-005-002-----0
  6
CONTINUOUS
  5
11B
 10
94.914253
 20
192.864351
 30
0.0
 11
94.610423
 21
186.166392
 31
0.0
  0
ARC
  8
LC-005-002-----0
  6
CONTINUOUS
  5
11C
 10
115.786779
 20
179.401729
 30
0.0
 40
10.0
 50
175.676517
 51
185.793051
  0
LINE
  8
LC-005-002-----0
  6
CONTINUOUS
  5
11D
 10
151.124262
 20
218.108715
 30
0.0
 11
150.887756
 21
217.292271
 31
0.0
  0
LINE
  8
LC-005-002-----0
  6
CONTINUOUS
  5
11E
 10
89.850849
 20
204.607601
 30
0.0
 11
89.850849
 21
209.609251
 31
0.0
  0
LINE
  8
LC-005-002-----0
  6
CONTINUOUS
  5
11F
 10
100.582844
 20
210.006793
 30
0.0
 11
100.74797
 21
221.277504
 31
0.0
  0
ARC
  8
LC-005-002-----0
  6
CONTINUOUS
  5
120
 10
92.477839
 20
233.398539
 30
0.0
 40
25.0
 50
0.0
 51
11.61947
  0
ARC
  8
LC-005-002-----0
  6
CONTINUOUS
  5
121
 10
92.477839
 20
233.398539
 30
0.0
 40
25.0
 50
357.369072
 51
0.0
  0
ARC
  8
LC-005-002-----0
  6
CONTINUOUS
  5
122
 10
159.648274
 20
207.913599
 30
0.0
 40
20.0
 50
168.037736
 51
191.917416
  0
LINE
  8
LC-005-002-----0
  6
CONTINUOUS
  5
123
 10
95.242932
 20
219.747876
 30
0.0
 11
93.641061
 21
216.459582
 31
0.0
  0
LINE
  8
LC-005-002-----0
  6
CONTINUOUS
  5
124
 10
169.59936
 20
148.736
 30
0.0
 11
60.59936
 21
148.736
 31
0.0
  0
ARC
  8
LC-005-002-----0
  6
CONTINUOUS
  5
125
 10
169.599375
 20
151.736015
 30
0.0
 40
3.0
 50
270.0
 51
0.0
  0
LINE
  8
LC-005-002-----0
  6
CONTINUOUS
  5
126
 10
93.205566
 20
213.439146
 30
0.0
 11
93.850849
 21
209.609251
 31
0.0
  0
LINE
  8
LC-005-002-----0
  6
CONTINUOUS
  5
127
 10
107.929955
 20
238.020988
 30
0.0
 11
108.237797
 21
230.843062
 31
0.0
  0
LINE
  8
LC-005-002-----0
  6
CONTINUOUS
  5
128
 10
112.947978
 20
231.935198
 30
0.0
 11
113.083063
 21
234.493197
 31
0.0
  0
LINE
  8
LC-005-002-----0
  6
CONTINUOUS
  5
129
 10
83.001041
 20
226.09271
 30
0.0
 11
84.257307
 21
221.88043
 31
0.0
  0
LINE
  8
LC-005-002-----0
  6
CONTINUOUS
  5
12A
 10
89.850849
 20
209.609251
 30
0.0
 11
89.205566
 21
213.439146
 31
0.0
  0
ARC
  8
LC-005-002-----0
  6
CONTINUOUS
  5
12B
 10
74.674427
 20
219.022451
 30
0.0
 40
10.0
 50
0.0
 51
16.606638
  0
ARC
  8
LC-005-002-----0
  6
CONTINUOUS
  5
12C
 10
74.674427
 20
219.022451
 30
0.0
 40
10.0
 50
344.966484
 51
0.0
  0
LINE
  8
LC-005-002-----0
  6
CONTINUOUS
  5
12D
 10
79.873556
 20
197.445817
 30
0.0
 11
79.33784
 21
199.380491
 31
0.0
  0
ARC
  8
LC-005-002-----0
  6
CONTINUOUS
  5
12E
 10
110.746912
 20
221.131025
 30
0.0
 40
10.0
 50
167.993304
 51
179.160623
  0
LINE
  8
LC-005-002-----0
  6
CONTINUOUS
  5
12F
 10
103.774788
 20
236.875974
 30
0.0
 11
103.07075
 21
239.363249
 31
0.0
  0
ARC
  8
LC-005-002-----0
  6
CONTINUOUS
  5
130
 10
123.111476
 20
225.064692
 30
0.0
 40
25.0
 50
0.0
 51
16.568075
  0
ARC
  8
LC-005-002-----0
  6
CONTINUOUS
  5
131
 10
123.111476
 20
225.064692
 30
0.0
 40
25.0
 50
343.844902
 51
0.0
  0
ARC
  8
LC-005-002-----0
  6
CONTINUOUS
  5
132
 10
153.133847
 20
219.674924
 30
0.0
 40
25.0
 50
165.107292
 51
195.47755
  0
ARC
  8
LC-005-002-----0
  6
CONTINUOUS
  5
133
 10
134.239614
 20
191.426787
 30
0.0
 40
10.0
 50
164.966484
 51
196.606638
  0
LINE
  8
LC-005-002-----0
  6
CONTINUOUS
 62
     2
  5
134
 10
77.419885
 20
283.932
 30
0.0
 11
92.419885
 21
283.932
 31
0.0
  0
LINE
  8
LC-005-002-----0
  6
CONTINUOUS
 62
     2
  5
135
 10
92.419885
 20
283.932
 30
0.0
 11
92.419885
 21
298.932
 31
0.0
  0
LINE
  8
LC-005-002-----0
  6
CONTINUOUS
 62
     2
  5
136
 10
77.419885
 20
298.932
 30
0.0
 11
92.419885
 21
298.932
 31
0.0
  0
LINE
  8
LC-005-002-----0
  6
CONTINUOUS
 62
     2
  5
137
 10
77.419885
 20
283.932
 30
0.0
 11
77.419885
 21
298.932
 31
0.0
  0
ENDSEC
  0
EOF
