  0
SECTION
  2
HEADER
  9
$ACADVER
  1
AC1009
  9
$INSBASE
 10
-286.325665
 20
5854.158748
 30
0.0
  9
$EXTMIN
 10
-286.325665
 20
5854.158748
 30
0.0
  9
$EXTMAX
 10
553.674335
 20
6448.158748
 30
0.0
  9
$LIMMIN
 10
-286.325665
 20
5854.158748
  9
$LIMMAX
 10
553.674335
 20
6448.158748
  9
$ORTHOMODE
 70
     0
  9
$REGENMODE
 70
     1
  9
$FILLMODE
 70
     1
  9
$QTEXTMODE
 70
     0
  9
$MIRRTEXT
 70
     1
  9
$DRAGMODE
 70
     2
  9
$LTSCALE
 40
2.0
  9
$OSMODE
 70
     0
  9
$ATTMODE
 70
     1
  9
$TEXTSIZE
 40
0.2
  9
$TRACEWID
 40
0.05
  9
$TEXTSTYLE
  7
STANDARD
  9
$CLAYER
  8
0
  9
$CELTYPE
  6
BYLAYER
  9
$CECOLOR
 62
     7
  9
$DIMSCALE
 40
2.0
  9
$DIMASZ
 40
3.5
  9
$DIMEXO
 40
0.0625
  9
$DIMDLI
 40
0.38
  9
$DIMRND
 40
0.0
  9
$DIMDLE
 40
0.0
  9
$DIMEXE
 40
0.18
  9
$DIMTP
 40
0.0
  9
$DIMTM
 40
0.0
  9
$DIMTXT
 40
3.5
  9
$DIMCEN
 40
0.09
  9
$DIMTSZ
 40
0.0
  9
$DIMTOL
 70
     0
  9
$DIMLIM
 70
     0
  9
$DIMTIH
 70
     1
  9
$DIMTOH
 70
     1
  9
$DIMSE1
 70
     0
  9
$DIMSE2
 70
     0
  9
$DIMTAD
 70
     1
  9
$DIMZIN
 70
     0
  9
$DIMBLK
  1

  9
$DIMASO
 70
     1
  9
$DIMSHO
 70
     1
  9
$DIMPOST
  1

  9
$DIMAPOST
  1

  9
$DIMALT
 70
     0
  9
$DIMALTD
 70
     2
  9
$DIMALTF
 40
25.4
  9
$DIMLFAC
 40
1.0
  9
$DIMTOFL
 70
     0
  9
$DIMTVP
 40
0.0
  9
$DIMTIX
 70
     0
  9
$DIMSOXD
 70
     0
  9
$DIMSAH
 70
     0
  9
$DIMBLK1
  1

  9
$DIMBLK2
  1

  9
$DIMSTYLE
  2
STANDARD
  9
$DIMCLRD
 70
     0
  9
$DIMCLRE
 70
     0
  9
$DIMCLRT
 70
     0
  9
$DIMTFAC
 40
1.0
  9
$DIMGAP
 40
0.09
  9
$LUNITS
 70
     2
  9
$LUPREC
 70
     2
  9
$AXISMODE
 70
     0
  9
$AXISUNIT
 10
0.0
 20
0.0
  9
$SKETCHINC
 40
0.1
  9
$FILLETRAD
 40
0.0
  9
$AUNITS
 70
     0
  9
$AUPREC
 70
     0
  9
$MENU
  1
acad
  9
$ELEVATION
 40
0.0
  9
$PELEVATION
 40
0.0
  9
$THICKNESS
 40
0.0
  9
$LIMCHECK
 70
     0
  9
$BLIPMODE
 70
     1
  9
$CHAMFERA
 40
0.0
  9
$CHAMFERB
 40
0.0
  9
$SKPOLY
 70
     0
  9
$TDCREATE
 40
0.000000000
  9
$TDUPDATE
 40
0.000000000
  9
$TDINDWG
 40
0.0000000000
  9
$TDUSRTIMER
 40
0.0000000000
  9
$USRTIMER
 70
     1
  9
$ANGBASE
 50
0.0
  9
$ANGDIR
 70
     0
  9
$PDMODE
 70
     0
  9
$PDSIZE
 40
0.0
  9
$PLINEWID
 40
0.0
  9
$COORDS
 70
     0
  9
$SPLFRAME
 70
     0
  9
$SPLINETYPE
 70
     6
  9
$SPLINESEGS
 70
     8
  9
$ATTDIA
 70
     0
  9
$ATTREQ
 70
     1
  9
$HANDLING
 70
     1
  9
$HANDSEED
  5
30D
  9
$SURFTAB1
 70
     6
  9
$SURFTAB2
 70
     6
  9
$SURFTYPE
 70
     6
  9
$SURFU
 70
     6
  9
$SURFV
 70
     6
  9
$UCSNAME
  2

  9
$UCSORG
 10
0.0
 20
0.0
 30
0.0
  9
$UCSXDIR
 10
1.0
 20
0.0
 30
0.0
  9
$UCSYDIR
 10
0.0
 20
1.0
 30
0.0
  9
$PUCSNAME
  2

  9
$PUCSORG
 10
0.0
 20
0.0
 30
0.0
  9
$PUCSXDIR
 10
1.0
 20
0.0
 30
0.0
  9
$PUCSYDIR
 10
0.0
 20
1.0
 30
0.0
  9
$USERI1
 70
     0
  9
$USERI2
 70
     0
  9
$USERI3
 70
     0
  9
$USERI4
 70
     0
  9
$USERI5
 70
     0
  9
$USERR1
 40
0.0
  9
$USERR2
 40
0.0
  9
$USERR3
 40
0.0
  9
$USERR4
 40
0.0
  9
$USERR5
 40
0.0
  9
$WORLDVIEW
 70
     1
  9
$SHADEDGE
 70
     3
  9
$SHADEDIF
 70
    70
  9
$TILEMODE
 70
     1
  9
$MAXACTVP
 70
    16
  9
$PINSBASE
 10
0.0
 20
0.0
 30
0.0
  9
$PLIMCHECK
 70
     0
  9
$PEXTMIN
 10
1.000000E+20
 20
1.000000E+20
 30
1.000000E+20
  9
$PEXTMAX
 10
-1.000000E+20
 20
-1.000000E+20
 30
-1.000000E+20
  9
$PLIMMIN
 10
-286.325665
 20
5854.158748
  9
$PLIMMAX
 10
553.674335
 20
6448.158748
  9
$UNITMODE
 70
     0
  9
$VISRETAIN
 70
     0
  9
$PLINEGEN
 70
     1
  9
$PSLTSCALE
 70
     0
  9
$TREEDEPTH
 70
  3020
  9
$DWGCODEPAGE
  3
dos850
  0
ENDSEC
  0
SECTION
  2
TABLES
  0
TABLE
  2
VPORT
 70
     1
  0
VPORT
  2
*ACTIVE
 70
     0
 10
0.0
 20
0.0
 11
1.0
 21
1.0
 12
420.0
 22
297.0
 13
0.0
 23
0.0
 14
1.0
 24
1.0
 15
0.0
 25
0.0
 16
0.0
 26
0.0
 36
1.0
 17
-286.325665
 27
5854.158748
 37
0.0
 40
594.0
 41
1.604229
 42
50.0
 43
0.0
 44
0.0
 50
0.0
 51
0.0
 71
     0
 72
   100
 73
     1
 74
     1
 75
     0
 76
     0
 77
     0
 78
     0
  0
ENDTAB
  0
TABLE
  2
LTYPE
 70
     2
  0
LTYPE
  2
CONTINUOUS
 70
    64
  3
Solid line
 72
    65
 73
     0
 40
0.0
  0
LTYPE
  2
DASHDOT
 70
    64
  3
__ . __ . __ . __ . __
 72
    65
 73
     4
 40
7.5
 49
5.0
 49
-1.25
 49
0.0
 49
-1.25
  0
ENDTAB
  0
TABLE
  2
LAYER
 70
    11
  0
LAYER
  2
0
 70
     0
 62
     7
  6
CONTINUOUS
  0
LAYER
  2
LC-INFO-1-2-MM-A3-0
 70
     1
 62
    -1
  6
CONTINUOUS
  0
LAYER
  2
LC-002-003-MTH-0
 70
     0
 62
     2
  6
CONTINUOUS
  0
LAYER
  2
LC-003-003-MTG-0
 70
     0
 62
     2
  6
CONTINUOUS
  0
LAYER
  2
LC-001-003-----0
 70
     0
 62
     2
  6
CONTINUOUS
  0
LAYER
  2
LC-007-005-----0
 70
     0
 62
     2
  6
CONTINUOUS
  0
LAYER
  2
LC-004-000-----0
 70
     0
 62
     7
  6
CONTINUOUS
  0
LAYER
  2
LC-008-000-----0
 70
     0
 62
     7
  6
CONTINUOUS
  0
LAYER
  2
LC-005-002-----0
 70
     0
 62
     2
  6
CONTINUOUS
  0
LAYER
  2
LC-006-002-RND-0
 70
     0
 62
     1
  6
CONTINUOUS
  0
LAYER
  2
LC-000
 70
     0
 62
     7
  6
CONTINUOUS
  0
ENDTAB
  0
TABLE
  2
STYLE
 70
     4
  0
STYLE
  2
STANDARD
 70
     0
 40
0.0
 41
1.0
 50
0.0
 71
     0
 42
0.0
  3
txt
  4

  0
STYLE
  2
LC-STANDARD
 70
    64
 40
0.0
 41
1.0
 50
0.0
 71
     0
 42
3.5
  3
MONOTXT
  4

  0
STYLE
  2
LC-TXTSTYLE-150-400-0-0-A2
 70
    64
 40
0.0
 41
1.0
 50
15.0
 71
     0
 42
3.5
  3
MONOTXT
  4

  0
STYLE
  2
LC-TXTSTYLE-150-400-0-0-D3
 70
    64
 40
0.0
 41
1.0
 50
15.0
 71
     0
 42
3.5
  3
LC-STANDARD
  4

  0
ENDTAB
  0
TABLE
  2
VIEW
 70
     0
  0
ENDTAB
  0
TABLE
  2
UCS
 70
     0
  0
ENDTAB
  0
TABLE
  2
APPID
 70
     1
  0
APPID
  2
ACAD
 70
     0
  0
ENDTAB
  0
TABLE
  2
DIMSTYLE
 70
     3
  0
DIMSTYLE
  2
STANDARD
 70
     0
  3

  4

  5

  6

  7

 40
1.0
 41
0.18
 42
0.0625
 43
0.38
 44
0.18
 45
0.0
 46
0.0
 47
0.0
 48
0.0
 71
     0
 72
     0
 73
     1
 74
     1
 75
     0
 76
     0
 77
     0
 78
     0
140
0.18
141
0.09
142
0.0
143
25.4
144
1.0
145
0.0
146
1.0
147
0.09
170
     0
171
     2
172
     0
173
     0
174
     0
175
     0
176
     0
177
     0
178
     0
  0
DIMSTYLE
  2
LC-STANDARD
 70
     0
  3

  4

  5

  6

  7

 40
1.0
 41
3.5
 42
0.0
 43
7.5
 44
1.8
 45
0.0
 46
0.0
 47
0.0
 48
0.0
 71
     0
 72
     0
 73
     0
 74
     0
 75
     0
 76
     0
 77
     1
 78
     8
140
3.5
141
0.0
142
0.0
143
25.4
144
1.0
145
0.0
146
0.71
147
1.5
170
     0
171
     2
172
     1
173
     0
174
     0
175
     0
176
     0
177
     0
178
     3
  0
DIMSTYLE
  2
LC-DIM-L-0140-02-02
 70
     0
  3

  4

  5

  6

  7

 40
2.0
 41
3.5
 42
0.0
 43
7.5
 44
1.8
 45
0.0
 46
0.0
 47
0.0
 48
0.0
 71
     0
 72
     0
 73
     0
 74
     0
 75
     0
 76
     0
 77
     1
 78
     8
140
14.0
141
0.0
142
0.0
143
25.4
144
1.0
145
0.0
146
0.71
147
1.5
170
     0
171
     2
172
     0
173
     0
174
     0
175
     0
176
     2
177
     2
178
     8
  0
ENDTAB
  0
ENDSEC
  0
SECTION
  2
BLOCKS
  0
BLOCK
  8
0
  5
23
  2
*D0
 70
    65
 10
0.0
 20
0.0
 30
0.0
  3
*D0
  0
LINE
  8
LC-002-003-MTH-0
  6
CONTINUOUS
  5
25
 10
-101.587979
 20
6027.418
 30
0.0
 11
-101.587979
 21
5941.6
 31
0.0
  0
LINE
  8
LC-002-003-MTH-0
  6
CONTINUOUS
  5
26
 10
43.412021
 20
6027.418
 30
0.0
 11
43.412021
 21
5941.6
 31
0.0
  0
LINE
  8
LC-003-003-MTG-0
  6
CONTINUOUS
  5
28
 10
-101.587979
 20
5958.4
 30
0.0
 11
43.412021
 21
5958.4
 31
0.0
  0
LINE
  8
LC-001-003-----0
  6
CONTINUOUS
  5
2A
 10
-73.827523
 20
5962.054733
 30
0.0
 11
-101.587979
 21
5958.4
 31
0.0
  0
LINE
  8
LC-001-003-----0
  6
CONTINUOUS
  5
2B
 10
-101.587979
 20
5958.4
 30
0.0
 11
-73.827523
 21
5954.745267
 31
0.0
  0
LINE
  8
LC-001-003-----0
  6
CONTINUOUS
  5
2C
 10
-73.827523
 20
5954.745267
 30
0.0
 11
-73.827523
 21
5962.054733
 31
0.0
  0
LINE
  8
LC-001-003-----0
  6
CONTINUOUS
  5
2D
 10
-73.765241
 20
5961.104503
 30
0.0
 11
-94.307979
 21
5958.4
 31
0.0
  0
LINE
  8
LC-001-003-----0
  6
CONTINUOUS
  5
2E
 10
-94.307979
 20
5958.4
 30
0.0
 11
-73.765241
 21
5955.695497
 31
0.0
  0
LINE
  8
LC-001-003-----0
  6
CONTINUOUS
  5
2F
 10
-73.70296
 20
5960.154272
 30
0.0
 11
-87.027979
 21
5958.4
 31
0.0
  0
LINE
  8
LC-001-003-----0
  6
CONTINUOUS
  5
30
 10
-87.027979
 20
5958.4
 30
0.0
 11
-73.70296
 21
5956.645728
 31
0.0
  0
LINE
  8
LC-001-003-----0
  6
CONTINUOUS
  5
31
 10
-73.640678
 20
5959.204041
 30
0.0
 11
-79.747979
 21
5958.4
 31
0.0
  0
LINE
  8
LC-001-003-----0
  6
CONTINUOUS
  5
32
 10
-79.747979
 20
5958.4
 30
0.0
 11
-73.640678
 21
5957.595959
 31
0.0
  0
LINE
  8
LC-001-003-----0
  6
CONTINUOUS
  5
33
 10
15.651565
 20
5954.745267
 30
0.0
 11
43.412021
 21
5958.4
 31
0.0
  0
LINE
  8
LC-001-003-----0
  6
CONTINUOUS
  5
34
 10
43.412021
 20
5958.4
 30
0.0
 11
15.651565
 21
5962.054733
 31
0.0
  0
LINE
  8
LC-001-003-----0
  6
CONTINUOUS
  5
35
 10
15.651565
 20
5962.054733
 30
0.0
 11
15.651565
 21
5954.745267
 31
0.0
  0
LINE
  8
LC-001-003-----0
  6
CONTINUOUS
  5
36
 10
15.589284
 20
5955.695497
 30
0.0
 11
36.132021
 21
5958.4
 31
0.0
  0
LINE
  8
LC-001-003-----0
  6
CONTINUOUS
  5
37
 10
36.132021
 20
5958.4
 30
0.0
 11
15.589284
 21
5961.104503
 31
0.0
  0
LINE
  8
LC-001-003-----0
  6
CONTINUOUS
  5
38
 10
15.527002
 20
5956.645728
 30
0.0
 11
28.852021
 21
5958.4
 31
0.0
  0
LINE
  8
LC-001-003-----0
  6
CONTINUOUS
  5
39
 10
28.852021
 20
5958.4
 30
0.0
 11
15.527002
 21
5960.154272
 31
0.0
  0
LINE
  8
LC-001-003-----0
  6
CONTINUOUS
  5
3A
 10
15.464721
 20
5957.595959
 30
0.0
 11
21.572021
 21
5958.4
 31
0.0
  0
LINE
  8
LC-001-003-----0
  6
CONTINUOUS
  5
3B
 10
21.572021
 20
5958.4
 30
0.0
 11
15.464721
 21
5959.204041
 31
0.0
  0
TEXT
  8
LC-001-003-----0
  6
CONTINUOUS
 62
     8
  5
3D
 10
-62.837457
 20
5966.227554
 30
0.0
 40
28.0
  1
Ø145
 41
0.9
 51
15.0
  7
LC-TXTSTYLE-150-400-0-0-D0
 72
     1
 11
-24.739819
 21
5966.227554
 31
0.0
  0
ENDBLK
  8
0
  5
3E
  0
BLOCK
  8
0
  5
40
  2
*D1
 70
    65
 10
0.0
 20
0.0
 30
0.0
  3
*D1
  0
LINE
  8
LC-002-003-MTH-0
  6
CONTINUOUS
  5
41
 10
-104.587979
 20
6221.418
 30
0.0
 11
-104.587979
 21
6249.6
 31
0.0
  0
LINE
  8
LC-002-003-MTH-0
  6
CONTINUOUS
  5
42
 10
46.412021
 20
6219.893208
 30
0.0
 11
46.412021
 21
6249.6
 31
0.0
  0
LINE
  8
LC-003-003-MTG-0
  6
CONTINUOUS
  5
43
 10
-104.587979
 20
6232.8
 30
0.0
 11
46.412021
 21
6232.8
 31
0.0
  0
LINE
  8
LC-001-003-----0
  6
CONTINUOUS
  5
44
 10
-76.827523
 20
6236.454733
 30
0.0
 11
-104.587979
 21
6232.8
 31
0.0
  0
LINE
  8
LC-001-003-----0
  6
CONTINUOUS
  5
45
 10
-104.587979
 20
6232.8
 30
0.0
 11
-76.827523
 21
6229.145267
 31
0.0
  0
LINE
  8
LC-001-003-----0
  6
CONTINUOUS
  5
46
 10
-76.827523
 20
6229.145267
 30
0.0
 11
-76.827523
 21
6236.454733
 31
0.0
  0
LINE
  8
LC-001-003-----0
  6
CONTINUOUS
  5
47
 10
-76.765241
 20
6235.504503
 30
0.0
 11
-97.307979
 21
6232.8
 31
0.0
  0
LINE
  8
LC-001-003-----0
  6
CONTINUOUS
  5
48
 10
-97.307979
 20
6232.8
 30
0.0
 11
-76.765241
 21
6230.095497
 31
0.0
  0
LINE
  8
LC-001-003-----0
  6
CONTINUOUS
  5
49
 10
-76.70296
 20
6234.554272
 30
0.0
 11
-90.027979
 21
6232.8
 31
0.0
  0
LINE
  8
LC-001-003-----0
  6
CONTINUOUS
  5
4A
 10
-90.027979
 20
6232.8
 30
0.0
 11
-76.70296
 21
6231.045728
 31
0.0
  0
LINE
  8
LC-001-003-----0
  6
CONTINUOUS
  5
4B
 10
-76.640678
 20
6233.604041
 30
0.0
 11
-82.747979
 21
6232.8
 31
0.0
  0
LINE
  8
LC-001-003-----0
  6
CONTINUOUS
  5
4C
 10
-82.747979
 20
6232.8
 30
0.0
 11
-76.640678
 21
6231.995959
 31
0.0
  0
LINE
  8
LC-001-003-----0
  6
CONTINUOUS
  5
4D
 10
18.651565
 20
6229.145267
 30
0.0
 11
46.412021
 21
6232.8
 31
0.0
  0
LINE
  8
LC-001-003-----0
  6
CONTINUOUS
  5
4E
 10
46.412021
 20
6232.8
 30
0.0
 11
18.651565
 21
6236.454733
 31
0.0
  0
LINE
  8
LC-001-003-----0
  6
CONTINUOUS
  5
4F
 10
18.651565
 20
6236.454733
 30
0.0
 11
18.651565
 21
6229.145267
 31
0.0
  0
LINE
  8
LC-001-003-----0
  6
CONTINUOUS
  5
50
 10
18.589284
 20
6230.095497
 30
0.0
 11
39.132021
 21
6232.8
 31
0.0
  0
LINE
  8
LC-001-003-----0
  6
CONTINUOUS
  5
51
 10
39.132021
 20
6232.8
 30
0.0
 11
18.589284
 21
6235.504503
 31
0.0
  0
LINE
  8
LC-001-003-----0
  6
CONTINUOUS
  5
52
 10
18.527002
 20
6231.045728
 30
0.0
 11
31.852021
 21
6232.8
 31
0.0
  0
LINE
  8
LC-001-003-----0
  6
CONTINUOUS
  5
53
 10
31.852021
 20
6232.8
 30
0.0
 11
18.527002
 21
6234.554272
 31
0.0
  0
LINE
  8
LC-001-003-----0
  6
CONTINUOUS
  5
54
 10
18.464721
 20
6231.995959
 30
0.0
 11
24.572021
 21
6232.8
 31
0.0
  0
LINE
  8
LC-001-003-----0
  6
CONTINUOUS
  5
55
 10
24.572021
 20
6232.8
 30
0.0
 11
18.464721
 21
6233.604041
 31
0.0
  0
TEXT
  8
LC-001-003-----0
  6
CONTINUOUS
 62
     8
  5
56
 10
-54.503598
 20
6240.627554
 30
0.0
 40
28.0
  1
150
 51
15.0
  7
LC-TXTSTYLE-150-400-0-0-D0
 72
     1
 11
-24.739819
 21
6240.627554
 31
0.0
  0
ENDBLK
  8
0
  5
57
  0
BLOCK
  8
0
  5
59
  2
*D2
 70
    65
 10
0.0
 20
0.0
 30
0.0
  3
*D2
  0
LINE
  8
LC-002-003-MTH-0
  6
CONTINUOUS
  5
5A
 10
-105.587979
 20
6208.918
 30
0.0
 11
-134.4
 21
6208.918
 31
0.0
  0
LINE
  8
LC-002-003-MTH-0
  6
CONTINUOUS
  5
5B
 10
-100.563187
 20
6223.918
 30
0.0
 11
-134.4
 21
6223.918
 31
0.0
  0
LINE
  8
LC-001-003-----0
  6
CONTINUOUS
  5
5C
 10
-113.945267
 20
6181.157544
 30
0.0
 11
-117.6
 21
6208.918
 31
0.0
  0
LINE
  8
LC-001-003-----0
  6
CONTINUOUS
  5
5D
 10
-117.6
 20
6208.918
 30
0.0
 11
-121.254733
 21
6181.157544
 31
0.0
  0
LINE
  8
LC-001-003-----0
  6
CONTINUOUS
  5
5E
 10
-121.254733
 20
6181.157544
 30
0.0
 11
-113.945267
 21
6181.157544
 31
0.0
  0
LINE
  8
LC-001-003-----0
  6
CONTINUOUS
  5
5F
 10
-114.895497
 20
6181.095262
 30
0.0
 11
-117.6
 21
6201.638
 31
0.0
  0
LINE
  8
LC-001-003-----0
  6
CONTINUOUS
  5
60
 10
-117.6
 20
6201.638
 30
0.0
 11
-120.304503
 21
6181.095262
 31
0.0
  0
LINE
  8
LC-001-003-----0
  6
CONTINUOUS
  5
61
 10
-115.845728
 20
6181.032981
 30
0.0
 11
-117.6
 21
6194.358
 31
0.0
  0
LINE
  8
LC-001-003-----0
  6
CONTINUOUS
  5
62
 10
-117.6
 20
6194.358
 30
0.0
 11
-119.354272
 21
6181.032981
 31
0.0
  0
LINE
  8
LC-001-003-----0
  6
CONTINUOUS
  5
63
 10
-116.795959
 20
6180.9707
 30
0.0
 11
-117.6
 21
6187.078
 31
0.0
  0
LINE
  8
LC-001-003-----0
  6
CONTINUOUS
  5
64
 10
-117.6
 20
6187.078
 30
0.0
 11
-118.404041
 21
6180.9707
 31
0.0
  0
LINE
  8
LC-001-003-----0
  6
CONTINUOUS
  5
65
 10
-121.254733
 20
6251.678456
 30
0.0
 11
-117.6
 21
6223.918
 31
0.0
  0
LINE
  8
LC-001-003-----0
  6
CONTINUOUS
  5
66
 10
-117.6
 20
6223.918
 30
0.0
 11
-113.945267
 21
6251.678456
 31
0.0
  0
LINE
  8
LC-001-003-----0
  6
CONTINUOUS
  5
67
 10
-113.945267
 20
6251.678456
 30
0.0
 11
-121.254733
 21
6251.678456
 31
0.0
  0
LINE
  8
LC-001-003-----0
  6
CONTINUOUS
  5
68
 10
-120.304503
 20
6251.740738
 30
0.0
 11
-117.6
 21
6231.198
 31
0.0
  0
LINE
  8
LC-001-003-----0
  6
CONTINUOUS
  5
69
 10
-117.6
 20
6231.198
 30
0.0
 11
-114.895497
 21
6251.740738
 31
0.0
  0
LINE
  8
LC-001-003-----0
  6
CONTINUOUS
  5
6A
 10
-119.354272
 20
6251.803019
 30
0.0
 11
-117.6
 21
6238.478
 31
0.0
  0
LINE
  8
LC-001-003-----0
  6
CONTINUOUS
  5
6B
 10
-117.6
 20
6238.478
 30
0.0
 11
-115.845728
 21
6251.803019
 31
0.0
  0
LINE
  8
LC-001-003-----0
  6
CONTINUOUS
  5
6C
 10
-118.404041
 20
6251.8653
 30
0.0
 11
-117.6
 21
6245.758
 31
0.0
  0
LINE
  8
LC-001-003-----0
  6
CONTINUOUS
  5
6D
 10
-117.6
 20
6245.758
 30
0.0
 11
-116.795959
 21
6251.8653
 31
0.0
  0
LINE
  8
LC-003-003-MTG-0
  6
CONTINUOUS
  5
6E
 10
-117.6
 20
6169.718
 30
0.0
 11
-117.6
 21
6307.2824
 31
0.0
  0
TEXT
  8
LC-001-003-----0
  6
CONTINUOUS
 62
     8
  5
6F
 10
-125.427554
 20
6266.34616
 30
0.0
 40
28.0
  1
15
 50
90.0
 51
15.0
  7
LC-TXTSTYLE-150-400-0-0-D0
  0
ENDBLK
  8
0
  5
70
  0
BLOCK
  8
0
  5
72
  2
BLK1
 70
    64
 10
0.0
 20
0.0
 30
0.0
  3
BLK1
  0
ENDBLK
  8
0
  5
73
  0
BLOCK
  8
0
  5
75
  2
BLK2
 70
    64
 10
0.0
 20
0.0
 30
0.0
  3
BLK2
  0
ENDBLK
  8
0
  5
76
  0
BLOCK
  8
0
  5
78
  2
BLK3
 70
    64
 10
0.0
 20
0.0
 30
0.0
  3
BLK3
  0
ENDBLK
  8
0
  5
79
  0
BLOCK
  8
0
  5
7B
  2
BLK4
 70
    64
 10
0.0
 20
0.0
 30
0.0
  3
BLK4
  0
ENDBLK
  8
0
  5
7C
  0
BLOCK
  8
0
  5
7E
  2
*X7
 70
    65
 10
-98.065979
 20
6218.918
 30
0.0
  3
*X7
  0
LINE
  8
LC-007-005-----0
  6
CONTINUOUS
  5
80
 10
38.804732
 20
6218.918
 30
0.0
 11
39.890021
 21
6220.003289
 31
0.0
  0
LINE
  8
LC-007-005-----0
  6
CONTINUOUS
  5
81
 10
38.390021
 20
6221.331716
 30
0.0
 11
39.615423
 21
6222.557117
 31
0.0
  0
LINE
  8
LC-007-005-----0
  6
CONTINUOUS
  5
82
 10
36.647878
 20
6222.418
 30
0.0
 11
38.057207
 21
6223.827328
 31
0.0
  0
LINE
  8
LC-007-005-----0
  6
CONTINUOUS
  5
83
 10
31.319451
 20
6219.918
 30
0.0
 11
31.890021
 21
6220.48857
 31
0.0
  0
LINE
  8
LC-007-005-----0
  6
CONTINUOUS
  5
84
 10
33.819451
 20
6222.418
 30
0.0
 11
35.319451
 21
6223.918
 31
0.0
  0
LINE
  8
LC-007-005-----0
  6
CONTINUOUS
  5
85
 10
30.428617
 20
6221.855593
 30
0.0
 11
32.452429
 21
6223.879405
 31
0.0
  0
LINE
  8
LC-007-005-----0
  6
CONTINUOUS
  5
86
 10
22.83417
 20
6219.918
 30
0.0
 11
23.390021
 21
6220.473852
 31
0.0
  0
LINE
  8
LC-007-005-----0
  6
CONTINUOUS
  5
87
 10
21.834452
 20
6221.74671
 30
0.0
 11
22.938635
 21
6222.850893
 31
0.0
  0
LINE
  8
LC-007-005-----0
  6
CONTINUOUS
  5
88
 10
19.677315
 20
6222.418
 30
0.0
 11
21.16243
 21
6223.903114
 31
0.0
  0
LINE
  8
LC-007-005-----0
  6
CONTINUOUS
  5
89
 10
14.390021
 20
6219.959133
 30
0.0
 11
15.890904
 21
6221.460016
 31
0.0
  0
LINE
  8
LC-007-005-----0
  6
CONTINUOUS
  5
8A
 10
16.848005
 20
6222.417117
 30
0.0
 11
18.348888
 21
6223.918
 31
0.0
  0
LINE
  8
LC-007-005-----0
  6
CONTINUOUS
  5
8B
 10
5.890021
 20
6219.944414
 30
0.0
 11
7.389883
 21
6221.444276
 31
0.0
  0
LINE
  8
LC-007-005-----0
  6
CONTINUOUS
  5
8C
 10
5.397087
 20
6222.279907
 30
0.0
 11
6.471442
 21
6223.354262
 31
0.0
  0
LINE
  8
LC-007-005-----0
  6
CONTINUOUS
  5
8D
 10
2.706753
 20
6222.418
 30
0.0
 11
4.206753
 21
6223.918
 31
0.0
  0
LINE
  8
LC-007-005-----0
  6
CONTINUOUS
  5
8E
 10
-1.609979
 20
6220.929696
 30
0.0
 11
1.378326
 21
6223.918
 31
0.0
  0
LINE
  8
LC-007-005-----0
  6
CONTINUOUS
  5
8F
 10
-10.109979
 20
6220.914977
 30
0.0
 11
-8.758395
 21
6222.266561
 31
0.0
  0
LINE
  8
LC-007-005-----0
  6
CONTINUOUS
  5
90
 10
-11.435383
 20
6222.418
 30
0.0
 11
-10.133832
 21
6223.719551
 31
0.0
  0
LINE
  8
LC-007-005-----0
  6
CONTINUOUS
  5
91
 10
-14.26381
 20
6222.418
 30
0.0
 11
-12.76381
 21
6223.918
 31
0.0
  0
LINE
  8
LC-007-005-----0
  6
CONTINUOUS
  5
92
 10
-17.092237
 20
6222.418
 30
0.0
 11
-15.592237
 21
6223.918
 31
0.0
  0
LINE
  8
LC-007-005-----0
  6
CONTINUOUS
  5
93
 10
-19.920664
 20
6222.418
 30
0.0
 11
-18.420664
 21
6223.918
 31
0.0
  0
LINE
  8
LC-007-005-----0
  6
CONTINUOUS
  5
94
 10
-22.749091
 20
6222.418
 30
0.0
 11
-21.249091
 21
6223.918
 31
0.0
  0
LINE
  8
LC-007-005-----0
  6
CONTINUOUS
  5
95
 10
-25.577519
 20
6222.418
 30
0.0
 11
-24.077519
 21
6223.918
 31
0.0
  0
LINE
  8
LC-007-005-----0
  6
CONTINUOUS
  5
96
 10
-28.405946
 20
6222.418
 30
0.0
 11
-26.905946
 21
6223.918
 31
0.0
  0
LINE
  8
LC-007-005-----0
  6
CONTINUOUS
  5
97
 10
-31.234373
 20
6222.418
 30
0.0
 11
-29.734373
 21
6223.918
 31
0.0
  0
LINE
  8
LC-007-005-----0
  6
CONTINUOUS
  5
98
 10
-34.0628
 20
6222.418
 30
0.0
 11
-32.5628
 21
6223.918
 31
0.0
  0
LINE
  8
LC-007-005-----0
  6
CONTINUOUS
  5
99
 10
-36.891227
 20
6222.418
 30
0.0
 11
-35.391227
 21
6223.918
 31
0.0
  0
LINE
  8
LC-007-005-----0
  6
CONTINUOUS
  5
9A
 10
-39.719654
 20
6222.418
 30
0.0
 11
-38.219654
 21
6223.918
 31
0.0
  0
LINE
  8
LC-007-005-----0
  6
CONTINUOUS
  5
9B
 10
-42.548081
 20
6222.418
 30
0.0
 11
-41.048081
 21
6223.918
 31
0.0
  0
LINE
  8
LC-007-005-----0
  6
CONTINUOUS
  5
9C
 10
-45.376508
 20
6222.418
 30
0.0
 11
-43.876508
 21
6223.918
 31
0.0
  0
LINE
  8
LC-007-005-----0
  6
CONTINUOUS
  5
9D
 10
-49.565979
 20
6221.056957
 30
0.0
 11
-46.704936
 21
6223.918
 31
0.0
  0
LINE
  8
LC-007-005-----0
  6
CONTINUOUS
  5
9E
 10
-58.065979
 20
6221.042238
 30
0.0
 11
-56.749657
 21
6222.35856
 31
0.0
  0
LINE
  8
LC-007-005-----0
  6
CONTINUOUS
  5
9F
 10
-59.518644
 20
6222.418
 30
0.0
 11
-58.180654
 21
6223.75599
 31
0.0
  0
LINE
  8
LC-007-005-----0
  6
CONTINUOUS
  5
A0
 10
-64.847071
 20
6219.918
 30
0.0
 11
-64.065979
 21
6220.699092
 31
0.0
  0
LINE
  8
LC-007-005-----0
  6
CONTINUOUS
  5
A1
 10
-62.347071
 20
6222.418
 30
0.0
 11
-60.847071
 21
6223.918
 31
0.0
  0
LINE
  8
LC-007-005-----0
  6
CONTINUOUS
  5
A2
 10
-65.462001
 20
6222.131498
 30
0.0
 11
-63.779476
 21
6223.814022
 31
0.0
  0
LINE
  8
LC-007-005-----0
  6
CONTINUOUS
  5
A3
 10
-73.332353
 20
6219.918
 30
0.0
 11
-72.565979
 21
6220.684374
 31
0.0
  0
LINE
  8
LC-007-005-----0
  6
CONTINUOUS
  5
A4
 10
-74.185918
 20
6221.892861
 30
0.0
 11
-73.10726
 21
6222.971519
 31
0.0
  0
LINE
  8
LC-007-005-----0
  6
CONTINUOUS
  5
A5
 10
-76.489207
 20
6222.418
 30
0.0
 11
-74.990351
 21
6223.916856
 31
0.0
  0
LINE
  8
LC-007-005-----0
  6
CONTINUOUS
  5
A6
 10
-81.565979
 20
6220.169655
 30
0.0
 11
-80.020957
 21
6221.714677
 31
0.0
  0
LINE
  8
LC-007-005-----0
  6
CONTINUOUS
  5
A7
 10
-79.362656
 20
6222.372978
 30
0.0
 11
-77.817634
 21
6223.918
 31
0.0
  0
LINE
  8
LC-007-005-----0
  6
CONTINUOUS
  5
A8
 10
-90.065979
 20
6220.154937
 30
0.0
 11
-88.576273
 21
6221.644642
 31
0.0
  0
LINE
  8
LC-007-005-----0
  6
CONTINUOUS
  5
A9
 10
-90.700516
 20
6222.348826
 30
0.0
 11
-89.603642
 21
6223.445701
 31
0.0
  0
LINE
  8
LC-007-005-----0
  6
CONTINUOUS
  5
AA
 10
-96.95977
 20
6218.918
 30
0.0
 11
-96.565979
 21
6219.311791
 31
0.0
  0
LINE
  8
LC-007-005-----0
  6
CONTINUOUS
  5
AB
 10
-93.45977
 20
6222.418
 30
0.0
 11
-91.95977
 21
6223.918
 31
0.0
  0
LINE
  8
LC-007-005-----0
  6
CONTINUOUS
  5
AC
 10
-98.065979
 20
6220.640218
 30
0.0
 11
-94.788197
 21
6223.918
 31
0.0
  0
ENDBLK
  8
0
  5
AD
  0
BLOCK
  8
0
  5
AF
  2
BLK5
 70
    64
 10
0.0
 20
0.0
 30
0.0
  3
BLK5
  0
ENDBLK
  8
0
  5
B0
  0
BLOCK
  8
0
  5
B2
  2
BLK6
 70
    64
 10
0.0
 20
0.0
 30
0.0
  3
BLK6
  0
ENDBLK
  8
0
  5
B3
  0
BLOCK
  8
0
  5
B5
  2
BLK7
 70
    64
 10
0.0
 20
0.0
 30
0.0
  3
BLK7
  0
ENDBLK
  8
0
  5
B6
  0
BLOCK
  8
0
  5
B8
  2
BLK8
 70
    64
 10
0.0
 20
0.0
 30
0.0
  3
BLK8
  0
ENDBLK
  8
0
  5
B9
  0
BLOCK
  8
0
  5
BB
  2
BLK9
 70
    64
 10
0.0
 20
0.0
 30
0.0
  3
BLK9
  0
ENDBLK
  8
0
  5
BC
  0
BLOCK
  8
0
  5
BE
  2
BLK10
 70
    64
 10
0.0
 20
0.0
 30
0.0
  3
BLK10
  0
ENDBLK
  8
0
  5
BF
  0
BLOCK
  8
0
  5
C1
  2
BLK11
 70
    64
 10
0.0
 20
0.0
 30
0.0
  3
BLK11
  0
ENDBLK
  8
0
  5
C2
  0
BLOCK
  8
0
  5
C4
  2
BLK12
 70
    64
 10
0.0
 20
0.0
 30
0.0
  3
BLK12
  0
ENDBLK
  8
0
  5
C5
  0
BLOCK
  8
0
  5
C7
  2
BLK13
 70
    64
 10
0.0
 20
0.0
 30
0.0
  3
BLK13
  0
ENDBLK
  8
0
  5
C8
  0
BLOCK
  8
0
  5
CA
  2
BLK14
 70
    64
 10
0.0
 20
0.0
 30
0.0
  3
BLK14
  0
ENDBLK
  8
0
  5
CB
  0
BLOCK
  8
0
  5
CD
  2
*X18
 70
    65
 10
-98.587979
 20
6021.418
 30
0.0
  3
*X18
  0
LINE
  8
LC-007-005-----0
  6
CONTINUOUS
  5
CE
 10
-31.416047
 20
6021.418
 30
0.0
 11
-29.087979
 21
6023.746068
 31
0.0
  0
LINE
  8
LC-007-005-----0
  6
CONTINUOUS
  5
CF
 10
-37.072901
 20
6021.418
 30
0.0
 11
-29.087979
 21
6029.402922
 31
0.0
  0
LINE
  8
LC-007-005-----0
  6
CONTINUOUS
  5
D0
 10
-42.729755
 20
6021.418
 30
0.0
 11
-29.087979
 21
6035.059777
 31
0.0
  0
LINE
  8
LC-007-005-----0
  6
CONTINUOUS
  5
D1
 10
-48.38661
 20
6021.418
 30
0.0
 11
-29.087979
 21
6040.716631
 31
0.0
  0
LINE
  8
LC-007-005-----0
  6
CONTINUOUS
  5
D2
 10
-54.043464
 20
6021.418
 30
0.0
 11
-31.043464
 21
6044.418
 31
0.0
  0
LINE
  8
LC-007-005-----0
  6
CONTINUOUS
  5
D3
 10
-59.700318
 20
6021.418
 30
0.0
 11
-36.700318
 21
6044.418
 31
0.0
  0
LINE
  8
LC-007-005-----0
  6
CONTINUOUS
  5
D4
 10
-65.357172
 20
6021.418
 30
0.0
 11
-42.357172
 21
6044.418
 31
0.0
  0
LINE
  8
LC-007-005-----0
  6
CONTINUOUS
  5
D5
 10
-71.014027
 20
6021.418
 30
0.0
 11
-48.014027
 21
6044.418
 31
0.0
  0
LINE
  8
LC-007-005-----0
  6
CONTINUOUS
  5
D6
 10
-76.670881
 20
6021.418
 30
0.0
 11
-53.670881
 21
6044.418
 31
0.0
  0
LINE
  8
LC-007-005-----0
  6
CONTINUOUS
  5
D7
 10
-82.327735
 20
6021.418
 30
0.0
 11
-59.327735
 21
6044.418
 31
0.0
  0
LINE
  8
LC-007-005-----0
  6
CONTINUOUS
  5
D8
 10
-87.984589
 20
6021.418
 30
0.0
 11
-64.984589
 21
6044.418
 31
0.0
  0
LINE
  8
LC-007-005-----0
  6
CONTINUOUS
  5
D9
 10
-93.641444
 20
6021.418
 30
0.0
 11
-70.641444
 21
6044.418
 31
0.0
  0
LINE
  8
LC-007-005-----0
  6
CONTINUOUS
  5
DA
 10
-98.587979
 20
6022.128319
 30
0.0
 11
-76.298298
 21
6044.418
 31
0.0
  0
LINE
  8
LC-007-005-----0
  6
CONTINUOUS
  5
DB
 10
-98.587979
 20
6027.785173
 30
0.0
 11
-81.955152
 21
6044.418
 31
0.0
  0
LINE
  8
LC-007-005-----0
  6
CONTINUOUS
  5
DC
 10
-98.587979
 20
6033.442028
 30
0.0
 11
-87.612006
 21
6044.418
 31
0.0
  0
LINE
  8
LC-007-005-----0
  6
CONTINUOUS
  5
DD
 10
-98.587979
 20
6039.098882
 30
0.0
 11
-93.268861
 21
6044.418
 31
0.0
  0
LINE
  8
LC-007-005-----0
  6
CONTINUOUS
  5
DE
 10
-29.087979
 20
6042.324046
 30
0.0
 11
-31.181933
 21
6044.418
 31
0.0
  0
LINE
  8
LC-007-005-----0
  6
CONTINUOUS
  5
DF
 10
-29.087979
 20
6036.667192
 30
0.0
 11
-36.838787
 21
6044.418
 31
0.0
  0
LINE
  8
LC-007-005-----0
  6
CONTINUOUS
  5
E0
 10
-29.087979
 20
6031.010338
 30
0.0
 11
-42.495641
 21
6044.418
 31
0.0
  0
LINE
  8
LC-007-005-----0
  6
CONTINUOUS
  5
E1
 10
-29.087979
 20
6025.353483
 30
0.0
 11
-48.152496
 21
6044.418
 31
0.0
  0
LINE
  8
LC-007-005-----0
  6
CONTINUOUS
  5
E2
 10
-30.80935
 20
6021.418
 30
0.0
 11
-53.80935
 21
6044.418
 31
0.0
  0
LINE
  8
LC-007-005-----0
  6
CONTINUOUS
  5
E3
 10
-36.466204
 20
6021.418
 30
0.0
 11
-59.466204
 21
6044.418
 31
0.0
  0
LINE
  8
LC-007-005-----0
  6
CONTINUOUS
  5
E4
 10
-42.123058
 20
6021.418
 30
0.0
 11
-65.123058
 21
6044.418
 31
0.0
  0
LINE
  8
LC-007-005-----0
  6
CONTINUOUS
  5
E5
 10
-47.779913
 20
6021.418
 30
0.0
 11
-70.779913
 21
6044.418
 31
0.0
  0
LINE
  8
LC-007-005-----0
  6
CONTINUOUS
  5
E6
 10
-53.436767
 20
6021.418
 30
0.0
 11
-76.436767
 21
6044.418
 31
0.0
  0
LINE
  8
LC-007-005-----0
  6
CONTINUOUS
  5
E7
 10
-59.093621
 20
6021.418
 30
0.0
 11
-82.093621
 21
6044.418
 31
0.0
  0
LINE
  8
LC-007-005-----0
  6
CONTINUOUS
  5
E8
 10
-64.750475
 20
6021.418
 30
0.0
 11
-87.750475
 21
6044.418
 31
0.0
  0
LINE
  8
LC-007-005-----0
  6
CONTINUOUS
  5
E9
 10
-70.40733
 20
6021.418
 30
0.0
 11
-93.40733
 21
6044.418
 31
0.0
  0
LINE
  8
LC-007-005-----0
  6
CONTINUOUS
  5
EA
 10
-76.064184
 20
6021.418
 30
0.0
 11
-98.587979
 21
6043.941795
 31
0.0
  0
LINE
  8
LC-007-005-----0
  6
CONTINUOUS
  5
EB
 10
-81.721038
 20
6021.418
 30
0.0
 11
-98.587979
 21
6038.284941
 31
0.0
  0
LINE
  8
LC-007-005-----0
  6
CONTINUOUS
  5
EC
 10
-87.377892
 20
6021.418
 30
0.0
 11
-98.587979
 21
6032.628087
 31
0.0
  0
LINE
  8
LC-007-005-----0
  6
CONTINUOUS
  5
ED
 10
-93.034747
 20
6021.418
 30
0.0
 11
-98.587979
 21
6026.971232
 31
0.0
  0
ENDBLK
  8
0
  5
EE
  0
BLOCK
  8
0
  5
F0
  2
*X19
 70
    65
 10
-29.087979
 20
6021.418
 30
0.0
  3
*X19
  0
LINE
  8
LC-007-005-----0
  6
CONTINUOUS
  5
F1
 10
36.466204
 20
6021.418
 30
0.0
 11
40.412021
 21
6025.363817
 31
0.0
  0
LINE
  8
LC-007-005-----0
  6
CONTINUOUS
  5
F2
 10
30.80935
 20
6021.418
 30
0.0
 11
40.412021
 21
6031.020671
 31
0.0
  0
LINE
  8
LC-007-005-----0
  6
CONTINUOUS
  5
F3
 10
25.152496
 20
6021.418
 30
0.0
 11
40.412021
 21
6036.677526
 31
0.0
  0
LINE
  8
LC-007-005-----0
  6
CONTINUOUS
  5
F4
 10
19.495641
 20
6021.418
 30
0.0
 11
40.412021
 21
6042.33438
 31
0.0
  0
LINE
  8
LC-007-005-----0
  6
CONTINUOUS
  5
F5
 10
13.838787
 20
6021.418
 30
0.0
 11
36.838787
 21
6044.418
 31
0.0
  0
LINE
  8
LC-007-005-----0
  6
CONTINUOUS
  5
F6
 10
8.181933
 20
6021.418
 30
0.0
 11
31.181933
 21
6044.418
 31
0.0
  0
LINE
  8
LC-007-005-----0
  6
CONTINUOUS
  5
F7
 10
2.525079
 20
6021.418
 30
0.0
 11
25.525079
 21
6044.418
 31
0.0
  0
LINE
  8
LC-007-005-----0
  6
CONTINUOUS
  5
F8
 10
-3.131776
 20
6021.418
 30
0.0
 11
19.868224
 21
6044.418
 31
0.0
  0
LINE
  8
LC-007-005-----0
  6
CONTINUOUS
  5
F9
 10
-8.78863
 20
6021.418
 30
0.0
 11
14.21137
 21
6044.418
 31
0.0
  0
LINE
  8
LC-007-005-----0
  6
CONTINUOUS
  5
FA
 10
-14.445484
 20
6021.418
 30
0.0
 11
8.554516
 21
6044.418
 31
0.0
  0
LINE
  8
LC-007-005-----0
  6
CONTINUOUS
  5
FB
 10
-20.102338
 20
6021.418
 30
0.0
 11
2.897662
 21
6044.418
 31
0.0
  0
LINE
  8
LC-007-005-----0
  6
CONTINUOUS
  5
FC
 10
-25.759193
 20
6021.418
 30
0.0
 11
-2.759193
 21
6044.418
 31
0.0
  0
LINE
  8
LC-007-005-----0
  6
CONTINUOUS
  5
FD
 10
-29.087979
 20
6023.746068
 30
0.0
 11
-8.416047
 21
6044.418
 31
0.0
  0
LINE
  8
LC-007-005-----0
  6
CONTINUOUS
  5
FE
 10
-29.087979
 20
6029.402922
 30
0.0
 11
-14.072901
 21
6044.418
 31
0.0
  0
LINE
  8
LC-007-005-----0
  6
CONTINUOUS
  5
FF
 10
-29.087979
 20
6035.059777
 30
0.0
 11
-19.729755
 21
6044.418
 31
0.0
  0
LINE
  8
LC-007-005-----0
  6
CONTINUOUS
  5
100
 10
-29.087979
 20
6040.716631
 30
0.0
 11
-25.38661
 21
6044.418
 31
0.0
  0
LINE
  8
LC-007-005-----0
  6
CONTINUOUS
  5
101
 10
40.412021
 20
6040.706297
 30
0.0
 11
36.700318
 21
6044.418
 31
0.0
  0
LINE
  8
LC-007-005-----0
  6
CONTINUOUS
  5
102
 10
40.412021
 20
6035.049443
 30
0.0
 11
31.043464
 21
6044.418
 31
0.0
  0
LINE
  8
LC-007-005-----0
  6
CONTINUOUS
  5
103
 10
40.412021
 20
6029.392588
 30
0.0
 11
25.38661
 21
6044.418
 31
0.0
  0
LINE
  8
LC-007-005-----0
  6
CONTINUOUS
  5
104
 10
40.412021
 20
6023.735734
 30
0.0
 11
19.729755
 21
6044.418
 31
0.0
  0
LINE
  8
LC-007-005-----0
  6
CONTINUOUS
  5
105
 10
37.072901
 20
6021.418
 30
0.0
 11
14.072901
 21
6044.418
 31
0.0
  0
LINE
  8
LC-007-005-----0
  6
CONTINUOUS
  5
106
 10
31.416047
 20
6021.418
 30
0.0
 11
8.416047
 21
6044.418
 31
0.0
  0
LINE
  8
LC-007-005-----0
  6
CONTINUOUS
  5
107
 10
25.759193
 20
6021.418
 30
0.0
 11
2.759193
 21
6044.418
 31
0.0
  0
LINE
  8
LC-007-005-----0
  6
CONTINUOUS
  5
108
 10
20.102338
 20
6021.418
 30
0.0
 11
-2.897662
 21
6044.418
 31
0.0
  0
LINE
  8
LC-007-005-----0
  6
CONTINUOUS
  5
109
 10
14.445484
 20
6021.418
 30
0.0
 11
-8.554516
 21
6044.418
 31
0.0
  0
LINE
  8
LC-007-005-----0
  6
CONTINUOUS
  5
10A
 10
8.78863
 20
6021.418
 30
0.0
 11
-14.21137
 21
6044.418
 31
0.0
  0
LINE
  8
LC-007-005-----0
  6
CONTINUOUS
  5
10B
 10
3.131776
 20
6021.418
 30
0.0
 11
-19.868224
 21
6044.418
 31
0.0
  0
LINE
  8
LC-007-005-----0
  6
CONTINUOUS
  5
10C
 10
-2.525079
 20
6021.418
 30
0.0
 11
-25.525079
 21
6044.418
 31
0.0
  0
LINE
  8
LC-007-005-----0
  6
CONTINUOUS
  5
10D
 10
-8.181933
 20
6021.418
 30
0.0
 11
-29.087979
 21
6042.324046
 31
0.0
  0
LINE
  8
LC-007-005-----0
  6
CONTINUOUS
  5
10E
 10
-13.838787
 20
6021.418
 30
0.0
 11
-29.087979
 21
6036.667192
 31
0.0
  0
LINE
  8
LC-007-005-----0
  6
CONTINUOUS
  5
10F
 10
-19.495641
 20
6021.418
 30
0.0
 11
-29.087979
 21
6031.010338
 31
0.0
  0
LINE
  8
LC-007-005-----0
  6
CONTINUOUS
  5
110
 10
-25.152496
 20
6021.418
 30
0.0
 11
-29.087979
 21
6025.353483
 31
0.0
  0
ENDBLK
  8
0
  5
111
  0
BLOCK
  8
0
  5
113
  2
*D20
 70
    65
 10
0.0
 20
0.0
 30
0.0
  3
*D20
  0
LINE
  8
LC-002-003-MTH-0
  6
CONTINUOUS
  5
114
 10
40.412021
 20
6021.418
 30
0.0
 11
95.2
 21
6021.418
 31
0.0
  0
LINE
  8
LC-002-003-MTH-0
  6
CONTINUOUS
  5
115
 10
40.412021
 20
6044.418
 30
0.0
 11
95.2
 21
6044.418
 31
0.0
  0
LINE
  8
LC-001-003-----0
  6
CONTINUOUS
  5
116
 10
82.054733
 20
5993.657544
 30
0.0
 11
78.4
 21
6021.418
 31
0.0
  0
LINE
  8
LC-001-003-----0
  6
CONTINUOUS
  5
117
 10
78.4
 20
6021.418
 30
0.0
 11
74.745267
 21
5993.657544
 31
0.0
  0
LINE
  8
LC-001-003-----0
  6
CONTINUOUS
  5
118
 10
74.745267
 20
5993.657544
 30
0.0
 11
82.054733
 21
5993.657544
 31
0.0
  0
LINE
  8
LC-001-003-----0
  6
CONTINUOUS
  5
119
 10
81.104503
 20
5993.595262
 30
0.0
 11
78.4
 21
6014.138
 31
0.0
  0
LINE
  8
LC-001-003-----0
  6
CONTINUOUS
  5
11A
 10
78.4
 20
6014.138
 30
0.0
 11
75.695497
 21
5993.595262
 31
0.0
  0
LINE
  8
LC-001-003-----0
  6
CONTINUOUS
  5
11B
 10
80.154272
 20
5993.532981
 30
0.0
 11
78.4
 21
6006.858
 31
0.0
  0
LINE
  8
LC-001-003-----0
  6
CONTINUOUS
  5
11C
 10
78.4
 20
6006.858
 30
0.0
 11
76.645728
 21
5993.532981
 31
0.0
  0
LINE
  8
LC-001-003-----0
  6
CONTINUOUS
  5
11D
 10
79.204041
 20
5993.4707
 30
0.0
 11
78.4
 21
5999.578
 31
0.0
  0
LINE
  8
LC-001-003-----0
  6
CONTINUOUS
  5
11E
 10
78.4
 20
5999.578
 30
0.0
 11
77.595959
 21
5993.4707
 31
0.0
  0
LINE
  8
LC-001-003-----0
  6
CONTINUOUS
  5
11F
 10
74.745267
 20
6072.178456
 30
0.0
 11
78.4
 21
6044.418
 31
0.0
  0
LINE
  8
LC-001-003-----0
  6
CONTINUOUS
  5
120
 10
78.4
 20
6044.418
 30
0.0
 11
82.054733
 21
6072.178456
 31
0.0
  0
LINE
  8
LC-001-003-----0
  6
CONTINUOUS
  5
121
 10
82.054733
 20
6072.178456
 30
0.0
 11
74.745267
 21
6072.178456
 31
0.0
  0
LINE
  8
LC-001-003-----0
  6
CONTINUOUS
  5
122
 10
75.695497
 20
6072.240738
 30
0.0
 11
78.4
 21
6051.698
 31
0.0
  0
LINE
  8
LC-001-003-----0
  6
CONTINUOUS
  5
123
 10
78.4
 20
6051.698
 30
0.0
 11
81.104503
 21
6072.240738
 31
0.0
  0
LINE
  8
LC-001-003-----0
  6
CONTINUOUS
  5
124
 10
76.645728
 20
6072.303019
 30
0.0
 11
78.4
 21
6058.978
 31
0.0
  0
LINE
  8
LC-001-003-----0
  6
CONTINUOUS
  5
125
 10
78.4
 20
6058.978
 30
0.0
 11
80.154272
 21
6072.303019
 31
0.0
  0
LINE
  8
LC-001-003-----0
  6
CONTINUOUS
  5
126
 10
77.595959
 20
6072.3653
 30
0.0
 11
78.4
 21
6066.258
 31
0.0
  0
LINE
  8
LC-001-003-----0
  6
CONTINUOUS
  5
127
 10
78.4
 20
6066.258
 30
0.0
 11
79.204041
 21
6072.3653
 31
0.0
  0
LINE
  8
LC-003-003-MTG-0
  6
CONTINUOUS
  5
128
 10
78.4
 20
5982.218
 30
0.0
 11
78.4
 21
6127.7824
 31
0.0
  0
TEXT
  8
LC-001-003-----0
  6
CONTINUOUS
 62
     8
  5
129
 10
73.372446
 20
6086.84616
 30
0.0
 40
28.0
  1
23
 50
90.0
 51
15.0
  7
LC-TXTSTYLE-150-400-0-0-D0
  0
ENDBLK
  8
0
  5
12A
  0
BLOCK
  8
0
  5
12C
  2
*D21
 70
    65
 10
0.0
 20
0.0
 30
0.0
  3
*D21
  0
LINE
  8
LC-002-003-MTH-0
  6
CONTINUOUS
  5
12D
 10
40.412021
 20
6044.418
 30
0.0
 11
134.4
 21
6044.418
 31
0.0
  0
LINE
  8
LC-002-003-MTH-0
  6
CONTINUOUS
  5
12E
 10
42.387229
 20
6223.918
 30
0.0
 11
134.4
 21
6223.918
 31
0.0
  0
LINE
  8
LC-003-003-MTG-0
  6
CONTINUOUS
  5
12F
 10
117.6
 20
6044.418
 30
0.0
 11
117.6
 21
6223.918
 31
0.0
  0
LINE
  8
LC-001-003-----0
  6
CONTINUOUS
  5
130
 10
113.945267
 20
6072.178456
 30
0.0
 11
117.6
 21
6044.418
 31
0.0
  0
LINE
  8
LC-001-003-----0
  6
CONTINUOUS
  5
131
 10
117.6
 20
6044.418
 30
0.0
 11
121.254733
 21
6072.178456
 31
0.0
  0
LINE
  8
LC-001-003-----0
  6
CONTINUOUS
  5
132
 10
121.254733
 20
6072.178456
 30
0.0
 11
113.945267
 21
6072.178456
 31
0.0
  0
LINE
  8
LC-001-003-----0
  6
CONTINUOUS
  5
133
 10
114.895497
 20
6072.240738
 30
0.0
 11
117.6
 21
6051.698
 31
0.0
  0
LINE
  8
LC-001-003-----0
  6
CONTINUOUS
  5
134
 10
117.6
 20
6051.698
 30
0.0
 11
120.304503
 21
6072.240738
 31
0.0
  0
LINE
  8
LC-001-003-----0
  6
CONTINUOUS
  5
135
 10
115.845728
 20
6072.303019
 30
0.0
 11
117.6
 21
6058.978
 31
0.0
  0
LINE
  8
LC-001-003-----0
  6
CONTINUOUS
  5
136
 10
117.6
 20
6058.978
 30
0.0
 11
119.354272
 21
6072.303019
 31
0.0
  0
LINE
  8
LC-001-003-----0
  6
CONTINUOUS
  5
137
 10
116.795959
 20
6072.3653
 30
0.0
 11
117.6
 21
6066.258
 31
0.0
  0
LINE
  8
LC-001-003-----0
  6
CONTINUOUS
  5
138
 10
117.6
 20
6066.258
 30
0.0
 11
118.404041
 21
6072.3653
 31
0.0
  0
LINE
  8
LC-001-003-----0
  6
CONTINUOUS
  5
139
 10
121.254733
 20
6196.157544
 30
0.0
 11
117.6
 21
6223.918
 31
0.0
  0
LINE
  8
LC-001-003-----0
  6
CONTINUOUS
  5
13A
 10
117.6
 20
6223.918
 30
0.0
 11
113.945267
 21
6196.157544
 31
0.0
  0
LINE
  8
LC-001-003-----0
  6
CONTINUOUS
  5
13B
 10
113.945267
 20
6196.157544
 30
0.0
 11
121.254733
 21
6196.157544
 31
0.0
  0
LINE
  8
LC-001-003-----0
  6
CONTINUOUS
  5
13C
 10
120.304503
 20
6196.095262
 30
0.0
 11
117.6
 21
6216.638
 31
0.0
  0
LINE
  8
LC-001-003-----0
  6
CONTINUOUS
  5
13D
 10
117.6
 20
6216.638
 30
0.0
 11
114.895497
 21
6196.095262
 31
0.0
  0
LINE
  8
LC-001-003-----0
  6
CONTINUOUS
  5
13E
 10
119.354272
 20
6196.032981
 30
0.0
 11
117.6
 21
6209.358
 31
0.0
  0
LINE
  8
LC-001-003-----0
  6
CONTINUOUS
  5
13F
 10
117.6
 20
6209.358
 30
0.0
 11
115.845728
 21
6196.032981
 31
0.0
  0
LINE
  8
LC-001-003-----0
  6
CONTINUOUS
  5
140
 10
118.404041
 20
6195.9707
 30
0.0
 11
117.6
 21
6202.078
 31
0.0
  0
LINE
  8
LC-001-003-----0
  6
CONTINUOUS
  5
141
 10
117.6
 20
6202.078
 30
0.0
 11
116.795959
 21
6195.9707
 31
0.0
  0
TEXT
  8
LC-001-003-----0
  6
CONTINUOUS
 62
     8
  5
142
 10
109.772446
 20
6073.531908
 30
0.0
 40
28.0
  1
10-180
 50
90.0
 51
15.0
  7
LC-TXTSTYLE-150-400-0-0-D0
 72
     1
 11
109.772446
 21
6138.51616
 31
0.0
  0
ENDBLK
  8
0
  5
143
  0
ENDSEC
  0
SECTION
  2
ENTITIES
  0
VIEWPORT
  8
LC-000
  5
2FB
 67
     1
 68
     1
 10
420.0
 20
297.0
 30
0.0
 40
840.0
 41
594.0
 69
     1
1001
ACAD
1000
MVIEW
1002
{
1070
    16
1010
0.0
1020
0.0
1030
0.0
1010
0.0
1020
0.0
1030
1.0
1040
0.0
1040
594.0
1040
420.0
1040
297.0
1040
50.0
1040
0.0
1040
0.0
1070
     0
1070
   100
1070
     1
1070
     1
1070
     0
1070
     0
1070
     0
1070
     0
1040
0.0
1040
0.0
1040
0.0
1040
1.0
1040
1.0
1040
0.0
1040
0.0
1070
     0
1002
{
1002
}
1002
}
  0
VIEWPORT
  8
0
  5
2FC
 67
     1
 68
     1
 10
0.0
 20
0.0
 30
0.0
 40
0.0
 41
0.0
 69
     1
1001
ACAD
1000
MVIEW
1002
{
1070
    16
1010
0.0
1020
0.0
1030
0.0
1010
0.0
1020
0.0
1030
1.0
1040
0.0
1040
594.0
1040
0.0
1040
0.0
1040
50.0
1040
0.0
1040
0.0
1070
     0
1070
   100
1070
     0
1070
     1
1070
     0
1070
     0
1070
     0
1070
     0
1040
0.0
1040
0.0
1040
0.0
1040
0.5
1040
0.5
1040
0.5
1040
0.5
1070
     0
1002
{
1002
}
1002
}
  0
DIMENSION
  8
0
  5
144
  2
*D0
 10
-29.087979
 20
5958.4
 30
0.0
 11
-29.087979
 21
5958.4
 31
0.0
  1
%%c<>
 13
-101.587979
 23
6027.418
 33
0.0
 14
43.412021
 24
6027.418
 34
0.0
  3
LC-DIM-L-0140-02-02
  0
DIMENSION
  8
0
  5
145
  2
*D1
 10
-29.087979
 20
6232.8
 30
0.0
 11
-29.087979
 21
6232.8
 31
0.0
  1
150
 13
-104.587979
 23
6221.418
 33
0.0
 14
46.412021
 24
6219.893208
 34
0.0
  3
LC-DIM-L-0140-02-02
  0
DIMENSION
  8
0
  5
146
  2
*D2
 10
-117.6
 20
6216.418
 30
0.0
 11
-117.6
 21
6216.418
 31
0.0
 13
-100.563187
 23
6223.918
 33
0.0
 14
-105.587979
 24
6208.918
 34
0.0
 50
90.0
  3
LC-DIM-L-0140-02-02
  0
INSERT
  8
0
  5
148
  2
BLK1
 10
0.0
 20
0.0
 30
0.0
  0
INSERT
  8
0
  5
149
  2
BLK2
 10
0.0
 20
0.0
 30
0.0
  0
INSERT
  8
0
  5
14B
  2
BLK3
 10
0.0
 20
0.0
 30
0.0
  0
INSERT
  8
0
  5
14C
  2
BLK4
 10
0.0
 20
0.0
 30
0.0
  0
INSERT
  8
0
  5
14D
  2
*X7
 10
-98.065979
 20
6218.918
 30
0.0
  0
INSERT
  8
0
  5
14E
  2
BLK5
 10
0.0
 20
0.0
 30
0.0
  0
INSERT
  8
0
  5
14F
  2
BLK6
 10
0.0
 20
0.0
 30
0.0
  0
INSERT
  8
0
  5
150
  2
BLK7
 10
0.0
 20
0.0
 30
0.0
  0
INSERT
  8
0
  5
151
  2
BLK8
 10
0.0
 20
0.0
 30
0.0
  0
INSERT
  8
0
  5
152
  2
BLK9
 10
0.0
 20
0.0
 30
0.0
  0
INSERT
  8
0
  5
153
  2
BLK10
 10
0.0
 20
0.0
 30
0.0
  0
INSERT
  8
0
  5
154
  2
BLK11
 10
0.0
 20
0.0
 30
0.0
  0
INSERT
  8
0
  5
155
  2
BLK12
 10
0.0
 20
0.0
 30
0.0
  0
INSERT
  8
0
  5
156
  2
BLK13
 10
0.0
 20
0.0
 30
0.0
  0
INSERT
  8
0
  5
157
  2
BLK14
 10
0.0
 20
0.0
 30
0.0
  0
INSERT
  8
0
  5
158
  2
*X18
 10
-98.587979
 20
6021.418
 30
0.0
  0
INSERT
  8
0
  5
159
  2
*X19
 10
-29.087979
 20
6021.418
 30
0.0
  0
DIMENSION
  8
0
  5
15A
  2
*D20
 10
78.4
 20
6032.918
 30
0.0
 11
78.4
 21
6032.918
 31
0.0
 13
40.412021
 23
6044.418
 33
0.0
 14
40.412021
 24
6021.418
 34
0.0
 50
90.0
  3
LC-DIM-L-0140-02-02
  0
DIMENSION
  8
0
  5
15B
  2
*D21
 10
117.6
 20
6134.168
 30
0.0
 11
117.6
 21
6134.168
 31
0.0
  1
10-180
 13
40.412021
 23
6044.418
 33
0.0
 14
42.387229
 24
6223.918
 34
0.0
 50
90.0
  3
LC-DIM-L-0140-02-02
  0
LINE
  8
LC-005-002-----0
  6
CONTINUOUS
  5
15D
 10
-71.962795
 20
6242.040748
 30
0.0
 11
-56.962795
 21
6242.040748
 31
0.0
  0
LINE
  8
LC-005-002-----0
  6
CONTINUOUS
  5
15E
 10
-56.962795
 20
6242.040748
 30
0.0
 11
-56.962795
 21
6257.040748
 31
0.0
  0
LINE
  8
LC-005-002-----0
  6
CONTINUOUS
  5
15F
 10
-71.962795
 20
6257.040748
 30
0.0
 11
-56.962795
 21
6257.040748
 31
0.0
  0
LINE
  8
LC-005-002-----0
  6
CONTINUOUS
  5
160
 10
-71.962795
 20
6242.040748
 30
0.0
 11
-71.962795
 21
6257.040748
 31
0.0
  0
LINE
  8
LC-005-002-----0
  6
DASHDOT
  5
162
 10
-29.087979
 20
6223.918
 30
0.0
 11
-29.087979
 21
6021.418
 31
0.0
  0
ARC
  8
LC-006-002-RND-0
  6
CONTINUOUS
  5
164
 10
-65.329076
 20
6216.418
 30
0.0
 40
1.5
 50
90.0
 51
180.0
  0
ARC
  8
LC-006-002-RND-0
  6
CONTINUOUS
  5
165
 10
7.153119
 20
6216.418
 30
0.0
 40
1.5
 50
0.0
 51
90.0
  0
LINE
  8
LC-007-005-----0
  6
CONTINUOUS
  5
166
 10
40.759812
 20
6202.918
 30
0.0
 11
40.412021
 21
6203.265791
 31
0.0
  0
LINE
  8
LC-007-005-----0
  6
CONTINUOUS
  5
167
 10
41.412021
 20
6205.094218
 30
0.0
 11
40.412021
 21
6206.094218
 31
0.0
  0
LINE
  8
LC-007-005-----0
  6
CONTINUOUS
  5
168
 10
41.412021
 20
6207.922645
 30
0.0
 11
40.412021
 21
6208.922645
 31
0.0
  0
LINE
  8
LC-007-005-----0
  6
CONTINUOUS
  5
169
 10
41.412021
 20
6210.751073
 30
0.0
 11
40.412021
 21
6211.751073
 31
0.0
  0
LINE
  8
LC-007-005-----0
  6
CONTINUOUS
  5
16A
 10
41.412021
 20
6213.5795
 30
0.0
 11
40.412021
 21
6214.5795
 31
0.0
  0
LINE
  8
LC-007-005-----0
  6
CONTINUOUS
  5
16B
 10
41.412021
 20
6216.407927
 30
0.0
 11
40.412021
 21
6217.407927
 31
0.0
  0
LINE
  8
LC-007-005-----0
  6
CONTINUOUS
  5
16C
 10
46.412021
 20
6214.236354
 30
0.0
 11
45.412021
 21
6215.236354
 31
0.0
  0
LINE
  8
LC-007-005-----0
  6
CONTINUOUS
  5
16D
 10
41.412021
 20
6219.236354
 30
0.0
 11
40.412021
 21
6220.236354
 31
0.0
  0
LINE
  8
LC-007-005-----0
  6
CONTINUOUS
  5
16E
 10
46.412021
 20
6217.064781
 30
0.0
 11
45.412021
 21
6218.064781
 31
0.0
  0
LINE
  8
LC-005-002-----0
  6
CONTINUOUS
 62
     1
  5
16F
 10
43.412021
 20
6197.418
 30
0.0
 11
43.412021
 21
6027.418
 31
0.0
  0
LINE
  8
LC-005-002-----0
  6
CONTINUOUS
 62
     1
  5
170
 10
40.412021
 20
6202.918
 30
0.0
 11
40.412021
 21
6021.418
 31
0.0
  0
LINE
  8
LC-005-002-----0
  6
CONTINUOUS
 62
     1
  5
171
 10
41.804326
 20
6021.418
 30
0.0
 11
-29.087979
 21
6021.418
 31
0.0
  0
LINE
  8
LC-007-005-----0
  6
CONTINUOUS
  5
172
 10
-98.93577
 20
6202.918
 30
0.0
 11
-98.587979
 21
6203.265791
 31
0.0
  0
LINE
  8
LC-007-005-----0
  6
CONTINUOUS
  5
173
 10
-99.587979
 20
6205.094218
 30
0.0
 11
-98.587979
 21
6206.094218
 31
0.0
  0
LINE
  8
LC-007-005-----0
  6
CONTINUOUS
  5
174
 10
-99.587979
 20
6207.922645
 30
0.0
 11
-98.587979
 21
6208.922645
 31
0.0
  0
LINE
  8
LC-007-005-----0
  6
CONTINUOUS
  5
175
 10
-99.587979
 20
6210.751073
 30
0.0
 11
-98.587979
 21
6211.751073
 31
0.0
  0
LINE
  8
LC-007-005-----0
  6
CONTINUOUS
  5
176
 10
-99.587979
 20
6213.5795
 30
0.0
 11
-98.587979
 21
6214.5795
 31
0.0
  0
LINE
  8
LC-007-005-----0
  6
CONTINUOUS
  5
177
 10
-99.587979
 20
6216.407927
 30
0.0
 11
-98.587979
 21
6217.407927
 31
0.0
  0
LINE
  8
LC-007-005-----0
  6
CONTINUOUS
  5
178
 10
-104.587979
 20
6214.236354
 30
0.0
 11
-103.587979
 21
6215.236354
 31
0.0
  0
LINE
  8
LC-007-005-----0
  6
CONTINUOUS
  5
179
 10
-99.587979
 20
6219.236354
 30
0.0
 11
-98.587979
 21
6220.236354
 31
0.0
  0
LINE
  8
LC-007-005-----0
  6
CONTINUOUS
  5
17A
 10
-104.587979
 20
6217.064781
 30
0.0
 11
-103.587979
 21
6218.064781
 31
0.0
  0
LINE
  8
LC-005-002-----0
  6
CONTINUOUS
 62
     1
  5
17B
 10
-101.587979
 20
6197.418
 30
0.0
 11
-101.587979
 21
6027.418
 31
0.0
  0
LINE
  8
LC-005-002-----0
  6
CONTINUOUS
 62
     1
  5
17C
 10
-98.587979
 20
6202.918
 30
0.0
 11
-98.587979
 21
6021.418
 31
0.0
  0
LINE
  8
LC-005-002-----0
  6
CONTINUOUS
 62
     1
  5
17D
 10
-99.980284
 20
6021.418
 30
0.0
 11
-29.087979
 21
6021.418
 31
0.0
  0
LINE
  8
LC-005-002-----0
  6
CONTINUOUS
 62
     1
  5
17E
 10
-101.587979
 20
6027.418
 30
0.0
 11
-99.980284
 21
6021.418
 31
0.0
  0
LINE
  8
LC-007-005-----0
  6
CONTINUOUS
  5
17F
 10
-99.690285
 20
6221.962475
 30
0.0
 11
-98.945851
 21
6222.706909
 31
0.0
  0
LINE
  8
LC-007-005-----0
  6
CONTINUOUS
  5
180
 10
-104.587979
 20
6219.893208
 30
0.0
 11
-103.587979
 21
6220.893208
 31
0.0
  0
LINE
  8
LC-007-005-----0
  6
CONTINUOUS
  5
181
 10
-101.563187
 20
6222.918
 30
0.0
 11
-100.609418
 21
6223.871769
 31
0.0
  0
LINE
  8
LC-005-002-----0
  6
CONTINUOUS
 62
     1
  5
182
 10
43.412021
 20
6027.418
 30
0.0
 11
41.804326
 21
6021.418
 31
0.0
  0
LINE
  8
LC-005-002-----0
  6
CONTINUOUS
 62
     1
  5
183
 10
-101.587979
 20
6222.918
 30
0.0
 11
-101.587979
 21
6222.918
 31
0.0
  0
LINE
  8
LC-005-002-----0
  6
CONTINUOUS
 62
     1
  5
184
 10
-104.587979
 20
6212.418
 30
0.0
 11
-103.587979
 21
6212.418
 31
0.0
  0
LINE
  8
LC-005-002-----0
  6
CONTINUOUS
 62
     1
  5
185
 10
-103.587979
 20
6221.418
 30
0.0
 11
-103.587979
 21
6212.418
 31
0.0
  0
LINE
  8
LC-005-002-----0
  6
CONTINUOUS
 62
     1
  5
186
 10
-104.587979
 20
6213.918
 30
0.0
 11
-104.587979
 21
6212.418
 31
0.0
  0
LINE
  8
LC-005-002-----0
  6
CONTINUOUS
 62
     1
  5
187
 10
-105.587979
 20
6213.918
 30
0.0
 11
-104.587979
 21
6213.918
 31
0.0
  0
LINE
  8
LC-005-002-----0
  6
CONTINUOUS
 62
     1
  5
188
 10
-105.587979
 20
6213.918
 30
0.0
 11
-105.587979
 21
6208.918
 31
0.0
  0
LINE
  8
LC-005-002-----0
  6
CONTINUOUS
 62
     1
  5
189
 10
-105.587979
 20
6208.918
 30
0.0
 11
-101.587979
 21
6208.918
 31
0.0
  0
LINE
  8
LC-007-005-----0
  6
CONTINUOUS
  5
18A
 10
45.412021
 20
6221.170643
 30
0.0
 11
43.664664
 21
6222.918
 31
0.0
  0
LINE
  8
LC-007-005-----0
  6
CONTINUOUS
  5
18B
 10
45.412021
 20
6217.635109
 30
0.0
 11
41.425858
 21
6221.621272
 31
0.0
  0
LINE
  8
LC-007-005-----0
  6
CONTINUOUS
  5
18C
 10
41.514328
 20
6221.962475
 30
0.0
 11
40.769893
 21
6222.706909
 31
0.0
  0
ARC
  8
LC-006-002-RND-0
  6
CONTINUOUS
  5
18D
 10
-101.087979
 20
6221.418
 30
0.0
 40
1.5
 50
0.0
 51
90.0
  0
LINE
  8
LC-007-005-----0
  6
CONTINUOUS
  5
18E
 10
46.412021
 20
6219.893208
 30
0.0
 11
45.412021
 21
6220.893208
 31
0.0
  0
ARC
  8
LC-006-002-RND-0
  6
CONTINUOUS
  5
18F
 10
-102.087979
 20
6221.418
 30
0.0
 40
1.5
 50
90.0
 51
180.0
  0
LINE
  8
LC-007-005-----0
  6
CONTINUOUS
  5
190
 10
43.387229
 20
6222.918
 30
0.0
 11
42.433461
 21
6223.871769
 31
0.0
  0
CIRCLE
  8
LC-005-002-----0
  6
CONTINUOUS
 62
     1
  5
191
 10
159.912021
 20
6063.668
 30
0.0
 40
4.5
  0
LINE
  8
LC-005-002-----0
  6
CONTINUOUS
 62
     1
  5
192
 10
157.412021
 20
6063.168002
 30
0.0
 11
157.412022
 21
6064.168002
 31
0.0
  0
LINE
  8
LC-005-002-----0
  6
CONTINUOUS
 62
     1
  5
193
 10
157.412022
 20
6064.168002
 30
0.0
 11
159.412022
 21
6064.168
 31
0.0
  0
LINE
  8
LC-005-002-----0
  6
CONTINUOUS
 62
     1
  5
194
 10
162.412022
 20
6064.167998
 30
0.0
 11
162.412021
 21
6063.167998
 31
0.0
  0
LINE
  8
LC-005-002-----0
  6
CONTINUOUS
 62
     1
  5
195
 10
162.412021
 20
6063.167998
 30
0.0
 11
160.412021
 21
6063.168
 31
0.0
  0
LINE
  8
LC-005-002-----0
  6
CONTINUOUS
 62
     1
  5
196
 10
159.41202
 20
6061.168
 30
0.0
 11
160.41202
 21
6061.168
 31
0.0
  0
LINE
  8
LC-005-002-----0
  6
CONTINUOUS
 62
     1
  5
197
 10
160.41202
 20
6061.168
 30
0.0
 11
160.412021
 21
6063.168
 31
0.0
  0
LINE
  8
LC-005-002-----0
  6
CONTINUOUS
 62
     1
  5
198
 10
160.412023
 20
6066.168
 30
0.0
 11
159.412023
 21
6066.168
 31
0.0
  0
LINE
  8
LC-005-002-----0
  6
CONTINUOUS
 62
     1
  5
199
 10
159.412023
 20
6066.168
 30
0.0
 11
159.412022
 21
6064.168
 31
0.0
  0
LINE
  8
LC-005-002-----0
  6
CONTINUOUS
 62
     1
  5
19A
 10
159.412021
 20
6063.168
 30
0.0
 11
159.41202
 21
6061.168
 31
0.0
  0
LINE
  8
LC-005-002-----0
  6
CONTINUOUS
 62
     1
  5
19B
 10
159.412021
 20
6063.168
 30
0.0
 11
157.412021
 21
6063.168002
 31
0.0
  0
LINE
  8
LC-005-002-----0
  6
CONTINUOUS
 62
     1
  5
19C
 10
160.412022
 20
6064.168
 30
0.0
 11
162.412022
 21
6064.167998
 31
0.0
  0
LINE
  8
LC-005-002-----0
  6
CONTINUOUS
 62
     1
  5
19D
 10
160.412022
 20
6064.168
 30
0.0
 11
160.412023
 21
6066.168
 31
0.0
  0
CIRCLE
  8
LC-005-002-----0
  6
CONTINUOUS
 62
     1
  5
19E
 10
277.912021
 20
6181.668
 30
0.0
 40
4.5
  0
LINE
  8
LC-005-002-----0
  6
CONTINUOUS
 62
     1
  5
19F
 10
278.41202
 20
6184.168
 30
0.0
 11
277.41202
 21
6184.168
 31
0.0
  0
LINE
  8
LC-005-002-----0
  6
CONTINUOUS
 62
     1
  5
1A0
 10
277.41202
 20
6184.168
 30
0.0
 11
277.412021
 21
6182.168
 31
0.0
  0
LINE
  8
LC-005-002-----0
  6
CONTINUOUS
 62
     1
  5
1A1
 10
277.412023
 20
6179.168
 30
0.0
 11
278.412023
 21
6179.168
 31
0.0
  0
LINE
  8
LC-005-002-----0
  6
CONTINUOUS
 62
     1
  5
1A2
 10
278.412023
 20
6179.168
 30
0.0
 11
278.412022
 21
6181.168
 31
0.0
  0
LINE
  8
LC-005-002-----0
  6
CONTINUOUS
 62
     1
  5
1A3
 10
280.412021
 20
6182.168002
 30
0.0
 11
280.412022
 21
6181.168002
 31
0.0
  0
LINE
  8
LC-005-002-----0
  6
CONTINUOUS
 62
     1
  5
1A4
 10
280.412022
 20
6181.168002
 30
0.0
 11
278.412022
 21
6181.168
 31
0.0
  0
LINE
  8
LC-005-002-----0
  6
CONTINUOUS
 62
     1
  5
1A5
 10
275.412022
 20
6181.167998
 30
0.0
 11
275.412021
 21
6182.167998
 31
0.0
  0
LINE
  8
LC-005-002-----0
  6
CONTINUOUS
 62
     1
  5
1A6
 10
43.412021
 20
6222.918
 30
0.0
 11
43.412021
 21
6222.918
 31
0.0
  0
LINE
  8
LC-005-002-----0
  6
CONTINUOUS
 62
     1
  5
1A7
 10
46.412021
 20
6212.418
 30
0.0
 11
45.412021
 21
6212.418
 31
0.0
  0
LINE
  8
LC-005-002-----0
  6
CONTINUOUS
 62
     1
  5
1A8
 10
45.412021
 20
6221.418
 30
0.0
 11
45.412021
 21
6212.418
 31
0.0
  0
LINE
  8
LC-005-002-----0
  6
CONTINUOUS
 62
     1
  5
1A9
 10
46.412021
 20
6213.918
 30
0.0
 11
46.412021
 21
6212.418
 31
0.0
  0
LINE
  8
LC-005-002-----0
  6
CONTINUOUS
 62
     1
  5
1AA
 10
47.412021
 20
6213.918
 30
0.0
 11
46.412021
 21
6213.918
 31
0.0
  0
LINE
  8
LC-005-002-----0
  6
CONTINUOUS
 62
     1
  5
1AB
 10
47.412021
 20
6213.918
 30
0.0
 11
47.412021
 21
6208.918
 31
0.0
  0
LINE
  8
LC-005-002-----0
  6
CONTINUOUS
 62
     1
  5
1AC
 10
47.412021
 20
6208.918
 30
0.0
 11
43.412021
 21
6208.918
 31
0.0
  0
LINE
  8
LC-007-005-----0
  6
CONTINUOUS
  5
1AD
 10
47.412021
 20
6212.099575
 30
0.0
 11
46.412021
 21
6213.099575
 31
0.0
  0
LINE
  8
LC-007-005-----0
  6
CONTINUOUS
  5
1AE
 10
45.412021
 20
6214.099575
 30
0.0
 11
41.412021
 21
6218.099575
 31
0.0
  0
ARC
  8
LC-006-002-RND-0
  6
CONTINUOUS
  5
1AF
 10
42.912021
 20
6221.418
 30
0.0
 40
1.5
 50
90.0
 51
180.0
  0
LINE
  8
LC-005-002-----0
  6
CONTINUOUS
 62
     1
  5
1B0
 10
275.412021
 20
6182.167998
 30
0.0
 11
277.412021
 21
6182.168
 31
0.0
  0
LINE
  8
LC-005-002-----0
  6
CONTINUOUS
 62
     1
  5
1B1
 10
-98.587979
 20
6202.918
 30
0.0
 11
-98.587979
 21
6202.918
 31
0.0
  0
LINE
  8
LC-005-002-----0
  6
CONTINUOUS
 62
     1
  5
1B2
 10
-101.587979
 20
6208.918
 30
0.0
 11
-101.587979
 21
6197.418
 31
0.0
  0
ARC
  8
LC-006-002-RND-0
  6
CONTINUOUS
  5
1B3
 10
43.912021
 20
6221.418
 30
0.0
 40
1.5
 50
0.0
 51
90.0
  0
LINE
  8
LC-005-002-----0
  6
CONTINUOUS
 62
     1
  5
1B4
 10
40.412021
 20
6202.918
 30
0.0
 11
40.412021
 21
6202.918
 31
0.0
  0
LINE
  8
LC-005-002-----0
  6
CONTINUOUS
 62
     1
  5
1B5
 10
278.412021
 20
6182.168
 30
0.0
 11
280.412021
 21
6182.168002
 31
0.0
  0
LINE
  8
LC-005-002-----0
  6
CONTINUOUS
 62
     1
  5
1B6
 10
-104.587979
 20
6212.418
 30
0.0
 11
-104.587979
 21
6221.418
 31
0.0
  0
LINE
  8
LC-005-002-----0
  6
CONTINUOUS
 62
     1
  5
1B7
 10
-101.087979
 20
6223.918
 30
0.0
 11
-29.087979
 21
6223.918
 31
0.0
  0
LINE
  8
LC-005-002-----0
  6
CONTINUOUS
 62
     1
  5
1B8
 10
43.412021
 20
6208.860344
 30
0.0
 11
43.412021
 21
6197.418
 31
0.0
  0
LINE
  8
LC-005-002-----0
  6
CONTINUOUS
 62
     1
  5
1B9
 10
-102.087979
 20
6222.918
 30
0.0
 11
-101.087979
 21
6222.918
 31
0.0
  0
LINE
  8
LC-005-002-----0
  6
CONTINUOUS
 62
     1
  5
1BA
 10
278.412021
 20
6182.168
 30
0.0
 11
278.41202
 21
6184.168
 31
0.0
  0
LINE
  8
LC-005-002-----0
  6
CONTINUOUS
 62
     1
  5
1BB
 10
46.412021
 20
6212.418
 30
0.0
 11
46.412021
 21
6221.418
 31
0.0
  0
LINE
  8
LC-005-002-----0
  6
CONTINUOUS
 62
     1
  5
1BC
 10
277.412022
 20
6181.168
 30
0.0
 11
277.412023
 21
6179.168
 31
0.0
  0
LINE
  8
LC-005-002-----0
  6
CONTINUOUS
 62
     1
  5
1BD
 10
-103.587979
 20
6212.418
 30
0.0
 11
-103.587979
 21
6221.418
 31
0.0
  0
LINE
  8
LC-005-002-----0
  6
CONTINUOUS
 62
     1
  5
1BE
 10
-104.587979
 20
6212.418
 30
0.0
 11
-103.587979
 21
6212.418
 31
0.0
  0
LINE
  8
LC-005-002-----0
  6
CONTINUOUS
 62
     1
  5
1BF
 10
-97.587979
 20
6217.918
 30
0.0
 11
-29.087979
 21
6217.918
 31
0.0
  0
LINE
  8
LC-005-002-----0
  6
CONTINUOUS
 62
     1
  5
1C0
 10
-98.587979
 20
6202.918
 30
0.0
 11
-98.587979
 21
6221.418
 31
0.0
  0
LINE
  8
LC-005-002-----0
  6
CONTINUOUS
 62
     1
  5
1C1
 10
-99.587979
 20
6202.918
 30
0.0
 11
-99.587979
 21
6221.418
 31
0.0
  0
LINE
  8
LC-005-002-----0
  6
CONTINUOUS
 62
     1
  5
1C2
 10
-99.587979
 20
6202.918
 30
0.0
 11
-98.587979
 21
6202.918
 31
0.0
  0
LINE
  8
LC-005-002-----0
  6
CONTINUOUS
 62
     1
  5
1C3
 10
-98.587979
 20
6202.918
 30
0.0
 11
-29.087979
 21
6202.918
 31
0.0
  0
LINE
  8
LC-005-002-----0
  6
CONTINUOUS
 62
     1
  5
1C4
 10
277.412022
 20
6181.168
 30
0.0
 11
275.412022
 21
6181.167998
 31
0.0
  0
LINE
  8
LC-005-002-----0
  6
CONTINUOUS
 62
     1
  5
1C5
 10
-66.829076
 20
6216.418
 30
0.0
 11
-66.829076
 21
6215.918
 31
0.0
  0
ARC
  8
LC-006-002-RND-0
  6
CONTINUOUS
  5
1C6
 10
-102.087979
 20
6221.418
 30
0.0
 40
1.5
 50
90.0
 51
180.0
  0
ARC
  8
LC-006-002-RND-0
  6
CONTINUOUS
  5
1C7
 10
-101.087979
 20
6221.418
 30
0.0
 40
1.5
 50
0.0
 51
90.0
  0
ARC
  8
LC-006-002-RND-0
  6
CONTINUOUS
  5
1C8
 10
-102.087979
 20
6221.418
 30
0.0
 40
2.5
 50
90.0
 51
180.0
  0
ARC
  8
LC-006-002-RND-0
  6
CONTINUOUS
  5
1C9
 10
-101.087979
 20
6221.418
 30
0.0
 40
2.5
 50
0.0
 51
90.0
  0
LINE
  8
LC-005-002-----0
  6
CONTINUOUS
 62
     1
  5
1CA
 10
-88.04228
 20
6215.918
 30
0.0
 11
-88.04228
 21
6216.418
 31
0.0
  0
LINE
  8
LC-005-002-----0
  6
CONTINUOUS
 62
     1
  5
1CB
 10
-66.829076
 20
6215.918
 30
0.0
 11
-88.04228
 21
6215.918
 31
0.0
  0
LINE
  8
LC-005-002-----0
  6
CONTINUOUS
 62
     1
  5
1CC
 10
42.912021
 20
6223.918
 30
0.0
 11
-29.087979
 21
6223.918
 31
0.0
  0
LINE
  8
LC-005-002-----0
  6
CONTINUOUS
 62
     1
  5
1CD
 10
43.912021
 20
6222.918
 30
0.0
 11
42.912021
 21
6222.918
 31
0.0
  0
LINE
  8
LC-005-002-----0
  6
CONTINUOUS
 62
     1
  5
1CE
 10
45.412021
 20
6212.418
 30
0.0
 11
45.412021
 21
6221.418
 31
0.0
  0
LINE
  8
LC-005-002-----0
  6
CONTINUOUS
 62
     1
  5
1CF
 10
46.412021
 20
6212.418
 30
0.0
 11
45.412021
 21
6212.418
 31
0.0
  0
LINE
  8
LC-005-002-----0
  6
CONTINUOUS
 62
     1
  5
1D0
 10
39.412021
 20
6217.918
 30
0.0
 11
-29.087979
 21
6217.918
 31
0.0
  0
LINE
  8
LC-005-002-----0
  6
CONTINUOUS
 62
     1
  5
1D1
 10
40.412021
 20
6202.918
 30
0.0
 11
40.412021
 21
6221.418
 31
0.0
  0
LINE
  8
LC-005-002-----0
  6
CONTINUOUS
 62
     1
  5
1D2
 10
41.412021
 20
6202.918
 30
0.0
 11
41.412021
 21
6221.418
 31
0.0
  0
LINE
  8
LC-005-002-----0
  6
CONTINUOUS
 62
     1
  5
1D3
 10
41.412021
 20
6202.918
 30
0.0
 11
40.412021
 21
6202.918
 31
0.0
  0
LINE
  8
LC-005-002-----0
  6
CONTINUOUS
 62
     1
  5
1D4
 10
40.412021
 20
6202.918
 30
0.0
 11
-29.087979
 21
6202.918
 31
0.0
  0
LINE
  8
LC-005-002-----0
  6
CONTINUOUS
 62
     1
  5
1D5
 10
8.653119
 20
6216.418
 30
0.0
 11
8.653119
 21
6215.918
 31
0.0
  0
LINE
  8
LC-005-002-----0
  6
CONTINUOUS
 62
     1
  5
1D6
 10
-102.087979
 20
6223.918
 30
0.0
 11
-101.087979
 21
6223.918
 31
0.0
  0
ARC
  8
LC-006-002-RND-0
  6
CONTINUOUS
  5
1D7
 10
43.912021
 20
6221.418
 30
0.0
 40
1.5
 50
0.0
 51
90.0
  0
ARC
  8
LC-006-002-RND-0
  6
CONTINUOUS
  5
1D8
 10
42.912021
 20
6221.418
 30
0.0
 40
1.5
 50
90.0
 51
180.0
  0
ARC
  8
LC-006-002-RND-0
  6
CONTINUOUS
  5
1D9
 10
-97.587979
 20
6218.918
 30
0.0
 40
1.0
 50
180.0
 51
270.0
  0
ARC
  8
LC-006-002-RND-0
  6
CONTINUOUS
  5
1DA
 10
43.912021
 20
6221.418
 30
0.0
 40
2.5
 50
0.0
 51
90.0
  0
ARC
  8
LC-006-002-RND-0
  6
CONTINUOUS
  5
1DB
 10
42.912021
 20
6221.418
 30
0.0
 40
2.5
 50
90.0
 51
180.0
  0
LINE
  8
LC-005-002-----0
  6
CONTINUOUS
 62
     1
  5
1DC
 10
29.866322
 20
6215.918
 30
0.0
 11
29.866322
 21
6216.418
 31
0.0
  0
ARC
  8
LC-006-002-RND-0
  6
CONTINUOUS
  5
1DD
 10
-89.54228
 20
6216.418
 30
0.0
 40
1.5
 50
0.0
 51
90.0
  0
LINE
  8
LC-005-002-----0
  6
CONTINUOUS
 62
     1
  5
1DE
 10
8.653119
 20
6215.918
 30
0.0
 11
29.866322
 21
6215.918
 31
0.0
  0
LINE
  8
LC-005-002-----0
  6
CONTINUOUS
 62
     1
  5
1DF
 10
43.912021
 20
6223.918
 30
0.0
 11
42.912021
 21
6223.918
 31
0.0
  0
ARC
  8
LC-006-002-RND-0
  6
CONTINUOUS
  5
1E0
 10
39.412021
 20
6218.918
 30
0.0
 40
1.0
 50
270.0
 51
0.0
  0
ARC
  8
LC-006-002-RND-0
  6
CONTINUOUS
  5
1E1
 10
31.366322
 20
6216.418
 30
0.0
 40
1.5
 50
90.0
 51
180.0
  0
LINE
  8
LC-005-002-----0
  6
CONTINUOUS
 62
     1
  5
1E2
 10
41.412021
 20
6202.918
 30
0.0
 11
41.412021
 21
6221.418
 31
0.0
  0
LINE
  8
LC-005-002-----0
  6
CONTINUOUS
 62
     1
  5
1E3
 10
41.412021
 20
6202.918
 30
0.0
 11
40.412021
 21
6202.918
 31
0.0
  0
LINE
  8
LC-005-002-----0
  6
CONTINUOUS
 62
     1
  5
1E4
 10
-29.087979
 20
6202.918
 30
0.0
 11
40.412021
 21
6202.918
 31
0.0
  0
LINE
  8
LC-005-002-----0
  6
CONTINUOUS
 62
     1
  5
1E5
 10
-99.587979
 20
6202.918
 30
0.0
 11
-99.587979
 21
6221.418
 31
0.0
  0
LINE
  8
LC-005-002-----0
  6
CONTINUOUS
 62
     1
  5
1E6
 10
-99.587979
 20
6202.918
 30
0.0
 11
-98.587979
 21
6202.918
 31
0.0
  0
LINE
  8
LC-005-002-----0
  6
CONTINUOUS
 62
     1
  5
1E7
 10
-29.087979
 20
6202.918
 30
0.0
 11
-98.587979
 21
6202.918
 31
0.0
  0
ARC
  8
LC-006-002-RND-0
  6
CONTINUOUS
  5
1E8
 10
-91.065979
 20
6221.418
 30
0.0
 40
2.5
 50
0.0
 51
90.0
  0
ARC
  8
LC-006-002-RND-0
  6
CONTINUOUS
  5
1E9
 10
-79.065979
 20
6221.418
 30
0.0
 40
2.5
 50
90.0
 51
180.0
  0
ARC
  8
LC-006-002-RND-0
  6
CONTINUOUS
  5
1EA
 10
-75.065979
 20
6221.418
 30
0.0
 40
2.5
 50
0.0
 51
90.0
  0
ARC
  8
LC-006-002-RND-0
  6
CONTINUOUS
  5
1EB
 10
-63.065979
 20
6221.418
 30
0.0
 40
2.5
 50
90.0
 51
180.0
  0
ARC
  8
LC-006-002-RND-0
  6
CONTINUOUS
  5
1EC
 10
-59.065979
 20
6221.418
 30
0.0
 40
2.5
 50
0.0
 51
90.0
  0
ARC
  8
LC-006-002-RND-0
  6
CONTINUOUS
  5
1ED
 10
-47.065979
 20
6221.418
 30
0.0
 40
2.5
 50
90.0
 51
180.0
  0
ARC
  8
LC-006-002-RND-0
  6
CONTINUOUS
  5
1EE
 10
-95.565979
 20
6221.418
 30
0.0
 40
2.5
 50
90.0
 51
180.0
  0
ARC
  8
LC-006-002-RND-0
  6
CONTINUOUS
  5
1EF
 10
-11.109979
 20
6221.418
 30
0.0
 40
2.5
 50
0.0
 51
90.0
  0
ARC
  8
LC-006-002-RND-0
  6
CONTINUOUS
  5
1F0
 10
0.890021
 20
6221.418
 30
0.0
 40
2.5
 50
90.0
 51
180.0
  0
ARC
  8
LC-006-002-RND-0
  6
CONTINUOUS
  5
1F1
 10
4.890021
 20
6221.418
 30
0.0
 40
2.5
 50
0.0
 51
90.0
  0
ARC
  8
LC-006-002-RND-0
  6
CONTINUOUS
  5
1F2
 10
16.890021
 20
6221.418
 30
0.0
 40
2.5
 50
90.0
 51
180.0
  0
ARC
  8
LC-006-002-RND-0
  6
CONTINUOUS
  5
1F3
 10
20.890021
 20
6221.418
 30
0.0
 40
2.5
 50
0.0
 51
90.0
  0
ARC
  8
LC-006-002-RND-0
  6
CONTINUOUS
  5
1F4
 10
32.890021
 20
6221.418
 30
0.0
 40
2.5
 50
90.0
 51
180.0
  0
ARC
  8
LC-006-002-RND-0
  6
CONTINUOUS
  5
1F5
 10
37.390021
 20
6221.418
 30
0.0
 40
2.5
 50
0.0
 51
90.0
  0
LINE
  8
LC-005-002-----0
  6
CONTINUOUS
 62
     1
  5
1F6
 10
-91.065979
 20
6223.918
 30
0.0
 11
-79.065979
 21
6223.918
 31
0.0
  0
LINE
  8
LC-005-002-----0
  6
CONTINUOUS
 62
     1
  5
1F7
 10
-75.065979
 20
6223.918
 30
0.0
 11
-63.065979
 21
6223.918
 31
0.0
  0
LINE
  8
LC-005-002-----0
  6
CONTINUOUS
 62
     1
  5
1F8
 10
38.390021
 20
6218.918
 30
0.0
 11
38.390021
 21
6221.418
 31
0.0
  0
ARC
  8
LC-005-002-----0
  6
CONTINUOUS
 62
     1
  5
1F9
 10
37.390021
 20
6221.418
 30
0.0
 40
1.0
 50
0.0
 51
90.0
  0
LINE
  8
LC-005-002-----0
  6
CONTINUOUS
 62
     1
  5
1FA
 10
37.390021
 20
6222.418
 30
0.0
 11
32.890021
 21
6222.418
 31
0.0
  0
ARC
  8
LC-005-002-----0
  6
CONTINUOUS
 62
     1
  5
1FB
 10
32.890021
 20
6221.418
 30
0.0
 40
1.0
 50
90.0
 51
180.0
  0
LINE
  8
LC-005-002-----0
  6
CONTINUOUS
 62
     1
  5
1FC
 10
31.890021
 20
6221.418
 30
0.0
 11
31.890021
 21
6219.918
 31
0.0
  0
LINE
  8
LC-005-002-----0
  6
CONTINUOUS
 62
     1
  5
1FD
 10
-98.065979
 20
6218.918
 30
0.0
 11
-98.065979
 21
6221.418
 31
0.0
  0
LINE
  8
LC-005-002-----0
  6
CONTINUOUS
 62
     1
  5
1FE
 10
-95.565979
 20
6223.918
 30
0.0
 11
-91.065979
 21
6223.918
 31
0.0
  0
LINE
  8
LC-005-002-----0
  6
CONTINUOUS
 62
     1
  5
1FF
 10
-88.565979
 20
6221.418
 30
0.0
 11
-88.565979
 21
6219.918
 31
0.0
  0
LINE
  8
LC-005-002-----0
  6
CONTINUOUS
 62
     1
  5
200
 10
-90.065979
 20
6219.918
 30
0.0
 11
-80.065979
 21
6219.918
 31
0.0
  0
LINE
  8
LC-005-002-----0
  6
CONTINUOUS
 62
     1
  5
201
 10
-81.565979
 20
6219.918
 30
0.0
 11
-81.565979
 21
6221.418
 31
0.0
  0
LINE
  8
LC-005-002-----0
  6
CONTINUOUS
 62
     1
  5
202
 10
-79.065979
 20
6223.918
 30
0.0
 11
-75.065979
 21
6223.918
 31
0.0
  0
LINE
  8
LC-005-002-----0
  6
CONTINUOUS
 62
     1
  5
203
 10
-72.565979
 20
6221.418
 30
0.0
 11
-72.565979
 21
6219.918
 31
0.0
  0
LINE
  8
LC-005-002-----0
  6
CONTINUOUS
 62
     1
  5
204
 10
-74.065979
 20
6219.918
 30
0.0
 11
-64.065979
 21
6219.918
 31
0.0
  0
LINE
  8
LC-005-002-----0
  6
CONTINUOUS
 62
     1
  5
205
 10
-65.565979
 20
6219.918
 30
0.0
 11
-65.565979
 21
6221.418
 31
0.0
  0
LINE
  8
LC-005-002-----0
  6
CONTINUOUS
 62
     1
  5
206
 10
-63.065979
 20
6223.918
 30
0.0
 11
-59.065979
 21
6223.918
 31
0.0
  0
LINE
  8
LC-005-002-----0
  6
CONTINUOUS
 62
     1
  5
207
 10
-56.565979
 20
6221.418
 30
0.0
 11
-56.565979
 21
6219.918
 31
0.0
  0
LINE
  8
LC-005-002-----0
  6
CONTINUOUS
 62
     1
  5
208
 10
-58.065979
 20
6219.918
 30
0.0
 11
-48.065979
 21
6219.918
 31
0.0
  0
LINE
  8
LC-005-002-----0
  6
CONTINUOUS
 62
     1
  5
209
 10
-49.565979
 20
6219.918
 30
0.0
 11
-49.565979
 21
6221.418
 31
0.0
  0
LINE
  8
LC-005-002-----0
  6
CONTINUOUS
 62
     1
  5
20A
 10
-47.065979
 20
6223.918
 30
0.0
 11
-29.087979
 21
6223.918
 31
0.0
  0
LINE
  8
LC-005-002-----0
  6
CONTINUOUS
 62
     1
  5
20B
 10
-96.565979
 20
6218.918
 30
0.0
 11
38.390021
 21
6218.918
 31
0.0
  0
LINE
  8
LC-005-002-----0
  6
CONTINUOUS
 62
     1
  5
20C
 10
39.890021
 20
6218.918
 30
0.0
 11
39.890021
 21
6221.418
 31
0.0
  0
LINE
  8
LC-005-002-----0
  6
CONTINUOUS
 62
     1
  5
20D
 10
37.390021
 20
6223.918
 30
0.0
 11
32.890021
 21
6223.918
 31
0.0
  0
LINE
  8
LC-005-002-----0
  6
CONTINUOUS
 62
     1
  5
20E
 10
30.390021
 20
6221.418
 30
0.0
 11
30.390021
 21
6219.918
 31
0.0
  0
LINE
  8
LC-005-002-----0
  6
CONTINUOUS
 62
     1
  5
20F
 10
31.890021
 20
6219.918
 30
0.0
 11
21.890021
 21
6219.918
 31
0.0
  0
LINE
  8
LC-005-002-----0
  6
CONTINUOUS
 62
     1
  5
210
 10
23.390021
 20
6219.918
 30
0.0
 11
23.390021
 21
6221.418
 31
0.0
  0
LINE
  8
LC-005-002-----0
  6
CONTINUOUS
 62
     1
  5
211
 10
20.890021
 20
6223.918
 30
0.0
 11
16.890021
 21
6223.918
 31
0.0
  0
LINE
  8
LC-005-002-----0
  6
CONTINUOUS
 62
     1
  5
212
 10
14.390021
 20
6221.418
 30
0.0
 11
14.390021
 21
6219.918
 31
0.0
  0
LINE
  8
LC-005-002-----0
  6
CONTINUOUS
 62
     1
  5
213
 10
15.890021
 20
6219.918
 30
0.0
 11
5.890021
 21
6219.918
 31
0.0
  0
LINE
  8
LC-005-002-----0
  6
CONTINUOUS
 62
     1
  5
214
 10
7.390021
 20
6219.918
 30
0.0
 11
7.390021
 21
6221.418
 31
0.0
  0
LINE
  8
LC-005-002-----0
  6
CONTINUOUS
 62
     1
  5
215
 10
4.890021
 20
6223.918
 30
0.0
 11
0.890021
 21
6223.918
 31
0.0
  0
LINE
  8
LC-005-002-----0
  6
CONTINUOUS
 62
     1
  5
216
 10
-1.609979
 20
6221.418
 30
0.0
 11
-1.609979
 21
6219.918
 31
0.0
  0
LINE
  8
LC-005-002-----0
  6
CONTINUOUS
 62
     1
  5
217
 10
-0.109979
 20
6219.918
 30
0.0
 11
-10.109979
 21
6219.918
 31
0.0
  0
LINE
  8
LC-005-002-----0
  6
CONTINUOUS
 62
     1
  5
218
 10
-8.609979
 20
6219.918
 30
0.0
 11
-8.609979
 21
6221.418
 31
0.0
  0
LINE
  8
LC-005-002-----0
  6
CONTINUOUS
 62
     1
  5
219
 10
-11.109979
 20
6223.918
 30
0.0
 11
-29.087979
 21
6223.918
 31
0.0
  0
LINE
  8
LC-005-002-----0
  6
CONTINUOUS
 62
     1
  5
21A
 10
-11.109979
 20
6223.918
 30
0.0
 11
0.890021
 21
6223.918
 31
0.0
  0
LINE
  8
LC-005-002-----0
  6
CONTINUOUS
 62
     1
  5
21B
 10
21.890021
 20
6219.918
 30
0.0
 11
21.890021
 21
6221.418
 31
0.0
  0
ARC
  8
LC-005-002-----0
  6
CONTINUOUS
 62
     1
  5
21C
 10
20.890021
 20
6221.418
 30
0.0
 40
1.0
 50
0.0
 51
90.0
  0
LINE
  8
LC-005-002-----0
  6
CONTINUOUS
 62
     1
  5
21D
 10
20.890021
 20
6222.418
 30
0.0
 11
16.890021
 21
6222.418
 31
0.0
  0
ARC
  8
LC-005-002-----0
  6
CONTINUOUS
 62
     1
  5
21E
 10
16.890021
 20
6221.418
 30
0.0
 40
1.0
 50
90.0
 51
180.0
  0
LINE
  8
LC-005-002-----0
  6
CONTINUOUS
 62
     1
  5
21F
 10
15.890021
 20
6221.418
 30
0.0
 11
15.890021
 21
6219.918
 31
0.0
  0
LINE
  8
LC-005-002-----0
  6
CONTINUOUS
 62
     1
  5
220
 10
4.890021
 20
6223.918
 30
0.0
 11
16.890021
 21
6223.918
 31
0.0
  0
LINE
  8
LC-005-002-----0
  6
CONTINUOUS
 62
     1
  5
221
 10
5.890021
 20
6219.918
 30
0.0
 11
5.890021
 21
6221.418
 31
0.0
  0
ARC
  8
LC-005-002-----0
  6
CONTINUOUS
 62
     1
  5
222
 10
4.890021
 20
6221.418
 30
0.0
 40
1.0
 50
0.0
 51
90.0
  0
LINE
  8
LC-005-002-----0
  6
CONTINUOUS
 62
     1
  5
223
 10
4.890021
 20
6222.418
 30
0.0
 11
0.890021
 21
6222.418
 31
0.0
  0
ARC
  8
LC-005-002-----0
  6
CONTINUOUS
 62
     1
  5
224
 10
0.890021
 20
6221.418
 30
0.0
 40
1.0
 50
90.0
 51
180.0
  0
LINE
  8
LC-005-002-----0
  6
CONTINUOUS
 62
     1
  5
225
 10
-0.109979
 20
6221.418
 30
0.0
 11
-0.109979
 21
6219.918
 31
0.0
  0
LINE
  8
LC-005-002-----0
  6
CONTINUOUS
 62
     1
  5
226
 10
20.890021
 20
6223.918
 30
0.0
 11
32.890021
 21
6223.918
 31
0.0
  0
LINE
  8
LC-005-002-----0
  6
CONTINUOUS
 62
     1
  5
227
 10
-10.109979
 20
6219.918
 30
0.0
 11
-10.109979
 21
6221.418
 31
0.0
  0
ARC
  8
LC-005-002-----0
  6
CONTINUOUS
 62
     1
  5
228
 10
-11.109979
 20
6221.418
 30
0.0
 40
1.0
 50
0.0
 51
90.0
  0
LINE
  8
LC-005-002-----0
  6
CONTINUOUS
 62
     1
  5
229
 10
-11.109979
 20
6222.418
 30
0.0
 11
-29.087979
 21
6222.418
 31
0.0
  0
LINE
  8
LC-005-002-----0
  6
CONTINUOUS
 62
     1
  5
22A
 10
-29.087979
 20
6222.418
 30
0.0
 11
-47.065979
 21
6222.418
 31
0.0
  0
ARC
  8
LC-005-002-----0
  6
CONTINUOUS
 62
     1
  5
22B
 10
-47.065979
 20
6221.418
 30
0.0
 40
1.0
 50
90.0
 51
180.0
  0
LINE
  8
LC-005-002-----0
  6
CONTINUOUS
 62
     1
  5
22C
 10
-48.065979
 20
6221.418
 30
0.0
 11
-48.065979
 21
6219.918
 31
0.0
  0
LINE
  8
LC-005-002-----0
  6
CONTINUOUS
 62
     1
  5
22D
 10
-98.065979
 20
6218.918
 30
0.0
 11
-96.565979
 21
6218.918
 31
0.0
  0
LINE
  8
LC-005-002-----0
  6
CONTINUOUS
 62
     1
  5
22E
 10
-58.065979
 20
6219.918
 30
0.0
 11
-58.065979
 21
6221.418
 31
0.0
  0
ARC
  8
LC-005-002-----0
  6
CONTINUOUS
 62
     1
  5
22F
 10
-59.065979
 20
6221.418
 30
0.0
 40
1.0
 50
0.0
 51
90.0
  0
LINE
  8
LC-005-002-----0
  6
CONTINUOUS
 62
     1
  5
230
 10
-59.065979
 20
6222.418
 30
0.0
 11
-63.065979
 21
6222.418
 31
0.0
  0
ARC
  8
LC-005-002-----0
  6
CONTINUOUS
 62
     1
  5
231
 10
-63.065979
 20
6221.418
 30
0.0
 40
1.0
 50
90.0
 51
180.0
  0
LINE
  8
LC-005-002-----0
  6
CONTINUOUS
 62
     1
  5
232
 10
-64.065979
 20
6221.418
 30
0.0
 11
-64.065979
 21
6219.918
 31
0.0
  0
LINE
  8
LC-005-002-----0
  6
CONTINUOUS
 62
     1
  5
233
 10
38.390021
 20
6218.918
 30
0.0
 11
39.890021
 21
6218.918
 31
0.0
  0
LINE
  8
LC-005-002-----0
  6
CONTINUOUS
 62
     1
  5
234
 10
-74.065979
 20
6219.918
 30
0.0
 11
-74.065979
 21
6221.418
 31
0.0
  0
ARC
  8
LC-005-002-----0
  6
CONTINUOUS
 62
     1
  5
235
 10
-75.065979
 20
6221.418
 30
0.0
 40
1.0
 50
0.0
 51
90.0
  0
LINE
  8
LC-005-002-----0
  6
CONTINUOUS
 62
     1
  5
236
 10
-75.065979
 20
6222.418
 30
0.0
 11
-79.065979
 21
6222.418
 31
0.0
  0
ARC
  8
LC-005-002-----0
  6
CONTINUOUS
 62
     1
  5
237
 10
-79.065979
 20
6221.418
 30
0.0
 40
1.0
 50
90.0
 51
180.0
  0
LINE
  8
LC-005-002-----0
  6
CONTINUOUS
 62
     1
  5
238
 10
-80.065979
 20
6221.418
 30
0.0
 11
-80.065979
 21
6219.918
 31
0.0
  0
LINE
  8
LC-005-002-----0
  6
CONTINUOUS
 62
     1
  5
239
 10
-90.065979
 20
6219.918
 30
0.0
 11
-90.065979
 21
6221.418
 31
0.0
  0
ARC
  8
LC-005-002-----0
  6
CONTINUOUS
 62
     1
  5
23A
 10
-91.065979
 20
6221.418
 30
0.0
 40
1.0
 50
0.0
 51
90.0
  0
LINE
  8
LC-005-002-----0
  6
CONTINUOUS
 62
     1
  5
23B
 10
-91.065979
 20
6222.418
 30
0.0
 11
-95.565979
 21
6222.418
 31
0.0
  0
ARC
  8
LC-005-002-----0
  6
CONTINUOUS
 62
     1
  5
23C
 10
-95.565979
 20
6221.418
 30
0.0
 40
1.0
 50
90.0
 51
180.0
  0
LINE
  8
LC-005-002-----0
  6
CONTINUOUS
 62
     1
  5
23D
 10
-96.565979
 20
6221.418
 30
0.0
 11
-96.565979
 21
6218.918
 31
0.0
  0
LINE
  8
LC-005-002-----0
  6
CONTINUOUS
 62
     1
  5
23E
 10
-59.065979
 20
6223.918
 30
0.0
 11
-47.065979
 21
6223.918
 31
0.0
  0
LINE
  8
LC-007-005-----0
  6
CONTINUOUS
  5
23F
 10
47.058062
 20
6208.918
 30
0.0
 11
41.412021
 21
6214.564041
 31
0.0
  0
LINE
  8
LC-007-005-----0
  6
CONTINUOUS
  5
240
 10
43.412021
 20
6209.028507
 30
0.0
 11
41.412021
 21
6211.028507
 31
0.0
  0
LINE
  8
LC-007-005-----0
  6
CONTINUOUS
  5
241
 10
43.412021
 20
6205.492973
 30
0.0
 11
41.412021
 21
6207.492973
 31
0.0
  0
LINE
  8
LC-007-005-----0
  6
CONTINUOUS
  5
242
 10
43.412021
 20
6201.95744
 30
0.0
 11
41.412021
 21
6203.95744
 31
0.0
  0
LINE
  8
LC-007-005-----0
  6
CONTINUOUS
  5
243
 10
43.412021
 20
6198.421906
 30
0.0
 11
40.412021
 21
6201.421906
 31
0.0
  0
LINE
  8
LC-007-005-----0
  6
CONTINUOUS
  5
244
 10
43.412021
 20
6194.886372
 30
0.0
 11
40.412021
 21
6197.886372
 31
0.0
  0
LINE
  8
LC-007-005-----0
  6
CONTINUOUS
  5
245
 10
43.412021
 20
6191.350838
 30
0.0
 11
40.412021
 21
6194.350838
 31
0.0
  0
LINE
  8
LC-007-005-----0
  6
CONTINUOUS
  5
246
 10
43.412021
 20
6187.815304
 30
0.0
 11
40.412021
 21
6190.815304
 31
0.0
  0
LINE
  8
LC-007-005-----0
  6
CONTINUOUS
  5
247
 10
43.412021
 20
6184.27977
 30
0.0
 11
40.412021
 21
6187.27977
 31
0.0
  0
LINE
  8
LC-007-005-----0
  6
CONTINUOUS
  5
248
 10
43.412021
 20
6180.744236
 30
0.0
 11
40.412021
 21
6183.744236
 31
0.0
  0
LINE
  8
LC-007-005-----0
  6
CONTINUOUS
  5
249
 10
43.412021
 20
6177.208702
 30
0.0
 11
40.412021
 21
6180.208702
 31
0.0
  0
LINE
  8
LC-007-005-----0
  6
CONTINUOUS
  5
24A
 10
43.412021
 20
6173.673168
 30
0.0
 11
40.412021
 21
6176.673168
 31
0.0
  0
LINE
  8
LC-007-005-----0
  6
CONTINUOUS
  5
24B
 10
43.412021
 20
6170.137634
 30
0.0
 11
40.412021
 21
6173.137634
 31
0.0
  0
LINE
  8
LC-007-005-----0
  6
CONTINUOUS
  5
24C
 10
43.412021
 20
6166.602101
 30
0.0
 11
40.412021
 21
6169.602101
 31
0.0
  0
LINE
  8
LC-007-005-----0
  6
CONTINUOUS
  5
24D
 10
43.412021
 20
6163.066567
 30
0.0
 11
40.412021
 21
6166.066567
 31
0.0
  0
LINE
  8
LC-007-005-----0
  6
CONTINUOUS
  5
24E
 10
43.412021
 20
6159.531033
 30
0.0
 11
40.412021
 21
6162.531033
 31
0.0
  0
LINE
  8
LC-007-005-----0
  6
CONTINUOUS
  5
24F
 10
43.412021
 20
6155.995499
 30
0.0
 11
40.412021
 21
6158.995499
 31
0.0
  0
LINE
  8
LC-007-005-----0
  6
CONTINUOUS
  5
250
 10
43.412021
 20
6152.459965
 30
0.0
 11
40.412021
 21
6155.459965
 31
0.0
  0
LINE
  8
LC-007-005-----0
  6
CONTINUOUS
  5
251
 10
43.412021
 20
6148.924431
 30
0.0
 11
40.412021
 21
6151.924431
 31
0.0
  0
LINE
  8
LC-007-005-----0
  6
CONTINUOUS
  5
252
 10
43.412021
 20
6145.388897
 30
0.0
 11
40.412021
 21
6148.388897
 31
0.0
  0
LINE
  8
LC-007-005-----0
  6
CONTINUOUS
  5
253
 10
43.412021
 20
6141.853363
 30
0.0
 11
40.412021
 21
6144.853363
 31
0.0
  0
LINE
  8
LC-007-005-----0
  6
CONTINUOUS
  5
254
 10
43.412021
 20
6138.317829
 30
0.0
 11
40.412021
 21
6141.317829
 31
0.0
  0
LINE
  8
LC-007-005-----0
  6
CONTINUOUS
  5
255
 10
43.412021
 20
6134.782295
 30
0.0
 11
40.412021
 21
6137.782295
 31
0.0
  0
LINE
  8
LC-007-005-----0
  6
CONTINUOUS
  5
256
 10
43.412021
 20
6131.246761
 30
0.0
 11
40.412021
 21
6134.246761
 31
0.0
  0
LINE
  8
LC-007-005-----0
  6
CONTINUOUS
  5
257
 10
43.412021
 20
6127.711228
 30
0.0
 11
40.412021
 21
6130.711228
 31
0.0
  0
LINE
  8
LC-007-005-----0
  6
CONTINUOUS
  5
258
 10
43.412021
 20
6124.175694
 30
0.0
 11
40.412021
 21
6127.175694
 31
0.0
  0
LINE
  8
LC-007-005-----0
  6
CONTINUOUS
  5
259
 10
43.412021
 20
6120.64016
 30
0.0
 11
40.412021
 21
6123.64016
 31
0.0
  0
LINE
  8
LC-007-005-----0
  6
CONTINUOUS
  5
25A
 10
43.412021
 20
6117.104626
 30
0.0
 11
40.412021
 21
6120.104626
 31
0.0
  0
LINE
  8
LC-007-005-----0
  6
CONTINUOUS
  5
25B
 10
43.412021
 20
6113.569092
 30
0.0
 11
40.412021
 21
6116.569092
 31
0.0
  0
LINE
  8
LC-007-005-----0
  6
CONTINUOUS
  5
25C
 10
43.412021
 20
6110.033558
 30
0.0
 11
40.412021
 21
6113.033558
 31
0.0
  0
LINE
  8
LC-007-005-----0
  6
CONTINUOUS
  5
25D
 10
43.412021
 20
6106.498024
 30
0.0
 11
40.412021
 21
6109.498024
 31
0.0
  0
LINE
  8
LC-007-005-----0
  6
CONTINUOUS
  5
25E
 10
43.412021
 20
6102.96249
 30
0.0
 11
40.412021
 21
6105.96249
 31
0.0
  0
LINE
  8
LC-007-005-----0
  6
CONTINUOUS
  5
25F
 10
43.412021
 20
6099.426956
 30
0.0
 11
40.412021
 21
6102.426956
 31
0.0
  0
LINE
  8
LC-007-005-----0
  6
CONTINUOUS
  5
260
 10
43.412021
 20
6095.891422
 30
0.0
 11
40.412021
 21
6098.891422
 31
0.0
  0
LINE
  8
LC-007-005-----0
  6
CONTINUOUS
  5
261
 10
43.412021
 20
6092.355888
 30
0.0
 11
40.412021
 21
6095.355888
 31
0.0
  0
LINE
  8
LC-007-005-----0
  6
CONTINUOUS
  5
262
 10
43.412021
 20
6088.820355
 30
0.0
 11
40.412021
 21
6091.820355
 31
0.0
  0
LINE
  8
LC-007-005-----0
  6
CONTINUOUS
  5
263
 10
43.412021
 20
6085.284821
 30
0.0
 11
40.412021
 21
6088.284821
 31
0.0
  0
LINE
  8
LC-007-005-----0
  6
CONTINUOUS
  5
264
 10
43.412021
 20
6081.749287
 30
0.0
 11
40.412021
 21
6084.749287
 31
0.0
  0
LINE
  8
LC-007-005-----0
  6
CONTINUOUS
  5
265
 10
43.412021
 20
6078.213753
 30
0.0
 11
40.412021
 21
6081.213753
 31
0.0
  0
LINE
  8
LC-007-005-----0
  6
CONTINUOUS
  5
266
 10
43.412021
 20
6074.678219
 30
0.0
 11
40.412021
 21
6077.678219
 31
0.0
  0
LINE
  8
LC-007-005-----0
  6
CONTINUOUS
  5
267
 10
43.412021
 20
6071.142685
 30
0.0
 11
40.412021
 21
6074.142685
 31
0.0
  0
LINE
  8
LC-007-005-----0
  6
CONTINUOUS
  5
268
 10
43.412021
 20
6067.607151
 30
0.0
 11
40.412021
 21
6070.607151
 31
0.0
  0
LINE
  8
LC-007-005-----0
  6
CONTINUOUS
  5
269
 10
43.412021
 20
6064.071617
 30
0.0
 11
40.412021
 21
6067.071617
 31
0.0
  0
LINE
  8
LC-005-002-----0
  6
CONTINUOUS
 62
     1
  5
26A
 10
210.412021
 20
6143.146
 30
0.0
 11
227.412021
 21
6143.146
 31
0.0
  0
LINE
  8
LC-007-005-----0
  6
CONTINUOUS
  5
26B
 10
43.412021
 20
6060.536083
 30
0.0
 11
40.412021
 21
6063.536083
 31
0.0
  0
LINE
  8
LC-007-005-----0
  6
CONTINUOUS
  5
26C
 10
43.412021
 20
6057.000549
 30
0.0
 11
40.412021
 21
6060.000549
 31
0.0
  0
LINE
  8
LC-007-005-----0
  6
CONTINUOUS
  5
26D
 10
43.412021
 20
6053.465016
 30
0.0
 11
40.412021
 21
6056.465016
 31
0.0
  0
LINE
  8
LC-007-005-----0
  6
CONTINUOUS
  5
26E
 10
43.412021
 20
6049.929482
 30
0.0
 11
40.412021
 21
6052.929482
 31
0.0
  0
ARC
  8
LC-006-002-RND-0
  6
CONTINUOUS
  5
26F
 10
153.724021
 20
6187.856
 30
0.0
 40
3.79
 50
90.0
 51
180.0
  0
ARC
  8
LC-006-002-RND-0
  6
CONTINUOUS
  5
270
 10
153.724021
 20
6057.48
 30
0.0
 40
3.79
 50
180.0
 51
270.0
  0
LINE
  8
LC-007-005-----0
  6
CONTINUOUS
  5
271
 10
43.412021
 20
6046.393948
 30
0.0
 11
40.412021
 21
6049.393948
 31
0.0
  0
LINE
  8
LC-007-005-----0
  6
CONTINUOUS
  5
272
 10
43.412021
 20
6042.858414
 30
0.0
 11
40.412021
 21
6045.858414
 31
0.0
  0
LINE
  8
LC-007-005-----0
  6
CONTINUOUS
  5
273
 10
43.412021
 20
6039.32288
 30
0.0
 11
40.412021
 21
6042.32288
 31
0.0
  0
ARC
  8
LC-006-002-RND-0
  6
CONTINUOUS
  5
274
 10
284.100021
 20
6057.48
 30
0.0
 40
3.79
 50
270.0
 51
0.0
  0
LINE
  8
LC-007-005-----0
  6
CONTINUOUS
  5
275
 10
43.412021
 20
6035.787346
 30
0.0
 11
40.412021
 21
6038.787346
 31
0.0
  0
LINE
  8
LC-007-005-----0
  6
CONTINUOUS
  5
276
 10
43.412021
 20
6032.251812
 30
0.0
 11
40.412021
 21
6035.251812
 31
0.0
  0
LINE
  8
LC-007-005-----0
  6
CONTINUOUS
  5
277
 10
43.412021
 20
6028.716278
 30
0.0
 11
40.412021
 21
6031.716278
 31
0.0
  0
ARC
  8
LC-006-002-RND-0
  6
CONTINUOUS
  5
278
 10
284.100021
 20
6187.856
 30
0.0
 40
3.79
 50
0.0
 51
90.0
  0
LINE
  8
LC-007-005-----0
  6
CONTINUOUS
  5
279
 10
42.939233
 20
6025.653532
 30
0.0
 11
40.412021
 21
6028.180744
 31
0.0
  0
LINE
  8
LC-007-005-----0
  6
CONTINUOUS
  5
27A
 10
42.192087
 20
6022.865144
 30
0.0
 11
40.412021
 21
6024.64521
 31
0.0
  0
LINE
  8
LC-007-005-----0
  6
CONTINUOUS
  5
27B
 10
-99.587979
 20
6221.213753
 30
0.0
 11
-101.292226
 21
6222.918
 31
0.0
  0
LINE
  8
LC-007-005-----0
  6
CONTINUOUS
  5
27C
 10
-99.587979
 20
6217.678219
 30
0.0
 11
-103.568529
 21
6221.65877
 31
0.0
  0
LINE
  8
LC-007-005-----0
  6
CONTINUOUS
  5
27D
 10
-99.587979
 20
6214.142685
 30
0.0
 11
-103.587979
 21
6218.142685
 31
0.0
  0
LINE
  8
LC-007-005-----0
  6
CONTINUOUS
  5
27E
 10
-99.587979
 20
6210.607151
 30
0.0
 11
-103.587979
 21
6214.607151
 31
0.0
  0
LINE
  8
LC-007-005-----0
  6
CONTINUOUS
  5
27F
 10
-99.587979
 20
6207.071617
 30
0.0
 11
-105.587979
 21
6213.071617
 31
0.0
  0
LINE
  8
LC-007-005-----0
  6
CONTINUOUS
  5
280
 10
-98.587979
 20
6202.536083
 30
0.0
 11
-98.969895
 21
6202.918
 31
0.0
  0
LINE
  8
LC-007-005-----0
  6
CONTINUOUS
  5
281
 10
-99.587979
 20
6203.536083
 30
0.0
 11
-101.587979
 21
6205.536083
 31
0.0
  0
LINE
  8
LC-007-005-----0
  6
CONTINUOUS
  5
282
 10
-104.969895
 20
6208.918
 30
0.0
 11
-105.587979
 21
6209.536083
 31
0.0
  0
LINE
  8
LC-007-005-----0
  6
CONTINUOUS
  5
283
 10
-98.587979
 20
6199.000549
 30
0.0
 11
-101.587979
 21
6202.000549
 31
0.0
  0
LINE
  8
LC-007-005-----0
  6
CONTINUOUS
  5
284
 10
-98.587979
 20
6195.465016
 30
0.0
 11
-101.587979
 21
6198.465016
 31
0.0
  0
LINE
  8
LC-007-005-----0
  6
CONTINUOUS
  5
285
 10
-98.587979
 20
6191.929482
 30
0.0
 11
-101.587979
 21
6194.929482
 31
0.0
  0
LINE
  8
LC-007-005-----0
  6
CONTINUOUS
  5
286
 10
-98.587979
 20
6188.393948
 30
0.0
 11
-101.587979
 21
6191.393948
 31
0.0
  0
LINE
  8
LC-007-005-----0
  6
CONTINUOUS
  5
287
 10
-98.587979
 20
6184.858414
 30
0.0
 11
-101.587979
 21
6187.858414
 31
0.0
  0
LINE
  8
LC-007-005-----0
  6
CONTINUOUS
  5
288
 10
-98.587979
 20
6181.32288
 30
0.0
 11
-101.587979
 21
6184.32288
 31
0.0
  0
LINE
  8
LC-007-005-----0
  6
CONTINUOUS
  5
289
 10
-98.587979
 20
6177.787346
 30
0.0
 11
-101.587979
 21
6180.787346
 31
0.0
  0
LINE
  8
LC-007-005-----0
  6
CONTINUOUS
  5
28A
 10
-98.587979
 20
6174.251812
 30
0.0
 11
-101.587979
 21
6177.251812
 31
0.0
  0
LINE
  8
LC-007-005-----0
  6
CONTINUOUS
  5
28B
 10
-98.587979
 20
6170.716278
 30
0.0
 11
-101.587979
 21
6173.716278
 31
0.0
  0
ARC
  8
LC-005-002-----0
  6
CONTINUOUS
 62
     1
  5
28C
 10
259.412021
 20
6066.69
 30
0.0
 40
3.5
 50
270.0
 51
90.0
  0
ARC
  8
LC-005-002-----0
  6
CONTINUOUS
 62
     1
  5
28D
 10
178.412021
 20
6066.69
 30
0.0
 40
3.5
 50
90.0
 51
270.0
  0
LINE
  8
LC-005-002-----0
  6
CONTINUOUS
 62
     1
  5
28E
 10
259.412021
 20
6063.19
 30
0.0
 11
178.412021
 21
6063.19
 31
0.0
  0
LINE
  8
LC-005-002-----0
  6
CONTINUOUS
 62
     1
  5
28F
 10
259.412021
 20
6070.19
 30
0.0
 11
178.412021
 21
6070.19
 31
0.0
  0
ARC
  8
LC-005-002-----0
  6
CONTINUOUS
 62
     1
  5
290
 10
243.412021
 20
6082.69
 30
0.0
 40
3.5
 50
270.0
 51
90.0
  0
ARC
  8
LC-005-002-----0
  6
CONTINUOUS
 62
     1
  5
291
 10
194.412021
 20
6082.69
 30
0.0
 40
3.5
 50
90.0
 51
270.0
  0
LINE
  8
LC-005-002-----0
  6
CONTINUOUS
 62
     1
  5
292
 10
243.412021
 20
6079.19
 30
0.0
 11
194.412021
 21
6079.19
 31
0.0
  0
LINE
  8
LC-005-002-----0
  6
CONTINUOUS
 62
     1
  5
293
 10
243.412021
 20
6086.19
 30
0.0
 11
194.412021
 21
6086.19
 31
0.0
  0
ARC
  8
LC-005-002-----0
  6
CONTINUOUS
 62
     1
  5
294
 10
227.412021
 20
6098.69
 30
0.0
 40
3.5
 50
270.0
 51
90.0
  0
ARC
  8
LC-005-002-----0
  6
CONTINUOUS
 62
     1
  5
295
 10
210.412021
 20
6098.69
 30
0.0
 40
3.5
 50
90.0
 51
270.0
  0
LINE
  8
LC-007-005-----0
  6
CONTINUOUS
  5
296
 10
-98.587979
 20
6167.180744
 30
0.0
 11
-101.587979
 21
6170.180744
 31
0.0
  0
LINE
  8
LC-007-005-----0
  6
CONTINUOUS
  5
297
 10
-98.587979
 20
6163.64521
 30
0.0
 11
-101.587979
 21
6166.64521
 31
0.0
  0
LINE
  8
LC-007-005-----0
  6
CONTINUOUS
  5
298
 10
-98.587979
 20
6160.109676
 30
0.0
 11
-101.587979
 21
6163.109676
 31
0.0
  0
LINE
  8
LC-007-005-----0
  6
CONTINUOUS
  5
299
 10
-98.587979
 20
6156.574143
 30
0.0
 11
-101.587979
 21
6159.574143
 31
0.0
  0
LINE
  8
LC-007-005-----0
  6
CONTINUOUS
  5
29A
 10
-98.587979
 20
6153.038609
 30
0.0
 11
-101.587979
 21
6156.038609
 31
0.0
  0
LINE
  8
LC-007-005-----0
  6
CONTINUOUS
  5
29B
 10
-98.587979
 20
6149.503075
 30
0.0
 11
-101.587979
 21
6152.503075
 31
0.0
  0
LINE
  8
LC-007-005-----0
  6
CONTINUOUS
  5
29C
 10
-98.587979
 20
6145.967541
 30
0.0
 11
-101.587979
 21
6148.967541
 31
0.0
  0
LINE
  8
LC-007-005-----0
  6
CONTINUOUS
  5
29D
 10
-98.587979
 20
6142.432007
 30
0.0
 11
-101.587979
 21
6145.432007
 31
0.0
  0
LINE
  8
LC-007-005-----0
  6
CONTINUOUS
  5
29E
 10
-98.587979
 20
6138.896473
 30
0.0
 11
-101.587979
 21
6141.896473
 31
0.0
  0
LINE
  8
LC-007-005-----0
  6
CONTINUOUS
  5
29F
 10
-98.587979
 20
6135.360939
 30
0.0
 11
-101.587979
 21
6138.360939
 31
0.0
  0
LINE
  8
LC-007-005-----0
  6
CONTINUOUS
  5
2A0
 10
-98.587979
 20
6131.825405
 30
0.0
 11
-101.587979
 21
6134.825405
 31
0.0
  0
LINE
  8
LC-007-005-----0
  6
CONTINUOUS
  5
2A1
 10
-98.587979
 20
6128.289871
 30
0.0
 11
-101.587979
 21
6131.289871
 31
0.0
  0
LINE
  8
LC-007-005-----0
  6
CONTINUOUS
  5
2A2
 10
-98.587979
 20
6124.754337
 30
0.0
 11
-101.587979
 21
6127.754337
 31
0.0
  0
LINE
  8
LC-007-005-----0
  6
CONTINUOUS
  5
2A3
 10
-98.587979
 20
6121.218803
 30
0.0
 11
-101.587979
 21
6124.218803
 31
0.0
  0
LINE
  8
LC-007-005-----0
  6
CONTINUOUS
  5
2A4
 10
-98.587979
 20
6117.68327
 30
0.0
 11
-101.587979
 21
6120.68327
 31
0.0
  0
LINE
  8
LC-007-005-----0
  6
CONTINUOUS
  5
2A5
 10
-98.587979
 20
6114.147736
 30
0.0
 11
-101.587979
 21
6117.147736
 31
0.0
  0
LINE
  8
LC-007-005-----0
  6
CONTINUOUS
  5
2A6
 10
-98.587979
 20
6110.612202
 30
0.0
 11
-101.587979
 21
6113.612202
 31
0.0
  0
LINE
  8
LC-007-005-----0
  6
CONTINUOUS
  5
2A7
 10
-98.587979
 20
6107.076668
 30
0.0
 11
-101.587979
 21
6110.076668
 31
0.0
  0
LINE
  8
LC-007-005-----0
  6
CONTINUOUS
  5
2A8
 10
-98.587979
 20
6103.541134
 30
0.0
 11
-101.587979
 21
6106.541134
 31
0.0
  0
LINE
  8
LC-007-005-----0
  6
CONTINUOUS
  5
2A9
 10
-98.587979
 20
6100.0056
 30
0.0
 11
-101.587979
 21
6103.0056
 31
0.0
  0
LINE
  8
LC-007-005-----0
  6
CONTINUOUS
  5
2AA
 10
-98.587979
 20
6096.470066
 30
0.0
 11
-101.587979
 21
6099.470066
 31
0.0
  0
LINE
  8
LC-007-005-----0
  6
CONTINUOUS
  5
2AB
 10
-98.587979
 20
6092.934532
 30
0.0
 11
-101.587979
 21
6095.934532
 31
0.0
  0
LINE
  8
LC-007-005-----0
  6
CONTINUOUS
  5
2AC
 10
-98.587979
 20
6089.398998
 30
0.0
 11
-101.587979
 21
6092.398998
 31
0.0
  0
LINE
  8
LC-007-005-----0
  6
CONTINUOUS
  5
2AD
 10
-98.587979
 20
6085.863464
 30
0.0
 11
-101.587979
 21
6088.863464
 31
0.0
  0
LINE
  8
LC-007-005-----0
  6
CONTINUOUS
  5
2AE
 10
-98.587979
 20
6082.327931
 30
0.0
 11
-101.587979
 21
6085.327931
 31
0.0
  0
LINE
  8
LC-007-005-----0
  6
CONTINUOUS
  5
2AF
 10
-98.587979
 20
6078.792397
 30
0.0
 11
-101.587979
 21
6081.792397
 31
0.0
  0
LINE
  8
LC-007-005-----0
  6
CONTINUOUS
  5
2B0
 10
-98.587979
 20
6075.256863
 30
0.0
 11
-101.587979
 21
6078.256863
 31
0.0
  0
LINE
  8
LC-007-005-----0
  6
CONTINUOUS
  5
2B1
 10
-98.587979
 20
6071.721329
 30
0.0
 11
-101.587979
 21
6074.721329
 31
0.0
  0
LINE
  8
LC-007-005-----0
  6
CONTINUOUS
  5
2B2
 10
-98.587979
 20
6068.185795
 30
0.0
 11
-101.587979
 21
6071.185795
 31
0.0
  0
LINE
  8
LC-007-005-----0
  6
CONTINUOUS
  5
2B3
 10
-98.587979
 20
6064.650261
 30
0.0
 11
-101.587979
 21
6067.650261
 31
0.0
  0
LINE
  8
LC-007-005-----0
  6
CONTINUOUS
  5
2B4
 10
-98.587979
 20
6061.114727
 30
0.0
 11
-101.587979
 21
6064.114727
 31
0.0
  0
LINE
  8
LC-007-005-----0
  6
CONTINUOUS
  5
2B5
 10
-98.587979
 20
6057.579193
 30
0.0
 11
-101.587979
 21
6060.579193
 31
0.0
  0
LINE
  8
LC-007-005-----0
  6
CONTINUOUS
  5
2B6
 10
-98.587979
 20
6054.043659
 30
0.0
 11
-101.587979
 21
6057.043659
 31
0.0
  0
LINE
  8
LC-007-005-----0
  6
CONTINUOUS
  5
2B7
 10
-98.587979
 20
6050.508125
 30
0.0
 11
-101.587979
 21
6053.508125
 31
0.0
  0
LINE
  8
LC-007-005-----0
  6
CONTINUOUS
  5
2B8
 10
-98.587979
 20
6046.972591
 30
0.0
 11
-101.587979
 21
6049.972591
 31
0.0
  0
LINE
  8
LC-007-005-----0
  6
CONTINUOUS
  5
2B9
 10
-98.587979
 20
6043.437058
 30
0.0
 11
-101.587979
 21
6046.437058
 31
0.0
  0
LINE
  8
LC-007-005-----0
  6
CONTINUOUS
  5
2BA
 10
-98.587979
 20
6039.901524
 30
0.0
 11
-101.587979
 21
6042.901524
 31
0.0
  0
LINE
  8
LC-007-005-----0
  6
CONTINUOUS
  5
2BB
 10
-98.587979
 20
6036.36599
 30
0.0
 11
-101.587979
 21
6039.36599
 31
0.0
  0
LINE
  8
LC-007-005-----0
  6
CONTINUOUS
  5
2BC
 10
-98.587979
 20
6032.830456
 30
0.0
 11
-101.587979
 21
6035.830456
 31
0.0
  0
LINE
  8
LC-007-005-----0
  6
CONTINUOUS
  5
2BD
 10
-98.587979
 20
6029.294922
 30
0.0
 11
-101.587979
 21
6032.294922
 31
0.0
  0
LINE
  8
LC-007-005-----0
  6
CONTINUOUS
  5
2BE
 10
-98.587979
 20
6025.759388
 30
0.0
 11
-101.587979
 21
6028.759388
 31
0.0
  0
LINE
  8
LC-007-005-----0
  6
CONTINUOUS
  5
2BF
 10
-98.587979
 20
6022.223854
 30
0.0
 11
-100.784866
 21
6024.420741
 31
0.0
  0
LINE
  8
LC-005-002-----0
  6
CONTINUOUS
 62
     1
  5
2C0
 10
227.412021
 20
6095.19
 30
0.0
 11
210.412021
 21
6095.19
 31
0.0
  0
LINE
  8
LC-005-002-----0
  6
CONTINUOUS
 62
     1
  5
2C1
 10
227.412021
 20
6102.19
 30
0.0
 11
210.412021
 21
6102.19
 31
0.0
  0
ARC
  8
LC-005-002-----0
  6
CONTINUOUS
 62
     1
  5
2C2
 10
274.890021
 20
6163.168
 30
0.0
 40
3.5
 50
0.0
 51
180.0
  0
ARC
  8
LC-005-002-----0
  6
CONTINUOUS
 62
     1
  5
2C3
 10
274.890021
 20
6082.168
 30
0.0
 40
3.5
 50
180.0
 51
0.0
  0
ARC
  8
LC-005-002-----0
  6
CONTINUOUS
 62
     1
  5
2C4
 10
162.934021
 20
6082.168
 30
0.0
 40
3.5
 50
180.0
 51
0.0
  0
ARC
  8
LC-005-002-----0
  6
CONTINUOUS
 62
     1
  5
2C5
 10
162.934021
 20
6163.168
 30
0.0
 40
3.5
 50
0.0
 51
180.0
  0
LINE
  8
LC-005-002-----0
  6
CONTINUOUS
 62
     1
  5
2C6
 10
159.434021
 20
6082.168
 30
0.0
 11
159.434021
 21
6163.168
 31
0.0
  0
LINE
  8
LC-005-002-----0
  6
CONTINUOUS
 62
     1
  5
2C7
 10
166.434021
 20
6082.168
 30
0.0
 11
166.434021
 21
6163.168
 31
0.0
  0
LINE
  8
LC-005-002-----0
  6
CONTINUOUS
 62
     1
  5
2C8
 10
278.390021
 20
6163.168
 30
0.0
 11
278.390021
 21
6082.168
 31
0.0
  0
LINE
  8
LC-005-002-----0
  6
CONTINUOUS
 62
     1
  5
2C9
 10
271.390021
 20
6163.168
 30
0.0
 11
271.390021
 21
6082.168
 31
0.0
  0
ARC
  8
LC-005-002-----0
  6
CONTINUOUS
 62
     1
  5
2CA
 10
178.934021
 20
6098.168
 30
0.0
 40
3.5
 50
180.0
 51
0.0
  0
ARC
  8
LC-005-002-----0
  6
CONTINUOUS
 62
     1
  5
2CB
 10
178.934021
 20
6147.168
 30
0.0
 40
3.5
 50
0.0
 51
180.0
  0
LINE
  8
LC-005-002-----0
  6
CONTINUOUS
 62
     1
  5
2CC
 10
175.434021
 20
6098.168
 30
0.0
 11
175.434021
 21
6147.168
 31
0.0
  0
LINE
  8
LC-005-002-----0
  6
CONTINUOUS
 62
     1
  5
2CD
 10
182.434021
 20
6098.168
 30
0.0
 11
182.434021
 21
6147.168
 31
0.0
  0
ARC
  8
LC-005-002-----0
  6
CONTINUOUS
 62
     1
  5
2CE
 10
258.890021
 20
6147.168
 30
0.0
 40
3.5
 50
0.0
 51
180.0
  0
ARC
  8
LC-005-002-----0
  6
CONTINUOUS
 62
     1
  5
2CF
 10
258.890021
 20
6098.168
 30
0.0
 40
3.5
 50
180.0
 51
0.0
  0
LINE
  8
LC-005-002-----0
  6
CONTINUOUS
 62
     1
  5
2D0
 10
262.390021
 20
6147.168
 30
0.0
 11
262.390021
 21
6098.168
 31
0.0
  0
LINE
  8
LC-005-002-----0
  6
CONTINUOUS
 62
     1
  5
2D1
 10
255.390021
 20
6147.168
 30
0.0
 11
255.390021
 21
6098.168
 31
0.0
  0
ARC
  8
LC-005-002-----0
  6
CONTINUOUS
 62
     1
  5
2D2
 10
194.934021
 20
6114.168
 30
0.0
 40
3.5
 50
180.0
 51
0.0
  0
ARC
  8
LC-005-002-----0
  6
CONTINUOUS
 62
     1
  5
2D3
 10
194.934021
 20
6131.168
 30
0.0
 40
3.5
 50
0.0
 51
180.0
  0
LINE
  8
LC-005-002-----0
  6
CONTINUOUS
 62
     1
  5
2D4
 10
191.434021
 20
6114.168
 30
0.0
 11
191.434021
 21
6131.168
 31
0.0
  0
LINE
  8
LC-005-002-----0
  6
CONTINUOUS
 62
     1
  5
2D5
 10
284.100021
 20
6053.69
 30
0.0
 11
153.724021
 21
6053.69
 31
0.0
  0
LINE
  8
LC-005-002-----0
  6
CONTINUOUS
 62
     1
  5
2D6
 10
149.934021
 20
6057.48
 30
0.0
 11
149.934021
 21
6187.856
 31
0.0
  0
LINE
  8
LC-005-002-----0
  6
CONTINUOUS
 62
     1
  5
2D7
 10
153.724021
 20
6191.646
 30
0.0
 11
284.100021
 21
6191.646
 31
0.0
  0
LINE
  8
LC-005-002-----0
  6
CONTINUOUS
 62
     1
  5
2D8
 10
287.890021
 20
6187.856
 30
0.0
 11
287.890021
 21
6057.48
 31
0.0
  0
LINE
  8
LC-005-002-----0
  6
CONTINUOUS
 62
     1
  5
2D9
 10
198.434021
 20
6114.168
 30
0.0
 11
198.434021
 21
6131.168
 31
0.0
  0
ARC
  8
LC-005-002-----0
  6
CONTINUOUS
 62
     1
  5
2DA
 10
242.890021
 20
6131.168
 30
0.0
 40
3.5
 50
0.0
 51
180.0
  0
ARC
  8
LC-005-002-----0
  6
CONTINUOUS
 62
     1
  5
2DB
 10
242.890021
 20
6114.168
 30
0.0
 40
3.5
 50
180.0
 51
0.0
  0
LINE
  8
LC-005-002-----0
  6
CONTINUOUS
 62
     1
  5
2DC
 10
246.390021
 20
6131.168
 30
0.0
 11
246.390021
 21
6114.168
 31
0.0
  0
LINE
  8
LC-005-002-----0
  6
CONTINUOUS
 62
     1
  5
2DD
 10
239.390021
 20
6131.168
 30
0.0
 11
239.390021
 21
6114.168
 31
0.0
  0
ARC
  8
LC-005-002-----0
  6
CONTINUOUS
 62
     1
  5
2DE
 10
178.412021
 20
6178.646
 30
0.0
 40
3.5
 50
90.0
 51
270.0
  0
ARC
  8
LC-005-002-----0
  6
CONTINUOUS
 62
     1
  5
2DF
 10
259.412021
 20
6178.646
 30
0.0
 40
3.5
 50
270.0
 51
90.0
  0
LINE
  8
LC-005-002-----0
  6
CONTINUOUS
 62
     1
  5
2E0
 10
178.412021
 20
6182.146
 30
0.0
 11
259.412021
 21
6182.146
 31
0.0
  0
LINE
  8
LC-005-002-----0
  6
CONTINUOUS
 62
     1
  5
2E1
 10
178.412021
 20
6175.146
 30
0.0
 11
259.412021
 21
6175.146
 31
0.0
  0
ARC
  8
LC-005-002-----0
  6
CONTINUOUS
 62
     1
  5
2E2
 10
194.412021
 20
6162.646
 30
0.0
 40
3.5
 50
90.0
 51
270.0
  0
ARC
  8
LC-005-002-----0
  6
CONTINUOUS
 62
     1
  5
2E3
 10
243.412021
 20
6162.646
 30
0.0
 40
3.5
 50
270.0
 51
90.0
  0
LINE
  8
LC-005-002-----0
  6
CONTINUOUS
 62
     1
  5
2E4
 10
194.412021
 20
6166.146
 30
0.0
 11
243.412021
 21
6166.146
 31
0.0
  0
LINE
  8
LC-005-002-----0
  6
CONTINUOUS
 62
     1
  5
2E5
 10
194.412021
 20
6159.146
 30
0.0
 11
243.412021
 21
6159.146
 31
0.0
  0
ARC
  8
LC-005-002-----0
  6
CONTINUOUS
 62
     1
  5
2E6
 10
210.412021
 20
6146.646
 30
0.0
 40
3.5
 50
90.0
 51
270.0
  0
ARC
  8
LC-005-002-----0
  6
CONTINUOUS
 62
     1
  5
2E7
 10
227.412021
 20
6146.646
 30
0.0
 40
3.5
 50
270.0
 51
90.0
  0
LINE
  8
LC-005-002-----0
  6
CONTINUOUS
 62
     1
  5
2E8
 10
210.412021
 20
6150.146
 30
0.0
 11
227.412021
 21
6150.146
 31
0.0
  0
ARC
  8
LC-006-002-RND-0
  6
CONTINUOUS
  5
2E9
 10
152.412021
 20
6189.168
 30
0.0
 40
3.0
 50
90.0
 51
180.0
  0
ARC
  8
LC-006-002-RND-0
  6
CONTINUOUS
  5
2EA
 10
152.412021
 20
6056.168
 30
0.0
 40
3.0
 50
180.0
 51
270.0
  0
ARC
  8
LC-006-002-RND-0
  6
CONTINUOUS
  5
2EB
 10
285.412021
 20
6056.168
 30
0.0
 40
3.0
 50
270.0
 51
0.0
  0
ARC
  8
LC-006-002-RND-0
  6
CONTINUOUS
  5
2EC
 10
285.412021
 20
6189.168
 30
0.0
 40
3.0
 50
0.0
 51
90.0
  0
LINE
  8
LC-005-002-----0
  6
CONTINUOUS
 62
     1
  5
2ED
 10
143.412021
 20
6195.168
 30
0.0
 11
143.412021
 21
6050.168
 31
0.0
  0
LINE
  8
LC-005-002-----0
  6
CONTINUOUS
 62
     1
  5
2EE
 10
146.412021
 20
6047.168
 30
0.0
 11
291.412021
 21
6047.168
 31
0.0
  0
LINE
  8
LC-005-002-----0
  6
CONTINUOUS
 62
     1
  5
2EF
 10
294.412021
 20
6050.168
 30
0.0
 11
294.412021
 21
6195.168
 31
0.0
  0
LINE
  8
LC-005-002-----0
  6
CONTINUOUS
 62
     1
  5
2F0
 10
291.412021
 20
6198.168
 30
0.0
 11
146.412021
 21
6198.168
 31
0.0
  0
LINE
  8
LC-005-002-----0
  6
CONTINUOUS
 62
     1
  5
2F1
 10
149.412021
 20
6189.168
 30
0.0
 11
149.412021
 21
6056.168
 31
0.0
  0
LINE
  8
LC-005-002-----0
  6
CONTINUOUS
 62
     1
  5
2F2
 10
152.412021
 20
6053.168
 30
0.0
 11
285.412021
 21
6053.168
 31
0.0
  0
LINE
  8
LC-005-002-----0
  6
CONTINUOUS
 62
     1
  5
2F3
 10
288.412021
 20
6056.168
 30
0.0
 11
288.412021
 21
6189.168
 31
0.0
  0
LINE
  8
LC-005-002-----0
  6
CONTINUOUS
 62
     1
  5
2F4
 10
285.412021
 20
6192.168
 30
0.0
 11
152.412021
 21
6192.168
 31
0.0
  0
ARC
  8
LC-006-002-RND-0
  6
CONTINUOUS
  5
2F5
 10
291.412021
 20
6195.168
 30
0.0
 40
3.0
 50
0.0
 51
90.0
  0
ARC
  8
LC-006-002-RND-0
  6
CONTINUOUS
  5
2F6
 10
146.412021
 20
6195.168
 30
0.0
 40
3.0
 50
90.0
 51
180.0
  0
ARC
  8
LC-006-002-RND-0
  6
CONTINUOUS
  5
2F7
 10
146.412021
 20
6050.168
 30
0.0
 40
3.0
 50
180.0
 51
270.0
  0
ARC
  8
LC-006-002-RND-0
  6
CONTINUOUS
  5
2F8
 10
291.412021
 20
6050.168
 30
0.0
 40
3.0
 50
270.0
 51
0.0
  0
LINE
  8
LC-005-002-----0
  6
CONTINUOUS
  5
2F9
 10
-98.587979
 20
6044.418
 30
0.0
 11
40.412021
 21
6044.418
 31
0.0
  0
ENDSEC
  0
EOF
