  0
SECTION
  2
HEADER
  9
$ACADVER
  1
AC1009
  9
$INSBASE
 10
0.0
 20
0.0
 30
0.0
  9
$EXTMIN
 10
0.0
 20
0.0
 30
0.0
  9
$EXTMAX
 10
840.0
 20
594.0
 30
0.0
  9
$LIMMIN
 10
0.0
 20
0.0
  9
$LIMMAX
 10
840.0
 20
594.0
  9
$ORTHOMODE
 70
     0
  9
$REGENMODE
 70
     1
  9
$FILLMODE
 70
     1
  9
$QTEXTMODE
 70
     0
  9
$MIRRTEXT
 70
     1
  9
$DRAGMODE
 70
     2
  9
$LTSCALE
 40
2.0
  9
$OSMODE
 70
     0
  9
$ATTMODE
 70
     1
  9
$TEXTSIZE
 40
0.2
  9
$TRACEWID
 40
0.05
  9
$TEXTSTYLE
  7
STANDARD
  9
$CLAYER
  8
0
  9
$CELTYPE
  6
BYLAYER
  9
$CECOLOR
 62
     7
  9
$DIMSCALE
 40
2.0
  9
$DIMASZ
 40
3.5
  9
$DIMEXO
 40
0.0625
  9
$DIMDLI
 40
0.38
  9
$DIMRND
 40
0.0
  9
$DIMDLE
 40
0.0
  9
$DIMEXE
 40
0.18
  9
$DIMTP
 40
0.0
  9
$DIMTM
 40
0.0
  9
$DIMTXT
 40
3.5
  9
$DIMCEN
 40
0.09
  9
$DIMTSZ
 40
0.0
  9
$DIMTOL
 70
     0
  9
$DIMLIM
 70
     0
  9
$DIMTIH
 70
     1
  9
$DIMTOH
 70
     1
  9
$DIMSE1
 70
     0
  9
$DIMSE2
 70
     0
  9
$DIMTAD
 70
     1
  9
$DIMZIN
 70
     0
  9
$DIMBLK
  1

  9
$DIMASO
 70
     1
  9
$DIMSHO
 70
     1
  9
$DIMPOST
  1

  9
$DIMAPOST
  1

  9
$DIMALT
 70
     0
  9
$DIMALTD
 70
     2
  9
$DIMALTF
 40
25.4
  9
$DIMLFAC
 40
1.0
  9
$DIMTOFL
 70
     0
  9
$DIMTVP
 40
0.0
  9
$DIMTIX
 70
     0
  9
$DIMSOXD
 70
     0
  9
$DIMSAH
 70
     0
  9
$DIMBLK1
  1

  9
$DIMBLK2
  1

  9
$DIMSTYLE
  2
STANDARD
  9
$DIMCLRD
 70
     0
  9
$DIMCLRE
 70
     0
  9
$DIMCLRT
 70
     0
  9
$DIMTFAC
 40
1.0
  9
$DIMGAP
 40
0.09
  9
$LUNITS
 70
     2
  9
$LUPREC
 70
     2
  9
$AXISMODE
 70
     0
  9
$AXISUNIT
 10
0.0
 20
0.0
  9
$SKETCHINC
 40
0.1
  9
$FILLETRAD
 40
0.0
  9
$AUNITS
 70
     0
  9
$AUPREC
 70
     0
  9
$MENU
  1
acad
  9
$ELEVATION
 40
0.0
  9
$PELEVATION
 40
0.0
  9
$THICKNESS
 40
0.0
  9
$LIMCHECK
 70
     0
  9
$BLIPMODE
 70
     1
  9
$CHAMFERA
 40
0.0
  9
$CHAMFERB
 40
0.0
  9
$SKPOLY
 70
     0
  9
$TDCREATE
 40
0.000000000
  9
$TDUPDATE
 40
0.000000000
  9
$TDINDWG
 40
0.0000000000
  9
$TDUSRTIMER
 40
0.0000000000
  9
$USRTIMER
 70
     1
  9
$ANGBASE
 50
0.0
  9
$ANGDIR
 70
     0
  9
$PDMODE
 70
     0
  9
$PDSIZE
 40
0.0
  9
$PLINEWID
 40
0.0
  9
$COORDS
 70
     0
  9
$SPLFRAME
 70
     0
  9
$SPLINETYPE
 70
     6
  9
$SPLINESEGS
 70
     8
  9
$ATTDIA
 70
     0
  9
$ATTREQ
 70
     1
  9
$HANDLING
 70
     1
  9
$HANDSEED
  5
642
  9
$SURFTAB1
 70
     6
  9
$SURFTAB2
 70
     6
  9
$SURFTYPE
 70
     6
  9
$SURFU
 70
     6
  9
$SURFV
 70
     6
  9
$UCSNAME
  2

  9
$UCSORG
 10
0.0
 20
0.0
 30
0.0
  9
$UCSXDIR
 10
1.0
 20
0.0
 30
0.0
  9
$UCSYDIR
 10
0.0
 20
1.0
 30
0.0
  9
$PUCSNAME
  2

  9
$PUCSORG
 10
0.0
 20
0.0
 30
0.0
  9
$PUCSXDIR
 10
1.0
 20
0.0
 30
0.0
  9
$PUCSYDIR
 10
0.0
 20
1.0
 30
0.0
  9
$USERI1
 70
     0
  9
$USERI2
 70
     0
  9
$USERI3
 70
     0
  9
$USERI4
 70
     0
  9
$USERI5
 70
     0
  9
$USERR1
 40
0.0
  9
$USERR2
 40
0.0
  9
$USERR3
 40
0.0
  9
$USERR4
 40
0.0
  9
$USERR5
 40
0.0
  9
$WORLDVIEW
 70
     1
  9
$SHADEDGE
 70
     3
  9
$SHADEDIF
 70
    70
  9
$TILEMODE
 70
     1
  9
$MAXACTVP
 70
    16
  9
$PINSBASE
 10
0.0
 20
0.0
 30
0.0
  9
$PLIMCHECK
 70
     0
  9
$PEXTMIN
 10
1.000000E+20
 20
1.000000E+20
 30
1.000000E+20
  9
$PEXTMAX
 10
-1.000000E+20
 20
-1.000000E+20
 30
-1.000000E+20
  9
$PLIMMIN
 10
0.0
 20
0.0
  9
$PLIMMAX
 10
840.0
 20
594.0
  9
$UNITMODE
 70
     0
  9
$VISRETAIN
 70
     0
  9
$PLINEGEN
 70
     1
  9
$PSLTSCALE
 70
     0
  9
$TREEDEPTH
 70
  3020
  9
$DWGCODEPAGE
  3
dos850
  0
ENDSEC
  0
SECTION
  2
TABLES
  0
TABLE
  2
VPORT
 70
     1
  0
VPORT
  2
*ACTIVE
 70
     0
 10
0.0
 20
0.0
 11
1.0
 21
1.0
 12
420.0
 22
297.0
 13
0.0
 23
0.0
 14
1.0
 24
1.0
 15
0.0
 25
0.0
 16
0.0
 26
0.0
 36
1.0
 17
0.0
 27
0.0
 37
0.0
 40
594.0
 41
1.604229
 42
50.0
 43
0.0
 44
0.0
 50
0.0
 51
0.0
 71
     0
 72
   100
 73
     1
 74
     1
 75
     0
 76
     0
 77
     0
 78
     0
  0
ENDTAB
  0
TABLE
  2
LTYPE
 70
     2
  0
LTYPE
  2
CONTINUOUS
 70
    64
  3
Solid line
 72
    65
 73
     0
 40
0.0
  0
LTYPE
  2
DASHDOT
 70
    64
  3
__ . __ . __ . __ . __
 72
    65
 73
     4
 40
7.5
 49
5.0
 49
-1.25
 49
0.0
 49
-1.25
  0
ENDTAB
  0
TABLE
  2
LAYER
 70
    11
  0
LAYER
  2
0
 70
     0
 62
     7
  6
CONTINUOUS
  0
LAYER
  2
LC-INFO-1-2-MM-A3-0
 70
     1
 62
    -1
  6
CONTINUOUS
  0
LAYER
  2
LC-002-005-----0
 70
     0
 62
     2
  6
CONTINUOUS
  0
LAYER
  2
LC-005-003-MTH-0
 70
     0
 62
     2
  6
CONTINUOUS
  0
LAYER
  2
LC-006-003-MTG-0
 70
     0
 62
     2
  6
CONTINUOUS
  0
LAYER
  2
LC-004-003-----0
 70
     0
 62
     2
  6
CONTINUOUS
  0
LAYER
  2
LC-003-000-----0
 70
     0
 62
     7
  6
CONTINUOUS
  0
LAYER
  2
LC-001-002-----0
 70
     0
 62
     1
  6
CONTINUOUS
  0
LAYER
  2
LC-007-002-RND-0
 70
     0
 62
     1
  6
CONTINUOUS
  0
LAYER
  2
LC-008-001-----0
 70
     0
 62
     1
  6
CONTINUOUS
  0
LAYER
  2
LC-000
 70
     0
 62
     7
  6
CONTINUOUS
  0
ENDTAB
  0
TABLE
  2
STYLE
 70
     4
  0
STYLE
  2
STANDARD
 70
     0
 40
0.0
 41
1.0
 50
0.0
 71
     0
 42
0.0
  3
txt
  4

  0
STYLE
  2
LC-STANDARD
 70
    64
 40
0.0
 41
1.0
 50
0.0
 71
     0
 42
3.5
  3
MONOTXT
  4

  0
STYLE
  2
LC-TXTSTYLE-150-400-0-0-A2
 70
    64
 40
0.0
 41
1.0
 50
15.0
 71
     0
 42
3.5
  3
MONOTXT
  4

  0
STYLE
  2
LC-TXTSTYLE-150-400-0-0-D3
 70
    64
 40
0.0
 41
1.0
 50
15.0
 71
     0
 42
3.5
  3
LC-STANDARD
  4

  0
ENDTAB
  0
TABLE
  2
VIEW
 70
     0
  0
ENDTAB
  0
TABLE
  2
UCS
 70
     0
  0
ENDTAB
  0
TABLE
  2
APPID
 70
     1
  0
APPID
  2
ACAD
 70
     0
  0
ENDTAB
  0
TABLE
  2
DIMSTYLE
 70
     3
  0
DIMSTYLE
  2
STANDARD
 70
     0
  3

  4

  5

  6

  7

 40
1.0
 41
0.18
 42
0.0625
 43
0.38
 44
0.18
 45
0.0
 46
0.0
 47
0.0
 48
0.0
 71
     0
 72
     0
 73
     1
 74
     1
 75
     0
 76
     0
 77
     0
 78
     0
140
0.18
141
0.09
142
0.0
143
25.4
144
1.0
145
0.0
146
1.0
147
0.09
170
     0
171
     2
172
     0
173
     0
174
     0
175
     0
176
     0
177
     0
178
     0
  0
DIMSTYLE
  2
LC-STANDARD
 70
     0
  3

  4

  5

  6

  7

 40
1.0
 41
3.5
 42
0.0
 43
7.5
 44
1.8
 45
0.0
 46
0.0
 47
0.0
 48
0.0
 71
     0
 72
     0
 73
     0
 74
     0
 75
     0
 76
     0
 77
     1
 78
     8
140
3.5
141
0.0
142
0.0
143
25.4
144
1.0
145
0.0
146
0.71
147
1.5
170
     0
171
     2
172
     1
173
     0
174
     0
175
     0
176
     0
177
     0
178
     3
  0
DIMSTYLE
  2
LC-DIM-L-0140-02-02
 70
     0
  3

  4

  5

  6

  7

 40
2.0
 41
3.5
 42
0.0
 43
7.5
 44
1.8
 45
0.0
 46
0.0
 47
0.0
 48
0.0
 71
     0
 72
     0
 73
     0
 74
     0
 75
     0
 76
     0
 77
     1
 78
     8
140
14.0
141
0.0
142
0.0
143
25.4
144
1.0
145
0.0
146
0.71
147
1.5
170
     0
171
     2
172
     0
173
     0
174
     0
175
     0
176
     2
177
     2
178
     8
  0
ENDTAB
  0
ENDSEC
  0
SECTION
  2
BLOCKS
  0
BLOCK
  8
0
  5
23
  2
*X0
 70
    65
 10
198.346777
 20
365.087439
 30
0.0
  3
*X0
  0
LINE
  8
LC-002-005-----0
  6
CONTINUOUS
  5
25
 10
231.979006
 20
381.885643
 30
0.0
 11
232.345174
 21
382.251812
 31
0.0
  0
LINE
  8
LC-002-005-----0
  6
CONTINUOUS
  5
26
 10
229.150338
 20
381.885403
 30
0.0
 11
230.150423
 21
382.885488
 31
0.0
  0
LINE
  8
LC-002-005-----0
  6
CONTINUOUS
  5
27
 10
226.68944
 20
382.252932
 30
0.0
 11
227.417704
 21
382.981196
 31
0.0
  0
LINE
  8
LC-002-005-----0
  6
CONTINUOUS
  5
28
 10
225.845005
 20
384.236924
 30
0.0
 11
226.84492
 21
385.236839
 31
0.0
  0
LINE
  8
LC-002-005-----0
  6
CONTINUOUS
  5
29
 10
225.830875
 20
387.051221
 30
0.0
 11
226.608226
 21
387.828572
 31
0.0
  0
LINE
  8
LC-002-005-----0
  6
CONTINUOUS
  5
2A
 10
201.692729
 20
365.741502
 30
0.0
 11
203.846791
 21
367.895564
 31
0.0
  0
LINE
  8
LC-002-005-----0
  6
CONTINUOUS
  5
2B
 10
223.836178
 20
387.884951
 30
0.0
 11
224.836263
 21
388.885036
 31
0.0
  0
LINE
  8
LC-002-005-----0
  6
CONTINUOUS
  5
2C
 10
202.846789
 20
369.72399
 30
0.0
 11
203.846789
 21
370.723989
 31
0.0
  0
LINE
  8
LC-002-005-----0
  6
CONTINUOUS
  5
2D
 10
221.00751
 20
387.88471
 30
0.0
 11
222.007595
 21
388.884795
 31
0.0
  0
LINE
  8
LC-002-005-----0
  6
CONTINUOUS
  5
2E
 10
202.846788
 20
372.552415
 30
0.0
 11
203.846787
 21
373.552414
 31
0.0
  0
LINE
  8
LC-002-005-----0
  6
CONTINUOUS
  5
2F
 10
218.178842
 20
387.88447
 30
0.0
 11
219.178927
 21
388.884555
 31
0.0
  0
LINE
  8
LC-002-005-----0
  6
CONTINUOUS
  5
30
 10
202.846786
 20
375.38084
 30
0.0
 11
203.846785
 21
376.38084
 31
0.0
  0
LINE
  8
LC-002-005-----0
  6
CONTINUOUS
  5
31
 10
215.350175
 20
387.884229
 30
0.0
 11
216.35026
 21
388.884314
 31
0.0
  0
LINE
  8
LC-002-005-----0
  6
CONTINUOUS
  5
32
 10
202.846784
 20
378.209266
 30
0.0
 11
203.846783
 21
379.209265
 31
0.0
  0
LINE
  8
LC-002-005-----0
  6
CONTINUOUS
  5
33
 10
212.521507
 20
387.883989
 30
0.0
 11
213.521592
 21
388.884074
 31
0.0
  0
LINE
  8
LC-002-005-----0
  6
CONTINUOUS
  5
34
 10
202.846782
 20
381.037691
 30
0.0
 11
203.846781
 21
382.03769
 31
0.0
  0
LINE
  8
LC-002-005-----0
  6
CONTINUOUS
  5
35
 10
209.692839
 20
387.883748
 30
0.0
 11
210.692924
 21
388.883833
 31
0.0
  0
LINE
  8
LC-002-005-----0
  6
CONTINUOUS
  5
36
 10
198.346783
 20
379.366119
 30
0.0
 11
199.346783
 21
380.366119
 31
0.0
  0
LINE
  8
LC-002-005-----0
  6
CONTINUOUS
  5
37
 10
202.84678
 20
383.866116
 30
0.0
 11
203.84678
 21
384.866116
 31
0.0
  0
LINE
  8
LC-002-005-----0
  6
CONTINUOUS
  5
38
 10
206.864171
 20
387.883507
 30
0.0
 11
207.864257
 21
388.883593
 31
0.0
  0
LINE
  8
LC-002-005-----0
  6
CONTINUOUS
  5
39
 10
198.346781
 20
382.194544
 30
0.0
 11
199.346781
 21
383.194544
 31
0.0
  0
LINE
  8
LC-002-005-----0
  6
CONTINUOUS
  5
3A
 10
202.846778
 20
386.694541
 30
0.0
 11
203.846778
 21
387.694541
 31
0.0
  0
LINE
  8
LC-002-005-----0
  6
CONTINUOUS
  5
3B
 10
204.035504
 20
387.883267
 30
0.0
 11
205.035589
 21
388.883352
 31
0.0
  0
LINE
  8
LC-002-005-----0
  6
CONTINUOUS
  5
3C
 10
198.34678
 20
385.02297
 30
0.0
 11
199.346779
 21
386.022969
 31
0.0
  0
LINE
  8
LC-002-005-----0
  6
CONTINUOUS
  5
3D
 10
202.846777
 20
389.522967
 30
0.0
 11
203.689251
 21
390.365441
 31
0.0
  0
LINE
  8
LC-002-005-----0
  6
CONTINUOUS
  5
3E
 10
198.346778
 20
387.851395
 30
0.0
 11
199.346777
 21
388.851394
 31
0.0
  0
LINE
  8
LC-002-005-----0
  6
CONTINUOUS
  5
3F
 10
201.082819
 20
390.587436
 30
0.0
 11
202.070291
 21
391.574909
 31
0.0
  0
ENDBLK
  8
0
  5
40
  0
BLOCK
  8
0
  5
42
  2
*X1
 70
    65
 10
314.348348
 20
365.087439
 30
0.0
  3
*X1
  0
LINE
  8
LC-002-005-----0
  6
CONTINUOUS
  5
43
 10
343.403391
 20
366.030808
 30
0.0
 11
344.110498
 21
366.737915
 31
0.0
  0
LINE
  8
LC-002-005-----0
  6
CONTINUOUS
  5
44
 10
342.846763
 20
368.302607
 30
0.0
 11
343.846763
 21
369.302607
 31
0.0
  0
LINE
  8
LC-002-005-----0
  6
CONTINUOUS
  5
45
 10
342.846765
 20
371.131036
 30
0.0
 11
343.846765
 21
372.131036
 31
0.0
  0
LINE
  8
LC-002-005-----0
  6
CONTINUOUS
  5
46
 10
342.846766
 20
373.959465
 30
0.0
 11
343.846767
 21
374.959465
 31
0.0
  0
LINE
  8
LC-002-005-----0
  6
CONTINUOUS
  5
47
 10
347.346769
 20
378.459468
 30
0.0
 11
348.34677
 21
379.459468
 31
0.0
  0
LINE
  8
LC-002-005-----0
  6
CONTINUOUS
  5
48
 10
342.846768
 20
376.787894
 30
0.0
 11
343.846769
 21
377.787894
 31
0.0
  0
LINE
  8
LC-002-005-----0
  6
CONTINUOUS
  5
49
 10
347.346771
 20
381.287897
 30
0.0
 11
348.346772
 21
382.287897
 31
0.0
  0
LINE
  8
LC-002-005-----0
  6
CONTINUOUS
  5
4A
 10
342.84677
 20
379.616323
 30
0.0
 11
343.846771
 21
380.616323
 31
0.0
  0
LINE
  8
LC-002-005-----0
  6
CONTINUOUS
  5
4B
 10
347.346773
 20
384.116326
 30
0.0
 11
348.346774
 21
385.116326
 31
0.0
  0
LINE
  8
LC-002-005-----0
  6
CONTINUOUS
  5
4C
 10
342.846772
 20
382.444752
 30
0.0
 11
343.846773
 21
383.444752
 31
0.0
  0
LINE
  8
LC-002-005-----0
  6
CONTINUOUS
  5
4D
 10
347.346775
 20
386.944755
 30
0.0
 11
348.346775
 21
387.944755
 31
0.0
  0
LINE
  8
LC-002-005-----0
  6
CONTINUOUS
  5
4E
 10
342.846774
 20
385.273181
 30
0.0
 11
343.846774
 21
386.273181
 31
0.0
  0
LINE
  8
LC-002-005-----0
  6
CONTINUOUS
  5
4F
 10
347.332045
 20
389.758452
 30
0.0
 11
348.108248
 21
390.534654
 31
0.0
  0
LINE
  8
LC-002-005-----0
  6
CONTINUOUS
  5
50
 10
342.628435
 20
387.883269
 30
0.0
 11
343.846776
 21
389.10161
 31
0.0
  0
LINE
  8
LC-002-005-----0
  6
CONTINUOUS
  5
51
 10
345.332602
 20
390.587436
 30
0.0
 11
346.332604
 21
391.587438
 31
0.0
  0
LINE
  8
LC-002-005-----0
  6
CONTINUOUS
  5
52
 10
339.800249
 20
387.88351
 30
0.0
 11
340.800164
 21
388.883425
 31
0.0
  0
LINE
  8
LC-002-005-----0
  6
CONTINUOUS
  5
53
 10
336.972062
 20
387.88375
 30
0.0
 11
337.971977
 21
388.883665
 31
0.0
  0
LINE
  8
LC-002-005-----0
  6
CONTINUOUS
  5
54
 10
334.143876
 20
387.883991
 30
0.0
 11
335.143791
 21
388.883906
 31
0.0
  0
LINE
  8
LC-002-005-----0
  6
CONTINUOUS
  5
55
 10
331.315689
 20
387.884231
 30
0.0
 11
332.315604
 21
388.884146
 31
0.0
  0
LINE
  8
LC-002-005-----0
  6
CONTINUOUS
  5
56
 10
328.487502
 20
387.884472
 30
0.0
 11
329.487417
 21
388.884387
 31
0.0
  0
LINE
  8
LC-002-005-----0
  6
CONTINUOUS
  5
57
 10
320.099158
 20
382.324555
 30
0.0
 11
320.409255
 21
382.634651
 31
0.0
  0
LINE
  8
LC-002-005-----0
  6
CONTINUOUS
  5
58
 10
325.659316
 20
387.884713
 30
0.0
 11
326.659231
 21
388.884627
 31
0.0
  0
LINE
  8
LC-002-005-----0
  6
CONTINUOUS
  5
59
 10
316.831639
 20
381.885463
 30
0.0
 11
317.831554
 21
382.885378
 31
0.0
  0
LINE
  8
LC-002-005-----0
  6
CONTINUOUS
  5
5A
 10
319.848605
 20
384.902428
 30
0.0
 11
320.84869
 21
385.902513
 31
0.0
  0
LINE
  8
LC-002-005-----0
  6
CONTINUOUS
  5
5B
 10
322.831129
 20
387.884953
 30
0.0
 11
323.831044
 21
388.884868
 31
0.0
  0
LINE
  8
LC-002-005-----0
  6
CONTINUOUS
  5
5C
 10
314.348377
 20
382.230628
 30
0.0
 11
315.003368
 21
382.885619
 31
0.0
  0
ENDBLK
  8
0
  5
5D
  0
BLOCK
  8
0
  5
5F
  2
*X2
 70
    65
 10
196.793519
 20
186.38674
 30
0.0
  3
*X2
  0
LINE
  8
LC-002-005-----0
  6
CONTINUOUS
  5
60
 10
202.793519
 20
388.34775
 30
0.0
 11
200.553897
 21
390.587372
 31
0.0
  0
LINE
  8
LC-002-005-----0
  6
CONTINUOUS
  5
61
 10
202.793519
 20
385.519323
 30
0.0
 11
199.293519
 21
389.019323
 31
0.0
  0
LINE
  8
LC-002-005-----0
  6
CONTINUOUS
  5
62
 10
202.793519
 20
382.690896
 30
0.0
 11
199.293519
 21
386.190896
 31
0.0
  0
LINE
  8
LC-002-005-----0
  6
CONTINUOUS
  5
63
 10
202.793519
 20
379.862469
 30
0.0
 11
199.293519
 21
383.362469
 31
0.0
  0
LINE
  8
LC-002-005-----0
  6
CONTINUOUS
  5
64
 10
202.793519
 20
377.034042
 30
0.0
 11
199.293519
 21
380.534042
 31
0.0
  0
LINE
  8
LC-002-005-----0
  6
CONTINUOUS
  5
65
 10
202.793519
 20
374.205615
 30
0.0
 11
200.793689
 21
376.205445
 31
0.0
  0
LINE
  8
LC-002-005-----0
  6
CONTINUOUS
  5
66
 10
200.41165
 20
376.587483
 30
0.0
 11
198.911761
 21
378.087372
 31
0.0
  0
LINE
  8
LC-002-005-----0
  6
CONTINUOUS
  5
67
 10
198.293519
 20
378.705615
 30
0.0
 11
197.293629
 21
379.705505
 31
0.0
  0
LINE
  8
LC-002-005-----0
  6
CONTINUOUS
  5
68
 10
202.793519
 20
371.377188
 30
0.0
 11
200.793689
 21
373.377018
 31
0.0
  0
LINE
  8
LC-002-005-----0
  6
CONTINUOUS
  5
69
 10
197.583223
 20
376.587483
 30
0.0
 11
196.793519
 21
377.377188
 31
0.0
  0
LINE
  8
LC-002-005-----0
  6
CONTINUOUS
  5
6A
 10
202.793519
 20
368.548761
 30
0.0
 11
200.793689
 21
370.548591
 31
0.0
  0
LINE
  8
LC-002-005-----0
  6
CONTINUOUS
  5
6B
 10
203.793519
 20
364.720333
 30
0.0
 11
202.859999
 21
365.653854
 31
0.0
  0
LINE
  8
LC-002-005-----0
  6
CONTINUOUS
  5
6C
 10
202.152892
 20
366.36096
 30
0.0
 11
200.793689
 21
367.720164
 31
0.0
  0
LINE
  8
LC-002-005-----0
  6
CONTINUOUS
  5
6D
 10
203.793519
 20
361.891906
 30
0.0
 11
200.793689
 21
364.891736
 31
0.0
  0
LINE
  8
LC-002-005-----0
  6
CONTINUOUS
  5
6E
 10
203.793519
 20
359.063479
 30
0.0
 11
200.793689
 21
362.063309
 31
0.0
  0
LINE
  8
LC-002-005-----0
  6
CONTINUOUS
  5
6F
 10
203.793519
 20
356.235052
 30
0.0
 11
200.793689
 21
359.234882
 31
0.0
  0
LINE
  8
LC-002-005-----0
  6
CONTINUOUS
  5
70
 10
203.793519
 20
353.406625
 30
0.0
 11
200.793689
 21
356.406455
 31
0.0
  0
LINE
  8
LC-002-005-----0
  6
CONTINUOUS
  5
71
 10
203.793519
 20
350.578198
 30
0.0
 11
200.793689
 21
353.578028
 31
0.0
  0
LINE
  8
LC-002-005-----0
  6
CONTINUOUS
  5
72
 10
203.793519
 20
347.749771
 30
0.0
 11
200.793689
 21
350.749601
 31
0.0
  0
LINE
  8
LC-002-005-----0
  6
CONTINUOUS
  5
73
 10
203.793519
 20
344.921344
 30
0.0
 11
200.793689
 21
347.921174
 31
0.0
  0
LINE
  8
LC-002-005-----0
  6
CONTINUOUS
  5
74
 10
203.793519
 20
342.092916
 30
0.0
 11
200.793689
 21
345.092747
 31
0.0
  0
LINE
  8
LC-002-005-----0
  6
CONTINUOUS
  5
75
 10
203.793519
 20
339.264489
 30
0.0
 11
200.793689
 21
342.264319
 31
0.0
  0
LINE
  8
LC-002-005-----0
  6
CONTINUOUS
  5
76
 10
203.793519
 20
336.436062
 30
0.0
 11
200.793689
 21
339.435892
 31
0.0
  0
LINE
  8
LC-002-005-----0
  6
CONTINUOUS
  5
77
 10
203.793519
 20
333.607635
 30
0.0
 11
200.793689
 21
336.607465
 31
0.0
  0
LINE
  8
LC-002-005-----0
  6
CONTINUOUS
  5
78
 10
203.793519
 20
330.779208
 30
0.0
 11
200.793689
 21
333.779038
 31
0.0
  0
LINE
  8
LC-002-005-----0
  6
CONTINUOUS
  5
79
 10
203.793519
 20
327.950781
 30
0.0
 11
200.793689
 21
330.950611
 31
0.0
  0
LINE
  8
LC-002-005-----0
  6
CONTINUOUS
  5
7A
 10
203.793519
 20
325.122354
 30
0.0
 11
200.793689
 21
328.122184
 31
0.0
  0
LINE
  8
LC-002-005-----0
  6
CONTINUOUS
  5
7B
 10
203.793519
 20
322.293927
 30
0.0
 11
200.793689
 21
325.293757
 31
0.0
  0
LINE
  8
LC-002-005-----0
  6
CONTINUOUS
  5
7C
 10
203.793519
 20
319.465499
 30
0.0
 11
200.793689
 21
322.46533
 31
0.0
  0
LINE
  8
LC-002-005-----0
  6
CONTINUOUS
  5
7D
 10
203.793519
 20
316.637072
 30
0.0
 11
200.793689
 21
319.636902
 31
0.0
  0
LINE
  8
LC-002-005-----0
  6
CONTINUOUS
  5
7E
 10
203.793519
 20
313.808645
 30
0.0
 11
200.793689
 21
316.808475
 31
0.0
  0
LINE
  8
LC-002-005-----0
  6
CONTINUOUS
  5
7F
 10
203.793519
 20
310.980218
 30
0.0
 11
200.793689
 21
313.980048
 31
0.0
  0
LINE
  8
LC-002-005-----0
  6
CONTINUOUS
  5
80
 10
203.793519
 20
308.151791
 30
0.0
 11
200.793689
 21
311.151621
 31
0.0
  0
LINE
  8
LC-002-005-----0
  6
CONTINUOUS
  5
81
 10
203.793519
 20
305.323364
 30
0.0
 11
200.793689
 21
308.323194
 31
0.0
  0
LINE
  8
LC-002-005-----0
  6
CONTINUOUS
  5
82
 10
203.793519
 20
302.494937
 30
0.0
 11
200.793689
 21
305.494767
 31
0.0
  0
LINE
  8
LC-002-005-----0
  6
CONTINUOUS
  5
83
 10
203.793519
 20
299.66651
 30
0.0
 11
200.793689
 21
302.66634
 31
0.0
  0
LINE
  8
LC-002-005-----0
  6
CONTINUOUS
  5
84
 10
203.793519
 20
296.838082
 30
0.0
 11
200.793689
 21
299.837913
 31
0.0
  0
LINE
  8
LC-002-005-----0
  6
CONTINUOUS
  5
85
 10
203.793519
 20
294.009655
 30
0.0
 11
200.793689
 21
297.009485
 31
0.0
  0
LINE
  8
LC-002-005-----0
  6
CONTINUOUS
  5
86
 10
203.793519
 20
291.181228
 30
0.0
 11
200.793689
 21
294.181058
 31
0.0
  0
LINE
  8
LC-002-005-----0
  6
CONTINUOUS
  5
87
 10
203.793519
 20
288.352801
 30
0.0
 11
200.793689
 21
291.352631
 31
0.0
  0
LINE
  8
LC-002-005-----0
  6
CONTINUOUS
  5
88
 10
203.793519
 20
285.524374
 30
0.0
 11
200.793689
 21
288.524204
 31
0.0
  0
LINE
  8
LC-002-005-----0
  6
CONTINUOUS
  5
89
 10
203.793519
 20
282.695947
 30
0.0
 11
200.793689
 21
285.695777
 31
0.0
  0
LINE
  8
LC-002-005-----0
  6
CONTINUOUS
  5
8A
 10
203.793519
 20
279.86752
 30
0.0
 11
200.793689
 21
282.86735
 31
0.0
  0
LINE
  8
LC-002-005-----0
  6
CONTINUOUS
  5
8B
 10
203.793519
 20
277.039093
 30
0.0
 11
200.793689
 21
280.038923
 31
0.0
  0
LINE
  8
LC-002-005-----0
  6
CONTINUOUS
  5
8C
 10
203.793519
 20
274.210665
 30
0.0
 11
200.793689
 21
277.210496
 31
0.0
  0
LINE
  8
LC-002-005-----0
  6
CONTINUOUS
  5
8D
 10
203.793519
 20
271.382238
 30
0.0
 11
200.793689
 21
274.382068
 31
0.0
  0
LINE
  8
LC-002-005-----0
  6
CONTINUOUS
  5
8E
 10
203.793519
 20
268.553811
 30
0.0
 11
200.793689
 21
271.553641
 31
0.0
  0
LINE
  8
LC-002-005-----0
  6
CONTINUOUS
  5
8F
 10
203.793519
 20
265.725384
 30
0.0
 11
200.793689
 21
268.725214
 31
0.0
  0
LINE
  8
LC-002-005-----0
  6
CONTINUOUS
  5
90
 10
203.793519
 20
262.896957
 30
0.0
 11
200.793689
 21
265.896787
 31
0.0
  0
LINE
  8
LC-002-005-----0
  6
CONTINUOUS
  5
91
 10
203.793519
 20
260.06853
 30
0.0
 11
200.793689
 21
263.06836
 31
0.0
  0
LINE
  8
LC-002-005-----0
  6
CONTINUOUS
  5
92
 10
203.793519
 20
257.240103
 30
0.0
 11
200.793689
 21
260.239933
 31
0.0
  0
LINE
  8
LC-002-005-----0
  6
CONTINUOUS
  5
93
 10
203.793519
 20
254.411676
 30
0.0
 11
200.793689
 21
257.411506
 31
0.0
  0
LINE
  8
LC-002-005-----0
  6
CONTINUOUS
  5
94
 10
203.793519
 20
251.583248
 30
0.0
 11
200.793689
 21
254.583079
 31
0.0
  0
LINE
  8
LC-002-005-----0
  6
CONTINUOUS
  5
95
 10
203.793519
 20
248.754821
 30
0.0
 11
200.793689
 21
251.754651
 31
0.0
  0
LINE
  8
LC-002-005-----0
  6
CONTINUOUS
  5
96
 10
203.793519
 20
245.926394
 30
0.0
 11
200.793689
 21
248.926224
 31
0.0
  0
LINE
  8
LC-002-005-----0
  6
CONTINUOUS
  5
97
 10
203.793519
 20
243.097967
 30
0.0
 11
200.793689
 21
246.097797
 31
0.0
  0
LINE
  8
LC-002-005-----0
  6
CONTINUOUS
  5
98
 10
203.793519
 20
240.26954
 30
0.0
 11
200.793689
 21
243.26937
 31
0.0
  0
LINE
  8
LC-002-005-----0
  6
CONTINUOUS
  5
99
 10
203.793519
 20
237.441113
 30
0.0
 11
200.793689
 21
240.440943
 31
0.0
  0
LINE
  8
LC-002-005-----0
  6
CONTINUOUS
  5
9A
 10
203.793519
 20
234.612686
 30
0.0
 11
200.793689
 21
237.612516
 31
0.0
  0
LINE
  8
LC-002-005-----0
  6
CONTINUOUS
  5
9B
 10
203.793519
 20
231.784259
 30
0.0
 11
200.793689
 21
234.784089
 31
0.0
  0
LINE
  8
LC-002-005-----0
  6
CONTINUOUS
  5
9C
 10
203.793519
 20
228.955831
 30
0.0
 11
200.793689
 21
231.955662
 31
0.0
  0
LINE
  8
LC-002-005-----0
  6
CONTINUOUS
  5
9D
 10
203.793519
 20
226.127404
 30
0.0
 11
200.793689
 21
229.127234
 31
0.0
  0
LINE
  8
LC-002-005-----0
  6
CONTINUOUS
  5
9E
 10
203.793519
 20
223.298977
 30
0.0
 11
200.793689
 21
226.298807
 31
0.0
  0
LINE
  8
LC-002-005-----0
  6
CONTINUOUS
  5
9F
 10
203.793519
 20
220.47055
 30
0.0
 11
200.793689
 21
223.47038
 31
0.0
  0
LINE
  8
LC-002-005-----0
  6
CONTINUOUS
  5
A0
 10
203.793519
 20
217.642123
 30
0.0
 11
200.793689
 21
220.641953
 31
0.0
  0
LINE
  8
LC-002-005-----0
  6
CONTINUOUS
  5
A1
 10
203.793519
 20
214.813696
 30
0.0
 11
200.793689
 21
217.813526
 31
0.0
  0
LINE
  8
LC-002-005-----0
  6
CONTINUOUS
  5
A2
 10
203.793519
 20
211.985269
 30
0.0
 11
200.793689
 21
214.985099
 31
0.0
  0
LINE
  8
LC-002-005-----0
  6
CONTINUOUS
  5
A3
 10
203.793519
 20
209.156842
 30
0.0
 11
200.793689
 21
212.156672
 31
0.0
  0
LINE
  8
LC-002-005-----0
  6
CONTINUOUS
  5
A4
 10
203.793519
 20
206.328414
 30
0.0
 11
200.793689
 21
209.328245
 31
0.0
  0
LINE
  8
LC-002-005-----0
  6
CONTINUOUS
  5
A5
 10
203.793519
 20
203.499987
 30
0.0
 11
200.793689
 21
206.499817
 31
0.0
  0
LINE
  8
LC-002-005-----0
  6
CONTINUOUS
  5
A6
 10
203.793519
 20
200.67156
 30
0.0
 11
200.793689
 21
203.67139
 31
0.0
  0
LINE
  8
LC-002-005-----0
  6
CONTINUOUS
  5
A7
 10
203.793519
 20
197.843133
 30
0.0
 11
200.793689
 21
200.842963
 31
0.0
  0
LINE
  8
LC-002-005-----0
  6
CONTINUOUS
  5
A8
 10
203.793519
 20
195.014706
 30
0.0
 11
200.793689
 21
198.014536
 31
0.0
  0
LINE
  8
LC-002-005-----0
  6
CONTINUOUS
  5
A9
 10
203.793519
 20
192.186279
 30
0.0
 11
200.793689
 21
195.186109
 31
0.0
  0
LINE
  8
LC-002-005-----0
  6
CONTINUOUS
  5
AA
 10
203.793519
 20
189.357852
 30
0.0
 11
200.793689
 21
192.357682
 31
0.0
  0
LINE
  8
LC-002-005-----0
  6
CONTINUOUS
  5
AB
 10
203.793519
 20
186.529425
 30
0.0
 11
201.473575
 21
188.849368
 31
0.0
  0
ENDBLK
  8
0
  5
AC
  0
BLOCK
  8
0
  5
AE
  2
BLK1
 70
    64
 10
0.0
 20
0.0
 30
0.0
  3
BLK1
  0
ENDBLK
  8
0
  5
AF
  0
BLOCK
  8
0
  5
B1
  2
BLK2
 70
    64
 10
0.0
 20
0.0
 30
0.0
  3
BLK2
  0
ENDBLK
  8
0
  5
B2
  0
BLOCK
  8
0
  5
B4
  2
BLK3
 70
    64
 10
0.0
 20
0.0
 30
0.0
  3
BLK3
  0
ENDBLK
  8
0
  5
B5
  0
BLOCK
  8
0
  5
B7
  2
BLK4
 70
    64
 10
0.0
 20
0.0
 30
0.0
  3
BLK4
  0
ENDBLK
  8
0
  5
B8
  0
BLOCK
  8
0
  5
BA
  2
BLK5
 70
    64
 10
0.0
 20
0.0
 30
0.0
  3
BLK5
  0
ENDBLK
  8
0
  5
BB
  0
BLOCK
  8
0
  5
BD
  2
BLK6
 70
    64
 10
0.0
 20
0.0
 30
0.0
  3
BLK6
  0
ENDBLK
  8
0
  5
BE
  0
BLOCK
  8
0
  5
C0
  2
BLK7
 70
    64
 10
0.0
 20
0.0
 30
0.0
  3
BLK7
  0
ENDBLK
  8
0
  5
C1
  0
BLOCK
  8
0
  5
C3
  2
BLK8
 70
    64
 10
0.0
 20
0.0
 30
0.0
  3
BLK8
  0
ENDBLK
  8
0
  5
C4
  0
BLOCK
  8
0
  5
C6
  2
BLK9
 70
    64
 10
0.0
 20
0.0
 30
0.0
  3
BLK9
  0
ENDBLK
  8
0
  5
C7
  0
BLOCK
  8
0
  5
C9
  2
BLK10
 70
    64
 10
0.0
 20
0.0
 30
0.0
  3
BLK10
  0
ENDBLK
  8
0
  5
CA
  0
BLOCK
  8
0
  5
CC
  2
BLK11
 70
    64
 10
0.0
 20
0.0
 30
0.0
  3
BLK11
  0
ENDBLK
  8
0
  5
CD
  0
BLOCK
  8
0
  5
CF
  2
*D14
 70
    65
 10
0.0
 20
0.0
 30
0.0
  3
*D14
  0
LINE
  8
LC-005-003-MTH-0
  6
CONTINUOUS
  5
D1
 10
198.346777
 20
389.587436
 30
0.0
 11
198.346777
 21
492.8
 31
0.0
  0
LINE
  8
LC-005-003-MTH-0
  6
CONTINUOUS
  5
D2
 10
348.346777
 20
389.587436
 30
0.0
 11
348.346777
 21
492.8
 31
0.0
  0
LINE
  8
LC-006-003-MTG-0
  6
CONTINUOUS
  5
D4
 10
198.346777
 20
476.0
 30
0.0
 11
348.346777
 21
476.0
 31
0.0
  0
LINE
  8
LC-004-003-----0
  6
CONTINUOUS
  5
D6
 10
226.107233
 20
479.654733
 30
0.0
 11
198.346777
 21
476.0
 31
0.0
  0
LINE
  8
LC-004-003-----0
  6
CONTINUOUS
  5
D7
 10
198.346777
 20
476.0
 30
0.0
 11
226.107233
 21
472.345267
 31
0.0
  0
LINE
  8
LC-004-003-----0
  6
CONTINUOUS
  5
D8
 10
226.107233
 20
472.345267
 30
0.0
 11
226.107233
 21
479.654733
 31
0.0
  0
LINE
  8
LC-004-003-----0
  6
CONTINUOUS
  5
D9
 10
226.169514
 20
478.704503
 30
0.0
 11
205.626777
 21
476.0
 31
0.0
  0
LINE
  8
LC-004-003-----0
  6
CONTINUOUS
  5
DA
 10
205.626777
 20
476.0
 30
0.0
 11
226.169514
 21
473.295497
 31
0.0
  0
LINE
  8
LC-004-003-----0
  6
CONTINUOUS
  5
DB
 10
226.231795
 20
477.754272
 30
0.0
 11
212.906777
 21
476.0
 31
0.0
  0
LINE
  8
LC-004-003-----0
  6
CONTINUOUS
  5
DC
 10
212.906777
 20
476.0
 30
0.0
 11
226.231795
 21
474.245728
 31
0.0
  0
LINE
  8
LC-004-003-----0
  6
CONTINUOUS
  5
DD
 10
226.294077
 20
476.804041
 30
0.0
 11
220.186777
 21
476.0
 31
0.0
  0
LINE
  8
LC-004-003-----0
  6
CONTINUOUS
  5
DE
 10
220.186777
 20
476.0
 30
0.0
 11
226.294077
 21
475.195959
 31
0.0
  0
LINE
  8
LC-004-003-----0
  6
CONTINUOUS
  5
DF
 10
320.58632
 20
472.345267
 30
0.0
 11
348.346777
 21
476.0
 31
0.0
  0
LINE
  8
LC-004-003-----0
  6
CONTINUOUS
  5
E0
 10
348.346777
 20
476.0
 30
0.0
 11
320.58632
 21
479.654733
 31
0.0
  0
LINE
  8
LC-004-003-----0
  6
CONTINUOUS
  5
E1
 10
320.58632
 20
479.654733
 30
0.0
 11
320.58632
 21
472.345267
 31
0.0
  0
LINE
  8
LC-004-003-----0
  6
CONTINUOUS
  5
E2
 10
320.524039
 20
473.295497
 30
0.0
 11
341.066777
 21
476.0
 31
0.0
  0
LINE
  8
LC-004-003-----0
  6
CONTINUOUS
  5
E3
 10
341.066777
 20
476.0
 30
0.0
 11
320.524039
 21
478.704503
 31
0.0
  0
LINE
  8
LC-004-003-----0
  6
CONTINUOUS
  5
E4
 10
320.461758
 20
474.245728
 30
0.0
 11
333.786777
 21
476.0
 31
0.0
  0
LINE
  8
LC-004-003-----0
  6
CONTINUOUS
  5
E5
 10
333.786777
 20
476.0
 30
0.0
 11
320.461758
 21
477.754272
 31
0.0
  0
LINE
  8
LC-004-003-----0
  6
CONTINUOUS
  5
E6
 10
320.399476
 20
475.195959
 30
0.0
 11
326.506777
 21
476.0
 31
0.0
  0
LINE
  8
LC-004-003-----0
  6
CONTINUOUS
  5
E7
 10
326.506777
 20
476.0
 30
0.0
 11
320.399476
 21
476.804041
 31
0.0
  0
TEXT
  8
LC-004-003-----0
  6
CONTINUOUS
 62
     8
  5
E9
 10
247.931157
 20
483.827554
 30
0.0
 40
28.0
  1
150
 41
0.9
 51
15.0
  7
LC-TXTSTYLE-150-400-0-0-D0
 72
     1
 11
277.694936
 21
483.827554
 31
0.0
  0
ENDBLK
  8
0
  5
EA
  0
BLOCK
  8
0
  5
EC
  2
*D15
 70
    65
 10
0.0
 20
0.0
 30
0.0
  3
*D15
  0
LINE
  8
LC-005-003-MTH-0
  6
CONTINUOUS
  5
ED
 10
200.793689
 20
191.38674
 30
0.0
 11
200.793689
 21
123.2
 31
0.0
  0
LINE
  8
LC-005-003-MTH-0
  6
CONTINUOUS
  5
EE
 10
345.899865
 20
191.38674
 30
0.0
 11
345.899865
 21
123.2
 31
0.0
  0
LINE
  8
LC-006-003-MTG-0
  6
CONTINUOUS
  5
EF
 10
200.793689
 20
140.0
 30
0.0
 11
345.899865
 21
140.0
 31
0.0
  0
LINE
  8
LC-004-003-----0
  6
CONTINUOUS
  5
F0
 10
228.554145
 20
143.654733
 30
0.0
 11
200.793689
 21
140.0
 31
0.0
  0
LINE
  8
LC-004-003-----0
  6
CONTINUOUS
  5
F1
 10
200.793689
 20
140.0
 30
0.0
 11
228.554145
 21
136.345267
 31
0.0
  0
LINE
  8
LC-004-003-----0
  6
CONTINUOUS
  5
F2
 10
228.554145
 20
136.345267
 30
0.0
 11
228.554145
 21
143.654733
 31
0.0
  0
LINE
  8
LC-004-003-----0
  6
CONTINUOUS
  5
F3
 10
228.616426
 20
142.704503
 30
0.0
 11
208.073689
 21
140.0
 31
0.0
  0
LINE
  8
LC-004-003-----0
  6
CONTINUOUS
  5
F4
 10
208.073689
 20
140.0
 30
0.0
 11
228.616426
 21
137.295497
 31
0.0
  0
LINE
  8
LC-004-003-----0
  6
CONTINUOUS
  5
F5
 10
228.678707
 20
141.754272
 30
0.0
 11
215.353689
 21
140.0
 31
0.0
  0
LINE
  8
LC-004-003-----0
  6
CONTINUOUS
  5
F6
 10
215.353689
 20
140.0
 30
0.0
 11
228.678707
 21
138.245728
 31
0.0
  0
LINE
  8
LC-004-003-----0
  6
CONTINUOUS
  5
F7
 10
228.740989
 20
140.804041
 30
0.0
 11
222.633689
 21
140.0
 31
0.0
  0
LINE
  8
LC-004-003-----0
  6
CONTINUOUS
  5
F8
 10
222.633689
 20
140.0
 30
0.0
 11
228.740989
 21
139.195959
 31
0.0
  0
LINE
  8
LC-004-003-----0
  6
CONTINUOUS
  5
F9
 10
318.139408
 20
136.345267
 30
0.0
 11
345.899865
 21
140.0
 31
0.0
  0
LINE
  8
LC-004-003-----0
  6
CONTINUOUS
  5
FA
 10
345.899865
 20
140.0
 30
0.0
 11
318.139408
 21
143.654733
 31
0.0
  0
LINE
  8
LC-004-003-----0
  6
CONTINUOUS
  5
FB
 10
318.139408
 20
143.654733
 30
0.0
 11
318.139408
 21
136.345267
 31
0.0
  0
LINE
  8
LC-004-003-----0
  6
CONTINUOUS
  5
FC
 10
318.077127
 20
137.295497
 30
0.0
 11
338.619865
 21
140.0
 31
0.0
  0
LINE
  8
LC-004-003-----0
  6
CONTINUOUS
  5
FD
 10
338.619865
 20
140.0
 30
0.0
 11
318.077127
 21
142.704503
 31
0.0
  0
LINE
  8
LC-004-003-----0
  6
CONTINUOUS
  5
FE
 10
318.014846
 20
138.245728
 30
0.0
 11
331.339865
 21
140.0
 31
0.0
  0
LINE
  8
LC-004-003-----0
  6
CONTINUOUS
  5
FF
 10
331.339865
 20
140.0
 30
0.0
 11
318.014846
 21
141.754272
 31
0.0
  0
LINE
  8
LC-004-003-----0
  6
CONTINUOUS
  5
100
 10
317.952564
 20
139.195959
 30
0.0
 11
324.059865
 21
140.0
 31
0.0
  0
LINE
  8
LC-004-003-----0
  6
CONTINUOUS
  5
101
 10
324.059865
 20
140.0
 30
0.0
 11
317.952564
 21
140.804041
 31
0.0
  0
TEXT
  8
LC-004-003-----0
  6
CONTINUOUS
 62
     8
  5
102
 10
239.597299
 20
147.827554
 30
0.0
 40
28.0
  1
Ø145
 51
15.0
  7
LC-TXTSTYLE-150-400-0-0-D0
 72
     1
 11
277.694936
 21
147.827554
 31
0.0
  0
ENDBLK
  8
0
  5
103
  0
BLOCK
  8
0
  5
105
  2
*D16
 70
    65
 10
0.0
 20
0.0
 30
0.0
  3
*D16
  0
LINE
  8
LC-005-003-MTH-0
  6
CONTINUOUS
  5
106
 10
196.846785
 20
376.587483
 30
0.0
 11
163.2
 21
376.587483
 31
0.0
  0
LINE
  8
LC-005-003-MTH-0
  6
CONTINUOUS
  5
107
 10
200.293691
 20
391.587438
 30
0.0
 11
163.2
 21
391.587438
 31
0.0
  0
LINE
  8
LC-004-003-----0
  6
CONTINUOUS
  5
108
 10
183.654733
 20
348.827027
 30
0.0
 11
180.0
 21
376.587483
 31
0.0
  0
LINE
  8
LC-004-003-----0
  6
CONTINUOUS
  5
109
 10
180.0
 20
376.587483
 30
0.0
 11
176.345267
 21
348.827027
 31
0.0
  0
LINE
  8
LC-004-003-----0
  6
CONTINUOUS
  5
10A
 10
176.345267
 20
348.827027
 30
0.0
 11
183.654733
 21
348.827027
 31
0.0
  0
LINE
  8
LC-004-003-----0
  6
CONTINUOUS
  5
10B
 10
182.704503
 20
348.764746
 30
0.0
 11
180.0
 21
369.307483
 31
0.0
  0
LINE
  8
LC-004-003-----0
  6
CONTINUOUS
  5
10C
 10
180.0
 20
369.307483
 30
0.0
 11
177.295497
 21
348.764746
 31
0.0
  0
LINE
  8
LC-004-003-----0
  6
CONTINUOUS
  5
10D
 10
181.754272
 20
348.702464
 30
0.0
 11
180.0
 21
362.027483
 31
0.0
  0
LINE
  8
LC-004-003-----0
  6
CONTINUOUS
  5
10E
 10
180.0
 20
362.027483
 30
0.0
 11
178.245728
 21
348.702464
 31
0.0
  0
LINE
  8
LC-004-003-----0
  6
CONTINUOUS
  5
10F
 10
180.804041
 20
348.640183
 30
0.0
 11
180.0
 21
354.747483
 31
0.0
  0
LINE
  8
LC-004-003-----0
  6
CONTINUOUS
  5
110
 10
180.0
 20
354.747483
 30
0.0
 11
179.195959
 21
348.640183
 31
0.0
  0
LINE
  8
LC-004-003-----0
  6
CONTINUOUS
  5
111
 10
176.345267
 20
419.347894
 30
0.0
 11
180.0
 21
391.587438
 31
0.0
  0
LINE
  8
LC-004-003-----0
  6
CONTINUOUS
  5
112
 10
180.0
 20
391.587438
 30
0.0
 11
183.654733
 21
419.347894
 31
0.0
  0
LINE
  8
LC-004-003-----0
  6
CONTINUOUS
  5
113
 10
183.654733
 20
419.347894
 30
0.0
 11
176.345267
 21
419.347894
 31
0.0
  0
LINE
  8
LC-004-003-----0
  6
CONTINUOUS
  5
114
 10
177.295497
 20
419.410175
 30
0.0
 11
180.0
 21
398.867438
 31
0.0
  0
LINE
  8
LC-004-003-----0
  6
CONTINUOUS
  5
115
 10
180.0
 20
398.867438
 30
0.0
 11
182.704503
 21
419.410175
 31
0.0
  0
LINE
  8
LC-004-003-----0
  6
CONTINUOUS
  5
116
 10
178.245728
 20
419.472457
 30
0.0
 11
180.0
 21
406.147438
 31
0.0
  0
LINE
  8
LC-004-003-----0
  6
CONTINUOUS
  5
117
 10
180.0
 20
406.147438
 30
0.0
 11
181.754272
 21
419.472457
 31
0.0
  0
LINE
  8
LC-004-003-----0
  6
CONTINUOUS
  5
118
 10
179.195959
 20
419.534738
 30
0.0
 11
180.0
 21
413.427438
 31
0.0
  0
LINE
  8
LC-004-003-----0
  6
CONTINUOUS
  5
119
 10
180.0
 20
413.427438
 30
0.0
 11
180.804041
 21
419.534738
 31
0.0
  0
LINE
  8
LC-006-003-MTG-0
  6
CONTINUOUS
  5
11A
 10
180.0
 20
337.387483
 30
0.0
 11
180.0
 21
474.951838
 31
0.0
  0
TEXT
  8
LC-004-003-----0
  6
CONTINUOUS
 62
     8
  5
11B
 10
172.172446
 20
434.015598
 30
0.0
 40
28.0
  1
15
 50
90.0
 51
15.0
  7
LC-TXTSTYLE-150-400-0-0-D0
  0
ENDBLK
  8
0
  5
11C
  0
BLOCK
  8
0
  5
11E
  2
BLK12
 70
    64
 10
0.0
 20
0.0
 30
0.0
  3
BLK12
  0
ENDBLK
  8
0
  5
11F
  0
BLOCK
  8
0
  5
121
  2
BLK13
 70
    64
 10
0.0
 20
0.0
 30
0.0
  3
BLK13
  0
ENDBLK
  8
0
  5
122
  0
BLOCK
  8
0
  5
124
  2
BLK14
 70
    64
 10
0.0
 20
0.0
 30
0.0
  3
BLK14
  0
ENDBLK
  8
0
  5
125
  0
BLOCK
  8
0
  5
127
  2
BLK15
 70
    64
 10
0.0
 20
0.0
 30
0.0
  3
BLK15
  0
ENDBLK
  8
0
  5
128
  0
BLOCK
  8
0
  5
12A
  2
BLK16
 70
    64
 10
0.0
 20
0.0
 30
0.0
  3
BLK16
  0
ENDBLK
  8
0
  5
12B
  0
BLOCK
  8
0
  5
12D
  2
BLK17
 70
    64
 10
0.0
 20
0.0
 30
0.0
  3
BLK17
  0
ENDBLK
  8
0
  5
12E
  0
BLOCK
  8
0
  5
130
  2
BLK18
 70
    64
 10
0.0
 20
0.0
 30
0.0
  3
BLK18
  0
ENDBLK
  8
0
  5
131
  0
BLOCK
  8
0
  5
133
  2
BLK19
 70
    64
 10
0.0
 20
0.0
 30
0.0
  3
BLK19
  0
ENDBLK
  8
0
  5
134
  0
BLOCK
  8
0
  5
136
  2
BLK20
 70
    64
 10
0.0
 20
0.0
 30
0.0
  3
BLK20
  0
ENDBLK
  8
0
  5
137
  0
BLOCK
  8
0
  5
139
  2
BLK21
 70
    64
 10
0.0
 20
0.0
 30
0.0
  3
BLK21
  0
ENDBLK
  8
0
  5
13A
  0
BLOCK
  8
0
  5
13C
  2
BLK22
 70
    64
 10
0.0
 20
0.0
 30
0.0
  3
BLK22
  0
ENDBLK
  8
0
  5
13D
  0
BLOCK
  8
0
  5
13F
  2
BLK23
 70
    64
 10
0.0
 20
0.0
 30
0.0
  3
BLK23
  0
ENDBLK
  8
0
  5
140
  0
BLOCK
  8
0
  5
142
  2
BLK24
 70
    64
 10
0.0
 20
0.0
 30
0.0
  3
BLK24
  0
ENDBLK
  8
0
  5
143
  0
BLOCK
  8
0
  5
145
  2
BLK25
 70
    64
 10
0.0
 20
0.0
 30
0.0
  3
BLK25
  0
ENDBLK
  8
0
  5
146
  0
BLOCK
  8
0
  5
148
  2
BLK26
 70
    64
 10
0.0
 20
0.0
 30
0.0
  3
BLK26
  0
ENDBLK
  8
0
  5
149
  0
BLOCK
  8
0
  5
14B
  2
BLK27
 70
    64
 10
0.0
 20
0.0
 30
0.0
  3
BLK27
  0
ENDBLK
  8
0
  5
14C
  0
BLOCK
  8
0
  5
14E
  2
BLK28
 70
    64
 10
0.0
 20
0.0
 30
0.0
  3
BLK28
  0
ENDBLK
  8
0
  5
14F
  0
BLOCK
  8
0
  5
151
  2
BLK29
 70
    64
 10
0.0
 20
0.0
 30
0.0
  3
BLK29
  0
ENDBLK
  8
0
  5
152
  0
BLOCK
  8
0
  5
154
  2
BLK30
 70
    64
 10
0.0
 20
0.0
 30
0.0
  3
BLK30
  0
ENDBLK
  8
0
  5
155
  0
BLOCK
  8
0
  5
157
  2
BLK31
 70
    64
 10
0.0
 20
0.0
 30
0.0
  3
BLK31
  0
ENDBLK
  8
0
  5
158
  0
BLOCK
  8
0
  5
15A
  2
BLK32
 70
    64
 10
0.0
 20
0.0
 30
0.0
  3
BLK32
  0
ENDBLK
  8
0
  5
15B
  0
BLOCK
  8
0
  5
15D
  2
BLK33
 70
    64
 10
0.0
 20
0.0
 30
0.0
  3
BLK33
  0
ENDBLK
  8
0
  5
15E
  0
BLOCK
  8
0
  5
160
  2
BLK34
 70
    64
 10
0.0
 20
0.0
 30
0.0
  3
BLK34
  0
ENDBLK
  8
0
  5
161
  0
BLOCK
  8
0
  5
163
  2
BLK35
 70
    64
 10
0.0
 20
0.0
 30
0.0
  3
BLK35
  0
ENDBLK
  8
0
  5
164
  0
BLOCK
  8
0
  5
166
  2
BLK36
 70
    64
 10
0.0
 20
0.0
 30
0.0
  3
BLK36
  0
ENDBLK
  8
0
  5
167
  0
BLOCK
  8
0
  5
169
  2
BLK37
 70
    64
 10
0.0
 20
0.0
 30
0.0
  3
BLK37
  0
ENDBLK
  8
0
  5
16A
  0
BLOCK
  8
0
  5
16C
  2
BLK38
 70
    64
 10
0.0
 20
0.0
 30
0.0
  3
BLK38
  0
ENDBLK
  8
0
  5
16D
  0
BLOCK
  8
0
  5
16F
  2
BLK39
 70
    64
 10
0.0
 20
0.0
 30
0.0
  3
BLK39
  0
ENDBLK
  8
0
  5
170
  0
BLOCK
  8
0
  5
172
  2
BLK40
 70
    64
 10
0.0
 20
0.0
 30
0.0
  3
BLK40
  0
ENDBLK
  8
0
  5
173
  0
BLOCK
  8
0
  5
175
  2
BLK41
 70
    64
 10
0.0
 20
0.0
 30
0.0
  3
BLK41
  0
ENDBLK
  8
0
  5
176
  0
BLOCK
  8
0
  5
178
  2
BLK42
 70
    64
 10
0.0
 20
0.0
 30
0.0
  3
BLK42
  0
ENDBLK
  8
0
  5
179
  0
BLOCK
  8
0
  5
17B
  2
BLK43
 70
    64
 10
0.0
 20
0.0
 30
0.0
  3
BLK43
  0
ENDBLK
  8
0
  5
17C
  0
BLOCK
  8
0
  5
17E
  2
BLK44
 70
    64
 10
0.0
 20
0.0
 30
0.0
  3
BLK44
  0
ENDBLK
  8
0
  5
17F
  0
BLOCK
  8
0
  5
181
  2
BLK45
 70
    64
 10
0.0
 20
0.0
 30
0.0
  3
BLK45
  0
ENDBLK
  8
0
  5
182
  0
BLOCK
  8
0
  5
184
  2
BLK46
 70
    64
 10
0.0
 20
0.0
 30
0.0
  3
BLK46
  0
ENDBLK
  8
0
  5
185
  0
BLOCK
  8
0
  5
187
  2
BLK47
 70
    64
 10
0.0
 20
0.0
 30
0.0
  3
BLK47
  0
ENDBLK
  8
0
  5
188
  0
BLOCK
  8
0
  5
18A
  2
BLK48
 70
    64
 10
0.0
 20
0.0
 30
0.0
  3
BLK48
  0
ENDBLK
  8
0
  5
18B
  0
BLOCK
  8
0
  5
18D
  2
BLK49
 70
    64
 10
0.0
 20
0.0
 30
0.0
  3
BLK49
  0
ENDBLK
  8
0
  5
18E
  0
BLOCK
  8
0
  5
190
  2
BLK50
 70
    64
 10
0.0
 20
0.0
 30
0.0
  3
BLK50
  0
ENDBLK
  8
0
  5
191
  0
BLOCK
  8
0
  5
193
  2
BLK51
 70
    64
 10
0.0
 20
0.0
 30
0.0
  3
BLK51
  0
ENDBLK
  8
0
  5
194
  0
BLOCK
  8
0
  5
196
  2
BLK52
 70
    64
 10
0.0
 20
0.0
 30
0.0
  3
BLK52
  0
ENDBLK
  8
0
  5
197
  0
BLOCK
  8
0
  5
199
  2
BLK53
 70
    64
 10
0.0
 20
0.0
 30
0.0
  3
BLK53
  0
ENDBLK
  8
0
  5
19A
  0
BLOCK
  8
0
  5
19C
  2
BLK54
 70
    64
 10
0.0
 20
0.0
 30
0.0
  3
BLK54
  0
ENDBLK
  8
0
  5
19D
  0
BLOCK
  8
0
  5
19F
  2
BLK55
 70
    64
 10
0.0
 20
0.0
 30
0.0
  3
BLK55
  0
ENDBLK
  8
0
  5
1A0
  0
BLOCK
  8
0
  5
1A2
  2
BLK56
 70
    64
 10
0.0
 20
0.0
 30
0.0
  3
BLK56
  0
ENDBLK
  8
0
  5
1A3
  0
BLOCK
  8
0
  5
1A5
  2
BLK57
 70
    64
 10
0.0
 20
0.0
 30
0.0
  3
BLK57
  0
ENDBLK
  8
0
  5
1A6
  0
BLOCK
  8
0
  5
1A8
  2
BLK58
 70
    64
 10
0.0
 20
0.0
 30
0.0
  3
BLK58
  0
ENDBLK
  8
0
  5
1A9
  0
BLOCK
  8
0
  5
1AB
  2
*X64
 70
    65
 10
227.845913
 20
382.887483
 30
0.0
  3
*X64
  0
LINE
  8
LC-002-005-----0
  6
CONTINUOUS
  5
1AC
 10
227.845913
 20
383.094243
 30
0.0
 11
228.052673
 21
382.887483
 31
0.0
  0
LINE
  8
LC-002-005-----0
  6
CONTINUOUS
  5
1AD
 10
227.845913
 20
384.508455
 30
0.0
 11
229.345913
 21
383.008457
 31
0.0
  0
LINE
  8
LC-002-005-----0
  6
CONTINUOUS
  5
1AE
 10
227.845913
 20
385.922668
 30
0.0
 11
229.345913
 21
384.42267
 31
0.0
  0
LINE
  8
LC-002-005-----0
  6
CONTINUOUS
  5
1AF
 10
227.887858
 20
387.294936
 30
0.0
 11
229.345913
 21
385.836882
 31
0.0
  0
LINE
  8
LC-002-005-----0
  6
CONTINUOUS
  5
1B0
 10
228.36515
 20
388.231857
 30
0.0
 11
229.345913
 21
387.251095
 31
0.0
  0
LINE
  8
LC-002-005-----0
  6
CONTINUOUS
  5
1B1
 10
229.223164
 20
388.788057
 30
0.0
 11
230.62374
 21
387.387483
 31
0.0
  0
LINE
  8
LC-002-005-----0
  6
CONTINUOUS
  5
1B2
 10
232.845913
 20
385.165312
 30
0.0
 11
233.623744
 21
384.387483
 31
0.0
  0
LINE
  8
LC-002-005-----0
  6
CONTINUOUS
  5
1B3
 10
230.537952
 20
388.887483
 30
0.0
 11
232.037954
 21
387.387483
 31
0.0
  0
LINE
  8
LC-002-005-----0
  6
CONTINUOUS
  5
1B4
 10
232.845913
 20
386.579525
 30
0.0
 11
234.345913
 21
385.079527
 31
0.0
  0
LINE
  8
LC-002-005-----0
  6
CONTINUOUS
  5
1B5
 10
231.952167
 20
388.887483
 30
0.0
 11
234.345913
 21
386.49374
 31
0.0
  0
LINE
  8
LC-002-005-----0
  6
CONTINUOUS
  5
1B6
 10
233.532995
 20
388.720869
 30
0.0
 11
234.179299
 21
388.074567
 31
0.0
  0
ENDBLK
  8
0
  5
1B7
  0
BLOCK
  8
0
  5
1B9
  2
BLK59
 70
    64
 10
0.0
 20
0.0
 30
0.0
  3
BLK59
  0
ENDBLK
  8
0
  5
1BA
  0
BLOCK
  8
0
  5
1BC
  2
*X66
 70
    65
 10
240.345913
 20
384.387483
 30
0.0
  3
*X66
  0
LINE
  8
LC-002-005-----0
  6
CONTINUOUS
  5
1BD
 10
240.345913
 20
384.736385
 30
0.0
 11
240.694816
 21
384.387483
 31
0.0
  0
LINE
  8
LC-002-005-----0
  6
CONTINUOUS
  5
1BE
 10
240.345913
 20
386.150598
 30
0.0
 11
241.845913
 21
384.6506
 31
0.0
  0
LINE
  8
LC-002-005-----0
  6
CONTINUOUS
  5
1BF
 10
240.35534
 20
387.555384
 30
0.0
 11
241.845913
 21
386.064813
 31
0.0
  0
LINE
  8
LC-002-005-----0
  6
CONTINUOUS
  5
1C0
 10
240.832012
 20
388.492926
 30
0.0
 11
241.937456
 21
387.387483
 31
0.0
  0
LINE
  8
LC-002-005-----0
  6
CONTINUOUS
  5
1C1
 10
244.845913
 20
384.479029
 30
0.0
 11
244.93746
 21
384.387483
 31
0.0
  0
LINE
  8
LC-002-005-----0
  6
CONTINUOUS
  5
1C2
 10
241.851668
 20
388.887483
 30
0.0
 11
243.35167
 21
387.387483
 31
0.0
  0
LINE
  8
LC-002-005-----0
  6
CONTINUOUS
  5
1C3
 10
244.845913
 20
385.893242
 30
0.0
 11
246.345913
 21
384.393244
 31
0.0
  0
LINE
  8
LC-002-005-----0
  6
CONTINUOUS
  5
1C4
 10
243.265883
 20
388.887483
 30
0.0
 11
244.765885
 21
387.387483
 31
0.0
  0
LINE
  8
LC-002-005-----0
  6
CONTINUOUS
  5
1C5
 10
244.845913
 20
387.307455
 30
0.0
 11
246.345913
 21
385.807456
 31
0.0
  0
LINE
  8
LC-002-005-----0
  6
CONTINUOUS
  5
1C6
 10
244.680097
 20
388.887483
 30
0.0
 11
246.345913
 21
387.221669
 31
0.0
  0
ENDBLK
  8
0
  5
1C7
  0
BLOCK
  8
0
  5
1C9
  2
BLK60
 70
    64
 10
0.0
 20
0.0
 30
0.0
  3
BLK60
  0
ENDBLK
  8
0
  5
1CA
  0
BLOCK
  8
0
  5
1CC
  2
*X68
 70
    65
 10
252.345913
 20
384.387483
 30
0.0
  3
*X68
  0
LINE
  8
LC-002-005-----0
  6
CONTINUOUS
  5
1CD
 10
252.345913
 20
385.464315
 30
0.0
 11
253.422747
 21
384.387483
 31
0.0
  0
LINE
  8
LC-002-005-----0
  6
CONTINUOUS
  5
1CE
 10
252.345913
 20
386.878528
 30
0.0
 11
253.845913
 21
385.37853
 31
0.0
  0
LINE
  8
LC-002-005-----0
  6
CONTINUOUS
  5
1CF
 10
252.530421
 20
388.108233
 30
0.0
 11
253.845913
 21
386.792742
 31
0.0
  0
LINE
  8
LC-002-005-----0
  6
CONTINUOUS
  5
1D0
 10
253.277325
 20
388.775542
 30
0.0
 11
254.665386
 21
387.387483
 31
0.0
  0
LINE
  8
LC-002-005-----0
  6
CONTINUOUS
  5
1D1
 10
256.845913
 20
385.206959
 30
0.0
 11
257.66539
 21
384.387483
 31
0.0
  0
LINE
  8
LC-002-005-----0
  6
CONTINUOUS
  5
1D2
 10
254.579599
 20
388.887483
 30
0.0
 11
256.079601
 21
387.387483
 31
0.0
  0
LINE
  8
LC-002-005-----0
  6
CONTINUOUS
  5
1D3
 10
256.845913
 20
386.621171
 30
0.0
 11
258.345913
 21
385.121173
 31
0.0
  0
LINE
  8
LC-002-005-----0
  6
CONTINUOUS
  5
1D4
 10
255.993813
 20
388.887483
 30
0.0
 11
258.345913
 21
386.535386
 31
0.0
  0
LINE
  8
LC-002-005-----0
  6
CONTINUOUS
  5
1D5
 10
257.628132
 20
388.667379
 30
0.0
 11
258.125809
 21
388.169703
 31
0.0
  0
ENDBLK
  8
0
  5
1D6
  0
BLOCK
  8
0
  5
1D8
  2
BLK61
 70
    64
 10
0.0
 20
0.0
 30
0.0
  3
BLK61
  0
ENDBLK
  8
0
  5
1D9
  0
BLOCK
  8
0
  5
1DB
  2
*X70
 70
    65
 10
264.345913
 20
384.387483
 30
0.0
  3
*X70
  0
LINE
  8
LC-002-005-----0
  6
CONTINUOUS
  5
1DC
 10
264.345913
 20
384.778032
 30
0.0
 11
264.736463
 21
384.387483
 31
0.0
  0
LINE
  8
LC-002-005-----0
  6
CONTINUOUS
  5
1DD
 10
264.345913
 20
386.192244
 30
0.0
 11
265.845913
 21
384.692246
 31
0.0
  0
LINE
  8
LC-002-005-----0
  6
CONTINUOUS
  5
1DE
 10
264.359976
 20
387.592395
 30
0.0
 11
265.845913
 21
386.106459
 31
0.0
  0
LINE
  8
LC-002-005-----0
  6
CONTINUOUS
  5
1DF
 10
264.853939
 20
388.512644
 30
0.0
 11
265.979102
 21
387.387483
 31
0.0
  0
LINE
  8
LC-002-005-----0
  6
CONTINUOUS
  5
1E0
 10
265.893315
 20
388.887483
 30
0.0
 11
267.393317
 21
387.387483
 31
0.0
  0
LINE
  8
LC-002-005-----0
  6
CONTINUOUS
  5
1E1
 10
267.307529
 20
388.887483
 30
0.0
 11
268.807531
 21
387.387483
 31
0.0
  0
LINE
  8
LC-002-005-----0
  6
CONTINUOUS
  5
1E2
 10
268.721744
 20
388.887483
 30
0.0
 11
270.221746
 21
387.387483
 31
0.0
  0
LINE
  8
LC-002-005-----0
  6
CONTINUOUS
  5
1E3
 10
270.135958
 20
388.887483
 30
0.0
 11
271.63596
 21
387.387483
 31
0.0
  0
LINE
  8
LC-002-005-----0
  6
CONTINUOUS
  5
1E4
 10
271.550173
 20
388.887483
 30
0.0
 11
273.050175
 21
387.387483
 31
0.0
  0
LINE
  8
LC-002-005-----0
  6
CONTINUOUS
  5
1E5
 10
272.964387
 20
388.887483
 30
0.0
 11
273.345913
 21
388.505957
 31
0.0
  0
ENDBLK
  8
0
  5
1E6
  0
BLOCK
  8
0
  5
1E8
  2
BLK62
 70
    64
 10
0.0
 20
0.0
 30
0.0
  3
BLK62
  0
ENDBLK
  8
0
  5
1E9
  0
BLOCK
  8
0
  5
1EB
  2
BLK63
 70
    64
 10
0.0
 20
0.0
 30
0.0
  3
BLK63
  0
ENDBLK
  8
0
  5
1EC
  0
BLOCK
  8
0
  5
1EE
  2
BLK64
 70
    64
 10
0.0
 20
0.0
 30
0.0
  3
BLK64
  0
ENDBLK
  8
0
  5
1EF
  0
BLOCK
  8
0
  5
1F1
  2
BLK65
 70
    64
 10
0.0
 20
0.0
 30
0.0
  3
BLK65
  0
ENDBLK
  8
0
  5
1F2
  0
BLOCK
  8
0
  5
1F4
  2
BLK66
 70
    64
 10
0.0
 20
0.0
 30
0.0
  3
BLK66
  0
ENDBLK
  8
0
  5
1F5
  0
BLOCK
  8
0
  5
1F7
  2
BLK67
 70
    64
 10
0.0
 20
0.0
 30
0.0
  3
BLK67
  0
ENDBLK
  8
0
  5
1F8
  0
BLOCK
  8
0
  5
1FA
  2
BLK68
 70
    64
 10
0.0
 20
0.0
 30
0.0
  3
BLK68
  0
ENDBLK
  8
0
  5
1FB
  0
BLOCK
  8
0
  5
1FD
  2
BLK69
 70
    64
 10
0.0
 20
0.0
 30
0.0
  3
BLK69
  0
ENDBLK
  8
0
  5
1FE
  0
BLOCK
  8
0
  5
200
  2
BLK70
 70
    64
 10
0.0
 20
0.0
 30
0.0
  3
BLK70
  0
ENDBLK
  8
0
  5
201
  0
BLOCK
  8
0
  5
203
  2
BLK71
 70
    64
 10
0.0
 20
0.0
 30
0.0
  3
BLK71
  0
ENDBLK
  8
0
  5
204
  0
BLOCK
  8
0
  5
206
  2
BLK72
 70
    64
 10
0.0
 20
0.0
 30
0.0
  3
BLK72
  0
ENDBLK
  8
0
  5
207
  0
BLOCK
  8
0
  5
209
  2
BLK73
 70
    64
 10
0.0
 20
0.0
 30
0.0
  3
BLK73
  0
ENDBLK
  8
0
  5
20A
  0
BLOCK
  8
0
  5
20C
  2
BLK74
 70
    64
 10
0.0
 20
0.0
 30
0.0
  3
BLK74
  0
ENDBLK
  8
0
  5
20D
  0
BLOCK
  8
0
  5
20F
  2
BLK75
 70
    64
 10
0.0
 20
0.0
 30
0.0
  3
BLK75
  0
ENDBLK
  8
0
  5
210
  0
BLOCK
  8
0
  5
212
  2
BLK76
 70
    64
 10
0.0
 20
0.0
 30
0.0
  3
BLK76
  0
ENDBLK
  8
0
  5
213
  0
BLOCK
  8
0
  5
215
  2
BLK77
 70
    64
 10
0.0
 20
0.0
 30
0.0
  3
BLK77
  0
ENDBLK
  8
0
  5
216
  0
BLOCK
  8
0
  5
218
  2
BLK78
 70
    64
 10
0.0
 20
0.0
 30
0.0
  3
BLK78
  0
ENDBLK
  8
0
  5
219
  0
BLOCK
  8
0
  5
21B
  2
BLK79
 70
    64
 10
0.0
 20
0.0
 30
0.0
  3
BLK79
  0
ENDBLK
  8
0
  5
21C
  0
BLOCK
  8
0
  5
21E
  2
BLK80
 70
    64
 10
0.0
 20
0.0
 30
0.0
  3
BLK80
  0
ENDBLK
  8
0
  5
21F
  0
BLOCK
  8
0
  5
221
  2
BLK81
 70
    64
 10
0.0
 20
0.0
 30
0.0
  3
BLK81
  0
ENDBLK
  8
0
  5
222
  0
BLOCK
  8
0
  5
224
  2
BLK82
 70
    64
 10
0.0
 20
0.0
 30
0.0
  3
BLK82
  0
ENDBLK
  8
0
  5
225
  0
BLOCK
  8
0
  5
227
  2
BLK83
 70
    64
 10
0.0
 20
0.0
 30
0.0
  3
BLK83
  0
ENDBLK
  8
0
  5
228
  0
BLOCK
  8
0
  5
22A
  2
BLK84
 70
    64
 10
0.0
 20
0.0
 30
0.0
  3
BLK84
  0
ENDBLK
  8
0
  5
22B
  0
BLOCK
  8
0
  5
22D
  2
BLK85
 70
    64
 10
0.0
 20
0.0
 30
0.0
  3
BLK85
  0
ENDBLK
  8
0
  5
22E
  0
BLOCK
  8
0
  5
230
  2
BLK86
 70
    64
 10
0.0
 20
0.0
 30
0.0
  3
BLK86
  0
ENDBLK
  8
0
  5
231
  0
BLOCK
  8
0
  5
233
  2
BLK87
 70
    64
 10
0.0
 20
0.0
 30
0.0
  3
BLK87
  0
ENDBLK
  8
0
  5
234
  0
BLOCK
  8
0
  5
236
  2
BLK88
 70
    64
 10
0.0
 20
0.0
 30
0.0
  3
BLK88
  0
ENDBLK
  8
0
  5
237
  0
BLOCK
  8
0
  5
239
  2
BLK89
 70
    64
 10
0.0
 20
0.0
 30
0.0
  3
BLK89
  0
ENDBLK
  8
0
  5
23A
  0
BLOCK
  8
0
  5
23C
  2
*X99
 70
    65
 10
312.34615
 20
382.887558
 30
0.0
  3
*X99
  0
LINE
  8
LC-002-005-----0
  6
CONTINUOUS
  5
23D
 10
312.34615
 20
384.861088
 30
0.0
 11
312.819677
 21
384.387562
 31
0.0
  0
LINE
  8
LC-002-005-----0
  6
CONTINUOUS
  5
23E
 10
312.346151
 20
386.2753
 30
0.0
 11
313.84615
 21
384.775303
 31
0.0
  0
LINE
  8
LC-002-005-----0
  6
CONTINUOUS
  5
23F
 10
312.371816
 20
387.663848
 30
0.0
 11
313.846151
 21
386.189515
 31
0.0
  0
LINE
  8
LC-002-005-----0
  6
CONTINUOUS
  5
240
 10
312.899094
 20
388.550782
 30
0.0
 11
314.062317
 21
387.387561
 31
0.0
  0
LINE
  8
LC-002-005-----0
  6
CONTINUOUS
  5
241
 10
317.346149
 20
384.103733
 30
0.0
 11
318.562326
 21
382.887558
 31
0.0
  0
LINE
  8
LC-002-005-----0
  6
CONTINUOUS
  5
242
 10
313.976529
 20
388.887561
 30
0.0
 11
315.476532
 21
387.38756
 31
0.0
  0
LINE
  8
LC-002-005-----0
  6
CONTINUOUS
  5
243
 10
317.34615
 20
385.517945
 30
0.0
 11
318.846149
 21
384.017948
 31
0.0
  0
LINE
  8
LC-002-005-----0
  6
CONTINUOUS
  5
244
 10
315.390745
 20
388.88756
 30
0.0
 11
316.890748
 21
387.387559
 31
0.0
  0
LINE
  8
LC-002-005-----0
  6
CONTINUOUS
  5
245
 10
317.346151
 20
386.932157
 30
0.0
 11
318.84615
 21
385.43216
 31
0.0
  0
LINE
  8
LC-002-005-----0
  6
CONTINUOUS
  5
246
 10
316.80496
 20
388.88756
 30
0.0
 11
318.846151
 21
386.846371
 31
0.0
  0
ENDBLK
  8
0
  5
247
  0
BLOCK
  8
0
  5
249
  2
*X100
 70
    65
 10
300.34615
 20
384.387566
 30
0.0
  3
*X100
  0
LINE
  8
LC-002-005-----0
  6
CONTINUOUS
  5
24A
 10
300.34615
 20
385.547371
 30
0.0
 11
301.505953
 21
384.38757
 31
0.0
  0
LINE
  8
LC-002-005-----0
  6
CONTINUOUS
  5
24B
 10
300.346151
 20
386.961583
 30
0.0
 11
301.84615
 21
385.461586
 31
0.0
  0
LINE
  8
LC-002-005-----0
  6
CONTINUOUS
  5
24C
 10
300.560934
 20
388.161013
 30
0.0
 11
301.846151
 21
386.875797
 31
0.0
  0
LINE
  8
LC-002-005-----0
  6
CONTINUOUS
  5
24D
 10
301.337475
 20
388.798685
 30
0.0
 11
302.748594
 21
387.387569
 31
0.0
  0
LINE
  8
LC-002-005-----0
  6
CONTINUOUS
  5
24E
 10
304.84615
 20
385.290015
 30
0.0
 11
305.7486
 21
384.387567
 31
0.0
  0
LINE
  8
LC-002-005-----0
  6
CONTINUOUS
  5
24F
 10
302.662806
 20
388.887569
 30
0.0
 11
304.162809
 21
387.387568
 31
0.0
  0
LINE
  8
LC-002-005-----0
  6
CONTINUOUS
  5
250
 10
304.846151
 20
386.704227
 30
0.0
 11
306.34615
 21
385.20423
 31
0.0
  0
LINE
  8
LC-002-005-----0
  6
CONTINUOUS
  5
251
 10
304.077021
 20
388.887568
 30
0.0
 11
306.346151
 21
386.618441
 31
0.0
  0
ENDBLK
  8
0
  5
252
  0
BLOCK
  8
0
  5
254
  2
*X101
 70
    65
 10
288.34615
 20
384.387574
 30
0.0
  3
*X101
  0
LINE
  8
LC-002-005-----0
  6
CONTINUOUS
  5
255
 10
288.34615
 20
384.819442
 30
0.0
 11
288.778014
 21
384.387578
 31
0.0
  0
LINE
  8
LC-002-005-----0
  6
CONTINUOUS
  5
256
 10
288.346151
 20
386.233653
 30
0.0
 11
289.84615
 21
384.733656
 31
0.0
  0
LINE
  8
LC-002-005-----0
  6
CONTINUOUS
  5
257
 10
288.365611
 20
387.628406
 30
0.0
 11
289.846151
 21
386.147868
 31
0.0
  0
LINE
  8
LC-002-005-----0
  6
CONTINUOUS
  5
258
 10
288.876337
 20
388.531893
 30
0.0
 11
290.020655
 21
387.387577
 31
0.0
  0
LINE
  8
LC-002-005-----0
  6
CONTINUOUS
  5
259
 10
292.84615
 20
384.562086
 30
0.0
 11
293.020661
 21
384.387575
 31
0.0
  0
LINE
  8
LC-002-005-----0
  6
CONTINUOUS
  5
25A
 10
289.934867
 20
388.887577
 30
0.0
 11
291.43487
 21
387.387576
 31
0.0
  0
LINE
  8
LC-002-005-----0
  6
CONTINUOUS
  5
25B
 10
292.846151
 20
385.976297
 30
0.0
 11
294.34615
 21
384.4763
 31
0.0
  0
LINE
  8
LC-002-005-----0
  6
CONTINUOUS
  5
25C
 10
291.349083
 20
388.887576
 30
0.0
 11
294.346151
 21
385.890512
 31
0.0
  0
LINE
  8
LC-002-005-----0
  6
CONTINUOUS
  5
25D
 10
292.763298
 20
388.887575
 30
0.0
 11
294.346152
 21
387.304724
 31
0.0
  0
ENDBLK
  8
0
  5
25E
  0
BLOCK
  8
0
  5
260
  2
*X102
 70
    65
 10
273.346152
 20
384.387582
 30
0.0
  3
*X102
  0
LINE
  8
LC-002-005-----0
  6
CONTINUOUS
  5
261
 10
273.346152
 20
388.505718
 30
0.0
 11
274.464285
 21
387.387587
 31
0.0
  0
LINE
  8
LC-002-005-----0
  6
CONTINUOUS
  5
262
 10
274.378498
 20
388.887587
 30
0.0
 11
275.878501
 21
387.387586
 31
0.0
  0
LINE
  8
LC-002-005-----0
  6
CONTINUOUS
  5
263
 10
275.792713
 20
388.887586
 30
0.0
 11
277.292716
 21
387.387585
 31
0.0
  0
LINE
  8
LC-002-005-----0
  6
CONTINUOUS
  5
264
 10
277.206928
 20
388.887585
 30
0.0
 11
278.706931
 21
387.387584
 31
0.0
  0
LINE
  8
LC-002-005-----0
  6
CONTINUOUS
  5
265
 10
280.84615
 20
385.248368
 30
0.0
 11
281.706937
 21
384.387582
 31
0.0
  0
LINE
  8
LC-002-005-----0
  6
CONTINUOUS
  5
266
 10
278.621144
 20
388.887584
 30
0.0
 11
280.121147
 21
387.387583
 31
0.0
  0
LINE
  8
LC-002-005-----0
  6
CONTINUOUS
  5
267
 10
280.846151
 20
386.66258
 30
0.0
 11
282.34615
 21
385.162583
 31
0.0
  0
LINE
  8
LC-002-005-----0
  6
CONTINUOUS
  5
268
 10
280.035359
 20
388.887584
 30
0.0
 11
282.346151
 21
386.576795
 31
0.0
  0
LINE
  8
LC-002-005-----0
  6
CONTINUOUS
  5
269
 10
281.760376
 20
388.576782
 30
0.0
 11
282.035349
 21
388.301809
 31
0.0
  0
ENDBLK
  8
0
  5
26A
  0
BLOCK
  8
0
  5
26C
  2
BLK90
 70
    64
 10
0.0
 20
0.0
 30
0.0
  3
BLK90
  0
ENDBLK
  8
0
  5
26D
  0
BLOCK
  8
0
  5
26F
  2
*X104
 70
    65
 10
204.345743
 20
389.387483
 30
0.0
  3
*X104
  0
LINE
  8
LC-002-005-----0
  6
CONTINUOUS
  5
270
 10
338.475795
 20
389.387483
 30
0.0
 11
340.975795
 21
391.887483
 31
0.0
  0
LINE
  8
LC-002-005-----0
  6
CONTINUOUS
  5
271
 10
334.233154
 20
389.387483
 30
0.0
 11
336.733154
 21
391.887483
 31
0.0
  0
LINE
  8
LC-002-005-----0
  6
CONTINUOUS
  5
272
 10
329.990513
 20
389.387483
 30
0.0
 11
332.490513
 21
391.887483
 31
0.0
  0
LINE
  8
LC-002-005-----0
  6
CONTINUOUS
  5
273
 10
325.747873
 20
389.387483
 30
0.0
 11
328.247873
 21
391.887483
 31
0.0
  0
LINE
  8
LC-002-005-----0
  6
CONTINUOUS
  5
274
 10
321.505232
 20
389.387483
 30
0.0
 11
324.005232
 21
391.887483
 31
0.0
  0
LINE
  8
LC-002-005-----0
  6
CONTINUOUS
  5
275
 10
317.262591
 20
389.387483
 30
0.0
 11
319.762591
 21
391.887483
 31
0.0
  0
LINE
  8
LC-002-005-----0
  6
CONTINUOUS
  5
276
 10
313.019951
 20
389.387483
 30
0.0
 11
315.519951
 21
391.887483
 31
0.0
  0
LINE
  8
LC-002-005-----0
  6
CONTINUOUS
  5
277
 10
308.77731
 20
389.387483
 30
0.0
 11
311.27731
 21
391.887483
 31
0.0
  0
LINE
  8
LC-002-005-----0
  6
CONTINUOUS
  5
278
 10
304.534669
 20
389.387483
 30
0.0
 11
307.034669
 21
391.887483
 31
0.0
  0
LINE
  8
LC-002-005-----0
  6
CONTINUOUS
  5
279
 10
300.292029
 20
389.387483
 30
0.0
 11
302.792029
 21
391.887483
 31
0.0
  0
LINE
  8
LC-002-005-----0
  6
CONTINUOUS
  5
27A
 10
296.049388
 20
389.387483
 30
0.0
 11
298.549388
 21
391.887483
 31
0.0
  0
LINE
  8
LC-002-005-----0
  6
CONTINUOUS
  5
27B
 10
291.806747
 20
389.387483
 30
0.0
 11
294.306747
 21
391.887483
 31
0.0
  0
LINE
  8
LC-002-005-----0
  6
CONTINUOUS
  5
27C
 10
287.564107
 20
389.387483
 30
0.0
 11
290.064107
 21
391.887483
 31
0.0
  0
LINE
  8
LC-002-005-----0
  6
CONTINUOUS
  5
27D
 10
283.321466
 20
389.387483
 30
0.0
 11
285.821466
 21
391.887483
 31
0.0
  0
LINE
  8
LC-002-005-----0
  6
CONTINUOUS
  5
27E
 10
279.078825
 20
389.387483
 30
0.0
 11
281.578825
 21
391.887483
 31
0.0
  0
LINE
  8
LC-002-005-----0
  6
CONTINUOUS
  5
27F
 10
274.836185
 20
389.387483
 30
0.0
 11
277.336185
 21
391.887483
 31
0.0
  0
LINE
  8
LC-002-005-----0
  6
CONTINUOUS
  5
280
 10
270.593544
 20
389.387483
 30
0.0
 11
273.093544
 21
391.887483
 31
0.0
  0
LINE
  8
LC-002-005-----0
  6
CONTINUOUS
  5
281
 10
266.350903
 20
389.387483
 30
0.0
 11
268.850903
 21
391.887483
 31
0.0
  0
LINE
  8
LC-002-005-----0
  6
CONTINUOUS
  5
282
 10
262.108262
 20
389.387483
 30
0.0
 11
264.608262
 21
391.887483
 31
0.0
  0
LINE
  8
LC-002-005-----0
  6
CONTINUOUS
  5
283
 10
257.865622
 20
389.387483
 30
0.0
 11
260.365622
 21
391.887483
 31
0.0
  0
LINE
  8
LC-002-005-----0
  6
CONTINUOUS
  5
284
 10
253.622981
 20
389.387483
 30
0.0
 11
256.122981
 21
391.887483
 31
0.0
  0
LINE
  8
LC-002-005-----0
  6
CONTINUOUS
  5
285
 10
249.38034
 20
389.387483
 30
0.0
 11
251.88034
 21
391.887483
 31
0.0
  0
LINE
  8
LC-002-005-----0
  6
CONTINUOUS
  5
286
 10
245.1377
 20
389.387483
 30
0.0
 11
247.6377
 21
391.887483
 31
0.0
  0
LINE
  8
LC-002-005-----0
  6
CONTINUOUS
  5
287
 10
240.895059
 20
389.387483
 30
0.0
 11
243.395059
 21
391.887483
 31
0.0
  0
LINE
  8
LC-002-005-----0
  6
CONTINUOUS
  5
288
 10
236.652418
 20
389.387483
 30
0.0
 11
239.152418
 21
391.887483
 31
0.0
  0
LINE
  8
LC-002-005-----0
  6
CONTINUOUS
  5
289
 10
232.409778
 20
389.387483
 30
0.0
 11
234.909778
 21
391.887483
 31
0.0
  0
LINE
  8
LC-002-005-----0
  6
CONTINUOUS
  5
28A
 10
228.167137
 20
389.387483
 30
0.0
 11
230.667137
 21
391.887483
 31
0.0
  0
LINE
  8
LC-002-005-----0
  6
CONTINUOUS
  5
28B
 10
223.924496
 20
389.387483
 30
0.0
 11
226.424496
 21
391.887483
 31
0.0
  0
LINE
  8
LC-002-005-----0
  6
CONTINUOUS
  5
28C
 10
219.681856
 20
389.387483
 30
0.0
 11
222.181856
 21
391.887483
 31
0.0
  0
LINE
  8
LC-002-005-----0
  6
CONTINUOUS
  5
28D
 10
215.439215
 20
389.387483
 30
0.0
 11
217.939215
 21
391.887483
 31
0.0
  0
LINE
  8
LC-002-005-----0
  6
CONTINUOUS
  5
28E
 10
211.196574
 20
389.387483
 30
0.0
 11
213.696574
 21
391.887483
 31
0.0
  0
LINE
  8
LC-002-005-----0
  6
CONTINUOUS
  5
28F
 10
206.953934
 20
389.387483
 30
0.0
 11
209.453934
 21
391.887483
 31
0.0
  0
LINE
  8
LC-002-005-----0
  6
CONTINUOUS
  5
290
 10
204.345743
 20
391.021934
 30
0.0
 11
205.211293
 21
391.887483
 31
0.0
  0
ENDBLK
  8
0
  5
291
  0
BLOCK
  8
0
  5
293
  2
BLK91
 70
    64
 10
0.0
 20
0.0
 30
0.0
  3
BLK91
  0
ENDBLK
  8
0
  5
294
  0
BLOCK
  8
0
  5
296
  2
BLK92
 70
    64
 10
0.0
 20
0.0
 30
0.0
  3
BLK92
  0
ENDBLK
  8
0
  5
297
  0
BLOCK
  8
0
  5
299
  2
BLK93
 70
    64
 10
0.0
 20
0.0
 30
0.0
  3
BLK93
  0
ENDBLK
  8
0
  5
29A
  0
BLOCK
  8
0
  5
29C
  2
BLK94
 70
    64
 10
0.0
 20
0.0
 30
0.0
  3
BLK94
  0
ENDBLK
  8
0
  5
29D
  0
BLOCK
  8
0
  5
29F
  2
BLK95
 70
    64
 10
0.0
 20
0.0
 30
0.0
  3
BLK95
  0
ENDBLK
  8
0
  5
2A0
  0
BLOCK
  8
0
  5
2A2
  2
BLK96
 70
    64
 10
0.0
 20
0.0
 30
0.0
  3
BLK96
  0
ENDBLK
  8
0
  5
2A3
  0
BLOCK
  8
0
  5
2A5
  2
BLK97
 70
    64
 10
0.0
 20
0.0
 30
0.0
  3
BLK97
  0
ENDBLK
  8
0
  5
2A6
  0
BLOCK
  8
0
  5
2A8
  2
BLK98
 70
    64
 10
0.0
 20
0.0
 30
0.0
  3
BLK98
  0
ENDBLK
  8
0
  5
2A9
  0
BLOCK
  8
0
  5
2AB
  2
BLK99
 70
    64
 10
0.0
 20
0.0
 30
0.0
  3
BLK99
  0
ENDBLK
  8
0
  5
2AC
  0
BLOCK
  8
0
  5
2AE
  2
BLK100
 70
    64
 10
0.0
 20
0.0
 30
0.0
  3
BLK100
  0
ENDBLK
  8
0
  5
2AF
  0
BLOCK
  8
0
  5
2B1
  2
BLK101
 70
    64
 10
0.0
 20
0.0
 30
0.0
  3
BLK101
  0
ENDBLK
  8
0
  5
2B2
  0
BLOCK
  8
0
  5
2B4
  2
BLK102
 70
    64
 10
0.0
 20
0.0
 30
0.0
  3
BLK102
  0
ENDBLK
  8
0
  5
2B5
  0
BLOCK
  8
0
  5
2B7
  2
BLK103
 70
    64
 10
0.0
 20
0.0
 30
0.0
  3
BLK103
  0
ENDBLK
  8
0
  5
2B8
  0
BLOCK
  8
0
  5
2BA
  2
BLK104
 70
    64
 10
0.0
 20
0.0
 30
0.0
  3
BLK104
  0
ENDBLK
  8
0
  5
2BB
  0
BLOCK
  8
0
  5
2BD
  2
BLK105
 70
    64
 10
0.0
 20
0.0
 30
0.0
  3
BLK105
  0
ENDBLK
  8
0
  5
2BE
  0
BLOCK
  8
0
  5
2C0
  2
BLK106
 70
    64
 10
0.0
 20
0.0
 30
0.0
  3
BLK106
  0
ENDBLK
  8
0
  5
2C1
  0
BLOCK
  8
0
  5
2C3
  2
BLK107
 70
    64
 10
0.0
 20
0.0
 30
0.0
  3
BLK107
  0
ENDBLK
  8
0
  5
2C4
  0
BLOCK
  8
0
  5
2C6
  2
BLK108
 70
    64
 10
0.0
 20
0.0
 30
0.0
  3
BLK108
  0
ENDBLK
  8
0
  5
2C7
  0
BLOCK
  8
0
  5
2C9
  2
BLK109
 70
    64
 10
0.0
 20
0.0
 30
0.0
  3
BLK109
  0
ENDBLK
  8
0
  5
2CA
  0
BLOCK
  8
0
  5
2CC
  2
BLK110
 70
    64
 10
0.0
 20
0.0
 30
0.0
  3
BLK110
  0
ENDBLK
  8
0
  5
2CD
  0
BLOCK
  8
0
  5
2CF
  2
BLK111
 70
    64
 10
0.0
 20
0.0
 30
0.0
  3
BLK111
  0
ENDBLK
  8
0
  5
2D0
  0
BLOCK
  8
0
  5
2D2
  2
BLK112
 70
    64
 10
0.0
 20
0.0
 30
0.0
  3
BLK112
  0
ENDBLK
  8
0
  5
2D3
  0
BLOCK
  8
0
  5
2D5
  2
BLK113
 70
    64
 10
0.0
 20
0.0
 30
0.0
  3
BLK113
  0
ENDBLK
  8
0
  5
2D6
  0
BLOCK
  8
0
  5
2D8
  2
BLK114
 70
    64
 10
0.0
 20
0.0
 30
0.0
  3
BLK114
  0
ENDBLK
  8
0
  5
2D9
  0
BLOCK
  8
0
  5
2DB
  2
BLK115
 70
    64
 10
0.0
 20
0.0
 30
0.0
  3
BLK115
  0
ENDBLK
  8
0
  5
2DC
  0
BLOCK
  8
0
  5
2DE
  2
BLK116
 70
    64
 10
0.0
 20
0.0
 30
0.0
  3
BLK116
  0
ENDBLK
  8
0
  5
2DF
  0
BLOCK
  8
0
  5
2E1
  2
BLK117
 70
    64
 10
0.0
 20
0.0
 30
0.0
  3
BLK117
  0
ENDBLK
  8
0
  5
2E2
  0
BLOCK
  8
0
  5
2E4
  2
BLK118
 70
    64
 10
0.0
 20
0.0
 30
0.0
  3
BLK118
  0
ENDBLK
  8
0
  5
2E5
  0
BLOCK
  8
0
  5
2E7
  2
BLK119
 70
    64
 10
0.0
 20
0.0
 30
0.0
  3
BLK119
  0
ENDBLK
  8
0
  5
2E8
  0
BLOCK
  8
0
  5
2EA
  2
BLK120
 70
    64
 10
0.0
 20
0.0
 30
0.0
  3
BLK120
  0
ENDBLK
  8
0
  5
2EB
  0
BLOCK
  8
0
  5
2ED
  2
BLK121
 70
    64
 10
0.0
 20
0.0
 30
0.0
  3
BLK121
  0
ENDBLK
  8
0
  5
2EE
  0
BLOCK
  8
0
  5
2F0
  2
BLK122
 70
    64
 10
0.0
 20
0.0
 30
0.0
  3
BLK122
  0
ENDBLK
  8
0
  5
2F1
  0
BLOCK
  8
0
  5
2F3
  2
BLK123
 70
    64
 10
0.0
 20
0.0
 30
0.0
  3
BLK123
  0
ENDBLK
  8
0
  5
2F4
  0
BLOCK
  8
0
  5
2F6
  2
BLK124
 70
    64
 10
0.0
 20
0.0
 30
0.0
  3
BLK124
  0
ENDBLK
  8
0
  5
2F7
  0
BLOCK
  8
0
  5
2F9
  2
BLK125
 70
    64
 10
0.0
 20
0.0
 30
0.0
  3
BLK125
  0
ENDBLK
  8
0
  5
2FA
  0
BLOCK
  8
0
  5
2FC
  2
*X140
 70
    65
 10
342.900034
 20
186.38674
 30
0.0
  3
*X140
  0
LINE
  8
LC-002-005-----0
  6
CONTINUOUS
  5
2FD
 10
347.400034
 20
387.991018
 30
0.0
 11
344.807931
 21
390.583122
 31
0.0
  0
LINE
  8
LC-002-005-----0
  6
CONTINUOUS
  5
2FE
 10
347.400034
 20
385.162591
 30
0.0
 11
343.900034
 21
388.662591
 31
0.0
  0
LINE
  8
LC-002-005-----0
  6
CONTINUOUS
  5
2FF
 10
347.400034
 20
382.334164
 30
0.0
 11
343.900034
 21
385.834164
 31
0.0
  0
LINE
  8
LC-002-005-----0
  6
CONTINUOUS
  5
300
 10
349.900034
 20
377.005737
 30
0.0
 11
348.400034
 21
378.505737
 31
0.0
  0
LINE
  8
LC-002-005-----0
  6
CONTINUOUS
  5
301
 10
347.400034
 20
379.505737
 30
0.0
 11
343.900034
 21
383.005737
 31
0.0
  0
LINE
  8
LC-002-005-----0
  6
CONTINUOUS
  5
302
 10
347.489861
 20
376.587483
 30
0.0
 11
343.900034
 21
380.17731
 31
0.0
  0
LINE
  8
LC-002-005-----0
  6
CONTINUOUS
  5
303
 10
345.899865
 20
375.349052
 30
0.0
 11
343.900034
 21
377.348882
 31
0.0
  0
LINE
  8
LC-002-005-----0
  6
CONTINUOUS
  5
304
 10
345.899865
 20
372.520625
 30
0.0
 11
343.900034
 21
374.520455
 31
0.0
  0
LINE
  8
LC-002-005-----0
  6
CONTINUOUS
  5
305
 10
345.899865
 20
369.692198
 30
0.0
 11
343.900034
 21
371.692028
 31
0.0
  0
LINE
  8
LC-002-005-----0
  6
CONTINUOUS
  5
306
 10
345.899865
 20
366.863771
 30
0.0
 11
343.900034
 21
368.863601
 31
0.0
  0
LINE
  8
LC-002-005-----0
  6
CONTINUOUS
  5
307
 10
345.899865
 20
364.035344
 30
0.0
 11
344.623934
 21
365.311274
 31
0.0
  0
LINE
  8
LC-002-005-----0
  6
CONTINUOUS
  5
308
 10
345.899865
 20
361.206917
 30
0.0
 11
342.900034
 21
364.206747
 31
0.0
  0
LINE
  8
LC-002-005-----0
  6
CONTINUOUS
  5
309
 10
345.899865
 20
358.37849
 30
0.0
 11
342.900034
 21
361.37832
 31
0.0
  0
LINE
  8
LC-002-005-----0
  6
CONTINUOUS
  5
30A
 10
345.899865
 20
355.550062
 30
0.0
 11
342.900034
 21
358.549893
 31
0.0
  0
LINE
  8
LC-002-005-----0
  6
CONTINUOUS
  5
30B
 10
345.899865
 20
352.721635
 30
0.0
 11
342.900034
 21
355.721465
 31
0.0
  0
LINE
  8
LC-002-005-----0
  6
CONTINUOUS
  5
30C
 10
345.899865
 20
349.893208
 30
0.0
 11
342.900034
 21
352.893038
 31
0.0
  0
LINE
  8
LC-002-005-----0
  6
CONTINUOUS
  5
30D
 10
345.899865
 20
347.064781
 30
0.0
 11
342.900034
 21
350.064611
 31
0.0
  0
LINE
  8
LC-002-005-----0
  6
CONTINUOUS
  5
30E
 10
345.899865
 20
344.236354
 30
0.0
 11
342.900034
 21
347.236184
 31
0.0
  0
LINE
  8
LC-002-005-----0
  6
CONTINUOUS
  5
30F
 10
345.899865
 20
341.407927
 30
0.0
 11
342.900034
 21
344.407757
 31
0.0
  0
LINE
  8
LC-002-005-----0
  6
CONTINUOUS
  5
310
 10
345.899865
 20
338.5795
 30
0.0
 11
342.900034
 21
341.57933
 31
0.0
  0
LINE
  8
LC-002-005-----0
  6
CONTINUOUS
  5
311
 10
345.899865
 20
335.751073
 30
0.0
 11
342.900034
 21
338.750903
 31
0.0
  0
LINE
  8
LC-002-005-----0
  6
CONTINUOUS
  5
312
 10
345.899865
 20
332.922645
 30
0.0
 11
342.900034
 21
335.922476
 31
0.0
  0
LINE
  8
LC-002-005-----0
  6
CONTINUOUS
  5
313
 10
345.899865
 20
330.094218
 30
0.0
 11
342.900034
 21
333.094048
 31
0.0
  0
LINE
  8
LC-002-005-----0
  6
CONTINUOUS
  5
314
 10
345.899865
 20
327.265791
 30
0.0
 11
342.900034
 21
330.265621
 31
0.0
  0
LINE
  8
LC-002-005-----0
  6
CONTINUOUS
  5
315
 10
345.899865
 20
324.437364
 30
0.0
 11
342.900034
 21
327.437194
 31
0.0
  0
LINE
  8
LC-002-005-----0
  6
CONTINUOUS
  5
316
 10
345.899865
 20
321.608937
 30
0.0
 11
342.900034
 21
324.608767
 31
0.0
  0
LINE
  8
LC-002-005-----0
  6
CONTINUOUS
  5
317
 10
345.899865
 20
318.78051
 30
0.0
 11
342.900034
 21
321.78034
 31
0.0
  0
LINE
  8
LC-002-005-----0
  6
CONTINUOUS
  5
318
 10
345.899865
 20
315.952083
 30
0.0
 11
342.900034
 21
318.951913
 31
0.0
  0
LINE
  8
LC-002-005-----0
  6
CONTINUOUS
  5
319
 10
345.899865
 20
313.123656
 30
0.0
 11
342.900034
 21
316.123486
 31
0.0
  0
LINE
  8
LC-002-005-----0
  6
CONTINUOUS
  5
31A
 10
345.899865
 20
310.295228
 30
0.0
 11
342.900034
 21
313.295059
 31
0.0
  0
LINE
  8
LC-002-005-----0
  6
CONTINUOUS
  5
31B
 10
345.899865
 20
307.466801
 30
0.0
 11
342.900034
 21
310.466631
 31
0.0
  0
LINE
  8
LC-002-005-----0
  6
CONTINUOUS
  5
31C
 10
345.899865
 20
304.638374
 30
0.0
 11
342.900034
 21
307.638204
 31
0.0
  0
LINE
  8
LC-002-005-----0
  6
CONTINUOUS
  5
31D
 10
345.899865
 20
301.809947
 30
0.0
 11
342.900034
 21
304.809777
 31
0.0
  0
LINE
  8
LC-002-005-----0
  6
CONTINUOUS
  5
31E
 10
345.899865
 20
298.98152
 30
0.0
 11
342.900034
 21
301.98135
 31
0.0
  0
LINE
  8
LC-002-005-----0
  6
CONTINUOUS
  5
31F
 10
345.899865
 20
296.153093
 30
0.0
 11
342.900034
 21
299.152923
 31
0.0
  0
LINE
  8
LC-002-005-----0
  6
CONTINUOUS
  5
320
 10
345.899865
 20
293.324666
 30
0.0
 11
342.900034
 21
296.324496
 31
0.0
  0
LINE
  8
LC-002-005-----0
  6
CONTINUOUS
  5
321
 10
345.899865
 20
290.496239
 30
0.0
 11
342.900034
 21
293.496069
 31
0.0
  0
LINE
  8
LC-002-005-----0
  6
CONTINUOUS
  5
322
 10
345.899865
 20
287.667811
 30
0.0
 11
342.900034
 21
290.667642
 31
0.0
  0
LINE
  8
LC-002-005-----0
  6
CONTINUOUS
  5
323
 10
345.899865
 20
284.839384
 30
0.0
 11
342.900034
 21
287.839214
 31
0.0
  0
LINE
  8
LC-002-005-----0
  6
CONTINUOUS
  5
324
 10
345.899865
 20
282.010957
 30
0.0
 11
342.900034
 21
285.010787
 31
0.0
  0
LINE
  8
LC-002-005-----0
  6
CONTINUOUS
  5
325
 10
345.899865
 20
279.18253
 30
0.0
 11
342.900034
 21
282.18236
 31
0.0
  0
LINE
  8
LC-002-005-----0
  6
CONTINUOUS
  5
326
 10
345.899865
 20
276.354103
 30
0.0
 11
342.900034
 21
279.353933
 31
0.0
  0
LINE
  8
LC-002-005-----0
  6
CONTINUOUS
  5
327
 10
345.899865
 20
273.525676
 30
0.0
 11
342.900034
 21
276.525506
 31
0.0
  0
LINE
  8
LC-002-005-----0
  6
CONTINUOUS
  5
328
 10
345.899865
 20
270.697249
 30
0.0
 11
342.900034
 21
273.697079
 31
0.0
  0
LINE
  8
LC-002-005-----0
  6
CONTINUOUS
  5
329
 10
345.899865
 20
267.868822
 30
0.0
 11
342.900034
 21
270.868652
 31
0.0
  0
LINE
  8
LC-002-005-----0
  6
CONTINUOUS
  5
32A
 10
345.899865
 20
265.040394
 30
0.0
 11
342.900034
 21
268.040225
 31
0.0
  0
LINE
  8
LC-002-005-----0
  6
CONTINUOUS
  5
32B
 10
345.899865
 20
262.211967
 30
0.0
 11
342.900034
 21
265.211797
 31
0.0
  0
LINE
  8
LC-002-005-----0
  6
CONTINUOUS
  5
32C
 10
345.899865
 20
259.38354
 30
0.0
 11
342.900034
 21
262.38337
 31
0.0
  0
LINE
  8
LC-002-005-----0
  6
CONTINUOUS
  5
32D
 10
345.899865
 20
256.555113
 30
0.0
 11
342.900034
 21
259.554943
 31
0.0
  0
LINE
  8
LC-002-005-----0
  6
CONTINUOUS
  5
32E
 10
345.899865
 20
253.726686
 30
0.0
 11
342.900034
 21
256.726516
 31
0.0
  0
LINE
  8
LC-002-005-----0
  6
CONTINUOUS
  5
32F
 10
345.899865
 20
250.898259
 30
0.0
 11
342.900034
 21
253.898089
 31
0.0
  0
LINE
  8
LC-002-005-----0
  6
CONTINUOUS
  5
330
 10
345.899865
 20
248.069832
 30
0.0
 11
342.900034
 21
251.069662
 31
0.0
  0
LINE
  8
LC-002-005-----0
  6
CONTINUOUS
  5
331
 10
345.899865
 20
245.241405
 30
0.0
 11
342.900034
 21
248.241235
 31
0.0
  0
LINE
  8
LC-002-005-----0
  6
CONTINUOUS
  5
332
 10
345.899865
 20
242.412977
 30
0.0
 11
342.900034
 21
245.412808
 31
0.0
  0
LINE
  8
LC-002-005-----0
  6
CONTINUOUS
  5
333
 10
345.899865
 20
239.58455
 30
0.0
 11
342.900034
 21
242.58438
 31
0.0
  0
LINE
  8
LC-002-005-----0
  6
CONTINUOUS
  5
334
 10
345.899865
 20
236.756123
 30
0.0
 11
342.900034
 21
239.755953
 31
0.0
  0
LINE
  8
LC-002-005-----0
  6
CONTINUOUS
  5
335
 10
345.899865
 20
233.927696
 30
0.0
 11
342.900034
 21
236.927526
 31
0.0
  0
LINE
  8
LC-002-005-----0
  6
CONTINUOUS
  5
336
 10
345.899865
 20
231.099269
 30
0.0
 11
342.900034
 21
234.099099
 31
0.0
  0
LINE
  8
LC-002-005-----0
  6
CONTINUOUS
  5
337
 10
345.899865
 20
228.270842
 30
0.0
 11
342.900034
 21
231.270672
 31
0.0
  0
LINE
  8
LC-002-005-----0
  6
CONTINUOUS
  5
338
 10
345.899865
 20
225.442415
 30
0.0
 11
342.900034
 21
228.442245
 31
0.0
  0
LINE
  8
LC-002-005-----0
  6
CONTINUOUS
  5
339
 10
345.899865
 20
222.613988
 30
0.0
 11
342.900034
 21
225.613818
 31
0.0
  0
LINE
  8
LC-002-005-----0
  6
CONTINUOUS
  5
33A
 10
345.899865
 20
219.78556
 30
0.0
 11
342.900034
 21
222.785391
 31
0.0
  0
LINE
  8
LC-002-005-----0
  6
CONTINUOUS
  5
33B
 10
345.899865
 20
216.957133
 30
0.0
 11
342.900034
 21
219.956963
 31
0.0
  0
LINE
  8
LC-002-005-----0
  6
CONTINUOUS
  5
33C
 10
345.899865
 20
214.128706
 30
0.0
 11
342.900034
 21
217.128536
 31
0.0
  0
LINE
  8
LC-002-005-----0
  6
CONTINUOUS
  5
33D
 10
345.899865
 20
211.300279
 30
0.0
 11
342.900034
 21
214.300109
 31
0.0
  0
LINE
  8
LC-002-005-----0
  6
CONTINUOUS
  5
33E
 10
345.899865
 20
208.471852
 30
0.0
 11
342.900034
 21
211.471682
 31
0.0
  0
LINE
  8
LC-002-005-----0
  6
CONTINUOUS
  5
33F
 10
345.899865
 20
205.643425
 30
0.0
 11
342.900034
 21
208.643255
 31
0.0
  0
LINE
  8
LC-002-005-----0
  6
CONTINUOUS
  5
340
 10
345.899865
 20
202.814998
 30
0.0
 11
342.900034
 21
205.814828
 31
0.0
  0
LINE
  8
LC-002-005-----0
  6
CONTINUOUS
  5
341
 10
345.899865
 20
199.986571
 30
0.0
 11
342.900034
 21
202.986401
 31
0.0
  0
LINE
  8
LC-002-005-----0
  6
CONTINUOUS
  5
342
 10
345.899865
 20
197.158143
 30
0.0
 11
342.900034
 21
200.157974
 31
0.0
  0
LINE
  8
LC-002-005-----0
  6
CONTINUOUS
  5
343
 10
345.899865
 20
194.329716
 30
0.0
 11
342.900034
 21
197.329546
 31
0.0
  0
LINE
  8
LC-002-005-----0
  6
CONTINUOUS
  5
344
 10
345.899865
 20
191.501289
 30
0.0
 11
342.900034
 21
194.501119
 31
0.0
  0
LINE
  8
LC-002-005-----0
  6
CONTINUOUS
  5
345
 10
345.326355
 20
189.246372
 30
0.0
 11
342.900034
 21
191.672692
 31
0.0
  0
LINE
  8
LC-002-005-----0
  6
CONTINUOUS
  5
346
 10
344.728638
 20
187.015662
 30
0.0
 11
342.900034
 21
188.844265
 31
0.0
  0
ENDBLK
  8
0
  5
347
  0
BLOCK
  8
0
  5
349
  2
BLK126
 70
    64
 10
0.0
 20
0.0
 30
0.0
  3
BLK126
  0
ENDBLK
  8
0
  5
34A
  0
BLOCK
  8
0
  5
34C
  2
BLK127
 70
    64
 10
0.0
 20
0.0
 30
0.0
  3
BLK127
  0
ENDBLK
  8
0
  5
34D
  0
BLOCK
  8
0
  5
34F
  2
BLK128
 70
    64
 10
0.0
 20
0.0
 30
0.0
  3
BLK128
  0
ENDBLK
  8
0
  5
350
  0
BLOCK
  8
0
  5
352
  2
BLK129
 70
    64
 10
0.0
 20
0.0
 30
0.0
  3
BLK129
  0
ENDBLK
  8
0
  5
353
  0
BLOCK
  8
0
  5
355
  2
BLK130
 70
    64
 10
0.0
 20
0.0
 30
0.0
  3
BLK130
  0
ENDBLK
  8
0
  5
356
  0
BLOCK
  8
0
  5
358
  2
BLK131
 70
    64
 10
0.0
 20
0.0
 30
0.0
  3
BLK131
  0
ENDBLK
  8
0
  5
359
  0
BLOCK
  8
0
  5
35B
  2
BLK132
 70
    64
 10
0.0
 20
0.0
 30
0.0
  3
BLK132
  0
ENDBLK
  8
0
  5
35C
  0
BLOCK
  8
0
  5
35E
  2
BLK133
 70
    64
 10
0.0
 20
0.0
 30
0.0
  3
BLK133
  0
ENDBLK
  8
0
  5
35F
  0
BLOCK
  8
0
  5
361
  2
BLK134
 70
    64
 10
0.0
 20
0.0
 30
0.0
  3
BLK134
  0
ENDBLK
  8
0
  5
362
  0
BLOCK
  8
0
  5
364
  2
BLK135
 70
    64
 10
0.0
 20
0.0
 30
0.0
  3
BLK135
  0
ENDBLK
  8
0
  5
365
  0
BLOCK
  8
0
  5
367
  2
BLK136
 70
    64
 10
0.0
 20
0.0
 30
0.0
  3
BLK136
  0
ENDBLK
  8
0
  5
368
  0
BLOCK
  8
0
  5
36A
  2
BLK137
 70
    64
 10
0.0
 20
0.0
 30
0.0
  3
BLK137
  0
ENDBLK
  8
0
  5
36B
  0
BLOCK
  8
0
  5
36D
  2
BLK138
 70
    64
 10
0.0
 20
0.0
 30
0.0
  3
BLK138
  0
ENDBLK
  8
0
  5
36E
  0
BLOCK
  8
0
  5
370
  2
BLK139
 70
    64
 10
0.0
 20
0.0
 30
0.0
  3
BLK139
  0
ENDBLK
  8
0
  5
371
  0
BLOCK
  8
0
  5
373
  2
BLK140
 70
    64
 10
0.0
 20
0.0
 30
0.0
  3
BLK140
  0
ENDBLK
  8
0
  5
374
  0
BLOCK
  8
0
  5
376
  2
BLK141
 70
    64
 10
0.0
 20
0.0
 30
0.0
  3
BLK141
  0
ENDBLK
  8
0
  5
377
  0
BLOCK
  8
0
  5
379
  2
BLK142
 70
    64
 10
0.0
 20
0.0
 30
0.0
  3
BLK142
  0
ENDBLK
  8
0
  5
37A
  0
BLOCK
  8
0
  5
37C
  2
BLK143
 70
    64
 10
0.0
 20
0.0
 30
0.0
  3
BLK143
  0
ENDBLK
  8
0
  5
37D
  0
BLOCK
  8
0
  5
37F
  2
*X159
 70
    65
 10
203.846816
 20
186.38788
 30
0.0
  3
*X159
  0
LINE
  8
LC-002-005-----0
  6
CONTINUOUS
  5
380
 10
271.240694
 20
186.38788
 30
0.0
 11
273.346777
 21
188.493963
 31
0.0
  0
LINE
  8
LC-002-005-----0
  6
CONTINUOUS
  5
381
 10
265.58384
 20
186.38788
 30
0.0
 11
273.346777
 21
194.150817
 31
0.0
  0
LINE
  8
LC-002-005-----0
  6
CONTINUOUS
  5
382
 10
259.926986
 20
186.38788
 30
0.0
 11
273.346777
 21
199.807671
 31
0.0
  0
LINE
  8
LC-002-005-----0
  6
CONTINUOUS
  5
383
 10
254.270131
 20
186.38788
 30
0.0
 11
273.346777
 21
205.464526
 31
0.0
  0
LINE
  8
LC-002-005-----0
  6
CONTINUOUS
  5
384
 10
248.613277
 20
186.38788
 30
0.0
 11
271.613277
 21
209.38788
 31
0.0
  0
LINE
  8
LC-002-005-----0
  6
CONTINUOUS
  5
385
 10
242.956423
 20
186.38788
 30
0.0
 11
265.956423
 21
209.38788
 31
0.0
  0
LINE
  8
LC-002-005-----0
  6
CONTINUOUS
  5
386
 10
237.299569
 20
186.38788
 30
0.0
 11
260.299569
 21
209.38788
 31
0.0
  0
LINE
  8
LC-002-005-----0
  6
CONTINUOUS
  5
387
 10
231.642714
 20
186.38788
 30
0.0
 11
254.642714
 21
209.38788
 31
0.0
  0
LINE
  8
LC-002-005-----0
  6
CONTINUOUS
  5
388
 10
225.98586
 20
186.38788
 30
0.0
 11
248.98586
 21
209.38788
 31
0.0
  0
LINE
  8
LC-002-005-----0
  6
CONTINUOUS
  5
389
 10
220.329006
 20
186.38788
 30
0.0
 11
243.329006
 21
209.38788
 31
0.0
  0
LINE
  8
LC-002-005-----0
  6
CONTINUOUS
  5
38A
 10
214.672152
 20
186.38788
 30
0.0
 11
237.672152
 21
209.38788
 31
0.0
  0
LINE
  8
LC-002-005-----0
  6
CONTINUOUS
  5
38B
 10
209.015297
 20
186.38788
 30
0.0
 11
232.015297
 21
209.38788
 31
0.0
  0
LINE
  8
LC-002-005-----0
  6
CONTINUOUS
  5
38C
 10
203.846819
 20
186.876257
 30
0.0
 11
226.358443
 21
209.38788
 31
0.0
  0
LINE
  8
LC-002-005-----0
  6
CONTINUOUS
  5
38D
 10
203.846819
 20
192.53311
 30
0.0
 11
220.701589
 21
209.38788
 31
0.0
  0
LINE
  8
LC-002-005-----0
  6
CONTINUOUS
  5
38E
 10
203.846818
 20
198.189964
 30
0.0
 11
215.044735
 21
209.38788
 31
0.0
  0
LINE
  8
LC-002-005-----0
  6
CONTINUOUS
  5
38F
 10
203.846817
 20
203.846817
 30
0.0
 11
209.38788
 21
209.38788
 31
0.0
  0
LINE
  8
LC-002-005-----0
  6
CONTINUOUS
  5
390
 10
273.346777
 20
207.485835
 30
0.0
 11
271.444731
 21
209.38788
 31
0.0
  0
LINE
  8
LC-002-005-----0
  6
CONTINUOUS
  5
391
 10
273.346777
 20
201.82898
 30
0.0
 11
265.787877
 21
209.38788
 31
0.0
  0
LINE
  8
LC-002-005-----0
  6
CONTINUOUS
  5
392
 10
273.346777
 20
196.172126
 30
0.0
 11
260.131022
 21
209.38788
 31
0.0
  0
LINE
  8
LC-002-005-----0
  6
CONTINUOUS
  5
393
 10
273.346777
 20
190.515272
 30
0.0
 11
254.474168
 21
209.38788
 31
0.0
  0
LINE
  8
LC-002-005-----0
  6
CONTINUOUS
  5
394
 10
271.817314
 20
186.38788
 30
0.0
 11
248.817314
 21
209.38788
 31
0.0
  0
LINE
  8
LC-002-005-----0
  6
CONTINUOUS
  5
395
 10
266.16046
 20
186.38788
 30
0.0
 11
243.16046
 21
209.38788
 31
0.0
  0
LINE
  8
LC-002-005-----0
  6
CONTINUOUS
  5
396
 10
260.503605
 20
186.38788
 30
0.0
 11
237.503605
 21
209.38788
 31
0.0
  0
LINE
  8
LC-002-005-----0
  6
CONTINUOUS
  5
397
 10
254.846751
 20
186.38788
 30
0.0
 11
231.846751
 21
209.38788
 31
0.0
  0
LINE
  8
LC-002-005-----0
  6
CONTINUOUS
  5
398
 10
249.189897
 20
186.38788
 30
0.0
 11
226.189897
 21
209.38788
 31
0.0
  0
LINE
  8
LC-002-005-----0
  6
CONTINUOUS
  5
399
 10
243.533043
 20
186.38788
 30
0.0
 11
220.533043
 21
209.38788
 31
0.0
  0
LINE
  8
LC-002-005-----0
  6
CONTINUOUS
  5
39A
 10
237.876188
 20
186.38788
 30
0.0
 11
214.876188
 21
209.38788
 31
0.0
  0
LINE
  8
LC-002-005-----0
  6
CONTINUOUS
  5
39B
 10
232.219334
 20
186.38788
 30
0.0
 11
209.219334
 21
209.38788
 31
0.0
  0
LINE
  8
LC-002-005-----0
  6
CONTINUOUS
  5
39C
 10
226.56248
 20
186.38788
 30
0.0
 11
203.846816
 21
209.103544
 31
0.0
  0
LINE
  8
LC-002-005-----0
  6
CONTINUOUS
  5
39D
 10
220.905626
 20
186.38788
 30
0.0
 11
203.846817
 21
203.446689
 31
0.0
  0
LINE
  8
LC-002-005-----0
  6
CONTINUOUS
  5
39E
 10
215.248771
 20
186.38788
 30
0.0
 11
203.846818
 21
197.789834
 31
0.0
  0
LINE
  8
LC-002-005-----0
  6
CONTINUOUS
  5
39F
 10
209.591917
 20
186.38788
 30
0.0
 11
203.846819
 21
192.132979
 31
0.0
  0
LINE
  8
LC-002-005-----0
  6
CONTINUOUS
  5
3A0
 10
203.935063
 20
186.38788
 30
0.0
 11
203.846819
 21
186.476124
 31
0.0
  0
ENDBLK
  8
0
  5
3A1
  0
BLOCK
  8
0
  5
3A3
  2
*X160
 70
    65
 10
273.346777
 20
186.38788
 30
0.0
  3
*X160
  0
LINE
  8
LC-002-005-----0
  6
CONTINUOUS
  5
3A4
 10
339.122945
 20
186.38788
 30
0.0
 11
342.846734
 21
190.111669
 31
0.0
  0
LINE
  8
LC-002-005-----0
  6
CONTINUOUS
  5
3A5
 10
333.466091
 20
186.38788
 30
0.0
 11
342.846735
 21
195.768524
 31
0.0
  0
LINE
  8
LC-002-005-----0
  6
CONTINUOUS
  5
3A6
 10
327.809237
 20
186.38788
 30
0.0
 11
342.846736
 21
201.42538
 31
0.0
  0
LINE
  8
LC-002-005-----0
  6
CONTINUOUS
  5
3A7
 10
322.152382
 20
186.38788
 30
0.0
 11
342.846737
 21
207.082235
 31
0.0
  0
LINE
  8
LC-002-005-----0
  6
CONTINUOUS
  5
3A8
 10
316.495528
 20
186.38788
 30
0.0
 11
339.495528
 21
209.38788
 31
0.0
  0
LINE
  8
LC-002-005-----0
  6
CONTINUOUS
  5
3A9
 10
310.838674
 20
186.38788
 30
0.0
 11
333.838674
 21
209.38788
 31
0.0
  0
LINE
  8
LC-002-005-----0
  6
CONTINUOUS
  5
3AA
 10
305.18182
 20
186.38788
 30
0.0
 11
328.18182
 21
209.38788
 31
0.0
  0
LINE
  8
LC-002-005-----0
  6
CONTINUOUS
  5
3AB
 10
299.524965
 20
186.38788
 30
0.0
 11
322.524965
 21
209.38788
 31
0.0
  0
LINE
  8
LC-002-005-----0
  6
CONTINUOUS
  5
3AC
 10
293.868111
 20
186.38788
 30
0.0
 11
316.868111
 21
209.38788
 31
0.0
  0
LINE
  8
LC-002-005-----0
  6
CONTINUOUS
  5
3AD
 10
288.211257
 20
186.38788
 30
0.0
 11
311.211257
 21
209.38788
 31
0.0
  0
LINE
  8
LC-002-005-----0
  6
CONTINUOUS
  5
3AE
 10
282.554403
 20
186.38788
 30
0.0
 11
305.554403
 21
209.38788
 31
0.0
  0
LINE
  8
LC-002-005-----0
  6
CONTINUOUS
  5
3AF
 10
276.897548
 20
186.38788
 30
0.0
 11
299.897548
 21
209.38788
 31
0.0
  0
LINE
  8
LC-002-005-----0
  6
CONTINUOUS
  5
3B0
 10
273.346777
 20
188.493963
 30
0.0
 11
294.240694
 21
209.38788
 31
0.0
  0
LINE
  8
LC-002-005-----0
  6
CONTINUOUS
  5
3B1
 10
273.346777
 20
194.150817
 30
0.0
 11
288.58384
 21
209.38788
 31
0.0
  0
LINE
  8
LC-002-005-----0
  6
CONTINUOUS
  5
3B2
 10
273.346777
 20
199.807671
 30
0.0
 11
282.926986
 21
209.38788
 31
0.0
  0
LINE
  8
LC-002-005-----0
  6
CONTINUOUS
  5
3B3
 10
273.346777
 20
205.464526
 30
0.0
 11
277.270131
 21
209.38788
 31
0.0
  0
LINE
  8
LC-002-005-----0
  6
CONTINUOUS
  5
3B4
 10
342.846736
 20
205.868126
 30
0.0
 11
339.326982
 21
209.38788
 31
0.0
  0
LINE
  8
LC-002-005-----0
  6
CONTINUOUS
  5
3B5
 10
342.846736
 20
200.211272
 30
0.0
 11
333.670128
 21
209.38788
 31
0.0
  0
LINE
  8
LC-002-005-----0
  6
CONTINUOUS
  5
3B6
 10
342.846735
 20
194.554419
 30
0.0
 11
328.013273
 21
209.38788
 31
0.0
  0
LINE
  8
LC-002-005-----0
  6
CONTINUOUS
  5
3B7
 10
342.846734
 20
188.897565
 30
0.0
 11
322.356419
 21
209.38788
 31
0.0
  0
LINE
  8
LC-002-005-----0
  6
CONTINUOUS
  5
3B8
 10
339.699565
 20
186.38788
 30
0.0
 11
316.699565
 21
209.38788
 31
0.0
  0
LINE
  8
LC-002-005-----0
  6
CONTINUOUS
  5
3B9
 10
334.042711
 20
186.38788
 30
0.0
 11
311.042711
 21
209.38788
 31
0.0
  0
LINE
  8
LC-002-005-----0
  6
CONTINUOUS
  5
3BA
 10
328.385856
 20
186.38788
 30
0.0
 11
305.385856
 21
209.38788
 31
0.0
  0
LINE
  8
LC-002-005-----0
  6
CONTINUOUS
  5
3BB
 10
322.729002
 20
186.38788
 30
0.0
 11
299.729002
 21
209.38788
 31
0.0
  0
LINE
  8
LC-002-005-----0
  6
CONTINUOUS
  5
3BC
 10
317.072148
 20
186.38788
 30
0.0
 11
294.072148
 21
209.38788
 31
0.0
  0
LINE
  8
LC-002-005-----0
  6
CONTINUOUS
  5
3BD
 10
311.415294
 20
186.38788
 30
0.0
 11
288.415294
 21
209.38788
 31
0.0
  0
LINE
  8
LC-002-005-----0
  6
CONTINUOUS
  5
3BE
 10
305.758439
 20
186.38788
 30
0.0
 11
282.758439
 21
209.38788
 31
0.0
  0
LINE
  8
LC-002-005-----0
  6
CONTINUOUS
  5
3BF
 10
300.101585
 20
186.38788
 30
0.0
 11
277.101585
 21
209.38788
 31
0.0
  0
LINE
  8
LC-002-005-----0
  6
CONTINUOUS
  5
3C0
 10
294.444731
 20
186.38788
 30
0.0
 11
273.346777
 21
207.485835
 31
0.0
  0
LINE
  8
LC-002-005-----0
  6
CONTINUOUS
  5
3C1
 10
288.787877
 20
186.38788
 30
0.0
 11
273.346777
 21
201.82898
 31
0.0
  0
LINE
  8
LC-002-005-----0
  6
CONTINUOUS
  5
3C2
 10
283.131022
 20
186.38788
 30
0.0
 11
273.346777
 21
196.172126
 31
0.0
  0
LINE
  8
LC-002-005-----0
  6
CONTINUOUS
  5
3C3
 10
277.474168
 20
186.38788
 30
0.0
 11
273.346777
 21
190.515272
 31
0.0
  0
ENDBLK
  8
0
  5
3C4
  0
BLOCK
  8
0
  5
3C6
  2
*D161
 70
    65
 10
0.0
 20
0.0
 30
0.0
  3
*D161
  0
LINE
  8
LC-005-003-MTH-0
  6
CONTINUOUS
  5
3C7
 10
342.846734
 20
186.38788
 30
0.0
 11
408.8
 21
186.38788
 31
0.0
  0
LINE
  8
LC-005-003-MTH-0
  6
CONTINUOUS
  5
3C8
 10
342.846737
 20
209.38788
 30
0.0
 11
408.8
 21
209.38788
 31
0.0
  0
LINE
  8
LC-004-003-----0
  6
CONTINUOUS
  5
3C9
 10
395.654733
 20
158.627424
 30
0.0
 11
392.0
 21
186.38788
 31
0.0
  0
LINE
  8
LC-004-003-----0
  6
CONTINUOUS
  5
3CA
 10
392.0
 20
186.38788
 30
0.0
 11
388.345267
 21
158.627424
 31
0.0
  0
LINE
  8
LC-004-003-----0
  6
CONTINUOUS
  5
3CB
 10
388.345267
 20
158.627424
 30
0.0
 11
395.654733
 21
158.627424
 31
0.0
  0
LINE
  8
LC-004-003-----0
  6
CONTINUOUS
  5
3CC
 10
394.704503
 20
158.565143
 30
0.0
 11
392.0
 21
179.10788
 31
0.0
  0
LINE
  8
LC-004-003-----0
  6
CONTINUOUS
  5
3CD
 10
392.0
 20
179.10788
 30
0.0
 11
389.295497
 21
158.565143
 31
0.0
  0
LINE
  8
LC-004-003-----0
  6
CONTINUOUS
  5
3CE
 10
393.754272
 20
158.502861
 30
0.0
 11
392.0
 21
171.82788
 31
0.0
  0
LINE
  8
LC-004-003-----0
  6
CONTINUOUS
  5
3CF
 10
392.0
 20
171.82788
 30
0.0
 11
390.245728
 21
158.502861
 31
0.0
  0
LINE
  8
LC-004-003-----0
  6
CONTINUOUS
  5
3D0
 10
392.804041
 20
158.44058
 30
0.0
 11
392.0
 21
164.54788
 31
0.0
  0
LINE
  8
LC-004-003-----0
  6
CONTINUOUS
  5
3D1
 10
392.0
 20
164.54788
 30
0.0
 11
391.195959
 21
158.44058
 31
0.0
  0
LINE
  8
LC-004-003-----0
  6
CONTINUOUS
  5
3D2
 10
388.345267
 20
237.148337
 30
0.0
 11
392.0
 21
209.38788
 31
0.0
  0
LINE
  8
LC-004-003-----0
  6
CONTINUOUS
  5
3D3
 10
392.0
 20
209.38788
 30
0.0
 11
395.654733
 21
237.148337
 31
0.0
  0
LINE
  8
LC-004-003-----0
  6
CONTINUOUS
  5
3D4
 10
395.654733
 20
237.148337
 30
0.0
 11
388.345267
 21
237.148337
 31
0.0
  0
LINE
  8
LC-004-003-----0
  6
CONTINUOUS
  5
3D5
 10
389.295497
 20
237.210618
 30
0.0
 11
392.0
 21
216.66788
 31
0.0
  0
LINE
  8
LC-004-003-----0
  6
CONTINUOUS
  5
3D6
 10
392.0
 20
216.66788
 30
0.0
 11
394.704503
 21
237.210618
 31
0.0
  0
LINE
  8
LC-004-003-----0
  6
CONTINUOUS
  5
3D7
 10
390.245728
 20
237.272899
 30
0.0
 11
392.0
 21
223.94788
 31
0.0
  0
LINE
  8
LC-004-003-----0
  6
CONTINUOUS
  5
3D8
 10
392.0
 20
223.94788
 30
0.0
 11
393.754272
 21
237.272899
 31
0.0
  0
LINE
  8
LC-004-003-----0
  6
CONTINUOUS
  5
3D9
 10
391.195959
 20
237.335181
 30
0.0
 11
392.0
 21
231.22788
 31
0.0
  0
LINE
  8
LC-004-003-----0
  6
CONTINUOUS
  5
3DA
 10
392.0
 20
231.22788
 30
0.0
 11
392.804041
 21
237.335181
 31
0.0
  0
LINE
  8
LC-006-003-MTG-0
  6
CONTINUOUS
  5
3DB
 10
392.0
 20
147.18788
 30
0.0
 11
392.0
 21
292.75228
 31
0.0
  0
TEXT
  8
LC-004-003-----0
  6
CONTINUOUS
 62
     8
  5
3DC
 10
384.172446
 20
251.81604
 30
0.0
 40
28.0
  1
23
 50
90.0
 51
15.0
  7
LC-TXTSTYLE-150-400-0-0-D0
  0
ENDBLK
  8
0
  5
3DD
  0
BLOCK
  8
0
  5
3DF
  2
*D162
 70
    65
 10
0.0
 20
0.0
 30
0.0
  3
*D162
  0
LINE
  8
LC-005-003-MTH-0
  6
CONTINUOUS
  5
3E0
 10
342.846737
 20
209.38788
 30
0.0
 11
448.0
 21
209.38788
 31
0.0
  0
LINE
  8
LC-005-003-MTH-0
  6
CONTINUOUS
  5
3E1
 10
346.399863
 20
391.587438
 30
0.0
 11
448.0
 21
391.587438
 31
0.0
  0
LINE
  8
LC-006-003-MTG-0
  6
CONTINUOUS
  5
3E2
 10
431.2
 20
209.38788
 30
0.0
 11
431.2
 21
391.587438
 31
0.0
  0
LINE
  8
LC-004-003-----0
  6
CONTINUOUS
  5
3E3
 10
427.545267
 20
237.148337
 30
0.0
 11
431.2
 21
209.38788
 31
0.0
  0
LINE
  8
LC-004-003-----0
  6
CONTINUOUS
  5
3E4
 10
431.2
 20
209.38788
 30
0.0
 11
434.854733
 21
237.148337
 31
0.0
  0
LINE
  8
LC-004-003-----0
  6
CONTINUOUS
  5
3E5
 10
434.854733
 20
237.148337
 30
0.0
 11
427.545267
 21
237.148337
 31
0.0
  0
LINE
  8
LC-004-003-----0
  6
CONTINUOUS
  5
3E6
 10
428.495497
 20
237.210618
 30
0.0
 11
431.2
 21
216.66788
 31
0.0
  0
LINE
  8
LC-004-003-----0
  6
CONTINUOUS
  5
3E7
 10
431.2
 20
216.66788
 30
0.0
 11
433.904503
 21
237.210618
 31
0.0
  0
LINE
  8
LC-004-003-----0
  6
CONTINUOUS
  5
3E8
 10
429.445728
 20
237.272899
 30
0.0
 11
431.2
 21
223.94788
 31
0.0
  0
LINE
  8
LC-004-003-----0
  6
CONTINUOUS
  5
3E9
 10
431.2
 20
223.94788
 30
0.0
 11
432.954272
 21
237.272899
 31
0.0
  0
LINE
  8
LC-004-003-----0
  6
CONTINUOUS
  5
3EA
 10
430.395959
 20
237.335181
 30
0.0
 11
431.2
 21
231.22788
 31
0.0
  0
LINE
  8
LC-004-003-----0
  6
CONTINUOUS
  5
3EB
 10
431.2
 20
231.22788
 30
0.0
 11
432.004041
 21
237.335181
 31
0.0
  0
LINE
  8
LC-004-003-----0
  6
CONTINUOUS
  5
3EC
 10
434.854733
 20
363.826982
 30
0.0
 11
431.2
 21
391.587438
 31
0.0
  0
LINE
  8
LC-004-003-----0
  6
CONTINUOUS
  5
3ED
 10
431.2
 20
391.587438
 30
0.0
 11
427.545267
 21
363.826982
 31
0.0
  0
LINE
  8
LC-004-003-----0
  6
CONTINUOUS
  5
3EE
 10
427.545267
 20
363.826982
 30
0.0
 11
434.854733
 21
363.826982
 31
0.0
  0
LINE
  8
LC-004-003-----0
  6
CONTINUOUS
  5
3EF
 10
433.904503
 20
363.7647
 30
0.0
 11
431.2
 21
384.307438
 31
0.0
  0
LINE
  8
LC-004-003-----0
  6
CONTINUOUS
  5
3F0
 10
431.2
 20
384.307438
 30
0.0
 11
428.495497
 21
363.7647
 31
0.0
  0
LINE
  8
LC-004-003-----0
  6
CONTINUOUS
  5
3F1
 10
432.954272
 20
363.702419
 30
0.0
 11
431.2
 21
377.027438
 31
0.0
  0
LINE
  8
LC-004-003-----0
  6
CONTINUOUS
  5
3F2
 10
431.2
 20
377.027438
 30
0.0
 11
429.445728
 21
363.702419
 31
0.0
  0
LINE
  8
LC-004-003-----0
  6
CONTINUOUS
  5
3F3
 10
432.004041
 20
363.640137
 30
0.0
 11
431.2
 21
369.747438
 31
0.0
  0
LINE
  8
LC-004-003-----0
  6
CONTINUOUS
  5
3F4
 10
431.2
 20
369.747438
 30
0.0
 11
430.395959
 21
363.640137
 31
0.0
  0
TEXT
  8
LC-004-003-----0
  6
CONTINUOUS
 62
     8
  5
3F5
 10
423.372446
 20
239.851567
 30
0.0
 40
28.0
  1
10-180
 50
90.0
 51
15.0
  7
LC-TXTSTYLE-150-400-0-0-D0
 72
     1
 11
423.372446
 21
304.835819
 31
0.0
  0
ENDBLK
  8
0
  5
3F6
  0
ENDSEC
  0
SECTION
  2
ENTITIES
  0
VIEWPORT
  8
LC-000
  5
5B3
 67
     1
 68
     1
 10
420.0
 20
297.0
 30
0.0
 40
840.0
 41
594.0
 69
     1
1001
ACAD
1000
MVIEW
1002
{
1070
    16
1010
0.0
1020
0.0
1030
0.0
1010
0.0
1020
0.0
1030
1.0
1040
0.0
1040
594.0
1040
420.0
1040
297.0
1040
50.0
1040
0.0
1040
0.0
1070
     0
1070
   100
1070
     1
1070
     1
1070
     0
1070
     0
1070
     0
1070
     0
1040
0.0
1040
0.0
1040
0.0
1040
1.0
1040
1.0
1040
0.0
1040
0.0
1070
     0
1002
{
1002
}
1002
}
  0
VIEWPORT
  8
0
  5
5B4
 67
     1
 68
     1
 10
0.0
 20
0.0
 30
0.0
 40
0.0
 41
0.0
 69
     1
1001
ACAD
1000
MVIEW
1002
{
1070
    16
1010
0.0
1020
0.0
1030
0.0
1010
0.0
1020
0.0
1030
1.0
1040
0.0
1040
594.0
1040
0.0
1040
0.0
1040
50.0
1040
0.0
1040
0.0
1070
     0
1070
   100
1070
     0
1070
     1
1070
     0
1070
     0
1070
     0
1070
     0
1040
0.0
1040
0.0
1040
0.0
1040
0.5
1040
0.5
1040
0.5
1040
0.5
1070
     0
1002
{
1002
}
1002
}
  0
INSERT
  8
0
  5
3F7
  2
*X0
 10
198.346777
 20
365.087439
 30
0.0
  0
INSERT
  8
0
  5
3F8
  2
*X1
 10
314.348348
 20
365.087439
 30
0.0
  0
INSERT
  8
0
  5
3F9
  2
*X2
 10
196.793519
 20
186.38674
 30
0.0
  0
INSERT
  8
0
  5
3FB
  2
BLK1
 10
0.0
 20
0.0
 30
0.0
  0
INSERT
  8
0
  5
3FC
  2
BLK2
 10
0.0
 20
0.0
 30
0.0
  0
INSERT
  8
0
  5
3FD
  2
BLK3
 10
0.0
 20
0.0
 30
0.0
  0
INSERT
  8
0
  5
3FE
  2
BLK4
 10
0.0
 20
0.0
 30
0.0
  0
INSERT
  8
0
  5
3FF
  2
BLK5
 10
0.0
 20
0.0
 30
0.0
  0
INSERT
  8
0
  5
400
  2
BLK6
 10
0.0
 20
0.0
 30
0.0
  0
INSERT
  8
0
  5
401
  2
BLK7
 10
0.0
 20
0.0
 30
0.0
  0
INSERT
  8
0
  5
402
  2
BLK8
 10
0.0
 20
0.0
 30
0.0
  0
INSERT
  8
0
  5
403
  2
BLK9
 10
0.0
 20
0.0
 30
0.0
  0
INSERT
  8
0
  5
404
  2
BLK10
 10
0.0
 20
0.0
 30
0.0
  0
INSERT
  8
0
  5
405
  2
BLK11
 10
0.0
 20
0.0
 30
0.0
  0
DIMENSION
  8
0
  5
406
  2
*D14
 10
273.346777
 20
476.0
 30
0.0
 11
273.346777
 21
476.0
 31
0.0
 13
198.346777
 23
389.587436
 33
0.0
 14
348.346777
 24
389.587436
 34
0.0
  3
LC-DIM-L-0140-02-02
  0
DIMENSION
  8
0
  5
407
  2
*D15
 10
273.346777
 20
140.0
 30
0.0
 11
273.346777
 21
140.0
 31
0.0
  1
%%c145
 13
200.793689
 23
191.38674
 33
0.0
 14
345.899865
 24
191.38674
 34
0.0
  3
LC-DIM-L-0140-02-02
  0
DIMENSION
  8
0
  5
408
  2
*D16
 10
180.0
 20
402.138
 30
0.0
 11
180.0
 21
402.138
 31
0.0
  1
15
 13
200.293691
 23
391.587438
 33
0.0
 14
196.846785
 24
376.587483
 34
0.0
 50
90.0
  3
LC-DIM-L-0140-02-02
  0
INSERT
  8
0
  5
409
  2
BLK12
 10
0.0
 20
0.0
 30
0.0
  0
INSERT
  8
0
  5
40A
  2
BLK13
 10
0.0
 20
0.0
 30
0.0
  0
INSERT
  8
0
  5
40B
  2
BLK14
 10
0.0
 20
0.0
 30
0.0
  0
INSERT
  8
0
  5
40C
  2
BLK15
 10
0.0
 20
0.0
 30
0.0
  0
INSERT
  8
0
  5
40D
  2
BLK16
 10
0.0
 20
0.0
 30
0.0
  0
INSERT
  8
0
  5
40E
  2
BLK17
 10
0.0
 20
0.0
 30
0.0
  0
INSERT
  8
0
  5
40F
  2
BLK18
 10
0.0
 20
0.0
 30
0.0
  0
INSERT
  8
0
  5
410
  2
BLK19
 10
0.0
 20
0.0
 30
0.0
  0
INSERT
  8
0
  5
411
  2
BLK20
 10
0.0
 20
0.0
 30
0.0
  0
INSERT
  8
0
  5
412
  2
BLK21
 10
0.0
 20
0.0
 30
0.0
  0
INSERT
  8
0
  5
413
  2
BLK22
 10
0.0
 20
0.0
 30
0.0
  0
INSERT
  8
0
  5
414
  2
BLK23
 10
0.0
 20
0.0
 30
0.0
  0
INSERT
  8
0
  5
415
  2
BLK24
 10
0.0
 20
0.0
 30
0.0
  0
INSERT
  8
0
  5
416
  2
BLK25
 10
0.0
 20
0.0
 30
0.0
  0
INSERT
  8
0
  5
417
  2
BLK26
 10
0.0
 20
0.0
 30
0.0
  0
INSERT
  8
0
  5
418
  2
BLK27
 10
0.0
 20
0.0
 30
0.0
  0
INSERT
  8
0
  5
419
  2
BLK28
 10
0.0
 20
0.0
 30
0.0
  0
INSERT
  8
0
  5
41A
  2
BLK29
 10
0.0
 20
0.0
 30
0.0
  0
INSERT
  8
0
  5
41B
  2
BLK30
 10
0.0
 20
0.0
 30
0.0
  0
INSERT
  8
0
  5
41C
  2
BLK31
 10
0.0
 20
0.0
 30
0.0
  0
INSERT
  8
0
  5
41D
  2
BLK32
 10
0.0
 20
0.0
 30
0.0
  0
INSERT
  8
0
  5
41E
  2
BLK33
 10
0.0
 20
0.0
 30
0.0
  0
INSERT
  8
0
  5
41F
  2
BLK34
 10
0.0
 20
0.0
 30
0.0
  0
INSERT
  8
0
  5
420
  2
BLK35
 10
0.0
 20
0.0
 30
0.0
  0
INSERT
  8
0
  5
421
  2
BLK36
 10
0.0
 20
0.0
 30
0.0
  0
INSERT
  8
0
  5
422
  2
BLK37
 10
0.0
 20
0.0
 30
0.0
  0
INSERT
  8
0
  5
423
  2
BLK38
 10
0.0
 20
0.0
 30
0.0
  0
INSERT
  8
0
  5
424
  2
BLK39
 10
0.0
 20
0.0
 30
0.0
  0
INSERT
  8
0
  5
425
  2
BLK40
 10
0.0
 20
0.0
 30
0.0
  0
INSERT
  8
0
  5
426
  2
BLK41
 10
0.0
 20
0.0
 30
0.0
  0
INSERT
  8
0
  5
427
  2
BLK42
 10
0.0
 20
0.0
 30
0.0
  0
INSERT
  8
0
  5
428
  2
BLK43
 10
0.0
 20
0.0
 30
0.0
  0
INSERT
  8
0
  5
429
  2
BLK44
 10
0.0
 20
0.0
 30
0.0
  0
INSERT
  8
0
  5
42A
  2
BLK45
 10
0.0
 20
0.0
 30
0.0
  0
INSERT
  8
0
  5
42B
  2
BLK46
 10
0.0
 20
0.0
 30
0.0
  0
INSERT
  8
0
  5
42C
  2
BLK47
 10
0.0
 20
0.0
 30
0.0
  0
INSERT
  8
0
  5
42D
  2
BLK48
 10
0.0
 20
0.0
 30
0.0
  0
INSERT
  8
0
  5
42E
  2
BLK49
 10
0.0
 20
0.0
 30
0.0
  0
INSERT
  8
0
  5
42F
  2
BLK50
 10
0.0
 20
0.0
 30
0.0
  0
INSERT
  8
0
  5
430
  2
BLK51
 10
0.0
 20
0.0
 30
0.0
  0
INSERT
  8
0
  5
431
  2
BLK52
 10
0.0
 20
0.0
 30
0.0
  0
INSERT
  8
0
  5
432
  2
BLK53
 10
0.0
 20
0.0
 30
0.0
  0
INSERT
  8
0
  5
433
  2
BLK54
 10
0.0
 20
0.0
 30
0.0
  0
INSERT
  8
0
  5
434
  2
BLK55
 10
0.0
 20
0.0
 30
0.0
  0
INSERT
  8
0
  5
435
  2
BLK56
 10
0.0
 20
0.0
 30
0.0
  0
INSERT
  8
0
  5
436
  2
BLK57
 10
0.0
 20
0.0
 30
0.0
  0
INSERT
  8
0
  5
437
  2
BLK58
 10
0.0
 20
0.0
 30
0.0
  0
INSERT
  8
0
  5
438
  2
*X64
 10
227.845913
 20
382.887483
 30
0.0
  0
INSERT
  8
0
  5
439
  2
BLK59
 10
0.0
 20
0.0
 30
0.0
  0
INSERT
  8
0
  5
43A
  2
*X66
 10
240.345913
 20
384.387483
 30
0.0
  0
INSERT
  8
0
  5
43B
  2
BLK60
 10
0.0
 20
0.0
 30
0.0
  0
INSERT
  8
0
  5
43C
  2
*X68
 10
252.345913
 20
384.387483
 30
0.0
  0
INSERT
  8
0
  5
43D
  2
BLK61
 10
0.0
 20
0.0
 30
0.0
  0
INSERT
  8
0
  5
43E
  2
*X70
 10
264.345913
 20
384.387483
 30
0.0
  0
INSERT
  8
0
  5
43F
  2
BLK62
 10
0.0
 20
0.0
 30
0.0
  0
INSERT
  8
0
  5
440
  2
BLK63
 10
0.0
 20
0.0
 30
0.0
  0
INSERT
  8
0
  5
441
  2
BLK64
 10
0.0
 20
0.0
 30
0.0
  0
INSERT
  8
0
  5
442
  2
BLK65
 10
0.0
 20
0.0
 30
0.0
  0
INSERT
  8
0
  5
443
  2
BLK66
 10
0.0
 20
0.0
 30
0.0
  0
INSERT
  8
0
  5
444
  2
BLK67
 10
0.0
 20
0.0
 30
0.0
  0
INSERT
  8
0
  5
445
  2
BLK68
 10
0.0
 20
0.0
 30
0.0
  0
INSERT
  8
0
  5
446
  2
BLK69
 10
0.0
 20
0.0
 30
0.0
  0
INSERT
  8
0
  5
447
  2
BLK70
 10
0.0
 20
0.0
 30
0.0
  0
INSERT
  8
0
  5
448
  2
BLK71
 10
0.0
 20
0.0
 30
0.0
  0
INSERT
  8
0
  5
449
  2
BLK72
 10
0.0
 20
0.0
 30
0.0
  0
INSERT
  8
0
  5
44A
  2
BLK73
 10
0.0
 20
0.0
 30
0.0
  0
INSERT
  8
0
  5
44B
  2
BLK74
 10
0.0
 20
0.0
 30
0.0
  0
INSERT
  8
0
  5
44C
  2
BLK75
 10
0.0
 20
0.0
 30
0.0
  0
INSERT
  8
0
  5
44D
  2
BLK76
 10
0.0
 20
0.0
 30
0.0
  0
INSERT
  8
0
  5
44E
  2
BLK77
 10
0.0
 20
0.0
 30
0.0
  0
INSERT
  8
0
  5
44F
  2
BLK78
 10
0.0
 20
0.0
 30
0.0
  0
INSERT
  8
0
  5
450
  2
BLK79
 10
0.0
 20
0.0
 30
0.0
  0
INSERT
  8
0
  5
451
  2
BLK80
 10
0.0
 20
0.0
 30
0.0
  0
INSERT
  8
0
  5
452
  2
BLK81
 10
0.0
 20
0.0
 30
0.0
  0
INSERT
  8
0
  5
453
  2
BLK82
 10
0.0
 20
0.0
 30
0.0
  0
INSERT
  8
0
  5
454
  2
BLK83
 10
0.0
 20
0.0
 30
0.0
  0
INSERT
  8
0
  5
455
  2
BLK84
 10
0.0
 20
0.0
 30
0.0
  0
INSERT
  8
0
  5
456
  2
BLK85
 10
0.0
 20
0.0
 30
0.0
  0
INSERT
  8
0
  5
457
  2
BLK86
 10
0.0
 20
0.0
 30
0.0
  0
INSERT
  8
0
  5
458
  2
BLK87
 10
0.0
 20
0.0
 30
0.0
  0
INSERT
  8
0
  5
459
  2
BLK88
 10
0.0
 20
0.0
 30
0.0
  0
INSERT
  8
0
  5
45A
  2
BLK89
 10
0.0
 20
0.0
 30
0.0
  0
INSERT
  8
0
  5
45B
  2
*X99
 10
312.34615
 20
382.887558
 30
0.0
  0
INSERT
  8
0
  5
45C
  2
*X100
 10
300.34615
 20
384.387566
 30
0.0
  0
INSERT
  8
0
  5
45D
  2
*X101
 10
288.34615
 20
384.387574
 30
0.0
  0
INSERT
  8
0
  5
45E
  2
*X102
 10
273.346152
 20
384.387582
 30
0.0
  0
INSERT
  8
0
  5
45F
  2
BLK90
 10
0.0
 20
0.0
 30
0.0
  0
INSERT
  8
0
  5
460
  2
*X104
 10
204.345743
 20
389.387483
 30
0.0
  0
INSERT
  8
0
  5
461
  2
BLK91
 10
0.0
 20
0.0
 30
0.0
  0
INSERT
  8
0
  5
462
  2
BLK92
 10
0.0
 20
0.0
 30
0.0
  0
INSERT
  8
0
  5
463
  2
BLK93
 10
0.0
 20
0.0
 30
0.0
  0
INSERT
  8
0
  5
464
  2
BLK94
 10
0.0
 20
0.0
 30
0.0
  0
INSERT
  8
0
  5
465
  2
BLK95
 10
0.0
 20
0.0
 30
0.0
  0
INSERT
  8
0
  5
466
  2
BLK96
 10
0.0
 20
0.0
 30
0.0
  0
INSERT
  8
0
  5
467
  2
BLK97
 10
0.0
 20
0.0
 30
0.0
  0
INSERT
  8
0
  5
468
  2
BLK98
 10
0.0
 20
0.0
 30
0.0
  0
INSERT
  8
0
  5
469
  2
BLK99
 10
0.0
 20
0.0
 30
0.0
  0
INSERT
  8
0
  5
46A
  2
BLK100
 10
0.0
 20
0.0
 30
0.0
  0
INSERT
  8
0
  5
46B
  2
BLK101
 10
0.0
 20
0.0
 30
0.0
  0
INSERT
  8
0
  5
46C
  2
BLK102
 10
0.0
 20
0.0
 30
0.0
  0
INSERT
  8
0
  5
46D
  2
BLK103
 10
0.0
 20
0.0
 30
0.0
  0
INSERT
  8
0
  5
46E
  2
BLK104
 10
0.0
 20
0.0
 30
0.0
  0
INSERT
  8
0
  5
46F
  2
BLK105
 10
0.0
 20
0.0
 30
0.0
  0
INSERT
  8
0
  5
470
  2
BLK106
 10
0.0
 20
0.0
 30
0.0
  0
INSERT
  8
0
  5
471
  2
BLK107
 10
0.0
 20
0.0
 30
0.0
  0
INSERT
  8
0
  5
472
  2
BLK108
 10
0.0
 20
0.0
 30
0.0
  0
INSERT
  8
0
  5
473
  2
BLK109
 10
0.0
 20
0.0
 30
0.0
  0
INSERT
  8
0
  5
474
  2
BLK110
 10
0.0
 20
0.0
 30
0.0
  0
INSERT
  8
0
  5
475
  2
BLK111
 10
0.0
 20
0.0
 30
0.0
  0
INSERT
  8
0
  5
476
  2
BLK112
 10
0.0
 20
0.0
 30
0.0
  0
INSERT
  8
0
  5
477
  2
BLK113
 10
0.0
 20
0.0
 30
0.0
  0
INSERT
  8
0
  5
478
  2
BLK114
 10
0.0
 20
0.0
 30
0.0
  0
INSERT
  8
0
  5
479
  2
BLK115
 10
0.0
 20
0.0
 30
0.0
  0
INSERT
  8
0
  5
47A
  2
BLK116
 10
0.0
 20
0.0
 30
0.0
  0
INSERT
  8
0
  5
47B
  2
BLK117
 10
0.0
 20
0.0
 30
0.0
  0
INSERT
  8
0
  5
47C
  2
BLK118
 10
0.0
 20
0.0
 30
0.0
  0
INSERT
  8
0
  5
47D
  2
BLK119
 10
0.0
 20
0.0
 30
0.0
  0
INSERT
  8
0
  5
47E
  2
BLK120
 10
0.0
 20
0.0
 30
0.0
  0
INSERT
  8
0
  5
47F
  2
BLK121
 10
0.0
 20
0.0
 30
0.0
  0
INSERT
  8
0
  5
480
  2
BLK122
 10
0.0
 20
0.0
 30
0.0
  0
INSERT
  8
0
  5
481
  2
BLK123
 10
0.0
 20
0.0
 30
0.0
  0
INSERT
  8
0
  5
482
  2
BLK124
 10
0.0
 20
0.0
 30
0.0
  0
INSERT
  8
0
  5
483
  2
BLK125
 10
0.0
 20
0.0
 30
0.0
  0
INSERT
  8
0
  5
484
  2
*X140
 10
342.900034
 20
186.38674
 30
0.0
  0
INSERT
  8
0
  5
485
  2
BLK126
 10
0.0
 20
0.0
 30
0.0
  0
INSERT
  8
0
  5
486
  2
BLK127
 10
0.0
 20
0.0
 30
0.0
  0
INSERT
  8
0
  5
487
  2
BLK128
 10
0.0
 20
0.0
 30
0.0
  0
INSERT
  8
0
  5
488
  2
BLK129
 10
0.0
 20
0.0
 30
0.0
  0
INSERT
  8
0
  5
489
  2
BLK130
 10
0.0
 20
0.0
 30
0.0
  0
INSERT
  8
0
  5
48A
  2
BLK131
 10
0.0
 20
0.0
 30
0.0
  0
INSERT
  8
0
  5
48B
  2
BLK132
 10
0.0
 20
0.0
 30
0.0
  0
INSERT
  8
0
  5
48C
  2
BLK133
 10
0.0
 20
0.0
 30
0.0
  0
INSERT
  8
0
  5
48D
  2
BLK134
 10
0.0
 20
0.0
 30
0.0
  0
INSERT
  8
0
  5
48E
  2
BLK135
 10
0.0
 20
0.0
 30
0.0
  0
INSERT
  8
0
  5
48F
  2
BLK136
 10
0.0
 20
0.0
 30
0.0
  0
INSERT
  8
0
  5
490
  2
BLK137
 10
0.0
 20
0.0
 30
0.0
  0
INSERT
  8
0
  5
491
  2
BLK138
 10
0.0
 20
0.0
 30
0.0
  0
INSERT
  8
0
  5
492
  2
BLK139
 10
0.0
 20
0.0
 30
0.0
  0
INSERT
  8
0
  5
493
  2
BLK140
 10
0.0
 20
0.0
 30
0.0
  0
INSERT
  8
0
  5
494
  2
BLK141
 10
0.0
 20
0.0
 30
0.0
  0
INSERT
  8
0
  5
495
  2
BLK142
 10
0.0
 20
0.0
 30
0.0
  0
INSERT
  8
0
  5
496
  2
BLK143
 10
0.0
 20
0.0
 30
0.0
  0
INSERT
  8
0
  5
497
  2
*X159
 10
203.846816
 20
186.38788
 30
0.0
  0
INSERT
  8
0
  5
498
  2
*X160
 10
273.346777
 20
186.38788
 30
0.0
  0
DIMENSION
  8
0
  5
499
  2
*D161
 10
392.0
 20
197.88788
 30
0.0
 11
392.0
 21
197.88788
 31
0.0
 13
342.846734
 23
186.38788
 33
0.0
 14
342.846737
 24
209.38788
 34
0.0
 50
90.0
  3
LC-DIM-L-0140-02-02
  0
DIMENSION
  8
0
  5
49A
  2
*D162
 10
431.2
 20
300.487659
 30
0.0
 11
431.2
 21
300.487659
 31
0.0
  1
10-180
 13
342.846737
 23
209.38788
 33
0.0
 14
346.399863
 24
391.587438
 34
0.0
 50
90.0
  3
LC-DIM-L-0140-02-02
  0
LINE
  8
LC-001-002-----0
  6
CONTINUOUS
  5
49C
 10
203.846776
 20
389.587438
 30
0.0
 11
203.846776
 21
388.887483
 31
0.0
  0
LINE
  8
LC-001-002-----0
  6
CONTINUOUS
  5
49D
 10
342.846775
 20
387.883357
 30
0.0
 11
342.846762
 21
366.587438
 31
0.0
  0
LINE
  8
LC-001-002-----0
  6
CONTINUOUS
  5
49E
 10
203.846778
 20
387.883357
 30
0.0
 11
203.846792
 21
366.587438
 31
0.0
  0
LINE
  8
LC-001-002-----0
  6
CONTINUOUS
  5
49F
 10
342.846777
 20
389.587438
 30
0.0
 11
342.846777
 21
388.883246
 31
0.0
  0
LINE
  8
LC-001-002-----0
  6
CONTINUOUS
  5
4A0
 10
203.846792
 20
366.587438
 30
0.0
 11
202.346793
 21
365.087439
 31
0.0
  0
LINE
  8
LC-001-002-----0
  6
CONTINUOUS
  5
4A1
 10
201.639686
 20
365.794546
 30
0.0
 11
202.846791
 21
367.001651
 31
0.0
  0
LINE
  8
LC-001-002-----0
  6
CONTINUOUS
  5
4A2
 10
202.346793
 20
365.087439
 30
0.0
 11
201.639686
 21
365.794546
 31
0.0
  0
LINE
  8
LC-001-002-----0
  6
CONTINUOUS
  5
4A3
 10
203.846794
 20
362.087438
 30
0.0
 11
203.846792
 21
366.587438
 31
0.0
  0
LINE
  8
LC-001-002-----0
  6
CONTINUOUS
  5
4A4
 10
200.793689
 20
191.38674
 30
0.0
 11
200.793689
 21
376.587483
 31
0.0
  0
LINE
  8
LC-001-002-----0
  6
CONTINUOUS
  5
4A5
 10
200.793689
 20
376.587483
 30
0.0
 11
196.846785
 21
376.587483
 31
0.0
  0
LINE
  8
LC-001-002-----0
  6
CONTINUOUS
  5
4A6
 10
198.346777
 20
389.587436
 30
0.0
 11
198.346784
 21
378.087435
 31
0.0
  0
LINE
  8
LC-001-002-----0
  6
CONTINUOUS
  5
4A7
 10
202.846776
 20
389.587437
 30
0.0
 11
202.846791
 21
367.001651
 31
0.0
  0
LINE
  8
LC-001-002-----0
  6
CONTINUOUS
  5
4A8
 10
199.346784
 20
378.087435
 30
0.0
 11
199.346777
 21
389.587435
 31
0.0
  0
ARC
  8
LC-001-002-----0
  6
CONTINUOUS
  5
4A9
 10
198.346785
 20
378.587434
 30
0.0
 40
1.5
 50
90.0
 51
180.0
  0
LINE
  8
LC-001-002-----0
  6
CONTINUOUS
  5
4AA
 10
196.846785
 20
376.587483
 30
0.0
 11
196.846785
 21
378.587434
 31
0.0
  0
LINE
  8
LC-001-002-----0
  6
CONTINUOUS
  5
4AB
 10
199.346785
 20
378.087435
 30
0.0
 11
198.346785
 21
378.087435
 31
0.0
  0
LINE
  8
LC-001-002-----0
  6
CONTINUOUS
  5
4AC
 10
203.846819
 20
186.38788
 30
0.0
 11
203.846794
 21
362.087438
 31
0.0
  0
LINE
  8
LC-001-002-----0
  6
CONTINUOUS
  5
4AD
 10
202.319193
 20
186.387879
 30
0.0
 11
203.846819
 21
186.38788
 31
0.0
  0
LINE
  8
LC-001-002-----0
  6
CONTINUOUS
  5
4AE
 10
200.793689
 20
191.38674
 30
0.0
 11
202.133435
 21
186.38674
 31
0.0
  0
ARC
  8
LC-001-002-----0
  6
CONTINUOUS
  5
4AF
 10
201.846776
 20
389.587438
 30
0.0
 40
2.0
 50
0.0
 51
90.000019
  0
LINE
  8
LC-001-002-----0
  6
CONTINUOUS
  5
4B0
 10
201.79369
 20
391.587438
 30
0.0
 11
200.293691
 21
391.587438
 31
0.0
  0
ARC
  8
LC-001-002-----0
  6
CONTINUOUS
  5
4B1
 10
200.346777
 20
389.587438
 30
0.0
 40
2.0
 50
90.000323
 51
180.000037
  0
LINE
  8
LC-001-002-----0
  6
CONTINUOUS
  5
4B2
 10
200.346776
 20
390.587435
 30
0.0
 11
201.846776
 21
390.587436
 31
0.0
  0
ARC
  8
LC-001-002-----0
  6
CONTINUOUS
  5
4B3
 10
200.346777
 20
389.587435
 30
0.0
 40
1.0
 50
90.000342
 51
180.000037
  0
ARC
  8
LC-001-002-----0
  6
CONTINUOUS
  5
4B4
 10
201.846776
 20
389.587436
 30
0.0
 40
1.0
 50
0.000056
 51
90.000037
  0
LINE
  8
LC-001-002-----0
  6
CONTINUOUS
  5
4B5
 10
203.846819
 20
186.38788
 30
0.0
 11
342.846734
 21
186.38788
 31
0.0
  0
LINE
  8
LC-001-002-----0
  6
CONTINUOUS
  5
4B6
 10
342.346777
 20
389.387483
 30
0.0
 11
342.346777
 21
391.887483
 31
0.0
  0
LINE
  8
LC-001-002-----0
  6
CONTINUOUS
  5
4B7
 10
204.346777
 20
389.387483
 30
0.0
 11
204.346777
 21
391.887483
 31
0.0
  0
ARC
  8
LC-007-002-RND-0
  6
CONTINUOUS
  5
4B9
 10
477.899865
 20
332.24495
 30
0.0
 40
4.0
 50
90.0
 51
180.0
  0
CIRCLE
  8
LC-001-002-----0
  6
CONTINUOUS
  5
4BA
 10
458.899865
 20
351.24495
 30
0.0
 40
4.5
  0
LINE
  8
LC-001-002-----0
  6
CONTINUOUS
  5
4BB
 10
456.399864
 20
350.744952
 30
0.0
 11
456.399865
 21
351.744952
 31
0.0
  0
LINE
  8
LC-001-002-----0
  6
CONTINUOUS
  5
4BC
 10
456.399865
 20
351.744952
 30
0.0
 11
458.399865
 21
351.74495
 31
0.0
  0
LINE
  8
LC-001-002-----0
  6
CONTINUOUS
  5
4BD
 10
461.399865
 20
351.744948
 30
0.0
 11
461.399864
 21
350.744948
 31
0.0
  0
ARC
  8
LC-007-002-RND-0
  6
CONTINUOUS
  5
4BE
 10
563.899865
 20
332.24495
 30
0.0
 40
4.0
 50
0.0
 51
90.0
  0
LINE
  8
LC-001-002-----0
  6
CONTINUOUS
 62
     2
  5
4BF
 10
233.716893
 20
496.734
 30
0.0
 11
248.716893
 21
496.734
 31
0.0
  0
LINE
  8
LC-001-002-----0
  6
CONTINUOUS
 62
     2
  5
4C0
 10
248.716893
 20
481.734
 30
0.0
 11
248.716893
 21
496.734
 31
0.0
  0
ARC
  8
LC-007-002-RND-0
  6
CONTINUOUS
  5
4C1
 10
563.899749
 20
332.245321
 30
0.0
 40
3.0
 50
0.0
 51
90.0
  0
ARC
  8
LC-007-002-RND-0
  6
CONTINUOUS
  5
4C2
 10
477.899749
 20
332.245321
 30
0.0
 40
3.0
 50
90.0
 51
180.0
  0
LINE
  8
LC-001-002-----0
  6
CONTINUOUS
  5
4C3
 10
461.399864
 20
350.744948
 30
0.0
 11
459.399864
 21
350.74495
 31
0.0
  0
LINE
  8
LC-001-002-----0
  6
CONTINUOUS
  5
4C4
 10
458.399863
 20
348.74495
 30
0.0
 11
459.399863
 21
348.74495
 31
0.0
  0
LINE
  8
LC-001-002-----0
  6
CONTINUOUS
  5
4C5
 10
459.399863
 20
348.74495
 30
0.0
 11
459.399864
 21
350.74495
 31
0.0
  0
LINE
  8
LC-001-002-----0
  6
CONTINUOUS
  5
4C6
 10
459.399866
 20
353.74495
 30
0.0
 11
458.399866
 21
353.74495
 31
0.0
  0
LINE
  8
LC-001-002-----0
  6
CONTINUOUS
  5
4C7
 10
458.399866
 20
353.74495
 30
0.0
 11
458.399865
 21
351.74495
 31
0.0
  0
LINE
  8
LC-001-002-----0
  6
CONTINUOUS
  5
4C8
 10
458.399864
 20
350.74495
 30
0.0
 11
458.399863
 21
348.74495
 31
0.0
  0
LINE
  8
LC-001-002-----0
  6
CONTINUOUS
  5
4C9
 10
458.399864
 20
350.74495
 30
0.0
 11
456.399864
 21
350.744952
 31
0.0
  0
LINE
  8
LC-001-002-----0
  6
CONTINUOUS
  5
4CA
 10
459.399865
 20
351.74495
 30
0.0
 11
461.399865
 21
351.744948
 31
0.0
  0
LINE
  8
LC-001-002-----0
  6
CONTINUOUS
  5
4CB
 10
459.399865
 20
351.74495
 30
0.0
 11
459.399866
 21
353.74495
 31
0.0
  0
CIRCLE
  8
LC-001-002-----0
  6
CONTINUOUS
  5
4CC
 10
558.899749
 20
327.245321
 30
0.0
 40
4.5
  0
LINE
  8
LC-001-002-----0
  6
CONTINUOUS
  5
4CD
 10
559.399749
 20
329.745321
 30
0.0
 11
558.399749
 21
329.745321
 31
0.0
  0
LINE
  8
LC-001-002-----0
  6
CONTINUOUS
  5
4CE
 10
558.399749
 20
329.745321
 30
0.0
 11
558.399749
 21
327.745321
 31
0.0
  0
LINE
  8
LC-001-002-----0
  6
CONTINUOUS
  5
4CF
 10
558.399749
 20
324.745321
 30
0.0
 11
559.399749
 21
324.745321
 31
0.0
  0
LINE
  8
LC-001-002-----0
  6
CONTINUOUS
  5
4D0
 10
559.399749
 20
324.745321
 30
0.0
 11
559.399749
 21
326.745321
 31
0.0
  0
LINE
  8
LC-001-002-----0
  6
CONTINUOUS
  5
4D1
 10
561.399749
 20
327.745321
 30
0.0
 11
561.399749
 21
326.745321
 31
0.0
  0
LINE
  8
LC-001-002-----0
  6
CONTINUOUS
  5
4D2
 10
561.399749
 20
326.745321
 30
0.0
 11
559.399749
 21
326.745321
 31
0.0
  0
LINE
  8
LC-001-002-----0
  6
CONTINUOUS
  5
4D3
 10
556.399749
 20
327.745321
 30
0.0
 11
558.399749
 21
327.745321
 31
0.0
  0
LINE
  8
LC-001-002-----0
  6
CONTINUOUS
  5
4D4
 10
559.399749
 20
327.745321
 30
0.0
 11
561.399749
 21
327.745321
 31
0.0
  0
LINE
  8
LC-001-002-----0
  6
CONTINUOUS
  5
4D5
 10
559.399749
 20
327.745321
 30
0.0
 11
559.399749
 21
329.745321
 31
0.0
  0
LINE
  8
LC-001-002-----0
  6
CONTINUOUS
  5
4D6
 10
558.399749
 20
326.745321
 30
0.0
 11
558.399749
 21
324.745321
 31
0.0
  0
LINE
  8
LC-001-002-----0
  6
CONTINUOUS
  5
4D7
 10
558.399749
 20
326.745321
 30
0.0
 11
556.399749
 21
326.745321
 31
0.0
  0
LINE
  8
LC-001-002-----0
  6
CONTINUOUS
 62
     2
  5
4D8
 10
233.716893
 20
481.734
 30
0.0
 11
233.716893
 21
496.734
 31
0.0
  0
LINE
  8
LC-001-002-----0
  6
CONTINUOUS
 62
     2
  5
4D9
 10
233.716893
 20
481.734
 30
0.0
 11
248.716893
 21
481.734
 31
0.0
  0
LINE
  8
LC-001-002-----0
  6
CONTINUOUS
  5
4DA
 10
204.346777
 20
391.887483
 30
0.0
 11
342.346777
 21
391.887483
 31
0.0
  0
LINE
  8
LC-001-002-----0
  6
CONTINUOUS
  5
4DB
 10
227.845913
 20
382.887483
 30
0.0
 11
229.345913
 21
382.887483
 31
0.0
  0
LINE
  8
LC-001-002-----0
  6
CONTINUOUS
  5
4DC
 10
229.345913
 20
382.887483
 30
0.0
 11
229.345913
 21
387.387483
 31
0.0
  0
LINE
  8
LC-001-002-----0
  6
CONTINUOUS
  5
4DD
 10
240.345913
 20
384.387483
 30
0.0
 11
241.845913
 21
384.387483
 31
0.0
  0
LINE
  8
LC-001-002-----0
  6
CONTINUOUS
  5
4DE
 10
241.845913
 20
384.387483
 30
0.0
 11
241.845913
 21
387.387483
 31
0.0
  0
LINE
  8
LC-001-002-----0
  6
CONTINUOUS
  5
4DF
 10
241.845913
 20
387.387483
 30
0.0
 11
244.845913
 21
387.387483
 31
0.0
  0
LINE
  8
LC-001-002-----0
  6
CONTINUOUS
  5
4E0
 10
244.845913
 20
387.387483
 30
0.0
 11
244.845913
 21
384.387483
 31
0.0
  0
LINE
  8
LC-001-002-----0
  6
CONTINUOUS
  5
4E1
 10
244.845913
 20
384.387483
 30
0.0
 11
246.345913
 21
384.387483
 31
0.0
  0
LINE
  8
LC-001-002-----0
  6
CONTINUOUS
  5
4E2
 10
234.345913
 20
384.387483
 30
0.0
 11
232.845913
 21
384.387483
 31
0.0
  0
LINE
  8
LC-001-002-----0
  6
CONTINUOUS
  5
4E3
 10
232.845913
 20
384.387483
 30
0.0
 11
232.845913
 21
387.387483
 31
0.0
  0
LINE
  8
LC-001-002-----0
  6
CONTINUOUS
  5
4E4
 10
232.845913
 20
387.387483
 30
0.0
 11
229.845913
 21
387.387483
 31
0.0
  0
LINE
  8
LC-001-002-----0
  6
CONTINUOUS
  5
4E5
 10
229.845913
 20
387.387483
 30
0.0
 11
229.345913
 21
387.387483
 31
0.0
  0
LINE
  8
LC-001-002-----0
  6
CONTINUOUS
  5
4E6
 10
252.345913
 20
384.387483
 30
0.0
 11
253.845913
 21
384.387483
 31
0.0
  0
LINE
  8
LC-001-002-----0
  6
CONTINUOUS
  5
4E7
 10
253.845913
 20
384.387483
 30
0.0
 11
253.845913
 21
387.387483
 31
0.0
  0
LINE
  8
LC-001-002-----0
  6
CONTINUOUS
  5
4E8
 10
253.845913
 20
387.387483
 30
0.0
 11
256.845913
 21
387.387483
 31
0.0
  0
LINE
  8
LC-001-002-----0
  6
CONTINUOUS
  5
4E9
 10
256.845913
 20
387.387483
 30
0.0
 11
256.845913
 21
384.387483
 31
0.0
  0
LINE
  8
LC-001-002-----0
  6
CONTINUOUS
  5
4EA
 10
256.845913
 20
384.387483
 30
0.0
 11
258.345913
 21
384.387483
 31
0.0
  0
LINE
  8
LC-001-002-----0
  6
CONTINUOUS
  5
4EB
 10
264.345913
 20
384.387483
 30
0.0
 11
265.845913
 21
384.387483
 31
0.0
  0
LINE
  8
LC-001-002-----0
  6
CONTINUOUS
  5
4EC
 10
265.845913
 20
384.387483
 30
0.0
 11
265.845913
 21
387.387483
 31
0.0
  0
LINE
  8
LC-001-002-----0
  6
CONTINUOUS
  5
4ED
 10
265.845913
 20
387.387483
 30
0.0
 11
273.531373
 21
387.387483
 31
0.0
  0
LINE
  8
LC-001-002-----0
  6
CONTINUOUS
  5
4EE
 10
234.345913
 20
384.387483
 30
0.0
 11
240.345913
 21
384.387483
 31
0.0
  0
LINE
  8
LC-001-002-----0
  6
CONTINUOUS
  5
4EF
 10
246.345913
 20
384.387483
 30
0.0
 11
252.345913
 21
384.387483
 31
0.0
  0
LINE
  8
LC-001-002-----0
  6
CONTINUOUS
  5
4F0
 10
258.345913
 20
384.387483
 30
0.0
 11
264.345913
 21
384.387483
 31
0.0
  0
LINE
  8
LC-001-002-----0
  6
CONTINUOUS
  5
4F1
 10
241.845913
 20
384.387483
 30
0.0
 11
244.845913
 21
384.387483
 31
0.0
  0
LINE
  8
LC-001-002-----0
  6
CONTINUOUS
  5
4F2
 10
253.845913
 20
384.387483
 30
0.0
 11
256.845913
 21
384.387483
 31
0.0
  0
LINE
  8
LC-001-002-----0
  6
CONTINUOUS
  5
4F3
 10
265.845913
 20
384.387483
 30
0.0
 11
273.345913
 21
384.387483
 31
0.0
  0
LINE
  8
LC-001-002-----0
  6
CONTINUOUS
  5
4F4
 10
227.845913
 20
382.887483
 30
0.0
 11
227.845913
 21
386.887483
 31
0.0
  0
ARC
  8
LC-001-002-----0
  6
CONTINUOUS
  5
4F5
 10
229.845913
 20
386.887483
 30
0.0
 40
2.0
 50
89.999981
 51
180.0
  0
LINE
  8
LC-001-002-----0
  6
CONTINUOUS
  5
4F6
 10
229.845913
 20
388.887483
 30
0.0
 11
232.845913
 21
388.887483
 31
0.0
  0
ARC
  8
LC-001-002-----0
  6
CONTINUOUS
  5
4F7
 10
232.845913
 20
387.387483
 30
0.0
 40
1.5
 50
0.0
 51
90.0
  0
LINE
  8
LC-001-002-----0
  6
CONTINUOUS
  5
4F8
 10
234.345913
 20
387.387483
 30
0.0
 11
234.345913
 21
384.387483
 31
0.0
  0
LINE
  8
LC-001-002-----0
  6
CONTINUOUS
  5
4F9
 10
232.845913
 20
388.887483
 30
0.0
 11
241.845913
 21
388.887483
 31
0.0
  0
LINE
  8
LC-001-002-----0
  6
CONTINUOUS
  5
4FA
 10
240.345913
 20
387.387483
 30
0.0
 11
240.345913
 21
384.387483
 31
0.0
  0
ARC
  8
LC-001-002-----0
  6
CONTINUOUS
  5
4FB
 10
241.845913
 20
387.387483
 30
0.0
 40
1.5
 50
89.999981
 51
180.0
  0
LINE
  8
LC-001-002-----0
  6
CONTINUOUS
  5
4FC
 10
246.345913
 20
384.387483
 30
0.0
 11
246.345913
 21
387.387483
 31
0.0
  0
ARC
  8
LC-001-002-----0
  6
CONTINUOUS
  5
4FD
 10
244.845913
 20
387.387483
 30
0.0
 40
1.5
 50
0.0
 51
89.999981
  0
LINE
  8
LC-001-002-----0
  6
CONTINUOUS
  5
4FE
 10
241.845913
 20
388.887483
 30
0.0
 11
244.845913
 21
388.887483
 31
0.0
  0
LINE
  8
LC-001-002-----0
  6
CONTINUOUS
  5
4FF
 10
244.845914
 20
388.887483
 30
0.0
 11
253.845913
 21
388.887483
 31
0.0
  0
LINE
  8
LC-001-002-----0
  6
CONTINUOUS
  5
500
 10
252.345913
 20
387.387483
 30
0.0
 11
252.345913
 21
384.387483
 31
0.0
  0
ARC
  8
LC-001-002-----0
  6
CONTINUOUS
  5
501
 10
253.845913
 20
387.387483
 30
0.0
 40
1.5
 50
89.999981
 51
180.0
  0
LINE
  8
LC-001-002-----0
  6
CONTINUOUS
  5
502
 10
256.845913
 20
388.887483
 30
0.0
 11
265.845913
 21
388.887483
 31
0.0
  0
LINE
  8
LC-001-002-----0
  6
CONTINUOUS
  5
503
 10
264.345913
 20
387.387483
 30
0.0
 11
264.345913
 21
384.387483
 31
0.0
  0
ARC
  8
LC-001-002-----0
  6
CONTINUOUS
  5
504
 10
265.845913
 20
387.387483
 30
0.0
 40
1.5
 50
89.999981
 51
180.0
  0
LINE
  8
LC-001-002-----0
  6
CONTINUOUS
  5
505
 10
265.845913
 20
388.887483
 30
0.0
 11
273.345913
 21
388.887483
 31
0.0
  0
LINE
  8
LC-001-002-----0
  6
CONTINUOUS
  5
506
 10
253.845913
 20
388.887483
 30
0.0
 11
256.845913
 21
388.887483
 31
0.0
  0
ARC
  8
LC-001-002-----0
  6
CONTINUOUS
  5
507
 10
256.845913
 20
387.387483
 30
0.0
 40
1.5
 50
0.0
 51
90.0
  0
LINE
  8
LC-001-002-----0
  6
CONTINUOUS
  5
508
 10
258.345913
 20
384.387483
 30
0.0
 11
258.345913
 21
387.387483
 31
0.0
  0
LINE
  8
LC-001-002-----0
  6
DASHDOT
 62
     2
  5
50A
 10
273.345913
 20
388.887483
 30
0.0
 11
273.345913
 21
382.887483
 31
0.0
  0
LINE
  8
LC-001-002-----0
  6
CONTINUOUS
  5
50B
 10
318.846149
 20
382.887558
 30
0.0
 11
317.346149
 21
382.887559
 31
0.0
  0
LINE
  8
LC-001-002-----0
  6
CONTINUOUS
  5
50C
 10
317.346149
 20
382.887559
 30
0.0
 11
317.346152
 21
387.387559
 31
0.0
  0
LINE
  8
LC-001-002-----0
  6
CONTINUOUS
  5
50D
 10
306.34615
 20
384.387566
 30
0.0
 11
304.84615
 21
384.387567
 31
0.0
  0
LINE
  8
LC-001-002-----0
  6
CONTINUOUS
  5
50E
 10
304.84615
 20
384.387567
 30
0.0
 11
304.846152
 21
387.387567
 31
0.0
  0
LINE
  8
LC-001-002-----0
  6
CONTINUOUS
  5
50F
 10
304.846152
 20
387.387567
 30
0.0
 11
301.846152
 21
387.387569
 31
0.0
  0
LINE
  8
LC-001-002-----0
  6
CONTINUOUS
  5
510
 10
301.846152
 20
387.387569
 30
0.0
 11
301.84615
 21
384.387569
 31
0.0
  0
LINE
  8
LC-001-002-----0
  6
CONTINUOUS
  5
511
 10
301.84615
 20
384.387569
 30
0.0
 11
300.34615
 21
384.38757
 31
0.0
  0
LINE
  8
LC-001-002-----0
  6
CONTINUOUS
  5
512
 10
312.34615
 20
384.387562
 30
0.0
 11
313.84615
 21
384.387561
 31
0.0
  0
LINE
  8
LC-001-002-----0
  6
CONTINUOUS
  5
513
 10
313.84615
 20
384.387561
 30
0.0
 11
313.846152
 21
387.387561
 31
0.0
  0
LINE
  8
LC-001-002-----0
  6
CONTINUOUS
  5
514
 10
313.846152
 20
387.387561
 30
0.0
 11
316.846152
 21
387.387559
 31
0.0
  0
LINE
  8
LC-001-002-----0
  6
CONTINUOUS
  5
515
 10
316.846152
 20
387.387559
 30
0.0
 11
317.346152
 21
387.387559
 31
0.0
  0
LINE
  8
LC-001-002-----0
  6
CONTINUOUS
  5
516
 10
294.34615
 20
384.387574
 30
0.0
 11
292.84615
 21
384.387575
 31
0.0
  0
LINE
  8
LC-001-002-----0
  6
CONTINUOUS
  5
517
 10
292.84615
 20
384.387575
 30
0.0
 11
292.846152
 21
387.387575
 31
0.0
  0
LINE
  8
LC-001-002-----0
  6
CONTINUOUS
  5
518
 10
292.846152
 20
387.387575
 30
0.0
 11
289.846152
 21
387.387577
 31
0.0
  0
LINE
  8
LC-001-002-----0
  6
CONTINUOUS
  5
519
 10
289.846152
 20
387.387577
 30
0.0
 11
289.84615
 21
384.387577
 31
0.0
  0
LINE
  8
LC-001-002-----0
  6
CONTINUOUS
  5
51A
 10
289.84615
 20
384.387577
 30
0.0
 11
288.34615
 21
384.387578
 31
0.0
  0
LINE
  8
LC-001-002-----0
  6
CONTINUOUS
  5
51B
 10
282.34615
 20
384.387582
 30
0.0
 11
280.84615
 21
384.387583
 31
0.0
  0
LINE
  8
LC-001-002-----0
  6
CONTINUOUS
  5
51C
 10
280.84615
 20
384.387583
 30
0.0
 11
280.846152
 21
387.387583
 31
0.0
  0
LINE
  8
LC-001-002-----0
  6
CONTINUOUS
  5
51D
 10
280.846152
 20
387.387583
 30
0.0
 11
273.160692
 21
387.387588
 31
0.0
  0
LINE
  8
LC-001-002-----0
  6
CONTINUOUS
  5
51E
 10
312.34615
 20
384.387562
 30
0.0
 11
306.34615
 21
384.387566
 31
0.0
  0
LINE
  8
LC-001-002-----0
  6
CONTINUOUS
  5
51F
 10
300.34615
 20
384.38757
 30
0.0
 11
294.34615
 21
384.387574
 31
0.0
  0
LINE
  8
LC-001-002-----0
  6
CONTINUOUS
  5
520
 10
288.34615
 20
384.387578
 30
0.0
 11
282.34615
 21
384.387582
 31
0.0
  0
LINE
  8
LC-001-002-----0
  6
CONTINUOUS
  5
521
 10
304.84615
 20
384.387567
 30
0.0
 11
301.84615
 21
384.387569
 31
0.0
  0
LINE
  8
LC-001-002-----0
  6
CONTINUOUS
  5
522
 10
292.84615
 20
384.387575
 30
0.0
 11
289.84615
 21
384.387577
 31
0.0
  0
LINE
  8
LC-001-002-----0
  6
CONTINUOUS
  5
523
 10
280.84615
 20
384.387583
 30
0.0
 11
273.34615
 21
384.387588
 31
0.0
  0
LINE
  8
LC-001-002-----0
  6
CONTINUOUS
  5
524
 10
318.846149
 20
382.887558
 30
0.0
 11
318.846151
 21
386.887558
 31
0.0
  0
ARC
  8
LC-001-002-----0
  6
CONTINUOUS
  5
525
 10
316.846151
 20
386.887559
 30
0.0
 40
2.0
 50
359.999963
 51
89.999888
  0
LINE
  8
LC-001-002-----0
  6
CONTINUOUS
  5
526
 10
316.846153
 20
388.887559
 30
0.0
 11
313.846153
 21
388.887561
 31
0.0
  0
ARC
  8
LC-001-002-----0
  6
CONTINUOUS
  5
527
 10
313.846152
 20
387.387561
 30
0.0
 40
1.5
 50
89.999963
 51
179.999944
  0
LINE
  8
LC-001-002-----0
  6
CONTINUOUS
  5
528
 10
312.346152
 20
387.387562
 30
0.0
 11
312.34615
 21
384.387562
 31
0.0
  0
LINE
  8
LC-001-002-----0
  6
CONTINUOUS
  5
529
 10
313.846153
 20
388.887561
 30
0.0
 11
304.846153
 21
388.887567
 31
0.0
  0
LINE
  8
LC-001-002-----0
  6
CONTINUOUS
  5
52A
 10
306.346152
 20
387.387566
 30
0.0
 11
306.34615
 21
384.387566
 31
0.0
  0
ARC
  8
LC-001-002-----0
  6
CONTINUOUS
  5
52B
 10
304.846152
 20
387.387567
 30
0.0
 40
1.5
 50
359.999963
 51
89.999888
  0
LINE
  8
LC-001-002-----0
  6
CONTINUOUS
  5
52C
 10
300.34615
 20
384.38757
 30
0.0
 11
300.346152
 21
387.38757
 31
0.0
  0
ARC
  8
LC-001-002-----0
  6
CONTINUOUS
  5
52D
 10
301.846152
 20
387.387569
 30
0.0
 40
1.5
 50
89.999963
 51
179.999963
  0
LINE
  8
LC-001-002-----0
  6
CONTINUOUS
  5
52E
 10
304.846153
 20
388.887567
 30
0.0
 11
301.846153
 21
388.887569
 31
0.0
  0
LINE
  8
LC-001-002-----0
  6
CONTINUOUS
  5
52F
 10
301.846152
 20
388.887569
 30
0.0
 11
292.846153
 21
388.887575
 31
0.0
  0
LINE
  8
LC-001-002-----0
  6
CONTINUOUS
  5
530
 10
294.346152
 20
387.387574
 30
0.0
 11
294.34615
 21
384.387574
 31
0.0
  0
ARC
  8
LC-001-002-----0
  6
CONTINUOUS
  5
531
 10
292.846152
 20
387.387575
 30
0.0
 40
1.5
 50
359.999963
 51
89.999888
  0
LINE
  8
LC-001-002-----0
  6
CONTINUOUS
  5
532
 10
289.846153
 20
388.887577
 30
0.0
 11
280.846153
 21
388.887583
 31
0.0
  0
LINE
  8
LC-001-002-----0
  6
CONTINUOUS
  5
533
 10
282.346152
 20
387.387582
 30
0.0
 11
282.34615
 21
384.387582
 31
0.0
  0
ARC
  8
LC-001-002-----0
  6
CONTINUOUS
  5
534
 10
280.846152
 20
387.387583
 30
0.0
 40
1.5
 50
359.999963
 51
89.999888
  0
LINE
  8
LC-001-002-----0
  6
CONTINUOUS
  5
535
 10
280.846153
 20
388.887583
 30
0.0
 11
273.346153
 21
388.887588
 31
0.0
  0
LINE
  8
LC-001-002-----0
  6
CONTINUOUS
  5
536
 10
292.846153
 20
388.887575
 30
0.0
 11
289.846153
 21
388.887577
 31
0.0
  0
ARC
  8
LC-001-002-----0
  6
CONTINUOUS
  5
537
 10
289.846152
 20
387.387577
 30
0.0
 40
1.5
 50
89.999963
 51
179.999944
  0
LINE
  8
LC-001-002-----0
  6
CONTINUOUS
  5
538
 10
288.34615
 20
384.387578
 30
0.0
 11
288.346152
 21
387.387578
 31
0.0
  0
LINE
  8
LC-001-002-----0
  6
CONTINUOUS
  5
539
 10
232.345913
 20
382.887483
 30
0.0
 11
232.345913
 21
381.887483
 31
0.0
  0
ARC
  8
LC-001-002-----0
  6
CONTINUOUS
  5
53A
 10
227.845913
 20
383.887483
 30
0.0
 40
2.0
 50
180.0
 51
270.000058
  0
LINE
  8
LC-008-001-----0
  6
CONTINUOUS
  5
53C
 10
232.345913
 20
381.887483
 30
0.0
 11
227.845913
 21
381.887483
 31
0.0
  0
ARC
  8
LC-001-002-----0
  6
CONTINUOUS
  5
53D
 10
224.845913
 20
386.887483
 30
0.0
 40
2.0
 50
0.0
 51
89.999981
  0
LINE
  8
LC-001-002-----0
  6
CONTINUOUS
  5
53E
 10
224.845914
 20
388.887483
 30
0.0
 11
203.846776
 21
388.887483
 31
0.0
  0
LINE
  8
LC-001-002-----0
  6
CONTINUOUS
  5
53F
 10
225.845913
 20
383.887483
 30
0.0
 11
225.845913
 21
386.887483
 31
0.0
  0
ARC
  8
LC-001-002-----0
  6
CONTINUOUS
  5
540
 10
224.845913
 20
386.887483
 30
0.0
 40
1.0
 50
0.0
 51
89.999981
  0
LINE
  8
LC-001-002-----0
  6
CONTINUOUS
  5
541
 10
224.845913
 20
387.887483
 30
0.0
 11
203.846778
 21
387.887483
 31
0.0
  0
LINE
  8
LC-002-005-----0
  6
CONTINUOUS
 62
     1
  5
542
 10
232.345913
 20
382.887483
 30
0.0
 11
227.845913
 21
382.887483
 31
0.0
  0
ARC
  8
LC-002-005-----0
  6
CONTINUOUS
 62
     1
  5
543
 10
227.845913
 20
383.887483
 30
0.0
 40
1.0
 50
179.999848
 51
270.0
  0
LINE
  8
LC-001-002-----0
  6
CONTINUOUS
  5
544
 10
226.845913
 20
383.887483
 30
0.0
 11
226.845913
 21
386.887483
 31
0.0
  0
LINE
  8
LC-001-002-----0
  6
CONTINUOUS
  5
545
 10
314.348433
 20
382.885674
 30
0.0
 11
314.348348
 21
381.885674
 31
0.0
  0
LINE
  8
LC-008-001-----0
  6
CONTINUOUS
  5
546
 10
232.345914
 20
381.892648
 30
0.0
 11
318.848348
 21
381.885292
 31
0.0
  0
LINE
  8
LC-002-005-----0
  6
CONTINUOUS
 62
     1
  5
547
 10
232.345914
 20
382.892648
 30
0.0
 11
318.848433
 21
382.885292
 31
0.0
  0
LINE
  8
LC-001-002-----0
  6
CONTINUOUS
  5
548
 10
321.848943
 20
388.885037
 30
0.0
 11
342.846777
 21
388.883251
 31
0.0
  0
LINE
  8
LC-001-002-----0
  6
CONTINUOUS
  5
549
 10
321.848858
 20
387.885037
 30
0.0
 11
342.846775
 21
387.883251
 31
0.0
  0
ARC
  8
LC-001-002-----0
  6
CONTINUOUS
  5
54A
 10
321.848773
 20
386.885037
 30
0.0
 40
2.0
 50
89.995128
 51
179.995128
  0
ARC
  8
LC-001-002-----0
  6
CONTINUOUS
  5
54B
 10
321.848773
 20
386.885037
 30
0.0
 40
1.0
 50
89.995128
 51
179.995128
  0
LINE
  8
LC-001-002-----0
  6
CONTINUOUS
  5
54C
 10
320.848518
 20
383.885122
 30
0.0
 11
320.848773
 21
386.885122
 31
0.0
  0
ARC
  8
LC-001-002-----0
  6
CONTINUOUS
  5
54D
 10
318.848518
 20
383.885292
 30
0.0
 40
2.0
 50
269.994975
 51
359.995128
  0
LINE
  8
LC-001-002-----0
  6
CONTINUOUS
  5
54E
 10
319.848518
 20
383.885207
 30
0.0
 11
319.848773
 21
386.885207
 31
0.0
  0
ARC
  8
LC-002-005-----0
  6
CONTINUOUS
 62
     1
  5
54F
 10
318.848518
 20
383.885292
 30
0.0
 40
1.0
 50
269.995128
 51
359.995186
  0
LINE
  8
LC-008-001-----0
  6
CONTINUOUS
  5
550
 10
204.346777
 20
389.387483
 30
0.0
 11
342.346777
 21
389.387483
 31
0.0
  0
LINE
  8
LC-001-002-----0
  6
DASHDOT
 62
     2
  5
551
 10
273.346777
 20
186.38788
 30
0.0
 11
273.346777
 21
391.887483
 31
0.0
  0
LINE
  8
LC-001-002-----0
  6
CONTINUOUS
  5
552
 10
563.899865
 20
336.24495
 30
0.0
 11
477.899865
 21
336.24495
 31
0.0
  0
LINE
  8
LC-001-002-----0
  6
CONTINUOUS
  5
553
 10
567.899865
 20
289.244607
 30
0.0
 11
567.899865
 21
332.24495
 31
0.0
  0
LINE
  8
LC-001-002-----0
  6
CONTINUOUS
  5
554
 10
473.899865
 20
332.24495
 30
0.0
 11
473.899865
 21
289.245002
 31
0.0
  0
ARC
  8
LC-001-002-----0
  6
CONTINUOUS
  5
555
 10
546.899865
 20
325.24495
 30
0.0
 40
3.0
 50
270.000117
 51
90.00004
  0
ARC
  8
LC-001-002-----0
  6
CONTINUOUS
  5
556
 10
535.899865
 20
313.24495
 30
0.0
 40
3.0
 50
270.000117
 51
90.00004
  0
LINE
  8
LC-001-002-----0
  6
CONTINUOUS
  5
557
 10
535.899865
 20
316.24495
 30
0.0
 11
520.899865
 21
316.24495
 31
0.0
  0
LINE
  8
LC-001-002-----0
  6
CONTINUOUS
  5
558
 10
535.899865
 20
310.24495
 30
0.0
 11
520.899865
 21
310.24495
 31
0.0
  0
LINE
  8
LC-001-002-----0
  6
CONTINUOUS
  5
559
 10
546.899865
 20
328.24495
 30
0.0
 11
520.899865
 21
328.24495
 31
0.0
  0
LINE
  8
LC-001-002-----0
  6
CONTINUOUS
  5
55A
 10
546.899865
 20
322.24495
 30
0.0
 11
520.899865
 21
322.24495
 31
0.0
  0
ARC
  8
LC-001-002-----0
  6
CONTINUOUS
  5
55B
 10
494.90005
 20
325.245276
 30
0.0
 40
3.0
 50
89.999829
 51
269.999846
  0
ARC
  8
LC-001-002-----0
  6
CONTINUOUS
  5
55C
 10
505.900042
 20
313.245269
 30
0.0
 40
3.0
 50
89.999829
 51
269.999846
  0
LINE
  8
LC-001-002-----0
  6
CONTINUOUS
  5
55D
 10
505.900044
 20
316.245269
 30
0.0
 11
520.900044
 21
316.245259
 31
0.0
  0
LINE
  8
LC-001-002-----0
  6
CONTINUOUS
  5
55E
 10
505.90004
 20
310.245269
 30
0.0
 11
520.90004
 21
310.245259
 31
0.0
  0
LINE
  8
LC-001-002-----0
  6
CONTINUOUS
  5
55F
 10
494.900052
 20
328.245276
 30
0.0
 11
520.900052
 21
328.245259
 31
0.0
  0
LINE
  8
LC-001-002-----0
  6
CONTINUOUS
  5
560
 10
494.900048
 20
322.245276
 30
0.0
 11
520.900048
 21
322.245259
 31
0.0
  0
ARC
  8
LC-001-002-----0
  6
CONTINUOUS
  5
561
 10
484.899899
 20
315.244998
 30
0.0
 40
3.0
 50
0.000041
 51
179.999905
  0
ARC
  8
LC-001-002-----0
  6
CONTINUOUS
  5
562
 10
496.899884
 20
304.244982
 30
0.0
 40
3.0
 50
0.000041
 51
179.999905
  0
ARC
  8
LC-001-002-----0
  6
CONTINUOUS
  5
563
 10
508.899869
 20
292.744966
 30
0.0
 40
3.0
 50
0.000041
 51
179.999905
  0
LINE
  8
LC-001-002-----0
  6
CONTINUOUS
  5
564
 10
511.899869
 20
292.744962
 30
0.0
 11
511.899865
 21
289.244962
 31
0.0
  0
LINE
  8
LC-001-002-----0
  6
CONTINUOUS
  5
565
 10
505.899869
 20
292.74497
 30
0.0
 11
505.899865
 21
289.24497
 31
0.0
  0
LINE
  8
LC-001-002-----0
  6
CONTINUOUS
  5
566
 10
493.899884
 20
304.244986
 30
0.0
 11
493.899865
 21
289.244986
 31
0.0
  0
LINE
  8
LC-001-002-----0
  6
CONTINUOUS
  5
567
 10
499.899884
 20
304.244978
 30
0.0
 11
499.899865
 21
289.244978
 31
0.0
  0
LINE
  8
LC-001-002-----0
  6
CONTINUOUS
  5
568
 10
481.899899
 20
315.245002
 30
0.0
 11
481.899865
 21
289.245002
 31
0.0
  0
LINE
  8
LC-001-002-----0
  6
CONTINUOUS
  5
569
 10
487.899899
 20
315.244994
 30
0.0
 11
487.899865
 21
289.244994
 31
0.0
  0
ARC
  8
LC-001-002-----0
  6
CONTINUOUS
  5
56A
 10
556.900294
 20
315.244621
 30
0.0
 40
3.0
 50
359.999734
 51
179.999618
  0
ARC
  8
LC-001-002-----0
  6
CONTINUOUS
  5
56B
 10
544.900243
 20
304.244677
 30
0.0
 40
3.0
 50
359.999734
 51
179.999618
  0
ARC
  8
LC-001-002-----0
  6
CONTINUOUS
  5
56C
 10
532.90019
 20
292.744732
 30
0.0
 40
3.0
 50
359.999734
 51
179.999618
  0
LINE
  8
LC-001-002-----0
  6
CONTINUOUS
  5
56D
 10
529.90019
 20
292.744746
 30
0.0
 11
529.900174
 21
289.244746
 31
0.0
  0
LINE
  8
LC-001-002-----0
  6
CONTINUOUS
  5
56E
 10
535.90019
 20
292.744718
 30
0.0
 11
535.900174
 21
289.244718
 31
0.0
  0
LINE
  8
LC-001-002-----0
  6
CONTINUOUS
  5
56F
 10
547.900243
 20
304.244663
 30
0.0
 11
547.900174
 21
289.244663
 31
0.0
  0
LINE
  8
LC-001-002-----0
  6
CONTINUOUS
  5
570
 10
541.900243
 20
304.24469
 30
0.0
 11
541.900174
 21
289.24469
 31
0.0
  0
LINE
  8
LC-001-002-----0
  6
CONTINUOUS
  5
571
 10
559.900294
 20
315.244607
 30
0.0
 11
559.900174
 21
289.244607
 31
0.0
  0
LINE
  8
LC-001-002-----0
  6
CONTINUOUS
  5
572
 10
553.900294
 20
315.244635
 30
0.0
 11
553.900174
 21
289.244635
 31
0.0
  0
LINE
  8
LC-008-001-----0
  6
CONTINUOUS
  5
573
 10
474.899865
 20
332.245321
 30
0.0
 11
474.899865
 21
289.245002
 31
0.0
  0
LINE
  8
LC-008-001-----0
  6
CONTINUOUS
  5
574
 10
563.899749
 20
335.24495
 30
0.0
 11
477.899749
 21
335.24495
 31
0.0
  0
LINE
  8
LC-008-001-----0
  6
CONTINUOUS
  5
575
 10
566.899865
 20
289.244607
 30
0.0
 11
566.899865
 21
332.245321
 31
0.0
  0
LINE
  8
LC-001-002-----0
  6
CONTINUOUS
  5
576
 10
450.399865
 20
359.74495
 30
0.0
 11
450.399865
 21
289.245002
 31
0.0
  0
LINE
  8
LC-001-002-----0
  6
CONTINUOUS
  5
577
 10
591.399865
 20
289.244607
 30
0.0
 11
591.399865
 21
359.74495
 31
0.0
  0
LINE
  8
LC-001-002-----0
  6
CONTINUOUS
  5
578
 10
591.399865
 20
359.74495
 30
0.0
 11
450.399865
 21
359.74495
 31
0.0
  0
CIRCLE
  8
LC-001-002-----0
  6
CONTINUOUS
  5
579
 10
582.899865
 20
351.24495
 30
0.0
 40
4.5
  0
LINE
  8
LC-001-002-----0
  6
CONTINUOUS
  5
57A
 10
585.399865
 20
350.744952
 30
0.0
 11
585.399864
 21
351.744952
 31
0.0
  0
LINE
  8
LC-001-002-----0
  6
DASHDOT
 62
     2
  5
57B
 10
204.346777
 20
391.887483
 30
0.0
 11
322.608314
 21
460.165744
 31
0.0
  0
LINE
  8
LC-008-001-----0
  6
DASHDOT
 62
     2
  5
57C
 10
205.016649
 20
389.387483
 30
0.0
 11
323.858313
 21
458.00068
 31
0.0
  0
LINE
  8
LC-001-002-----0
  6
DASHDOT
 62
     2
  5
57D
 10
322.608314
 20
460.165744
 30
0.0
 11
323.858313
 21
458.00068
 31
0.0
  0
ARC
  8
LC-001-002-----0
  6
CONTINUOUS
 62
     2
  5
57E
 10
204.345743
 20
389.387483
 30
0.0
 40
138.0
 50
2.127225
 51
28.80193
  0
LINE
  8
LC-001-002-----0
  6
CONTINUOUS
 62
     2
  5
57F
 10
325.273826
 20
455.873563
 30
0.0
 11
326.090044
 21
451.462823
 31
0.0
  0
LINE
  8
LC-001-002-----0
  6
CONTINUOUS
 62
     2
  5
580
 10
325.273826
 20
455.873563
 30
0.0
 11
328.242274
 21
452.923379
 31
0.0
  0
LINE
  8
LC-001-002-----0
  6
CONTINUOUS
 62
     2
  5
581
 10
342.250643
 20
394.509842
 30
0.0
 11
342.877439
 21
399.53195
 31
0.0
  0
LINE
  8
LC-001-002-----0
  6
CONTINUOUS
 62
     2
  5
582
 10
342.250643
 20
394.509842
 30
0.0
 11
341.155655
 21
399.694234
 31
0.0
  0
LINE
  8
LC-001-002-----0
  6
CONTINUOUS
  5
583
 10
445.899865
 20
214.245002
 30
0.0
 11
595.899865
 21
214.245002
 31
0.0
  0
LINE
  8
LC-001-002-----0
  6
CONTINUOUS
  5
584
 10
445.899865
 20
289.245002
 30
0.0
 11
445.899865
 21
214.245002
 31
0.0
  0
LINE
  8
LC-001-002-----0
  6
CONTINUOUS
  5
585
 10
595.899865
 20
214.245002
 30
0.0
 11
595.899865
 21
289.245002
 31
0.0
  0
LINE
  8
LC-001-002-----0
  6
CONTINUOUS
  5
586
 10
450.399865
 20
289.245002
 30
0.0
 11
450.399865
 21
218.745002
 31
0.0
  0
LINE
  8
LC-001-002-----0
  6
CONTINUOUS
  5
587
 10
591.399865
 20
218.745002
 30
0.0
 11
591.399865
 21
289.245002
 31
0.0
  0
LINE
  8
LC-001-002-----0
  6
CONTINUOUS
  5
588
 10
450.399865
 20
218.745002
 30
0.0
 11
591.399865
 21
218.745002
 31
0.0
  0
LINE
  8
LC-001-002-----0
  6
CONTINUOUS
  5
589
 10
451.399865
 20
289.245002
 30
0.0
 11
451.399865
 21
219.745002
 31
0.0
  0
LINE
  8
LC-001-002-----0
  6
CONTINUOUS
  5
58A
 10
451.399865
 20
219.745002
 30
0.0
 11
590.399865
 21
219.745002
 31
0.0
  0
LINE
  8
LC-001-002-----0
  6
CONTINUOUS
  5
58B
 10
590.399865
 20
219.745002
 30
0.0
 11
590.399865
 21
280.07985
 31
0.0
  0
ARC
  8
LC-001-002-----0
  6
CONTINUOUS
  5
58C
 10
594.399865
 20
289.245002
 30
0.0
 40
10.0
 50
180.0
 51
246.421822
  0
LINE
  8
LC-001-002-----0
  6
DASHDOT
 62
     2
  5
58D
 10
445.899865
 20
289.245002
 30
0.0
 11
595.899865
 21
289.245002
 31
0.0
  0
LINE
  8
LC-001-002-----0
  6
CONTINUOUS
  5
58E
 10
445.899865
 20
289.245002
 30
0.0
 11
445.899865
 21
364.245002
 31
0.0
  0
LINE
  8
LC-001-002-----0
  6
CONTINUOUS
  5
58F
 10
445.899865
 20
364.245002
 30
0.0
 11
595.899865
 21
364.245002
 31
0.0
  0
LINE
  8
LC-001-002-----0
  6
CONTINUOUS
  5
590
 10
595.899865
 20
364.245002
 30
0.0
 11
595.899865
 21
289.245002
 31
0.0
  0
LINE
  8
LC-001-002-----0
  6
CONTINUOUS
  5
591
 10
585.399864
 20
351.744952
 30
0.0
 11
583.399864
 21
351.74495
 31
0.0
  0
LINE
  8
LC-001-002-----0
  6
CONTINUOUS
  5
592
 10
580.399864
 20
351.744948
 30
0.0
 11
580.399865
 21
350.744948
 31
0.0
  0
LINE
  8
LC-001-002-----0
  6
CONTINUOUS
  5
593
 10
345.899865
 20
191.38674
 30
0.0
 11
344.560119
 21
186.38674
 31
0.0
  0
LINE
  8
LC-001-002-----0
  6
CONTINUOUS
  5
594
 10
580.399865
 20
350.744948
 30
0.0
 11
582.399865
 21
350.74495
 31
0.0
  0
LINE
  8
LC-001-002-----0
  6
CONTINUOUS
  5
595
 10
344.37436
 20
186.387879
 30
0.0
 11
342.846734
 21
186.38788
 31
0.0
  0
LINE
  8
LC-001-002-----0
  6
CONTINUOUS
  5
596
 10
342.846734
 20
186.38788
 30
0.0
 11
342.846759
 21
362.087438
 31
0.0
  0
LINE
  8
LC-001-002-----0
  6
CONTINUOUS
  5
597
 10
583.399866
 20
348.74495
 30
0.0
 11
582.399866
 21
348.74495
 31
0.0
  0
LINE
  8
LC-001-002-----0
  6
CONTINUOUS
  5
598
 10
582.399866
 20
348.74495
 30
0.0
 11
582.399865
 21
350.74495
 31
0.0
  0
LINE
  8
LC-001-002-----0
  6
CONTINUOUS
  5
599
 10
582.399863
 20
353.74495
 30
0.0
 11
583.399863
 21
353.74495
 31
0.0
  0
LINE
  8
LC-001-002-----0
  6
CONTINUOUS
  5
59A
 10
583.399863
 20
353.74495
 30
0.0
 11
583.399864
 21
351.74495
 31
0.0
  0
LINE
  8
LC-001-002-----0
  6
CONTINUOUS
  5
59B
 10
583.399865
 20
350.74495
 30
0.0
 11
583.399866
 21
348.74495
 31
0.0
  0
LINE
  8
LC-001-002-----0
  6
CONTINUOUS
  5
59C
 10
583.399865
 20
350.74495
 30
0.0
 11
585.399865
 21
350.744952
 31
0.0
  0
LINE
  8
LC-001-002-----0
  6
CONTINUOUS
  5
59D
 10
582.399864
 20
351.74495
 30
0.0
 11
580.399864
 21
351.744948
 31
0.0
  0
LINE
  8
LC-001-002-----0
  6
CONTINUOUS
  5
59E
 10
582.399864
 20
351.74495
 30
0.0
 11
582.399863
 21
353.74495
 31
0.0
  0
LINE
  8
LC-001-002-----0
  6
CONTINUOUS
  5
59F
 10
342.846762
 20
366.587438
 30
0.0
 11
344.346761
 21
365.087439
 31
0.0
  0
LINE
  8
LC-001-002-----0
  6
CONTINUOUS
  5
5A0
 10
345.053867
 20
365.794546
 30
0.0
 11
343.846762
 21
367.001651
 31
0.0
  0
LINE
  8
LC-001-002-----0
  6
CONTINUOUS
  5
5A1
 10
344.346761
 20
365.087439
 30
0.0
 11
345.053867
 21
365.794546
 31
0.0
  0
LINE
  8
LC-001-002-----0
  6
CONTINUOUS
  5
5A2
 10
342.846759
 20
362.087438
 30
0.0
 11
342.846762
 21
366.587438
 31
0.0
  0
LINE
  8
LC-001-002-----0
  6
CONTINUOUS
  5
5A3
 10
345.899865
 20
191.38674
 30
0.0
 11
345.899865
 21
376.587483
 31
0.0
  0
LINE
  8
LC-001-002-----0
  6
CONTINUOUS
  5
5A4
 10
345.899865
 20
376.587483
 30
0.0
 11
349.846768
 21
376.587483
 31
0.0
  0
ARC
  8
LC-001-002-----0
  6
CONTINUOUS
  5
5A5
 10
344.846777
 20
389.587438
 30
0.0
 40
2.0
 50
89.999981
 51
180.0
  0
LINE
  8
LC-001-002-----0
  6
CONTINUOUS
  5
5A6
 10
348.346777
 20
389.587436
 30
0.0
 11
348.346769
 21
378.087435
 31
0.0
  0
ARC
  8
LC-001-002-----0
  6
CONTINUOUS
  5
5A7
 10
346.346777
 20
389.587438
 30
0.0
 40
2.0
 50
359.999963
 51
89.999677
  0
LINE
  8
LC-001-002-----0
  6
CONTINUOUS
  5
5A8
 10
344.899863
 20
391.587438
 30
0.0
 11
346.399863
 21
391.587438
 31
0.0
  0
ARC
  8
LC-001-002-----0
  6
CONTINUOUS
  5
5A9
 10
344.846777
 20
389.587436
 30
0.0
 40
1.0
 50
89.999963
 51
179.999944
  0
LINE
  8
LC-001-002-----0
  6
CONTINUOUS
  5
5AA
 10
343.846777
 20
389.587437
 30
0.0
 11
343.846762
 21
367.001651
 31
0.0
  0
LINE
  8
LC-001-002-----0
  6
CONTINUOUS
  5
5AB
 10
347.346769
 20
378.087435
 30
0.0
 11
347.346777
 21
389.587435
 31
0.0
  0
ARC
  8
LC-001-002-----0
  6
CONTINUOUS
  5
5AC
 10
346.346777
 20
389.587435
 30
0.0
 40
1.0
 50
359.999963
 51
89.999658
  0
LINE
  8
LC-001-002-----0
  6
CONTINUOUS
  5
5AD
 10
346.346777
 20
390.587435
 30
0.0
 11
344.846777
 21
390.587436
 31
0.0
  0
ARC
  8
LC-001-002-----0
  6
CONTINUOUS
  5
5AE
 10
348.346768
 20
378.587434
 30
0.0
 40
1.5
 50
0.0
 51
90.0
  0
LINE
  8
LC-001-002-----0
  6
CONTINUOUS
  5
5AF
 10
349.846768
 20
376.587483
 30
0.0
 11
349.846768
 21
378.587434
 31
0.0
  0
LINE
  8
LC-001-002-----0
  6
CONTINUOUS
  5
5B0
 10
347.346768
 20
378.087435
 30
0.0
 11
348.346768
 21
378.087435
 31
0.0
  0
LINE
  8
LC-001-002-----0
  6
CONTINUOUS
  5
5B1
 10
203.846816
 20
209.38788
 30
0.0
 11
342.846737
 21
209.38788
 31
0.0
  0
ENDSEC
  0
EOF
