  0
SECTION
  2
HEADER
  9
$ACADVER
  1
AC1015
  9
$ACADMAINTVER
 70
     6
  9
$DWGCODEPAGE
  3
DOS850
  9
$INSBASE
 10
0.0
 20
0.0
 30
0.0
  9
$EXTMIN
 10
-174.0
 20
-123.0
 30
0.0
  9
$EXTMAX
 10
1014.0
 20
717.0
 30
0.0
  9
$LIMMIN
 10
-174.0
 20
-123.0
  9
$LIMMAX
 10
1014.0
 20
717.0
  9
$ORTHOMODE
 70
     0
  9
$REGENMODE
 70
     1
  9
$FILLMODE
 70
     1
  9
$QTEXTMODE
 70
     0
  9
$MIRRTEXT
 70
     1
  9
$LTSCALE
 40
2.0
  9
$ATTMODE
 70
     1
  9
$TEXTSIZE
 40
2.5
  9
$TRACEWID
 40
1.0
  9
$TEXTSTYLE
  7
Standard
  9
$CLAYER
  8
0
  9
$CELTYPE
  6
ByLayer
  9
$CECOLOR
 62
     7
  9
$CELTSCALE
 40
1.0
  9
$DISPSILH
 70
     0
  9
$DIMSCALE
 40
2.0
  9
$DIMASZ
 40
3.5
  9
$DIMEXO
 40
0.625
  9
$DIMDLI
 40
3.75
  9
$DIMRND
 40
0.0
  9
$DIMDLE
 40
0.0
  9
$DIMEXE
 40
1.25
  9
$DIMTP
 40
0.0
  9
$DIMTM
 40
0.0
  9
$DIMTXT
 40
3.5
  9
$DIMCEN
 40
2.5
  9
$DIMTSZ
 40
0.0
  9
$DIMTOL
 70
     0
  9
$DIMLIM
 70
     0
  9
$DIMTIH
 70
     0
  9
$DIMTOH
 70
     0
  9
$DIMSE1
 70
     0
  9
$DIMSE2
 70
     0
  9
$DIMTAD
 70
     1
  9
$DIMZIN
 70
     8
  9
$DIMBLK
  1

  9
$DIMASO
 70
     1
  9
$DIMSHO
 70
     1
  9
$DIMPOST
  1

  9
$DIMAPOST
  1

  9
$DIMALT
 70
     0
  9
$DIMALTD
 70
     3
  9
$DIMALTF
 40
0.03937
  9
$DIMLFAC
 40
1.0
  9
$DIMTOFL
 70
     1
  9
$DIMTVP
 40
0.0
  9
$DIMTIX
 70
     0
  9
$DIMSOXD
 70
     0
  9
$DIMSAH
 70
     0
  9
$DIMBLK1
  1

  9
$DIMBLK2
  1

  9
$DIMSTYLE
  2
ISO-25
  9
$DIMCLRD
 70
     0
  9
$DIMCLRE
 70
     0
  9
$DIMCLRT
 70
     0
  9
$DIMTFAC
 40
1.0
  9
$DIMGAP
 40
0.625
  9
$DIMJUST
 70
     0
  9
$DIMSD1
 70
     0
  9
$DIMSD2
 70
     0
  9
$DIMTOLJ
 70
     0
  9
$DIMTZIN
 70
     8
  9
$DIMALTZ
 70
     0
  9
$DIMALTTZ
 70
     0
  9
$DIMUPT
 70
     0
  9
$DIMDEC
 70
     2
  9
$DIMTDEC
 70
     2
  9
$DIMALTU
 70
     2
  9
$DIMALTTD
 70
     3
  9
$DIMTXSTY
  7
Standard
  9
$DIMAUNIT
 70
     0
  9
$DIMADEC
 70
     0
  9
$DIMALTRND
 40
0.0
  9
$DIMAZIN
 70
     0
  9
$DIMDSEP
 70
    44
  9
$DIMATFIT
 70
     3
  9
$DIMFRAC
 70
     0
  9
$DIMLDRBLK
  1

  9
$DIMLUNIT
 70
     2
  9
$DIMLWD
 70
    -2
  9
$DIMLWE
 70
    -2
  9
$DIMTMOVE
 70
     0
  9
$LUNITS
 70
     2
  9
$LUPREC
 70
     4
  9
$SKETCHINC
 40
1.0
  9
$FILLETRAD
 40
10.0
  9
$AUNITS
 70
     0
  9
$AUPREC
 70
     0
  9
$MENU
  1
.
  9
$ELEVATION
 40
0.0
  9
$PELEVATION
 40
0.0
  9
$THICKNESS
 40
0.0
  9
$LIMCHECK
 70
     0
  9
$CHAMFERA
 40
10.0
  9
$CHAMFERB
 40
10.0
  9
$CHAMFERC
 40
20.0
  9
$CHAMFERD
 40
0.0
  9
$SKPOLY
 70
     0
  9
$TDCREATE
 40
2453663.388314213
  9
$TDUCREATE
 40
2453663.30498088
  9
$TDUPDATE
 40
2453663.388314224
  9
$TDUUPDATE
 40
2453663.304980891
  9
$TDINDWG
 40
0.0000000116
  9
$TDUSRTIMER
 40
0.0000000116
  9
$USRTIMER
 70
     1
  9
$ANGBASE
 50
0.0
  9
$ANGDIR
 70
     0
  9
$PDMODE
 70
     0
  9
$PDSIZE
 40
0.0
  9
$PLINEWID
 40
0.0
  9
$SPLFRAME
 70
     0
  9
$SPLINETYPE
 70
     6
  9
$SPLINESEGS
 70
     8
  9
$HANDSEED
  5
A1
  9
$SURFTAB1
 70
     6
  9
$SURFTAB2
 70
     6
  9
$SURFTYPE
 70
     6
  9
$SURFU
 70
     6
  9
$SURFV
 70
     6
  9
$UCSBASE
  2

  9
$UCSNAME
  2

  9
$UCSORG
 10
0.0
 20
0.0
 30
0.0
  9
$UCSXDIR
 10
1.0
 20
0.0
 30
0.0
  9
$UCSYDIR
 10
0.0
 20
1.0
 30
0.0
  9
$UCSORTHOREF
  2

  9
$UCSORTHOVIEW
 70
     0
  9
$UCSORGTOP
 10
0.0
 20
0.0
 30
0.0
  9
$UCSORGBOTTOM
 10
0.0
 20
0.0
 30
0.0
  9
$UCSORGLEFT
 10
0.0
 20
0.0
 30
0.0
  9
$UCSORGRIGHT
 10
0.0
 20
0.0
 30
0.0
  9
$UCSORGFRONT
 10
0.0
 20
0.0
 30
0.0
  9
$UCSORGBACK
 10
0.0
 20
0.0
 30
0.0
  9
$PUCSBASE
  2

  9
$PUCSNAME
  2

  9
$PUCSORG
 10
0.0
 20
0.0
 30
0.0
  9
$PUCSXDIR
 10
1.0
 20
0.0
 30
0.0
  9
$PUCSYDIR
 10
0.0
 20
1.0
 30
0.0
  9
$PUCSORTHOREF
  2

  9
$PUCSORTHOVIEW
 70
     0
  9
$PUCSORGTOP
 10
0.0
 20
0.0
 30
0.0
  9
$PUCSORGBOTTOM
 10
0.0
 20
0.0
 30
0.0
  9
$PUCSORGLEFT
 10
0.0
 20
0.0
 30
0.0
  9
$PUCSORGRIGHT
 10
0.0
 20
0.0
 30
0.0
  9
$PUCSORGFRONT
 10
0.0
 20
0.0
 30
0.0
  9
$PUCSORGBACK
 10
0.0
 20
0.0
 30
0.0
  9
$USERI1
 70
     0
  9
$USERI2
 70
     0
  9
$USERI3
 70
     0
  9
$USERI4
 70
     0
  9
$USERI5
 70
     0
  9
$USERR1
 40
0.0
  9
$USERR2
 40
0.0
  9
$USERR3
 40
0.0
  9
$USERR4
 40
0.0
  9
$USERR5
 40
0.0
  9
$WORLDVIEW
 70
     1
  9
$SHADEDGE
 70
     3
  9
$SHADEDIF
 70
    70
  9
$TILEMODE
 70
     1
  9
$MAXACTVP
 70
    64
  9
$PINSBASE
 10
0.0
 20
0.0
 30
0.0
  9
$PLIMCHECK
 70
     0
  9
$PEXTMIN
 10
-174.0
 20
-123.0
 30
0.0
  9
$PEXTMAX
 10
1014.0
 20
717.0
 30
0.0
  9
$PLIMMIN
 10
-174.0
 20
-123.0
  9
$PLIMMAX
 10
1014.0
 20
717.0
  9
$UNITMODE
 70
     0
  9
$VISRETAIN
 70
     1
  9
$PLINEGEN
 70
     0
  9
$PSLTSCALE
 70
     1
  9
$TREEDEPTH
 70
  3020
  9
$CMLSTYLE
  2
Standard
  9
$CMLJUST
 70
     0
  9
$CMLSCALE
 40
20.0
  9
$PROXYGRAPHICS
 70
     1
  9
$MEASUREMENT
 70
     1
  9
$CELWEIGHT
370
    -1
  9
$ENDCAPS
280
     0
  9
$JOINSTYLE
280
     0
  9
$LWDISPLAY
290
     0
  9
$INSUNITS
 70
     4
  9
$HYPERLINKBASE
  1

  9
$STYLESHEET
  1

  9
$XEDIT
290
     1
  9
$CEPSNTYPE
380
     0
  9
$PSTYLEMODE
290
     1
  9
$FINGERPRINTGUID
  2
{FAEB1C30-E019-11D5-929B-00C0DF256EC4}
  9
$VERSIONGUID
  2
{FAEB1C32-E019-11D5-929B-00C0DF256EC4}
  9
$EXTNAMES
290
     1
  9
$PSVPSCALE
 40
0.0
  9
$OLESTARTUP
290
     0
  0
ENDSEC
  0
SECTION
  2
CLASSES
  0
CLASS
  1
ACDBDICTIONARYWDFLT
  2
AcDbDictionaryWithDefault
  3
ObjectDBX Classes
 90
        0
280
     0
281
     0
  0
CLASS
  1
ACDBPLACEHOLDER
  2
AcDbPlaceHolder
  3
ObjectDBX Classes
 90
        0
280
     0
281
     0
  0
CLASS
  1
LAYOUT
  2
AcDbLayout
  3
ObjectDBX Classes
 90
        0
280
     0
281
     0
  0
ENDSEC
  0
SECTION
  2
TABLES
  0
TABLE
  2
VPORT
  5
8
330
0
100
AcDbSymbolTable
 70
     2
  0
VPORT
  5
29
330
8
100
AcDbSymbolTableRecord
100
AcDbViewportTableRecord
  2
*ACTIVE
 70
     0
 10
0.0
 20
0.0
 11
1.0
 21
1.0
 12
420.0
 22
297.0
 13
0.0
 23
0.0
 14
1.0
 24
1.0
 15
0.0
 25
0.0
 16
0.0
 26
0.0
 36
1.0
 17
0.0
 27
0.0
 37
0.0
 40
840.0
 41
1.414286
 42
50.0
 43
0.0
 44
0.0
 50
0.0
 51
0.0
 71
    16
 72
   100
 73
     1
 74
     0
 75
     0
 76
     0
 77
     0
 78
     0
281
     0
 65
     0
110
0.0
120
0.0
130
0.0
111
1.0
121
0.0
131
0.0
112
0.0
122
1.0
132
0.0
 79
     0
146
0.0
  0
ENDTAB
  0
TABLE
  2
LTYPE
  5
5
330
0
100
AcDbSymbolTable
 70
     3
  0
LTYPE
  5
14
330
5
100
AcDbSymbolTableRecord
100
AcDbLinetypeTableRecord
  2
ByBlock
 70
     0
  3

 72
    65
 73
     0
 40
0.0
  0
LTYPE
  5
15
330
5
100
AcDbSymbolTableRecord
100
AcDbLinetypeTableRecord
  2
ByLayer
 70
     0
  3

 72
    65
 73
     0
 40
0.0
  0
LTYPE
  5
16
330
5
100
AcDbSymbolTableRecord
100
AcDbLinetypeTableRecord
  2
Continuous
 70
     0
  3
Solid line
 72
    65
 73
     0
 40
0.0
  0
LTYPE
  5
2A
330
5
100
AcDbSymbolTableRecord
100
AcDbLinetypeTableRecord
  2
DASHED
 70
     0
  3
__ __ __ __ __
 72
    65
 73
     2
 40
6.25
 49
5.0
 74
     4
 75
     0
340
0
 46
1.0
 50
0.0
 44
0.0
 45
0.0
 49
-1.25
 74
     4
 75
     0
340
0
 46
1.0
 50
0.0
 44
0.0
 45
0.0
  0
LTYPE
  5
33
330
5
100
AcDbSymbolTableRecord
100
AcDbLinetypeTableRecord
  2
DASHDOT
 70
     0
  3
__ . __ . __ . __ . __
 72
    65
 73
     4
 40
7.5
 49
5.0
 74
     4
 75
     0
340
0
 46
1.0
 50
0.0
 44
0.0
 45
0.0
 49
-1.25
 74
     4
 75
     0
340
0
 46
1.0
 50
0.0
 44
0.0
 45
0.0
 49
0.0
 74
     4
 75
     0
340
0
 46
1.0
 50
0.0
 44
0.0
 45
0.0
 49
-1.25
 74
     4
 75
     0
340
0
 46
1.0
 50
0.0
 44
0.0
 45
0.0
  0
ENDTAB
  0
TABLE
  2
LAYER
  5
2
330
0
100
AcDbSymbolTable
 70
    10
  0
LAYER
  5
10
330
2
100
AcDbSymbolTableRecord
100
AcDbLayerTableRecord
  2
0
 70
     0
 62
     7
  6
Continuous
370
    -3
390
F
  0
LAYER
  5
2B
330
2
100
AcDbSymbolTableRecord
100
AcDbLayerTableRecord
  2
LC-INFO-1-2-mm-A2-0
 70
     1
 62
     7
  6
ByBlock
370
    -3
390
F
  0
LAYER
  5
2C
330
2
100
AcDbSymbolTableRecord
100
AcDbLayerTableRecord
  2
LC-CUT-HIDDEN
 70
     0
 62
     7
  6
DASHED
370
    -3
390
F
  0
LAYER
  5
2D
330
2
100
AcDbSymbolTableRecord
100
AcDbLayerTableRecord
  2
LC-VIEWPORT
 70
     0
 62
     7
  6
ByBlock
370
    -3
390
F
  0
LAYER
  5
2E
330
2
100
AcDbSymbolTableRecord
100
AcDbLayerTableRecord
  2
LC-3D-HIDDEN
 70
     0
 62
     9
  6
DASHED
370
    -3
390
F
  0
LAYER
  5
30
330
2
100
AcDbSymbolTableRecord
100
AcDbLayerTableRecord
  2
LC-001-002-----0
 70
     0
 62
     1
  6
ByBlock
370
    -3
390
F
  0
LAYER
  5
3B
330
2
100
AcDbSymbolTableRecord
100
AcDbLayerTableRecord
  2
LC-002-002-3SD-0
 70
     0
 62
     1
  6
ByBlock
370
    -3
390
F
  0
LAYER
  5
5A
330
2
100
AcDbSymbolTableRecord
100
AcDbLayerTableRecord
  2
LC-003-005-----0
 70
     0
 62
     2
  6
ByBlock
370
    -3
390
F
  0
LAYER
  5
77
330
2
100
AcDbSymbolTableRecord
100
AcDbLayerTableRecord
  2
LC-004-003-----0
 70
     0
 62
     2
  6
ByBlock
370
    -3
390
F
  0
LAYER
  5
79
330
2
100
AcDbSymbolTableRecord
100
AcDbLayerTableRecord
  2
Defpoints
 70
     0
 62
     7
  6
Continuous
290
     0
370
    -3
390
F
  0
ENDTAB
  0
TABLE
  2
STYLE
  5
3
330
0
100
AcDbSymbolTable
 70
     3
  0
STYLE
  5
11
330
3
100
AcDbSymbolTableRecord
100
AcDbTextStyleTableRecord
  2
Standard
 70
     0
 40
0.0
 41
1.0
 50
0.0
 71
     0
 42
2.5
  3
txt
  4

  0
STYLE
  5
2F
330
3
100
AcDbSymbolTableRecord
100
AcDbTextStyleTableRecord
  2
LCTX15-400-0-0-Arial
 70
     0
 40
0.0
 41
0.9
 50
0.0
 71
     0
 42
3.5
  3

  4

1001
ACAD
1000
Arial
1071
 16777218
  0
STYLE
  5
75
330
3
100
AcDbSymbolTableRecord
100
AcDbTextStyleTableRecord
  2
LCTX15-400-0-0pDIN-Schrift
 70
     0
 40
2.5
 41
0.8
 50
15.0
 71
     0
 42
3.5
  3
STANDARD
  4

  0
ENDTAB
  0
TABLE
  2
VIEW
  5
6
330
0
100
AcDbSymbolTable
 70
     0
  0
ENDTAB
  0
TABLE
  2
UCS
  5
7
330
0
100
AcDbSymbolTable
 70
     0
  0
ENDTAB
  0
TABLE
  2
APPID
  5
9
330
0
100
AcDbSymbolTable
 70
     1
  0
APPID
  5
12
330
9
100
AcDbSymbolTableRecord
100
AcDbRegAppTableRecord
  2
ACAD
 70
     0
  0
ENDTAB
  0
TABLE
  2
DIMSTYLE
  5
A
330
0
100
AcDbSymbolTable
 70
     2
100
AcDbDimStyleTable
  0
DIMSTYLE
105
27
330
A
100
AcDbSymbolTableRecord
100
AcDbDimStyleTableRecord
  2
ISO-25
 70
     0
 41
2.5
 42
0.625
 43
3.75
 44
1.25
 73
     0
 74
     0
 77
     1
 78
     8
140
2.5
141
2.5
143
0.03937
147
0.625
171
     3
172
     1
271
     2
272
     2
274
     3
278
    44
283
     0
284
     8
340
11
  0
DIMSTYLE
105
76
102
{ACAD_REACTORS
330
78
330
92
102
}
330
A
100
AcDbSymbolTableRecord
100
AcDbDimStyleTableRecord
  2
LC-DIM-L-0140-02-02
 70
     0
 40
2.0
 41
14.0
 42
0.0
 43
7.5
 44
1.8
 73
     0
 74
     0
 77
     1
 78
     8
 79
     2
140
14.0
141
0.0
146
0.71
147
1.5
176
     2
177
     2
178
     2
179
     2
271
     2
278
    44
289
     1
340
75
  0
ENDTAB
  0
TABLE
  2
BLOCK_RECORD
  5
1
330
0
100
AcDbSymbolTable
 70
     7
  0
BLOCK_RECORD
  5
1F
330
1
100
AcDbSymbolTableRecord
100
AcDbBlockTableRecord
  2
*Model_Space
340
22
  0
BLOCK_RECORD
  5
1B
330
1
100
AcDbSymbolTableRecord
100
AcDbBlockTableRecord
  2
*Paper_Space
340
1E
  0
BLOCK_RECORD
  5
23
330
1
100
AcDbSymbolTableRecord
100
AcDbBlockTableRecord
  2
*Paper_Space0
340
26
  0
BLOCK_RECORD
  5
38
330
1
100
AcDbSymbolTableRecord
100
AcDbBlockTableRecord
  2
ELM1
340
0
102
{BLKREFS
331
3C
102
}
  0
BLOCK_RECORD
  5
3D
330
1
100
AcDbSymbolTableRecord
100
AcDbBlockTableRecord
  2
ELM2
340
0
102
{BLKREFS
331
40
102
}
  0
BLOCK_RECORD
  5
57
330
1
100
AcDbSymbolTableRecord
100
AcDbBlockTableRecord
  2
*X13
340
0
102
{BLKREFS
331
64
102
}
  0
BLOCK_RECORD
  5
65
330
1
100
AcDbSymbolTableRecord
100
AcDbBlockTableRecord
  2
*X24
340
0
102
{BLKREFS
331
71
102
}
  0
BLOCK_RECORD
  5
7A
330
1
100
AcDbSymbolTableRecord
100
AcDbBlockTableRecord
  2
*D5
340
0
  0
BLOCK_RECORD
  5
93
330
1
100
AcDbSymbolTableRecord
100
AcDbBlockTableRecord
  2
*D6
340
0
  0
ENDTAB
  0
ENDSEC
  0
SECTION
  2
BLOCKS
  0
BLOCK
  5
20
330
1F
100
AcDbEntity
  8
0
100
AcDbBlockBegin
  2
*Model_Space
 70
     0
 71
     0
 10
0.0
 20
0.0
 30
0.0
  3
*Model_Space
  1

  0
ENDBLK
  5
21
330
1F
100
AcDbEntity
  8
0
100
AcDbBlockEnd
  0
BLOCK
  5
1C
330
1B
100
AcDbEntity
 67
     1
  8
0
100
AcDbBlockBegin
  2
*Paper_Space
 70
     0
 71
     0
 10
0.0
 20
0.0
 30
0.0
  3
*Paper_Space
  1

  0
ENDBLK
  5
1D
330
1B
100
AcDbEntity
 67
     1
  8
0
100
AcDbBlockEnd
  0
BLOCK
  5
24
330
23
100
AcDbEntity
  8
0
100
AcDbBlockBegin
  2
*Paper_Space0
 70
     0
 71
     0
 10
0.0
 20
0.0
 30
0.0
  3
*Paper_Space0
  1

  0
ENDBLK
  5
25
330
23
100
AcDbEntity
  8
0
100
AcDbBlockEnd
  0
BLOCK
  5
39
330
38
100
AcDbEntity
  8
0
100
AcDbBlockBegin
  2
ELM1
 70
     0
 71
     0
 10
0.0
 20
0.0
 30
0.0
  3
ELM1
  1

  4
ELM1
  0
ENDBLK
  5
3A
330
38
100
AcDbEntity
  8
0
100
AcDbBlockEnd
  0
BLOCK
  5
3E
330
3D
100
AcDbEntity
  8
0
100
AcDbBlockBegin
  2
ELM2
 70
     0
 71
     0
 10
0.0
 20
0.0
 30
0.0
  3
ELM2
  1

  4
ELM2
  0
ENDBLK
  5
3F
330
3D
100
AcDbEntity
  8
0
100
AcDbBlockEnd
  0
BLOCK
  5
58
330
57
100
AcDbEntity
  8
0
100
AcDbBlockBegin
  2
*X13
 70
     1
 71
     0
 10
0.0
 20
0.0
 30
0.0
  3
*X13
  1

  4
*X1
  0
LINE
  5
5B
330
57
100
AcDbEntity
  8
LC-003-005-----0
 62
     7
370
    25
100
AcDbLine
 10
231.334658
 20
311.72335
 30
0.0
 11
229.834659
 21
313.223349
 31
0.0
  0
LINE
  5
5C
330
57
100
AcDbEntity
  8
LC-003-005-----0
 62
     7
370
    25
100
AcDbLine
 10
231.334658
 20
308.894923
 30
0.0
 11
229.834659
 21
310.394922
 31
0.0
  0
LINE
  5
5D
330
57
100
AcDbEntity
  8
LC-003-005-----0
 62
     7
370
    25
100
AcDbLine
 10
231.334658
 20
306.066496
 30
0.0
 11
229.834659
 21
307.566494
 31
0.0
  0
LINE
  5
5E
330
57
100
AcDbEntity
  8
LC-003-005-----0
 62
     7
370
    25
100
AcDbLine
 10
231.334658
 20
303.238069
 30
0.0
 11
229.834659
 21
304.738067
 31
0.0
  0
LINE
  5
5F
330
57
100
AcDbEntity
  8
LC-003-005-----0
 62
     7
370
    25
100
AcDbLine
 10
231.334658
 20
300.409642
 30
0.0
 11
229.659462
 21
302.084838
 31
0.0
  0
LINE
  5
60
330
57
100
AcDbEntity
  8
LC-003-005-----0
 62
     7
370
    25
100
AcDbLine
 10
228.631034
 20
300.284838
 30
0.0
 11
226.831034
 21
302.084838
 31
0.0
  0
LINE
  5
61
330
57
100
AcDbEntity
  8
LC-003-005-----0
 62
     7
370
    25
100
AcDbLine
 10
225.802607
 20
300.284838
 30
0.0
 11
224.002607
 21
302.084838
 31
0.0
  0
LINE
  5
62
330
57
100
AcDbEntity
  8
LC-003-005-----0
 62
     7
370
    25
100
AcDbLine
 10
222.97418
 20
300.284838
 30
0.0
 11
221.17418
 21
302.084838
 31
0.0
  0
LINE
  5
63
330
57
100
AcDbEntity
  8
LC-003-005-----0
 62
     7
370
    25
100
AcDbLine
 10
220.145753
 20
300.284838
 30
0.0
 11
220.084659
 21
300.345932
 31
0.0
  0
ENDBLK
  5
59
330
57
100
AcDbEntity
  8
0
100
AcDbBlockEnd
  0
BLOCK
  5
66
330
65
100
AcDbEntity
  8
0
100
AcDbBlockBegin
  2
*X24
 70
     1
 71
     0
 10
0.0
 20
0.0
 30
0.0
  3
*X24
  1

  4
*X2
  0
LINE
  5
68
330
65
100
AcDbEntity
  8
LC-003-005-----0
 62
     7
370
    25
100
AcDbLine
 10
325.834659
 20
313.389871
 30
0.0
 11
325.439692
 21
313.784838
 31
0.0
  0
LINE
  5
69
330
65
100
AcDbEntity
  8
LC-003-005-----0
 62
     7
370
    25
100
AcDbLine
 10
335.584659
 20
300.811444
 30
0.0
 11
334.311265
 21
302.084838
 31
0.0
  0
LINE
  5
6A
330
65
100
AcDbEntity
  8
LC-003-005-----0
 62
     7
370
    25
100
AcDbLine
 10
325.834659
 20
310.561444
 30
0.0
 11
324.334661
 21
312.061442
 31
0.0
  0
LINE
  5
6B
330
65
100
AcDbEntity
  8
LC-003-005-----0
 62
     7
370
    25
100
AcDbLine
 10
333.282838
 20
300.284838
 30
0.0
 11
331.482838
 21
302.084838
 31
0.0
  0
LINE
  5
6C
330
65
100
AcDbEntity
  8
LC-003-005-----0
 62
     7
370
    25
100
AcDbLine
 10
325.834659
 20
307.733017
 30
0.0
 11
324.334661
 21
309.233015
 31
0.0
  0
LINE
  5
6D
330
65
100
AcDbEntity
  8
LC-003-005-----0
 62
     7
370
    25
100
AcDbLine
 10
330.454411
 20
300.284838
 30
0.0
 11
328.654411
 21
302.084838
 31
0.0
  0
LINE
  5
6E
330
65
100
AcDbEntity
  8
LC-003-005-----0
 62
     7
370
    25
100
AcDbLine
 10
325.834659
 20
304.90459
 30
0.0
 11
324.334661
 21
306.404588
 31
0.0
  0
LINE
  5
6F
330
65
100
AcDbEntity
  8
LC-003-005-----0
 62
     7
370
    25
100
AcDbLine
 10
327.625984
 20
300.284838
 30
0.0
 11
324.334661
 21
303.576161
 31
0.0
  0
LINE
  5
70
330
65
100
AcDbEntity
  8
LC-003-005-----0
 62
     7
370
    25
100
AcDbLine
 10
324.797557
 20
300.284838
 30
0.0
 11
324.334661
 21
300.747734
 31
0.0
  0
ENDBLK
  5
67
330
65
100
AcDbEntity
  8
0
100
AcDbBlockEnd
  0
BLOCK
  5
84
330
7A
100
AcDbEntity
  8
0
100
AcDbBlockBegin
  2
*D5
 70
     1
 71
     0
 10
0.0
 20
0.0
 30
0.0
  3
*D5
  1

  0
LINE
  5
7B
330
7A
100
AcDbEntity
  8
LC-004-003-----0
 62
     2
370
    -2
100
AcDbLine
 10
229.834659
 20
313.784838
 30
0.0
 11
229.834659
 21
333.091013
 31
0.0
  0
LINE
  5
7C
330
7A
100
AcDbEntity
  8
LC-004-003-----0
 62
     2
370
    -2
100
AcDbLine
 10
325.834659
 20
313.784838
 30
0.0
 11
325.834659
 21
333.091013
 31
0.0
  0
LINE
  5
7D
330
7A
100
AcDbEntity
  8
LC-004-003-----0
 62
     2
370
    -2
100
AcDbLine
 10
257.834659
 20
329.491013
 30
0.0
 11
297.834659
 21
329.491013
 31
0.0
  0
SOLID
  5
7E
330
7A
100
AcDbEntity
  8
LC-004-003-----0
 62
     2
100
AcDbTrace
 10
257.834659
 20
334.15768
 30
0.0
 11
257.834659
 21
324.824347
 31
0.0
 12
229.834659
 22
329.491013
 32
0.0
 13
229.834659
 23
329.491013
 33
0.0
  0
SOLID
  5
7F
330
7A
100
AcDbEntity
  8
LC-004-003-----0
 62
     2
100
AcDbTrace
 10
297.834659
 20
324.824347
 30
0.0
 11
297.834659
 21
334.15768
 31
0.0
 12
325.834659
 22
329.491013
 32
0.0
 13
325.834659
 23
329.491013
 33
0.0
  0
MTEXT
  5
80
330
7A
100
AcDbEntity
  8
LC-004-003-----0
 62
     2
100
AcDbMText
 10
287.71591
 20
360.291013
 30
0.0
 40
28.0
 41
0.0
 71
     5
 72
     1
  1
\A1;95
  7
LCTX15-400-0-0pDIN-Schrift
 73
     1
 44
1.0
  0
POINT
  5
81
330
7A
100
AcDbEntity
  8
Defpoints
 62
     0
100
AcDbPoint
 10
229.834659
 20
313.784838
 30
0.0
  0
POINT
  5
82
330
7A
100
AcDbEntity
  8
Defpoints
 62
     0
100
AcDbPoint
 10
325.834659
 20
313.784838
 30
0.0
  0
POINT
  5
83
330
7A
100
AcDbEntity
  8
Defpoints
 62
     0
100
AcDbPoint
 10
325.834659
 20
329.491013
 30
0.0
  0
ENDBLK
  5
85
330
7A
100
AcDbEntity
  8
0
100
AcDbBlockEnd
  0
BLOCK
  5
9E
330
93
100
AcDbEntity
  8
0
100
AcDbBlockBegin
  2
*D6
 70
     1
 71
     0
 10
0.0
 20
0.0
 30
0.0
  3
*D6
  1

  0
LINE
  5
94
330
93
100
AcDbEntity
  8
LC-004-003-----0
 62
     2
370
    -2
100
AcDbLine
 10
220.084659
 20
300.284838
 30
0.0
 11
193.406335
 21
300.284838
 31
0.0
  0
LINE
  5
95
330
93
100
AcDbEntity
  8
LC-004-003-----0
 62
     2
370
    -2
100
AcDbLine
 10
229.834659
 20
313.784838
 30
0.0
 11
193.406335
 21
313.784838
 31
0.0
  0
LINE
  5
96
330
93
100
AcDbEntity
  8
LC-004-003-----0
 62
     2
370
    -2
100
AcDbLine
 10
197.006335
 20
272.284838
 30
0.0
 11
197.006335
 21
244.284838
 31
0.0
  0
LINE
  5
97
330
93
100
AcDbEntity
  8
LC-004-003-----0
 62
     2
370
    -2
100
AcDbLine
 10
197.006335
 20
341.784838
 30
0.0
 11
197.006335
 21
357.325636
 31
0.0
  0
SOLID
  5
98
330
93
100
AcDbEntity
  8
LC-004-003-----0
 62
     2
100
AcDbTrace
 10
201.673001
 20
272.284838
 30
0.0
 11
192.339668
 21
272.284838
 31
0.0
 12
197.006335
 22
300.284838
 32
0.0
 13
197.006335
 23
300.284838
 33
0.0
  0
SOLID
  5
99
330
93
100
AcDbEntity
  8
LC-004-003-----0
 62
     2
100
AcDbTrace
 10
192.339668
 20
341.784838
 30
0.0
 11
201.673001
 21
341.784838
 31
0.0
 12
197.006335
 22
313.784838
 32
0.0
 13
197.006335
 23
313.784838
 33
0.0
  0
MTEXT
  5
9A
330
93
100
AcDbEntity
  8
LC-004-003-----0
 62
     2
100
AcDbMText
 10
166.206335
 20
321.774348
 30
0.0
 40
28.0
 41
0.0
 71
     5
 72
     1
  1
\A1;13,5
  7
LCTX15-400-0-0pDIN-Schrift
 11
6.123031769111886E-17
 21
1.0
 31
0.0
 73
     1
 44
1.0
  0
POINT
  5
9B
330
93
100
AcDbEntity
  8
Defpoints
 62
     0
100
AcDbPoint
 10
220.084659
 20
300.284838
 30
0.0
  0
POINT
  5
9C
330
93
100
AcDbEntity
  8
Defpoints
 62
     0
100
AcDbPoint
 10
229.834659
 20
313.784838
 30
0.0
  0
POINT
  5
9D
330
93
100
AcDbEntity
  8
Defpoints
 62
     0
100
AcDbPoint
 10
197.006335
 20
313.784838
 30
0.0
  0
ENDBLK
  5
9F
330
93
100
AcDbEntity
  8
0
100
AcDbBlockEnd
  0
ENDSEC
  0
SECTION
  2
ENTITIES
  0
CIRCLE
  5
31
330
1F
100
AcDbEntity
  8
LC-001-002-----0
 62
     7
370
    50
100
AcDbCircle
 10
485.334659
 20
307.034838
 30
0.0
 40
46.00001499999917
  0
LINE
  5
32
330
1F
100
AcDbEntity
  8
LC-001-002-----0
 62
     7
370
    25
100
AcDbLine
 10
238.194398
 20
341.223623
 30
0.0
 11
238.194398
 21
356.223623
 31
0.0
  0
LINE
  5
34
330
1F
100
AcDbEntity
  8
LC-001-002-----0
  6
DASHDOT
 62
     7
370
    25
100
AcDbLine
 10
277.834659
 20
300.284838
 30
0.0
 11
277.834659
 21
313.784838
 31
0.0
  0
LINE
  5
35
330
1F
100
AcDbEntity
  8
LC-001-002-----0
 62
     7
370
    25
100
AcDbLine
 10
238.194398
 20
356.223623
 30
0.0
 11
253.194398
 21
356.223623
 31
0.0
  0
LINE
  5
36
330
1F
100
AcDbEntity
  8
LC-001-002-----0
 62
     7
370
    25
100
AcDbLine
 10
253.194398
 20
356.223623
 30
0.0
 11
253.194398
 21
341.223623
 31
0.0
  0
LINE
  5
37
330
1F
100
AcDbEntity
  8
LC-001-002-----0
 62
     7
370
    25
100
AcDbLine
 10
253.194398
 20
341.223623
 30
0.0
 11
238.194398
 21
341.223623
 31
0.0
  0
INSERT
  5
3C
330
1F
100
AcDbEntity
  8
LC-002-002-3SD-0
 62
     7
370
    50
100
AcDbBlockReference
  2
ELM1
 10
0.0
 20
0.0
 30
0.0
  0
INSERT
  5
40
330
1F
100
AcDbEntity
  8
LC-002-002-3SD-0
 62
     7
370
    50
100
AcDbBlockReference
  2
ELM2
 10
0.0
 20
0.0
 30
0.0
  0
LINE
  5
41
102
{ACAD_REACTORS
330
A0
102
}
330
1F
100
AcDbEntity
  8
LC-001-002-----0
 62
     7
370
    50
100
AcDbLine
 10
309.486077
 20
306.784838
 30
0.0
 11
309.486077
 21
300.284838
 31
0.0
  0
LINE
  5
42
102
{ACAD_REACTORS
330
A0
102
}
330
1F
100
AcDbEntity
  8
LC-001-002-----0
 62
     7
370
    50
100
AcDbLine
 10
246.183241
 20
306.784838
 30
0.0
 11
246.183241
 21
300.284838
 31
0.0
  0
LINE
  5
43
102
{ACAD_REACTORS
330
A0
102
}
330
1F
100
AcDbEntity
  8
LC-001-002-----0
 62
     7
370
    50
100
AcDbLine
 10
324.334659
 20
313.784838
 30
0.0
 11
231.334659
 21
313.784838
 31
0.0
  0
LINE
  5
44
102
{ACAD_REACTORS
330
A0
102
}
330
1F
100
AcDbEntity
  8
LC-001-002-----0
 62
     7
370
    50
100
AcDbLine
 10
231.334658
 20
300.284838
 30
0.0
 11
231.334658
 21
306.784838
 31
0.0
  0
LINE
  5
45
102
{ACAD_REACTORS
330
A0
102
}
330
1F
100
AcDbEntity
  8
LC-001-002-----0
 62
     7
370
    50
100
AcDbLine
 10
229.834659
 20
313.784838
 30
0.0
 11
229.834659
 21
302.084838
 31
0.0
  0
LINE
  5
46
102
{ACAD_REACTORS
330
A0
102
}
330
1F
100
AcDbEntity
  8
LC-001-002-----0
 62
     7
370
    50
100
AcDbLine
 10
325.834659
 20
302.084838
 30
0.0
 11
325.834659
 21
313.784838
 31
0.0
  0
LINE
  5
47
102
{ACAD_REACTORS
330
A0
102
}
330
1F
100
AcDbEntity
  8
LC-001-002-----0
 62
     7
370
    50
100
AcDbLine
 10
324.334661
 20
313.784838
 30
0.0
 11
324.334661
 21
300.284838
 31
0.0
  0
LINE
  5
48
102
{ACAD_REACTORS
330
A0
102
}
330
1F
100
AcDbEntity
  8
LC-001-002-----0
 62
     7
370
    50
100
AcDbLine
 10
231.334658
 20
300.284838
 30
0.0
 11
231.334658
 21
313.784838
 31
0.0
  0
LINE
  5
49
102
{ACAD_REACTORS
330
A0
102
}
330
1F
100
AcDbEntity
  8
LC-001-002-----0
 62
     7
370
    50
100
AcDbLine
 10
231.334658
 20
300.284838
 30
0.0
 11
231.334658
 21
306.784838
 31
0.0
  0
LINE
  5
4A
102
{ACAD_REACTORS
330
A0
102
}
330
1F
100
AcDbEntity
  8
LC-001-002-----0
 62
     7
370
    50
100
AcDbLine
 10
324.334659
 20
313.784838
 30
0.0
 11
324.334659
 21
308.284838
 31
0.0
  0
LINE
  5
4B
102
{ACAD_REACTORS
330
A0
102
}
330
1F
100
AcDbEntity
  8
LC-001-002-----0
 62
     7
370
    50
100
AcDbLine
 10
324.334661
 20
306.784838
 30
0.0
 11
324.334661
 21
300.284838
 31
0.0
  0
LINE
  5
4C
102
{ACAD_REACTORS
330
A0
102
}
330
1F
100
AcDbEntity
  8
LC-001-002-----0
 62
     7
370
    50
100
AcDbLine
 10
325.834659
 20
302.084838
 30
0.0
 11
325.834659
 21
313.784838
 31
0.0
  0
LINE
  5
4D
102
{ACAD_REACTORS
330
A0
102
}
330
1F
100
AcDbEntity
  8
LC-001-002-----0
 62
     7
370
    50
100
AcDbLine
 10
324.334659
 20
313.784838
 30
0.0
 11
324.334659
 21
308.284838
 31
0.0
  0
LINE
  5
4E
102
{ACAD_REACTORS
330
A0
102
}
330
1F
100
AcDbEntity
  8
LC-001-002-----0
 62
     7
370
    50
100
AcDbLine
 10
325.834659
 20
313.784838
 30
0.0
 11
324.334659
 21
313.784838
 31
0.0
  0
LINE
  5
4F
102
{ACAD_REACTORS
330
A0
102
}
330
1F
100
AcDbEntity
  8
LC-001-002-----0
 62
     7
370
    50
100
AcDbLine
 10
325.834659
 20
302.084838
 30
0.0
 11
325.834659
 21
313.784838
 31
0.0
  0
LINE
  5
50
102
{ACAD_REACTORS
330
A0
102
}
330
1F
100
AcDbEntity
  8
LC-001-002-----0
 62
     7
370
    50
100
AcDbLine
 10
335.584659
 20
302.084838
 30
0.0
 11
325.834659
 21
302.084838
 31
0.0
  0
LINE
  5
51
102
{ACAD_REACTORS
330
A0
102
}
330
1F
100
AcDbEntity
  8
LC-001-002-----0
 62
     7
370
    50
100
AcDbLine
 10
335.584659
 20
300.284838
 30
0.0
 11
335.584659
 21
302.084838
 31
0.0
  0
LINE
  5
52
102
{ACAD_REACTORS
330
A0
102
}
330
1F
100
AcDbEntity
  8
LC-001-002-----0
 62
     7
370
    50
100
AcDbLine
 10
324.334661
 20
306.784838
 30
0.0
 11
324.334661
 21
300.284838
 31
0.0
  0
LINE
  5
53
102
{ACAD_REACTORS
330
A0
102
}
330
1F
100
AcDbEntity
  8
LC-001-002-----0
 62
     7
370
    50
100
AcDbLine
 10
231.334658
 20
300.284838
 30
0.0
 11
231.334658
 21
306.784838
 31
0.0
  0
LINE
  5
54
102
{ACAD_REACTORS
330
A0
102
}
330
1F
100
AcDbEntity
  8
LC-001-002-----0
 62
     7
370
    50
100
AcDbLine
 10
220.084659
 20
302.084838
 30
0.0
 11
220.084659
 21
300.284838
 31
0.0
  0
LINE
  5
55
102
{ACAD_REACTORS
330
A0
102
}
330
1F
100
AcDbEntity
  8
LC-001-002-----0
 62
     7
370
    50
100
AcDbLine
 10
229.834659
 20
302.084838
 30
0.0
 11
220.084659
 21
302.084838
 31
0.0
  0
LINE
  5
56
102
{ACAD_REACTORS
330
A0
102
}
330
1F
100
AcDbEntity
  8
LC-001-002-----0
 62
     7
370
    50
100
AcDbLine
 10
231.334659
 20
313.784838
 30
0.0
 11
229.834659
 21
313.784838
 31
0.0
  0
INSERT
  5
64
102
{ACAD_REACTORS
330
A0
102
}
330
1F
100
AcDbEntity
  8
LC-003-005-----0
 62
     7
370
    25
100
AcDbBlockReference
  2
*X13
 10
0.0
 20
0.0
 30
0.0
  0
INSERT
  5
71
102
{ACAD_REACTORS
330
A0
102
}
330
1F
100
AcDbEntity
  8
LC-003-005-----0
 62
     7
370
    25
100
AcDbBlockReference
  2
*X24
 10
0.0
 20
0.0
 30
0.0
  0
LINE
  5
72
102
{ACAD_REACTORS
330
A0
102
}
330
1F
100
AcDbEntity
  8
LC-001-002-----0
 62
     7
370
    50
100
AcDbLine
 10
324.334659
 20
308.284838
 30
0.0
 11
231.334659
 21
308.284838
 31
0.0
  0
LINE
  5
73
102
{ACAD_REACTORS
330
A0
102
}
330
1F
100
AcDbEntity
  8
LC-001-002-----0
 62
     7
370
    50
100
AcDbLine
 10
231.334659
 20
306.784838
 30
0.0
 11
324.334661
 21
306.784838
 31
0.0
  0
LINE
  5
74
102
{ACAD_REACTORS
330
A0
102
}
330
1F
100
AcDbEntity
  8
LC-001-002-----0
 62
     7
370
    50
100
AcDbLine
 10
220.084659
 20
300.284838
 30
0.0
 11
335.584659
 21
300.284838
 31
0.0
  0
DIMENSION
  5
78
330
1F
100
AcDbEntity
  8
LC-004-003-----0
 62
     7
370
    25
100
AcDbDimension
  2
*D5
 10
325.834659
 20
329.491013
 30
0.0
 11
287.71591
 21
360.291013
 31
0.0
 70
   160
  1
95
 71
     5
 42
96.0
  3
LC-DIM-L-0140-02-02
100
AcDbAlignedDimension
 13
229.834659
 23
313.784838
 33
0.0
 14
325.834659
 24
313.784838
 34
0.0
100
AcDbRotatedDimension
  0
LINE
  5
86
330
1F
100
AcDbEntity
  8
LC-001-002-----0
 62
     7
370
    50
100
AcDbLine
 10
439.334674
 20
353.034823
 30
0.0
 11
439.334674
 21
261.034823
 31
0.0
  0
LINE
  5
87
330
1F
100
AcDbEntity
  8
LC-001-002-----0
 62
     7
370
    50
100
AcDbLine
 10
531.334674
 20
353.034823
 30
0.0
 11
439.334674
 21
353.034823
 31
0.0
  0
LINE
  5
88
330
1F
100
AcDbEntity
  8
LC-001-002-----0
 62
     7
370
    50
100
AcDbLine
 10
439.334674
 20
261.034823
 30
0.0
 11
531.334674
 21
261.034823
 31
0.0
  0
LINE
  5
89
330
1F
100
AcDbEntity
  8
LC-001-002-----0
 62
     7
370
    50
100
AcDbLine
 10
531.334674
 20
261.034823
 30
0.0
 11
531.334674
 21
353.034823
 31
0.0
  0
ARC
  5
8A
330
1F
100
AcDbEntity
  8
LC-001-002-----0
 62
     7
370
    50
100
AcDbCircle
 10
485.334659
 20
307.034838
 30
0.0
 40
57.49999999999999
100
AcDbArc
 50
235.698874
 51
304.301126
  0
LINE
  5
8B
330
1F
100
AcDbEntity
  8
LC-001-002-----0
 62
     7
370
    50
100
AcDbLine
 10
437.834674
 20
259.534823
 30
0.0
 11
532.834674
 21
259.534823
 31
0.0
  0
LINE
  5
8C
330
1F
100
AcDbEntity
  8
LC-001-002-----0
 62
     7
370
    50
100
AcDbLine
 10
437.834674
 20
354.534823
 30
0.0
 11
437.834674
 21
259.534823
 31
0.0
  0
LINE
  5
8D
330
1F
100
AcDbEntity
  8
LC-001-002-----0
 62
     7
370
    50
100
AcDbLine
 10
532.834674
 20
259.534823
 30
0.0
 11
532.834674
 21
354.534823
 31
0.0
  0
LINE
  5
8E
330
1F
100
AcDbEntity
  8
LC-001-002-----0
 62
     7
370
    50
100
AcDbLine
 10
532.834674
 20
354.534823
 30
0.0
 11
437.834674
 21
354.534823
 31
0.0
  0
ARC
  5
8F
330
1F
100
AcDbEntity
  8
LC-001-002-----0
 62
     7
370
    50
100
AcDbCircle
 10
485.334659
 20
307.034838
 30
0.0
 40
57.49999999999994
100
AcDbArc
 50
325.698874
 51
34.301126
  0
ARC
  5
90
330
1F
100
AcDbEntity
  8
LC-001-002-----0
 62
     7
370
    50
100
AcDbCircle
 10
485.334659
 20
307.034838
 30
0.0
 40
57.49999999999999
100
AcDbArc
 50
55.698821
 51
124.301179
  0
ARC
  5
91
330
1F
100
AcDbEntity
  8
LC-001-002-----0
 62
     7
370
    50
100
AcDbCircle
 10
485.334659
 20
307.034838
 30
0.0
 40
57.49999999999999
100
AcDbArc
 50
145.698821
 51
214.301179
  0
DIMENSION
  5
92
330
1F
100
AcDbEntity
  8
LC-004-003-----0
 62
     7
370
    25
100
AcDbDimension
  2
*D6
 10
197.006335
 20
313.784838
 30
0.0
 11
166.206335
 21
321.774348
 31
0.0
 70
   160
 71
     5
 42
13.5
 53
90.0
  3
LC-DIM-L-0140-02-02
100
AcDbAlignedDimension
 13
220.084659
 23
300.284838
 33
0.0
 14
229.834659
 24
313.784838
 34
0.0
 50
90.0
100
AcDbRotatedDimension
  0
ENDSEC
  0
SECTION
  2
OBJECTS
  0
DICTIONARY
  5
C
330
0
100
AcDbDictionary
281
     1
  3
ACAD_GROUP
350
D
  3
ACAD_LAYOUT
350
1A
  3
ACAD_MLINESTYLE
350
17
  3
ACAD_PLOTSETTINGS
350
19
  3
ACAD_PLOTSTYLENAME
350
E
  0
DICTIONARY
  5
D
102
{ACAD_REACTORS
330
C
102
}
330
C
100
AcDbDictionary
281
     1
  3
LCGROUP2245
350
A0
  0
DICTIONARY
  5
1A
102
{ACAD_REACTORS
330
C
102
}
330
C
100
AcDbDictionary
281
     1
  3
Layout1
350
1E
  3
Layout2
350
26
  3
Model
350
22
  0
DICTIONARY
  5
17
102
{ACAD_REACTORS
330
C
102
}
330
C
100
AcDbDictionary
281
     1
  3
Standard
350
18
  0
DICTIONARY
  5
19
102
{ACAD_REACTORS
330
C
102
}
330
C
100
AcDbDictionary
281
     1
  0
ACDBDICTIONARYWDFLT
  5
E
102
{ACAD_REACTORS
330
C
102
}
330
C
100
AcDbDictionary
281
     1
  3
Normal
350
F
100
AcDbDictionaryWithDefault
340
F
  0
GROUP
  5
A0
102
{ACAD_REACTORS
330
D
102
}
330
D
100
AcDbGroup
300
K÷rper-10
 70
     1
 71
     1
340
41
340
42
340
43
340
44
340
45
340
46
340
47
340
48
340
49
340
4A
340
4B
340
4C
340
4D
340
4E
340
4F
340
50
340
51
340
52
340
53
340
54
340
55
340
56
340
64
340
71
340
72
340
73
340
74
  0
LAYOUT
  5
1E
102
{ACAD_REACTORS
330
1A
102
}
330
1A
100
AcDbPlotSettings
  1

  2

  4

  6

 40
0.0
 41
0.0
 42
0.0
 43
0.0
 44
0.0
 45
0.0
 46
0.0
 47
0.0
 48
0.0
 49
0.0
140
0.0
141
0.0
142
1.0
143
1.0
 70
   688
 72
     0
 73
     0
 74
     5
  7

 75
    16
147
1.0
148
0.0
149
0.0
100
AcDbLayout
  1
Layout1
 70
     1
 71
     1
 10
-174.0
 20
-123.0
 11
1014.0
 21
717.0
 12
0.0
 22
0.0
 32
0.0
 14
-174.0
 24
-123.0
 34
0.0
 15
1014.0
 25
717.0
 35
0.0
146
0.0
 13
0.0
 23
0.0
 33
0.0
 16
1.0
 26
0.0
 36
0.0
 17
0.0
 27
1.0
 37
0.0
 76
     0
330
1B
  0
LAYOUT
  5
26
102
{ACAD_REACTORS
330
1A
102
}
330
1A
100
AcDbPlotSettings
  1

  2

  4

  6

 40
0.0
 41
0.0
 42
0.0
 43
0.0
 44
0.0
 45
0.0
 46
0.0
 47
0.0
 48
0.0
 49
0.0
140
0.0
141
0.0
142
1.0
143
1.0
 70
   688
 72
     0
 73
     0
 74
     5
  7

 75
    16
147
1.0
148
0.0
149
0.0
100
AcDbLayout
  1
Layout2
 70
     1
 71
     2
 10
0.0
 20
0.0
 11
0.0
 21
0.0
 12
0.0
 22
0.0
 32
0.0
 14
0.0
 24
0.0
 34
0.0
 15
0.0
 25
0.0
 35
0.0
146
0.0
 13
0.0
 23
0.0
 33
0.0
 16
1.0
 26
0.0
 36
0.0
 17
0.0
 27
1.0
 37
0.0
 76
     0
330
23
  0
LAYOUT
  5
22
102
{ACAD_REACTORS
330
1A
102
}
330
1A
100
AcDbPlotSettings
  1

  2

  4

  6

 40
0.0
 41
0.0
 42
0.0
 43
0.0
 44
0.0
 45
0.0
 46
0.0
 47
0.0
 48
0.0
 49
0.0
140
0.0
141
0.0
142
1.0
143
1.0
 70
  1776
 72
     0
 73
     0
 74
     0
  7

 75
     0
147
1.0
148
0.0
149
0.0
100
AcDbLayout
  1
Model
 70
     1
 71
     0
 10
-174.0
 20
-123.0
 11
1014.0
 21
717.0
 12
0.0
 22
0.0
 32
0.0
 14
-174.0
 24
-123.0
 34
0.0
 15
1014.0
 25
717.0
 35
0.0
146
0.0
 13
0.0
 23
0.0
 33
0.0
 16
1.0
 26
0.0
 36
0.0
 17
0.0
 27
1.0
 37
0.0
 76
     0
330
1F
  0
MLINESTYLE
  5
18
102
{ACAD_REACTORS
330
17
102
}
330
17
100
AcDbMlineStyle
  2
Standard
 70
     0
  3

 62
   256
 51
90.0
 52
90.0
 71
     2
 49
0.5
 62
   256
  6
BYLAYER
 49
-0.5
 62
   256
  6
BYLAYER
  0
ACDBPLACEHOLDER
  5
F
102
{ACAD_REACTORS
330
E
102
}
330
E
  0
ENDSEC
  0
EOF
