  0
SECTION
  2
HEADER
  9
$ACADVER
  1
AC1009
  9
$INSBASE
 10
0.0
 20
0.0
 30
0.0
  9
$EXTMIN
 10
-143.364436
 20
-178.758
 30
0.0
  9
$EXTMAX
 10
696.635564
 20
415.242
 30
0.0
  9
$LIMMIN
 10
-143.364436
 20
-178.758
  9
$LIMMAX
 10
696.635564
 20
415.242
  9
$ORTHOMODE
 70
     0
  9
$REGENMODE
 70
     1
  9
$FILLMODE
 70
     1
  9
$QTEXTMODE
 70
     0
  9
$MIRRTEXT
 70
     1
  9
$DRAGMODE
 70
     2
  9
$LTSCALE
 40
2.0
  9
$OSMODE
 70
     0
  9
$ATTMODE
 70
     1
  9
$TEXTSIZE
 40
0.2
  9
$TRACEWID
 40
0.05
  9
$TEXTSTYLE
  7
STANDARD
  9
$CLAYER
  8
0
  9
$CELTYPE
  6
BYLAYER
  9
$CECOLOR
 62
     7
  9
$DIMSCALE
 40
2.0
  9
$DIMASZ
 40
3.5
  9
$DIMEXO
 40
0.0625
  9
$DIMDLI
 40
0.38
  9
$DIMRND
 40
0.0
  9
$DIMDLE
 40
0.0
  9
$DIMEXE
 40
0.18
  9
$DIMTP
 40
0.0
  9
$DIMTM
 40
0.0
  9
$DIMTXT
 40
3.5
  9
$DIMCEN
 40
0.09
  9
$DIMTSZ
 40
0.0
  9
$DIMTOL
 70
     0
  9
$DIMLIM
 70
     0
  9
$DIMTIH
 70
     1
  9
$DIMTOH
 70
     1
  9
$DIMSE1
 70
     0
  9
$DIMSE2
 70
     0
  9
$DIMTAD
 70
     1
  9
$DIMZIN
 70
     0
  9
$DIMBLK
  1

  9
$DIMASO
 70
     1
  9
$DIMSHO
 70
     1
  9
$DIMPOST
  1

  9
$DIMAPOST
  1

  9
$DIMALT
 70
     0
  9
$DIMALTD
 70
     2
  9
$DIMALTF
 40
25.4
  9
$DIMLFAC
 40
1.0
  9
$DIMTOFL
 70
     0
  9
$DIMTVP
 40
0.0
  9
$DIMTIX
 70
     0
  9
$DIMSOXD
 70
     0
  9
$DIMSAH
 70
     0
  9
$DIMBLK1
  1

  9
$DIMBLK2
  1

  9
$DIMSTYLE
  2
STANDARD
  9
$DIMCLRD
 70
     0
  9
$DIMCLRE
 70
     0
  9
$DIMCLRT
 70
     0
  9
$DIMTFAC
 40
1.0
  9
$DIMGAP
 40
0.09
  9
$LUNITS
 70
     2
  9
$LUPREC
 70
     2
  9
$AXISMODE
 70
     0
  9
$AXISUNIT
 10
0.0
 20
0.0
  9
$SKETCHINC
 40
0.1
  9
$FILLETRAD
 40
0.0
  9
$AUNITS
 70
     0
  9
$AUPREC
 70
     0
  9
$MENU
  1
acad
  9
$ELEVATION
 40
0.0
  9
$PELEVATION
 40
0.0
  9
$THICKNESS
 40
0.0
  9
$LIMCHECK
 70
     0
  9
$BLIPMODE
 70
     1
  9
$CHAMFERA
 40
0.0
  9
$CHAMFERB
 40
0.0
  9
$SKPOLY
 70
     0
  9
$TDCREATE
 40
0.000000000
  9
$TDUPDATE
 40
0.000000000
  9
$TDINDWG
 40
0.0000000000
  9
$TDUSRTIMER
 40
0.0000000000
  9
$USRTIMER
 70
     1
  9
$ANGBASE
 50
0.0
  9
$ANGDIR
 70
     0
  9
$PDMODE
 70
     0
  9
$PDSIZE
 40
0.0
  9
$PLINEWID
 40
0.0
  9
$COORDS
 70
     0
  9
$SPLFRAME
 70
     0
  9
$SPLINETYPE
 70
     6
  9
$SPLINESEGS
 70
     8
  9
$ATTDIA
 70
     0
  9
$ATTREQ
 70
     1
  9
$HANDLING
 70
     1
  9
$HANDSEED
  5
25C
  9
$SURFTAB1
 70
     6
  9
$SURFTAB2
 70
     6
  9
$SURFTYPE
 70
     6
  9
$SURFU
 70
     6
  9
$SURFV
 70
     6
  9
$UCSNAME
  2

  9
$UCSORG
 10
0.0
 20
0.0
 30
0.0
  9
$UCSXDIR
 10
1.0
 20
0.0
 30
0.0
  9
$UCSYDIR
 10
0.0
 20
1.0
 30
0.0
  9
$PUCSNAME
  2

  9
$PUCSORG
 10
0.0
 20
0.0
 30
0.0
  9
$PUCSXDIR
 10
1.0
 20
0.0
 30
0.0
  9
$PUCSYDIR
 10
0.0
 20
1.0
 30
0.0
  9
$USERI1
 70
     0
  9
$USERI2
 70
     0
  9
$USERI3
 70
     0
  9
$USERI4
 70
     0
  9
$USERI5
 70
     0
  9
$USERR1
 40
0.0
  9
$USERR2
 40
0.0
  9
$USERR3
 40
0.0
  9
$USERR4
 40
0.0
  9
$USERR5
 40
0.0
  9
$WORLDVIEW
 70
     1
  9
$SHADEDGE
 70
     3
  9
$SHADEDIF
 70
    70
  9
$TILEMODE
 70
     1
  9
$MAXACTVP
 70
    16
  9
$PINSBASE
 10
0.0
 20
0.0
 30
0.0
  9
$PLIMCHECK
 70
     0
  9
$PEXTMIN
 10
1.000000E+20
 20
1.000000E+20
 30
1.000000E+20
  9
$PEXTMAX
 10
-1.000000E+20
 20
-1.000000E+20
 30
-1.000000E+20
  9
$PLIMMIN
 10
-143.364436
 20
-178.758
  9
$PLIMMAX
 10
696.635564
 20
415.242
  9
$UNITMODE
 70
     0
  9
$VISRETAIN
 70
     0
  9
$PLINEGEN
 70
     1
  9
$PSLTSCALE
 70
     0
  9
$TREEDEPTH
 70
  3020
  9
$DWGCODEPAGE
  3
dos850
  0
ENDSEC
  0
SECTION
  2
TABLES
  0
TABLE
  2
VPORT
 70
     1
  0
VPORT
  2
*ACTIVE
 70
     0
 10
0.0
 20
0.0
 11
1.0
 21
1.0
 12
420.0
 22
297.0
 13
0.0
 23
0.0
 14
1.0
 24
1.0
 15
0.0
 25
0.0
 16
0.0
 26
0.0
 36
1.0
 17
-143.364436
 27
-178.758
 37
0.0
 40
594.0
 41
1.604229
 42
50.0
 43
0.0
 44
0.0
 50
0.0
 51
0.0
 71
     0
 72
   100
 73
     1
 74
     1
 75
     0
 76
     0
 77
     0
 78
     0
  0
ENDTAB
  0
TABLE
  2
LTYPE
 70
     3
  0
LTYPE
  2
CONTINUOUS
 70
    64
  3
Solid line
 72
    65
 73
     0
 40
0.0
  0
LTYPE
  2
DASHDOT
 70
    64
  3
__ . __ . __ . __ . __
 72
    65
 73
     4
 40
7.5
 49
5.0
 49
-1.25
 49
0.0
 49
-1.25
  0
LTYPE
  2
CENTER
 70
    64
  3
__ . __ . __ . __ . __
 72
    65
 73
     4
 40
7.5
 49
5.0
 49
-1.25
 49
0.0
 49
-1.25
  0
ENDTAB
  0
TABLE
  2
LAYER
 70
    12
  0
LAYER
  2
0
 70
     0
 62
     7
  6
CONTINUOUS
  0
LAYER
  2
LC-INFO-1-2-MM-A3-0
 70
     1
 62
    -1
  6
CONTINUOUS
  0
LAYER
  2
LC-003-005-----0
 70
     0
 62
     2
  6
CONTINUOUS
  0
LAYER
  2
LC-006-003-MTH-0
 70
     0
 62
     2
  6
CONTINUOUS
  0
LAYER
  2
LC-007-003-MTG-0
 70
     0
 62
     2
  6
CONTINUOUS
  0
LAYER
  2
LC-005-003-----0
 70
     0
 62
     2
  6
CONTINUOUS
  0
LAYER
  2
LC-004-000-----0
 70
     0
 62
     7
  6
CONTINUOUS
  0
LAYER
  2
LC-009-000-----0
 70
     0
 62
     7
  6
CONTINUOUS
  0
LAYER
  2
LC-001-002-----0
 70
     0
 62
     1
  6
CONTINUOUS
  0
LAYER
  2
LC-002-002-RND-0
 70
     0
 62
     1
  6
CONTINUOUS
  0
LAYER
  2
LC-008-006-MLN-0
 70
     0
 62
     2
  6
CENTER
  0
LAYER
  2
LC-000
 70
     0
 62
     7
  6
CONTINUOUS
  0
ENDTAB
  0
TABLE
  2
STYLE
 70
     5
  0
STYLE
  2
STANDARD
 70
     0
 40
0.0
 41
1.0
 50
0.0
 71
     0
 42
0.0
  3
txt
  4

  0
STYLE
  2
LC-STANDARD
 70
    64
 40
0.0
 41
1.0
 50
0.0
 71
     0
 42
3.5
  3
MONOTXT
  4

  0
STYLE
  2
LC-TXTSTYLE-150-400-0-0-A2
 70
    64
 40
0.0
 41
1.0
 50
15.0
 71
     0
 42
3.5
  3
MONOTXT
  4

  0
STYLE
  2
LC-TXTSTYLE-0-400-0-0-DIN3
 70
    64
 40
0.0
 41
1.0
 50
0.0
 71
     0
 42
3.5
  3
MONOTXT
  4

  0
STYLE
  2
LC-TXTSTYLE-150-400-0-0-D4
 70
    64
 40
0.0
 41
1.0
 50
15.0
 71
     0
 42
3.5
  3
LC-STANDARD
  4

  0
ENDTAB
  0
TABLE
  2
VIEW
 70
     0
  0
ENDTAB
  0
TABLE
  2
UCS
 70
     0
  0
ENDTAB
  0
TABLE
  2
APPID
 70
     1
  0
APPID
  2
ACAD
 70
     0
  0
ENDTAB
  0
TABLE
  2
DIMSTYLE
 70
     3
  0
DIMSTYLE
  2
STANDARD
 70
     0
  3

  4

  5

  6

  7

 40
1.0
 41
0.18
 42
0.0625
 43
0.38
 44
0.18
 45
0.0
 46
0.0
 47
0.0
 48
0.0
 71
     0
 72
     0
 73
     1
 74
     1
 75
     0
 76
     0
 77
     0
 78
     0
140
0.18
141
0.09
142
0.0
143
25.4
144
1.0
145
0.0
146
1.0
147
0.09
170
     0
171
     2
172
     0
173
     0
174
     0
175
     0
176
     0
177
     0
178
     0
  0
DIMSTYLE
  2
LC-STANDARD
 70
     0
  3

  4

  5

  6

  7

 40
1.0
 41
3.5
 42
0.0
 43
7.5
 44
1.8
 45
0.0
 46
0.0
 47
0.0
 48
0.0
 71
     0
 72
     0
 73
     0
 74
     0
 75
     0
 76
     0
 77
     1
 78
     8
140
3.5
141
0.0
142
0.0
143
25.4
144
1.0
145
0.0
146
0.71
147
1.5
170
     0
171
     2
172
     1
173
     0
174
     0
175
     0
176
     0
177
     0
178
     3
  0
DIMSTYLE
  2
LC-DIM-L-0140-02-02
 70
     0
  3

  4

  5

  6

  7

 40
2.0
 41
3.5
 42
0.0
 43
7.5
 44
1.8
 45
0.0
 46
0.0
 47
0.0
 48
0.0
 71
     0
 72
     0
 73
     0
 74
     0
 75
     0
 76
     0
 77
     1
 78
     8
140
14.0
141
0.0
142
0.0
143
25.4
144
1.0
145
0.0
146
0.71
147
1.5
170
     0
171
     2
172
     0
173
     0
174
     0
175
     0
176
     2
177
     2
178
     8
  0
ENDTAB
  0
ENDSEC
  0
SECTION
  2
BLOCKS
  0
BLOCK
  8
0
  5
24
  2
*X0
 70
    65
 10
-24.784168
 20
35.917907
 30
0.0
  3
*X0
  0
LINE
  8
LC-003-005-----0
  6
CONTINUOUS
  5
26
 10
-17.822209
 20
35.917907
 30
0.0
 11
-16.784124
 21
36.955992
 31
0.0
  0
LINE
  8
LC-003-005-----0
  6
CONTINUOUS
  5
27
 10
-20.650636
 20
35.917907
 30
0.0
 11
-17.650661
 21
38.917881
 31
0.0
  0
LINE
  8
LC-003-005-----0
  6
CONTINUOUS
  5
28
 10
-23.479063
 20
35.917907
 30
0.0
 11
-19.784096
 21
39.612873
 31
0.0
  0
LINE
  8
LC-003-005-----0
  6
CONTINUOUS
  5
29
 10
-24.784168
 20
37.441228
 30
0.0
 11
-19.784087
 21
42.441309
 31
0.0
  0
LINE
  8
LC-003-005-----0
  6
CONTINUOUS
  5
2A
 10
-24.784168
 20
40.269656
 30
0.0
 11
-19.784079
 21
45.269745
 31
0.0
  0
LINE
  8
LC-003-005-----0
  6
CONTINUOUS
  5
2B
 10
-24.784168
 20
43.098083
 30
0.0
 11
-21.964429
 21
45.917822
 31
0.0
  0
LINE
  8
LC-003-005-----0
  6
CONTINUOUS
  5
2C
 10
-21.784075
 20
46.098176
 30
0.0
 11
-19.78407
 21
48.098181
 31
0.0
  0
LINE
  8
LC-003-005-----0
  6
CONTINUOUS
  5
2D
 10
-21.784075
 20
48.926604
 30
0.0
 11
-19.784062
 21
50.926617
 31
0.0
  0
LINE
  8
LC-003-005-----0
  6
CONTINUOUS
  5
2E
 10
-21.784075
 20
51.755031
 30
0.0
 11
-19.784053
 21
53.755052
 31
0.0
  0
LINE
  8
LC-003-005-----0
  6
CONTINUOUS
  5
2F
 10
-21.784075
 20
54.583458
 30
0.0
 11
-21.116934
 21
55.250598
 31
0.0
  0
ENDBLK
  8
0
  5
30
  0
BLOCK
  8
0
  5
32
  2
*X1
 70
    65
 10
87.215001
 20
35.917907
 30
0.0
  3
*X1
  0
LINE
  8
LC-003-005-----0
  6
CONTINUOUS
  5
33
 10
92.486449
 20
35.917907
 30
0.0
 11
95.215046
 21
38.646503
 31
0.0
  0
LINE
  8
LC-003-005-----0
  6
CONTINUOUS
  5
34
 10
89.658022
 20
35.917907
 30
0.0
 11
95.215046
 21
41.47493
 31
0.0
  0
LINE
  8
LC-003-005-----0
  6
CONTINUOUS
  5
35
 10
87.215001
 20
36.303313
 30
0.0
 11
89.82957
 21
38.917881
 31
0.0
  0
LINE
  8
LC-003-005-----0
  6
CONTINUOUS
  5
36
 10
90.214974
 20
39.303286
 30
0.0
 11
95.215046
 21
44.303357
 31
0.0
  0
LINE
  8
LC-003-005-----0
  6
CONTINUOUS
  5
37
 10
90.214966
 20
42.131705
 30
0.0
 11
94.001084
 21
45.917822
 31
0.0
  0
LINE
  8
LC-003-005-----0
  6
CONTINUOUS
  5
38
 10
90.214957
 20
44.960123
 30
0.0
 11
92.214952
 21
46.960118
 31
0.0
  0
LINE
  8
LC-003-005-----0
  6
CONTINUOUS
  5
39
 10
90.214948
 20
47.788542
 30
0.0
 11
92.214952
 21
49.788545
 31
0.0
  0
LINE
  8
LC-003-005-----0
  6
CONTINUOUS
  5
3A
 10
90.21494
 20
50.61696
 30
0.0
 11
92.214952
 21
52.616972
 31
0.0
  0
LINE
  8
LC-003-005-----0
  6
CONTINUOUS
  5
3B
 10
90.214931
 20
53.445378
 30
0.0
 11
92.214952
 21
55.445399
 31
0.0
  0
ENDBLK
  8
0
  5
3C
  0
BLOCK
  8
0
  5
3E
  2
BLK1
 70
    64
 10
0.0
 20
0.0
 30
0.0
  3
BLK1
  0
ENDBLK
  8
0
  5
3F
  0
BLOCK
  8
0
  5
41
  2
*X3
 70
    65
 10
77.215439
 20
38.917881
 30
0.0
  3
*X3
  0
LINE
  8
LC-003-005-----0
  6
CONTINUOUS
  5
42
 10
87.215439
 20
39.132178
 30
0.0
 11
90.215439
 21
42.132178
 31
0.0
  0
LINE
  8
LC-003-005-----0
  6
CONTINUOUS
  5
43
 10
87.215439
 20
41.960605
 30
0.0
 11
90.215439
 21
44.960605
 31
0.0
  0
LINE
  8
LC-003-005-----0
  6
CONTINUOUS
  5
44
 10
87.215439
 20
44.789032
 30
0.0
 11
90.215439
 21
47.789032
 31
0.0
  0
LINE
  8
LC-003-005-----0
  6
CONTINUOUS
  5
45
 10
87.215439
 20
47.617459
 30
0.0
 11
90.215439
 21
50.617459
 31
0.0
  0
LINE
  8
LC-003-005-----0
  6
CONTINUOUS
  5
46
 10
87.215439
 20
50.445886
 30
0.0
 11
90.215439
 21
53.445886
 31
0.0
  0
LINE
  8
LC-003-005-----0
  6
CONTINUOUS
  5
47
 10
87.215439
 20
53.274313
 30
0.0
 11
90.215439
 21
56.274313
 31
0.0
  0
LINE
  8
LC-003-005-----0
  6
CONTINUOUS
  5
48
 10
87.215439
 20
56.10274
 30
0.0
 11
90.215439
 21
59.10274
 31
0.0
  0
LINE
  8
LC-003-005-----0
  6
CONTINUOUS
  5
49
 10
87.215439
 20
58.931167
 30
0.0
 11
90.215439
 21
61.931167
 31
0.0
  0
LINE
  8
LC-003-005-----0
  6
CONTINUOUS
  5
4A
 10
87.215439
 20
61.759595
 30
0.0
 11
90.215439
 21
64.759595
 31
0.0
  0
LINE
  8
LC-003-005-----0
  6
CONTINUOUS
  5
4B
 10
87.215439
 20
64.588022
 30
0.0
 11
90.215439
 21
67.588022
 31
0.0
  0
LINE
  8
LC-003-005-----0
  6
CONTINUOUS
  5
4C
 10
87.215439
 20
67.416449
 30
0.0
 11
90.215439
 21
70.416449
 31
0.0
  0
LINE
  8
LC-003-005-----0
  6
CONTINUOUS
  5
4D
 10
87.215439
 20
70.244876
 30
0.0
 11
90.215439
 21
73.244876
 31
0.0
  0
LINE
  8
LC-003-005-----0
  6
CONTINUOUS
  5
4E
 10
87.215439
 20
73.073303
 30
0.0
 11
90.215439
 21
76.073303
 31
0.0
  0
LINE
  8
LC-003-005-----0
  6
CONTINUOUS
  5
4F
 10
87.215439
 20
75.90173
 30
0.0
 11
90.215439
 21
78.90173
 31
0.0
  0
LINE
  8
LC-003-005-----0
  6
CONTINUOUS
  5
50
 10
87.215439
 20
78.730157
 30
0.0
 11
90.215439
 21
81.730157
 31
0.0
  0
LINE
  8
LC-003-005-----0
  6
CONTINUOUS
  5
51
 10
87.215439
 20
81.558584
 30
0.0
 11
90.215439
 21
84.558584
 31
0.0
  0
LINE
  8
LC-003-005-----0
  6
CONTINUOUS
  5
52
 10
87.215439
 20
84.387012
 30
0.0
 11
90.215439
 21
87.387012
 31
0.0
  0
LINE
  8
LC-003-005-----0
  6
CONTINUOUS
  5
53
 10
87.215439
 20
87.215439
 30
0.0
 11
90.215439
 21
90.215439
 31
0.0
  0
LINE
  8
LC-003-005-----0
  6
CONTINUOUS
  5
54
 10
87.215439
 20
90.043866
 30
0.0
 11
90.215439
 21
93.043866
 31
0.0
  0
LINE
  8
LC-003-005-----0
  6
CONTINUOUS
  5
55
 10
87.215439
 20
92.872293
 30
0.0
 11
90.215439
 21
95.872293
 31
0.0
  0
LINE
  8
LC-003-005-----0
  6
CONTINUOUS
  5
56
 10
87.215439
 20
95.70072
 30
0.0
 11
90.215439
 21
98.70072
 31
0.0
  0
LINE
  8
LC-003-005-----0
  6
CONTINUOUS
  5
57
 10
87.215439
 20
98.529147
 30
0.0
 11
90.215439
 21
101.529147
 31
0.0
  0
LINE
  8
LC-003-005-----0
  6
CONTINUOUS
  5
58
 10
87.215439
 20
101.357574
 30
0.0
 11
90.215439
 21
104.357574
 31
0.0
  0
LINE
  8
LC-003-005-----0
  6
CONTINUOUS
  5
59
 10
87.215439
 20
104.186001
 30
0.0
 11
90.215439
 21
107.186001
 31
0.0
  0
LINE
  8
LC-003-005-----0
  6
CONTINUOUS
  5
5A
 10
137.447319
 20
154.417881
 30
0.0
 11
138.193439
 21
155.164001
 31
0.0
  0
LINE
  8
LC-003-005-----0
  6
CONTINUOUS
  5
5B
 10
87.215439
 20
107.014429
 30
0.0
 11
90.215439
 21
110.014429
 31
0.0
  0
LINE
  8
LC-003-005-----0
  6
CONTINUOUS
  5
5C
 10
134.618891
 20
154.417881
 30
0.0
 11
137.618891
 21
157.417881
 31
0.0
  0
LINE
  8
LC-003-005-----0
  6
CONTINUOUS
  5
5D
 10
87.215439
 20
109.842856
 30
0.0
 11
90.215439
 21
112.842856
 31
0.0
  0
LINE
  8
LC-003-005-----0
  6
CONTINUOUS
  5
5E
 10
131.790464
 20
154.417881
 30
0.0
 11
134.790464
 21
157.417881
 31
0.0
  0
LINE
  8
LC-003-005-----0
  6
CONTINUOUS
  5
5F
 10
87.215439
 20
112.671283
 30
0.0
 11
90.215439
 21
115.671283
 31
0.0
  0
LINE
  8
LC-003-005-----0
  6
CONTINUOUS
  5
60
 10
128.962037
 20
154.417881
 30
0.0
 11
131.962037
 21
157.417881
 31
0.0
  0
LINE
  8
LC-003-005-----0
  6
CONTINUOUS
  5
61
 10
87.215439
 20
115.49971
 30
0.0
 11
90.215439
 21
118.49971
 31
0.0
  0
LINE
  8
LC-003-005-----0
  6
CONTINUOUS
  5
62
 10
126.13361
 20
154.417881
 30
0.0
 11
129.13361
 21
157.417881
 31
0.0
  0
LINE
  8
LC-003-005-----0
  6
CONTINUOUS
  5
63
 10
87.215439
 20
118.328137
 30
0.0
 11
90.215439
 21
121.328137
 31
0.0
  0
LINE
  8
LC-003-005-----0
  6
CONTINUOUS
  5
64
 10
123.305183
 20
154.417881
 30
0.0
 11
126.305183
 21
157.417881
 31
0.0
  0
LINE
  8
LC-003-005-----0
  6
CONTINUOUS
  5
65
 10
87.215439
 20
121.156564
 30
0.0
 11
90.215439
 21
124.156564
 31
0.0
  0
LINE
  8
LC-003-005-----0
  6
CONTINUOUS
  5
66
 10
120.476756
 20
154.417881
 30
0.0
 11
123.476756
 21
157.417881
 31
0.0
  0
LINE
  8
LC-003-005-----0
  6
CONTINUOUS
  5
67
 10
87.215439
 20
123.984991
 30
0.0
 11
90.215439
 21
126.984991
 31
0.0
  0
LINE
  8
LC-003-005-----0
  6
CONTINUOUS
  5
68
 10
108.148329
 20
144.917881
 30
0.0
 11
108.193439
 21
144.962991
 31
0.0
  0
LINE
  8
LC-003-005-----0
  6
CONTINUOUS
  5
69
 10
117.648329
 20
154.417881
 30
0.0
 11
120.648329
 21
157.417881
 31
0.0
  0
LINE
  8
LC-003-005-----0
  6
CONTINUOUS
  5
6A
 10
87.215439
 20
126.813418
 30
0.0
 11
90.215439
 21
129.813418
 31
0.0
  0
LINE
  8
LC-003-005-----0
  6
CONTINUOUS
  5
6B
 10
105.319902
 20
144.917881
 30
0.0
 11
108.193439
 21
147.791418
 31
0.0
  0
LINE
  8
LC-003-005-----0
  6
CONTINUOUS
  5
6C
 10
114.819902
 20
154.417881
 30
0.0
 11
117.819902
 21
157.417881
 31
0.0
  0
LINE
  8
LC-003-005-----0
  6
CONTINUOUS
  5
6D
 10
87.215439
 20
129.641846
 30
0.0
 11
90.215439
 21
132.641846
 31
0.0
  0
LINE
  8
LC-003-005-----0
  6
CONTINUOUS
  5
6E
 10
102.491474
 20
144.917881
 30
0.0
 11
108.193439
 21
150.619846
 31
0.0
  0
LINE
  8
LC-003-005-----0
  6
CONTINUOUS
  5
6F
 10
111.991474
 20
154.417881
 30
0.0
 11
114.991474
 21
157.417881
 31
0.0
  0
LINE
  8
LC-003-005-----0
  6
CONTINUOUS
  5
70
 10
87.215439
 20
132.470273
 30
0.0
 11
90.215439
 21
135.470273
 31
0.0
  0
LINE
  8
LC-003-005-----0
  6
CONTINUOUS
  5
71
 10
99.663047
 20
144.917881
 30
0.0
 11
103.163047
 21
148.417881
 31
0.0
  0
LINE
  8
LC-003-005-----0
  6
CONTINUOUS
  5
72
 10
104.693439
 20
149.948273
 30
0.0
 11
108.193439
 21
153.448273
 31
0.0
  0
LINE
  8
LC-003-005-----0
  6
CONTINUOUS
  5
73
 10
109.163047
 20
154.417881
 30
0.0
 11
112.163047
 21
157.417881
 31
0.0
  0
LINE
  8
LC-003-005-----0
  6
CONTINUOUS
  5
74
 10
87.215439
 20
135.2987
 30
0.0
 11
90.215439
 21
138.2987
 31
0.0
  0
LINE
  8
LC-003-005-----0
  6
CONTINUOUS
  5
75
 10
96.83462
 20
144.917881
 30
0.0
 11
100.33462
 21
148.417881
 31
0.0
  0
LINE
  8
LC-003-005-----0
  6
CONTINUOUS
  5
76
 10
104.693439
 20
152.7767
 30
0.0
 11
109.33462
 21
157.417881
 31
0.0
  0
LINE
  8
LC-003-005-----0
  6
CONTINUOUS
  5
77
 10
87.215439
 20
138.127127
 30
0.0
 11
90.215439
 21
141.127127
 31
0.0
  0
LINE
  8
LC-003-005-----0
  6
CONTINUOUS
  5
78
 10
94.006193
 20
144.917881
 30
0.0
 11
97.506193
 21
148.417881
 31
0.0
  0
LINE
  8
LC-003-005-----0
  6
CONTINUOUS
  5
79
 10
104.693439
 20
155.605127
 30
0.0
 11
108.166906
 21
159.078594
 31
0.0
  0
LINE
  8
LC-003-005-----0
  6
CONTINUOUS
  5
7A
 10
87.215439
 20
140.955554
 30
0.0
 11
90.215439
 21
143.955554
 31
0.0
  0
LINE
  8
LC-003-005-----0
  6
CONTINUOUS
  5
7B
 10
91.177766
 20
144.917881
 30
0.0
 11
94.677766
 21
148.417881
 31
0.0
  0
LINE
  8
LC-003-005-----0
  6
CONTINUOUS
  5
7C
 10
104.693439
 20
158.433554
 30
0.0
 11
105.677766
 21
159.417881
 31
0.0
  0
LINE
  8
LC-003-005-----0
  6
CONTINUOUS
  5
7D
 10
79.349339
 20
135.917881
 30
0.0
 11
80.015439
 21
136.583981
 31
0.0
  0
LINE
  8
LC-003-005-----0
  6
CONTINUOUS
  5
7E
 10
87.215439
 20
143.783981
 30
0.0
 11
91.849339
 21
148.417881
 31
0.0
  0
LINE
  8
LC-003-005-----0
  6
CONTINUOUS
  5
7F
 10
77.215439
 20
136.612408
 30
0.0
 11
80.015439
 21
139.412408
 31
0.0
  0
LINE
  8
LC-003-005-----0
  6
CONTINUOUS
  5
80
 10
83.520912
 20
142.917881
 30
0.0
 11
84.215439
 21
143.612408
 31
0.0
  0
LINE
  8
LC-003-005-----0
  6
CONTINUOUS
  5
81
 10
86.020912
 20
145.417881
 30
0.0
 11
89.020912
 21
148.417881
 31
0.0
  0
LINE
  8
LC-003-005-----0
  6
CONTINUOUS
  5
82
 10
77.215439
 20
139.440835
 30
0.0
 11
80.015439
 21
142.240835
 31
0.0
  0
LINE
  8
LC-003-005-----0
  6
CONTINUOUS
  5
83
 10
80.692485
 20
142.917881
 30
0.0
 11
86.192485
 21
148.417881
 31
0.0
  0
LINE
  8
LC-003-005-----0
  6
CONTINUOUS
  5
84
 10
77.215439
 20
142.269263
 30
0.0
 11
80.864057
 21
145.917881
 31
0.0
  0
LINE
  8
LC-003-005-----0
  6
CONTINUOUS
  5
85
 10
81.715439
 20
146.769262
 30
0.0
 11
83.364057
 21
148.417881
 31
0.0
  0
LINE
  8
LC-003-005-----0
  6
CONTINUOUS
  5
86
 10
77.215439
 20
145.09769
 30
0.0
 11
78.03563
 21
145.917881
 31
0.0
  0
ENDBLK
  8
0
  5
87
  0
BLOCK
  8
0
  5
89
  2
BLK2
 70
    64
 10
0.0
 20
0.0
 30
0.0
  3
BLK2
  0
ENDBLK
  8
0
  5
8A
  0
BLOCK
  8
0
  5
8C
  2
BLK3
 70
    64
 10
0.0
 20
0.0
 30
0.0
  3
BLK3
  0
ENDBLK
  8
0
  5
8D
  0
BLOCK
  8
0
  5
8F
  2
*D6
 70
    65
 10
0.0
 20
0.0
 30
0.0
  3
*D6
  0
LINE
  8
LC-006-003-MTH-0
  6
CONTINUOUS
  5
91
 10
-37.762561
 20
158.917881
 30
0.0
 11
-37.762561
 21
198.8
 31
0.0
  0
LINE
  8
LC-006-003-MTH-0
  6
CONTINUOUS
  5
92
 10
108.193439
 20
158.917881
 30
0.0
 11
108.193439
 21
198.8
 31
0.0
  0
LINE
  8
LC-007-003-MTG-0
  6
CONTINUOUS
  5
94
 10
-37.762561
 20
182.0
 30
0.0
 11
108.193439
 21
182.0
 31
0.0
  0
LINE
  8
LC-005-003-----0
  6
CONTINUOUS
  5
96
 10
-10.002105
 20
185.654733
 30
0.0
 11
-37.762561
 21
182.0
 31
0.0
  0
LINE
  8
LC-005-003-----0
  6
CONTINUOUS
  5
97
 10
-37.762561
 20
182.0
 30
0.0
 11
-10.002105
 21
178.345267
 31
0.0
  0
LINE
  8
LC-005-003-----0
  6
CONTINUOUS
  5
98
 10
-10.002105
 20
178.345267
 30
0.0
 11
-10.002105
 21
185.654733
 31
0.0
  0
LINE
  8
LC-005-003-----0
  6
CONTINUOUS
  5
99
 10
-9.939824
 20
184.704503
 30
0.0
 11
-30.482561
 21
182.0
 31
0.0
  0
LINE
  8
LC-005-003-----0
  6
CONTINUOUS
  5
9A
 10
-30.482561
 20
182.0
 30
0.0
 11
-9.939824
 21
179.295497
 31
0.0
  0
LINE
  8
LC-005-003-----0
  6
CONTINUOUS
  5
9B
 10
-9.877542
 20
183.754272
 30
0.0
 11
-23.202561
 21
182.0
 31
0.0
  0
LINE
  8
LC-005-003-----0
  6
CONTINUOUS
  5
9C
 10
-23.202561
 20
182.0
 30
0.0
 11
-9.877542
 21
180.245728
 31
0.0
  0
LINE
  8
LC-005-003-----0
  6
CONTINUOUS
  5
9D
 10
-9.815261
 20
182.804041
 30
0.0
 11
-15.922561
 21
182.0
 31
0.0
  0
LINE
  8
LC-005-003-----0
  6
CONTINUOUS
  5
9E
 10
-15.922561
 20
182.0
 30
0.0
 11
-9.815261
 21
181.195959
 31
0.0
  0
LINE
  8
LC-005-003-----0
  6
CONTINUOUS
  5
9F
 10
80.432983
 20
178.345267
 30
0.0
 11
108.193439
 21
182.0
 31
0.0
  0
LINE
  8
LC-005-003-----0
  6
CONTINUOUS
  5
A0
 10
108.193439
 20
182.0
 30
0.0
 11
80.432983
 21
185.654733
 31
0.0
  0
LINE
  8
LC-005-003-----0
  6
CONTINUOUS
  5
A1
 10
80.432983
 20
185.654733
 30
0.0
 11
80.432983
 21
178.345267
 31
0.0
  0
LINE
  8
LC-005-003-----0
  6
CONTINUOUS
  5
A2
 10
80.370701
 20
179.295497
 30
0.0
 11
100.913439
 21
182.0
 31
0.0
  0
LINE
  8
LC-005-003-----0
  6
CONTINUOUS
  5
A3
 10
100.913439
 20
182.0
 30
0.0
 11
80.370701
 21
184.704503
 31
0.0
  0
LINE
  8
LC-005-003-----0
  6
CONTINUOUS
  5
A4
 10
80.30842
 20
180.245728
 30
0.0
 11
93.633439
 21
182.0
 31
0.0
  0
LINE
  8
LC-005-003-----0
  6
CONTINUOUS
  5
A5
 10
93.633439
 20
182.0
 30
0.0
 11
80.30842
 21
183.754272
 31
0.0
  0
LINE
  8
LC-005-003-----0
  6
CONTINUOUS
  5
A6
 10
80.246138
 20
181.195959
 30
0.0
 11
86.353439
 21
182.0
 31
0.0
  0
LINE
  8
LC-005-003-----0
  6
CONTINUOUS
  5
A7
 10
86.353439
 20
182.0
 30
0.0
 11
80.246138
 21
182.804041
 31
0.0
  0
TEXT
  8
LC-005-003-----0
  6
CONTINUOUS
 62
     8
  5
A9
 10
9.799819
 20
189.827554
 30
0.0
 40
28.0
  1
150
 41
0.9
 51
15.0
  7
LC-TXTSTYLE-150-400-0-0-D0
 72
     1
 11
39.563599
 21
189.827554
 31
0.0
  0
ENDBLK
  8
0
  5
AA
  0
BLOCK
  8
0
  5
AC
  2
*D7
 70
    65
 10
0.0
 20
0.0
 30
0.0
  3
*D7
  0
LINE
  8
LC-006-003-MTH-0
  6
CONTINUOUS
  5
AD
 10
-19.784561
 20
43.417881
 30
0.0
 11
-19.784561
 21
-16.8
 31
0.0
  0
LINE
  8
LC-006-003-MTH-0
  6
CONTINUOUS
  5
AE
 10
90.215439
 20
43.417881
 30
0.0
 11
90.215439
 21
-16.8
 31
0.0
  0
LINE
  8
LC-007-003-MTG-0
  6
CONTINUOUS
  5
AF
 10
-19.784561
 20
0.0
 30
0.0
 11
90.215439
 21
0.0
 31
0.0
  0
LINE
  8
LC-005-003-----0
  6
CONTINUOUS
  5
B0
 10
7.975895
 20
3.654733
 30
0.0
 11
-19.784561
 21
0.0
 31
0.0
  0
LINE
  8
LC-005-003-----0
  6
CONTINUOUS
  5
B1
 10
-19.784561
 20
0.0
 30
0.0
 11
7.975895
 21
-3.654733
 31
0.0
  0
LINE
  8
LC-005-003-----0
  6
CONTINUOUS
  5
B2
 10
7.975895
 20
-3.654733
 30
0.0
 11
7.975895
 21
3.654733
 31
0.0
  0
LINE
  8
LC-005-003-----0
  6
CONTINUOUS
  5
B3
 10
8.038176
 20
2.704503
 30
0.0
 11
-12.504561
 21
0.0
 31
0.0
  0
LINE
  8
LC-005-003-----0
  6
CONTINUOUS
  5
B4
 10
-12.504561
 20
0.0
 30
0.0
 11
8.038176
 21
-2.704503
 31
0.0
  0
LINE
  8
LC-005-003-----0
  6
CONTINUOUS
  5
B5
 10
8.100458
 20
1.754272
 30
0.0
 11
-5.224561
 21
0.0
 31
0.0
  0
LINE
  8
LC-005-003-----0
  6
CONTINUOUS
  5
B6
 10
-5.224561
 20
0.0
 30
0.0
 11
8.100458
 21
-1.754272
 31
0.0
  0
LINE
  8
LC-005-003-----0
  6
CONTINUOUS
  5
B7
 10
8.162739
 20
0.804041
 30
0.0
 11
2.055439
 21
0.0
 31
0.0
  0
LINE
  8
LC-005-003-----0
  6
CONTINUOUS
  5
B8
 10
2.055439
 20
0.0
 30
0.0
 11
8.162739
 21
-0.804041
 31
0.0
  0
LINE
  8
LC-005-003-----0
  6
CONTINUOUS
  5
B9
 10
62.454983
 20
-3.654733
 30
0.0
 11
90.215439
 21
0.0
 31
0.0
  0
LINE
  8
LC-005-003-----0
  6
CONTINUOUS
  5
BA
 10
90.215439
 20
0.0
 30
0.0
 11
62.454983
 21
3.654733
 31
0.0
  0
LINE
  8
LC-005-003-----0
  6
CONTINUOUS
  5
BB
 10
62.454983
 20
3.654733
 30
0.0
 11
62.454983
 21
-3.654733
 31
0.0
  0
LINE
  8
LC-005-003-----0
  6
CONTINUOUS
  5
BC
 10
62.392701
 20
-2.704503
 30
0.0
 11
82.935439
 21
0.0
 31
0.0
  0
LINE
  8
LC-005-003-----0
  6
CONTINUOUS
  5
BD
 10
82.935439
 20
0.0
 30
0.0
 11
62.392701
 21
2.704503
 31
0.0
  0
LINE
  8
LC-005-003-----0
  6
CONTINUOUS
  5
BE
 10
62.33042
 20
-1.754272
 30
0.0
 11
75.655439
 21
0.0
 31
0.0
  0
LINE
  8
LC-005-003-----0
  6
CONTINUOUS
  5
BF
 10
75.655439
 20
0.0
 30
0.0
 11
62.33042
 21
1.754272
 31
0.0
  0
LINE
  8
LC-005-003-----0
  6
CONTINUOUS
  5
C0
 10
62.268138
 20
-0.804041
 30
0.0
 11
68.375439
 21
0.0
 31
0.0
  0
LINE
  8
LC-005-003-----0
  6
CONTINUOUS
  5
C1
 10
68.375439
 20
0.0
 30
0.0
 11
62.268138
 21
0.804041
 31
0.0
  0
TEXT
  8
LC-005-003-----0
  6
CONTINUOUS
 62
     8
  5
C2
 10
1.465961
 20
7.827554
 30
0.0
 40
28.0
  1
Ø110
 51
15.0
  7
LC-TXTSTYLE-150-400-0-0-D0
 72
     1
 11
39.563599
 21
7.827554
 31
0.0
  0
ENDBLK
  8
0
  5
C3
  0
BLOCK
  8
0
  5
C5
  2
*X8
 70
    65
 10
-67.762561
 20
38.917881
 30
0.0
  3
*X8
  0
LINE
  8
LC-003-005-----0
  6
CONTINUOUS
  5
C6
 10
-17.650661
 20
38.917881
 30
0.0
 11
-16.784561
 21
39.783981
 31
0.0
  0
LINE
  8
LC-003-005-----0
  6
CONTINUOUS
  5
C7
 10
-19.631825
 20
39.765145
 30
0.0
 11
-16.784561
 21
42.612408
 31
0.0
  0
LINE
  8
LC-003-005-----0
  6
CONTINUOUS
  5
C8
 10
-19.784561
 20
42.440835
 30
0.0
 11
-16.784561
 21
45.440835
 31
0.0
  0
LINE
  8
LC-003-005-----0
  6
CONTINUOUS
  5
C9
 10
-19.784561
 20
45.269262
 30
0.0
 11
-16.784561
 21
48.269262
 31
0.0
  0
LINE
  8
LC-003-005-----0
  6
CONTINUOUS
  5
CA
 10
-19.784561
 20
48.09769
 30
0.0
 11
-16.784561
 21
51.09769
 31
0.0
  0
LINE
  8
LC-003-005-----0
  6
CONTINUOUS
  5
CB
 10
-19.784561
 20
50.926117
 30
0.0
 11
-16.784561
 21
53.926117
 31
0.0
  0
LINE
  8
LC-003-005-----0
  6
CONTINUOUS
  5
CC
 10
-19.784561
 20
53.754544
 30
0.0
 11
-16.784561
 21
56.754544
 31
0.0
  0
LINE
  8
LC-003-005-----0
  6
CONTINUOUS
  5
CD
 10
-19.784561
 20
56.582971
 30
0.0
 11
-16.784561
 21
59.582971
 31
0.0
  0
LINE
  8
LC-003-005-----0
  6
CONTINUOUS
  5
CE
 10
-19.784561
 20
59.411398
 30
0.0
 11
-16.784561
 21
62.411398
 31
0.0
  0
LINE
  8
LC-003-005-----0
  6
CONTINUOUS
  5
CF
 10
-19.784561
 20
62.239825
 30
0.0
 11
-16.784561
 21
65.239825
 31
0.0
  0
LINE
  8
LC-003-005-----0
  6
CONTINUOUS
  5
D0
 10
-19.784561
 20
65.068252
 30
0.0
 11
-16.784561
 21
68.068252
 31
0.0
  0
LINE
  8
LC-003-005-----0
  6
CONTINUOUS
  5
D1
 10
-19.784561
 20
67.896679
 30
0.0
 11
-16.784561
 21
70.896679
 31
0.0
  0
LINE
  8
LC-003-005-----0
  6
CONTINUOUS
  5
D2
 10
-19.784561
 20
70.725107
 30
0.0
 11
-16.784561
 21
73.725107
 31
0.0
  0
LINE
  8
LC-003-005-----0
  6
CONTINUOUS
  5
D3
 10
-19.784561
 20
73.553534
 30
0.0
 11
-16.784561
 21
76.553534
 31
0.0
  0
LINE
  8
LC-003-005-----0
  6
CONTINUOUS
  5
D4
 10
-19.784561
 20
76.381961
 30
0.0
 11
-16.784561
 21
79.381961
 31
0.0
  0
LINE
  8
LC-003-005-----0
  6
CONTINUOUS
  5
D5
 10
-19.784561
 20
79.210388
 30
0.0
 11
-16.784561
 21
82.210388
 31
0.0
  0
LINE
  8
LC-003-005-----0
  6
CONTINUOUS
  5
D6
 10
-19.784561
 20
82.038815
 30
0.0
 11
-16.784561
 21
85.038815
 31
0.0
  0
LINE
  8
LC-003-005-----0
  6
CONTINUOUS
  5
D7
 10
-19.784561
 20
84.867242
 30
0.0
 11
-16.784561
 21
87.867242
 31
0.0
  0
LINE
  8
LC-003-005-----0
  6
CONTINUOUS
  5
D8
 10
-19.784561
 20
87.695669
 30
0.0
 11
-16.784561
 21
90.695669
 31
0.0
  0
LINE
  8
LC-003-005-----0
  6
CONTINUOUS
  5
D9
 10
-19.784561
 20
90.524096
 30
0.0
 11
-16.784561
 21
93.524096
 31
0.0
  0
LINE
  8
LC-003-005-----0
  6
CONTINUOUS
  5
DA
 10
-19.784561
 20
93.352524
 30
0.0
 11
-16.784561
 21
96.352524
 31
0.0
  0
LINE
  8
LC-003-005-----0
  6
CONTINUOUS
  5
DB
 10
-19.784561
 20
96.180951
 30
0.0
 11
-16.784561
 21
99.180951
 31
0.0
  0
LINE
  8
LC-003-005-----0
  6
CONTINUOUS
  5
DC
 10
-19.784561
 20
99.009378
 30
0.0
 11
-16.784561
 21
102.009378
 31
0.0
  0
LINE
  8
LC-003-005-----0
  6
CONTINUOUS
  5
DD
 10
-19.784561
 20
101.837805
 30
0.0
 11
-16.784561
 21
104.837805
 31
0.0
  0
LINE
  8
LC-003-005-----0
  6
CONTINUOUS
  5
DE
 10
-19.784561
 20
104.666232
 30
0.0
 11
-16.784561
 21
107.666232
 31
0.0
  0
LINE
  8
LC-003-005-----0
  6
CONTINUOUS
  5
DF
 10
-19.784561
 20
107.494659
 30
0.0
 11
-16.784561
 21
110.494659
 31
0.0
  0
LINE
  8
LC-003-005-----0
  6
CONTINUOUS
  5
E0
 10
-19.784561
 20
110.323086
 30
0.0
 11
-16.784561
 21
113.323086
 31
0.0
  0
LINE
  8
LC-003-005-----0
  6
CONTINUOUS
  5
E1
 10
-19.784561
 20
113.151513
 30
0.0
 11
-16.784561
 21
116.151513
 31
0.0
  0
LINE
  8
LC-003-005-----0
  6
CONTINUOUS
  5
E2
 10
-19.784561
 20
115.979941
 30
0.0
 11
-16.784561
 21
118.979941
 31
0.0
  0
LINE
  8
LC-003-005-----0
  6
CONTINUOUS
  5
E3
 10
-19.784561
 20
118.808368
 30
0.0
 11
-16.784561
 21
121.808368
 31
0.0
  0
LINE
  8
LC-003-005-----0
  6
CONTINUOUS
  5
E4
 10
-19.784561
 20
121.636795
 30
0.0
 11
-16.784561
 21
124.636795
 31
0.0
  0
LINE
  8
LC-003-005-----0
  6
CONTINUOUS
  5
E5
 10
-19.784561
 20
124.465222
 30
0.0
 11
-16.784561
 21
127.465222
 31
0.0
  0
LINE
  8
LC-003-005-----0
  6
CONTINUOUS
  5
E6
 10
-8.331902
 20
135.917881
 30
0.0
 11
-6.784561
 21
137.465222
 31
0.0
  0
LINE
  8
LC-003-005-----0
  6
CONTINUOUS
  5
E7
 10
-19.784561
 20
127.293649
 30
0.0
 11
-16.784561
 21
130.293649
 31
0.0
  0
LINE
  8
LC-003-005-----0
  6
CONTINUOUS
  5
E8
 10
-9.584561
 20
137.493649
 30
0.0
 11
-6.784561
 21
140.293649
 31
0.0
  0
LINE
  8
LC-003-005-----0
  6
CONTINUOUS
  5
E9
 10
-19.784561
 20
130.122076
 30
0.0
 11
-16.784561
 21
133.122076
 31
0.0
  0
LINE
  8
LC-003-005-----0
  6
CONTINUOUS
  5
EA
 10
-9.584561
 20
140.322076
 30
0.0
 11
-6.784561
 21
143.122076
 31
0.0
  0
LINE
  8
LC-003-005-----0
  6
CONTINUOUS
  5
EB
 10
-19.784561
 20
132.950503
 30
0.0
 11
-16.784561
 21
135.950503
 31
0.0
  0
LINE
  8
LC-003-005-----0
  6
CONTINUOUS
  5
EC
 10
-9.866999
 20
142.868066
 30
0.0
 11
-6.817183
 21
145.917881
 31
0.0
  0
LINE
  8
LC-003-005-----0
  6
CONTINUOUS
  5
ED
 10
-19.784561
 20
135.77893
 30
0.0
 11
-16.784561
 21
138.77893
 31
0.0
  0
LINE
  8
LC-003-005-----0
  6
CONTINUOUS
  5
EE
 10
-12.645611
 20
142.917881
 30
0.0
 11
-9.645611
 21
145.917881
 31
0.0
  0
LINE
  8
LC-003-005-----0
  6
CONTINUOUS
  5
EF
 10
-19.784561
 20
138.607358
 30
0.0
 11
-16.784561
 21
141.607358
 31
0.0
  0
LINE
  8
LC-003-005-----0
  6
CONTINUOUS
  5
F0
 10
-13.784561
 20
144.607358
 30
0.0
 11
-11.284561
 21
147.107358
 31
0.0
  0
LINE
  8
LC-003-005-----0
  6
CONTINUOUS
  5
F1
 10
-19.784561
 20
141.435785
 30
0.0
 11
-16.784561
 21
144.435785
 31
0.0
  0
LINE
  8
LC-003-005-----0
  6
CONTINUOUS
  5
F2
 10
-15.802465
 20
145.417881
 30
0.0
 11
-12.802465
 21
148.417881
 31
0.0
  0
LINE
  8
LC-003-005-----0
  6
CONTINUOUS
  5
F3
 10
-19.784561
 20
144.264212
 30
0.0
 11
-15.630892
 21
148.417881
 31
0.0
  0
LINE
  8
LC-003-005-----0
  6
CONTINUOUS
  5
F4
 10
-21.959319
 20
144.917881
 30
0.0
 11
-18.459319
 21
148.417881
 31
0.0
  0
LINE
  8
LC-003-005-----0
  6
CONTINUOUS
  5
F5
 10
-24.787746
 20
144.917881
 30
0.0
 11
-21.287746
 21
148.417881
 31
0.0
  0
LINE
  8
LC-003-005-----0
  6
CONTINUOUS
  5
F6
 10
-27.616173
 20
144.917881
 30
0.0
 11
-24.116173
 21
148.417881
 31
0.0
  0
LINE
  8
LC-003-005-----0
  6
CONTINUOUS
  5
F7
 10
-30.4446
 20
144.917881
 30
0.0
 11
-26.9446
 21
148.417881
 31
0.0
  0
LINE
  8
LC-003-005-----0
  6
CONTINUOUS
  5
F8
 10
-33.273028
 20
144.917881
 30
0.0
 11
-29.773028
 21
148.417881
 31
0.0
  0
LINE
  8
LC-003-005-----0
  6
CONTINUOUS
  5
F9
 10
-36.101455
 20
144.917881
 30
0.0
 11
-32.601455
 21
148.417881
 31
0.0
  0
LINE
  8
LC-003-005-----0
  6
CONTINUOUS
  5
FA
 10
-37.762561
 20
146.085202
 30
0.0
 11
-34.262561
 21
149.585202
 31
0.0
  0
LINE
  8
LC-003-005-----0
  6
CONTINUOUS
  5
FB
 10
-37.762561
 20
148.913629
 30
0.0
 11
-34.262561
 21
152.413629
 31
0.0
  0
LINE
  8
LC-003-005-----0
  6
CONTINUOUS
  5
FC
 10
-37.762561
 20
151.742056
 30
0.0
 11
-34.262561
 21
155.242056
 31
0.0
  0
LINE
  8
LC-003-005-----0
  6
CONTINUOUS
  5
FD
 10
-37.915163
 20
154.417881
 30
0.0
 11
-34.262561
 21
158.070483
 31
0.0
  0
LINE
  8
LC-003-005-----0
  6
CONTINUOUS
  5
FE
 10
-40.74359
 20
154.417881
 30
0.0
 11
-35.74359
 21
159.417881
 31
0.0
  0
LINE
  8
LC-003-005-----0
  6
CONTINUOUS
  5
FF
 10
-43.572017
 20
154.417881
 30
0.0
 11
-40.572017
 21
157.417881
 31
0.0
  0
LINE
  8
LC-003-005-----0
  6
CONTINUOUS
  5
100
 10
-46.400445
 20
154.417881
 30
0.0
 11
-43.400445
 21
157.417881
 31
0.0
  0
LINE
  8
LC-003-005-----0
  6
CONTINUOUS
  5
101
 10
-49.228872
 20
154.417881
 30
0.0
 11
-46.228872
 21
157.417881
 31
0.0
  0
LINE
  8
LC-003-005-----0
  6
CONTINUOUS
  5
102
 10
-52.057299
 20
154.417881
 30
0.0
 11
-49.057299
 21
157.417881
 31
0.0
  0
LINE
  8
LC-003-005-----0
  6
CONTINUOUS
  5
103
 10
-54.885726
 20
154.417881
 30
0.0
 11
-51.885726
 21
157.417881
 31
0.0
  0
LINE
  8
LC-003-005-----0
  6
CONTINUOUS
  5
104
 10
-57.714153
 20
154.417881
 30
0.0
 11
-54.714153
 21
157.417881
 31
0.0
  0
LINE
  8
LC-003-005-----0
  6
CONTINUOUS
  5
105
 10
-60.54258
 20
154.417881
 30
0.0
 11
-57.54258
 21
157.417881
 31
0.0
  0
LINE
  8
LC-003-005-----0
  6
CONTINUOUS
  5
106
 10
-63.371007
 20
154.417881
 30
0.0
 11
-60.371007
 21
157.417881
 31
0.0
  0
LINE
  8
LC-003-005-----0
  6
CONTINUOUS
  5
107
 10
-66.199434
 20
154.417881
 30
0.0
 11
-63.199434
 21
157.417881
 31
0.0
  0
LINE
  8
LC-003-005-----0
  6
CONTINUOUS
  5
108
 10
-67.762561
 20
155.683181
 30
0.0
 11
-66.027862
 21
157.417881
 31
0.0
  0
ENDBLK
  8
0
  5
109
  0
BLOCK
  8
0
  5
10B
  2
BLK4
 70
    64
 10
0.0
 20
0.0
 30
0.0
  3
BLK4
  0
ENDBLK
  8
0
  5
10C
  0
BLOCK
  8
0
  5
10E
  2
BLK5
 70
    64
 10
0.0
 20
0.0
 30
0.0
  3
BLK5
  0
ENDBLK
  8
0
  5
10F
  0
BLOCK
  8
0
  5
111
  2
BLK6
 70
    64
 10
0.0
 20
0.0
 30
0.0
  3
BLK6
  0
ENDBLK
  8
0
  5
112
  0
BLOCK
  8
0
  5
114
  2
BLK7
 70
    64
 10
0.0
 20
0.0
 30
0.0
  3
BLK7
  0
ENDBLK
  8
0
  5
115
  0
BLOCK
  8
0
  5
117
  2
BLK8
 70
    64
 10
0.0
 20
0.0
 30
0.0
  3
BLK8
  0
ENDBLK
  8
0
  5
118
  0
BLOCK
  8
0
  5
11A
  2
BLK9
 70
    64
 10
0.0
 20
0.0
 30
0.0
  3
BLK9
  0
ENDBLK
  8
0
  5
11B
  0
BLOCK
  8
0
  5
11D
  2
*X15
 70
    65
 10
-16.784561
 20
38.917881
 30
0.0
  3
*X15
  0
LINE
  8
LC-003-005-----0
  6
CONTINUOUS
  5
11E
 10
33.261027
 20
38.917881
 30
0.0
 11
35.215439
 21
40.872293
 31
0.0
  0
LINE
  8
LC-003-005-----0
  6
CONTINUOUS
  5
11F
 10
27.604173
 20
38.917881
 30
0.0
 11
35.215439
 21
46.529147
 31
0.0
  0
LINE
  8
LC-003-005-----0
  6
CONTINUOUS
  5
120
 10
21.947319
 20
38.917881
 30
0.0
 11
35.215439
 21
52.186001
 31
0.0
  0
LINE
  8
LC-003-005-----0
  6
CONTINUOUS
  5
121
 10
16.290464
 20
38.917881
 30
0.0
 11
30.290464
 21
52.917881
 31
0.0
  0
LINE
  8
LC-003-005-----0
  6
CONTINUOUS
  5
122
 10
10.63361
 20
38.917881
 30
0.0
 11
24.63361
 21
52.917881
 31
0.0
  0
LINE
  8
LC-003-005-----0
  6
CONTINUOUS
  5
123
 10
4.976756
 20
38.917881
 30
0.0
 11
18.976756
 21
52.917881
 31
0.0
  0
LINE
  8
LC-003-005-----0
  6
CONTINUOUS
  5
124
 10
-0.680098
 20
38.917881
 30
0.0
 11
13.319902
 21
52.917881
 31
0.0
  0
LINE
  8
LC-003-005-----0
  6
CONTINUOUS
  5
125
 10
-6.336953
 20
38.917881
 30
0.0
 11
7.663047
 21
52.917881
 31
0.0
  0
LINE
  8
LC-003-005-----0
  6
CONTINUOUS
  5
126
 10
-11.993807
 20
38.917881
 30
0.0
 11
2.006193
 21
52.917881
 31
0.0
  0
LINE
  8
LC-003-005-----0
  6
CONTINUOUS
  5
127
 10
-16.784561
 20
39.783981
 30
0.0
 11
-3.650661
 21
52.917881
 31
0.0
  0
LINE
  8
LC-003-005-----0
  6
CONTINUOUS
  5
128
 10
-16.784561
 20
45.440835
 30
0.0
 11
-9.307515
 21
52.917881
 31
0.0
  0
LINE
  8
LC-003-005-----0
  6
CONTINUOUS
  5
129
 10
-16.784561
 20
51.09769
 30
0.0
 11
-14.96437
 21
52.917881
 31
0.0
  0
LINE
  8
LC-003-005-----0
  6
CONTINUOUS
  5
12A
 10
35.215439
 20
49.637375
 30
0.0
 11
31.934932
 21
52.917881
 31
0.0
  0
LINE
  8
LC-003-005-----0
  6
CONTINUOUS
  5
12B
 10
35.215439
 20
43.980521
 30
0.0
 11
26.278078
 21
52.917881
 31
0.0
  0
LINE
  8
LC-003-005-----0
  6
CONTINUOUS
  5
12C
 10
34.621224
 20
38.917881
 30
0.0
 11
20.621224
 21
52.917881
 31
0.0
  0
LINE
  8
LC-003-005-----0
  6
CONTINUOUS
  5
12D
 10
28.96437
 20
38.917881
 30
0.0
 11
14.96437
 21
52.917881
 31
0.0
  0
LINE
  8
LC-003-005-----0
  6
CONTINUOUS
  5
12E
 10
23.307515
 20
38.917881
 30
0.0
 11
9.307515
 21
52.917881
 31
0.0
  0
LINE
  8
LC-003-005-----0
  6
CONTINUOUS
  5
12F
 10
17.650661
 20
38.917881
 30
0.0
 11
3.650661
 21
52.917881
 31
0.0
  0
LINE
  8
LC-003-005-----0
  6
CONTINUOUS
  5
130
 10
11.993807
 20
38.917881
 30
0.0
 11
-2.006193
 21
52.917881
 31
0.0
  0
LINE
  8
LC-003-005-----0
  6
CONTINUOUS
  5
131
 10
6.336953
 20
38.917881
 30
0.0
 11
-7.663047
 21
52.917881
 31
0.0
  0
LINE
  8
LC-003-005-----0
  6
CONTINUOUS
  5
132
 10
0.680098
 20
38.917881
 30
0.0
 11
-13.319902
 21
52.917881
 31
0.0
  0
LINE
  8
LC-003-005-----0
  6
CONTINUOUS
  5
133
 10
-4.976756
 20
38.917881
 30
0.0
 11
-16.784561
 21
50.725687
 31
0.0
  0
LINE
  8
LC-003-005-----0
  6
CONTINUOUS
  5
134
 10
-10.63361
 20
38.917881
 30
0.0
 11
-16.784561
 21
45.068833
 31
0.0
  0
LINE
  8
LC-003-005-----0
  6
CONTINUOUS
  5
135
 10
-16.290464
 20
38.917881
 30
0.0
 11
-16.784561
 21
39.411978
 31
0.0
  0
ENDBLK
  8
0
  5
136
  0
BLOCK
  8
0
  5
138
  2
*X16
 70
    65
 10
35.215439
 20
38.917881
 30
0.0
  3
*X16
  0
LINE
  8
LC-003-005-----0
  6
CONTINUOUS
  5
139
 10
84.172715
 20
38.917881
 30
0.0
 11
87.215439
 21
41.960605
 31
0.0
  0
LINE
  8
LC-003-005-----0
  6
CONTINUOUS
  5
13A
 10
78.515861
 20
38.917881
 30
0.0
 11
87.215439
 21
47.617459
 31
0.0
  0
LINE
  8
LC-003-005-----0
  6
CONTINUOUS
  5
13B
 10
72.859007
 20
38.917881
 30
0.0
 11
86.859007
 21
52.917881
 31
0.0
  0
LINE
  8
LC-003-005-----0
  6
CONTINUOUS
  5
13C
 10
67.202153
 20
38.917881
 30
0.0
 11
81.202153
 21
52.917881
 31
0.0
  0
LINE
  8
LC-003-005-----0
  6
CONTINUOUS
  5
13D
 10
61.545298
 20
38.917881
 30
0.0
 11
75.545298
 21
52.917881
 31
0.0
  0
LINE
  8
LC-003-005-----0
  6
CONTINUOUS
  5
13E
 10
55.888444
 20
38.917881
 30
0.0
 11
69.888444
 21
52.917881
 31
0.0
  0
LINE
  8
LC-003-005-----0
  6
CONTINUOUS
  5
13F
 10
50.23159
 20
38.917881
 30
0.0
 11
64.23159
 21
52.917881
 31
0.0
  0
LINE
  8
LC-003-005-----0
  6
CONTINUOUS
  5
140
 10
44.574736
 20
38.917881
 30
0.0
 11
58.574736
 21
52.917881
 31
0.0
  0
LINE
  8
LC-003-005-----0
  6
CONTINUOUS
  5
141
 10
38.917881
 20
38.917881
 30
0.0
 11
52.917881
 21
52.917881
 31
0.0
  0
LINE
  8
LC-003-005-----0
  6
CONTINUOUS
  5
142
 10
35.215439
 20
40.872293
 30
0.0
 11
47.261027
 21
52.917881
 31
0.0
  0
LINE
  8
LC-003-005-----0
  6
CONTINUOUS
  5
143
 10
35.215439
 20
46.529147
 30
0.0
 11
41.604173
 21
52.917881
 31
0.0
  0
LINE
  8
LC-003-005-----0
  6
CONTINUOUS
  5
144
 10
35.215439
 20
52.186001
 30
0.0
 11
35.947319
 21
52.917881
 31
0.0
  0
LINE
  8
LC-003-005-----0
  6
CONTINUOUS
  5
145
 10
87.215439
 20
48.549063
 30
0.0
 11
82.846621
 21
52.917881
 31
0.0
  0
LINE
  8
LC-003-005-----0
  6
CONTINUOUS
  5
146
 10
87.215439
 20
42.892209
 30
0.0
 11
77.189766
 21
52.917881
 31
0.0
  0
LINE
  8
LC-003-005-----0
  6
CONTINUOUS
  5
147
 10
85.532912
 20
38.917881
 30
0.0
 11
71.532912
 21
52.917881
 31
0.0
  0
LINE
  8
LC-003-005-----0
  6
CONTINUOUS
  5
148
 10
79.876058
 20
38.917881
 30
0.0
 11
65.876058
 21
52.917881
 31
0.0
  0
LINE
  8
LC-003-005-----0
  6
CONTINUOUS
  5
149
 10
74.219204
 20
38.917881
 30
0.0
 11
60.219204
 21
52.917881
 31
0.0
  0
LINE
  8
LC-003-005-----0
  6
CONTINUOUS
  5
14A
 10
68.562349
 20
38.917881
 30
0.0
 11
54.562349
 21
52.917881
 31
0.0
  0
LINE
  8
LC-003-005-----0
  6
CONTINUOUS
  5
14B
 10
62.905495
 20
38.917881
 30
0.0
 11
48.905495
 21
52.917881
 31
0.0
  0
LINE
  8
LC-003-005-----0
  6
CONTINUOUS
  5
14C
 10
57.248641
 20
38.917881
 30
0.0
 11
43.248641
 21
52.917881
 31
0.0
  0
LINE
  8
LC-003-005-----0
  6
CONTINUOUS
  5
14D
 10
51.591787
 20
38.917881
 30
0.0
 11
37.591787
 21
52.917881
 31
0.0
  0
LINE
  8
LC-003-005-----0
  6
CONTINUOUS
  5
14E
 10
45.934932
 20
38.917881
 30
0.0
 11
35.215439
 21
49.637375
 31
0.0
  0
LINE
  8
LC-003-005-----0
  6
CONTINUOUS
  5
14F
 10
40.278078
 20
38.917881
 30
0.0
 11
35.215439
 21
43.980521
 31
0.0
  0
ENDBLK
  8
0
  5
150
  0
BLOCK
  8
0
  5
152
  2
*D17
 70
    65
 10
0.0
 20
0.0
 30
0.0
  3
*D17
  0
LINE
  8
LC-006-003-MTH-0
  6
CONTINUOUS
  5
153
 10
87.215001
 20
38.917881
 30
0.0
 11
142.801217
 21
38.916143
 31
0.0
  0
LINE
  8
LC-006-003-MTH-0
  6
CONTINUOUS
  5
154
 10
87.215439
 20
52.917881
 30
0.0
 11
142.801655
 21
52.916143
 31
0.0
  0
LINE
  8
LC-005-003-----0
  6
CONTINUOUS
  5
155
 10
129.655082
 20
11.156098
 30
0.0
 11
126.001217
 21
38.916668
 31
0.0
  0
LINE
  8
LC-005-003-----0
  6
CONTINUOUS
  5
156
 10
126.001217
 20
38.916668
 30
0.0
 11
122.345616
 21
11.156327
 31
0.0
  0
LINE
  8
LC-005-003-----0
  6
CONTINUOUS
  5
157
 10
122.345616
 20
11.156327
 30
0.0
 11
129.655082
 21
11.156098
 31
0.0
  0
LINE
  8
LC-005-003-----0
  6
CONTINUOUS
  5
158
 10
128.70485
 20
11.093846
 30
0.0
 11
126.000989
 21
31.636668
 31
0.0
  0
LINE
  8
LC-005-003-----0
  6
CONTINUOUS
  5
159
 10
126.000989
 20
31.636668
 30
0.0
 11
123.295844
 21
11.094015
 31
0.0
  0
LINE
  8
LC-005-003-----0
  6
CONTINUOUS
  5
15A
 10
127.754617
 20
11.031595
 30
0.0
 11
126.000762
 21
24.356668
 31
0.0
  0
LINE
  8
LC-005-003-----0
  6
CONTINUOUS
  5
15B
 10
126.000762
 20
24.356668
 30
0.0
 11
124.246073
 21
11.031704
 31
0.0
  0
LINE
  8
LC-005-003-----0
  6
CONTINUOUS
  5
15C
 10
126.804384
 20
10.969343
 30
0.0
 11
126.000534
 21
17.076668
 31
0.0
  0
LINE
  8
LC-005-003-----0
  6
CONTINUOUS
  5
15D
 10
126.000534
 20
17.076668
 30
0.0
 11
125.196302
 21
10.969393
 31
0.0
  0
LINE
  8
LC-005-003-----0
  6
CONTINUOUS
  5
15E
 10
122.34779
 20
80.677239
 30
0.0
 11
126.001655
 21
52.916668
 31
0.0
  0
LINE
  8
LC-005-003-----0
  6
CONTINUOUS
  5
15F
 10
126.001655
 20
52.916668
 30
0.0
 11
129.657257
 21
80.67701
 31
0.0
  0
LINE
  8
LC-005-003-----0
  6
CONTINUOUS
  5
160
 10
129.657257
 20
80.67701
 30
0.0
 11
122.34779
 21
80.677239
 31
0.0
  0
LINE
  8
LC-005-003-----0
  6
CONTINUOUS
  5
161
 10
123.298022
 20
80.73949
 30
0.0
 11
126.001883
 21
60.196668
 31
0.0
  0
LINE
  8
LC-005-003-----0
  6
CONTINUOUS
  5
162
 10
126.001883
 20
60.196668
 30
0.0
 11
128.707028
 21
80.739321
 31
0.0
  0
LINE
  8
LC-005-003-----0
  6
CONTINUOUS
  5
163
 10
124.248255
 20
80.801742
 30
0.0
 11
126.00211
 21
67.476668
 31
0.0
  0
LINE
  8
LC-005-003-----0
  6
CONTINUOUS
  5
164
 10
126.00211
 20
67.476668
 30
0.0
 11
127.756799
 21
80.801632
 31
0.0
  0
LINE
  8
LC-005-003-----0
  6
CONTINUOUS
  5
165
 10
125.198488
 20
80.863994
 30
0.0
 11
126.002338
 21
74.756668
 31
0.0
  0
LINE
  8
LC-005-003-----0
  6
CONTINUOUS
  5
166
 10
126.002338
 20
74.756668
 30
0.0
 11
126.80657
 21
80.863944
 31
0.0
  0
LINE
  8
LC-007-003-MTG-0
  6
CONTINUOUS
  5
167
 10
125.999991
 20
-0.283332
 30
0.0
 11
126.004262
 21
136.281068
 31
0.0
  0
TEXT
  8
LC-005-003-----0
  6
CONTINUOUS
 62
     8
  5
168
 10
118.174977
 20
95.344566
 30
0.0
 40
28.0
  1
14
 50
90.0
 51
15.0
  7
LC-TXTSTYLE-150-400-0-0-D0
  0
ENDBLK
  8
0
  5
169
  0
BLOCK
  8
0
  5
16B
  2
*D18
 70
    65
 10
0.0
 20
0.0
 30
0.0
  3
*D18
  0
LINE
  8
LC-006-003-MTH-0
  6
CONTINUOUS
  5
16C
 10
87.215439
 20
52.917881
 30
0.0
 11
184.8
 21
52.917881
 31
0.0
  0
LINE
  8
LC-006-003-MTH-0
  6
CONTINUOUS
  5
16D
 10
138.193439
 20
157.417881
 30
0.0
 11
184.8
 21
157.417881
 31
0.0
  0
LINE
  8
LC-007-003-MTG-0
  6
CONTINUOUS
  5
16E
 10
168.0
 20
52.917881
 30
0.0
 11
168.0
 21
157.417881
 31
0.0
  0
LINE
  8
LC-005-003-----0
  6
CONTINUOUS
  5
16F
 10
164.345267
 20
80.678337
 30
0.0
 11
168.0
 21
52.917881
 31
0.0
  0
LINE
  8
LC-005-003-----0
  6
CONTINUOUS
  5
170
 10
168.0
 20
52.917881
 30
0.0
 11
171.654733
 21
80.678337
 31
0.0
  0
LINE
  8
LC-005-003-----0
  6
CONTINUOUS
  5
171
 10
171.654733
 20
80.678337
 30
0.0
 11
164.345267
 21
80.678337
 31
0.0
  0
LINE
  8
LC-005-003-----0
  6
CONTINUOUS
  5
172
 10
165.295497
 20
80.740619
 30
0.0
 11
168.0
 21
60.197881
 31
0.0
  0
LINE
  8
LC-005-003-----0
  6
CONTINUOUS
  5
173
 10
168.0
 20
60.197881
 30
0.0
 11
170.704503
 21
80.740619
 31
0.0
  0
LINE
  8
LC-005-003-----0
  6
CONTINUOUS
  5
174
 10
166.245728
 20
80.8029
 30
0.0
 11
168.0
 21
67.477881
 31
0.0
  0
LINE
  8
LC-005-003-----0
  6
CONTINUOUS
  5
175
 10
168.0
 20
67.477881
 30
0.0
 11
169.754272
 21
80.8029
 31
0.0
  0
LINE
  8
LC-005-003-----0
  6
CONTINUOUS
  5
176
 10
167.195959
 20
80.865182
 30
0.0
 11
168.0
 21
74.757881
 31
0.0
  0
LINE
  8
LC-005-003-----0
  6
CONTINUOUS
  5
177
 10
168.0
 20
74.757881
 30
0.0
 11
168.804041
 21
80.865182
 31
0.0
  0
LINE
  8
LC-005-003-----0
  6
CONTINUOUS
  5
178
 10
171.654733
 20
129.657425
 30
0.0
 11
168.0
 21
157.417881
 31
0.0
  0
LINE
  8
LC-005-003-----0
  6
CONTINUOUS
  5
179
 10
168.0
 20
157.417881
 30
0.0
 11
164.345267
 21
129.657425
 31
0.0
  0
LINE
  8
LC-005-003-----0
  6
CONTINUOUS
  5
17A
 10
164.345267
 20
129.657425
 30
0.0
 11
171.654733
 21
129.657425
 31
0.0
  0
LINE
  8
LC-005-003-----0
  6
CONTINUOUS
  5
17B
 10
170.704503
 20
129.595144
 30
0.0
 11
168.0
 21
150.137881
 31
0.0
  0
LINE
  8
LC-005-003-----0
  6
CONTINUOUS
  5
17C
 10
168.0
 20
150.137881
 30
0.0
 11
165.295497
 21
129.595144
 31
0.0
  0
LINE
  8
LC-005-003-----0
  6
CONTINUOUS
  5
17D
 10
169.754272
 20
129.532862
 30
0.0
 11
168.0
 21
142.857881
 31
0.0
  0
LINE
  8
LC-005-003-----0
  6
CONTINUOUS
  5
17E
 10
168.0
 20
142.857881
 30
0.0
 11
166.245728
 21
129.532862
 31
0.0
  0
LINE
  8
LC-005-003-----0
  6
CONTINUOUS
  5
17F
 10
168.804041
 20
129.470581
 30
0.0
 11
168.0
 21
135.577881
 31
0.0
  0
LINE
  8
LC-005-003-----0
  6
CONTINUOUS
  5
180
 10
168.0
 20
135.577881
 30
0.0
 11
167.195959
 21
129.470581
 31
0.0
  0
TEXT
  8
LC-005-003-----0
  6
CONTINUOUS
 62
     8
  5
181
 10
160.172446
 20
55.362498
 30
0.0
 40
28.0
  1
16-104
 50
90.0
 51
15.0
  7
LC-TXTSTYLE-150-400-0-0-D0
 72
     1
 11
160.172446
 21
109.516041
 31
0.0
  0
ENDBLK
  8
0
  5
182
  0
BLOCK
  8
0
  5
184
  2
BLK10
 70
    64
 10
0.0
 20
0.0
 30
0.0
  3
BLK10
  0
ENDBLK
  8
0
  5
185
  0
BLOCK
  8
0
  5
187
  2
BLK11
 70
    64
 10
0.0
 20
0.0
 30
0.0
  3
BLK11
  0
ENDBLK
  8
0
  5
188
  0
BLOCK
  8
0
  5
18A
  2
BLK12
 70
    64
 10
0.0
 20
0.0
 30
0.0
  3
BLK12
  0
ENDBLK
  8
0
  5
18B
  0
BLOCK
  8
0
  5
18D
  2
BLK13
 70
    64
 10
0.0
 20
0.0
 30
0.0
  3
BLK13
  0
ENDBLK
  8
0
  5
18E
  0
ENDSEC
  0
SECTION
  2
ENTITIES
  0
VIEWPORT
  8
LC-000
  5
24C
 67
     1
 68
     1
 10
420.0
 20
297.0
 30
0.0
 40
840.0
 41
594.0
 69
     1
1001
ACAD
1000
MVIEW
1002
{
1070
    16
1010
0.0
1020
0.0
1030
0.0
1010
0.0
1020
0.0
1030
1.0
1040
0.0
1040
594.0
1040
420.0
1040
297.0
1040
50.0
1040
0.0
1040
0.0
1070
     0
1070
   100
1070
     1
1070
     1
1070
     0
1070
     0
1070
     0
1070
     0
1040
0.0
1040
0.0
1040
0.0
1040
1.0
1040
1.0
1040
0.0
1040
0.0
1070
     0
1002
{
1002
}
1002
}
  0
VIEWPORT
  8
0
  5
24D
 67
     1
 68
     1
 10
0.0
 20
0.0
 30
0.0
 40
0.0
 41
0.0
 69
     1
1001
ACAD
1000
MVIEW
1002
{
1070
    16
1010
0.0
1020
0.0
1030
0.0
1010
0.0
1020
0.0
1030
1.0
1040
0.0
1040
594.0
1040
0.0
1040
0.0
1040
50.0
1040
0.0
1040
0.0
1070
     0
1070
   100
1070
     0
1070
     1
1070
     0
1070
     0
1070
     0
1070
     0
1040
0.0
1040
0.0
1040
0.0
1040
0.5
1040
0.5
1040
0.5
1040
0.5
1070
     0
1002
{
1002
}
1002
}
  0
INSERT
  8
0
  5
18F
  2
*X0
 10
-24.784168
 20
35.917907
 30
0.0
  0
INSERT
  8
0
  5
190
  2
*X1
 10
87.215001
 20
35.917907
 30
0.0
  0
INSERT
  8
0
  5
192
  2
BLK1
 10
0.0
 20
0.0
 30
0.0
  0
INSERT
  8
0
  5
193
  2
*X3
 10
77.215439
 20
38.917881
 30
0.0
  0
INSERT
  8
0
  5
194
  2
BLK2
 10
0.0
 20
0.0
 30
0.0
  0
INSERT
  8
0
  5
195
  2
BLK3
 10
0.0
 20
0.0
 30
0.0
  0
DIMENSION
  8
0
  5
196
  2
*D6
 10
35.215439
 20
182.0
 30
0.0
 11
35.215439
 21
182.0
 31
0.0
  1
150
 13
-37.762561
 23
158.917881
 33
0.0
 14
108.193439
 24
158.917881
 34
0.0
  3
LC-DIM-L-0140-02-02
  0
DIMENSION
  8
0
  5
197
  2
*D7
 10
35.215439
 20
0.0
 30
0.0
 11
35.215439
 21
0.0
 31
0.0
  1
%%c110
 13
-19.784561
 23
43.417881
 33
0.0
 14
90.215439
 24
43.417881
 34
0.0
  3
LC-DIM-L-0140-02-02
  0
INSERT
  8
0
  5
198
  2
*X8
 10
-67.762561
 20
38.917881
 30
0.0
  0
INSERT
  8
0
  5
199
  2
BLK4
 10
0.0
 20
0.0
 30
0.0
  0
INSERT
  8
0
  5
19A
  2
BLK5
 10
0.0
 20
0.0
 30
0.0
  0
INSERT
  8
0
  5
19B
  2
BLK6
 10
0.0
 20
0.0
 30
0.0
  0
INSERT
  8
0
  5
19C
  2
BLK7
 10
0.0
 20
0.0
 30
0.0
  0
INSERT
  8
0
  5
19D
  2
BLK8
 10
0.0
 20
0.0
 30
0.0
  0
INSERT
  8
0
  5
19F
  2
BLK9
 10
0.0
 20
0.0
 30
0.0
  0
INSERT
  8
0
  5
1A0
  2
*X15
 10
-16.784561
 20
38.917881
 30
0.0
  0
INSERT
  8
0
  5
1A1
  2
*X16
 10
35.215439
 20
38.917881
 30
0.0
  0
DIMENSION
  8
0
  5
1A2
  2
*D17
 10
126.001436
 20
45.916668
 30
0.0
 11
126.001436
 21
45.916668
 31
0.0
 70
     1
 13
87.215001
 23
38.917881
 33
0.0
 14
87.215439
 24
52.917881
 34
0.0
  3
LC-DIM-L-0140-02-02
  0
DIMENSION
  8
0
  5
1A3
  2
*D18
 10
168.0
 20
105.167881
 30
0.0
 11
168.0
 21
105.167881
 31
0.0
  1
16-104
 13
87.215439
 23
52.917881
 33
0.0
 14
138.193439
 24
157.417881
 34
0.0
 50
90.0
  3
LC-DIM-L-0140-02-02
  0
INSERT
  8
0
  5
1A4
  2
BLK10
 10
0.0
 20
0.0
 30
0.0
  0
INSERT
  8
0
  5
1A5
  2
BLK11
 10
0.0
 20
0.0
 30
0.0
  0
INSERT
  8
0
  5
1A6
  2
BLK12
 10
0.0
 20
0.0
 30
0.0
  0
INSERT
  8
0
  5
1A7
  2
BLK13
 10
0.0
 20
0.0
 30
0.0
  0
LINE
  8
LC-001-002-----0
  6
CONTINUOUS
  5
1A9
 10
90.21493
 20
53.917716
 30
0.0
 11
90.214954
 21
45.917822
 31
0.0
  0
LINE
  8
LC-001-002-----0
  6
CONTINUOUS
  5
1AA
 10
90.215439
 20
144.917881
 30
0.0
 11
108.193439
 21
144.917881
 31
0.0
  0
LINE
  8
LC-001-002-----0
  6
CONTINUOUS
  5
1AB
 10
108.193439
 20
147.417881
 30
0.0
 11
108.193439
 21
146.417881
 31
0.0
  0
LINE
  8
LC-001-002-----0
  6
CONTINUOUS
  5
1AC
 10
108.193439
 20
157.417881
 30
0.0
 11
108.193439
 21
158.917881
 31
0.0
  0
LINE
  8
LC-001-002-----0
  6
CONTINUOUS
  5
1AD
 10
108.193439
 20
157.417881
 30
0.0
 11
138.193439
 21
157.417881
 31
0.0
  0
LINE
  8
LC-001-002-----0
  6
CONTINUOUS
  5
1AE
 10
138.193439
 20
154.417881
 30
0.0
 11
108.193439
 21
154.417881
 31
0.0
  0
LINE
  8
LC-001-002-----0
  6
CONTINUOUS
  5
1AF
 10
220.193439
 20
55.140503
 30
0.0
 11
220.193439
 21
199.140503
 31
0.0
  0
LINE
  8
LC-001-002-----0
  6
CONTINUOUS
  5
1B0
 10
365.193439
 20
54.140503
 30
0.0
 11
221.193439
 21
54.140503
 31
0.0
  0
LINE
  8
LC-001-002-----0
  6
CONTINUOUS
  5
1B1
 10
366.193439
 20
199.140503
 30
0.0
 11
366.193439
 21
55.140503
 31
0.0
  0
ARC
  8
LC-002-002-RND-0
  6
CONTINUOUS
  5
1B3
 10
221.193439
 20
199.140503
 30
0.0
 40
1.0
 50
90.0
 51
180.0
  0
LINE
  8
LC-001-002-----0
  6
CONTINUOUS
  5
1B4
 10
-19.784561
 20
144.917881
 30
0.0
 11
-37.762561
 21
144.917881
 31
0.0
  0
ARC
  8
LC-002-002-RND-0
  6
CONTINUOUS
  5
1B5
 10
360.693439
 20
194.640503
 30
0.0
 40
2.0
 50
0.0
 51
90.0
  0
LINE
  8
LC-001-002-----0
  6
CONTINUOUS
  5
1B6
 10
81.715439
 20
148.417881
 30
0.0
 11
81.715439
 21
145.917881
 31
0.0
  0
ARC
  8
LC-002-002-RND-0
  6
CONTINUOUS
  5
1B7
 10
225.693439
 20
194.640503
 30
0.0
 40
2.0
 50
90.0
 51
180.0
  0
LINE
  8
LC-001-002-----0
  6
CONTINUOUS
  5
1B8
 10
101.215439
 20
153.917881
 30
0.0
 11
95.215439
 21
153.917881
 31
0.0
  0
LINE
  8
LC-001-002-----0
  6
CONTINUOUS
  5
1B9
 10
87.215001
 20
35.917907
 30
0.0
 11
95.215046
 21
35.917907
 31
0.0
  0
LINE
  8
LC-001-002-----0
  6
CONTINUOUS
  5
1BA
 10
221.193439
 20
200.140503
 30
0.0
 11
365.193439
 21
200.140503
 31
0.0
  0
CIRCLE
  8
LC-001-002-----0
  6
CONTINUOUS
  5
1BB
 10
293.193439
 20
127.140503
 30
0.0
 40
46.5
  0
LINE
  8
LC-001-002-----0
  6
CONTINUOUS
  5
1BC
 10
101.215439
 20
148.417881
 30
0.0
 11
101.215439
 21
153.917881
 31
0.0
  0
LINE
  8
LC-001-002-----0
  6
CONTINUOUS
  5
1BD
 10
81.715439
 20
145.917881
 30
0.0
 11
77.215439
 21
145.917881
 31
0.0
  0
LINE
  8
LC-001-002-----0
  6
CONTINUOUS
  5
1BE
 10
84.215439
 20
142.917881
 30
0.0
 11
84.215439
 21
145.417881
 31
0.0
  0
LINE
  8
LC-001-002-----0
  6
CONTINUOUS
  5
1BF
 10
84.215439
 20
142.917881
 30
0.0
 11
80.515439
 21
142.917881
 31
0.0
  0
CIRCLE
  8
LC-001-002-----0
  6
CONTINUOUS
  5
1C0
 10
293.193439
 20
127.140503
 30
0.0
 40
42.0
  0
LINE
  8
LC-001-002-----0
  6
CONTINUOUS
  5
1C1
 10
87.215439
 20
145.417881
 30
0.0
 11
84.215439
 21
145.417881
 31
0.0
  0
LINE
  8
LC-001-002-----0
  6
CONTINUOUS
  5
1C2
 10
-37.262561
 20
159.417881
 30
0.0
 11
107.693439
 21
159.417881
 31
0.0
  0
LINE
  8
LC-001-002-----0
  6
CONTINUOUS
  5
1C3
 10
70.908729
 20
35.917907
 30
0.0
 11
70.908729
 21
38.917881
 31
0.0
  0
LINE
  8
LC-001-002-----0
  6
CONTINUOUS
  5
1C4
 10
-0.477852
 20
35.917907
 30
0.0
 11
-0.477852
 21
38.917881
 31
0.0
  0
LINE
  8
LC-001-002-----0
  6
CONTINUOUS
  5
1C5
 10
-2.599155
 20
35.917907
 30
0.0
 11
-2.599155
 21
38.917881
 31
0.0
  0
LINE
  8
LC-001-002-----0
  6
CONTINUOUS
  5
1C6
 10
87.215439
 20
148.455512
 30
0.0
 11
87.215439
 21
153.917881
 31
0.0
  0
LINE
  8
LC-001-002-----0
  6
CONTINUOUS
  5
1C7
 10
87.215439
 20
153.917881
 30
0.0
 11
95.215439
 21
153.917881
 31
0.0
  0
LINE
  8
LC-001-002-----0
  6
CONTINUOUS
  5
1C8
 10
190.215439
 20
29.162503
 30
0.0
 11
190.215439
 21
225.118503
 31
0.0
  0
LINE
  8
LC-001-002-----0
  6
CONTINUOUS
  5
1C9
 10
195.215439
 20
230.118503
 30
0.0
 11
391.171439
 21
230.118503
 31
0.0
  0
LINE
  8
LC-001-002-----0
  6
CONTINUOUS
  5
1CA
 10
396.171439
 20
225.118503
 30
0.0
 11
396.171439
 21
29.162503
 31
0.0
  0
LINE
  8
LC-001-002-----0
  6
CONTINUOUS
  5
1CB
 10
391.171439
 20
24.162503
 30
0.0
 11
195.215439
 21
24.162503
 31
0.0
  0
ARC
  8
LC-002-002-RND-0
  6
CONTINUOUS
  5
1CC
 10
195.215439
 20
29.162503
 30
0.0
 40
5.0
 50
180.0
 51
270.0
  0
ARC
  8
LC-002-002-RND-0
  6
CONTINUOUS
  5
1CD
 10
195.215439
 20
225.118503
 30
0.0
 40
5.0
 50
90.0
 51
180.0
  0
ARC
  8
LC-002-002-RND-0
  6
CONTINUOUS
  5
1CE
 10
391.171439
 20
225.118503
 30
0.0
 40
5.0
 50
0.0
 51
90.0
  0
ARC
  8
LC-002-002-RND-0
  6
CONTINUOUS
  5
1CF
 10
391.171439
 20
29.162503
 30
0.0
 40
5.0
 50
270.0
 51
0.0
  0
ARC
  8
LC-002-002-RND-0
  6
CONTINUOUS
  5
1D0
 10
107.693439
 20
158.917881
 30
0.0
 40
0.5
 50
0.0
 51
90.0
  0
ARC
  8
LC-002-002-RND-0
  6
CONTINUOUS
  5
1D1
 10
105.193439
 20
158.917881
 30
0.0
 40
0.5
 50
90.0
 51
180.0
  0
ARC
  8
LC-002-002-RND-0
  6
CONTINUOUS
  5
1D2
 10
365.193439
 20
199.140503
 30
0.0
 40
1.0
 50
0.0
 51
90.0
  0
LINE
  8
LC-001-002-----0
  6
CONTINUOUS
  5
1D3
 10
90.215439
 20
144.917881
 30
0.0
 11
90.215439
 21
43.417881
 31
0.0
  0
LINE
  8
LC-001-002-----0
  6
CONTINUOUS
  5
1D4
 10
87.215439
 20
145.417881
 30
0.0
 11
87.215439
 21
38.917881
 31
0.0
  0
LINE
  8
LC-001-002-----0
  6
CONTINUOUS
  5
1D5
 10
89.009667
 20
38.917881
 30
0.0
 11
35.215439
 21
38.917881
 31
0.0
  0
LINE
  8
LC-001-002-----0
  6
CONTINUOUS
  5
1D6
 10
90.215439
 20
43.417881
 30
0.0
 11
89.009667
 21
38.917881
 31
0.0
  0
LINE
  8
LC-001-002-----0
  6
CONTINUOUS
  5
1D7
 10
95.215046
 20
35.917907
 30
0.0
 11
95.215046
 21
45.917132
 31
0.0
  0
LINE
  8
LC-001-002-----0
  6
CONTINUOUS
  5
1D8
 10
92.214952
 20
55.917738
 30
0.0
 11
92.214952
 21
45.917822
 31
0.0
  0
LINE
  8
LC-001-002-----0
  6
CONTINUOUS
  5
1D9
 10
93.715058
 20
45.917822
 30
0.0
 11
95.215046
 21
45.917822
 31
0.0
  0
LINE
  8
LC-001-002-----0
  6
CONTINUOUS
  5
1DA
 10
92.214952
 20
55.917738
 30
0.0
 11
90.21493
 21
53.917716
 31
0.0
  0
LINE
  8
LC-001-002-----0
  6
CONTINUOUS
  5
1DB
 10
93.715058
 20
45.917822
 30
0.0
 11
92.214952
 21
45.917822
 31
0.0
  0
LINE
  8
LC-001-002-----0
  6
CONTINUOUS
  5
1DC
 10
33.715451
 20
38.917881
 30
0.0
 11
36.715426
 21
38.917881
 31
0.0
  0
LINE
  8
LC-001-002-----0
  6
CONTINUOUS
  5
1DD
 10
36.715426
 20
35.917907
 30
0.0
 11
36.715426
 21
38.917881
 31
0.0
  0
LINE
  8
LC-001-002-----0
  6
CONTINUOUS
  5
1DE
 10
-7.199024
 20
35.917907
 30
0.0
 11
-7.199024
 21
38.917881
 31
0.0
  0
LINE
  8
LC-001-002-----0
  6
CONTINUOUS
  5
1DF
 10
-7.199024
 20
38.917881
 30
0.0
 11
-0.477852
 21
38.917881
 31
0.0
  0
LINE
  8
LC-001-002-----0
  6
CONTINUOUS
  5
1E0
 10
-16.784124
 20
35.917907
 30
0.0
 11
36.715426
 21
35.917907
 31
0.0
  0
LINE
  8
LC-001-002-----0
  6
CONTINUOUS
  5
1E1
 10
36.715426
 20
35.917907
 30
0.0
 11
70.908729
 21
35.917907
 31
0.0
  0
LINE
  8
LC-001-002-----0
  6
CONTINUOUS
  5
1E2
 10
70.908729
 20
35.917907
 30
0.0
 11
87.193362
 21
35.917907
 31
0.0
  0
LINE
  8
LC-001-002-----0
  6
CONTINUOUS
  5
1E3
 10
33.715451
 20
35.917907
 30
0.0
 11
33.715451
 21
38.917881
 31
0.0
  0
ARC
  8
LC-002-002-RND-0
  6
CONTINUOUS
  5
1E4
 10
221.193439
 20
55.140503
 30
0.0
 40
1.0
 50
180.0
 51
270.0
  0
LINE
  8
LC-001-002-----0
  6
CONTINUOUS
  5
1E5
 10
-19.784052
 20
53.917716
 30
0.0
 11
-19.784098
 21
38.917881
 31
0.0
  0
LINE
  8
LC-001-002-----0
  6
CONTINUOUS
  5
1E6
 10
-16.784124
 20
35.917907
 30
0.0
 11
-24.784168
 21
35.917907
 31
0.0
  0
LINE
  8
LC-001-002-----0
  6
CONTINUOUS
  5
1E7
 10
-24.784168
 20
35.917907
 30
0.0
 11
-24.784168
 21
45.917132
 31
0.0
  0
LINE
  8
LC-001-002-----0
  6
CONTINUOUS
  5
1E8
 10
-21.784075
 20
55.917738
 30
0.0
 11
-21.784075
 21
45.917822
 31
0.0
  0
LINE
  8
LC-001-002-----0
  6
CONTINUOUS
  5
1E9
 10
-23.284181
 20
45.917822
 30
0.0
 11
-24.784168
 21
45.917822
 31
0.0
  0
LINE
  8
LC-001-002-----0
  6
CONTINUOUS
  5
1EA
 10
-21.784075
 20
55.917738
 30
0.0
 11
-19.784052
 21
53.917716
 31
0.0
  0
LINE
  8
LC-001-002-----0
  6
CONTINUOUS
  5
1EB
 10
-37.762561
 20
147.417881
 30
0.0
 11
-37.762561
 21
146.417881
 31
0.0
  0
LINE
  8
LC-001-002-----0
  6
CONTINUOUS
  5
1EC
 10
80.015439
 20
134.417881
 30
0.0
 11
77.215439
 21
134.417881
 31
0.0
  0
LINE
  8
LC-001-002-----0
  6
CONTINUOUS
  5
1ED
 10
80.015439
 20
142.417881
 30
0.0
 11
80.015439
 21
134.417881
 31
0.0
  0
ARC
  8
LC-001-002-----0
  6
CONTINUOUS
  5
1EE
 10
80.515439
 20
142.417881
 30
0.0
 40
0.5
 50
90.0
 51
180.0
  0
LINE
  8
LC-001-002-----0
  6
CONTINUOUS
  5
1EF
 10
77.215439
 20
145.917881
 30
0.0
 11
77.215439
 21
134.417881
 31
0.0
  0
LINE
  8
LC-001-002-----0
  6
CONTINUOUS
  5
1F0
 10
88.215439
 20
148.417881
 30
0.0
 11
88.215439
 21
148.417881
 31
0.0
  0
LINE
  8
LC-001-002-----0
  6
CONTINUOUS
  5
1F1
 10
84.215439
 20
145.417881
 30
0.0
 11
87.215439
 21
145.417881
 31
0.0
  0
LINE
  8
LC-001-002-----0
  6
CONTINUOUS
  5
1F2
 10
-19.784098
 20
38.917881
 30
0.0
 11
-16.784124
 21
38.917881
 31
0.0
  0
LINE
  8
LC-001-002-----0
  6
CONTINUOUS
  5
1F3
 10
-16.784124
 20
38.917881
 30
0.0
 11
-16.784124
 21
35.917907
 31
0.0
  0
LINE
  8
LC-001-002-----0
  6
CONTINUOUS
  5
1F4
 10
104.693439
 20
148.417881
 30
0.0
 11
81.715439
 21
148.417881
 31
0.0
  0
LINE
  8
LC-001-002-----0
  6
CONTINUOUS
  5
1F5
 10
-23.284181
 20
45.917822
 30
0.0
 11
-21.784075
 21
45.917822
 31
0.0
  0
LINE
  8
LC-001-002-----0
  6
CONTINUOUS
  5
1F6
 10
104.693439
 20
148.417881
 30
0.0
 11
104.693439
 21
158.917881
 31
0.0
  0
LINE
  8
LC-001-002-----0
  6
CONTINUOUS
  5
1F7
 10
108.193439
 20
144.917881
 30
0.0
 11
108.193439
 21
154.417881
 31
0.0
  0
LINE
  8
LC-001-002-----0
  6
CONTINUOUS
  5
1F8
 10
90.214976
 20
38.917881
 30
0.0
 11
87.215001
 21
38.917881
 31
0.0
  0
LINE
  8
LC-001-002-----0
  6
CONTINUOUS
  5
1F9
 10
87.215001
 20
38.917881
 30
0.0
 11
87.215001
 21
35.917907
 31
0.0
  0
LINE
  8
LC-001-002-----0
  6
CONTINUOUS
  5
1FA
 10
90.21493
 20
53.917716
 30
0.0
 11
90.214976
 21
38.917881
 31
0.0
  0
LINE
  8
LC-001-002-----0
  6
CONTINUOUS
  5
1FB
 10
92.214952
 20
55.917738
 30
0.0
 11
90.21493
 21
53.917716
 31
0.0
  0
LINE
  8
LC-001-002-----0
  6
CONTINUOUS
  5
1FC
 10
35.215439
 20
145.917881
 30
0.0
 11
77.198928
 21
145.917881
 31
0.0
  0
LINE
  8
LC-001-002-----0
  6
CONTINUOUS
  5
1FD
 10
92.214952
 20
55.917738
 30
0.0
 11
92.214952
 21
45.917822
 31
0.0
  0
LINE
  8
LC-001-002-----0
  6
CONTINUOUS
  5
1FE
 10
95.215046
 20
35.917907
 30
0.0
 11
95.215046
 21
45.917132
 31
0.0
  0
LINE
  8
LC-001-002-----0
  6
CONTINUOUS
  5
1FF
 10
87.215001
 20
35.917907
 30
0.0
 11
95.215046
 21
35.917907
 31
0.0
  0
LINE
  8
LC-001-002-----0
  6
CONTINUOUS
  5
200
 10
77.629901
 20
35.917907
 30
0.0
 11
77.629901
 21
38.917881
 31
0.0
  0
LINE
  8
LC-001-002-----0
  6
CONTINUOUS
  5
201
 10
77.629901
 20
38.917881
 30
0.0
 11
70.908729
 21
38.917881
 31
0.0
  0
LINE
  8
LC-001-002-----0
  6
CONTINUOUS
  5
202
 10
73.030032
 20
35.917907
 30
0.0
 11
73.030032
 21
38.917881
 31
0.0
  0
LINE
  8
LC-001-002-----0
  6
CONTINUOUS
  5
203
 10
81.715439
 20
148.417881
 30
0.0
 11
86.215439
 21
148.417881
 31
0.0
  0
LINE
  8
LC-001-002-----0
  6
CONTINUOUS
  5
204
 10
-37.762561
 20
157.417881
 30
0.0
 11
-37.762561
 21
158.917881
 31
0.0
  0
LINE
  8
LC-001-002-----0
  6
CONTINUOUS
  5
205
 10
138.193439
 20
157.417881
 30
0.0
 11
138.193439
 21
154.417881
 31
0.0
  0
LINE
  8
LC-001-002-----0
  6
CONTINUOUS
  5
206
 10
223.693439
 20
59.640503
 30
0.0
 11
223.693439
 21
194.640503
 31
0.0
  0
LINE
  8
LC-001-002-----0
  6
CONTINUOUS
  5
207
 10
35.215439
 20
134.417881
 30
0.0
 11
77.452055
 21
134.417881
 31
0.0
  0
LINE
  8
LC-001-002-----0
  6
CONTINUOUS
  5
208
 10
81.715439
 20
148.417881
 30
0.0
 11
35.215439
 21
148.417881
 31
0.0
  0
LINE
  8
LC-001-002-----0
  6
CONTINUOUS
  5
209
 10
-37.762561
 20
157.417881
 30
0.0
 11
-67.762561
 21
157.417881
 31
0.0
  0
LINE
  8
LC-001-002-----0
  6
CONTINUOUS
  5
20A
 10
-67.762561
 20
154.417881
 30
0.0
 11
-37.762561
 21
154.417881
 31
0.0
  0
LINE
  8
LC-001-002-----0
  6
CONTINUOUS
  5
20B
 10
360.693439
 20
57.640503
 30
0.0
 11
225.693439
 21
57.640503
 31
0.0
  0
LINE
  8
LC-001-002-----0
  6
CONTINUOUS
  5
20C
 10
362.693439
 20
194.640503
 30
0.0
 11
362.693439
 21
59.640503
 31
0.0
  0
LINE
  8
LC-001-002-----0
  6
CONTINUOUS
  5
20D
 10
225.693439
 20
196.640503
 30
0.0
 11
360.693439
 21
196.640503
 31
0.0
  0
LINE
  8
LC-001-002-----0
  6
CONTINUOUS
  5
20E
 10
-11.284561
 20
148.417881
 30
0.0
 11
-11.284561
 21
145.917881
 31
0.0
  0
LINE
  8
LC-001-002-----0
  6
CONTINUOUS
  5
20F
 10
-30.784561
 20
153.917881
 30
0.0
 11
-24.784561
 21
153.917881
 31
0.0
  0
LINE
  8
LC-001-002-----0
  6
CONTINUOUS
  5
210
 10
-30.784561
 20
148.417881
 30
0.0
 11
-30.784561
 21
153.917881
 31
0.0
  0
LINE
  8
LC-001-002-----0
  6
CONTINUOUS
  5
211
 10
-11.284561
 20
145.917881
 30
0.0
 11
-6.784561
 21
145.917881
 31
0.0
  0
LINE
  8
LC-001-002-----0
  6
CONTINUOUS
  5
212
 10
-13.784561
 20
142.917881
 30
0.0
 11
-13.784561
 21
145.417881
 31
0.0
  0
LINE
  8
LC-001-002-----0
  6
CONTINUOUS
  5
213
 10
-13.784561
 20
142.917881
 30
0.0
 11
-10.084561
 21
142.917881
 31
0.0
  0
LINE
  8
LC-001-002-----0
  6
CONTINUOUS
  5
214
 10
-16.784561
 20
145.417881
 30
0.0
 11
-13.784561
 21
145.417881
 31
0.0
  0
LINE
  8
LC-001-002-----0
  6
CONTINUOUS
  5
215
 10
-16.784561
 20
148.455512
 30
0.0
 11
-16.784561
 21
153.917881
 31
0.0
  0
LINE
  8
LC-001-002-----0
  6
CONTINUOUS
  5
216
 10
-16.784561
 20
153.917881
 30
0.0
 11
-24.784561
 21
153.917881
 31
0.0
  0
ARC
  8
LC-002-002-RND-0
  6
CONTINUOUS
  5
217
 10
-37.262561
 20
158.917881
 30
0.0
 40
0.5
 50
90.0
 51
180.0
  0
ARC
  8
LC-002-002-RND-0
  6
CONTINUOUS
  5
218
 10
-34.762561
 20
158.917881
 30
0.0
 40
0.5
 50
360.0
 51
90.0
  0
LINE
  8
LC-008-006-MLN-0
  6
DASHDOT
  5
21C
 10
35.215439
 20
43.496
 30
0.0
 11
35.215439
 21
158.536
 31
0.0
  0
LINE
  8
LC-001-002-----0
  6
CONTINUOUS
  5
21D
 10
-19.784561
 20
144.917881
 30
0.0
 11
-19.784561
 21
43.417881
 31
0.0
  0
LINE
  8
LC-001-002-----0
  6
CONTINUOUS
  5
21E
 10
-16.784561
 20
145.417881
 30
0.0
 11
-16.784561
 21
38.917881
 31
0.0
  0
LINE
  8
LC-001-002-----0
  6
CONTINUOUS
  5
21F
 10
-18.57879
 20
38.917881
 30
0.0
 11
35.215439
 21
38.917881
 31
0.0
  0
LINE
  8
LC-001-002-----0
  6
CONTINUOUS
  5
220
 10
-19.784561
 20
43.417881
 30
0.0
 11
-18.57879
 21
38.917881
 31
0.0
  0
LINE
  8
LC-001-002-----0
  6
CONTINUOUS
  5
221
 10
-9.584561
 20
134.417881
 30
0.0
 11
-6.784561
 21
134.417881
 31
0.0
  0
LINE
  8
LC-001-002-----0
  6
CONTINUOUS
  5
222
 10
-9.584561
 20
142.417881
 30
0.0
 11
-9.584561
 21
134.417881
 31
0.0
  0
ARC
  8
LC-001-002-----0
  6
CONTINUOUS
  5
223
 10
-10.084561
 20
142.417881
 30
0.0
 40
0.5
 50
360.0
 51
90.0
  0
LINE
  8
LC-001-002-----0
  6
CONTINUOUS
  5
224
 10
-6.784561
 20
145.917881
 30
0.0
 11
-6.784561
 21
134.417881
 31
0.0
  0
LINE
  8
LC-001-002-----0
  6
CONTINUOUS
  5
225
 10
-17.784561
 20
148.417881
 30
0.0
 11
-17.784561
 21
148.417881
 31
0.0
  0
LINE
  8
LC-001-002-----0
  6
CONTINUOUS
  5
226
 10
-13.784561
 20
145.417881
 30
0.0
 11
-16.784561
 21
145.417881
 31
0.0
  0
LINE
  8
LC-001-002-----0
  6
CONTINUOUS
  5
227
 10
-34.262561
 20
148.417881
 30
0.0
 11
-11.284561
 21
148.417881
 31
0.0
  0
LINE
  8
LC-001-002-----0
  6
CONTINUOUS
  5
228
 10
-34.262561
 20
148.417881
 30
0.0
 11
-34.262561
 21
158.917881
 31
0.0
  0
LINE
  8
LC-001-002-----0
  6
CONTINUOUS
  5
229
 10
-37.762561
 20
144.917881
 30
0.0
 11
-37.762561
 21
154.417881
 31
0.0
  0
LINE
  8
LC-001-002-----0
  6
CONTINUOUS
  5
22A
 10
35.215439
 20
145.917881
 30
0.0
 11
-6.768051
 21
145.917881
 31
0.0
  0
LINE
  8
LC-001-002-----0
  6
CONTINUOUS
  5
22B
 10
-11.284561
 20
148.417881
 30
0.0
 11
-15.784561
 21
148.417881
 31
0.0
  0
LINE
  8
LC-001-002-----0
  6
CONTINUOUS
  5
22C
 10
-67.762561
 20
157.417881
 30
0.0
 11
-67.762561
 21
154.417881
 31
0.0
  0
LINE
  8
LC-001-002-----0
  6
CONTINUOUS
  5
22D
 10
35.215439
 20
134.417881
 30
0.0
 11
-7.021178
 21
134.417881
 31
0.0
  0
LINE
  8
LC-001-002-----0
  6
CONTINUOUS
  5
22E
 10
-11.284561
 20
148.417881
 30
0.0
 11
35.215439
 21
148.417881
 31
0.0
  0
LINE
  8
LC-001-002-----0
  6
CONTINUOUS
 62
     2
  5
22F
 10
-5.449958
 20
191.898
 30
0.0
 11
9.550042
 21
191.898
 31
0.0
  0
LINE
  8
LC-001-002-----0
  6
CONTINUOUS
 62
     2
  5
230
 10
-5.449958
 20
206.898
 30
0.0
 11
9.550042
 21
206.898
 31
0.0
  0
LINE
  8
LC-001-002-----0
  6
CONTINUOUS
 62
     2
  5
231
 10
-5.449958
 20
191.898
 30
0.0
 11
-5.449958
 21
206.898
 31
0.0
  0
LINE
  8
LC-001-002-----0
  6
CONTINUOUS
 62
     2
  5
232
 10
9.550042
 20
191.898
 30
0.0
 11
9.550042
 21
206.898
 31
0.0
  0
LINE
  8
LC-001-002-----0
  6
CONTINUOUS
  5
233
 10
554.436402
 20
769.798899
 30
0.0
 11
554.436402
 21
767.798899
 31
0.0
  0
LINE
  8
LC-001-002-----0
  6
CONTINUOUS
  5
234
 10
554.436402
 20
767.798899
 30
0.0
 11
554.876402
 21
767.798899
 31
0.0
  0
LINE
  8
LC-001-002-----0
  6
CONTINUOUS
  5
235
 10
554.436402
 20
765.298899
 30
0.0
 11
554.436402
 21
761.798899
 31
0.0
  0
LINE
  8
LC-001-002-----0
  6
CONTINUOUS
  5
236
 10
554.436402
 20
761.798899
 30
0.0
 11
555.436402
 21
760.798899
 31
0.0
  0
LINE
  8
LC-001-002-----0
  6
CONTINUOUS
  5
237
 10
562.536402
 20
761.798899
 30
0.0
 11
561.536402
 21
760.798899
 31
0.0
  0
LINE
  8
LC-001-002-----0
  6
CONTINUOUS
  5
238
 10
562.536402
 20
765.298899
 30
0.0
 11
562.536402
 21
761.798899
 31
0.0
  0
LINE
  8
LC-001-002-----0
  6
CONTINUOUS
  5
239
 10
562.096402
 20
765.298899
 30
0.0
 11
562.536402
 21
765.298899
 31
0.0
  0
LINE
  8
LC-001-002-----0
  6
CONTINUOUS
  5
23A
 10
562.536402
 20
769.798899
 30
0.0
 11
562.536402
 21
767.798899
 31
0.0
  0
LINE
  8
LC-001-002-----0
  6
CONTINUOUS
 62
     2
  5
23B
 10
87.215439
 20
52.917881
 30
0.0
 11
-16.784561
 21
52.917881
 31
0.0
  0
ARC
  8
LC-001-002-----0
  6
CONTINUOUS
 62
     2
  5
23C
 10
352.032756
 20
186.140503
 30
0.0
 40
3.0
 50
180.0
 51
90.0
  0
CIRCLE
  8
LC-001-002-----0
  6
CONTINUOUS
  5
23D
 10
352.032756
 20
186.140503
 30
0.0
 40
2.5
  0
CIRCLE
  8
LC-001-002-----0
  6
CONTINUOUS
  5
23E
 10
352.032756
 20
186.140503
 30
0.0
 40
4.0
  0
CIRCLE
  8
LC-001-002-----0
  6
CONTINUOUS
  5
23F
 10
352.032756
 20
186.140503
 30
0.0
 40
7.0
  0
CIRCLE
  8
LC-001-002-----0
  6
CONTINUOUS
  5
240
 10
352.032756
 20
68.140503
 30
0.0
 40
7.0
  0
ARC
  8
LC-002-002-RND-0
  6
CONTINUOUS
  5
241
 10
360.532756
 20
59.640503
 30
0.0
 40
2.0
 50
270.0
 51
0.0
  0
CIRCLE
  8
LC-001-002-----0
  6
CONTINUOUS
  5
242
 10
352.032756
 20
68.140503
 30
0.0
 40
5.0
  0
ARC
  8
LC-002-002-RND-0
  6
CONTINUOUS
  5
243
 10
365.032756
 20
55.140503
 30
0.0
 40
1.0
 50
270.0
 51
0.0
  0
ARC
  8
LC-002-002-RND-0
  6
CONTINUOUS
  5
244
 10
225.532756
 20
59.640503
 30
0.0
 40
2.0
 50
180.0
 51
270.0
  0
CIRCLE
  8
LC-001-002-----0
  6
CONTINUOUS
  5
245
 10
234.032756
 20
68.140503
 30
0.0
 40
7.0
  0
ARC
  8
LC-001-002-----0
  6
CONTINUOUS
 62
     2
  5
246
 10
234.032756
 20
68.140503
 30
0.0
 40
3.0
 50
180.0
 51
90.0
  0
CIRCLE
  8
LC-001-002-----0
  6
CONTINUOUS
  5
247
 10
234.032756
 20
68.140503
 30
0.0
 40
2.5
  0
CIRCLE
  8
LC-001-002-----0
  6
CONTINUOUS
  5
248
 10
234.032756
 20
68.140503
 30
0.0
 40
4.0
  0
CIRCLE
  8
LC-001-002-----0
  6
CONTINUOUS
  5
249
 10
234.032756
 20
186.140503
 30
0.0
 40
5.0
  0
CIRCLE
  8
LC-001-002-----0
  6
CONTINUOUS
  5
24A
 10
234.032756
 20
186.140503
 30
0.0
 40
7.0
  0
ENDSEC
  0
EOF
