  0
SECTION
  2
HEADER
  9
$ACADVER
  1
AC1009
  9
$INSBASE
 10
0.0
 20
0.0
 30
0.0
  9
$EXTMIN
 10
-210.0
 20
-148.5
 30
0.0
  9
$EXTMAX
 10
630.0
 20
445.5
 30
0.0
  9
$LIMMIN
 10
-210.0
 20
-148.5
  9
$LIMMAX
 10
630.0
 20
445.5
  9
$ORTHOMODE
 70
     0
  9
$REGENMODE
 70
     1
  9
$FILLMODE
 70
     1
  9
$QTEXTMODE
 70
     0
  9
$MIRRTEXT
 70
     1
  9
$DRAGMODE
 70
     2
  9
$LTSCALE
 40
2.0
  9
$OSMODE
 70
     0
  9
$ATTMODE
 70
     1
  9
$TEXTSIZE
 40
0.2
  9
$TRACEWID
 40
0.05
  9
$TEXTSTYLE
  7
STANDARD
  9
$CLAYER
  8
0
  9
$CELTYPE
  6
BYLAYER
  9
$CECOLOR
 62
     7
  9
$DIMSCALE
 40
2.0
  9
$DIMASZ
 40
3.5
  9
$DIMEXO
 40
0.0625
  9
$DIMDLI
 40
0.38
  9
$DIMRND
 40
0.0
  9
$DIMDLE
 40
0.0
  9
$DIMEXE
 40
0.18
  9
$DIMTP
 40
0.0
  9
$DIMTM
 40
0.0
  9
$DIMTXT
 40
3.5
  9
$DIMCEN
 40
0.09
  9
$DIMTSZ
 40
0.0
  9
$DIMTOL
 70
     0
  9
$DIMLIM
 70
     0
  9
$DIMTIH
 70
     1
  9
$DIMTOH
 70
     1
  9
$DIMSE1
 70
     0
  9
$DIMSE2
 70
     0
  9
$DIMTAD
 70
     1
  9
$DIMZIN
 70
     0
  9
$DIMBLK
  1

  9
$DIMASO
 70
     1
  9
$DIMSHO
 70
     1
  9
$DIMPOST
  1

  9
$DIMAPOST
  1

  9
$DIMALT
 70
     0
  9
$DIMALTD
 70
     2
  9
$DIMALTF
 40
25.4
  9
$DIMLFAC
 40
1.0
  9
$DIMTOFL
 70
     0
  9
$DIMTVP
 40
0.0
  9
$DIMTIX
 70
     0
  9
$DIMSOXD
 70
     0
  9
$DIMSAH
 70
     0
  9
$DIMBLK1
  1

  9
$DIMBLK2
  1

  9
$DIMSTYLE
  2
STANDARD
  9
$DIMCLRD
 70
     0
  9
$DIMCLRE
 70
     0
  9
$DIMCLRT
 70
     0
  9
$DIMTFAC
 40
1.0
  9
$DIMGAP
 40
0.09
  9
$LUNITS
 70
     2
  9
$LUPREC
 70
     2
  9
$AXISMODE
 70
     0
  9
$AXISUNIT
 10
0.0
 20
0.0
  9
$SKETCHINC
 40
0.1
  9
$FILLETRAD
 40
0.0
  9
$AUNITS
 70
     0
  9
$AUPREC
 70
     0
  9
$MENU
  1
acad
  9
$ELEVATION
 40
0.0
  9
$PELEVATION
 40
0.0
  9
$THICKNESS
 40
0.0
  9
$LIMCHECK
 70
     0
  9
$BLIPMODE
 70
     1
  9
$CHAMFERA
 40
0.0
  9
$CHAMFERB
 40
0.0
  9
$SKPOLY
 70
     0
  9
$TDCREATE
 40
0.000000000
  9
$TDUPDATE
 40
0.000000000
  9
$TDINDWG
 40
0.0000000000
  9
$TDUSRTIMER
 40
0.0000000000
  9
$USRTIMER
 70
     1
  9
$ANGBASE
 50
0.0
  9
$ANGDIR
 70
     0
  9
$PDMODE
 70
     0
  9
$PDSIZE
 40
0.0
  9
$PLINEWID
 40
0.0
  9
$COORDS
 70
     0
  9
$SPLFRAME
 70
     0
  9
$SPLINETYPE
 70
     6
  9
$SPLINESEGS
 70
     8
  9
$ATTDIA
 70
     0
  9
$ATTREQ
 70
     1
  9
$HANDLING
 70
     1
  9
$HANDSEED
  5
2AE
  9
$SURFTAB1
 70
     6
  9
$SURFTAB2
 70
     6
  9
$SURFTYPE
 70
     6
  9
$SURFU
 70
     6
  9
$SURFV
 70
     6
  9
$UCSNAME
  2

  9
$UCSORG
 10
0.0
 20
0.0
 30
0.0
  9
$UCSXDIR
 10
1.0
 20
0.0
 30
0.0
  9
$UCSYDIR
 10
0.0
 20
1.0
 30
0.0
  9
$PUCSNAME
  2

  9
$PUCSORG
 10
0.0
 20
0.0
 30
0.0
  9
$PUCSXDIR
 10
1.0
 20
0.0
 30
0.0
  9
$PUCSYDIR
 10
0.0
 20
1.0
 30
0.0
  9
$USERI1
 70
     0
  9
$USERI2
 70
     0
  9
$USERI3
 70
     0
  9
$USERI4
 70
     0
  9
$USERI5
 70
     0
  9
$USERR1
 40
0.0
  9
$USERR2
 40
0.0
  9
$USERR3
 40
0.0
  9
$USERR4
 40
0.0
  9
$USERR5
 40
0.0
  9
$WORLDVIEW
 70
     1
  9
$SHADEDGE
 70
     3
  9
$SHADEDIF
 70
    70
  9
$TILEMODE
 70
     1
  9
$MAXACTVP
 70
    16
  9
$PINSBASE
 10
0.0
 20
0.0
 30
0.0
  9
$PLIMCHECK
 70
     0
  9
$PEXTMIN
 10
1.000000E+20
 20
1.000000E+20
 30
1.000000E+20
  9
$PEXTMAX
 10
-1.000000E+20
 20
-1.000000E+20
 30
-1.000000E+20
  9
$PLIMMIN
 10
-210.0
 20
-148.5
  9
$PLIMMAX
 10
630.0
 20
445.5
  9
$UNITMODE
 70
     0
  9
$VISRETAIN
 70
     0
  9
$PLINEGEN
 70
     1
  9
$PSLTSCALE
 70
     0
  9
$TREEDEPTH
 70
  3020
  9
$DWGCODEPAGE
  3
dos850
  0
ENDSEC
  0
SECTION
  2
TABLES
  0
TABLE
  2
VPORT
 70
     1
  0
VPORT
  2
*ACTIVE
 70
     0
 10
0.0
 20
0.0
 11
1.0
 21
1.0
 12
420.0
 22
297.0
 13
0.0
 23
0.0
 14
1.0
 24
1.0
 15
0.0
 25
0.0
 16
0.0
 26
0.0
 36
1.0
 17
-210.0
 27
-148.5
 37
0.0
 40
594.0
 41
1.604229
 42
50.0
 43
0.0
 44
0.0
 50
0.0
 51
0.0
 71
     0
 72
   100
 73
     1
 74
     1
 75
     0
 76
     0
 77
     0
 78
     0
  0
ENDTAB
  0
TABLE
  2
LTYPE
 70
     2
  0
LTYPE
  2
CONTINUOUS
 70
    64
  3
Solid line
 72
    65
 73
     0
 40
0.0
  0
LTYPE
  2
DASHDOT
 70
    64
  3
__ . __ . __ . __ . __
 72
    65
 73
     4
 40
7.5
 49
5.0
 49
-1.25
 49
0.0
 49
-1.25
  0
ENDTAB
  0
TABLE
  2
LAYER
 70
    13
  0
LAYER
  2
0
 70
     0
 62
     7
  6
CONTINUOUS
  0
LAYER
  2
LC-INFO-1-2-MM-A3-0
 70
     1
 62
    -1
  6
CONTINUOUS
  0
LAYER
  2
LC-002-003-MTH-0
 70
     0
 62
     2
  6
CONTINUOUS
  0
LAYER
  2
LC-001-003-----0
 70
     0
 62
     2
  6
CONTINUOUS
  0
LAYER
  2
LC-003-003-MTG-0
 70
     0
 62
     2
  6
CONTINUOUS
  0
LAYER
  2
LC-007-005-----0
 70
     0
 62
     2
  6
CONTINUOUS
  0
LAYER
  2
LC-006-000-----0
 70
     0
 62
     7
  6
CONTINUOUS
  0
LAYER
  2
LC-009-000-----0
 70
     0
 62
     7
  6
CONTINUOUS
  0
LAYER
  2
LC-004-002-----0
 70
     0
 62
     2
  6
CONTINUOUS
  0
LAYER
  2
LC-005-002-RND-0
 70
     0
 62
     1
  6
CONTINUOUS
  0
LAYER
  2
LC-008-001-----0
 70
     0
 62
     1
  6
CONTINUOUS
  0
LAYER
  2
LC-010-001-RND-0
 70
     0
 62
     1
  6
CONTINUOUS
  0
LAYER
  2
LC-000
 70
     0
 62
     7
  6
CONTINUOUS
  0
ENDTAB
  0
TABLE
  2
STYLE
 70
     5
  0
STYLE
  2
STANDARD
 70
     0
 40
0.0
 41
1.0
 50
0.0
 71
     0
 42
0.0
  3
txt
  4

  0
STYLE
  2
LC-STANDARD
 70
    64
 40
0.0
 41
1.0
 50
0.0
 71
     0
 42
3.5
  3
MONOTXT
  4

  0
STYLE
  2
LC-TXTSTYLE-150-400-0-0-A2
 70
    64
 40
0.0
 41
1.0
 50
15.0
 71
     0
 42
3.5
  3
MONOTXT
  4

  0
STYLE
  2
LC-TXTSTYLE-0-400-0-0-DIN3
 70
    64
 40
0.0
 41
1.0
 50
0.0
 71
     0
 42
3.5
  3
MONOTXT
  4

  0
STYLE
  2
LC-TXTSTYLE-150-400-0-0-D4
 70
    64
 40
0.0
 41
1.0
 50
15.0
 71
     0
 42
3.5
  3
LC-STANDARD
  4

  0
ENDTAB
  0
TABLE
  2
VIEW
 70
     0
  0
ENDTAB
  0
TABLE
  2
UCS
 70
     0
  0
ENDTAB
  0
TABLE
  2
APPID
 70
     1
  0
APPID
  2
ACAD
 70
     0
  0
ENDTAB
  0
TABLE
  2
DIMSTYLE
 70
     3
  0
DIMSTYLE
  2
STANDARD
 70
     0
  3

  4

  5

  6

  7

 40
1.0
 41
0.18
 42
0.0625
 43
0.38
 44
0.18
 45
0.0
 46
0.0
 47
0.0
 48
0.0
 71
     0
 72
     0
 73
     1
 74
     1
 75
     0
 76
     0
 77
     0
 78
     0
140
0.18
141
0.09
142
0.0
143
25.4
144
1.0
145
0.0
146
1.0
147
0.09
170
     0
171
     2
172
     0
173
     0
174
     0
175
     0
176
     0
177
     0
178
     0
  0
DIMSTYLE
  2
LC-STANDARD
 70
     0
  3

  4

  5

  6

  7

 40
1.0
 41
3.5
 42
0.0
 43
7.5
 44
1.8
 45
0.0
 46
0.0
 47
0.0
 48
0.0
 71
     0
 72
     0
 73
     0
 74
     0
 75
     0
 76
     0
 77
     1
 78
     8
140
3.5
141
0.0
142
0.0
143
25.4
144
1.0
145
0.0
146
0.71
147
1.5
170
     0
171
     2
172
     1
173
     0
174
     0
175
     0
176
     0
177
     0
178
     3
  0
DIMSTYLE
  2
LC-DIM-L-0140-02-02
 70
     0
  3

  4

  5

  6

  7

 40
2.0
 41
3.5
 42
0.0
 43
7.5
 44
1.8
 45
0.0
 46
0.0
 47
0.0
 48
0.0
 71
     0
 72
     0
 73
     0
 74
     0
 75
     0
 76
     0
 77
     1
 78
     8
140
14.0
141
0.0
142
0.0
143
25.4
144
1.0
145
0.0
146
0.71
147
1.5
170
     0
171
     2
172
     0
173
     0
174
     0
175
     0
176
     2
177
     2
178
     8
  0
ENDTAB
  0
ENDSEC
  0
SECTION
  2
BLOCKS
  0
BLOCK
  8
0
  5
24
  2
*D0
 70
    65
 10
0.0
 20
0.0
 30
0.0
  3
*D0
  0
LINE
  8
LC-002-003-MTH-0
  6
CONTINUOUS
  5
26
 10
63.768563
 20
164.137205
 30
0.0
 11
22.4
 21
164.137205
 31
0.0
  0
LINE
  8
LC-002-003-MTH-0
  6
CONTINUOUS
  5
27
 10
65.968563
 20
171.337205
 30
0.0
 11
22.4
 21
171.337205
 31
0.0
  0
LINE
  8
LC-001-003-----0
  6
CONTINUOUS
  5
29
 10
42.854733
 20
136.376749
 30
0.0
 11
39.2
 21
164.137205
 31
0.0
  0
LINE
  8
LC-001-003-----0
  6
CONTINUOUS
  5
2A
 10
39.2
 20
164.137205
 30
0.0
 11
35.545267
 21
136.376749
 31
0.0
  0
LINE
  8
LC-001-003-----0
  6
CONTINUOUS
  5
2B
 10
35.545267
 20
136.376749
 30
0.0
 11
42.854733
 21
136.376749
 31
0.0
  0
LINE
  8
LC-001-003-----0
  6
CONTINUOUS
  5
2C
 10
41.904503
 20
136.314468
 30
0.0
 11
39.2
 21
156.857205
 31
0.0
  0
LINE
  8
LC-001-003-----0
  6
CONTINUOUS
  5
2D
 10
39.2
 20
156.857205
 30
0.0
 11
36.495497
 21
136.314468
 31
0.0
  0
LINE
  8
LC-001-003-----0
  6
CONTINUOUS
  5
2E
 10
40.954272
 20
136.252186
 30
0.0
 11
39.2
 21
149.577205
 31
0.0
  0
LINE
  8
LC-001-003-----0
  6
CONTINUOUS
  5
2F
 10
39.2
 20
149.577205
 30
0.0
 11
37.445728
 21
136.252186
 31
0.0
  0
LINE
  8
LC-001-003-----0
  6
CONTINUOUS
  5
30
 10
40.004041
 20
136.189905
 30
0.0
 11
39.2
 21
142.297205
 31
0.0
  0
LINE
  8
LC-001-003-----0
  6
CONTINUOUS
  5
31
 10
39.2
 20
142.297205
 30
0.0
 11
38.395959
 21
136.189905
 31
0.0
  0
LINE
  8
LC-001-003-----0
  6
CONTINUOUS
  5
32
 10
35.545267
 20
199.097661
 30
0.0
 11
39.2
 21
171.337205
 31
0.0
  0
LINE
  8
LC-001-003-----0
  6
CONTINUOUS
  5
33
 10
39.2
 20
171.337205
 30
0.0
 11
42.854733
 21
199.097661
 31
0.0
  0
LINE
  8
LC-001-003-----0
  6
CONTINUOUS
  5
34
 10
42.854733
 20
199.097661
 30
0.0
 11
35.545267
 21
199.097661
 31
0.0
  0
LINE
  8
LC-001-003-----0
  6
CONTINUOUS
  5
35
 10
36.495497
 20
199.159943
 30
0.0
 11
39.2
 21
178.617205
 31
0.0
  0
LINE
  8
LC-001-003-----0
  6
CONTINUOUS
  5
36
 10
39.2
 20
178.617205
 30
0.0
 11
41.904503
 21
199.159943
 31
0.0
  0
LINE
  8
LC-001-003-----0
  6
CONTINUOUS
  5
37
 10
37.445728
 20
199.222224
 30
0.0
 11
39.2
 21
185.897205
 31
0.0
  0
LINE
  8
LC-001-003-----0
  6
CONTINUOUS
  5
38
 10
39.2
 20
185.897205
 30
0.0
 11
40.954272
 21
199.222224
 31
0.0
  0
LINE
  8
LC-001-003-----0
  6
CONTINUOUS
  5
39
 10
38.395959
 20
199.284506
 30
0.0
 11
39.2
 21
193.177205
 31
0.0
  0
LINE
  8
LC-001-003-----0
  6
CONTINUOUS
  5
3A
 10
39.2
 20
193.177205
 30
0.0
 11
40.004041
 21
199.284506
 31
0.0
  0
LINE
  8
LC-003-003-MTG-0
  6
CONTINUOUS
  5
3C
 10
39.2
 20
98.375005
 30
0.0
 11
39.2
 21
210.537205
 31
0.0
  0
TEXT
  8
LC-001-003-----0
  6
CONTINUOUS
 62
     8
  5
3E
 10
31.372446
 20
116.118751
 30
0.0
 40
28.0
  1
7
 50
90.0
 41
0.9
 51
15.0
  7
LC-TXTSTYLE-150-400-0-0-D0
 72
     2
 11
31.372446
 21
130.405365
 31
0.0
  0
ENDBLK
  8
0
  5
3F
  0
BLOCK
  8
0
  5
41
  2
*D1
 70
    65
 10
0.0
 20
0.0
 30
0.0
  3
*D1
  0
LINE
  8
LC-002-003-MTH-0
  6
CONTINUOUS
  5
42
 10
64.268563
 20
169.637205
 30
0.0
 11
64.268563
 21
212.8
 31
0.0
  0
LINE
  8
LC-002-003-MTH-0
  6
CONTINUOUS
  5
43
 10
164.268563
 20
169.637205
 30
0.0
 11
164.268563
 21
212.8
 31
0.0
  0
LINE
  8
LC-003-003-MTG-0
  6
CONTINUOUS
  5
44
 10
64.268563
 20
196.0
 30
0.0
 11
164.268563
 21
196.0
 31
0.0
  0
LINE
  8
LC-001-003-----0
  6
CONTINUOUS
  5
45
 10
92.02902
 20
199.654733
 30
0.0
 11
64.268563
 21
196.0
 31
0.0
  0
LINE
  8
LC-001-003-----0
  6
CONTINUOUS
  5
46
 10
64.268563
 20
196.0
 30
0.0
 11
92.02902
 21
192.345267
 31
0.0
  0
LINE
  8
LC-001-003-----0
  6
CONTINUOUS
  5
47
 10
92.02902
 20
192.345267
 30
0.0
 11
92.02902
 21
199.654733
 31
0.0
  0
LINE
  8
LC-001-003-----0
  6
CONTINUOUS
  5
48
 10
92.091301
 20
198.704503
 30
0.0
 11
71.548563
 21
196.0
 31
0.0
  0
LINE
  8
LC-001-003-----0
  6
CONTINUOUS
  5
49
 10
71.548563
 20
196.0
 30
0.0
 11
92.091301
 21
193.295497
 31
0.0
  0
LINE
  8
LC-001-003-----0
  6
CONTINUOUS
  5
4A
 10
92.153582
 20
197.754272
 30
0.0
 11
78.828563
 21
196.0
 31
0.0
  0
LINE
  8
LC-001-003-----0
  6
CONTINUOUS
  5
4B
 10
78.828563
 20
196.0
 30
0.0
 11
92.153582
 21
194.245728
 31
0.0
  0
LINE
  8
LC-001-003-----0
  6
CONTINUOUS
  5
4C
 10
92.215864
 20
196.804041
 30
0.0
 11
86.108563
 21
196.0
 31
0.0
  0
LINE
  8
LC-001-003-----0
  6
CONTINUOUS
  5
4D
 10
86.108563
 20
196.0
 30
0.0
 11
92.215864
 21
195.195959
 31
0.0
  0
LINE
  8
LC-001-003-----0
  6
CONTINUOUS
  5
4E
 10
136.508107
 20
192.345267
 30
0.0
 11
164.268563
 21
196.0
 31
0.0
  0
LINE
  8
LC-001-003-----0
  6
CONTINUOUS
  5
4F
 10
164.268563
 20
196.0
 30
0.0
 11
136.508107
 21
199.654733
 31
0.0
  0
LINE
  8
LC-001-003-----0
  6
CONTINUOUS
  5
50
 10
136.508107
 20
199.654733
 30
0.0
 11
136.508107
 21
192.345267
 31
0.0
  0
LINE
  8
LC-001-003-----0
  6
CONTINUOUS
  5
51
 10
136.445826
 20
193.295497
 30
0.0
 11
156.988563
 21
196.0
 31
0.0
  0
LINE
  8
LC-001-003-----0
  6
CONTINUOUS
  5
52
 10
156.988563
 20
196.0
 30
0.0
 11
136.445826
 21
198.704503
 31
0.0
  0
LINE
  8
LC-001-003-----0
  6
CONTINUOUS
  5
53
 10
136.383544
 20
194.245728
 30
0.0
 11
149.708563
 21
196.0
 31
0.0
  0
LINE
  8
LC-001-003-----0
  6
CONTINUOUS
  5
54
 10
149.708563
 20
196.0
 30
0.0
 11
136.383544
 21
197.754272
 31
0.0
  0
LINE
  8
LC-001-003-----0
  6
CONTINUOUS
  5
55
 10
136.321263
 20
195.195959
 30
0.0
 11
142.428563
 21
196.0
 31
0.0
  0
LINE
  8
LC-001-003-----0
  6
CONTINUOUS
  5
56
 10
142.428563
 20
196.0
 30
0.0
 11
136.321263
 21
196.804041
 31
0.0
  0
TEXT
  8
LC-001-003-----0
  6
CONTINUOUS
 62
     8
  5
57
 10
88.852944
 20
203.827554
 30
0.0
 40
28.0
  1
100
 51
15.0
  7
LC-TXTSTYLE-150-400-0-0-D0
 72
     1
 11
118.616723
 21
203.827554
 31
0.0
  0
ENDBLK
  8
0
  5
58
  0
BLOCK
  8
0
  5
5A
  2
BLK1
 70
    64
 10
0.0
 20
0.0
 30
0.0
  3
BLK1
  0
ENDBLK
  8
0
  5
5B
  0
BLOCK
  8
0
  5
5D
  2
*X3
 70
    65
 10
156.418285
 20
150.568526
 30
0.0
  3
*X3
  0
LINE
  8
LC-007-005-----0
  6
CONTINUOUS
  5
5F
 10
156.523298
 20
150.866444
 30
0.0
 11
157.494235
 21
151.837381
 31
0.0
  0
LINE
  8
LC-007-005-----0
  6
CONTINUOUS
  5
60
 10
156.965632
 20
154.137205
 30
0.0
 11
157.640909
 21
154.812482
 31
0.0
  0
LINE
  8
LC-007-005-----0
  6
CONTINUOUS
  5
61
 10
156.768563
 20
156.768563
 30
0.0
 11
157.468563
 21
157.468563
 31
0.0
  0
LINE
  8
LC-007-005-----0
  6
CONTINUOUS
  5
62
 10
159.933993
 20
159.933993
 30
0.0
 11
160.971776
 21
160.971776
 31
0.0
  0
LINE
  8
LC-007-005-----0
  6
CONTINUOUS
  5
63
 10
164.385727
 20
164.385727
 30
0.0
 11
164.768563
 21
164.768563
 31
0.0
  0
LINE
  8
LC-007-005-----0
  6
CONTINUOUS
  5
64
 10
156.805939
 20
159.634366
 30
0.0
 11
157.671402
 21
160.49983
 31
0.0
  0
LINE
  8
LC-007-005-----0
  6
CONTINUOUS
  5
65
 10
160.368563
 20
163.196991
 30
0.0
 11
161.068563
 21
163.896991
 31
0.0
  0
LINE
  8
LC-007-005-----0
  6
CONTINUOUS
  5
66
 10
163.568563
 20
166.396991
 30
0.0
 11
164.268563
 21
167.096991
 31
0.0
  0
LINE
  8
LC-007-005-----0
  6
CONTINUOUS
  5
67
 10
160.368563
 20
166.025418
 30
0.0
 11
161.068563
 21
166.725418
 31
0.0
  0
LINE
  8
LC-007-005-----0
  6
CONTINUOUS
  5
68
 10
163.568563
 20
169.225418
 30
0.0
 11
164.247449
 21
169.904304
 31
0.0
  0
LINE
  8
LC-007-005-----0
  6
CONTINUOUS
  5
69
 10
160.368563
 20
168.853845
 30
0.0
 11
161.068563
 21
169.553845
 31
0.0
  0
LINE
  8
LC-007-005-----0
  6
CONTINUOUS
  5
6A
 10
162.151924
 20
170.637205
 30
0.0
 11
162.831471
 21
171.316753
 31
0.0
  0
ENDBLK
  8
0
  5
6B
  0
BLOCK
  8
0
  5
6D
  2
BLK2
 70
    64
 10
0.0
 20
0.0
 30
0.0
  3
BLK2
  0
ENDBLK
  8
0
  5
6E
  0
BLOCK
  8
0
  5
70
  2
BLK3
 70
    64
 10
0.0
 20
0.0
 30
0.0
  3
BLK3
  0
ENDBLK
  8
0
  5
71
  0
BLOCK
  8
0
  5
73
  2
*X6
 70
    65
 10
81.268324
 20
166.1371
 30
0.0
  3
*X6
  0
LINE
  8
LC-007-005-----0
  6
CONTINUOUS
  5
74
 10
81.268324
 20
166.218993
 30
0.0
 11
81.350217
 21
166.1371
 31
0.0
  0
LINE
  8
LC-007-005-----0
  6
CONTINUOUS
  5
75
 10
81.268324
 20
167.633205
 30
0.0
 11
82.764431
 21
166.1371
 31
0.0
  0
LINE
  8
LC-007-005-----0
  6
CONTINUOUS
  5
76
 10
81.268324
 20
169.047418
 30
0.0
 11
82.768324
 21
167.54742
 31
0.0
  0
LINE
  8
LC-007-005-----0
  6
CONTINUOUS
  5
77
 10
81.623564
 20
170.106391
 30
0.0
 11
82.768324
 21
168.961633
 31
0.0
  0
LINE
  8
LC-007-005-----0
  6
CONTINUOUS
  5
78
 10
82.526663
 20
170.617506
 30
0.0
 11
84.007071
 21
169.1371
 31
0.0
  0
LINE
  8
LC-007-005-----0
  6
CONTINUOUS
  5
79
 10
85.768324
 20
167.375849
 30
0.0
 11
87.007075
 21
166.1371
 31
0.0
  0
LINE
  8
LC-007-005-----0
  6
CONTINUOUS
  5
7A
 10
83.921283
 20
170.6371
 30
0.0
 11
85.421285
 21
169.1371
 31
0.0
  0
LINE
  8
LC-007-005-----0
  6
CONTINUOUS
  5
7B
 10
85.768324
 20
168.790062
 30
0.0
 11
87.268324
 21
167.290064
 31
0.0
  0
LINE
  8
LC-007-005-----0
  6
CONTINUOUS
  5
7C
 10
85.335498
 20
170.6371
 30
0.0
 11
87.268324
 21
168.704277
 31
0.0
  0
ENDBLK
  8
0
  5
7D
  0
BLOCK
  8
0
  5
7F
  2
*X7
 70
    65
 10
93.268324
 20
166.1371
 30
0.0
  3
*X7
  0
LINE
  8
LC-007-005-----0
  6
CONTINUOUS
  5
80
 10
93.268324
 20
166.946922
 30
0.0
 11
94.078147
 21
166.1371
 31
0.0
  0
LINE
  8
LC-007-005-----0
  6
CONTINUOUS
  5
81
 10
93.268324
 20
168.361135
 30
0.0
 11
94.768324
 21
166.861137
 31
0.0
  0
LINE
  8
LC-007-005-----0
  6
CONTINUOUS
  5
82
 10
93.368249
 20
169.675423
 30
0.0
 11
94.768324
 21
168.27535
 31
0.0
  0
LINE
  8
LC-007-005-----0
  6
CONTINUOUS
  5
83
 10
94.020496
 20
170.43739
 30
0.0
 11
95.320787
 21
169.1371
 31
0.0
  0
LINE
  8
LC-007-005-----0
  6
CONTINUOUS
  5
84
 10
97.768324
 20
166.689566
 30
0.0
 11
98.320791
 21
166.1371
 31
0.0
  0
LINE
  8
LC-007-005-----0
  6
CONTINUOUS
  5
85
 10
95.234999
 20
170.6371
 30
0.0
 11
96.735001
 21
169.1371
 31
0.0
  0
LINE
  8
LC-007-005-----0
  6
CONTINUOUS
  5
86
 10
97.768324
 20
168.103779
 30
0.0
 11
99.268324
 21
166.603781
 31
0.0
  0
LINE
  8
LC-007-005-----0
  6
CONTINUOUS
  5
87
 10
96.649214
 20
170.6371
 30
0.0
 11
99.268324
 21
168.017993
 31
0.0
  0
LINE
  8
LC-007-005-----0
  6
CONTINUOUS
  5
88
 10
98.100721
 20
170.599808
 30
0.0
 11
99.231031
 21
169.469499
 31
0.0
  0
ENDBLK
  8
0
  5
89
  0
BLOCK
  8
0
  5
8B
  2
*X8
 70
    65
 10
105.268324
 20
166.1371
 30
0.0
  3
*X8
  0
LINE
  8
LC-007-005-----0
  6
CONTINUOUS
  5
8C
 10
105.268324
 20
166.260639
 30
0.0
 11
105.391863
 21
166.1371
 31
0.0
  0
LINE
  8
LC-007-005-----0
  6
CONTINUOUS
  5
8D
 10
105.268324
 20
167.674852
 30
0.0
 11
106.768324
 21
166.174854
 31
0.0
  0
LINE
  8
LC-007-005-----0
  6
CONTINUOUS
  5
8E
 10
105.268324
 20
169.089065
 30
0.0
 11
106.768324
 21
167.589067
 31
0.0
  0
LINE
  8
LC-007-005-----0
  6
CONTINUOUS
  5
8F
 10
105.642865
 20
170.128737
 30
0.0
 11
106.768324
 21
169.003279
 31
0.0
  0
LINE
  8
LC-007-005-----0
  6
CONTINUOUS
  5
90
 10
106.562855
 20
170.622961
 30
0.0
 11
108.048717
 21
169.1371
 31
0.0
  0
LINE
  8
LC-007-005-----0
  6
CONTINUOUS
  5
91
 10
107.96293
 20
170.6371
 30
0.0
 11
109.462932
 21
169.1371
 31
0.0
  0
LINE
  8
LC-007-005-----0
  6
CONTINUOUS
  5
92
 10
109.377144
 20
170.6371
 30
0.0
 11
110.877146
 21
169.1371
 31
0.0
  0
LINE
  8
LC-007-005-----0
  6
CONTINUOUS
  5
93
 10
110.791359
 20
170.6371
 30
0.0
 11
112.291361
 21
169.1371
 31
0.0
  0
LINE
  8
LC-007-005-----0
  6
CONTINUOUS
  5
94
 10
112.205573
 20
170.6371
 30
0.0
 11
113.705575
 21
169.1371
 31
0.0
  0
LINE
  8
LC-007-005-----0
  6
CONTINUOUS
  5
95
 10
113.619788
 20
170.6371
 30
0.0
 11
114.268324
 21
169.988565
 31
0.0
  0
ENDBLK
  8
0
  5
96
  0
BLOCK
  8
0
  5
98
  2
BLK4
 70
    64
 10
0.0
 20
0.0
 30
0.0
  3
BLK4
  0
ENDBLK
  8
0
  5
99
  0
BLOCK
  8
0
  5
9B
  2
*X10
 70
    65
 10
60.568563
 20
150.568526
 30
0.0
  3
*X10
  0
LINE
  8
LC-007-005-----0
  6
CONTINUOUS
  5
9C
 10
71.469453
 20
150.665413
 30
0.0
 11
72.015597
 21
151.211557
 31
0.0
  0
LINE
  8
LC-007-005-----0
  6
CONTINUOUS
  5
9D
 10
70.714698
 20
152.739085
 30
0.0
 11
71.260843
 21
153.285229
 31
0.0
  0
LINE
  8
LC-007-005-----0
  6
CONTINUOUS
  5
9E
 10
71.068563
 20
155.921377
 30
0.0
 11
71.768563
 21
156.621377
 31
0.0
  0
LINE
  8
LC-007-005-----0
  6
CONTINUOUS
  5
9F
 10
71.068563
 20
158.749804
 30
0.0
 11
71.763716
 21
159.444957
 31
0.0
  0
LINE
  8
LC-007-005-----0
  6
CONTINUOUS
  5
A0
 10
69.327537
 20
159.837205
 30
0.0
 11
70.027537
 21
160.537205
 31
0.0
  0
LINE
  8
LC-007-005-----0
  6
CONTINUOUS
  5
A1
 10
67.583819
 20
160.921914
 30
0.0
 11
68.169016
 21
161.507111
 31
0.0
  0
LINE
  8
LC-007-005-----0
  6
CONTINUOUS
  5
A2
 10
67.468563
 20
163.635086
 30
0.0
 11
68.168563
 21
164.335086
 31
0.0
  0
LINE
  8
LC-007-005-----0
  6
CONTINUOUS
  5
A3
 10
67.468563
 20
166.463513
 30
0.0
 11
68.168563
 21
167.163513
 31
0.0
  0
LINE
  8
LC-007-005-----0
  6
CONTINUOUS
  5
A4
 10
64.268556
 20
166.091932
 30
0.0
 11
64.968563
 21
166.79194
 31
0.0
  0
LINE
  8
LC-007-005-----0
  6
CONTINUOUS
  5
A5
 10
67.468563
 20
169.29194
 30
0.0
 11
68.137472
 21
169.960848
 31
0.0
  0
LINE
  8
LC-007-005-----0
  6
CONTINUOUS
  5
A6
 10
64.268563
 20
168.920367
 30
0.0
 11
64.968563
 21
169.620367
 31
0.0
  0
LINE
  8
LC-007-005-----0
  6
CONTINUOUS
  5
A7
 10
65.985402
 20
170.637205
 30
0.0
 11
66.673057
 21
171.324861
 31
0.0
  0
ENDBLK
  8
0
  5
A8
  0
BLOCK
  8
0
  5
AA
  2
*X11
 70
    65
 10
141.26856
 20
166.137184
 30
0.0
  3
*X11
  0
LINE
  8
LC-007-005-----0
  6
CONTINUOUS
  5
AB
 10
141.268561
 20
167.029978
 30
0.0
 11
142.161354
 21
166.137187
 31
0.0
  0
LINE
  8
LC-007-005-----0
  6
CONTINUOUS
  5
AC
 10
141.268562
 20
168.44419
 30
0.0
 11
142.768561
 21
166.944193
 31
0.0
  0
LINE
  8
LC-007-005-----0
  6
CONTINUOUS
  5
AD
 10
141.392573
 20
169.734392
 30
0.0
 11
142.768562
 21
168.358405
 31
0.0
  0
LINE
  8
LC-007-005-----0
  6
CONTINUOUS
  5
AE
 10
142.07432
 20
170.466858
 30
0.0
 11
143.403994
 21
169.137186
 31
0.0
  0
LINE
  8
LC-007-005-----0
  6
CONTINUOUS
  5
AF
 10
145.768561
 20
166.772622
 30
0.0
 11
146.404
 21
166.137184
 31
0.0
  0
LINE
  8
LC-007-005-----0
  6
CONTINUOUS
  5
B0
 10
143.318207
 20
170.637186
 30
0.0
 11
144.818209
 21
169.137185
 31
0.0
  0
LINE
  8
LC-007-005-----0
  6
CONTINUOUS
  5
B1
 10
145.768562
 20
168.186834
 30
0.0
 11
147.268561
 21
166.686837
 31
0.0
  0
LINE
  8
LC-007-005-----0
  6
CONTINUOUS
  5
B2
 10
144.732422
 20
170.637185
 30
0.0
 11
147.268562
 21
168.101049
 31
0.0
  0
LINE
  8
LC-007-005-----0
  6
CONTINUOUS
  5
B3
 10
146.214438
 20
170.569384
 30
0.0
 11
147.200761
 21
169.583062
 31
0.0
  0
ENDBLK
  8
0
  5
B4
  0
BLOCK
  8
0
  5
B6
  2
*X12
 70
    65
 10
129.26856
 20
166.137191
 30
0.0
  3
*X12
  0
LINE
  8
LC-007-005-----0
  6
CONTINUOUS
  5
B7
 10
129.268561
 20
166.302049
 30
0.0
 11
129.433415
 21
166.137195
 31
0.0
  0
LINE
  8
LC-007-005-----0
  6
CONTINUOUS
  5
B8
 10
129.268561
 20
167.716261
 30
0.0
 11
130.768561
 21
166.216264
 31
0.0
  0
LINE
  8
LC-007-005-----0
  6
CONTINUOUS
  5
B9
 10
129.268562
 20
169.130473
 30
0.0
 11
130.768561
 21
167.630476
 31
0.0
  0
LINE
  8
LC-007-005-----0
  6
CONTINUOUS
  5
BA
 10
129.662657
 20
170.150591
 30
0.0
 11
130.768562
 21
169.044687
 31
0.0
  0
LINE
  8
LC-007-005-----0
  6
CONTINUOUS
  5
BB
 10
130.599792
 20
170.62767
 30
0.0
 11
132.090271
 21
169.137194
 31
0.0
  0
LINE
  8
LC-007-005-----0
  6
CONTINUOUS
  5
BC
 10
133.768561
 20
167.458905
 30
0.0
 11
135.090277
 21
166.137192
 31
0.0
  0
LINE
  8
LC-007-005-----0
  6
CONTINUOUS
  5
BD
 10
132.004483
 20
170.637194
 30
0.0
 11
133.504486
 21
169.137193
 31
0.0
  0
LINE
  8
LC-007-005-----0
  6
CONTINUOUS
  5
BE
 10
133.768562
 20
168.873117
 30
0.0
 11
135.268561
 21
167.37312
 31
0.0
  0
LINE
  8
LC-007-005-----0
  6
CONTINUOUS
  5
BF
 10
133.418699
 20
170.637193
 30
0.0
 11
135.268562
 21
168.787331
 31
0.0
  0
ENDBLK
  8
0
  5
C0
  0
BLOCK
  8
0
  5
C2
  2
*X13
 70
    65
 10
114.268562
 20
166.137199
 30
0.0
  3
*X13
  0
LINE
  8
LC-007-005-----0
  6
CONTINUOUS
  5
C3
 10
114.268563
 20
169.988326
 30
0.0
 11
115.119686
 21
169.137205
 31
0.0
  0
LINE
  8
LC-007-005-----0
  6
CONTINUOUS
  5
C4
 10
115.033898
 20
170.637205
 30
0.0
 11
116.533901
 21
169.137204
 31
0.0
  0
LINE
  8
LC-007-005-----0
  6
CONTINUOUS
  5
C5
 10
116.448113
 20
170.637204
 30
0.0
 11
117.948116
 21
169.137203
 31
0.0
  0
LINE
  8
LC-007-005-----0
  6
CONTINUOUS
  5
C6
 10
117.862329
 20
170.637203
 30
0.0
 11
119.362332
 21
169.137202
 31
0.0
  0
LINE
  8
LC-007-005-----0
  6
CONTINUOUS
  5
C7
 10
121.768561
 20
166.730976
 30
0.0
 11
122.362338
 21
166.1372
 31
0.0
  0
LINE
  8
LC-007-005-----0
  6
CONTINUOUS
  5
C8
 10
119.276544
 20
170.637202
 30
0.0
 11
120.776547
 21
169.137201
 31
0.0
  0
LINE
  8
LC-007-005-----0
  6
CONTINUOUS
  5
C9
 10
121.768562
 20
168.145188
 30
0.0
 11
123.268561
 21
166.645191
 31
0.0
  0
LINE
  8
LC-007-005-----0
  6
CONTINUOUS
  5
CA
 10
120.69076
 20
170.637201
 30
0.0
 11
123.268562
 21
168.059402
 31
0.0
  0
LINE
  8
LC-007-005-----0
  6
CONTINUOUS
  5
CB
 10
122.155829
 20
170.586347
 30
0.0
 11
123.217708
 21
169.524469
 31
0.0
  0
ENDBLK
  8
0
  5
CC
  0
BLOCK
  8
0
  5
CE
  2
BLK5
 70
    64
 10
0.0
 20
0.0
 30
0.0
  3
BLK5
  0
ENDBLK
  8
0
  5
CF
  0
BLOCK
  8
0
  5
D1
  2
*X15
 70
    65
 10
157.268563
 20
115.837205
 30
0.0
  3
*X15
  0
LINE
  8
LC-007-005-----0
  6
CONTINUOUS
  5
D2
 10
158.263612
 20
115.837205
 30
0.0
 11
159.928869
 21
117.502462
 31
0.0
  0
LINE
  8
LC-007-005-----0
  6
CONTINUOUS
  5
D3
 10
157.268563
 20
116.25637
 30
0.0
 11
160.018563
 21
119.00637
 31
0.0
  0
LINE
  8
LC-007-005-----0
  6
CONTINUOUS
  5
D4
 10
157.268563
 20
117.670584
 30
0.0
 11
160.018563
 21
120.420584
 31
0.0
  0
LINE
  8
LC-007-005-----0
  6
CONTINUOUS
  5
D5
 10
157.268563
 20
119.084797
 30
0.0
 11
160.018563
 21
121.834797
 31
0.0
  0
LINE
  8
LC-007-005-----0
  6
CONTINUOUS
  5
D6
 10
157.268563
 20
120.499011
 30
0.0
 11
160.018563
 21
123.249011
 31
0.0
  0
LINE
  8
LC-007-005-----0
  6
CONTINUOUS
  5
D7
 10
157.268563
 20
121.913224
 30
0.0
 11
160.018563
 21
124.663224
 31
0.0
  0
LINE
  8
LC-007-005-----0
  6
CONTINUOUS
  5
D8
 10
157.268563
 20
123.327438
 30
0.0
 11
160.018563
 21
126.077438
 31
0.0
  0
LINE
  8
LC-007-005-----0
  6
CONTINUOUS
  5
D9
 10
157.268563
 20
124.741651
 30
0.0
 11
160.018563
 21
127.491651
 31
0.0
  0
LINE
  8
LC-007-005-----0
  6
CONTINUOUS
  5
DA
 10
157.268563
 20
126.155865
 30
0.0
 11
160.018563
 21
128.905865
 31
0.0
  0
LINE
  8
LC-007-005-----0
  6
CONTINUOUS
  5
DB
 10
157.268563
 20
127.570079
 30
0.0
 11
160.018563
 21
130.320079
 31
0.0
  0
LINE
  8
LC-007-005-----0
  6
CONTINUOUS
  5
DC
 10
157.268563
 20
128.984292
 30
0.0
 11
160.018563
 21
131.734292
 31
0.0
  0
LINE
  8
LC-007-005-----0
  6
CONTINUOUS
  5
DD
 10
157.268563
 20
130.398506
 30
0.0
 11
160.018563
 21
133.148506
 31
0.0
  0
LINE
  8
LC-007-005-----0
  6
CONTINUOUS
  5
DE
 10
157.268563
 20
131.812719
 30
0.0
 11
160.018563
 21
134.562719
 31
0.0
  0
LINE
  8
LC-007-005-----0
  6
CONTINUOUS
  5
DF
 10
157.268563
 20
133.226933
 30
0.0
 11
160.018563
 21
135.976933
 31
0.0
  0
LINE
  8
LC-007-005-----0
  6
CONTINUOUS
  5
E0
 10
157.268563
 20
134.641146
 30
0.0
 11
160.018563
 21
137.391146
 31
0.0
  0
LINE
  8
LC-007-005-----0
  6
CONTINUOUS
  5
E1
 10
157.268563
 20
136.05536
 30
0.0
 11
160.018563
 21
138.80536
 31
0.0
  0
LINE
  8
LC-007-005-----0
  6
CONTINUOUS
  5
E2
 10
157.268563
 20
137.469574
 30
0.0
 11
160.018563
 21
140.219574
 31
0.0
  0
LINE
  8
LC-007-005-----0
  6
CONTINUOUS
  5
E3
 10
157.268563
 20
138.883787
 30
0.0
 11
160.018563
 21
141.633787
 31
0.0
  0
LINE
  8
LC-007-005-----0
  6
CONTINUOUS
  5
E4
 10
157.268563
 20
140.298001
 30
0.0
 11
160.018563
 21
143.048001
 31
0.0
  0
LINE
  8
LC-007-005-----0
  6
CONTINUOUS
  5
E5
 10
157.268563
 20
141.712214
 30
0.0
 11
160.018563
 21
144.462214
 31
0.0
  0
LINE
  8
LC-007-005-----0
  6
CONTINUOUS
  5
E6
 10
157.268563
 20
143.126428
 30
0.0
 11
160.018563
 21
145.876428
 31
0.0
  0
LINE
  8
LC-007-005-----0
  6
CONTINUOUS
  5
E7
 10
157.268563
 20
144.540641
 30
0.0
 11
160.018563
 21
147.290641
 31
0.0
  0
LINE
  8
LC-007-005-----0
  6
CONTINUOUS
  5
E8
 10
157.268563
 20
145.954855
 30
0.0
 11
160.018563
 21
148.704855
 31
0.0
  0
LINE
  8
LC-007-005-----0
  6
CONTINUOUS
  5
E9
 10
158.268563
 20
148.369068
 30
0.0
 11
160.018563
 21
150.119068
 31
0.0
  0
LINE
  8
LC-007-005-----0
  6
CONTINUOUS
  5
EA
 10
158.268563
 20
149.783282
 30
0.0
 11
160.018563
 21
151.533282
 31
0.0
  0
LINE
  8
LC-007-005-----0
  6
CONTINUOUS
  5
EB
 10
158.268563
 20
151.197496
 30
0.0
 11
160.018563
 21
152.947496
 31
0.0
  0
LINE
  8
LC-007-005-----0
  6
CONTINUOUS
  5
EC
 10
158.268563
 20
152.611709
 30
0.0
 11
160.018563
 21
154.361709
 31
0.0
  0
LINE
  8
LC-007-005-----0
  6
CONTINUOUS
  5
ED
 10
158.268563
 20
154.025923
 30
0.0
 11
160.018563
 21
155.775923
 31
0.0
  0
LINE
  8
LC-007-005-----0
  6
CONTINUOUS
  5
EE
 10
157.717098
 20
154.888671
 30
0.0
 11
160.018563
 21
157.190136
 31
0.0
  0
LINE
  8
LC-007-005-----0
  6
CONTINUOUS
  5
EF
 10
157.518563
 20
156.10435
 30
0.0
 11
160.018563
 21
158.60435
 31
0.0
  0
LINE
  8
LC-007-005-----0
  6
CONTINUOUS
  5
F0
 10
157.518563
 20
157.518563
 30
0.0
 11
159.837205
 21
159.837205
 31
0.0
  0
LINE
  8
LC-007-005-----0
  6
CONTINUOUS
  5
F1
 10
157.859381
 20
159.273595
 30
0.0
 11
158.422992
 21
159.837205
 31
0.0
  0
ENDBLK
  8
0
  5
F2
  0
BLOCK
  8
0
  5
F4
  2
*X16
 70
    65
 10
68.518563
 20
115.837205
 30
0.0
  3
*X16
  0
LINE
  8
LC-007-005-----0
  6
CONTINUOUS
  5
F5
 10
70.582371
 20
115.837205
 30
0.0
 11
71.268563
 21
116.523397
 31
0.0
  0
LINE
  8
LC-007-005-----0
  6
CONTINUOUS
  5
F6
 10
68.77963
 20
116.862891
 30
0.0
 11
71.268563
 21
119.351825
 31
0.0
  0
LINE
  8
LC-007-005-----0
  6
CONTINUOUS
  5
F7
 10
68.518563
 20
118.016038
 30
0.0
 11
71.268563
 21
120.766038
 31
0.0
  0
LINE
  8
LC-007-005-----0
  6
CONTINUOUS
  5
F8
 10
68.518563
 20
119.430252
 30
0.0
 11
71.268563
 21
122.180252
 31
0.0
  0
LINE
  8
LC-007-005-----0
  6
CONTINUOUS
  5
F9
 10
68.518563
 20
120.844465
 30
0.0
 11
71.268563
 21
123.594465
 31
0.0
  0
LINE
  8
LC-007-005-----0
  6
CONTINUOUS
  5
FA
 10
68.518563
 20
122.258679
 30
0.0
 11
71.268563
 21
125.008679
 31
0.0
  0
LINE
  8
LC-007-005-----0
  6
CONTINUOUS
  5
FB
 10
68.518563
 20
123.672892
 30
0.0
 11
71.268563
 21
126.422892
 31
0.0
  0
LINE
  8
LC-007-005-----0
  6
CONTINUOUS
  5
FC
 10
68.518563
 20
125.087106
 30
0.0
 11
71.268563
 21
127.837106
 31
0.0
  0
LINE
  8
LC-007-005-----0
  6
CONTINUOUS
  5
FD
 10
68.518563
 20
126.501319
 30
0.0
 11
71.268563
 21
129.251319
 31
0.0
  0
LINE
  8
LC-007-005-----0
  6
CONTINUOUS
  5
FE
 10
68.518563
 20
127.915533
 30
0.0
 11
71.268563
 21
130.665533
 31
0.0
  0
LINE
  8
LC-007-005-----0
  6
CONTINUOUS
  5
FF
 10
68.518563
 20
129.329747
 30
0.0
 11
71.268563
 21
132.079747
 31
0.0
  0
LINE
  8
LC-007-005-----0
  6
CONTINUOUS
  5
100
 10
68.518563
 20
130.74396
 30
0.0
 11
71.268563
 21
133.49396
 31
0.0
  0
LINE
  8
LC-007-005-----0
  6
CONTINUOUS
  5
101
 10
68.518563
 20
132.158174
 30
0.0
 11
71.268563
 21
134.908174
 31
0.0
  0
LINE
  8
LC-007-005-----0
  6
CONTINUOUS
  5
102
 10
68.518563
 20
133.572387
 30
0.0
 11
71.268563
 21
136.322387
 31
0.0
  0
LINE
  8
LC-007-005-----0
  6
CONTINUOUS
  5
103
 10
68.518563
 20
134.986601
 30
0.0
 11
71.268563
 21
137.736601
 31
0.0
  0
LINE
  8
LC-007-005-----0
  6
CONTINUOUS
  5
104
 10
68.518563
 20
136.400814
 30
0.0
 11
71.268563
 21
139.150814
 31
0.0
  0
LINE
  8
LC-007-005-----0
  6
CONTINUOUS
  5
105
 10
68.518563
 20
137.815028
 30
0.0
 11
71.268563
 21
140.565028
 31
0.0
  0
LINE
  8
LC-007-005-----0
  6
CONTINUOUS
  5
106
 10
68.518563
 20
139.229242
 30
0.0
 11
71.268563
 21
141.979242
 31
0.0
  0
LINE
  8
LC-007-005-----0
  6
CONTINUOUS
  5
107
 10
68.518563
 20
140.643455
 30
0.0
 11
71.268563
 21
143.393455
 31
0.0
  0
LINE
  8
LC-007-005-----0
  6
CONTINUOUS
  5
108
 10
68.518563
 20
142.057669
 30
0.0
 11
71.268563
 21
144.807669
 31
0.0
  0
LINE
  8
LC-007-005-----0
  6
CONTINUOUS
  5
109
 10
68.518563
 20
143.471882
 30
0.0
 11
71.268563
 21
146.221882
 31
0.0
  0
LINE
  8
LC-007-005-----0
  6
CONTINUOUS
  5
10A
 10
68.518563
 20
144.886096
 30
0.0
 11
70.869118
 21
147.23665
 31
0.0
  0
LINE
  8
LC-007-005-----0
  6
CONTINUOUS
  5
10B
 10
68.518563
 20
146.300309
 30
0.0
 11
70.268563
 21
148.050309
 31
0.0
  0
LINE
  8
LC-007-005-----0
  6
CONTINUOUS
  5
10C
 10
68.518563
 20
147.714523
 30
0.0
 11
70.268563
 21
149.464523
 31
0.0
  0
LINE
  8
LC-007-005-----0
  6
CONTINUOUS
  5
10D
 10
68.518563
 20
149.128736
 30
0.0
 11
70.268563
 21
150.878736
 31
0.0
  0
LINE
  8
LC-007-005-----0
  6
CONTINUOUS
  5
10E
 10
68.518563
 20
150.54295
 30
0.0
 11
70.268563
 21
152.29295
 31
0.0
  0
LINE
  8
LC-007-005-----0
  6
CONTINUOUS
  5
10F
 10
68.518563
 20
151.957164
 30
0.0
 11
70.268563
 21
153.707164
 31
0.0
  0
LINE
  8
LC-007-005-----0
  6
CONTINUOUS
  5
110
 10
68.518563
 20
153.371377
 30
0.0
 11
71.018563
 21
155.871377
 31
0.0
  0
LINE
  8
LC-007-005-----0
  6
CONTINUOUS
  5
111
 10
68.518563
 20
154.785591
 30
0.0
 11
71.018563
 21
157.285591
 31
0.0
  0
LINE
  8
LC-007-005-----0
  6
CONTINUOUS
  5
112
 10
68.518563
 20
156.199804
 30
0.0
 11
70.921805
 21
158.603046
 31
0.0
  0
LINE
  8
LC-007-005-----0
  6
CONTINUOUS
  5
113
 10
68.518563
 20
157.614018
 30
0.0
 11
70.544428
 21
159.639882
 31
0.0
  0
LINE
  8
LC-007-005-----0
  6
CONTINUOUS
  5
114
 10
68.518563
 20
159.028231
 30
0.0
 11
69.327537
 21
159.837205
 31
0.0
  0
ENDBLK
  8
0
  5
115
  0
BLOCK
  8
0
  5
117
  2
BLK6
 70
    64
 10
0.0
 20
0.0
 30
0.0
  3
BLK6
  0
ENDBLK
  8
0
  5
118
  0
BLOCK
  8
0
  5
11A
  2
*D18
 70
    65
 10
0.0
 20
0.0
 30
0.0
  3
*D18
  0
LINE
  8
LC-002-003-MTH-0
  6
CONTINUOUS
  5
11B
 10
159.482665
 20
115.837205
 30
0.0
 11
252.0
 21
115.837205
 31
0.0
  0
LINE
  8
LC-002-003-MTH-0
  6
CONTINUOUS
  5
11C
 10
162.068563
 20
171.337205
 30
0.0
 11
252.0
 21
171.337205
 31
0.0
  0
LINE
  8
LC-001-003-----0
  6
CONTINUOUS
  5
11D
 10
238.854733
 20
88.076749
 30
0.0
 11
235.2
 21
115.837205
 31
0.0
  0
LINE
  8
LC-001-003-----0
  6
CONTINUOUS
  5
11E
 10
235.2
 20
115.837205
 30
0.0
 11
231.545267
 21
88.076749
 31
0.0
  0
LINE
  8
LC-001-003-----0
  6
CONTINUOUS
  5
11F
 10
231.545267
 20
88.076749
 30
0.0
 11
238.854733
 21
88.076749
 31
0.0
  0
LINE
  8
LC-001-003-----0
  6
CONTINUOUS
  5
120
 10
237.904503
 20
88.014468
 30
0.0
 11
235.2
 21
108.557205
 31
0.0
  0
LINE
  8
LC-001-003-----0
  6
CONTINUOUS
  5
121
 10
235.2
 20
108.557205
 30
0.0
 11
232.495497
 21
88.014468
 31
0.0
  0
LINE
  8
LC-001-003-----0
  6
CONTINUOUS
  5
122
 10
236.954272
 20
87.952186
 30
0.0
 11
235.2
 21
101.277205
 31
0.0
  0
LINE
  8
LC-001-003-----0
  6
CONTINUOUS
  5
123
 10
235.2
 20
101.277205
 30
0.0
 11
233.445728
 21
87.952186
 31
0.0
  0
LINE
  8
LC-001-003-----0
  6
CONTINUOUS
  5
124
 10
236.004041
 20
87.889905
 30
0.0
 11
235.2
 21
93.997205
 31
0.0
  0
LINE
  8
LC-001-003-----0
  6
CONTINUOUS
  5
125
 10
235.2
 20
93.997205
 30
0.0
 11
234.395959
 21
87.889905
 31
0.0
  0
LINE
  8
LC-001-003-----0
  6
CONTINUOUS
  5
126
 10
231.545267
 20
199.097661
 30
0.0
 11
235.2
 21
171.337205
 31
0.0
  0
LINE
  8
LC-001-003-----0
  6
CONTINUOUS
  5
127
 10
235.2
 20
171.337205
 30
0.0
 11
238.854733
 21
199.097661
 31
0.0
  0
LINE
  8
LC-001-003-----0
  6
CONTINUOUS
  5
128
 10
238.854733
 20
199.097661
 30
0.0
 11
231.545267
 21
199.097661
 31
0.0
  0
LINE
  8
LC-001-003-----0
  6
CONTINUOUS
  5
129
 10
232.495497
 20
199.159943
 30
0.0
 11
235.2
 21
178.617205
 31
0.0
  0
LINE
  8
LC-001-003-----0
  6
CONTINUOUS
  5
12A
 10
235.2
 20
178.617205
 30
0.0
 11
237.904503
 21
199.159943
 31
0.0
  0
LINE
  8
LC-001-003-----0
  6
CONTINUOUS
  5
12B
 10
233.445728
 20
199.222224
 30
0.0
 11
235.2
 21
185.897205
 31
0.0
  0
LINE
  8
LC-001-003-----0
  6
CONTINUOUS
  5
12C
 10
235.2
 20
185.897205
 30
0.0
 11
236.954272
 21
199.222224
 31
0.0
  0
LINE
  8
LC-001-003-----0
  6
CONTINUOUS
  5
12D
 10
234.395959
 20
199.284506
 30
0.0
 11
235.2
 21
193.177205
 31
0.0
  0
LINE
  8
LC-001-003-----0
  6
CONTINUOUS
  5
12E
 10
235.2
 20
193.177205
 30
0.0
 11
236.004041
 21
199.284506
 31
0.0
  0
LINE
  8
LC-003-003-MTG-0
  6
CONTINUOUS
  5
12F
 10
235.2
 20
76.637205
 30
0.0
 11
235.2
 21
210.537205
 31
0.0
  0
TEXT
  8
LC-001-003-----0
  6
CONTINUOUS
 62
     8
  5
130
 10
227.372446
 20
129.481822
 30
0.0
 40
28.0
  1
55
 50
90.0
 51
15.0
  7
LC-TXTSTYLE-150-400-0-0-D0
 72
     1
 11
227.372446
 21
147.935365
 31
0.0
  0
ENDBLK
  8
0
  5
131
  0
BLOCK
  8
0
  5
133
  2
BLK7
 70
    64
 10
0.0
 20
0.0
 30
0.0
  3
BLK7
  0
ENDBLK
  8
0
  5
134
  0
BLOCK
  8
0
  5
136
  2
BLK8
 70
    64
 10
0.0
 20
0.0
 30
0.0
  3
BLK8
  0
ENDBLK
  8
0
  5
137
  0
BLOCK
  8
0
  5
139
  2
BLK9
 70
    64
 10
0.0
 20
0.0
 30
0.0
  3
BLK9
  0
ENDBLK
  8
0
  5
13A
  0
BLOCK
  8
0
  5
13C
  2
BLK10
 70
    64
 10
0.0
 20
0.0
 30
0.0
  3
BLK10
  0
ENDBLK
  8
0
  5
13D
  0
BLOCK
  8
0
  5
13F
  2
BLK11
 70
    64
 10
0.0
 20
0.0
 30
0.0
  3
BLK11
  0
ENDBLK
  8
0
  5
140
  0
BLOCK
  8
0
  5
142
  2
*D24
 70
    65
 10
0.0
 20
0.0
 30
0.0
  3
*D24
  0
LINE
  8
LC-002-003-MTH-0
  6
CONTINUOUS
  5
143
 10
68.518563
 20
117.837205
 30
0.0
 11
68.518563
 21
61.6
 31
0.0
  0
LINE
  8
LC-002-003-MTH-0
  6
CONTINUOUS
  5
144
 10
160.018563
 20
117.837205
 30
0.0
 11
160.018563
 21
61.6
 31
0.0
  0
LINE
  8
LC-003-003-MTG-0
  6
CONTINUOUS
  5
145
 10
68.518563
 20
78.4
 30
0.0
 11
160.018563
 21
78.4
 31
0.0
  0
LINE
  8
LC-001-003-----0
  6
CONTINUOUS
  5
146
 10
96.27902
 20
82.054733
 30
0.0
 11
68.518563
 21
78.4
 31
0.0
  0
LINE
  8
LC-001-003-----0
  6
CONTINUOUS
  5
147
 10
68.518563
 20
78.4
 30
0.0
 11
96.27902
 21
74.745267
 31
0.0
  0
LINE
  8
LC-001-003-----0
  6
CONTINUOUS
  5
148
 10
96.27902
 20
74.745267
 30
0.0
 11
96.27902
 21
82.054733
 31
0.0
  0
LINE
  8
LC-001-003-----0
  6
CONTINUOUS
  5
149
 10
96.341301
 20
81.104503
 30
0.0
 11
75.798563
 21
78.4
 31
0.0
  0
LINE
  8
LC-001-003-----0
  6
CONTINUOUS
  5
14A
 10
75.798563
 20
78.4
 30
0.0
 11
96.341301
 21
75.695497
 31
0.0
  0
LINE
  8
LC-001-003-----0
  6
CONTINUOUS
  5
14B
 10
96.403582
 20
80.154272
 30
0.0
 11
83.078563
 21
78.4
 31
0.0
  0
LINE
  8
LC-001-003-----0
  6
CONTINUOUS
  5
14C
 10
83.078563
 20
78.4
 30
0.0
 11
96.403582
 21
76.645728
 31
0.0
  0
LINE
  8
LC-001-003-----0
  6
CONTINUOUS
  5
14D
 10
96.465864
 20
79.204041
 30
0.0
 11
90.358563
 21
78.4
 31
0.0
  0
LINE
  8
LC-001-003-----0
  6
CONTINUOUS
  5
14E
 10
90.358563
 20
78.4
 30
0.0
 11
96.465864
 21
77.595959
 31
0.0
  0
LINE
  8
LC-001-003-----0
  6
CONTINUOUS
  5
14F
 10
132.258107
 20
74.745267
 30
0.0
 11
160.018563
 21
78.4
 31
0.0
  0
LINE
  8
LC-001-003-----0
  6
CONTINUOUS
  5
150
 10
160.018563
 20
78.4
 30
0.0
 11
132.258107
 21
82.054733
 31
0.0
  0
LINE
  8
LC-001-003-----0
  6
CONTINUOUS
  5
151
 10
132.258107
 20
82.054733
 30
0.0
 11
132.258107
 21
74.745267
 31
0.0
  0
LINE
  8
LC-001-003-----0
  6
CONTINUOUS
  5
152
 10
132.195826
 20
75.695497
 30
0.0
 11
152.738563
 21
78.4
 31
0.0
  0
LINE
  8
LC-001-003-----0
  6
CONTINUOUS
  5
153
 10
152.738563
 20
78.4
 30
0.0
 11
132.195826
 21
81.104503
 31
0.0
  0
LINE
  8
LC-001-003-----0
  6
CONTINUOUS
  5
154
 10
132.133544
 20
76.645728
 30
0.0
 11
145.458563
 21
78.4
 31
0.0
  0
LINE
  8
LC-001-003-----0
  6
CONTINUOUS
  5
155
 10
145.458563
 20
78.4
 30
0.0
 11
132.133544
 21
80.154272
 31
0.0
  0
LINE
  8
LC-001-003-----0
  6
CONTINUOUS
  5
156
 10
132.071263
 20
77.595959
 30
0.0
 11
138.178563
 21
78.4
 31
0.0
  0
LINE
  8
LC-001-003-----0
  6
CONTINUOUS
  5
157
 10
138.178563
 20
78.4
 30
0.0
 11
132.071263
 21
79.204041
 31
0.0
  0
TEXT
  8
LC-001-003-----0
  6
CONTINUOUS
 62
     8
  5
158
 10
82.569479
 20
86.227554
 30
0.0
 40
28.0
  1
Ø91,5
 51
15.0
  7
LC-TXTSTYLE-150-400-0-0-D0
 72
     1
 11
118.616723
 21
86.227554
 31
0.0
  0
ENDBLK
  8
0
  5
159
  0
ENDSEC
  0
SECTION
  2
ENTITIES
  0
VIEWPORT
  8
LC-000
  5
29F
 67
     1
 68
     1
 10
420.0
 20
297.0
 30
0.0
 40
840.0
 41
594.0
 69
     1
1001
ACAD
1000
MVIEW
1002
{
1070
    16
1010
0.0
1020
0.0
1030
0.0
1010
0.0
1020
0.0
1030
1.0
1040
0.0
1040
594.0
1040
420.0
1040
297.0
1040
50.0
1040
0.0
1040
0.0
1070
     0
1070
   100
1070
     1
1070
     1
1070
     0
1070
     0
1070
     0
1070
     0
1040
0.0
1040
0.0
1040
0.0
1040
1.0
1040
1.0
1040
0.0
1040
0.0
1070
     0
1002
{
1002
}
1002
}
  0
VIEWPORT
  8
0
  5
2A0
 67
     1
 68
     1
 10
0.0
 20
0.0
 30
0.0
 40
0.0
 41
0.0
 69
     1
1001
ACAD
1000
MVIEW
1002
{
1070
    16
1010
0.0
1020
0.0
1030
0.0
1010
0.0
1020
0.0
1030
1.0
1040
0.0
1040
594.0
1040
0.0
1040
0.0
1040
50.0
1040
0.0
1040
0.0
1070
     0
1070
   100
1070
     0
1070
     1
1070
     0
1070
     0
1070
     0
1070
     0
1040
0.0
1040
0.0
1040
0.0
1040
0.5
1040
0.5
1040
0.5
1040
0.5
1070
     0
1002
{
1002
}
1002
}
  0
DIMENSION
  8
0
  5
15A
  2
*D0
 10
39.2
 20
130.086
 30
0.0
 11
39.2
 21
130.086
 31
0.0
  1
7
 13
65.968563
 23
171.337205
 33
0.0
 14
63.768563
 24
164.137205
 34
0.0
 50
90.0
  3
LC-DIM-L-0140-02-02
  0
DIMENSION
  8
0
  5
15B
  2
*D1
 10
114.268563
 20
196.0
 30
0.0
 11
114.268563
 21
196.0
 31
0.0
 13
64.268563
 23
169.637205
 33
0.0
 14
164.268563
 24
169.637205
 34
0.0
  3
LC-DIM-L-0140-02-02
  0
INSERT
  8
0
  5
15D
  2
BLK1
 10
0.0
 20
0.0
 30
0.0
  0
INSERT
  8
0
  5
15E
  2
*X3
 10
156.418285
 20
150.568526
 30
0.0
  0
INSERT
  8
0
  5
15F
  2
BLK2
 10
0.0
 20
0.0
 30
0.0
  0
INSERT
  8
0
  5
160
  2
BLK3
 10
0.0
 20
0.0
 30
0.0
  0
INSERT
  8
0
  5
161
  2
*X6
 10
81.268324
 20
166.1371
 30
0.0
  0
INSERT
  8
0
  5
162
  2
*X7
 10
93.268324
 20
166.1371
 30
0.0
  0
INSERT
  8
0
  5
163
  2
*X8
 10
105.268324
 20
166.1371
 30
0.0
  0
INSERT
  8
0
  5
165
  2
BLK4
 10
0.0
 20
0.0
 30
0.0
  0
INSERT
  8
0
  5
166
  2
*X10
 10
60.568563
 20
150.568526
 30
0.0
  0
INSERT
  8
0
  5
167
  2
*X11
 10
141.26856
 20
166.137184
 30
0.0
  0
INSERT
  8
0
  5
168
  2
*X12
 10
129.26856
 20
166.137191
 30
0.0
  0
INSERT
  8
0
  5
169
  2
*X13
 10
114.268562
 20
166.137199
 30
0.0
  0
INSERT
  8
0
  5
16A
  2
BLK5
 10
0.0
 20
0.0
 30
0.0
  0
INSERT
  8
0
  5
16B
  2
*X15
 10
157.268563
 20
115.837205
 30
0.0
  0
INSERT
  8
0
  5
16C
  2
*X16
 10
68.518563
 20
115.837205
 30
0.0
  0
INSERT
  8
0
  5
16D
  2
BLK6
 10
0.0
 20
0.0
 30
0.0
  0
DIMENSION
  8
0
  5
16E
  2
*D18
 10
235.2
 20
143.587205
 30
0.0
 11
235.2
 21
143.587205
 31
0.0
  1
55
 13
162.068563
 23
171.337205
 33
0.0
 14
159.482665
 24
115.837205
 34
0.0
 50
90.0
  3
LC-DIM-L-0140-02-02
  0
INSERT
  8
0
  5
16F
  2
BLK7
 10
0.0
 20
0.0
 30
0.0
  0
INSERT
  8
0
  5
170
  2
BLK8
 10
0.0
 20
0.0
 30
0.0
  0
INSERT
  8
0
  5
171
  2
BLK9
 10
0.0
 20
0.0
 30
0.0
  0
INSERT
  8
0
  5
172
  2
BLK10
 10
0.0
 20
0.0
 30
0.0
  0
INSERT
  8
0
  5
173
  2
BLK11
 10
0.0
 20
0.0
 30
0.0
  0
DIMENSION
  8
0
  5
174
  2
*D24
 10
114.268563
 20
78.4
 30
0.0
 11
114.268563
 21
78.4
 31
0.0
  1
%%c<>
 13
68.518563
 23
117.837205
 33
0.0
 14
160.018563
 24
117.837205
 34
0.0
  3
LC-DIM-L-0140-02-02
  0
LINE
  8
LC-004-002-----0
  6
CONTINUOUS
  5
176
 10
91.985984
 20
223.660672
 30
0.0
 11
91.985984
 21
208.660672
 31
0.0
  0
ARC
  8
LC-005-002-RND-0
  6
CONTINUOUS
  5
178
 10
353.518563
 20
100.237205
 30
0.0
 40
2.5
 50
270.0
 51
0.0
  0
ARC
  8
LC-005-002-RND-0
  6
CONTINUOUS
  5
179
 10
353.518563
 20
186.237205
 30
0.0
 40
2.5
 50
0.0
 51
90.0
  0
ARC
  8
LC-005-002-RND-0
  6
CONTINUOUS
  5
17A
 10
267.518563
 20
186.237205
 30
0.0
 40
2.5
 50
90.0
 51
180.0
  0
ARC
  8
LC-005-002-RND-0
  6
CONTINUOUS
  5
17B
 10
267.518563
 20
100.237205
 30
0.0
 40
2.5
 50
180.0
 51
270.0
  0
ARC
  8
LC-004-002-----0
  6
CONTINUOUS
 62
     1
  5
17C
 10
298.518563
 20
139.737205
 30
0.0
 40
3.0
 50
180.0
 51
0.0
  0
ARC
  8
LC-004-002-----0
  6
CONTINUOUS
 62
     1
  5
17D
 10
322.518563
 20
146.737205
 30
0.0
 40
3.0
 50
0.0
 51
180.0
  0
LINE
  8
LC-004-002-----0
  6
CONTINUOUS
 62
     1
  5
17E
 10
70.268324
 20
166.1371
 30
0.0
 11
68.768324
 21
166.1371
 31
0.0
  0
LINE
  8
LC-004-002-----0
  6
CONTINUOUS
 62
     1
  5
17F
 10
158.26856
 20
166.137176
 30
0.0
 11
159.76856
 21
166.137175
 31
0.0
  0
LINE
  8
LC-004-002-----0
  6
CONTINUOUS
 62
     1
  5
180
 10
68.518563
 20
159.837205
 30
0.0
 11
68.518563
 21
117.837205
 31
0.0
  0
LINE
  8
LC-007-005-----0
  6
CONTINUOUS
  5
181
 10
68.768324
 20
167.405275
 30
0.0
 11
70.036501
 21
166.1371
 31
0.0
  0
LINE
  8
LC-007-005-----0
  6
CONTINUOUS
  5
182
 10
68.775972
 20
168.81184
 30
0.0
 11
70.268324
 21
167.31949
 31
0.0
  0
LINE
  8
LC-007-005-----0
  6
CONTINUOUS
  5
183
 10
69.166868
 20
169.835157
 30
0.0
 11
70.268324
 21
168.733703
 31
0.0
  0
LINE
  8
LC-007-005-----0
  6
CONTINUOUS
  5
184
 10
69.952912
 20
170.463327
 30
0.0
 11
71.27914
 21
169.1371
 31
0.0
  0
LINE
  8
LC-004-002-----0
  6
CONTINUOUS
  5
185
 10
76.985984
 20
208.660672
 30
0.0
 11
91.985984
 21
208.660672
 31
0.0
  0
LINE
  8
LC-007-005-----0
  6
CONTINUOUS
  5
186
 10
73.768324
 20
166.64792
 30
0.0
 11
74.279144
 21
166.1371
 31
0.0
  0
LINE
  8
LC-004-002-----0
  6
CONTINUOUS
 62
     1
  5
187
 10
70.268324
 20
166.1371
 30
0.0
 11
70.268324
 21
169.1371
 31
0.0
  0
LINE
  8
LC-004-002-----0
  6
CONTINUOUS
 62
     1
  5
188
 10
81.268324
 20
166.1371
 30
0.0
 11
82.768324
 21
166.1371
 31
0.0
  0
LINE
  8
LC-004-002-----0
  6
CONTINUOUS
 62
     1
  5
189
 10
82.768324
 20
166.1371
 30
0.0
 11
82.768324
 21
169.1371
 31
0.0
  0
LINE
  8
LC-004-002-----0
  6
CONTINUOUS
 62
     1
  5
18A
 10
82.768324
 20
169.1371
 30
0.0
 11
85.768324
 21
169.1371
 31
0.0
  0
LINE
  8
LC-004-002-----0
  6
CONTINUOUS
 62
     1
  5
18B
 10
85.768324
 20
169.1371
 30
0.0
 11
85.768324
 21
166.1371
 31
0.0
  0
LINE
  8
LC-004-002-----0
  6
CONTINUOUS
 62
     1
  5
18C
 10
85.768324
 20
166.1371
 30
0.0
 11
87.268324
 21
166.1371
 31
0.0
  0
LINE
  8
LC-004-002-----0
  6
CONTINUOUS
 62
     1
  5
18D
 10
75.268324
 20
166.1371
 30
0.0
 11
73.768324
 21
166.1371
 31
0.0
  0
LINE
  8
LC-004-002-----0
  6
CONTINUOUS
  5
18E
 10
76.985984
 20
223.660672
 30
0.0
 11
76.985984
 21
208.660672
 31
0.0
  0
LINE
  8
LC-004-002-----0
  6
CONTINUOUS
 62
     1
  5
18F
 10
295.518563
 20
146.737205
 30
0.0
 11
295.518563
 21
139.737205
 31
0.0
  0
LINE
  8
LC-004-002-----0
  6
CONTINUOUS
 62
     1
  5
190
 10
325.518563
 20
139.737205
 30
0.0
 11
325.518563
 21
146.737205
 31
0.0
  0
LINE
  8
LC-004-002-----0
  6
CONTINUOUS
 62
     1
  5
191
 10
301.518563
 20
146.737205
 30
0.0
 11
301.518563
 21
139.737205
 31
0.0
  0
LINE
  8
LC-004-002-----0
  6
CONTINUOUS
 62
     1
  5
192
 10
158.195317
 20
153.763589
 30
0.0
 11
157.03241
 21
150.568526
 31
0.0
  0
LINE
  8
LC-004-002-----0
  6
CONTINUOUS
 62
     1
  5
193
 10
73.768324
 20
166.1371
 30
0.0
 11
73.768324
 21
169.1371
 31
0.0
  0
LINE
  8
LC-004-002-----0
  6
CONTINUOUS
 62
     1
  5
194
 10
73.768324
 20
169.1371
 30
0.0
 11
70.768324
 21
169.1371
 31
0.0
  0
LINE
  8
LC-004-002-----0
  6
CONTINUOUS
 62
     1
  5
195
 10
70.768324
 20
169.1371
 30
0.0
 11
70.268324
 21
169.1371
 31
0.0
  0
LINE
  8
LC-004-002-----0
  6
CONTINUOUS
 62
     1
  5
196
 10
93.268324
 20
166.1371
 30
0.0
 11
94.768324
 21
166.1371
 31
0.0
  0
LINE
  8
LC-004-002-----0
  6
CONTINUOUS
 62
     1
  5
197
 10
94.768324
 20
166.1371
 30
0.0
 11
94.768324
 21
169.1371
 31
0.0
  0
LINE
  8
LC-004-002-----0
  6
CONTINUOUS
 62
     1
  5
198
 10
94.768324
 20
169.1371
 30
0.0
 11
97.768324
 21
169.1371
 31
0.0
  0
LINE
  8
LC-004-002-----0
  6
CONTINUOUS
 62
     1
  5
199
 10
97.768324
 20
169.1371
 30
0.0
 11
97.768324
 21
166.1371
 31
0.0
  0
LINE
  8
LC-004-002-----0
  6
CONTINUOUS
 62
     1
  5
19A
 10
97.768324
 20
166.1371
 30
0.0
 11
99.268324
 21
166.1371
 31
0.0
  0
LINE
  8
LC-004-002-----0
  6
CONTINUOUS
 62
     1
  5
19B
 10
157.586378
 20
154.137205
 30
0.0
 11
156.418285
 21
150.927895
 31
0.0
  0
ARC
  8
LC-004-002-----0
  6
CONTINUOUS
 62
     1
  5
19C
 10
157.443563
 20
154.037205
 30
0.0
 40
0.8
 50
340.0
 51
88.209215
  0
LINE
  8
LC-008-001-----0
  6
CONTINUOUS
  5
19E
 10
157.468563
 20
159.337205
 30
0.0
 11
157.468563
 21
154.837205
 31
0.0
  0
LINE
  8
LC-004-002-----0
  6
CONTINUOUS
 62
     1
  5
19F
 10
105.268324
 20
166.1371
 30
0.0
 11
106.768324
 21
166.1371
 31
0.0
  0
LINE
  8
LC-004-002-----0
  6
CONTINUOUS
 62
     1
  5
1A0
 10
106.768324
 20
166.1371
 30
0.0
 11
106.768324
 21
169.1371
 31
0.0
  0
LINE
  8
LC-004-002-----0
  6
CONTINUOUS
 62
     1
  5
1A1
 10
106.768324
 20
169.1371
 30
0.0
 11
114.453784
 21
169.1371
 31
0.0
  0
LINE
  8
LC-004-002-----0
  6
CONTINUOUS
 62
     1
  5
1A2
 10
75.268324
 20
166.1371
 30
0.0
 11
81.268324
 21
166.1371
 31
0.0
  0
ARC
  8
LC-008-001-----0
  6
CONTINUOUS
  5
1A3
 10
157.968563
 20
159.337205
 30
0.0
 40
0.5
 50
90.0
 51
180.0
  0
LINE
  8
LC-008-001-----0
  6
CONTINUOUS
  5
1A4
 10
159.368563
 20
160.537205
 30
0.0
 11
157.968563
 21
160.537205
 31
0.0
  0
LINE
  8
LC-008-001-----0
  6
CONTINUOUS
  5
1A5
 10
157.968563
 20
159.837205
 30
0.0
 11
159.368563
 21
159.837205
 31
0.0
  0
LINE
  8
LC-004-002-----0
  6
CONTINUOUS
 62
     1
  5
1A6
 10
87.268324
 20
166.1371
 30
0.0
 11
93.268324
 21
166.1371
 31
0.0
  0
LINE
  8
LC-004-002-----0
  6
CONTINUOUS
 62
     1
  5
1A7
 10
99.268324
 20
166.1371
 30
0.0
 11
105.268324
 21
166.1371
 31
0.0
  0
LINE
  8
LC-004-002-----0
  6
CONTINUOUS
 62
     1
  5
1A8
 10
82.768324
 20
166.1371
 30
0.0
 11
85.768324
 21
166.1371
 31
0.0
  0
LINE
  8
LC-004-002-----0
  6
CONTINUOUS
 62
     1
  5
1A9
 10
94.768324
 20
166.1371
 30
0.0
 11
97.768324
 21
166.1371
 31
0.0
  0
ARC
  8
LC-008-001-----0
  6
CONTINUOUS
  5
1AA
 10
159.368563
 20
161.537205
 30
0.0
 40
1.0
 50
270.0
 51
0.0
  0
ARC
  8
LC-008-001-----0
  6
CONTINUOUS
  5
1AB
 10
159.368563
 20
161.537205
 30
0.0
 40
1.7
 50
270.0
 51
0.0
  0
LINE
  8
LC-004-002-----0
  6
CONTINUOUS
 62
     1
  5
1AC
 10
106.768324
 20
166.1371
 30
0.0
 11
114.268324
 21
166.1371
 31
0.0
  0
LINE
  8
LC-004-002-----0
  6
CONTINUOUS
 62
     1
  5
1AD
 10
68.768324
 20
166.1371
 30
0.0
 11
68.768324
 21
168.6371
 31
0.0
  0
ARC
  8
LC-004-002-----0
  6
CONTINUOUS
 62
     1
  5
1AE
 10
70.768324
 20
168.6371
 30
0.0
 40
2.0
 50
89.999981
 51
180.0
  0
LINE
  8
LC-004-002-----0
  6
CONTINUOUS
 62
     1
  5
1AF
 10
70.768324
 20
170.6371
 30
0.0
 11
73.768324
 21
170.6371
 31
0.0
  0
ARC
  8
LC-004-002-----0
  6
CONTINUOUS
 62
     1
  5
1B0
 10
73.768324
 20
169.1371
 30
0.0
 40
1.5
 50
0.0
 51
90.0
  0
ARC
  8
LC-004-002-----0
  6
CONTINUOUS
 62
     1
  5
1B1
 10
336.518563
 20
179.237205
 30
0.0
 40
3.0
 50
270.0
 51
90.0
  0
ARC
  8
LC-004-002-----0
  6
CONTINUOUS
 62
     1
  5
1B2
 10
284.518563
 20
179.237205
 30
0.0
 40
3.0
 50
90.0
 51
270.0
  0
LINE
  8
LC-004-002-----0
  6
CONTINUOUS
 62
     1
  5
1B3
 10
336.518563
 20
176.237205
 30
0.0
 11
284.518563
 21
176.237205
 31
0.0
  0
LINE
  8
LC-004-002-----0
  6
CONTINUOUS
 62
     1
  5
1B4
 10
75.268324
 20
169.1371
 30
0.0
 11
75.268324
 21
166.1371
 31
0.0
  0
LINE
  8
LC-008-001-----0
  6
CONTINUOUS
  5
1B5
 10
159.368563
 20
165.637205
 30
0.0
 11
114.268563
 21
165.637205
 31
0.0
  0
LINE
  8
LC-004-002-----0
  6
CONTINUOUS
 62
     1
  5
1B6
 10
336.518563
 20
182.237205
 30
0.0
 11
284.518563
 21
182.237205
 31
0.0
  0
LINE
  8
LC-008-001-----0
  6
CONTINUOUS
  5
1B7
 10
157.968563
 20
160.537205
 30
0.0
 11
114.268563
 21
160.537205
 31
0.0
  0
LINE
  8
LC-008-001-----0
  6
CONTINUOUS
  5
1B8
 10
159.368563
 20
164.937205
 30
0.0
 11
114.268563
 21
164.937205
 31
0.0
  0
LINE
  8
LC-004-002-----0
  6
CONTINUOUS
 62
     1
  5
1B9
 10
319.518563
 20
139.737205
 30
0.0
 11
319.518563
 21
146.737205
 31
0.0
  0
LINE
  8
LC-008-001-----0
  6
CONTINUOUS
  5
1BA
 10
156.768563
 20
159.337205
 30
0.0
 11
156.768563
 21
154.137205
 31
0.0
  0
LINE
  8
LC-008-001-----0
  6
CONTINUOUS
  5
1BB
 10
160.368563
 20
169.637205
 30
0.0
 11
160.368563
 21
166.637205
 31
0.0
  0
LINE
  8
LC-008-001-----0
  6
CONTINUOUS
  5
1BC
 10
161.068563
 20
169.637205
 30
0.0
 11
161.068563
 21
163.137205
 31
0.0
  0
ARC
  8
LC-004-002-----0
  6
CONTINUOUS
 62
     1
  5
1BD
 10
295.518563
 20
167.237205
 30
0.0
 40
3.0
 50
90.0
 51
270.0
  0
ARC
  8
LC-004-002-----0
  6
CONTINUOUS
 62
     1
  5
1BE
 10
325.518563
 20
167.237205
 30
0.0
 40
3.0
 50
270.0
 51
90.0
  0
LINE
  8
LC-008-001-----0
  6
CONTINUOUS
  5
1BF
 10
161.068563
 20
163.137205
 30
0.0
 11
161.068563
 21
161.537205
 31
0.0
  0
LINE
  8
LC-004-002-----0
  6
CONTINUOUS
 62
     1
  5
1C0
 10
295.518563
 20
170.237205
 30
0.0
 11
325.518563
 21
170.237205
 31
0.0
  0
LINE
  8
LC-004-002-----0
  6
CONTINUOUS
 62
     1
  5
1C1
 10
295.518563
 20
164.237205
 30
0.0
 11
325.518563
 21
164.237205
 31
0.0
  0
ARC
  8
LC-004-002-----0
  6
CONTINUOUS
 62
     1
  5
1C2
 10
298.518563
 20
146.737205
 30
0.0
 40
3.0
 50
0.0
 51
180.0
  0
LINE
  8
LC-008-001-----0
  6
CONTINUOUS
  5
1C3
 10
160.368563
 20
166.637205
 30
0.0
 11
160.368563
 21
161.537205
 31
0.0
  0
ARC
  8
LC-008-001-----0
  6
CONTINUOUS
  5
1C4
 10
159.368563
 20
166.637205
 30
0.0
 40
1.7
 50
270.0
 51
306.031879
  0
ARC
  8
LC-008-001-----0
  6
CONTINUOUS
  5
1C5
 10
159.368563
 20
166.637205
 30
0.0
 40
1.0
 50
270.0
 51
0.0
  0
ARC
  8
LC-008-001-----0
  6
CONTINUOUS
  5
1C6
 10
157.968563
 20
159.337205
 30
0.0
 40
1.2
 50
90.0
 51
180.0
  0
ARC
  8
LC-004-002-----0
  6
CONTINUOUS
 62
     1
  5
1C7
 10
322.518563
 20
139.737205
 30
0.0
 40
3.0
 50
180.0
 51
0.0
  0
LINE
  8
LC-008-001-----0
  6
CONTINUOUS
  5
1C8
 10
162.068563
 20
170.637205
 30
0.0
 11
162.568563
 21
170.637205
 31
0.0
  0
LINE
  8
LC-008-001-----0
  6
CONTINUOUS
  5
1C9
 10
162.068563
 20
171.337205
 30
0.0
 11
162.568563
 21
171.337205
 31
0.0
  0
LINE
  8
LC-008-001-----0
  6
CONTINUOUS
  5
1CA
 10
164.768563
 20
164.137205
 30
0.0
 11
161.068563
 21
164.137205
 31
0.0
  0
ARC
  8
LC-008-001-----0
  6
CONTINUOUS
  5
1CB
 10
162.568563
 20
169.637205
 30
0.0
 40
1.0
 50
0.0
 51
90.0
  0
ARC
  8
LC-008-001-----0
  6
CONTINUOUS
  5
1CC
 10
162.568563
 20
169.637205
 30
0.0
 40
1.7
 50
0.0
 51
90.0
  0
LINE
  8
LC-008-001-----0
  6
CONTINUOUS
  5
1CD
 10
164.268563
 20
169.637205
 30
0.0
 11
164.268563
 21
166.096797
 31
0.0
  0
LINE
  8
LC-008-001-----0
  6
CONTINUOUS
  5
1CE
 10
163.568563
 20
166.096797
 30
0.0
 11
163.568563
 21
169.637205
 31
0.0
  0
ARC
  8
LC-008-001-----0
  6
CONTINUOUS
  5
1CF
 10
162.068563
 20
169.637205
 30
0.0
 40
1.0
 50
90.0
 51
180.0
  0
ARC
  8
LC-008-001-----0
  6
CONTINUOUS
  5
1D0
 10
162.068563
 20
169.637205
 30
0.0
 40
1.0
 50
90.0
 51
180.0
  0
ARC
  8
LC-008-001-----0
  6
CONTINUOUS
  5
1D1
 10
162.068563
 20
169.637205
 30
0.0
 40
1.7
 50
90.0
 51
180.0
  0
LINE
  8
LC-004-002-----0
  6
CONTINUOUS
 62
     1
  5
1D2
 10
289.518563
 20
128.237205
 30
0.0
 11
289.518563
 21
158.237205
 31
0.0
  0
LINE
  8
LC-004-002-----0
  6
CONTINUOUS
 62
     1
  5
1D3
 10
157.03241
 20
150.568526
 30
0.0
 11
156.418285
 21
150.927895
 31
0.0
  0
LINE
  8
LC-004-002-----0
  6
CONTINUOUS
 62
     1
  5
1D4
 10
325.518563
 20
122.237205
 30
0.0
 11
295.518563
 21
122.237205
 31
0.0
  0
LINE
  8
LC-008-001-----0
  6
CONTINUOUS
  5
1D5
 10
69.168563
 20
165.637205
 30
0.0
 11
114.268563
 21
165.637205
 31
0.0
  0
ARC
  8
LC-004-002-----0
  6
CONTINUOUS
 62
     1
  5
1D6
 10
165.768563
 20
166.096797
 30
0.0
 40
2.2
 50
180.0
 51
242.964308
  0
LINE
  8
LC-004-002-----0
  6
CONTINUOUS
 62
     1
  5
1D7
 10
157.586378
 20
154.137205
 30
0.0
 11
156.418285
 21
150.927895
 31
0.0
  0
LINE
  8
LC-004-002-----0
  6
CONTINUOUS
 62
     1
  5
1D8
 10
331.518563
 20
158.237205
 30
0.0
 11
331.518563
 21
128.237205
 31
0.0
  0
ARC
  8
LC-004-002-----0
  6
CONTINUOUS
 62
     1
  5
1D9
 10
286.518563
 20
158.237205
 30
0.0
 40
3.0
 50
0.0
 51
180.0
  0
LINE
  8
LC-004-002-----0
  6
CONTINUOUS
 62
     1
  5
1DA
 10
114.268563
 20
154.137205
 30
0.0
 11
157.586378
 21
154.137205
 31
0.0
  0
LINE
  8
LC-004-002-----0
  6
CONTINUOUS
 62
     1
  5
1DB
 10
164.768563
 20
164.978763
 30
0.0
 11
164.768563
 21
164.137205
 31
0.0
  0
LINE
  8
LC-004-002-----0
  6
CONTINUOUS
 62
     1
  5
1DC
 10
157.03241
 20
150.568526
 30
0.0
 11
114.268563
 21
150.568526
 31
0.0
  0
ARC
  8
LC-004-002-----0
  6
CONTINUOUS
 62
     1
  5
1DD
 10
295.518563
 20
119.237205
 30
0.0
 40
3.0
 50
90.0
 51
270.0
  0
LINE
  8
LC-008-001-----0
  6
CONTINUOUS
  5
1DE
 10
70.568563
 20
160.537205
 30
0.0
 11
114.268563
 21
160.537205
 31
0.0
  0
LINE
  8
LC-004-002-----0
  6
CONTINUOUS
 62
     1
  5
1DF
 10
156.418285
 20
150.927895
 30
0.0
 11
114.268563
 21
150.927895
 31
0.0
  0
LINE
  8
LC-008-001-----0
  6
CONTINUOUS
  5
1E0
 10
69.168563
 20
164.937205
 30
0.0
 11
114.268563
 21
164.937205
 31
0.0
  0
LINE
  8
LC-008-001-----0
  6
CONTINUOUS
  5
1E1
 10
71.068563
 20
159.337205
 30
0.0
 11
71.068563
 21
154.837205
 31
0.0
  0
LINE
  8
LC-008-001-----0
  6
CONTINUOUS
  5
1E2
 10
71.768563
 20
159.337205
 30
0.0
 11
71.768563
 21
154.137205
 31
0.0
  0
LINE
  8
LC-008-001-----0
  6
CONTINUOUS
  5
1E3
 10
68.168563
 20
169.637205
 30
0.0
 11
68.168563
 21
166.637205
 31
0.0
  0
LINE
  8
LC-008-001-----0
  6
CONTINUOUS
  5
1E4
 10
67.468563
 20
169.637205
 30
0.0
 11
67.468563
 21
163.137205
 31
0.0
  0
ARC
  8
LC-008-001-----0
  6
CONTINUOUS
  5
1E5
 10
70.568563
 20
159.337205
 30
0.0
 40
0.5
 50
0.0
 51
90.0
  0
ARC
  8
LC-004-002-----0
  6
CONTINUOUS
 62
     1
  5
1E6
 10
334.518563
 20
128.237205
 30
0.0
 40
3.0
 50
180.0
 51
0.0
  0
LINE
  8
LC-004-002-----0
  6
CONTINUOUS
 62
     1
  5
1E7
 10
283.518563
 20
128.237205
 30
0.0
 11
283.518563
 21
158.237205
 31
0.0
  0
ARC
  8
LC-004-002-----0
  6
CONTINUOUS
 62
     1
  5
1E8
 10
165.768563
 20
166.096797
 30
0.0
 40
1.5
 50
180.0
 51
228.189685
  0
LINE
  8
LC-004-002-----0
  6
CONTINUOUS
 62
     1
  5
1E9
 10
325.518563
 20
116.237205
 30
0.0
 11
295.518563
 21
116.237205
 31
0.0
  0
LINE
  8
LC-008-001-----0
  6
CONTINUOUS
  5
1EA
 10
67.468563
 20
163.137205
 30
0.0
 11
67.468563
 21
161.537205
 31
0.0
  0
LINE
  8
LC-004-002-----0
  6
CONTINUOUS
 62
     1
  5
1EB
 10
73.768324
 20
170.6371
 30
0.0
 11
82.768324
 21
170.6371
 31
0.0
  0
LINE
  8
LC-004-002-----0
  6
CONTINUOUS
 62
     1
  5
1EC
 10
81.268324
 20
169.1371
 30
0.0
 11
81.268324
 21
166.1371
 31
0.0
  0
LINE
  8
LC-004-002-----0
  6
CONTINUOUS
 62
     1
  5
1ED
 10
337.518563
 20
158.237205
 30
0.0
 11
337.518563
 21
128.237205
 31
0.0
  0
ARC
  8
LC-008-001-----0
  6
CONTINUOUS
  5
1EE
 10
69.168563
 20
161.537205
 30
0.0
 40
1.0
 50
180.0
 51
270.0
  0
ARC
  8
LC-004-002-----0
  6
CONTINUOUS
 62
     1
  5
1EF
 10
82.768324
 20
169.1371
 30
0.0
 40
1.5
 50
89.999981
 51
180.0
  0
ARC
  8
LC-004-002-----0
  6
CONTINUOUS
 62
     1
  5
1F0
 10
286.518563
 20
128.237205
 30
0.0
 40
3.0
 50
180.0
 51
0.0
  0
ARC
  8
LC-004-002-----0
  6
CONTINUOUS
 62
     1
  5
1F1
 10
325.518563
 20
119.237205
 30
0.0
 40
3.0
 50
270.0
 51
90.0
  0
ARC
  8
LC-004-002-----0
  6
CONTINUOUS
 62
     1
  5
1F2
 10
334.518563
 20
158.237205
 30
0.0
 40
3.0
 50
0.0
 51
180.0
  0
LINE
  8
LC-004-002-----0
  6
CONTINUOUS
 62
     1
  5
1F3
 10
277.518563
 20
169.237205
 30
0.0
 11
277.518563
 21
117.237205
 31
0.0
  0
LINE
  8
LC-008-001-----0
  6
CONTINUOUS
  5
1F4
 10
69.168563
 20
159.837205
 30
0.0
 11
70.568563
 21
159.837205
 31
0.0
  0
LINE
  8
LC-008-001-----0
  6
CONTINUOUS
  5
1F5
 10
69.168563
 20
160.537205
 30
0.0
 11
70.568563
 21
160.537205
 31
0.0
  0
LINE
  8
LC-008-001-----0
  6
CONTINUOUS
  5
1F6
 10
68.168563
 20
166.637205
 30
0.0
 11
68.168563
 21
161.537205
 31
0.0
  0
ARC
  8
LC-008-001-----0
  6
CONTINUOUS
  5
1F7
 10
69.168563
 20
166.637205
 30
0.0
 40
1.7
 50
233.968121
 51
270.0
  0
LINE
  8
LC-004-002-----0
  6
CONTINUOUS
 62
     1
  5
1F8
 10
284.518563
 20
110.237205
 30
0.0
 11
336.518563
 21
110.237205
 31
0.0
  0
LINE
  8
LC-004-002-----0
  6
CONTINUOUS
 62
     1
  5
1F9
 10
343.518563
 20
117.237205
 30
0.0
 11
343.518563
 21
169.237205
 31
0.0
  0
ARC
  8
LC-008-001-----0
  6
CONTINUOUS
  5
1FA
 10
69.168563
 20
166.637205
 30
0.0
 40
1.0
 50
180.0
 51
270.0
  0
ARC
  8
LC-008-001-----0
  6
CONTINUOUS
  5
1FB
 10
70.568563
 20
159.337205
 30
0.0
 40
1.2
 50
360.0
 51
90.0
  0
ARC
  8
LC-008-001-----0
  6
CONTINUOUS
  5
1FC
 10
69.168563
 20
161.537205
 30
0.0
 40
1.7
 50
180.0
 51
270.0
  0
ARC
  8
LC-004-002-----0
  6
CONTINUOUS
 62
     1
  5
1FD
 10
274.518563
 20
117.237205
 30
0.0
 40
3.0
 50
180.0
 51
0.0
  0
LINE
  8
LC-004-002-----0
  6
CONTINUOUS
 62
     1
  5
1FE
 10
87.268324
 20
166.1371
 30
0.0
 11
87.268324
 21
169.1371
 31
0.0
  0
ARC
  8
LC-004-002-----0
  6
CONTINUOUS
 62
     1
  5
1FF
 10
85.768324
 20
169.1371
 30
0.0
 40
1.5
 50
0.0
 51
89.999981
  0
LINE
  8
LC-008-001-----0
  6
CONTINUOUS
  5
200
 10
66.468563
 20
170.637205
 30
0.0
 11
65.968563
 21
170.637205
 31
0.0
  0
LINE
  8
LC-004-002-----0
  6
CONTINUOUS
 62
     1
  5
201
 10
82.768324
 20
170.6371
 30
0.0
 11
85.768324
 21
170.6371
 31
0.0
  0
LINE
  8
LC-004-002-----0
  6
CONTINUOUS
 62
     1
  5
202
 10
85.768325
 20
170.6371
 30
0.0
 11
94.768324
 21
170.6371
 31
0.0
  0
LINE
  8
LC-004-002-----0
  6
CONTINUOUS
 62
     1
  5
203
 10
93.268324
 20
169.1371
 30
0.0
 11
93.268324
 21
166.1371
 31
0.0
  0
ARC
  8
LC-004-002-----0
  6
CONTINUOUS
 62
     1
  5
204
 10
94.768324
 20
169.1371
 30
0.0
 40
1.5
 50
89.999981
 51
180.0
  0
LINE
  8
LC-004-002-----0
  6
CONTINUOUS
 62
     1
  5
205
 10
97.768324
 20
170.6371
 30
0.0
 11
106.768324
 21
170.6371
 31
0.0
  0
LINE
  8
LC-004-002-----0
  6
CONTINUOUS
 62
     1
  5
206
 10
105.268324
 20
169.1371
 30
0.0
 11
105.268324
 21
166.1371
 31
0.0
  0
ARC
  8
LC-004-002-----0
  6
CONTINUOUS
 62
     1
  5
207
 10
106.768324
 20
169.1371
 30
0.0
 40
1.5
 50
89.999981
 51
180.0
  0
LINE
  8
LC-004-002-----0
  6
CONTINUOUS
 62
     1
  5
208
 10
106.768324
 20
170.6371
 30
0.0
 11
114.268324
 21
170.6371
 31
0.0
  0
LINE
  8
LC-004-002-----0
  6
CONTINUOUS
 62
     1
  5
209
 10
94.768324
 20
170.6371
 30
0.0
 11
97.768324
 21
170.6371
 31
0.0
  0
ARC
  8
LC-004-002-----0
  6
CONTINUOUS
 62
     1
  5
20A
 10
97.768324
 20
169.1371
 30
0.0
 40
1.5
 50
0.0
 51
90.0
  0
LINE
  8
LC-004-002-----0
  6
CONTINUOUS
 62
     1
  5
20B
 10
99.268324
 20
166.1371
 30
0.0
 11
99.268324
 21
169.1371
 31
0.0
  0
LINE
  8
LC-007-005-----0
  6
CONTINUOUS
  5
20C
 10
71.193353
 20
170.6371
 30
0.0
 11
72.693355
 21
169.1371
 31
0.0
  0
LINE
  8
LC-007-005-----0
  6
CONTINUOUS
  5
20D
 10
73.768324
 20
168.062132
 30
0.0
 11
75.268324
 21
166.562134
 31
0.0
  0
LINE
  8
LC-007-005-----0
  6
CONTINUOUS
  5
20E
 10
72.607567
 20
170.6371
 30
0.0
 11
75.268324
 21
167.976347
 31
0.0
  0
LINE
  8
LC-007-005-----0
  6
CONTINUOUS
  5
20F
 10
74.048105
 20
170.610777
 30
0.0
 11
75.242
 21
169.416883
 31
0.0
  0
LINE
  8
LC-007-005-----0
  6
CONTINUOUS
  5
210
 10
153.268561
 20
166.343696
 30
0.0
 11
153.475077
 21
166.13718
 31
0.0
  0
LINE
  8
LC-007-005-----0
  6
CONTINUOUS
  5
211
 10
153.268562
 20
167.757908
 30
0.0
 11
154.768561
 21
166.257911
 31
0.0
  0
LINE
  8
LC-007-005-----0
  6
CONTINUOUS
  5
212
 10
153.26896
 20
169.171721
 30
0.0
 11
154.768561
 21
167.672122
 31
0.0
  0
LINE
  8
LC-007-005-----0
  6
CONTINUOUS
  5
213
 10
153.682784
 20
170.172111
 30
0.0
 11
154.768562
 21
169.086334
 31
0.0
  0
LINE
  8
LC-004-002-----0
  6
CONTINUOUS
 62
     1
  5
214
 10
158.26856
 20
166.137176
 30
0.0
 11
158.268562
 21
169.137176
 31
0.0
  0
LINE
  8
LC-004-002-----0
  6
CONTINUOUS
 62
     1
  5
215
 10
147.26856
 20
166.137184
 30
0.0
 11
145.76856
 21
166.137185
 31
0.0
  0
LINE
  8
LC-004-002-----0
  6
CONTINUOUS
 62
     1
  5
216
 10
145.76856
 20
166.137185
 30
0.0
 11
145.768562
 21
169.137185
 31
0.0
  0
ARC
  8
LC-004-002-----0
  6
CONTINUOUS
 62
     1
  5
217
 10
336.518563
 20
107.237205
 30
0.0
 40
3.0
 50
270.0
 51
90.0
  0
ARC
  8
LC-004-002-----0
  6
CONTINUOUS
 62
     1
  5
218
 10
346.518563
 20
169.237205
 30
0.0
 40
3.0
 50
0.0
 51
180.0
  0
LINE
  8
LC-004-002-----0
  6
CONTINUOUS
 62
     1
  5
219
 10
145.768562
 20
169.137185
 30
0.0
 11
142.768562
 21
169.137187
 31
0.0
  0
LINE
  8
LC-004-002-----0
  6
CONTINUOUS
 62
     1
  5
21A
 10
142.768562
 20
169.137187
 30
0.0
 11
142.76856
 21
166.137187
 31
0.0
  0
LINE
  8
LC-004-002-----0
  6
CONTINUOUS
 62
     1
  5
21B
 10
271.518563
 20
169.237205
 30
0.0
 11
271.518563
 21
117.237205
 31
0.0
  0
LINE
  8
LC-004-002-----0
  6
CONTINUOUS
 62
     1
  5
21C
 10
142.76856
 20
166.137187
 30
0.0
 11
141.26856
 21
166.137188
 31
0.0
  0
LINE
  8
LC-004-002-----0
  6
CONTINUOUS
 62
     1
  5
21D
 10
153.26856
 20
166.13718
 30
0.0
 11
154.76856
 21
166.137179
 31
0.0
  0
LINE
  8
LC-008-001-----0
  6
CONTINUOUS
  5
21E
 10
66.468563
 20
171.337205
 30
0.0
 11
65.968563
 21
171.337205
 31
0.0
  0
LINE
  8
LC-008-001-----0
  6
CONTINUOUS
  5
21F
 10
63.768563
 20
164.137205
 30
0.0
 11
67.468563
 21
164.137205
 31
0.0
  0
LINE
  8
LC-004-002-----0
  6
CONTINUOUS
 62
     1
  5
220
 10
284.518563
 20
104.237205
 30
0.0
 11
336.518563
 21
104.237205
 31
0.0
  0
LINE
  8
LC-004-002-----0
  6
CONTINUOUS
 62
     1
  5
221
 10
349.518563
 20
117.237205
 30
0.0
 11
349.518563
 21
169.237205
 31
0.0
  0
LINE
  8
LC-004-002-----0
  6
CONTINUOUS
 62
     1
  5
222
 10
154.76856
 20
166.137179
 30
0.0
 11
154.768562
 21
169.137179
 31
0.0
  0
ARC
  8
LC-004-002-----0
  6
CONTINUOUS
 62
     1
  5
223
 10
274.518563
 20
169.237205
 30
0.0
 40
3.0
 50
0.0
 51
180.0
  0
ARC
  8
LC-004-002-----0
  6
CONTINUOUS
 62
     1
  5
224
 10
284.518563
 20
107.237205
 30
0.0
 40
3.0
 50
90.0
 51
270.0
  0
ARC
  8
LC-004-002-----0
  6
CONTINUOUS
 62
     1
  5
225
 10
346.518563
 20
117.237205
 30
0.0
 40
3.0
 50
180.0
 51
0.0
  0
LINE
  8
LC-004-002-----0
  6
CONTINUOUS
 62
     1
  5
226
 10
267.518563
 20
188.737205
 30
0.0
 11
353.518563
 21
188.737205
 31
0.0
  0
LINE
  8
LC-004-002-----0
  6
CONTINUOUS
 62
     1
  5
227
 10
356.018563
 20
186.237205
 30
0.0
 11
356.018563
 21
100.237205
 31
0.0
  0
LINE
  8
LC-004-002-----0
  6
CONTINUOUS
 62
     1
  5
228
 10
353.518563
 20
97.737205
 30
0.0
 11
267.518563
 21
97.737205
 31
0.0
  0
LINE
  8
LC-004-002-----0
  6
CONTINUOUS
 62
     1
  5
229
 10
265.018563
 20
100.237205
 30
0.0
 11
265.018563
 21
186.237205
 31
0.0
  0
LINE
  8
LC-008-001-----0
  6
CONTINUOUS
  5
22A
 10
356.618563
 20
99.937205
 30
0.0
 11
356.618563
 21
186.537205
 31
0.0
  0
ARC
  8
LC-004-002-----0
  6
CONTINUOUS
 62
     1
  5
22B
 10
355.018563
 20
98.737205
 30
0.0
 40
5.5
 50
270.0
 51
0.0
  0
ARC
  8
LC-008-001-----0
  6
CONTINUOUS
  5
22C
 10
353.818563
 20
186.537205
 30
0.0
 40
2.8
 50
0.0
 51
90.0
  0
ARC
  8
LC-008-001-----0
  6
CONTINUOUS
  5
22D
 10
355.018563
 20
98.737205
 30
0.0
 40
6.0
 50
270.0
 51
0.0
  0
ARC
  8
LC-010-001-RND-0
  6
CONTINUOUS
  5
22F
 10
353.818563
 20
99.937205
 30
0.0
 40
2.8
 50
270.0
 51
0.0
  0
LINE
  8
LC-004-002-----0
  6
CONTINUOUS
 62
     1
  5
230
 10
266.018563
 20
93.237205
 30
0.0
 11
355.018563
 21
93.237205
 31
0.0
  0
LINE
  8
LC-008-001-----0
  6
CONTINUOUS
  5
231
 10
361.018563
 20
98.737205
 30
0.0
 11
361.018563
 21
187.737205
 31
0.0
  0
ARC
  8
LC-008-001-----0
  6
CONTINUOUS
  5
232
 10
355.018563
 20
187.737205
 30
0.0
 40
6.0
 50
0.0
 51
90.0
  0
LINE
  8
LC-008-001-----0
  6
CONTINUOUS
  5
233
 10
355.018563
 20
193.737205
 30
0.0
 11
266.018563
 21
193.737205
 31
0.0
  0
LINE
  8
LC-004-002-----0
  6
CONTINUOUS
 62
     1
  5
234
 10
360.518563
 20
98.737205
 30
0.0
 11
360.518563
 21
187.737205
 31
0.0
  0
LINE
  8
LC-008-001-----0
  6
CONTINUOUS
  5
235
 10
266.018563
 20
92.737205
 30
0.0
 11
355.018563
 21
92.737205
 31
0.0
  0
ARC
  8
LC-004-002-----0
  6
CONTINUOUS
 62
     1
  5
236
 10
355.018563
 20
187.737205
 30
0.0
 40
5.5
 50
0.0
 51
90.0
  0
ARC
  8
LC-008-001-----0
  6
CONTINUOUS
  5
237
 10
65.968563
 20
169.637205
 30
0.0
 40
1.0
 50
90.0
 51
180.0
  0
LINE
  8
LC-004-002-----0
  6
CONTINUOUS
 62
     1
  5
238
 10
154.768562
 20
169.137179
 30
0.0
 11
157.768562
 21
169.137177
 31
0.0
  0
LINE
  8
LC-008-001-----0
  6
CONTINUOUS
  5
239
 10
267.218563
 20
189.337205
 30
0.0
 11
353.818563
 21
189.337205
 31
0.0
  0
LINE
  8
LC-008-001-----0
  6
CONTINUOUS
  5
23A
 10
267.218563
 20
97.137205
 30
0.0
 11
353.818563
 21
97.137205
 31
0.0
  0
ARC
  8
LC-004-002-----0
  6
CONTINUOUS
 62
     1
  5
23B
 10
266.018563
 20
98.737205
 30
0.0
 40
5.5
 50
180.0
 51
270.0
  0
LINE
  8
LC-008-001-----0
  6
CONTINUOUS
  5
23C
 10
260.018563
 20
187.737205
 30
0.0
 11
260.018563
 21
98.737205
 31
0.0
  0
LINE
  8
LC-004-002-----0
  6
CONTINUOUS
 62
     1
  5
23D
 10
355.018563
 20
193.237205
 30
0.0
 11
266.018563
 21
193.237205
 31
0.0
  0
LINE
  8
LC-008-001-----0
  6
CONTINUOUS
  5
23E
 10
264.418563
 20
99.937205
 30
0.0
 11
264.418563
 21
186.537205
 31
0.0
  0
ARC
  8
LC-008-001-----0
  6
CONTINUOUS
  5
23F
 10
65.968563
 20
169.637205
 30
0.0
 40
1.7
 50
90.0
 51
180.0
  0
LINE
  8
LC-008-001-----0
  6
CONTINUOUS
  5
240
 10
64.268563
 20
169.637205
 30
0.0
 11
64.268563
 21
166.096797
 31
0.0
  0
LINE
  8
LC-008-001-----0
  6
CONTINUOUS
  5
241
 10
64.968563
 20
166.096797
 30
0.0
 11
64.968563
 21
169.637205
 31
0.0
  0
ARC
  8
LC-008-001-----0
  6
CONTINUOUS
  5
242
 10
66.468563
 20
169.637205
 30
0.0
 40
1.0
 50
0.0
 51
90.0
  0
ARC
  8
LC-008-001-----0
  6
CONTINUOUS
  5
243
 10
66.468563
 20
169.637205
 30
0.0
 40
1.0
 50
0.0
 51
90.0
  0
ARC
  8
LC-008-001-----0
  6
CONTINUOUS
  5
244
 10
66.468563
 20
169.637205
 30
0.0
 40
1.7
 50
360.0
 51
90.0
  0
LINE
  8
LC-004-002-----0
  6
CONTINUOUS
 62
     1
  5
245
 10
71.504717
 20
150.568526
 30
0.0
 11
72.118842
 21
150.927895
 31
0.0
  0
ARC
  8
LC-004-002-----0
  6
CONTINUOUS
 62
     1
  5
246
 10
62.768563
 20
166.096797
 30
0.0
 40
2.2
 50
297.035692
 51
360.0
  0
LINE
  8
LC-004-002-----0
  6
CONTINUOUS
 62
     1
  5
247
 10
70.950749
 20
154.137205
 30
0.0
 11
72.118842
 21
150.927895
 31
0.0
  0
LINE
  8
LC-004-002-----0
  6
CONTINUOUS
 62
     1
  5
248
 10
157.768562
 20
169.137177
 30
0.0
 11
158.268562
 21
169.137176
 31
0.0
  0
LINE
  8
LC-004-002-----0
  6
CONTINUOUS
 62
     1
  5
249
 10
135.26856
 20
166.137191
 30
0.0
 11
133.76856
 21
166.137192
 31
0.0
  0
LINE
  8
LC-004-002-----0
  6
CONTINUOUS
 62
     1
  5
24A
 10
133.76856
 20
166.137192
 30
0.0
 11
133.768562
 21
169.137192
 31
0.0
  0
LINE
  8
LC-004-002-----0
  6
CONTINUOUS
 62
     1
  5
24B
 10
133.768562
 20
169.137192
 30
0.0
 11
130.768562
 21
169.137194
 31
0.0
  0
LINE
  8
LC-004-002-----0
  6
CONTINUOUS
 62
     1
  5
24C
 10
130.768562
 20
169.137194
 30
0.0
 11
130.76856
 21
166.137194
 31
0.0
  0
LINE
  8
LC-004-002-----0
  6
CONTINUOUS
 62
     1
  5
24D
 10
130.76856
 20
166.137194
 30
0.0
 11
129.26856
 21
166.137195
 31
0.0
  0
ARC
  8
LC-004-002-----0
  6
CONTINUOUS
 62
     1
  5
24E
 10
266.018563
 20
187.737205
 30
0.0
 40
5.5
 50
90.0
 51
180.0
  0
ARC
  8
LC-008-001-----0
  6
CONTINUOUS
  5
24F
 10
266.018563
 20
187.737205
 30
0.0
 40
6.0
 50
90.0
 51
180.0
  0
ARC
  8
LC-010-001-RND-0
  6
CONTINUOUS
  5
250
 10
267.218563
 20
186.537205
 30
0.0
 40
2.8
 50
90.0
 51
180.0
  0
LINE
  8
LC-004-002-----0
  6
CONTINUOUS
 62
     1
  5
251
 10
123.26856
 20
166.137199
 30
0.0
 11
121.76856
 21
166.1372
 31
0.0
  0
LINE
  8
LC-004-002-----0
  6
CONTINUOUS
 62
     1
  5
252
 10
121.76856
 20
166.1372
 30
0.0
 11
121.768562
 21
169.1372
 31
0.0
  0
ARC
  8
LC-008-001-----0
  6
CONTINUOUS
  5
253
 10
266.018563
 20
98.737205
 30
0.0
 40
6.0
 50
180.0
 51
270.0
  0
LINE
  8
LC-004-002-----0
  6
CONTINUOUS
 62
     1
  5
254
 10
260.518563
 20
187.737205
 30
0.0
 11
260.518563
 21
98.737205
 31
0.0
  0
ARC
  8
LC-008-001-----0
  6
CONTINUOUS
  5
255
 10
267.218563
 20
99.937205
 30
0.0
 40
2.8
 50
180.0
 51
270.0
  0
LINE
  8
LC-004-002-----0
  6
CONTINUOUS
 62
     1
  5
256
 10
121.768562
 20
169.1372
 30
0.0
 11
114.083103
 21
169.137205
 31
0.0
  0
LINE
  8
LC-004-002-----0
  6
CONTINUOUS
 62
     1
  5
257
 10
153.26856
 20
166.13718
 30
0.0
 11
147.26856
 21
166.137184
 31
0.0
  0
LINE
  8
LC-004-002-----0
  6
CONTINUOUS
 62
     1
  5
258
 10
141.26856
 20
166.137188
 30
0.0
 11
135.26856
 21
166.137191
 31
0.0
  0
LINE
  8
LC-004-002-----0
  6
CONTINUOUS
 62
     1
  5
259
 10
129.26856
 20
166.137195
 30
0.0
 11
123.26856
 21
166.137199
 31
0.0
  0
LINE
  8
LC-004-002-----0
  6
CONTINUOUS
 62
     1
  5
25A
 10
145.76856
 20
166.137185
 30
0.0
 11
142.76856
 21
166.137187
 31
0.0
  0
LINE
  8
LC-004-002-----0
  6
CONTINUOUS
 62
     1
  5
25B
 10
133.76856
 20
166.137192
 30
0.0
 11
130.76856
 21
166.137194
 31
0.0
  0
LINE
  8
LC-004-002-----0
  6
CONTINUOUS
 62
     1
  5
25C
 10
121.76856
 20
166.1372
 30
0.0
 11
114.26856
 21
166.137205
 31
0.0
  0
LINE
  8
LC-004-002-----0
  6
CONTINUOUS
 62
     1
  5
25D
 10
159.76856
 20
166.189313
 30
0.0
 11
159.768562
 21
168.637175
 31
0.0
  0
ARC
  8
LC-004-002-----0
  6
CONTINUOUS
 62
     1
  5
25E
 10
157.768562
 20
168.637177
 30
0.0
 40
2.0
 50
359.999963
 51
89.999888
  0
LINE
  8
LC-004-002-----0
  6
CONTINUOUS
 62
     1
  5
25F
 10
157.768563
 20
170.637177
 30
0.0
 11
154.768563
 21
170.637179
 31
0.0
  0
LINE
  8
LC-004-002-----0
  6
CONTINUOUS
 62
     1
  5
260
 10
114.268563
 20
154.137205
 30
0.0
 11
70.950749
 21
154.137205
 31
0.0
  0
LINE
  8
LC-004-002-----0
  6
CONTINUOUS
 62
     1
  5
261
 10
63.768563
 20
164.978763
 30
0.0
 11
63.768563
 21
164.137205
 31
0.0
  0
LINE
  8
LC-004-002-----0
  6
CONTINUOUS
 62
     1
  5
262
 10
71.504717
 20
150.568526
 30
0.0
 11
114.268563
 21
150.568526
 31
0.0
  0
LINE
  8
LC-004-002-----0
  6
CONTINUOUS
 62
     1
  5
263
 10
70.341809
 20
153.763589
 30
0.0
 11
71.504717
 21
150.568526
 31
0.0
  0
LINE
  8
LC-004-002-----0
  6
CONTINUOUS
 62
     1
  5
264
 10
72.118842
 20
150.927895
 30
0.0
 11
114.268563
 21
150.927895
 31
0.0
  0
ARC
  8
LC-004-002-----0
  6
CONTINUOUS
 62
     1
  5
265
 10
71.093563
 20
154.037205
 30
0.0
 40
0.8
 50
91.790785
 51
200.0
  0
ARC
  8
LC-004-002-----0
  6
CONTINUOUS
 62
     1
  5
266
 10
62.768563
 20
166.096797
 30
0.0
 40
1.5
 50
311.810315
 51
360.0
  0
LINE
  8
LC-004-002-----0
  6
CONTINUOUS
 62
     1
  5
267
 10
160.018563
 20
117.837205
 30
0.0
 11
159.482665
 21
115.837205
 31
0.0
  0
ARC
  8
LC-004-002-----0
  6
CONTINUOUS
 62
     1
  5
268
 10
154.768562
 20
169.137179
 30
0.0
 40
1.5
 50
89.999963
 51
179.999944
  0
LINE
  8
LC-004-002-----0
  6
CONTINUOUS
 62
     1
  5
269
 10
153.268562
 20
169.13718
 30
0.0
 11
153.26856
 21
166.13718
 31
0.0
  0
LINE
  8
LC-004-002-----0
  6
CONTINUOUS
 62
     1
  5
26A
 10
154.768563
 20
170.637179
 30
0.0
 11
145.768563
 21
170.637185
 31
0.0
  0
LINE
  8
LC-004-002-----0
  6
CONTINUOUS
 62
     1
  5
26B
 10
147.268562
 20
169.137184
 30
0.0
 11
147.26856
 21
166.137184
 31
0.0
  0
ARC
  8
LC-004-002-----0
  6
CONTINUOUS
 62
     1
  5
26C
 10
145.768562
 20
169.137185
 30
0.0
 40
1.5
 50
359.999963
 51
89.999888
  0
LINE
  8
LC-004-002-----0
  6
CONTINUOUS
 62
     1
  5
26D
 10
141.26856
 20
166.137188
 30
0.0
 11
141.268562
 21
169.137188
 31
0.0
  0
ARC
  8
LC-004-002-----0
  6
CONTINUOUS
 62
     1
  5
26E
 10
142.768562
 20
169.137187
 30
0.0
 40
1.5
 50
89.999963
 51
179.999963
  0
LINE
  8
LC-004-002-----0
  6
CONTINUOUS
 62
     1
  5
26F
 10
145.768563
 20
170.637185
 30
0.0
 11
142.768563
 21
170.637187
 31
0.0
  0
LINE
  8
LC-004-002-----0
  6
CONTINUOUS
 62
     1
  5
270
 10
142.768563
 20
170.637187
 30
0.0
 11
133.768563
 21
170.637192
 31
0.0
  0
LINE
  8
LC-004-002-----0
  6
CONTINUOUS
 62
     1
  5
271
 10
135.268562
 20
169.137191
 30
0.0
 11
135.26856
 21
166.137191
 31
0.0
  0
ARC
  8
LC-004-002-----0
  6
CONTINUOUS
 62
     1
  5
272
 10
133.768562
 20
169.137192
 30
0.0
 40
1.5
 50
359.999963
 51
89.999888
  0
LINE
  8
LC-004-002-----0
  6
CONTINUOUS
 62
     1
  5
273
 10
130.768563
 20
170.637194
 30
0.0
 11
121.768563
 21
170.6372
 31
0.0
  0
LINE
  8
LC-004-002-----0
  6
CONTINUOUS
 62
     1
  5
274
 10
123.268562
 20
169.137199
 30
0.0
 11
123.26856
 21
166.137199
 31
0.0
  0
ARC
  8
LC-004-002-----0
  6
CONTINUOUS
 62
     1
  5
275
 10
121.768562
 20
169.1372
 30
0.0
 40
1.5
 50
359.999963
 51
89.999888
  0
LINE
  8
LC-004-002-----0
  6
CONTINUOUS
 62
     1
  5
276
 10
121.768563
 20
170.6372
 30
0.0
 11
114.268563
 21
170.637205
 31
0.0
  0
LINE
  8
LC-004-002-----0
  6
CONTINUOUS
 62
     1
  5
277
 10
133.768563
 20
170.637192
 30
0.0
 11
130.768563
 21
170.637194
 31
0.0
  0
ARC
  8
LC-004-002-----0
  6
CONTINUOUS
 62
     1
  5
278
 10
130.768562
 20
169.137194
 30
0.0
 40
1.5
 50
89.999963
 51
179.999944
  0
LINE
  8
LC-004-002-----0
  6
CONTINUOUS
 62
     1
  5
279
 10
129.26856
 20
166.137195
 30
0.0
 11
129.268562
 21
169.137195
 31
0.0
  0
LINE
  8
LC-004-002-----0
  6
CONTINUOUS
 62
     1
  5
27A
 10
70.472608
 20
159.837205
 30
0.0
 11
68.518563
 21
159.837205
 31
0.0
  0
LINE
  8
LC-007-005-----0
  6
CONTINUOUS
  5
27B
 10
154.637653
 20
170.631455
 30
0.0
 11
156.131933
 21
169.137178
 31
0.0
  0
LINE
  8
LC-007-005-----0
  6
CONTINUOUS
  5
27C
 10
158.268561
 20
167.000553
 30
0.0
 11
159.131939
 21
166.137176
 31
0.0
  0
LINE
  8
LC-007-005-----0
  6
CONTINUOUS
  5
27D
 10
156.046145
 20
170.637178
 30
0.0
 11
157.546148
 21
169.137177
 31
0.0
  0
LINE
  8
LC-007-005-----0
  6
CONTINUOUS
  5
27E
 10
158.268562
 20
168.414764
 30
0.0
 11
159.768561
 21
166.914767
 31
0.0
  0
LINE
  8
LC-004-002-----0
  6
DASHDOT
  5
280
 10
114.268563
 20
170.637205
 30
0.0
 11
114.268563
 21
150.568526
 31
0.0
  0
LINE
  8
LC-007-005-----0
  6
CONTINUOUS
  5
281
 10
157.460361
 20
170.637177
 30
0.0
 11
159.768562
 21
168.328979
 31
0.0
  0
LINE
  8
LC-004-002-----0
  6
CONTINUOUS
 62
     1
  5
282
 10
71.268563
 20
146.837205
 30
0.0
 11
71.268563
 21
115.837205
 31
0.0
  0
LINE
  8
LC-004-002-----0
  6
CONTINUOUS
 62
     1
  5
283
 10
70.268563
 20
147.837205
 30
0.0
 11
71.268563
 21
146.837205
 31
0.0
  0
LINE
  8
LC-004-002-----0
  6
CONTINUOUS
 62
     1
  5
284
 10
69.054462
 20
115.837205
 30
0.0
 11
159.482665
 21
115.837205
 31
0.0
  0
LINE
  8
LC-004-002-----0
  6
CONTINUOUS
 62
     1
  5
285
 10
157.268563
 20
159.837205
 30
0.0
 11
157.268563
 21
159.837205
 31
0.0
  0
LINE
  8
LC-004-002-----0
  6
CONTINUOUS
 62
     1
  5
286
 10
69.84036
 20
115.837205
 30
0.0
 11
70.268563
 21
115.837205
 31
0.0
  0
LINE
  8
LC-004-002-----0
  6
CONTINUOUS
 62
     1
  5
287
 10
157.518563
 20
155.087205
 30
0.0
 11
157.518563
 21
158.337205
 31
0.0
  0
LINE
  8
LC-004-002-----0
  6
DASHDOT
  5
288
 10
114.268563
 20
115.837205
 30
0.0
 11
114.268563
 21
150.568526
 31
0.0
  0
LINE
  8
LC-004-002-----0
  6
CONTINUOUS
 62
     1
  5
289
 10
71.268563
 20
159.837205
 30
0.0
 11
71.268563
 21
159.837205
 31
0.0
  0
LINE
  8
LC-004-002-----0
  6
CONTINUOUS
 62
     1
  5
28A
 10
157.518563
 20
155.087205
 30
0.0
 11
158.268563
 21
154.337205
 31
0.0
  0
LINE
  8
LC-004-002-----0
  6
CONTINUOUS
 62
     1
  5
28B
 10
158.268563
 20
154.337205
 30
0.0
 11
158.268563
 21
147.837205
 31
0.0
  0
LINE
  8
LC-004-002-----0
  6
CONTINUOUS
 62
     1
  5
28C
 10
71.018563
 20
155.087205
 30
0.0
 11
71.018563
 21
158.337205
 31
0.0
  0
LINE
  8
LC-004-002-----0
  6
CONTINUOUS
 62
     1
  5
28D
 10
71.018563
 20
155.087205
 30
0.0
 11
70.268563
 21
154.337205
 31
0.0
  0
LINE
  8
LC-004-002-----0
  6
CONTINUOUS
 62
     1
  5
28E
 10
160.018563
 20
159.837205
 30
0.0
 11
160.018563
 21
117.837205
 31
0.0
  0
LINE
  8
LC-004-002-----0
  6
CONTINUOUS
 62
     1
  5
28F
 10
68.518563
 20
117.837205
 30
0.0
 11
69.054462
 21
115.837205
 31
0.0
  0
LINE
  8
LC-004-002-----0
  6
CONTINUOUS
 62
     1
  5
290
 10
70.268563
 20
154.337205
 30
0.0
 11
70.268563
 21
147.837205
 31
0.0
  0
LINE
  8
LC-004-002-----0
  6
CONTINUOUS
 62
     1
  5
291
 10
71.018563
 20
158.337205
 30
0.0
 11
70.472608
 21
159.837205
 31
0.0
  0
LINE
  8
LC-004-002-----0
  6
CONTINUOUS
 62
     1
  5
292
 10
114.268563
 20
165.637205
 30
0.0
 11
158.268563
 21
165.637205
 31
0.0
  0
LINE
  8
LC-004-002-----0
  6
CONTINUOUS
 62
     1
  5
293
 10
70.268563
 20
150.086814
 30
0.0
 11
70.268563
 21
150.086814
 31
0.0
  0
LINE
  8
LC-004-002-----0
  6
CONTINUOUS
 62
     1
  5
294
 10
157.268563
 20
146.837205
 30
0.0
 11
114.268563
 21
146.837205
 31
0.0
  0
LINE
  8
LC-004-002-----0
  6
CONTINUOUS
 62
     1
  5
295
 10
157.518563
 20
158.337205
 30
0.0
 11
158.064519
 21
159.837205
 31
0.0
  0
LINE
  8
LC-004-002-----0
  6
CONTINUOUS
 62
     1
  5
296
 10
158.268563
 20
150.086814
 30
0.0
 11
158.268563
 21
150.086814
 31
0.0
  0
LINE
  8
LC-004-002-----0
  6
CONTINUOUS
 62
     1
  5
297
 10
157.268563
 20
146.837205
 30
0.0
 11
157.268563
 21
115.837205
 31
0.0
  0
LINE
  8
LC-004-002-----0
  6
CONTINUOUS
 62
     1
  5
298
 10
158.268563
 20
147.837205
 30
0.0
 11
157.268563
 21
146.837205
 31
0.0
  0
LINE
  8
LC-004-002-----0
  6
CONTINUOUS
 62
     1
  5
299
 10
70.268563
 20
147.837205
 30
0.0
 11
158.268563
 21
147.837205
 31
0.0
  0
LINE
  8
LC-004-002-----0
  6
CONTINUOUS
 62
     1
  5
29A
 10
71.268563
 20
146.837205
 30
0.0
 11
114.268563
 21
146.837205
 31
0.0
  0
LINE
  8
LC-004-002-----0
  6
CONTINUOUS
 62
     1
  5
29B
 10
158.064519
 20
159.837205
 30
0.0
 11
160.018563
 21
159.837205
 31
0.0
  0
LINE
  8
LC-004-002-----0
  6
CONTINUOUS
 62
     1
  5
29C
 10
114.268563
 20
165.637205
 30
0.0
 11
70.268563
 21
165.637205
 31
0.0
  0
LINE
  8
LC-004-002-----0
  6
CONTINUOUS
  5
29D
 10
76.985984
 20
223.660672
 30
0.0
 11
91.985984
 21
223.660672
 31
0.0
  0
ENDSEC
  0
EOF
