  0
SECTION
  2
HEADER
  9
$ACADVER
  1
AC1009
  9
$INSBASE
 10
0.0
 20
0.0
 30
0.0
  9
$EXTMIN
 10
0.0
 20
0.0
 30
0.0
  9
$EXTMAX
 10
840.0
 20
594.0
 30
0.0
  9
$LIMMIN
 10
0.0
 20
0.0
  9
$LIMMAX
 10
840.0
 20
594.0
  9
$ORTHOMODE
 70
     0
  9
$REGENMODE
 70
     1
  9
$FILLMODE
 70
     1
  9
$QTEXTMODE
 70
     0
  9
$MIRRTEXT
 70
     1
  9
$DRAGMODE
 70
     2
  9
$LTSCALE
 40
2.0
  9
$OSMODE
 70
     0
  9
$ATTMODE
 70
     1
  9
$TEXTSIZE
 40
0.2
  9
$TRACEWID
 40
0.05
  9
$TEXTSTYLE
  7
STANDARD
  9
$CLAYER
  8
0
  9
$CELTYPE
  6
BYLAYER
  9
$CECOLOR
 62
     7
  9
$DIMSCALE
 40
2.0
  9
$DIMASZ
 40
3.5
  9
$DIMEXO
 40
0.0625
  9
$DIMDLI
 40
0.38
  9
$DIMRND
 40
0.0
  9
$DIMDLE
 40
0.0
  9
$DIMEXE
 40
0.18
  9
$DIMTP
 40
0.0
  9
$DIMTM
 40
0.0
  9
$DIMTXT
 40
3.5
  9
$DIMCEN
 40
0.09
  9
$DIMTSZ
 40
0.0
  9
$DIMTOL
 70
     0
  9
$DIMLIM
 70
     0
  9
$DIMTIH
 70
     1
  9
$DIMTOH
 70
     1
  9
$DIMSE1
 70
     0
  9
$DIMSE2
 70
     0
  9
$DIMTAD
 70
     1
  9
$DIMZIN
 70
     0
  9
$DIMBLK
  1

  9
$DIMASO
 70
     1
  9
$DIMSHO
 70
     1
  9
$DIMPOST
  1

  9
$DIMAPOST
  1

  9
$DIMALT
 70
     0
  9
$DIMALTD
 70
     2
  9
$DIMALTF
 40
25.4
  9
$DIMLFAC
 40
1.0
  9
$DIMTOFL
 70
     0
  9
$DIMTVP
 40
0.0
  9
$DIMTIX
 70
     0
  9
$DIMSOXD
 70
     0
  9
$DIMSAH
 70
     0
  9
$DIMBLK1
  1

  9
$DIMBLK2
  1

  9
$DIMSTYLE
  2
STANDARD
  9
$DIMCLRD
 70
     0
  9
$DIMCLRE
 70
     0
  9
$DIMCLRT
 70
     0
  9
$DIMTFAC
 40
1.0
  9
$DIMGAP
 40
0.09
  9
$LUNITS
 70
     2
  9
$LUPREC
 70
     2
  9
$AXISMODE
 70
     0
  9
$AXISUNIT
 10
0.0
 20
0.0
  9
$SKETCHINC
 40
0.1
  9
$FILLETRAD
 40
0.0
  9
$AUNITS
 70
     0
  9
$AUPREC
 70
     0
  9
$MENU
  1
acad
  9
$ELEVATION
 40
0.0
  9
$PELEVATION
 40
0.0
  9
$THICKNESS
 40
0.0
  9
$LIMCHECK
 70
     0
  9
$BLIPMODE
 70
     1
  9
$CHAMFERA
 40
0.0
  9
$CHAMFERB
 40
0.0
  9
$SKPOLY
 70
     0
  9
$TDCREATE
 40
0.000000000
  9
$TDUPDATE
 40
0.000000000
  9
$TDINDWG
 40
0.0000000000
  9
$TDUSRTIMER
 40
0.0000000000
  9
$USRTIMER
 70
     1
  9
$ANGBASE
 50
0.0
  9
$ANGDIR
 70
     0
  9
$PDMODE
 70
     0
  9
$PDSIZE
 40
0.0
  9
$PLINEWID
 40
0.0
  9
$COORDS
 70
     0
  9
$SPLFRAME
 70
     0
  9
$SPLINETYPE
 70
     6
  9
$SPLINESEGS
 70
     8
  9
$ATTDIA
 70
     0
  9
$ATTREQ
 70
     1
  9
$HANDLING
 70
     1
  9
$HANDSEED
  5
35F
  9
$SURFTAB1
 70
     6
  9
$SURFTAB2
 70
     6
  9
$SURFTYPE
 70
     6
  9
$SURFU
 70
     6
  9
$SURFV
 70
     6
  9
$UCSNAME
  2

  9
$UCSORG
 10
0.0
 20
0.0
 30
0.0
  9
$UCSXDIR
 10
1.0
 20
0.0
 30
0.0
  9
$UCSYDIR
 10
0.0
 20
1.0
 30
0.0
  9
$PUCSNAME
  2

  9
$PUCSORG
 10
0.0
 20
0.0
 30
0.0
  9
$PUCSXDIR
 10
1.0
 20
0.0
 30
0.0
  9
$PUCSYDIR
 10
0.0
 20
1.0
 30
0.0
  9
$USERI1
 70
     0
  9
$USERI2
 70
     0
  9
$USERI3
 70
     0
  9
$USERI4
 70
     0
  9
$USERI5
 70
     0
  9
$USERR1
 40
0.0
  9
$USERR2
 40
0.0
  9
$USERR3
 40
0.0
  9
$USERR4
 40
0.0
  9
$USERR5
 40
0.0
  9
$WORLDVIEW
 70
     1
  9
$SHADEDGE
 70
     3
  9
$SHADEDIF
 70
    70
  9
$TILEMODE
 70
     1
  9
$MAXACTVP
 70
    16
  9
$PINSBASE
 10
0.0
 20
0.0
 30
0.0
  9
$PLIMCHECK
 70
     0
  9
$PEXTMIN
 10
1.000000E+20
 20
1.000000E+20
 30
1.000000E+20
  9
$PEXTMAX
 10
-1.000000E+20
 20
-1.000000E+20
 30
-1.000000E+20
  9
$PLIMMIN
 10
0.0
 20
0.0
  9
$PLIMMAX
 10
840.0
 20
594.0
  9
$UNITMODE
 70
     0
  9
$VISRETAIN
 70
     0
  9
$PLINEGEN
 70
     1
  9
$PSLTSCALE
 70
     0
  9
$TREEDEPTH
 70
  3020
  9
$DWGCODEPAGE
  3
dos850
  0
ENDSEC
  0
SECTION
  2
TABLES
  0
TABLE
  2
VPORT
 70
     1
  0
VPORT
  2
*ACTIVE
 70
     0
 10
0.0
 20
0.0
 11
1.0
 21
1.0
 12
420.0
 22
297.0
 13
0.0
 23
0.0
 14
1.0
 24
1.0
 15
0.0
 25
0.0
 16
0.0
 26
0.0
 36
1.0
 17
0.0
 27
0.0
 37
0.0
 40
594.0
 41
1.604229
 42
50.0
 43
0.0
 44
0.0
 50
0.0
 51
0.0
 71
     0
 72
   100
 73
     1
 74
     1
 75
     0
 76
     0
 77
     0
 78
     0
  0
ENDTAB
  0
TABLE
  2
LTYPE
 70
     4
  0
LTYPE
  2
CONTINUOUS
 70
    64
  3
Solid line
 72
    65
 73
     0
 40
0.0
  0
LTYPE
  2
DASHED
 70
    64
  3
__ __ __ __ __
 72
    65
 73
     2
 40
6.25
 49
5.0
 49
-1.25
  0
LTYPE
  2
DASHDOT
 70
    64
  3
__ . __ . __ . __ . __
 72
    65
 73
     4
 40
7.5
 49
5.0
 49
-1.25
 49
0.0
 49
-1.25
  0
LTYPE
  2
CENTER
 70
    64
  3
__ . __ . __ . __ . __
 72
    65
 73
     4
 40
7.5
 49
5.0
 49
-1.25
 49
0.0
 49
-1.25
  0
ENDTAB
  0
TABLE
  2
LAYER
 70
    16
  0
LAYER
  2
0
 70
     0
 62
     7
  6
CONTINUOUS
  0
LAYER
  2
LC-INFO-1-2-MM-A3-0
 70
     1
 62
    -1
  6
CONTINUOUS
  0
LAYER
  2
LC-002-003-MTH-0
 70
     0
 62
     2
  6
CONTINUOUS
  0
LAYER
  2
LC-003-003-MTG-0
 70
     0
 62
     2
  6
CONTINUOUS
  0
LAYER
  2
LC-001-003-----0
 70
     0
 62
     2
  6
CONTINUOUS
  0
LAYER
  2
LC-007-005-----0
 70
     0
 62
     2
  6
CONTINUOUS
  0
LAYER
  2
LC-009-000-----0
 70
     0
 62
     7
  6
CONTINUOUS
  0
LAYER
  2
LC-004-002-----0
 70
     0
 62
     2
  6
DASHDOT
  0
LAYER
  2
LC-005-002-RND-0
 70
     0
 62
     1
  6
CONTINUOUS
  0
LAYER
  2
LC-006-100-D08-0
 70
     0
 62
     1
  6
CONTINUOUS
  0
LAYER
  2
LC-008-100-D03-0
 70
     0
 62
     1
  6
CONTINUOUS
  0
LAYER
  2
LC-010-100-D02-0
 70
     0
 62
     2
  6
DASHDOT
  0
LAYER
  2
LC-011-006-MLN-0
 70
     0
 62
     2
  6
CENTER
  0
LAYER
  2
LC-012-001-----0
 70
     0
 62
     7
  6
CONTINUOUS
  0
LAYER
  2
LC-013-100-D01-0
 70
     0
 62
     1
  6
DASHED
  0
LAYER
  2
LC-000
 70
     0
 62
     7
  6
CONTINUOUS
  0
ENDTAB
  0
TABLE
  2
STYLE
 70
     4
  0
STYLE
  2
STANDARD
 70
     0
 40
0.0
 41
1.0
 50
0.0
 71
     0
 42
0.0
  3
txt
  4

  0
STYLE
  2
LC-STANDARD
 70
    64
 40
0.0
 41
1.0
 50
0.0
 71
     0
 42
3.5
  3
MONOTXT
  4

  0
STYLE
  2
LC-TXTSTYLE-150-400-0-0-D2
 70
    64
 40
0.0
 41
1.0
 50
15.0
 71
     0
 42
3.5
  3
MONOTXT
  4

  0
STYLE
  2
LC-TXTSTYLE-150-400-0-0-D3
 70
    64
 40
0.0
 41
1.0
 50
15.0
 71
     0
 42
3.5
  3
LC-STANDARD
  4

  0
ENDTAB
  0
TABLE
  2
VIEW
 70
     0
  0
ENDTAB
  0
TABLE
  2
UCS
 70
     0
  0
ENDTAB
  0
TABLE
  2
APPID
 70
     1
  0
APPID
  2
ACAD
 70
     0
  0
ENDTAB
  0
TABLE
  2
DIMSTYLE
 70
     3
  0
DIMSTYLE
  2
STANDARD
 70
     0
  3

  4

  5

  6

  7

 40
1.0
 41
0.18
 42
0.0625
 43
0.38
 44
0.18
 45
0.0
 46
0.0
 47
0.0
 48
0.0
 71
     0
 72
     0
 73
     1
 74
     1
 75
     0
 76
     0
 77
     0
 78
     0
140
0.18
141
0.09
142
0.0
143
25.4
144
1.0
145
0.0
146
1.0
147
0.09
170
     0
171
     2
172
     0
173
     0
174
     0
175
     0
176
     0
177
     0
178
     0
  0
DIMSTYLE
  2
LC-STANDARD
 70
     0
  3

  4

  5

  6

  7

 40
1.0
 41
3.5
 42
0.0
 43
7.5
 44
1.8
 45
0.0
 46
0.0
 47
0.0
 48
0.0
 71
     0
 72
     0
 73
     0
 74
     0
 75
     0
 76
     0
 77
     1
 78
     8
140
3.5
141
0.0
142
0.0
143
25.4
144
1.0
145
0.0
146
0.71
147
1.5
170
     0
171
     2
172
     1
173
     0
174
     0
175
     0
176
     0
177
     0
178
     3
  0
DIMSTYLE
  2
LC-DIM-L-0090-02-02
 70
     0
  3

  4

  5

  6

  7

 40
2.0
 41
3.5
 42
0.0
 43
7.5
 44
1.8
 45
0.0
 46
0.0
 47
0.0
 48
0.0
 71
     0
 72
     0
 73
     0
 74
     0
 75
     0
 76
     0
 77
     1
 78
     8
140
9.0
141
0.0
142
0.0
143
25.4
144
1.0
145
0.0
146
0.71
147
1.5
170
     0
171
     2
172
     0
173
     0
174
     0
175
     0
176
     2
177
     2
178
     6
  0
ENDTAB
  0
ENDSEC
  0
SECTION
  2
BLOCKS
  0
BLOCK
  8
0
  5
23
  2
*D0
 70
    65
 10
0.0
 20
0.0
 30
0.0
  3
*D0
  0
LINE
  8
LC-002-003-MTH-0
  6
CONTINUOUS
  5
25
 10
299.479616
 20
160.939562
 30
0.0
 11
444.8
 21
160.939562
 31
0.0
  0
LINE
  8
LC-002-003-MTH-0
  6
CONTINUOUS
  5
26
 10
335.417439
 20
465.939562
 30
0.0
 11
444.8
 21
465.939562
 31
0.0
  0
LINE
  8
LC-003-003-MTG-0
  6
CONTINUOUS
  5
28
 10
434.0
 20
160.939562
 30
0.0
 11
434.0
 21
465.939562
 31
0.0
  0
LINE
  8
LC-001-003-----0
  6
CONTINUOUS
  5
2A
 10
431.650529
 20
178.78557
 30
0.0
 11
434.0
 21
160.939562
 31
0.0
  0
LINE
  8
LC-001-003-----0
  6
CONTINUOUS
  5
2B
 10
434.0
 20
160.939562
 30
0.0
 11
436.349471
 21
178.78557
 31
0.0
  0
LINE
  8
LC-001-003-----0
  6
CONTINUOUS
  5
2C
 10
436.349471
 20
178.78557
 30
0.0
 11
431.650529
 21
178.78557
 31
0.0
  0
LINE
  8
LC-001-003-----0
  6
CONTINUOUS
  5
2D
 10
432.261391
 20
178.825608
 30
0.0
 11
434.0
 21
165.619562
 31
0.0
  0
LINE
  8
LC-001-003-----0
  6
CONTINUOUS
  5
2E
 10
434.0
 20
165.619562
 30
0.0
 11
435.738609
 21
178.825608
 31
0.0
  0
LINE
  8
LC-001-003-----0
  6
CONTINUOUS
  5
2F
 10
432.872254
 20
178.865646
 30
0.0
 11
434.0
 21
170.299562
 31
0.0
  0
LINE
  8
LC-001-003-----0
  6
CONTINUOUS
  5
30
 10
434.0
 20
170.299562
 30
0.0
 11
435.127746
 21
178.865646
 31
0.0
  0
LINE
  8
LC-001-003-----0
  6
CONTINUOUS
  5
31
 10
433.483116
 20
178.905684
 30
0.0
 11
434.0
 21
174.979562
 31
0.0
  0
LINE
  8
LC-001-003-----0
  6
CONTINUOUS
  5
32
 10
434.0
 20
174.979562
 30
0.0
 11
434.516884
 21
178.905684
 31
0.0
  0
LINE
  8
LC-001-003-----0
  6
CONTINUOUS
  5
33
 10
436.349471
 20
448.093555
 30
0.0
 11
434.0
 21
465.939562
 31
0.0
  0
LINE
  8
LC-001-003-----0
  6
CONTINUOUS
  5
34
 10
434.0
 20
465.939562
 30
0.0
 11
431.650529
 21
448.093555
 31
0.0
  0
LINE
  8
LC-001-003-----0
  6
CONTINUOUS
  5
35
 10
431.650529
 20
448.093555
 30
0.0
 11
436.349471
 21
448.093555
 31
0.0
  0
LINE
  8
LC-001-003-----0
  6
CONTINUOUS
  5
36
 10
435.738609
 20
448.053517
 30
0.0
 11
434.0
 21
461.259562
 31
0.0
  0
LINE
  8
LC-001-003-----0
  6
CONTINUOUS
  5
37
 10
434.0
 20
461.259562
 30
0.0
 11
432.261391
 21
448.053517
 31
0.0
  0
LINE
  8
LC-001-003-----0
  6
CONTINUOUS
  5
38
 10
435.127746
 20
448.013479
 30
0.0
 11
434.0
 21
456.579562
 31
0.0
  0
LINE
  8
LC-001-003-----0
  6
CONTINUOUS
  5
39
 10
434.0
 20
456.579562
 30
0.0
 11
432.872254
 21
448.013479
 31
0.0
  0
LINE
  8
LC-001-003-----0
  6
CONTINUOUS
  5
3A
 10
434.516884
 20
447.973441
 30
0.0
 11
434.0
 21
451.899562
 31
0.0
  0
LINE
  8
LC-001-003-----0
  6
CONTINUOUS
  5
3B
 10
434.0
 20
451.899562
 30
0.0
 11
433.483116
 21
447.973441
 31
0.0
  0
TEXT
  8
LC-001-003-----0
  6
CONTINUOUS
 62
     6
  5
3D
 10
423.568001
 20
297.10095
 30
0.0
 40
18.0
  1
305
 50
90.0
 41
0.9
 51
15.0
  7
LC-TXTSTYLE-150-400-0-0-D0
 72
     1
 11
423.568001
 21
316.234808
 31
0.0
  0
ENDBLK
  8
0
  5
3E
  0
BLOCK
  8
0
  5
40
  2
*D1
 70
    65
 10
0.0
 20
0.0
 30
0.0
  3
*D1
  0
LINE
  8
LC-002-003-MTH-0
  6
CONTINUOUS
  5
41
 10
280.417439
 20
160.939562
 30
0.0
 11
280.417439
 21
115.2
 31
0.0
  0
LINE
  8
LC-002-003-MTH-0
  6
CONTINUOUS
  5
42
 10
335.417439
 20
292.694
 30
0.0
 11
335.417439
 21
115.2
 31
0.0
  0
LINE
  8
LC-003-003-MTG-0
  6
CONTINUOUS
  5
43
 10
280.417439
 20
126.0
 30
0.0
 11
335.417439
 21
126.0
 31
0.0
  0
LINE
  8
LC-001-003-----0
  6
CONTINUOUS
  5
44
 10
298.263446
 20
128.349471
 30
0.0
 11
280.417439
 21
126.0
 31
0.0
  0
LINE
  8
LC-001-003-----0
  6
CONTINUOUS
  5
45
 10
280.417439
 20
126.0
 30
0.0
 11
298.263446
 21
123.650529
 31
0.0
  0
LINE
  8
LC-001-003-----0
  6
CONTINUOUS
  5
46
 10
298.263446
 20
123.650529
 30
0.0
 11
298.263446
 21
128.349471
 31
0.0
  0
LINE
  8
LC-001-003-----0
  6
CONTINUOUS
  5
47
 10
298.303484
 20
127.738609
 30
0.0
 11
285.097439
 21
126.0
 31
0.0
  0
LINE
  8
LC-001-003-----0
  6
CONTINUOUS
  5
48
 10
285.097439
 20
126.0
 30
0.0
 11
298.303484
 21
124.261391
 31
0.0
  0
LINE
  8
LC-001-003-----0
  6
CONTINUOUS
  5
49
 10
298.343522
 20
127.127746
 30
0.0
 11
289.777439
 21
126.0
 31
0.0
  0
LINE
  8
LC-001-003-----0
  6
CONTINUOUS
  5
4A
 10
289.777439
 20
126.0
 30
0.0
 11
298.343522
 21
124.872254
 31
0.0
  0
LINE
  8
LC-001-003-----0
  6
CONTINUOUS
  5
4B
 10
298.38356
 20
126.516884
 30
0.0
 11
294.457439
 21
126.0
 31
0.0
  0
LINE
  8
LC-001-003-----0
  6
CONTINUOUS
  5
4C
 10
294.457439
 20
126.0
 30
0.0
 11
298.38356
 21
125.483116
 31
0.0
  0
LINE
  8
LC-001-003-----0
  6
CONTINUOUS
  5
4D
 10
317.571431
 20
123.650529
 30
0.0
 11
335.417439
 21
126.0
 31
0.0
  0
LINE
  8
LC-001-003-----0
  6
CONTINUOUS
  5
4E
 10
335.417439
 20
126.0
 30
0.0
 11
317.571431
 21
128.349471
 31
0.0
  0
LINE
  8
LC-001-003-----0
  6
CONTINUOUS
  5
4F
 10
317.571431
 20
128.349471
 30
0.0
 11
317.571431
 21
123.650529
 31
0.0
  0
LINE
  8
LC-001-003-----0
  6
CONTINUOUS
  5
50
 10
317.531393
 20
124.261391
 30
0.0
 11
330.737439
 21
126.0
 31
0.0
  0
LINE
  8
LC-001-003-----0
  6
CONTINUOUS
  5
51
 10
330.737439
 20
126.0
 30
0.0
 11
317.531393
 21
127.738609
 31
0.0
  0
LINE
  8
LC-001-003-----0
  6
CONTINUOUS
  5
52
 10
317.491355
 20
124.872254
 30
0.0
 11
326.057439
 21
126.0
 31
0.0
  0
LINE
  8
LC-001-003-----0
  6
CONTINUOUS
  5
53
 10
326.057439
 20
126.0
 30
0.0
 11
317.491355
 21
127.127746
 31
0.0
  0
LINE
  8
LC-001-003-----0
  6
CONTINUOUS
  5
54
 10
317.451317
 20
125.483116
 30
0.0
 11
321.377439
 21
126.0
 31
0.0
  0
LINE
  8
LC-001-003-----0
  6
CONTINUOUS
  5
55
 10
321.377439
 20
126.0
 30
0.0
 11
317.451317
 21
126.516884
 31
0.0
  0
TEXT
  8
LC-001-003-----0
  6
CONTINUOUS
 62
     6
  5
56
 10
298.849692
 20
136.431999
 30
0.0
 40
18.0
  1
55
 51
15.0
  7
LC-TXTSTYLE-150-400-0-0-D0
 72
     1
 11
310.712684
 21
136.431999
 31
0.0
  0
ENDBLK
  8
0
  5
57
  0
BLOCK
  8
0
  5
59
  2
*D2
 70
    65
 10
0.0
 20
0.0
 30
0.0
  3
*D2
  0
LINE
  8
LC-002-003-MTH-0
  6
CONTINUOUS
  5
5A
 10
493.710253
 20
164.439562
 30
0.0
 11
493.710253
 21
115.2
 31
0.0
  0
LINE
  8
LC-002-003-MTH-0
  6
CONTINUOUS
  5
5B
 10
533.710253
 20
164.439562
 30
0.0
 11
533.710253
 21
115.2
 31
0.0
  0
LINE
  8
LC-001-003-----0
  6
CONTINUOUS
  5
5C
 10
475.864245
 20
123.650529
 30
0.0
 11
493.710253
 21
126.0
 31
0.0
  0
LINE
  8
LC-001-003-----0
  6
CONTINUOUS
  5
5D
 10
493.710253
 20
126.0
 30
0.0
 11
475.864245
 21
128.349471
 31
0.0
  0
LINE
  8
LC-001-003-----0
  6
CONTINUOUS
  5
5E
 10
475.864245
 20
128.349471
 30
0.0
 11
475.864245
 21
123.650529
 31
0.0
  0
LINE
  8
LC-001-003-----0
  6
CONTINUOUS
  5
5F
 10
475.824207
 20
124.261391
 30
0.0
 11
489.030253
 21
126.0
 31
0.0
  0
LINE
  8
LC-001-003-----0
  6
CONTINUOUS
  5
60
 10
489.030253
 20
126.0
 30
0.0
 11
475.824207
 21
127.738609
 31
0.0
  0
LINE
  8
LC-001-003-----0
  6
CONTINUOUS
  5
61
 10
475.784169
 20
124.872254
 30
0.0
 11
484.350253
 21
126.0
 31
0.0
  0
LINE
  8
LC-001-003-----0
  6
CONTINUOUS
  5
62
 10
484.350253
 20
126.0
 30
0.0
 11
475.784169
 21
127.127746
 31
0.0
  0
LINE
  8
LC-001-003-----0
  6
CONTINUOUS
  5
63
 10
475.744131
 20
125.483116
 30
0.0
 11
479.670253
 21
126.0
 31
0.0
  0
LINE
  8
LC-001-003-----0
  6
CONTINUOUS
  5
64
 10
479.670253
 20
126.0
 30
0.0
 11
475.744131
 21
126.516884
 31
0.0
  0
LINE
  8
LC-001-003-----0
  6
CONTINUOUS
  5
65
 10
551.55626
 20
128.349471
 30
0.0
 11
533.710253
 21
126.0
 31
0.0
  0
LINE
  8
LC-001-003-----0
  6
CONTINUOUS
  5
66
 10
533.710253
 20
126.0
 30
0.0
 11
551.55626
 21
123.650529
 31
0.0
  0
LINE
  8
LC-001-003-----0
  6
CONTINUOUS
  5
67
 10
551.55626
 20
123.650529
 30
0.0
 11
551.55626
 21
128.349471
 31
0.0
  0
LINE
  8
LC-001-003-----0
  6
CONTINUOUS
  5
68
 10
551.596299
 20
127.738609
 30
0.0
 11
538.390253
 21
126.0
 31
0.0
  0
LINE
  8
LC-001-003-----0
  6
CONTINUOUS
  5
69
 10
538.390253
 20
126.0
 30
0.0
 11
551.596299
 21
124.261391
 31
0.0
  0
LINE
  8
LC-001-003-----0
  6
CONTINUOUS
  5
6A
 10
551.636337
 20
127.127746
 30
0.0
 11
543.070253
 21
126.0
 31
0.0
  0
LINE
  8
LC-001-003-----0
  6
CONTINUOUS
  5
6B
 10
543.070253
 20
126.0
 30
0.0
 11
551.636337
 21
124.872254
 31
0.0
  0
LINE
  8
LC-001-003-----0
  6
CONTINUOUS
  5
6C
 10
551.676375
 20
126.516884
 30
0.0
 11
547.750253
 21
126.0
 31
0.0
  0
LINE
  8
LC-001-003-----0
  6
CONTINUOUS
  5
6D
 10
547.750253
 20
126.0
 30
0.0
 11
551.676375
 21
125.483116
 31
0.0
  0
LINE
  8
LC-003-003-MTG-0
  6
CONTINUOUS
  5
6E
 10
468.510253
 20
126.0
 30
0.0
 11
624.112773
 21
126.0
 31
0.0
  0
TEXT
  8
LC-001-003-----0
  6
CONTINUOUS
 62
     6
  5
6F
 10
560.985499
 20
136.431999
 30
0.0
 40
18.0
  1
DN40
 51
15.0
  7
LC-TXTSTYLE-150-400-0-0-D0
  0
ENDBLK
  8
0
  5
70
  0
BLOCK
  8
0
  5
72
  2
*X3
 70
    65
 10
332.917439
 20
462.439562
 30
0.0
  3
*X3
  0
LINE
  8
LC-007-005-----0
  6
CONTINUOUS
  5
74
 10
335.160342
 20
462.439562
 30
0.0
 11
335.417439
 21
462.696659
 31
0.0
  0
LINE
  8
LC-007-005-----0
  6
CONTINUOUS
  5
75
 10
332.917439
 20
463.025086
 30
0.0
 11
335.417439
 21
465.525086
 31
0.0
  0
LINE
  8
LC-007-005-----0
  6
CONTINUOUS
  5
76
 10
332.917439
 20
465.853513
 30
0.0
 11
333.003487
 21
465.939562
 31
0.0
  0
ENDBLK
  8
0
  5
77
  0
BLOCK
  8
0
  5
79
  2
*D4
 70
    65
 10
0.0
 20
0.0
 30
0.0
  3
*D4
  0
LINE
  8
LC-002-003-MTH-0
  6
CONTINUOUS
  5
7A
 10
465.710253
 20
394.194
 30
0.0
 11
465.710253
 21
550.8
 31
0.0
  0
LINE
  8
LC-002-003-MTH-0
  6
CONTINUOUS
  5
7B
 10
571.710253
 20
394.194
 30
0.0
 11
571.710253
 21
550.8
 31
0.0
  0
LINE
  8
LC-003-003-MTG-0
  6
CONTINUOUS
  5
7C
 10
465.710253
 20
540.0
 30
0.0
 11
571.710253
 21
540.0
 31
0.0
  0
LINE
  8
LC-001-003-----0
  6
CONTINUOUS
  5
7D
 10
483.55626
 20
542.349471
 30
0.0
 11
465.710253
 21
540.0
 31
0.0
  0
LINE
  8
LC-001-003-----0
  6
CONTINUOUS
  5
7E
 10
465.710253
 20
540.0
 30
0.0
 11
483.55626
 21
537.650529
 31
0.0
  0
LINE
  8
LC-001-003-----0
  6
CONTINUOUS
  5
7F
 10
483.55626
 20
537.650529
 30
0.0
 11
483.55626
 21
542.349471
 31
0.0
  0
LINE
  8
LC-001-003-----0
  6
CONTINUOUS
  5
80
 10
483.596299
 20
541.738609
 30
0.0
 11
470.390253
 21
540.0
 31
0.0
  0
LINE
  8
LC-001-003-----0
  6
CONTINUOUS
  5
81
 10
470.390253
 20
540.0
 30
0.0
 11
483.596299
 21
538.261391
 31
0.0
  0
LINE
  8
LC-001-003-----0
  6
CONTINUOUS
  5
82
 10
483.636337
 20
541.127746
 30
0.0
 11
475.070253
 21
540.0
 31
0.0
  0
LINE
  8
LC-001-003-----0
  6
CONTINUOUS
  5
83
 10
475.070253
 20
540.0
 30
0.0
 11
483.636337
 21
538.872254
 31
0.0
  0
LINE
  8
LC-001-003-----0
  6
CONTINUOUS
  5
84
 10
483.676375
 20
540.516884
 30
0.0
 11
479.750253
 21
540.0
 31
0.0
  0
LINE
  8
LC-001-003-----0
  6
CONTINUOUS
  5
85
 10
479.750253
 20
540.0
 30
0.0
 11
483.676375
 21
539.483116
 31
0.0
  0
LINE
  8
LC-001-003-----0
  6
CONTINUOUS
  5
86
 10
553.864245
 20
537.650529
 30
0.0
 11
571.710253
 21
540.0
 31
0.0
  0
LINE
  8
LC-001-003-----0
  6
CONTINUOUS
  5
87
 10
571.710253
 20
540.0
 30
0.0
 11
553.864245
 21
542.349471
 31
0.0
  0
LINE
  8
LC-001-003-----0
  6
CONTINUOUS
  5
88
 10
553.864245
 20
542.349471
 30
0.0
 11
553.864245
 21
537.650529
 31
0.0
  0
LINE
  8
LC-001-003-----0
  6
CONTINUOUS
  5
89
 10
553.824207
 20
538.261391
 30
0.0
 11
567.030253
 21
540.0
 31
0.0
  0
LINE
  8
LC-001-003-----0
  6
CONTINUOUS
  5
8A
 10
567.030253
 20
540.0
 30
0.0
 11
553.824207
 21
541.738609
 31
0.0
  0
LINE
  8
LC-001-003-----0
  6
CONTINUOUS
  5
8B
 10
553.784169
 20
538.872254
 30
0.0
 11
562.350253
 21
540.0
 31
0.0
  0
LINE
  8
LC-001-003-----0
  6
CONTINUOUS
  5
8C
 10
562.350253
 20
540.0
 30
0.0
 11
553.784169
 21
541.127746
 31
0.0
  0
LINE
  8
LC-001-003-----0
  6
CONTINUOUS
  5
8D
 10
553.744131
 20
539.483116
 30
0.0
 11
557.670253
 21
540.0
 31
0.0
  0
LINE
  8
LC-001-003-----0
  6
CONTINUOUS
  5
8E
 10
557.670253
 20
540.0
 30
0.0
 11
553.744131
 21
540.516884
 31
0.0
  0
TEXT
  8
LC-001-003-----0
  6
CONTINUOUS
 62
     6
  5
8F
 10
500.085769
 20
550.431999
 30
0.0
 40
18.0
  1
106
 51
15.0
  7
LC-TXTSTYLE-150-400-0-0-D0
 72
     2
 11
538.353486
 21
550.431999
 31
0.0
  0
ENDBLK
  8
0
  5
90
  0
BLOCK
  8
0
  5
92
  2
*D5
 70
    65
 10
0.0
 20
0.0
 30
0.0
  3
*D5
  0
LINE
  8
LC-002-003-MTH-0
  6
CONTINUOUS
  5
93
 10
578.210253
 20
386.694
 30
0.0
 11
622.8
 21
386.694
 31
0.0
  0
LINE
  8
LC-002-003-MTH-0
  6
CONTINUOUS
  5
94
 10
526.210253
 20
459.689562
 30
0.0
 11
622.8
 21
459.689562
 31
0.0
  0
LINE
  8
LC-003-003-MTG-0
  6
CONTINUOUS
  5
95
 10
612.0
 20
386.694
 30
0.0
 11
612.0
 21
459.689562
 31
0.0
  0
LINE
  8
LC-001-003-----0
  6
CONTINUOUS
  5
96
 10
609.650529
 20
404.540008
 30
0.0
 11
612.0
 21
386.694
 31
0.0
  0
LINE
  8
LC-001-003-----0
  6
CONTINUOUS
  5
97
 10
612.0
 20
386.694
 30
0.0
 11
614.349471
 21
404.540008
 31
0.0
  0
LINE
  8
LC-001-003-----0
  6
CONTINUOUS
  5
98
 10
614.349471
 20
404.540008
 30
0.0
 11
609.650529
 21
404.540008
 31
0.0
  0
LINE
  8
LC-001-003-----0
  6
CONTINUOUS
  5
99
 10
610.261391
 20
404.580046
 30
0.0
 11
612.0
 21
391.374
 31
0.0
  0
LINE
  8
LC-001-003-----0
  6
CONTINUOUS
  5
9A
 10
612.0
 20
391.374
 30
0.0
 11
613.738609
 21
404.580046
 31
0.0
  0
LINE
  8
LC-001-003-----0
  6
CONTINUOUS
  5
9B
 10
610.872254
 20
404.620084
 30
0.0
 11
612.0
 21
396.054
 31
0.0
  0
LINE
  8
LC-001-003-----0
  6
CONTINUOUS
  5
9C
 10
612.0
 20
396.054
 30
0.0
 11
613.127746
 21
404.620084
 31
0.0
  0
LINE
  8
LC-001-003-----0
  6
CONTINUOUS
  5
9D
 10
611.483116
 20
404.660122
 30
0.0
 11
612.0
 21
400.734
 31
0.0
  0
LINE
  8
LC-001-003-----0
  6
CONTINUOUS
  5
9E
 10
612.0
 20
400.734
 30
0.0
 11
612.516884
 21
404.660122
 31
0.0
  0
LINE
  8
LC-001-003-----0
  6
CONTINUOUS
  5
9F
 10
614.349471
 20
441.843554
 30
0.0
 11
612.0
 21
459.689562
 31
0.0
  0
LINE
  8
LC-001-003-----0
  6
CONTINUOUS
  5
A0
 10
612.0
 20
459.689562
 30
0.0
 11
609.650529
 21
441.843554
 31
0.0
  0
LINE
  8
LC-001-003-----0
  6
CONTINUOUS
  5
A1
 10
609.650529
 20
441.843554
 30
0.0
 11
614.349471
 21
441.843554
 31
0.0
  0
LINE
  8
LC-001-003-----0
  6
CONTINUOUS
  5
A2
 10
613.738609
 20
441.803516
 30
0.0
 11
612.0
 21
455.009562
 31
0.0
  0
LINE
  8
LC-001-003-----0
  6
CONTINUOUS
  5
A3
 10
612.0
 20
455.009562
 30
0.0
 11
610.261391
 21
441.803516
 31
0.0
  0
LINE
  8
LC-001-003-----0
  6
CONTINUOUS
  5
A4
 10
613.127746
 20
441.763478
 30
0.0
 11
612.0
 21
450.329562
 31
0.0
  0
LINE
  8
LC-001-003-----0
  6
CONTINUOUS
  5
A5
 10
612.0
 20
450.329562
 30
0.0
 11
610.872254
 21
441.763478
 31
0.0
  0
LINE
  8
LC-001-003-----0
  6
CONTINUOUS
  5
A6
 10
612.516884
 20
441.72344
 30
0.0
 11
612.0
 21
445.649562
 31
0.0
  0
LINE
  8
LC-001-003-----0
  6
CONTINUOUS
  5
A7
 10
612.0
 20
445.649562
 30
0.0
 11
611.483116
 21
441.72344
 31
0.0
  0
TEXT
  8
LC-001-003-----0
  6
CONTINUOUS
 62
     6
  5
A8
 10
601.568001
 20
413.860254
 30
0.0
 40
18.0
  1
73
 50
90.0
 51
15.0
  7
LC-TXTSTYLE-150-400-0-0-D0
 72
     1
 11
601.568001
 21
425.723246
 31
0.0
  0
ENDBLK
  8
0
  5
A9
  0
BLOCK
  8
0
  5
AB
  2
*D6
 70
    65
 10
0.0
 20
0.0
 30
0.0
  3
*D6
  0
LINE
  8
LC-002-003-MTH-0
  6
CONTINUOUS
  5
AC
 10
255.417439
 20
425.694
 30
0.0
 11
255.417439
 21
478.8
 31
0.0
  0
LINE
  8
LC-002-003-MTH-0
  6
CONTINUOUS
  5
AD
 10
295.417439
 20
448.194
 30
0.0
 11
295.417439
 21
478.8
 31
0.0
  0
LINE
  8
LC-001-003-----0
  6
CONTINUOUS
  5
AE
 10
237.571431
 20
465.650529
 30
0.0
 11
255.417439
 21
468.0
 31
0.0
  0
LINE
  8
LC-001-003-----0
  6
CONTINUOUS
  5
AF
 10
255.417439
 20
468.0
 30
0.0
 11
237.571431
 21
470.349471
 31
0.0
  0
LINE
  8
LC-001-003-----0
  6
CONTINUOUS
  5
B0
 10
237.571431
 20
470.349471
 30
0.0
 11
237.571431
 21
465.650529
 31
0.0
  0
LINE
  8
LC-001-003-----0
  6
CONTINUOUS
  5
B1
 10
237.531393
 20
466.261391
 30
0.0
 11
250.737439
 21
468.0
 31
0.0
  0
LINE
  8
LC-001-003-----0
  6
CONTINUOUS
  5
B2
 10
250.737439
 20
468.0
 30
0.0
 11
237.531393
 21
469.738609
 31
0.0
  0
LINE
  8
LC-001-003-----0
  6
CONTINUOUS
  5
B3
 10
237.491355
 20
466.872254
 30
0.0
 11
246.057439
 21
468.0
 31
0.0
  0
LINE
  8
LC-001-003-----0
  6
CONTINUOUS
  5
B4
 10
246.057439
 20
468.0
 30
0.0
 11
237.491355
 21
469.127746
 31
0.0
  0
LINE
  8
LC-001-003-----0
  6
CONTINUOUS
  5
B5
 10
237.451317
 20
467.483116
 30
0.0
 11
241.377439
 21
468.0
 31
0.0
  0
LINE
  8
LC-001-003-----0
  6
CONTINUOUS
  5
B6
 10
241.377439
 20
468.0
 30
0.0
 11
237.451317
 21
468.516884
 31
0.0
  0
LINE
  8
LC-001-003-----0
  6
CONTINUOUS
  5
B7
 10
313.263446
 20
470.349471
 30
0.0
 11
295.417439
 21
468.0
 31
0.0
  0
LINE
  8
LC-001-003-----0
  6
CONTINUOUS
  5
B8
 10
295.417439
 20
468.0
 30
0.0
 11
313.263446
 21
465.650529
 31
0.0
  0
LINE
  8
LC-001-003-----0
  6
CONTINUOUS
  5
B9
 10
313.263446
 20
465.650529
 30
0.0
 11
313.263446
 21
470.349471
 31
0.0
  0
LINE
  8
LC-001-003-----0
  6
CONTINUOUS
  5
BA
 10
313.303484
 20
469.738609
 30
0.0
 11
300.097439
 21
468.0
 31
0.0
  0
LINE
  8
LC-001-003-----0
  6
CONTINUOUS
  5
BB
 10
300.097439
 20
468.0
 30
0.0
 11
313.303484
 21
466.261391
 31
0.0
  0
LINE
  8
LC-001-003-----0
  6
CONTINUOUS
  5
BC
 10
313.343522
 20
469.127746
 30
0.0
 11
304.777439
 21
468.0
 31
0.0
  0
LINE
  8
LC-001-003-----0
  6
CONTINUOUS
  5
BD
 10
304.777439
 20
468.0
 30
0.0
 11
313.343522
 21
466.872254
 31
0.0
  0
LINE
  8
LC-001-003-----0
  6
CONTINUOUS
  5
BE
 10
313.38356
 20
468.516884
 30
0.0
 11
309.457439
 21
468.0
 31
0.0
  0
LINE
  8
LC-001-003-----0
  6
CONTINUOUS
  5
BF
 10
309.457439
 20
468.0
 30
0.0
 11
313.38356
 21
467.483116
 31
0.0
  0
LINE
  8
LC-003-003-MTG-0
  6
CONTINUOUS
  5
C0
 10
197.414919
 20
468.0
 30
0.0
 11
320.617439
 21
468.0
 31
0.0
  0
TEXT
  8
LC-001-003-----0
  6
CONTINUOUS
 62
     6
  5
C1
 10
210.0067
 20
478.431999
 30
0.0
 40
18.0
  1
40
 51
15.0
  7
LC-TXTSTYLE-150-400-0-0-D0
 72
     2
 11
233.732684
 21
478.431999
 31
0.0
  0
ENDBLK
  8
0
  5
C2
  0
BLOCK
  8
0
  5
C4
  2
BLK1
 70
    64
 10
0.0
 20
0.0
 30
0.0
  3
BLK1
  0
ENDBLK
  8
0
  5
C5
  0
BLOCK
  8
0
  5
C7
  2
*D8
 70
    65
 10
0.0
 20
0.0
 30
0.0
  3
*D8
  0
LINE
  8
LC-002-003-MTH-0
  6
CONTINUOUS
  5
C8
 10
295.417439
 20
448.194
 30
0.0
 11
295.417439
 21
500.8
 31
0.0
  0
LINE
  8
LC-002-003-MTH-0
  6
CONTINUOUS
  5
C9
 10
335.417439
 20
465.939562
 30
0.0
 11
335.417439
 21
500.8
 31
0.0
  0
LINE
  8
LC-001-003-----0
  6
CONTINUOUS
  5
CA
 10
277.571431
 20
487.650529
 30
0.0
 11
295.417439
 21
490.0
 31
0.0
  0
LINE
  8
LC-001-003-----0
  6
CONTINUOUS
  5
CB
 10
295.417439
 20
490.0
 30
0.0
 11
277.571431
 21
492.349471
 31
0.0
  0
LINE
  8
LC-001-003-----0
  6
CONTINUOUS
  5
CC
 10
277.571431
 20
492.349471
 30
0.0
 11
277.571431
 21
487.650529
 31
0.0
  0
LINE
  8
LC-001-003-----0
  6
CONTINUOUS
  5
CD
 10
277.531393
 20
488.261391
 30
0.0
 11
290.737439
 21
490.0
 31
0.0
  0
LINE
  8
LC-001-003-----0
  6
CONTINUOUS
  5
CE
 10
290.737439
 20
490.0
 30
0.0
 11
277.531393
 21
491.738609
 31
0.0
  0
LINE
  8
LC-001-003-----0
  6
CONTINUOUS
  5
CF
 10
277.491355
 20
488.872254
 30
0.0
 11
286.057439
 21
490.0
 31
0.0
  0
LINE
  8
LC-001-003-----0
  6
CONTINUOUS
  5
D0
 10
286.057439
 20
490.0
 30
0.0
 11
277.491355
 21
491.127746
 31
0.0
  0
LINE
  8
LC-001-003-----0
  6
CONTINUOUS
  5
D1
 10
277.451317
 20
489.483116
 30
0.0
 11
281.377439
 21
490.0
 31
0.0
  0
LINE
  8
LC-001-003-----0
  6
CONTINUOUS
  5
D2
 10
281.377439
 20
490.0
 30
0.0
 11
277.451317
 21
490.516884
 31
0.0
  0
LINE
  8
LC-001-003-----0
  6
CONTINUOUS
  5
D3
 10
353.263446
 20
492.349471
 30
0.0
 11
335.417439
 21
490.0
 31
0.0
  0
LINE
  8
LC-001-003-----0
  6
CONTINUOUS
  5
D4
 10
335.417439
 20
490.0
 30
0.0
 11
353.263446
 21
487.650529
 31
0.0
  0
LINE
  8
LC-001-003-----0
  6
CONTINUOUS
  5
D5
 10
353.263446
 20
487.650529
 30
0.0
 11
353.263446
 21
492.349471
 31
0.0
  0
LINE
  8
LC-001-003-----0
  6
CONTINUOUS
  5
D6
 10
353.303484
 20
491.738609
 30
0.0
 11
340.097439
 21
490.0
 31
0.0
  0
LINE
  8
LC-001-003-----0
  6
CONTINUOUS
  5
D7
 10
340.097439
 20
490.0
 30
0.0
 11
353.303484
 21
488.261391
 31
0.0
  0
LINE
  8
LC-001-003-----0
  6
CONTINUOUS
  5
D8
 10
353.343522
 20
491.127746
 30
0.0
 11
344.777439
 21
490.0
 31
0.0
  0
LINE
  8
LC-001-003-----0
  6
CONTINUOUS
  5
D9
 10
344.777439
 20
490.0
 30
0.0
 11
353.343522
 21
488.872254
 31
0.0
  0
LINE
  8
LC-001-003-----0
  6
CONTINUOUS
  5
DA
 10
353.38356
 20
490.516884
 30
0.0
 11
349.457439
 21
490.0
 31
0.0
  0
LINE
  8
LC-001-003-----0
  6
CONTINUOUS
  5
DB
 10
349.457439
 20
490.0
 30
0.0
 11
353.38356
 21
489.483116
 31
0.0
  0
LINE
  8
LC-003-003-MTG-0
  6
CONTINUOUS
  5
DC
 10
270.217439
 20
490.0
 30
0.0
 11
393.419958
 21
490.0
 31
0.0
  0
TEXT
  8
LC-001-003-----0
  6
CONTINUOUS
 62
     6
  5
DD
 10
362.692684
 20
500.431999
 30
0.0
 40
18.0
  1
40
 51
15.0
  7
LC-TXTSTYLE-150-400-0-0-D0
  0
ENDBLK
  8
0
  5
DE
  0
BLOCK
  8
0
  5
E0
  2
*D9
 70
    65
 10
0.0
 20
0.0
 30
0.0
  3
*D9
  0
LINE
  8
LC-002-003-MTH-0
  6
CONTINUOUS
  5
E1
 10
305.417439
 20
301.694
 30
0.0
 11
402.8
 21
301.694
 31
0.0
  0
LINE
  8
LC-002-003-MTH-0
  6
CONTINUOUS
  5
E2
 10
295.417439
 20
386.694
 30
0.0
 11
402.8
 21
386.694
 31
0.0
  0
LINE
  8
LC-003-003-MTG-0
  6
CONTINUOUS
  5
E3
 10
392.0
 20
301.694
 30
0.0
 11
392.0
 21
386.694
 31
0.0
  0
LINE
  8
LC-001-003-----0
  6
CONTINUOUS
  5
E4
 10
389.650529
 20
319.540008
 30
0.0
 11
392.0
 21
301.694
 31
0.0
  0
LINE
  8
LC-001-003-----0
  6
CONTINUOUS
  5
E5
 10
392.0
 20
301.694
 30
0.0
 11
394.349471
 21
319.540008
 31
0.0
  0
LINE
  8
LC-001-003-----0
  6
CONTINUOUS
  5
E6
 10
394.349471
 20
319.540008
 30
0.0
 11
389.650529
 21
319.540008
 31
0.0
  0
LINE
  8
LC-001-003-----0
  6
CONTINUOUS
  5
E7
 10
390.261391
 20
319.580046
 30
0.0
 11
392.0
 21
306.374
 31
0.0
  0
LINE
  8
LC-001-003-----0
  6
CONTINUOUS
  5
E8
 10
392.0
 20
306.374
 30
0.0
 11
393.738609
 21
319.580046
 31
0.0
  0
LINE
  8
LC-001-003-----0
  6
CONTINUOUS
  5
E9
 10
390.872254
 20
319.620084
 30
0.0
 11
392.0
 21
311.054
 31
0.0
  0
LINE
  8
LC-001-003-----0
  6
CONTINUOUS
  5
EA
 10
392.0
 20
311.054
 30
0.0
 11
393.127746
 21
319.620084
 31
0.0
  0
LINE
  8
LC-001-003-----0
  6
CONTINUOUS
  5
EB
 10
391.483116
 20
319.660122
 30
0.0
 11
392.0
 21
315.734
 31
0.0
  0
LINE
  8
LC-001-003-----0
  6
CONTINUOUS
  5
EC
 10
392.0
 20
315.734
 30
0.0
 11
392.516884
 21
319.660122
 31
0.0
  0
LINE
  8
LC-001-003-----0
  6
CONTINUOUS
  5
ED
 10
394.349471
 20
368.847992
 30
0.0
 11
392.0
 21
386.694
 31
0.0
  0
LINE
  8
LC-001-003-----0
  6
CONTINUOUS
  5
EE
 10
392.0
 20
386.694
 30
0.0
 11
389.650529
 21
368.847992
 31
0.0
  0
LINE
  8
LC-001-003-----0
  6
CONTINUOUS
  5
EF
 10
389.650529
 20
368.847992
 30
0.0
 11
394.349471
 21
368.847992
 31
0.0
  0
LINE
  8
LC-001-003-----0
  6
CONTINUOUS
  5
F0
 10
393.738609
 20
368.807954
 30
0.0
 11
392.0
 21
382.014
 31
0.0
  0
LINE
  8
LC-001-003-----0
  6
CONTINUOUS
  5
F1
 10
392.0
 20
382.014
 30
0.0
 11
390.261391
 21
368.807954
 31
0.0
  0
LINE
  8
LC-001-003-----0
  6
CONTINUOUS
  5
F2
 10
393.127746
 20
368.767916
 30
0.0
 11
392.0
 21
377.334
 31
0.0
  0
LINE
  8
LC-001-003-----0
  6
CONTINUOUS
  5
F3
 10
392.0
 20
377.334
 30
0.0
 11
390.872254
 21
368.767916
 31
0.0
  0
LINE
  8
LC-001-003-----0
  6
CONTINUOUS
  5
F4
 10
392.516884
 20
368.727878
 30
0.0
 11
392.0
 21
372.654
 31
0.0
  0
LINE
  8
LC-001-003-----0
  6
CONTINUOUS
  5
F5
 10
392.0
 20
372.654
 30
0.0
 11
391.483116
 21
368.727878
 31
0.0
  0
TEXT
  8
LC-001-003-----0
  6
CONTINUOUS
 62
     6
  5
F6
 10
381.568001
 20
335.126254
 30
0.0
 40
18.0
  1
80
 50
90.0
 51
15.0
  7
LC-TXTSTYLE-150-400-0-0-D0
 72
     1
 11
381.568001
 21
346.989246
 31
0.0
  0
ENDBLK
  8
0
  5
F7
  0
BLOCK
  8
0
  5
F9
  2
*X10
 70
    65
 10
333.117439
 20
357.600166
 30
0.0
  3
*X10
  0
LINE
  8
LC-007-005-----0
  6
CONTINUOUS
  5
FA
 10
334.981972
 20
357.609389
 30
0.0
 11
335.417439
 21
358.044856
 31
0.0
  0
LINE
  8
LC-007-005-----0
  6
CONTINUOUS
  5
FB
 10
333.117439
 20
358.573283
 30
0.0
 11
335.417439
 21
360.873283
 31
0.0
  0
LINE
  8
LC-007-005-----0
  6
CONTINUOUS
  5
FC
 10
333.117439
 20
361.40171
 30
0.0
 11
335.417439
 21
363.70171
 31
0.0
  0
LINE
  8
LC-007-005-----0
  6
CONTINUOUS
  5
FD
 10
333.117439
 20
364.230137
 30
0.0
 11
335.417439
 21
366.530137
 31
0.0
  0
LINE
  8
LC-007-005-----0
  6
CONTINUOUS
  5
FE
 10
333.417439
 20
367.358564
 30
0.0
 11
335.417439
 21
369.358564
 31
0.0
  0
LINE
  8
LC-007-005-----0
  6
CONTINUOUS
  5
FF
 10
333.417439
 20
370.186991
 30
0.0
 11
335.417439
 21
372.186991
 31
0.0
  0
LINE
  8
LC-007-005-----0
  6
CONTINUOUS
  5
100
 10
333.417439
 20
373.015418
 30
0.0
 11
335.417439
 21
375.015418
 31
0.0
  0
LINE
  8
LC-007-005-----0
  6
CONTINUOUS
  5
101
 10
333.417439
 20
375.843845
 30
0.0
 11
334.267593
 21
376.694
 31
0.0
  0
ENDBLK
  8
0
  5
102
  0
BLOCK
  8
0
  5
104
  2
BLK2
 70
    64
 10
0.0
 20
0.0
 30
0.0
  3
BLK2
  0
ENDBLK
  8
0
  5
105
  0
BLOCK
  8
0
  5
107
  2
*X12
 70
    65
 10
255.417439
 20
410.694
 30
0.0
  3
*X12
  0
LINE
  8
LC-007-005-----0
  6
CONTINUOUS
  5
108
 10
280.417439
 20
423.860915
 30
0.0
 11
278.584354
 21
425.694
 31
0.0
  0
LINE
  8
LC-007-005-----0
  6
DASHED
  5
10A
 10
276.56892
 20
422.05258
 30
0.0
 11
273.4275
 21
425.194
 31
0.0
  0
LINE
  8
LC-007-005-----0
  6
DASHED
  5
10B
 10
274.099073
 20
421.694
 30
0.0
 11
270.599073
 21
425.194
 31
0.0
  0
LINE
  8
LC-007-005-----0
  6
CONTINUOUS
  5
10C
 10
272.442218
 20
417.694
 30
0.0
 11
270.442218
 21
419.694
 31
0.0
  0
LINE
  8
LC-007-005-----0
  6
CONTINUOUS
  5
10D
 10
268.442218
 20
421.694
 30
0.0
 11
264.942218
 21
425.194
 31
0.0
  0
LINE
  8
LC-007-005-----0
  6
CONTINUOUS
  5
10E
 10
271.417439
 20
415.890353
 30
0.0
 11
267.613791
 21
419.694
 31
0.0
  0
LINE
  8
LC-007-005-----0
  6
CONTINUOUS
  5
10F
 10
265.613791
 20
421.694
 30
0.0
 11
261.613791
 21
425.694
 31
0.0
  0
LINE
  8
LC-007-005-----0
  6
DASHED
  5
110
 10
270.956937
 20
410.694
 30
0.0
 11
270.902981
 21
410.747956
 31
0.0
  0
LINE
  8
LC-007-005-----0
  6
DASHED
  5
111
 10
265.689265
 20
415.961672
 30
0.0
 11
261.956937
 21
419.694
 31
0.0
  0
LINE
  8
LC-007-005-----0
  6
DASHED
  5
112
 10
259.956937
 20
421.694
 30
0.0
 11
255.956937
 21
425.694
 31
0.0
  0
LINE
  8
LC-007-005-----0
  6
DASHED
  5
113
 10
265.689265
 20
413.133245
 30
0.0
 11
264.113426
 21
414.709084
 31
0.0
  0
LINE
  8
LC-007-005-----0
  6
DASHED
  5
114
 10
261.62851
 20
417.194
 30
0.0
 11
259.12851
 21
419.694
 31
0.0
  0
LINE
  8
LC-007-005-----0
  6
DASHED
  5
115
 10
257.917439
 20
420.905071
 30
0.0
 11
255.417439
 21
423.405071
 31
0.0
  0
LINE
  8
LC-007-005-----0
  6
CONTINUOUS
  5
116
 10
260.159108
 20
413.006547
 30
0.0
 11
258.629645
 21
414.536011
 31
0.0
  0
LINE
  8
LC-007-005-----0
  6
CONTINUOUS
  5
117
 10
255.971656
 20
417.194
 30
0.0
 11
255.417439
 21
417.748217
 31
0.0
  0
ENDBLK
  8
0
  5
118
  0
BLOCK
  8
0
  5
11A
  2
BLK3
 70
    64
 10
0.0
 20
0.0
 30
0.0
  3
BLK3
  0
ENDBLK
  8
0
  5
11B
  0
BLOCK
  8
0
  5
11D
  2
*X14
 70
    65
 10
255.417439
 20
347.694
 30
0.0
  3
*X14
  0
LINE
  8
LC-007-005-----0
  6
CONTINUOUS
  5
11E
 10
271.417439
 20
362.150237
 30
0.0
 11
270.90819
 21
362.659485
 31
0.0
  0
LINE
  8
LC-007-005-----0
  6
DASHED
  5
11F
 10
280.216822
 20
347.694
 30
0.0
 11
276.576698
 21
351.334123
 31
0.0
  0
LINE
  8
LC-007-005-----0
  6
DASHED
  5
120
 10
274.216822
 20
353.694
 30
0.0
 11
272.216822
 21
355.694
 31
0.0
  0
LINE
  8
LC-007-005-----0
  6
DASHED
  5
121
 10
271.417439
 20
356.493383
 30
0.0
 11
269.712756
 21
358.198065
 31
0.0
  0
LINE
  8
LC-007-005-----0
  6
DASHED
  5
122
 10
265.689265
 20
362.221557
 30
0.0
 11
265.216822
 21
362.694
 31
0.0
  0
LINE
  8
LC-007-005-----0
  6
DASHED
  5
123
 10
277.388395
 20
347.694
 30
0.0
 11
273.388395
 21
351.694
 31
0.0
  0
LINE
  8
LC-007-005-----0
  6
DASHED
  5
124
 10
271.388395
 20
353.694
 30
0.0
 11
268.888395
 21
356.194
 31
0.0
  0
LINE
  8
LC-007-005-----0
  6
DASHED
  5
125
 10
265.689265
 20
359.39313
 30
0.0
 11
264.597371
 21
360.485023
 31
0.0
  0
LINE
  8
LC-007-005-----0
  6
CONTINUOUS
  5
126
 10
271.23154
 20
348.194
 30
0.0
 11
267.73154
 21
351.694
 31
0.0
  0
LINE
  8
LC-007-005-----0
  6
CONTINUOUS
  5
127
 10
265.73154
 20
353.694
 30
0.0
 11
263.23154
 21
356.194
 31
0.0
  0
LINE
  8
LC-007-005-----0
  6
CONTINUOUS
  5
128
 10
260.159108
 20
359.266432
 30
0.0
 11
259.04044
 21
360.3851
 31
0.0
  0
LINE
  8
LC-007-005-----0
  6
CONTINUOUS
  5
129
 10
268.403113
 20
348.194
 30
0.0
 11
264.903113
 21
351.694
 31
0.0
  0
LINE
  8
LC-007-005-----0
  6
CONTINUOUS
  5
12A
 10
262.903113
 20
353.694
 30
0.0
 11
260.403113
 21
356.194
 31
0.0
  0
LINE
  8
LC-007-005-----0
  6
CONTINUOUS
  5
12B
 10
260.159108
 20
356.438005
 30
0.0
 11
258.442723
 21
358.15439
 31
0.0
  0
LINE
  8
LC-007-005-----0
  6
DASHED
  5
12C
 10
263.246259
 20
347.694
 30
0.0
 11
259.246259
 21
351.694
 31
0.0
  0
LINE
  8
LC-007-005-----0
  6
DASHED
  5
12D
 10
257.917439
 20
353.02282
 30
0.0
 11
255.417439
 21
355.52282
 31
0.0
  0
LINE
  8
LC-007-005-----0
  6
DASHED
  5
12E
 10
260.417832
 20
347.694
 30
0.0
 11
255.417439
 21
352.694393
 31
0.0
  0
ENDBLK
  8
0
  5
12F
  0
BLOCK
  8
0
  5
131
  2
*X15
 70
    65
 10
229.84927
 20
408.194
 30
0.0
  3
*X15
  0
LINE
  8
LC-007-005-----0
  6
CONTINUOUS
  5
132
 10
294.503868
 20
409.774486
 30
0.0
 11
293.584354
 21
410.694
 31
0.0
  0
LINE
  8
LC-007-005-----0
  6
CONTINUOUS
  5
133
 10
293.255927
 20
408.194
 30
0.0
 11
290.755927
 21
410.694
 31
0.0
  0
LINE
  8
LC-007-005-----0
  6
CONTINUOUS
  5
134
 10
290.4275
 20
408.194
 30
0.0
 11
287.9275
 21
410.694
 31
0.0
  0
LINE
  8
LC-007-005-----0
  6
CONTINUOUS
  5
135
 10
287.599073
 20
408.194
 30
0.0
 11
285.099073
 21
410.694
 31
0.0
  0
LINE
  8
LC-007-005-----0
  6
CONTINUOUS
  5
136
 10
284.770646
 20
408.194
 30
0.0
 11
282.270646
 21
410.694
 31
0.0
  0
LINE
  8
LC-007-005-----0
  6
CONTINUOUS
  5
137
 10
281.942218
 20
408.194
 30
0.0
 11
279.442218
 21
410.694
 31
0.0
  0
LINE
  8
LC-007-005-----0
  6
CONTINUOUS
  5
138
 10
279.113791
 20
408.194
 30
0.0
 11
276.613791
 21
410.694
 31
0.0
  0
LINE
  8
LC-007-005-----0
  6
CONTINUOUS
  5
139
 10
276.285364
 20
408.194
 30
0.0
 11
273.785364
 21
410.694
 31
0.0
  0
LINE
  8
LC-007-005-----0
  6
CONTINUOUS
  5
13A
 10
273.456937
 20
408.194
 30
0.0
 11
270.956937
 21
410.694
 31
0.0
  0
LINE
  8
LC-007-005-----0
  6
CONTINUOUS
  5
13B
 10
270.62851
 20
408.194
 30
0.0
 11
268.12851
 21
410.694
 31
0.0
  0
LINE
  8
LC-007-005-----0
  6
CONTINUOUS
  5
13C
 10
267.800083
 20
408.194
 30
0.0
 11
265.300083
 21
410.694
 31
0.0
  0
LINE
  8
LC-007-005-----0
  6
CONTINUOUS
  5
13D
 10
264.971656
 20
408.194
 30
0.0
 11
262.471656
 21
410.694
 31
0.0
  0
LINE
  8
LC-007-005-----0
  6
CONTINUOUS
  5
13E
 10
262.143229
 20
408.194
 30
0.0
 11
259.643229
 21
410.694
 31
0.0
  0
LINE
  8
LC-007-005-----0
  6
CONTINUOUS
  5
13F
 10
259.314801
 20
408.194
 30
0.0
 11
256.814801
 21
410.694
 31
0.0
  0
LINE
  8
LC-007-005-----0
  6
CONTINUOUS
  5
140
 10
256.486374
 20
408.194
 30
0.0
 11
253.986374
 21
410.694
 31
0.0
  0
LINE
  8
LC-007-005-----0
  6
CONTINUOUS
  5
141
 10
253.657947
 20
408.194
 30
0.0
 11
251.157947
 21
410.694
 31
0.0
  0
LINE
  8
LC-007-005-----0
  6
CONTINUOUS
  5
142
 10
250.82952
 20
408.194
 30
0.0
 11
248.32952
 21
410.694
 31
0.0
  0
LINE
  8
LC-007-005-----0
  6
CONTINUOUS
  5
143
 10
248.001093
 20
408.194
 30
0.0
 11
245.501093
 21
410.694
 31
0.0
  0
LINE
  8
LC-007-005-----0
  6
CONTINUOUS
  5
144
 10
245.172666
 20
408.194
 30
0.0
 11
242.672666
 21
410.694
 31
0.0
  0
LINE
  8
LC-007-005-----0
  6
CONTINUOUS
  5
145
 10
242.344239
 20
408.194
 30
0.0
 11
239.844239
 21
410.694
 31
0.0
  0
LINE
  8
LC-007-005-----0
  6
CONTINUOUS
  5
146
 10
239.515812
 20
408.194
 30
0.0
 11
237.015812
 21
410.694
 31
0.0
  0
LINE
  8
LC-007-005-----0
  6
CONTINUOUS
  5
147
 10
236.687384
 20
408.194
 30
0.0
 11
234.187384
 21
410.694
 31
0.0
  0
LINE
  8
LC-007-005-----0
  6
CONTINUOUS
  5
148
 10
233.858957
 20
408.194
 30
0.0
 11
231.358957
 21
410.694
 31
0.0
  0
LINE
  8
LC-007-005-----0
  6
CONTINUOUS
  5
149
 10
231.03053
 20
408.194
 30
0.0
 11
230.074922
 21
409.149608
 31
0.0
  0
ENDBLK
  8
0
  5
14A
  0
BLOCK
  8
0
  5
14C
  2
*X16
 70
    65
 10
227.611341
 20
362.584622
 30
0.0
  3
*X16
  0
LINE
  8
LC-007-005-----0
  6
CONTINUOUS
  5
14D
 10
294.503868
 20
364.519652
 30
0.0
 11
293.82952
 21
365.194
 31
0.0
  0
LINE
  8
LC-007-005-----0
  6
CONTINUOUS
  5
14E
 10
293.501093
 20
362.694
 30
0.0
 11
291.001093
 21
365.194
 31
0.0
  0
LINE
  8
LC-007-005-----0
  6
CONTINUOUS
  5
14F
 10
290.672666
 20
362.694
 30
0.0
 11
288.172666
 21
365.194
 31
0.0
  0
LINE
  8
LC-007-005-----0
  6
CONTINUOUS
  5
150
 10
287.844239
 20
362.694
 30
0.0
 11
285.344239
 21
365.194
 31
0.0
  0
LINE
  8
LC-007-005-----0
  6
CONTINUOUS
  5
151
 10
285.015812
 20
362.694
 30
0.0
 11
282.515812
 21
365.194
 31
0.0
  0
LINE
  8
LC-007-005-----0
  6
CONTINUOUS
  5
152
 10
282.187384
 20
362.694
 30
0.0
 11
279.687384
 21
365.194
 31
0.0
  0
LINE
  8
LC-007-005-----0
  6
CONTINUOUS
  5
153
 10
279.358957
 20
362.694
 30
0.0
 11
276.858957
 21
365.194
 31
0.0
  0
LINE
  8
LC-007-005-----0
  6
CONTINUOUS
  5
154
 10
276.53053
 20
362.694
 30
0.0
 11
274.03053
 21
365.194
 31
0.0
  0
LINE
  8
LC-007-005-----0
  6
CONTINUOUS
  5
155
 10
273.702103
 20
362.694
 30
0.0
 11
271.202103
 21
365.194
 31
0.0
  0
LINE
  8
LC-007-005-----0
  6
CONTINUOUS
  5
156
 10
270.873676
 20
362.694
 30
0.0
 11
268.373676
 21
365.194
 31
0.0
  0
LINE
  8
LC-007-005-----0
  6
CONTINUOUS
  5
157
 10
268.045249
 20
362.694
 30
0.0
 11
265.545249
 21
365.194
 31
0.0
  0
LINE
  8
LC-007-005-----0
  6
CONTINUOUS
  5
158
 10
265.216822
 20
362.694
 30
0.0
 11
262.716822
 21
365.194
 31
0.0
  0
LINE
  8
LC-007-005-----0
  6
CONTINUOUS
  5
159
 10
262.388395
 20
362.694
 30
0.0
 11
259.888395
 21
365.194
 31
0.0
  0
LINE
  8
LC-007-005-----0
  6
CONTINUOUS
  5
15A
 10
259.559967
 20
362.694
 30
0.0
 11
257.059967
 21
365.194
 31
0.0
  0
LINE
  8
LC-007-005-----0
  6
CONTINUOUS
  5
15B
 10
256.73154
 20
362.694
 30
0.0
 11
254.23154
 21
365.194
 31
0.0
  0
LINE
  8
LC-007-005-----0
  6
CONTINUOUS
  5
15C
 10
253.903113
 20
362.694
 30
0.0
 11
251.403113
 21
365.194
 31
0.0
  0
LINE
  8
LC-007-005-----0
  6
CONTINUOUS
  5
15D
 10
251.074686
 20
362.694
 30
0.0
 11
248.574686
 21
365.194
 31
0.0
  0
LINE
  8
LC-007-005-----0
  6
CONTINUOUS
  5
15E
 10
248.246259
 20
362.694
 30
0.0
 11
245.746259
 21
365.194
 31
0.0
  0
LINE
  8
LC-007-005-----0
  6
CONTINUOUS
  5
15F
 10
245.417832
 20
362.694
 30
0.0
 11
242.917832
 21
365.194
 31
0.0
  0
LINE
  8
LC-007-005-----0
  6
CONTINUOUS
  5
160
 10
242.589405
 20
362.694
 30
0.0
 11
240.089405
 21
365.194
 31
0.0
  0
LINE
  8
LC-007-005-----0
  6
CONTINUOUS
  5
161
 10
239.760978
 20
362.694
 30
0.0
 11
237.260978
 21
365.194
 31
0.0
  0
LINE
  8
LC-007-005-----0
  6
CONTINUOUS
  5
162
 10
236.93255
 20
362.694
 30
0.0
 11
234.43255
 21
365.194
 31
0.0
  0
LINE
  8
LC-007-005-----0
  6
CONTINUOUS
  5
163
 10
234.104123
 20
362.694
 30
0.0
 11
231.604123
 21
365.194
 31
0.0
  0
LINE
  8
LC-007-005-----0
  6
CONTINUOUS
  5
164
 10
231.275696
 20
362.694
 30
0.0
 11
228.805673
 21
365.164023
 31
0.0
  0
LINE
  8
LC-007-005-----0
  6
CONTINUOUS
  5
165
 10
228.52145
 20
362.619819
 30
0.0
 11
227.910517
 21
363.230752
 31
0.0
  0
ENDBLK
  8
0
  5
166
  0
BLOCK
  8
0
  5
168
  2
*D17
 70
    65
 10
0.0
 20
0.0
 30
0.0
  3
*D17
  0
LINE
  8
LC-002-003-MTH-0
  6
CONTINUOUS
  5
169
 10
227.611341
 20
362.584622
 30
0.0
 11
181.7
 21
362.584622
 31
0.0
  0
LINE
  8
LC-002-003-MTH-0
  6
CONTINUOUS
  5
16A
 10
230.439606
 20
410.694
 30
0.0
 11
181.7
 21
410.694
 31
0.0
  0
LINE
  8
LC-001-003-----0
  6
CONTINUOUS
  5
16B
 10
194.849471
 20
344.738614
 30
0.0
 11
192.5
 21
362.584622
 31
0.0
  0
LINE
  8
LC-001-003-----0
  6
CONTINUOUS
  5
16C
 10
192.5
 20
362.584622
 30
0.0
 11
190.150529
 21
344.738614
 31
0.0
  0
LINE
  8
LC-001-003-----0
  6
CONTINUOUS
  5
16D
 10
190.150529
 20
344.738614
 30
0.0
 11
194.849471
 21
344.738614
 31
0.0
  0
LINE
  8
LC-001-003-----0
  6
CONTINUOUS
  5
16E
 10
194.238609
 20
344.698576
 30
0.0
 11
192.5
 21
357.904622
 31
0.0
  0
LINE
  8
LC-001-003-----0
  6
CONTINUOUS
  5
16F
 10
192.5
 20
357.904622
 30
0.0
 11
190.761391
 21
344.698576
 31
0.0
  0
LINE
  8
LC-001-003-----0
  6
CONTINUOUS
  5
170
 10
193.627746
 20
344.658538
 30
0.0
 11
192.5
 21
353.224622
 31
0.0
  0
LINE
  8
LC-001-003-----0
  6
CONTINUOUS
  5
171
 10
192.5
 20
353.224622
 30
0.0
 11
191.372254
 21
344.658538
 31
0.0
  0
LINE
  8
LC-001-003-----0
  6
CONTINUOUS
  5
172
 10
193.016884
 20
344.6185
 30
0.0
 11
192.5
 21
348.544622
 31
0.0
  0
LINE
  8
LC-001-003-----0
  6
CONTINUOUS
  5
173
 10
192.5
 20
348.544622
 30
0.0
 11
191.983116
 21
344.6185
 31
0.0
  0
LINE
  8
LC-001-003-----0
  6
CONTINUOUS
  5
174
 10
190.150529
 20
428.540008
 30
0.0
 11
192.5
 21
410.694
 31
0.0
  0
LINE
  8
LC-001-003-----0
  6
CONTINUOUS
  5
175
 10
192.5
 20
410.694
 30
0.0
 11
194.849471
 21
428.540008
 31
0.0
  0
LINE
  8
LC-001-003-----0
  6
CONTINUOUS
  5
176
 10
194.849471
 20
428.540008
 30
0.0
 11
190.150529
 21
428.540008
 31
0.0
  0
LINE
  8
LC-001-003-----0
  6
CONTINUOUS
  5
177
 10
190.761391
 20
428.580046
 30
0.0
 11
192.5
 21
415.374
 31
0.0
  0
LINE
  8
LC-001-003-----0
  6
CONTINUOUS
  5
178
 10
192.5
 20
415.374
 30
0.0
 11
194.238609
 21
428.580046
 31
0.0
  0
LINE
  8
LC-001-003-----0
  6
CONTINUOUS
  5
179
 10
191.372254
 20
428.620084
 30
0.0
 11
192.5
 21
420.054
 31
0.0
  0
LINE
  8
LC-001-003-----0
  6
CONTINUOUS
  5
17A
 10
192.5
 20
420.054
 30
0.0
 11
193.627746
 21
428.620084
 31
0.0
  0
LINE
  8
LC-001-003-----0
  6
CONTINUOUS
  5
17B
 10
191.983116
 20
428.660122
 30
0.0
 11
192.5
 21
424.734
 31
0.0
  0
LINE
  8
LC-001-003-----0
  6
CONTINUOUS
  5
17C
 10
192.5
 20
424.734
 30
0.0
 11
193.016884
 21
428.660122
 31
0.0
  0
LINE
  8
LC-003-003-MTG-0
  6
CONTINUOUS
  5
17D
 10
192.5
 20
288.382102
 30
0.0
 11
192.5
 21
435.894
 31
0.0
  0
TEXT
  8
LC-001-003-----0
  6
CONTINUOUS
 62
     6
  5
17E
 10
182.068001
 20
306.458922
 30
0.0
 40
18.0
  1
Ø50
 50
90.0
 51
15.0
  7
LC-TXTSTYLE-150-400-0-0-D0
 72
     2
 11
182.068001
 21
340.899867
 31
0.0
  0
ENDBLK
  8
0
  5
17F
  0
BLOCK
  8
0
  5
181
  2
*X18
 70
    65
 10
311.131695
 20
166.041412
 30
0.0
  3
*X18
  0
LINE
  8
LC-007-005-----0
  6
CONTINUOUS
  5
182
 10
317.572604
 20
166.817438
 30
0.0
 11
317.68865
 21
166.933484
 31
0.0
  0
LINE
  8
LC-007-005-----0
  6
CONTINUOUS
  5
183
 10
317.251015
 20
166.778692
 30
0.0
 11
317.62844
 21
167.156117
 31
0.0
  0
LINE
  8
LC-007-005-----0
  6
CONTINUOUS
  5
184
 10
316.929426
 20
166.739946
 30
0.0
 11
317.56823
 21
167.378749
 31
0.0
  0
LINE
  8
LC-007-005-----0
  6
CONTINUOUS
  5
185
 10
316.607837
 20
166.701199
 30
0.0
 11
317.508019
 21
167.601382
 31
0.0
  0
LINE
  8
LC-007-005-----0
  6
CONTINUOUS
  5
186
 10
316.286248
 20
166.662453
 30
0.0
 11
317.447809
 21
167.824014
 31
0.0
  0
LINE
  8
LC-007-005-----0
  6
CONTINUOUS
  5
187
 10
315.964659
 20
166.623707
 30
0.0
 11
317.387599
 21
168.046647
 31
0.0
  0
LINE
  8
LC-007-005-----0
  6
CONTINUOUS
  5
188
 10
315.64307
 20
166.58496
 30
0.0
 11
317.327389
 21
168.269279
 31
0.0
  0
LINE
  8
LC-007-005-----0
  6
CONTINUOUS
  5
189
 10
315.321481
 20
166.546214
 30
0.0
 11
317.267179
 21
168.491912
 31
0.0
  0
LINE
  8
LC-007-005-----0
  6
CONTINUOUS
  5
18A
 10
314.999892
 20
166.507468
 30
0.0
 11
317.206969
 21
168.714545
 31
0.0
  0
LINE
  8
LC-007-005-----0
  6
CONTINUOUS
  5
18B
 10
314.678303
 20
166.468721
 30
0.0
 11
317.146759
 21
168.937177
 31
0.0
  0
LINE
  8
LC-007-005-----0
  6
CONTINUOUS
  5
18C
 10
314.356714
 20
166.429975
 30
0.0
 11
317.057521
 21
169.130783
 31
0.0
  0
LINE
  8
LC-007-005-----0
  6
CONTINUOUS
  5
18D
 10
314.035125
 20
166.391229
 30
0.0
 11
316.466616
 21
168.82272
 31
0.0
  0
LINE
  8
LC-007-005-----0
  6
CONTINUOUS
  5
18E
 10
313.713536
 20
166.352482
 30
0.0
 11
315.875711
 21
168.514657
 31
0.0
  0
LINE
  8
LC-007-005-----0
  6
CONTINUOUS
  5
18F
 10
313.391947
 20
166.313736
 30
0.0
 11
315.284805
 21
168.206595
 31
0.0
  0
LINE
  8
LC-007-005-----0
  6
CONTINUOUS
  5
190
 10
313.070357
 20
166.27499
 30
0.0
 11
314.6939
 21
167.898532
 31
0.0
  0
LINE
  8
LC-007-005-----0
  6
CONTINUOUS
  5
191
 10
312.748768
 20
166.236243
 30
0.0
 11
314.102994
 21
167.590469
 31
0.0
  0
LINE
  8
LC-007-005-----0
  6
CONTINUOUS
  5
192
 10
312.427179
 20
166.197497
 30
0.0
 11
313.512089
 21
167.282407
 31
0.0
  0
LINE
  8
LC-007-005-----0
  6
CONTINUOUS
  5
193
 10
312.10559
 20
166.158751
 30
0.0
 11
312.921184
 21
166.974344
 31
0.0
  0
LINE
  8
LC-007-005-----0
  6
CONTINUOUS
  5
194
 10
311.784001
 20
166.120004
 30
0.0
 11
312.330278
 21
166.666281
 31
0.0
  0
LINE
  8
LC-007-005-----0
  6
CONTINUOUS
  5
195
 10
311.462412
 20
166.081258
 30
0.0
 11
311.739373
 21
166.358218
 31
0.0
  0
LINE
  8
LC-007-005-----0
  6
CONTINUOUS
  5
196
 10
311.140823
 20
166.042512
 30
0.0
 11
311.148467
 21
166.050156
 31
0.0
  0
ENDBLK
  8
0
  5
197
  0
BLOCK
  8
0
  5
199
  2
*X19
 70
    65
 10
345.301385
 20
178.059244
 30
0.0
  3
*X19
  0
LINE
  8
LC-007-005-----0
  6
CONTINUOUS
  5
19A
 10
349.330845
 20
180.473746
 30
0.0
 11
351.176524
 21
182.319425
 31
0.0
  0
LINE
  8
LC-007-005-----0
  6
CONTINUOUS
  5
19B
 10
346.726833
 20
178.152577
 30
0.0
 11
350.71674
 21
182.142483
 31
0.0
  0
LINE
  8
LC-007-005-----0
  6
CONTINUOUS
  5
19C
 10
346.514132
 20
178.222718
 30
0.0
 11
350.256956
 21
181.965542
 31
0.0
  0
LINE
  8
LC-007-005-----0
  6
CONTINUOUS
  5
19D
 10
346.401612
 20
178.393041
 30
0.0
 11
349.797172
 21
181.788601
 31
0.0
  0
LINE
  8
LC-007-005-----0
  6
CONTINUOUS
  5
19E
 10
346.289092
 20
178.563363
 30
0.0
 11
349.337388
 21
181.61166
 31
0.0
  0
LINE
  8
LC-007-005-----0
  6
CONTINUOUS
  5
19F
 10
346.176572
 20
178.733686
 30
0.0
 11
348.877604
 21
181.434718
 31
0.0
  0
LINE
  8
LC-007-005-----0
  6
CONTINUOUS
  5
1A0
 10
346.064052
 20
178.904009
 30
0.0
 11
348.41782
 21
181.257777
 31
0.0
  0
LINE
  8
LC-007-005-----0
  6
CONTINUOUS
  5
1A1
 10
345.951531
 20
179.074331
 30
0.0
 11
347.958036
 21
181.080836
 31
0.0
  0
LINE
  8
LC-007-005-----0
  6
CONTINUOUS
  5
1A2
 10
345.839011
 20
179.244654
 30
0.0
 11
347.498252
 21
180.903894
 31
0.0
  0
LINE
  8
LC-007-005-----0
  6
CONTINUOUS
  5
1A3
 10
345.726491
 20
179.414976
 30
0.0
 11
347.038468
 21
180.726953
 31
0.0
  0
LINE
  8
LC-007-005-----0
  6
CONTINUOUS
  5
1A4
 10
345.613971
 20
179.585299
 30
0.0
 11
346.578684
 21
180.550012
 31
0.0
  0
LINE
  8
LC-007-005-----0
  6
CONTINUOUS
  5
1A5
 10
345.501451
 20
179.755621
 30
0.0
 11
346.1189
 21
180.373071
 31
0.0
  0
LINE
  8
LC-007-005-----0
  6
CONTINUOUS
  5
1A6
 10
345.388931
 20
179.925944
 30
0.0
 11
345.659116
 21
180.196129
 31
0.0
  0
ENDBLK
  8
0
  5
1A7
  0
BLOCK
  8
0
  5
1A9
  2
*D20
 70
    65
 10
0.0
 20
0.0
 30
0.0
  3
*D20
  0
LINE
  8
LC-002-003-MTH-0
  6
CONTINUOUS
  5
1AA
 10
472.210253
 20
406.694
 30
0.0
 11
472.210253
 21
500.8
 31
0.0
  0
LINE
  8
LC-002-003-MTH-0
  6
CONTINUOUS
  5
1AB
 10
565.210253
 20
406.694
 30
0.0
 11
565.210253
 21
500.8
 31
0.0
  0
LINE
  8
LC-003-003-MTG-0
  6
CONTINUOUS
  5
1AC
 10
472.210253
 20
490.0
 30
0.0
 11
565.210253
 21
490.0
 31
0.0
  0
LINE
  8
LC-001-003-----0
  6
CONTINUOUS
  5
1AD
 10
490.05626
 20
492.349471
 30
0.0
 11
472.210253
 21
490.0
 31
0.0
  0
LINE
  8
LC-001-003-----0
  6
CONTINUOUS
  5
1AE
 10
472.210253
 20
490.0
 30
0.0
 11
490.05626
 21
487.650529
 31
0.0
  0
LINE
  8
LC-001-003-----0
  6
CONTINUOUS
  5
1AF
 10
490.05626
 20
487.650529
 30
0.0
 11
490.05626
 21
492.349471
 31
0.0
  0
LINE
  8
LC-001-003-----0
  6
CONTINUOUS
  5
1B0
 10
490.096299
 20
491.738609
 30
0.0
 11
476.890253
 21
490.0
 31
0.0
  0
LINE
  8
LC-001-003-----0
  6
CONTINUOUS
  5
1B1
 10
476.890253
 20
490.0
 30
0.0
 11
490.096299
 21
488.261391
 31
0.0
  0
LINE
  8
LC-001-003-----0
  6
CONTINUOUS
  5
1B2
 10
490.136337
 20
491.127746
 30
0.0
 11
481.570253
 21
490.0
 31
0.0
  0
LINE
  8
LC-001-003-----0
  6
CONTINUOUS
  5
1B3
 10
481.570253
 20
490.0
 30
0.0
 11
490.136337
 21
488.872254
 31
0.0
  0
LINE
  8
LC-001-003-----0
  6
CONTINUOUS
  5
1B4
 10
490.176375
 20
490.516884
 30
0.0
 11
486.250253
 21
490.0
 31
0.0
  0
LINE
  8
LC-001-003-----0
  6
CONTINUOUS
  5
1B5
 10
486.250253
 20
490.0
 30
0.0
 11
490.176375
 21
489.483116
 31
0.0
  0
LINE
  8
LC-001-003-----0
  6
CONTINUOUS
  5
1B6
 10
547.364245
 20
487.650529
 30
0.0
 11
565.210253
 21
490.0
 31
0.0
  0
LINE
  8
LC-001-003-----0
  6
CONTINUOUS
  5
1B7
 10
565.210253
 20
490.0
 30
0.0
 11
547.364245
 21
492.349471
 31
0.0
  0
LINE
  8
LC-001-003-----0
  6
CONTINUOUS
  5
1B8
 10
547.364245
 20
492.349471
 30
0.0
 11
547.364245
 21
487.650529
 31
0.0
  0
LINE
  8
LC-001-003-----0
  6
CONTINUOUS
  5
1B9
 10
547.324207
 20
488.261391
 30
0.0
 11
560.530253
 21
490.0
 31
0.0
  0
LINE
  8
LC-001-003-----0
  6
CONTINUOUS
  5
1BA
 10
560.530253
 20
490.0
 30
0.0
 11
547.324207
 21
491.738609
 31
0.0
  0
LINE
  8
LC-001-003-----0
  6
CONTINUOUS
  5
1BB
 10
547.284169
 20
488.872254
 30
0.0
 11
555.850253
 21
490.0
 31
0.0
  0
LINE
  8
LC-001-003-----0
  6
CONTINUOUS
  5
1BC
 10
555.850253
 20
490.0
 30
0.0
 11
547.284169
 21
491.127746
 31
0.0
  0
LINE
  8
LC-001-003-----0
  6
CONTINUOUS
  5
1BD
 10
547.244131
 20
489.483116
 30
0.0
 11
551.170253
 21
490.0
 31
0.0
  0
LINE
  8
LC-001-003-----0
  6
CONTINUOUS
  5
1BE
 10
551.170253
 20
490.0
 30
0.0
 11
547.244131
 21
490.516884
 31
0.0
  0
TEXT
  8
LC-001-003-----0
  6
CONTINUOUS
 62
     6
  5
1BF
 10
509.642507
 20
500.431999
 30
0.0
 40
18.0
  1
93
 51
15.0
  7
LC-TXTSTYLE-150-400-0-0-D0
 72
     1
 11
521.505499
 21
500.431999
 31
0.0
  0
ENDBLK
  8
0
  5
1C0
  0
BLOCK
  8
0
  5
1C2
  2
BLK4
 70
    64
 10
0.0
 20
0.0
 30
0.0
  3
BLK4
  0
ENDBLK
  8
0
  5
1C3
  0
BLOCK
  8
0
  5
1C5
  2
BLK5
 70
    64
 10
0.0
 20
0.0
 30
0.0
  3
BLK5
  0
ENDBLK
  8
0
  5
1C6
  0
ENDSEC
  0
SECTION
  2
ENTITIES
  0
VIEWPORT
  8
LC-000
  5
356
 67
     1
 68
     1
 10
420.0
 20
297.0
 30
0.0
 40
840.0
 41
594.0
 69
     1
1001
ACAD
1000
MVIEW
1002
{
1070
    16
1010
0.0
1020
0.0
1030
0.0
1010
0.0
1020
0.0
1030
1.0
1040
0.0
1040
594.0
1040
420.0
1040
297.0
1040
50.0
1040
0.0
1040
0.0
1070
     0
1070
   100
1070
     1
1070
     1
1070
     0
1070
     0
1070
     0
1070
     0
1040
0.0
1040
0.0
1040
0.0
1040
1.0
1040
1.0
1040
0.0
1040
0.0
1070
     0
1002
{
1002
}
1002
}
  0
VIEWPORT
  8
0
  5
357
 67
     1
 68
     1
 10
0.0
 20
0.0
 30
0.0
 40
0.0
 41
0.0
 69
     1
1001
ACAD
1000
MVIEW
1002
{
1070
    16
1010
0.0
1020
0.0
1030
0.0
1010
0.0
1020
0.0
1030
1.0
1040
0.0
1040
594.0
1040
0.0
1040
0.0
1040
50.0
1040
0.0
1040
0.0
1070
     0
1070
   100
1070
     0
1070
     1
1070
     0
1070
     0
1070
     0
1070
     0
1040
0.0
1040
0.0
1040
0.0
1040
0.5
1040
0.5
1040
0.5
1040
0.5
1070
     0
1002
{
1002
}
1002
}
  0
DIMENSION
  8
0
  5
1C7
  2
*D0
 10
434.0
 20
313.439562
 30
0.0
 11
434.0
 21
313.439562
 31
0.0
 13
335.417439
 23
465.939562
 33
0.0
 14
299.479616
 24
160.939562
 34
0.0
 50
90.0
  3
LC-DIM-L-0090-02-02
  0
DIMENSION
  8
0
  5
1C8
  2
*D1
 10
307.917439
 20
126.0
 30
0.0
 11
307.917439
 21
126.0
 31
0.0
 13
280.417439
 23
160.939562
 33
0.0
 14
335.417439
 24
292.694
 34
0.0
  3
LC-DIM-L-0090-02-02
  0
DIMENSION
  8
0
  5
1C9
  2
*D2
 10
513.710253
 20
126.0
 30
0.0
 11
513.710253
 21
126.0
 31
0.0
  1
DN40
 13
493.710253
 23
164.439562
 33
0.0
 14
533.710253
 24
164.439562
 34
0.0
  3
LC-DIM-L-0090-02-02
  0
INSERT
  8
0
  5
1CA
  2
*X3
 10
332.917439
 20
462.439562
 30
0.0
  0
DIMENSION
  8
0
  5
1CB
  2
*D4
 10
542.03824
 20
540.0
 30
0.0
 11
542.03824
 21
540.0
 31
0.0
 13
465.710253
 23
394.194
 33
0.0
 14
571.710253
 24
394.194
 34
0.0
  3
LC-DIM-L-0090-02-02
  0
DIMENSION
  8
0
  5
1CC
  2
*D5
 10
612.0
 20
422.928
 30
0.0
 11
612.0
 21
422.928
 31
0.0
 13
526.210253
 23
459.689562
 33
0.0
 14
578.210253
 24
386.694
 34
0.0
 50
90.0
  3
LC-DIM-L-0090-02-02
  0
DIMENSION
  8
0
  5
1CD
  2
*D6
 10
249.146464
 20
468.0
 30
0.0
 11
249.146464
 21
468.0
 31
0.0
 13
255.417439
 23
425.694
 33
0.0
 14
295.417439
 24
448.194
 34
0.0
  3
LC-DIM-L-0090-02-02
  0
INSERT
  8
0
  5
1CF
  2
BLK1
 10
0.0
 20
0.0
 30
0.0
  0
DIMENSION
  8
0
  5
1D0
  2
*D8
 10
323.010525
 20
490.0
 30
0.0
 11
323.010525
 21
490.0
 31
0.0
 13
295.417439
 23
448.194
 33
0.0
 14
335.417439
 24
465.939562
 34
0.0
  3
LC-DIM-L-0090-02-02
  0
DIMENSION
  8
0
  5
1D1
  2
*D9
 10
392.0
 20
344.194
 30
0.0
 11
392.0
 21
344.194
 31
0.0
  1
80
 13
295.417439
 23
386.694
 33
0.0
 14
305.417439
 24
301.694
 34
0.0
 50
90.0
  3
LC-DIM-L-0090-02-02
  0
INSERT
  8
0
  5
1D2
  2
*X10
 10
333.117439
 20
357.600166
 30
0.0
  0
INSERT
  8
0
  5
1D3
  2
BLK2
 10
0.0
 20
0.0
 30
0.0
  0
INSERT
  8
0
  5
1D4
  2
*X12
 10
255.417439
 20
410.694
 30
0.0
  0
INSERT
  8
0
  5
1D5
  2
BLK3
 10
0.0
 20
0.0
 30
0.0
  0
INSERT
  8
0
  5
1D6
  2
*X14
 10
255.417439
 20
347.694
 30
0.0
  0
INSERT
  8
0
  5
1D7
  2
*X15
 10
229.84927
 20
408.194
 30
0.0
  0
INSERT
  8
0
  5
1D8
  2
*X16
 10
227.611341
 20
362.584622
 30
0.0
  0
DIMENSION
  8
0
  5
1D9
  2
*D17
 10
192.5
 20
357.588
 30
0.0
 11
192.5
 21
357.588
 31
0.0
  1
%%c50
 13
230.439606
 23
410.694
 33
0.0
 14
227.611341
 24
362.584622
 34
0.0
 50
90.0
  3
LC-DIM-L-0090-02-02
  0
INSERT
  8
0
  5
1DA
  2
*X18
 10
311.131695
 20
166.041412
 30
0.0
  0
INSERT
  8
0
  5
1DB
  2
*X19
 10
345.301385
 20
178.059244
 30
0.0
  0
DIMENSION
  8
0
  5
1DC
  2
*D20
 10
518.710253
 20
490.0
 30
0.0
 11
518.710253
 21
490.0
 31
0.0
 13
472.210253
 23
406.694
 33
0.0
 14
565.210253
 24
406.694
 34
0.0
  3
LC-DIM-L-0090-02-02
  0
INSERT
  8
0
  5
1DD
  2
BLK4
 10
0.0
 20
0.0
 30
0.0
  0
INSERT
  8
0
  5
1DE
  2
BLK5
 10
0.0
 20
0.0
 30
0.0
  0
LINE
  8
LC-004-002-----0
  5
1E1
 10
513.710253
 20
253.879705
 30
0.0
 11
513.710253
 21
160.939562
 31
0.0
  0
CIRCLE
  8
LC-004-002-----0
  6
CONTINUOUS
 62
     1
  5
1E2
 10
518.710253
 20
386.694
 30
0.0
 40
38.5
  0
CIRCLE
  8
LC-004-002-----0
  6
CONTINUOUS
 62
     1
  5
1E3
 10
518.710253
 20
386.694
 30
0.0
 40
30.0
  0
LINE
  8
LC-004-002-----0
  6
CONTINUOUS
 62
     1
  5
1E4
 10
522.710253
 20
364.13319
 30
0.0
 11
522.710253
 21
365.530217
 31
0.0
  0
LINE
  8
LC-004-002-----0
  6
CONTINUOUS
 62
     1
  5
1E5
 10
514.710253
 20
364.13319
 30
0.0
 11
514.710253
 21
365.530217
 31
0.0
  0
LINE
  8
LC-004-002-----0
  6
DASHED
  5
1E6
 10
363.328847
 20
190.498321
 30
0.0
 11
366.466861
 21
188.686587
 31
0.0
  0
CIRCLE
  8
LC-004-002-----0
  6
CONTINUOUS
 62
     1
  5
1E7
 10
518.710253
 20
386.694
 30
0.0
 40
23.0
  0
LINE
  8
LC-004-002-----0
  6
CONTINUOUS
 62
     1
  5
1E8
 10
537.710253
 20
373.732519
 30
0.0
 11
537.710253
 21
386.694
 31
0.0
  0
LINE
  8
LC-004-002-----0
  6
CONTINUOUS
 62
     1
  5
1E9
 10
578.210253
 20
380.694
 30
0.0
 11
578.210253
 21
392.694
 31
0.0
  0
LINE
  8
LC-004-002-----0
  6
CONTINUOUS
 62
     1
  5
1EA
 10
573.210253
 20
397.694
 30
0.0
 11
565.210253
 21
397.694
 31
0.0
  0
LINE
  8
LC-004-002-----0
  6
CONTINUOUS
 62
     1
  5
1EB
 10
499.710253
 20
373.732519
 30
0.0
 11
499.710253
 21
386.694
 31
0.0
  0
LINE
  8
LC-004-002-----0
  6
CONTINUOUS
 62
     1
  5
1EC
 10
573.210253
 20
375.694
 30
0.0
 11
565.210253
 21
375.694
 31
0.0
  0
ARC
  8
LC-005-002-RND-0
  6
CONTINUOUS
  5
1EE
 10
573.210253
 20
392.694
 30
0.0
 40
5.0
 50
0.0
 51
90.0
  0
ARC
  8
LC-005-002-RND-0
  6
CONTINUOUS
  5
1EF
 10
573.210253
 20
380.694
 30
0.0
 40
5.0
 50
270.0
 51
0.0
  0
LINE
  8
LC-006-100-D08-0
  6
CONTINUOUS
  5
1F1
 10
574.460253
 20
391.444
 30
0.0
 11
574.460253
 21
381.944
 31
0.0
  0
ARC
  8
LC-006-100-D08-0
  6
CONTINUOUS
  5
1F2
 10
571.710253
 20
381.944
 30
0.0
 40
2.75
 50
180.0
 51
0.0
  0
LINE
  8
LC-006-100-D08-0
  6
CONTINUOUS
  5
1F3
 10
568.960253
 20
391.444
 30
0.0
 11
568.960253
 21
381.944
 31
0.0
  0
ARC
  8
LC-006-100-D08-0
  6
CONTINUOUS
  5
1F4
 10
571.710253
 20
391.444
 30
0.0
 40
2.75
 50
0.0
 51
180.0
  0
LINE
  8
LC-006-100-D08-0
  6
DASHDOT
 62
     2
  5
1F5
 10
571.710253
 20
394.194
 30
0.0
 11
571.710253
 21
379.194
 31
0.0
  0
ARC
  8
LC-004-002-----0
  6
CONTINUOUS
 62
     1
  5
1F6
 10
518.710253
 20
386.694
 30
0.0
 40
19.0
 50
360.0
 51
180.0
  0
LINE
  8
LC-004-002-----0
  6
CONTINUOUS
 62
     1
  5
1F7
 10
459.210253
 20
380.694
 30
0.0
 11
459.210253
 21
392.694
 31
0.0
  0
ARC
  8
LC-005-002-RND-0
  6
CONTINUOUS
  5
1F8
 10
464.210253
 20
392.694
 30
0.0
 40
5.0
 50
90.0
 51
180.0
  0
ARC
  8
LC-005-002-RND-0
  6
CONTINUOUS
  5
1F9
 10
464.210253
 20
380.694
 30
0.0
 40
5.0
 50
180.0
 51
270.0
  0
LINE
  8
LC-006-100-D08-0
  6
CONTINUOUS
  5
1FA
 10
462.960253
 20
391.444
 30
0.0
 11
462.960253
 21
381.944
 31
0.0
  0
ARC
  8
LC-006-100-D08-0
  6
CONTINUOUS
  5
1FB
 10
465.710253
 20
381.944
 30
0.0
 40
2.75
 50
180.0
 51
0.0
  0
LINE
  8
LC-004-002-----0
  6
CONTINUOUS
 62
     1
  5
1FC
 10
335.417439
 20
462.439562
 30
0.0
 11
332.917439
 21
462.439562
 31
0.0
  0
LINE
  8
LC-004-002-----0
  6
CONTINUOUS
 62
     1
  5
1FD
 10
335.417439
 20
465.939562
 30
0.0
 11
332.917439
 21
465.939562
 31
0.0
  0
LINE
  8
LC-004-002-----0
  6
CONTINUOUS
 62
     1
  5
1FE
 10
332.917439
 20
450.694
 30
0.0
 11
332.917439
 21
425.194
 31
0.0
  0
LINE
  8
LC-004-002-----0
  6
CONTINUOUS
 62
     1
  5
1FF
 10
335.417439
 20
456.939562
 30
0.0
 11
332.917439
 21
456.939562
 31
0.0
  0
LINE
  8
LC-004-002-----0
  5
200
 10
338.41982
 20
459.689562
 30
0.0
 11
330.156723
 21
459.689562
 31
0.0
  0
LINE
  8
LC-004-002-----0
  6
CONTINUOUS
 62
     1
  5
201
 10
329.578876
 20
366.694
 30
0.0
 11
333.417439
 21
366.694
 31
0.0
  0
LINE
  8
LC-004-002-----0
  6
CONTINUOUS
 62
     1
  5
202
 10
297.917439
 20
353.694
 30
0.0
 11
297.917439
 21
346.322506
 31
0.0
  0
LINE
  8
LC-004-002-----0
  6
CONTINUOUS
 62
     1
  5
203
 10
323.870433
 20
290.694
 30
0.0
 11
300.417439
 21
290.694
 31
0.0
  0
LINE
  8
LC-006-100-D08-0
  6
CONTINUOUS
  5
204
 10
468.460253
 20
391.444
 30
0.0
 11
468.460253
 21
381.944
 31
0.0
  0
LINE
  8
LC-004-002-----0
  6
CONTINUOUS
 62
     1
  5
205
 10
335.417439
 20
465.939562
 30
0.0
 11
335.417439
 21
302.694
 31
0.0
  0
LINE
  8
LC-004-002-----0
  6
CONTINUOUS
 62
     1
  5
206
 10
335.417439
 20
302.694
 30
0.0
 11
330.798636
 21
294.694
 31
0.0
  0
ARC
  8
LC-005-002-RND-0
  6
CONTINUOUS
  5
207
 10
323.870433
 20
298.694
 30
0.0
 40
8.0
 50
270.0
 51
330.0
  0
ARC
  8
LC-006-100-D08-0
  6
CONTINUOUS
  5
208
 10
465.710253
 20
391.444
 30
0.0
 40
2.75
 50
0.0
 51
180.0
  0
LINE
  8
LC-006-100-D08-0
  6
DASHDOT
 62
     2
  5
209
 10
465.710253
 20
394.194
 30
0.0
 11
465.710253
 21
379.194
 31
0.0
  0
LINE
  8
LC-004-002-----0
  6
CONTINUOUS
 62
     1
  5
20A
 10
464.210253
 20
397.694
 30
0.0
 11
472.210253
 21
397.694
 31
0.0
  0
LINE
  8
LC-004-002-----0
  6
CONTINUOUS
 62
     1
  5
20B
 10
464.210253
 20
375.694
 30
0.0
 11
472.210253
 21
375.694
 31
0.0
  0
LINE
  8
LC-004-002-----0
  5
20C
 10
280.417439
 20
326.442737
 30
0.0
 11
280.417439
 21
160.939562
 31
0.0
  0
LINE
  8
LC-004-002-----0
  6
CONTINUOUS
  5
20D
 10
335.417439
 20
302.694
 30
0.0
 11
335.417439
 21
292.694
 31
0.0
  0
LINE
  8
LC-004-002-----0
  6
DASHED
  5
20E
 10
393.424851
 20
215.644578
 30
0.0
 11
366.466861
 21
188.686587
 31
0.0
  0
LINE
  8
LC-004-002-----0
  6
DASHED
  5
20F
 10
391.613118
 20
218.782592
 30
0.0
 11
393.424851
 21
215.644578
 31
0.0
  0
LINE
  8
LC-004-002-----0
  6
DASHED
  5
210
 10
391.613118
 20
218.782592
 30
0.0
 11
363.328847
 21
190.498321
 31
0.0
  0
CIRCLE
  8
LC-004-002-----0
  6
CONTINUOUS
 62
     1
  5
211
 10
518.710253
 20
371.27478
 30
0.0
 40
7.0
  0
ARC
  8
LC-004-002-----0
  6
CONTINUOUS
 62
     1
  5
212
 10
514.866797
 20
364.951185
 30
0.0
 40
3.656544
 50
128.007374
 51
180.0
  0
ARC
  8
LC-004-002-----0
  6
CONTINUOUS
 62
     1
  5
213
 10
522.553709
 20
364.951185
 30
0.0
 40
3.656544
 50
0.0
 51
51.992626
  0
LINE
  8
LC-004-002-----0
  6
CONTINUOUS
 62
     1
  5
214
 10
260.417439
 20
301.694
 30
0.0
 11
260.417439
 21
164.439562
 31
0.0
  0
ARC
  8
LC-004-002-----0
  6
CONTINUOUS
 62
     1
  5
215
 10
280.417439
 20
301.694
 30
0.0
 40
20.0
 50
0.0
 51
180.0
  0
LINE
  8
LC-004-002-----0
  6
CONTINUOUS
 62
     1
  5
216
 10
280.417439
 20
425.694
 30
0.0
 11
280.417439
 21
422.694
 31
0.0
  0
CIRCLE
  8
LC-008-100-D03-0
  6
CONTINUOUS
  5
218
 10
518.710253
 20
371.27478
 30
0.0
 40
2.5
  0
LINE
  8
LC-004-002-----0
  6
CONTINUOUS
 62
     1
  5
219
 10
295.417439
 20
448.194
 30
0.0
 11
295.417439
 21
421.694
 31
0.0
  0
LINE
  8
LC-004-002-----0
  6
CONTINUOUS
 62
     1
  5
21A
 10
257.917439
 20
421.694
 30
0.0
 11
257.917439
 21
419.694
 31
0.0
  0
LINE
  8
LC-004-002-----0
  5
21B
 10
295.417439
 20
386.694
 30
0.0
 11
232.217606
 21
386.694
 31
0.0
  0
LINE
  8
LC-004-002-----0
  6
CONTINUOUS
 62
     1
  5
21C
 10
332.917439
 20
453.194
 30
0.0
 11
300.417439
 21
453.194
 31
0.0
  0
LINE
  8
LC-004-002-----0
  6
CONTINUOUS
 62
     1
  5
21D
 10
299.479616
 20
160.939562
 30
0.0
 11
261.355261
 21
160.939562
 31
0.0
  0
LINE
  8
LC-004-002-----0
  6
CONTINUOUS
 62
     1
  5
21E
 10
295.417439
 20
421.694
 30
0.0
 11
257.917439
 21
421.694
 31
0.0
  0
LINE
  8
LC-004-002-----0
  6
CONTINUOUS
 62
     1
  5
21F
 10
295.417439
 20
351.694
 30
0.0
 11
257.917439
 21
351.694
 31
0.0
  0
LINE
  8
LC-004-002-----0
  6
CONTINUOUS
 62
     1
  5
220
 10
295.417439
 20
419.694
 30
0.0
 11
257.917439
 21
419.694
 31
0.0
  0
LINE
  8
LC-004-002-----0
  6
CONTINUOUS
 62
     1
  5
221
 10
297.917439
 20
353.694
 30
0.0
 11
257.917439
 21
353.694
 31
0.0
  0
ARC
  8
LC-004-002-----0
  6
CONTINUOUS
 62
     1
  5
222
 10
280.417439
 20
301.694
 30
0.0
 40
25.0
 50
323.130102
 51
216.869898
  0
LINE
  8
LC-004-002-----0
  6
CONTINUOUS
 62
     1
  5
223
 10
332.917439
 20
465.939562
 30
0.0
 11
332.917439
 21
453.194
 31
0.0
  0
LINE
  8
LC-004-002-----0
  6
CONTINUOUS
 62
     1
  5
224
 10
332.917439
 20
450.694
 30
0.0
 11
300.417439
 21
450.694
 31
0.0
  0
LINE
  8
LC-004-002-----0
  6
CONTINUOUS
 62
     1
  5
225
 10
330.417439
 20
333.194
 30
0.0
 11
300.417439
 21
333.194
 31
0.0
  0
LINE
  8
LC-004-002-----0
  5
226
 10
305.417439
 20
301.694
 30
0.0
 11
255.417439
 21
301.694
 31
0.0
  0
LINE
  8
LC-004-002-----0
  6
CONTINUOUS
 62
     1
  5
227
 10
300.417439
 20
301.694
 30
0.0
 11
300.417439
 21
257.194
 31
0.0
  0
ARC
  8
LC-005-002-RND-0
  6
CONTINUOUS
  5
228
 10
300.417439
 20
338.194
 30
0.0
 40
5.0
 50
180.0
 51
270.0
  0
LINE
  8
LC-004-002-----0
  6
CONTINUOUS
 62
     1
  5
229
 10
300.417439
 20
164.439562
 30
0.0
 11
260.417439
 21
164.439562
 31
0.0
  0
ARC
  8
LC-006-100-D08-0
  6
CONTINUOUS
  5
22A
 10
327.917439
 20
375.694
 30
0.0
 40
3.0
 50
90.0
 51
180.0
  0
LINE
  8
LC-004-002-----0
  6
CONTINUOUS
 62
     1
  5
22B
 10
260.417439
 20
164.439562
 30
0.0
 11
261.355261
 21
160.939562
 31
0.0
  0
LINE
  8
LC-004-002-----0
  6
CONTINUOUS
 62
     1
  5
22C
 10
300.417439
 20
164.439562
 30
0.0
 11
299.479616
 21
160.939562
 31
0.0
  0
ARC
  8
LC-005-002-RND-0
  6
CONTINUOUS
  5
22D
 10
330.417439
 20
338.194
 30
0.0
 40
5.0
 50
270.0
 51
360.0
  0
LINE
  8
LC-004-002-----0
  6
CONTINUOUS
 62
     1
  5
22E
 10
329.578876
 20
376.694
 30
0.0
 11
335.417439
 21
376.694
 31
0.0
  0
LINE
  8
LC-004-002-----0
  6
CONTINUOUS
 62
     1
  5
22F
 10
332.917439
 20
400.194
 30
0.0
 11
332.917439
 21
378.694
 31
0.0
  0
LINE
  8
LC-004-002-----0
  6
DASHED
  5
230
 10
326.025826
 20
284.369884
 30
0.0
 11
391.613118
 21
218.782592
 31
0.0
  0
LINE
  8
LC-004-002-----0
  6
CONTINUOUS
  5
231
 10
264.903113
 20
351.694
 30
0.0
 11
262.903113
 21
353.694
 31
0.0
  0
LINE
  8
LC-008-100-D03-0
  6
CONTINUOUS
  5
232
 10
333.417439
 20
376.694
 30
0.0
 11
333.417439
 21
366.694
 31
0.0
  0
LINE
  8
LC-004-002-----0
  6
CONTINUOUS
  5
233
 10
262.074686
 20
351.694
 30
0.0
 11
260.074686
 21
353.694
 31
0.0
  0
LINE
  8
LC-004-002-----0
  6
CONTINUOUS
 62
     1
  5
234
 10
300.417439
 20
257.194
 30
0.0
 11
300.417439
 21
164.439562
 31
0.0
  0
LINE
  8
LC-004-002-----0
  6
CONTINUOUS
 62
     1
  5
235
 10
255.417439
 20
425.694
 30
0.0
 11
255.417439
 21
417.194
 31
0.0
  0
LINE
  8
LC-007-005-----0
  6
CONTINUOUS
  5
236
 10
335.417439
 20
465.027438
 30
0.0
 11
334.505314
 21
465.939562
 31
0.0
  0
LINE
  8
LC-004-002-----0
  6
CONTINUOUS
 62
     1
  5
237
 10
280.417439
 20
425.694
 30
0.0
 11
275.917439
 21
425.694
 31
0.0
  0
LINE
  8
LC-004-002-----0
  6
CONTINUOUS
 62
     1
  5
238
 10
280.417439
 20
347.694
 30
0.0
 11
280.417439
 21
350.694
 31
0.0
  0
LINE
  8
LC-004-002-----0
  6
CONTINUOUS
 62
     1
  5
239
 10
263.417439
 20
425.694
 30
0.0
 11
263.417439
 21
425.194
 31
0.0
  0
LINE
  8
LC-004-002-----0
  6
CONTINUOUS
 62
     1
  5
23A
 10
275.917439
 20
425.194
 30
0.0
 11
263.417439
 21
425.194
 31
0.0
  0
LINE
  8
LC-004-002-----0
  6
CONTINUOUS
 62
     1
  5
23B
 10
275.917439
 20
425.694
 30
0.0
 11
275.917439
 21
425.194
 31
0.0
  0
LINE
  8
LC-004-002-----0
  6
CONTINUOUS
 62
     1
  5
23C
 10
263.417439
 20
425.694
 30
0.0
 11
255.417439
 21
425.694
 31
0.0
  0
LINE
  8
LC-004-002-----0
  6
CONTINUOUS
 62
     1
  5
23D
 10
255.417439
 20
347.694
 30
0.0
 11
255.417439
 21
356.194
 31
0.0
  0
LINE
  8
LC-004-002-----0
  6
CONTINUOUS
 62
     1
  5
23E
 10
280.417439
 20
347.694
 30
0.0
 11
275.917439
 21
347.694
 31
0.0
  0
LINE
  8
LC-004-002-----0
  6
CONTINUOUS
 62
     1
  5
23F
 10
263.417439
 20
347.694
 30
0.0
 11
263.417439
 21
348.194
 31
0.0
  0
LINE
  8
LC-004-002-----0
  6
CONTINUOUS
 62
     1
  5
240
 10
275.917439
 20
348.194
 30
0.0
 11
263.417439
 21
348.194
 31
0.0
  0
LINE
  8
LC-004-002-----0
  6
CONTINUOUS
 62
     1
  5
241
 10
257.917439
 20
417.194
 30
0.0
 11
255.417439
 21
417.194
 31
0.0
  0
LINE
  8
LC-004-002-----0
  6
CONTINUOUS
 62
     1
  5
242
 10
275.917439
 20
347.694
 30
0.0
 11
275.917439
 21
348.194
 31
0.0
  0
LINE
  8
LC-004-002-----0
  6
CONTINUOUS
 62
     1
  5
243
 10
257.917439
 20
353.694
 30
0.0
 11
257.917439
 21
351.694
 31
0.0
  0
LINE
  8
LC-004-002-----0
  6
CONTINUOUS
 62
     1
  5
244
 10
274.417439
 20
419.694
 30
0.0
 11
274.417439
 21
417.694
 31
0.0
  0
LINE
  8
LC-004-002-----0
  6
CONTINUOUS
 62
     1
  5
245
 10
294.503868
 20
410.694
 30
0.0
 11
294.503868
 21
362.694
 31
0.0
  0
LINE
  8
LC-004-002-----0
  6
CONTINUOUS
 62
     1
  5
246
 10
280.417439
 20
422.694
 30
0.0
 11
274.417439
 21
421.694
 31
0.0
  0
LINE
  8
LC-004-002-----0
  6
CONTINUOUS
 62
     1
  5
247
 10
295.417439
 20
351.694
 30
0.0
 11
295.417439
 21
321.694
 31
0.0
  0
LINE
  8
LC-004-002-----0
  6
CONTINUOUS
  5
248
 10
230.439606
 20
410.694
 30
0.0
 11
226.517558
 21
394.084606
 31
0.0
  0
LINE
  8
LC-004-002-----0
  6
CONTINUOUS
 62
     1
  5
249
 10
274.417439
 20
417.694
 30
0.0
 11
271.417439
 21
417.694
 31
0.0
  0
LINE
  8
LC-004-002-----0
  6
CONTINUOUS
 62
     1
  5
24A
 10
257.917439
 20
417.194
 30
0.0
 11
259.659108
 21
410.694
 31
0.0
  0
LINE
  8
LC-004-002-----0
  6
CONTINUOUS
 62
     1
  5
24B
 10
271.417439
 20
417.694
 30
0.0
 11
271.417439
 21
410.694
 31
0.0
  0
LINE
  8
LC-004-002-----0
  6
CONTINUOUS
 62
     1
  5
24C
 10
260.159108
 20
410.694
 30
0.0
 11
260.159108
 21
417.194
 31
0.0
  0
LINE
  8
LC-004-002-----0
  6
CONTINUOUS
  5
24D
 10
226.517558
 20
394.084606
 30
0.0
 11
236.314839
 21
381.381582
 31
0.0
  0
LINE
  8
LC-004-002-----0
  6
CONTINUOUS
  5
24E
 10
236.314839
 20
381.381582
 30
0.0
 11
227.611341
 21
362.584622
 31
0.0
  0
LINE
  8
LC-004-002-----0
  6
CONTINUOUS
 62
     1
  5
24F
 10
269.175769
 20
417.194
 30
0.0
 11
270.917439
 21
410.694
 31
0.0
  0
LINE
  8
LC-004-002-----0
  6
CONTINUOUS
 62
     1
  5
250
 10
265.689265
 20
417.194
 30
0.0
 11
265.689265
 21
410.694
 31
0.0
  0
LINE
  8
LC-004-002-----0
  6
CONTINUOUS
 62
     1
  5
251
 10
263.447595
 20
417.194
 30
0.0
 11
265.189265
 21
410.694
 31
0.0
  0
LINE
  8
LC-004-002-----0
  6
CONTINUOUS
 62
     1
  5
252
 10
260.159108
 20
417.194
 30
0.0
 11
263.447595
 21
417.194
 31
0.0
  0
LINE
  8
LC-004-002-----0
  6
CONTINUOUS
 62
     1
  5
253
 10
265.689265
 20
417.194
 30
0.0
 11
269.175769
 21
417.194
 31
0.0
  0
LINE
  8
LC-004-002-----0
  6
CONTINUOUS
 62
     1
  5
254
 10
263.417439
 20
347.694
 30
0.0
 11
255.417439
 21
347.694
 31
0.0
  0
LINE
  8
LC-004-002-----0
  6
CONTINUOUS
 62
     1
  5
255
 10
257.917439
 20
356.194
 30
0.0
 11
255.417439
 21
356.194
 31
0.0
  0
LINE
  8
LC-004-002-----0
  6
CONTINUOUS
  5
256
 10
227.611341
 20
362.584622
 30
0.0
 11
230.439606
 21
362.694
 31
0.0
  0
LINE
  8
LC-004-002-----0
  6
CONTINUOUS
 62
     1
  5
257
 10
274.417439
 20
353.694
 30
0.0
 11
274.417439
 21
355.694
 31
0.0
  0
LINE
  8
LC-004-002-----0
  6
CONTINUOUS
 62
     1
  5
258
 10
280.417439
 20
350.694
 30
0.0
 11
274.417439
 21
351.694
 31
0.0
  0
LINE
  8
LC-004-002-----0
  6
CONTINUOUS
 62
     1
  5
259
 10
274.417439
 20
355.694
 30
0.0
 11
271.417439
 21
355.694
 31
0.0
  0
LINE
  8
LC-004-002-----0
  6
CONTINUOUS
 62
     1
  5
25A
 10
257.917439
 20
356.194
 30
0.0
 11
259.659108
 21
362.694
 31
0.0
  0
LINE
  8
LC-004-002-----0
  6
CONTINUOUS
 62
     1
  5
25B
 10
271.417439
 20
355.694
 30
0.0
 11
271.417439
 21
362.694
 31
0.0
  0
LINE
  8
LC-004-002-----0
  6
CONTINUOUS
 62
     1
  5
25C
 10
260.159108
 20
362.694
 30
0.0
 11
260.159108
 21
356.194
 31
0.0
  0
LINE
  8
LC-004-002-----0
  6
DASHED
  5
25D
 10
266.275303
 20
287.551864
 30
0.0
 11
363.328847
 21
190.498321
 31
0.0
  0
LINE
  8
LC-007-005-----0
  6
CONTINUOUS
  5
25E
 10
335.176887
 20
462.439562
 30
0.0
 11
332.917439
 21
464.699011
 31
0.0
  0
LINE
  8
LC-004-002-----0
  6
CONTINUOUS
 62
     1
  5
25F
 10
269.175769
 20
356.194
 30
0.0
 11
270.917439
 21
362.694
 31
0.0
  0
LINE
  8
LC-004-002-----0
  6
CONTINUOUS
 62
     1
  5
260
 10
265.689265
 20
356.194
 30
0.0
 11
265.689265
 21
362.694
 31
0.0
  0
LINE
  8
LC-004-002-----0
  6
CONTINUOUS
 62
     1
  5
261
 10
263.447595
 20
356.194
 30
0.0
 11
265.189265
 21
362.694
 31
0.0
  0
LINE
  8
LC-004-002-----0
  6
CONTINUOUS
 62
     1
  5
262
 10
260.159108
 20
356.194
 30
0.0
 11
263.447595
 21
356.194
 31
0.0
  0
LINE
  8
LC-004-002-----0
  6
CONTINUOUS
 62
     1
  5
263
 10
265.689265
 20
356.194
 30
0.0
 11
269.175769
 21
356.194
 31
0.0
  0
LINE
  8
LC-004-002-----0
  6
CONTINUOUS
 62
     1
  5
264
 10
294.503868
 20
365.194
 30
0.0
 11
228.819554
 21
365.194
 31
0.0
  0
LINE
  8
LC-004-002-----0
  6
CONTINUOUS
 62
     1
  5
265
 10
294.503868
 20
410.694
 30
0.0
 11
230.439606
 21
410.694
 31
0.0
  0
LINE
  8
LC-004-002-----0
  6
CONTINUOUS
 62
     1
  5
266
 10
294.503868
 20
362.694
 30
0.0
 11
230.439606
 21
362.694
 31
0.0
  0
LINE
  8
LC-004-002-----0
  6
CONTINUOUS
 62
     1
  5
267
 10
295.417439
 20
419.694
 30
0.0
 11
295.417439
 21
353.694
 31
0.0
  0
LINE
  8
LC-007-005-----0
  6
CONTINUOUS
  5
268
 10
335.417439
 20
456.542156
 30
0.0
 11
335.020033
 21
456.939562
 31
0.0
  0
LINE
  8
LC-004-002-----0
  6
CONTINUOUS
 62
     1
  5
269
 10
297.917439
 20
448.194
 30
0.0
 11
297.917439
 21
425.194
 31
0.0
  0
LINE
  8
LC-004-002-----0
  6
CONTINUOUS
 62
     1
  5
26A
 10
294.503868
 20
408.194
 30
0.0
 11
229.84927
 21
408.194
 31
0.0
  0
LINE
  8
LC-007-005-----0
  6
CONTINUOUS
  5
26B
 10
335.417439
 20
453.713729
 30
0.0
 11
332.917439
 21
456.213729
 31
0.0
  0
LINE
  8
LC-007-005-----0
  6
CONTINUOUS
  5
26C
 10
335.417439
 20
450.885302
 30
0.0
 11
332.917439
 21
453.385302
 31
0.0
  0
LINE
  8
LC-007-005-----0
  6
CONTINUOUS
  5
26D
 10
335.417439
 20
448.056875
 30
0.0
 11
332.917439
 21
450.556875
 31
0.0
  0
LINE
  8
LC-004-002-----0
  6
DASHED
  5
26E
 10
294.559574
 20
315.836136
 30
0.0
 11
326.025826
 21
284.369884
 31
0.0
  0
LINE
  8
LC-007-005-----0
  6
CONTINUOUS
  5
26F
 10
332.780313
 20
450.694
 30
0.0
 11
330.280313
 21
453.194
 31
0.0
  0
ARC
  8
LC-004-002-----0
  6
DASHED
  5
270
 10
280.417439
 20
301.694
 30
0.0
 40
20.0
 50
180.0
 51
225.0
  0
LINE
  8
LC-007-005-----0
  6
CONTINUOUS
  5
271
 10
335.417439
 20
445.228448
 30
0.0
 11
332.917439
 21
447.728448
 31
0.0
  0
LINE
  8
LC-007-005-----0
  6
CONTINUOUS
  5
272
 10
329.951886
 20
450.694
 30
0.0
 11
327.451886
 21
453.194
 31
0.0
  0
LINE
  8
LC-007-005-----0
  6
CONTINUOUS
  5
273
 10
335.417439
 20
442.400021
 30
0.0
 11
332.917439
 21
444.900021
 31
0.0
  0
LINE
  8
LC-007-005-----0
  6
CONTINUOUS
  5
274
 10
327.123459
 20
450.694
 30
0.0
 11
324.623459
 21
453.194
 31
0.0
  0
LINE
  8
LC-007-005-----0
  6
CONTINUOUS
  5
275
 10
335.417439
 20
439.571594
 30
0.0
 11
332.917439
 21
442.071594
 31
0.0
  0
LINE
  8
LC-007-005-----0
  6
CONTINUOUS
  5
276
 10
324.295032
 20
450.694
 30
0.0
 11
321.795032
 21
453.194
 31
0.0
  0
LINE
  8
LC-004-002-----0
  5
277
 10
262.917439
 20
319.194
 30
0.0
 11
379.945856
 21
202.165582
 31
0.0
  0
ARC
  8
LC-005-002-RND-0
  6
CONTINUOUS
  5
278
 10
300.417439
 20
448.194
 30
0.0
 40
5.0
 50
90.0
 51
180.0
  0
ARC
  8
LC-005-002-RND-0
  6
CONTINUOUS
  5
279
 10
300.417439
 20
448.194
 30
0.0
 40
2.5
 50
90.0
 51
180.0
  0
LINE
  8
LC-007-005-----0
  6
CONTINUOUS
  5
27A
 10
335.417439
 20
436.743166
 30
0.0
 11
332.917439
 21
439.243166
 31
0.0
  0
LINE
  8
LC-007-005-----0
  6
CONTINUOUS
  5
27B
 10
321.466605
 20
450.694
 30
0.0
 11
318.966605
 21
453.194
 31
0.0
  0
LINE
  8
LC-007-005-----0
  6
CONTINUOUS
  5
27C
 10
335.417439
 20
433.914739
 30
0.0
 11
332.917439
 21
436.414739
 31
0.0
  0
LINE
  8
LC-007-005-----0
  6
CONTINUOUS
  5
27D
 10
318.638178
 20
450.694
 30
0.0
 11
316.138178
 21
453.194
 31
0.0
  0
LINE
  8
LC-007-005-----0
  6
CONTINUOUS
  5
27E
 10
335.417439
 20
431.086312
 30
0.0
 11
332.917439
 21
433.586312
 31
0.0
  0
LINE
  8
LC-007-005-----0
  6
CONTINUOUS
  5
27F
 10
315.809751
 20
450.694
 30
0.0
 11
313.309751
 21
453.194
 31
0.0
  0
LINE
  8
LC-007-005-----0
  6
CONTINUOUS
  5
280
 10
335.417439
 20
428.257885
 30
0.0
 11
332.917439
 21
430.757885
 31
0.0
  0
ARC
  8
LC-004-002-----0
  6
CONTINUOUS
 62
     1
  5
281
 10
280.417439
 20
301.694
 30
0.0
 40
139.086269
 50
285.461766
 51
298.121578
  0
LINE
  8
LC-004-002-----0
  6
CONTINUOUS
 62
     1
  5
282
 10
311.131695
 20
166.041412
 30
0.0
 11
317.089842
 21
169.147633
 31
0.0
  0
LINE
  8
LC-004-002-----0
  6
CONTINUOUS
 62
     1
  5
283
 10
311.131695
 20
166.041412
 30
0.0
 11
317.715382
 21
166.834641
 31
0.0
  0
LINE
  8
LC-004-002-----0
  6
CONTINUOUS
 62
     1
  5
284
 10
317.715382
 20
166.834641
 30
0.0
 11
317.089842
 21
169.147633
 31
0.0
  0
LINE
  8
LC-004-002-----0
  6
CONTINUOUS
 62
     1
  5
285
 10
351.572291
 20
182.47173
 30
0.0
 11
346.622128
 21
178.059244
 31
0.0
  0
LINE
  8
LC-004-002-----0
  6
CONTINUOUS
 62
     1
  5
286
 10
351.572291
 20
182.47173
 30
0.0
 11
345.301385
 21
180.058462
 31
0.0
  0
LINE
  8
LC-004-002-----0
  6
CONTINUOUS
 62
     1
  5
287
 10
346.622128
 20
178.059244
 30
0.0
 11
345.301385
 21
180.058462
 31
0.0
  0
LINE
  8
LC-007-005-----0
  6
CONTINUOUS
  5
288
 10
312.981324
 20
450.694
 30
0.0
 11
310.481324
 21
453.194
 31
0.0
  0
LINE
  8
LC-007-005-----0
  6
CONTINUOUS
  5
289
 10
335.417439
 20
425.429458
 30
0.0
 11
332.917439
 21
427.929458
 31
0.0
  0
LINE
  8
LC-007-005-----0
  6
CONTINUOUS
  5
28A
 10
310.152896
 20
450.694
 30
0.0
 11
307.652896
 21
453.194
 31
0.0
  0
LINE
  8
LC-007-005-----0
  6
CONTINUOUS
  5
28B
 10
335.417439
 20
422.601031
 30
0.0
 11
332.824469
 21
425.194
 31
0.0
  0
LINE
  8
LC-007-005-----0
  6
CONTINUOUS
  5
28C
 10
307.324469
 20
450.694
 30
0.0
 11
304.824469
 21
453.194
 31
0.0
  0
LINE
  8
LC-010-100-D02-0
  5
28E
 10
518.710253
 20
311.694
 30
0.0
 11
518.710253
 21
465.939562
 31
0.0
  0
LINE
  8
LC-010-100-D02-0
  5
28F
 10
578.210253
 20
386.694
 30
0.0
 11
459.210253
 21
386.694
 31
0.0
  0
LINE
  8
LC-006-100-D08-0
  6
CONTINUOUS
  5
290
 10
508.210253
 20
451.993007
 30
0.0
 11
508.210253
 21
460.939562
 31
0.0
  0
LINE
  8
LC-006-100-D08-0
  6
CONTINUOUS
  5
291
 10
565.210253
 20
315.694
 30
0.0
 11
565.210253
 21
406.694
 31
0.0
  0
LINE
  8
LC-006-100-D08-0
  6
CONTINUOUS
  5
292
 10
529.210253
 20
451.993007
 30
0.0
 11
529.210253
 21
460.939562
 31
0.0
  0
LINE
  8
LC-006-100-D08-0
  6
CONTINUOUS
  5
293
 10
540.210253
 20
290.694
 30
0.0
 11
535.210253
 21
290.694
 31
0.0
  0
LINE
  8
LC-006-100-D08-0
  6
CONTINUOUS
  5
294
 10
527.710253
 20
292.420198
 30
0.0
 11
523.710253
 21
296.420198
 31
0.0
  0
LINE
  8
LC-006-100-D08-0
  6
CONTINUOUS
  5
295
 10
535.210253
 20
331.694
 30
0.0
 11
565.210253
 21
331.694
 31
0.0
  0
LINE
  8
LC-006-100-D08-0
  6
CONTINUOUS
  5
296
 10
529.097669
 20
253.879705
 30
0.0
 11
527.710253
 21
255.267121
 31
0.0
  0
ARC
  8
LC-006-100-D08-0
  6
CONTINUOUS
  5
297
 10
518.710253
 20
406.694
 30
0.0
 40
46.5
 50
0.0
 51
180.0
  0
LINE
  8
LC-006-100-D08-0
  6
CONTINUOUS
  5
298
 10
472.210253
 20
406.694
 30
0.0
 11
472.210253
 21
355.995961
 31
0.0
  0
ARC
  8
LC-006-100-D08-0
  6
CONTINUOUS
  5
299
 10
524.210253
 20
460.939562
 30
0.0
 40
5.0
 50
0.0
 51
90.0
  0
LINE
  8
LC-006-100-D08-0
  6
CONTINUOUS
  5
29A
 10
524.210253
 20
465.939562
 30
0.0
 11
513.210253
 21
465.939562
 31
0.0
  0
ARC
  8
LC-006-100-D08-0
  6
CONTINUOUS
  5
29B
 10
513.210253
 20
460.939562
 30
0.0
 40
5.0
 50
90.0
 51
180.0
  0
LINE
  8
LC-006-100-D08-0
  6
CONTINUOUS
  5
29C
 10
523.460253
 20
462.439562
 30
0.0
 11
513.960253
 21
462.439562
 31
0.0
  0
LINE
  8
LC-006-100-D08-0
  6
CONTINUOUS
  5
29D
 10
523.460253
 20
456.939562
 30
0.0
 11
513.960253
 21
456.939562
 31
0.0
  0
ARC
  8
LC-006-100-D08-0
  6
CONTINUOUS
  5
29E
 10
523.460253
 20
459.689562
 30
0.0
 40
2.75
 50
270.0
 51
90.0
  0
LINE
  8
LC-006-100-D08-0
  6
DASHDOT
 62
     2
  5
29F
 10
526.210253
 20
459.689562
 30
0.0
 11
511.210253
 21
459.689562
 31
0.0
  0
ARC
  8
LC-006-100-D08-0
  6
CONTINUOUS
  5
2A0
 10
513.960253
 20
459.689562
 30
0.0
 40
2.75
 50
90.0
 51
270.0
  0
LINE
  8
LC-006-100-D08-0
  6
CONTINUOUS
  5
2A1
 10
527.710253
 20
255.267121
 30
0.0
 11
504.317499
 21
255.267121
 31
0.0
  0
LINE
  8
LC-006-100-D08-0
  6
CONTINUOUS
  5
2A2
 10
527.710253
 20
255.267121
 30
0.0
 11
527.710253
 21
292.420198
 31
0.0
  0
LINE
  8
LC-006-100-D08-0
  6
CONTINUOUS
  5
2A3
 10
504.317499
 20
253.879705
 30
0.0
 11
504.317499
 21
311.694
 31
0.0
  0
LINE
  8
LC-007-005-----0
  6
CONTINUOUS
  5
2A4
 10
335.417439
 20
419.772604
 30
0.0
 11
332.917439
 21
422.272604
 31
0.0
  0
LINE
  8
LC-007-005-----0
  6
CONTINUOUS
  5
2A5
 10
331.996042
 20
423.194
 30
0.0
 11
329.996042
 21
425.194
 31
0.0
  0
LINE
  8
LC-007-005-----0
  6
CONTINUOUS
  5
2A6
 10
304.496042
 20
450.694
 30
0.0
 11
301.996042
 21
453.194
 31
0.0
  0
LINE
  8
LC-007-005-----0
  6
CONTINUOUS
  5
2A7
 10
335.417439
 20
416.944177
 30
0.0
 11
332.917439
 21
419.444177
 31
0.0
  0
LINE
  8
LC-007-005-----0
  6
CONTINUOUS
  5
2A8
 10
329.167615
 20
423.194
 30
0.0
 11
327.167615
 21
425.194
 31
0.0
  0
LINE
  8
LC-011-006-MLN-0
  5
2AB
 10
333.417439
 20
371.694
 30
0.0
 11
318.417439
 21
371.694
 31
0.0
  0
LINE
  8
LC-010-100-D02-0
  5
2AC
 10
496.750588
 20
311.694
 30
0.0
 11
564.888178
 21
311.694
 31
0.0
  0
LINE
  8
LC-004-002-----0
  6
CONTINUOUS
 62
     1
  5
2AD
 10
327.417439
 20
376.694
 30
0.0
 11
328.256001
 21
376.694
 31
0.0
  0
LINE
  8
LC-004-002-----0
  6
CONTINUOUS
 62
     1
  5
2AE
 10
327.417439
 20
366.694
 30
0.0
 11
328.256001
 21
366.694
 31
0.0
  0
LINE
  8
LC-006-100-D08-0
  6
CONTINUOUS
  5
2AF
 10
332.917439
 20
425.194
 30
0.0
 11
297.917439
 21
425.194
 31
0.0
  0
LINE
  8
LC-006-100-D08-0
  6
CONTINUOUS
  5
2B0
 10
525.710253
 20
336.694
 30
0.0
 11
532.710253
 21
336.694
 31
0.0
  0
LINE
  8
LC-006-100-D08-0
  6
CONTINUOUS
  5
2B1
 10
527.710253
 20
286.694
 30
0.0
 11
532.710253
 21
286.694
 31
0.0
  0
LINE
  8
LC-006-100-D08-0
  6
CONTINUOUS
  5
2B2
 10
523.710253
 20
296.420198
 30
0.0
 11
523.710253
 21
334.694
 31
0.0
  0
LINE
  8
LC-006-100-D08-0
  6
CONTINUOUS
  5
2B3
 10
493.710253
 20
164.439562
 30
0.0
 11
493.710253
 21
302.694
 31
0.0
  0
LINE
  8
LC-010-100-D02-0
  5
2B4
 10
518.710253
 20
301.930169
 30
0.0
 11
518.710253
 21
311.694
 31
0.0
  0
ARC
  8
LC-006-100-D08-0
  6
CONTINUOUS
  5
2B5
 10
528.710253
 20
248.879705
 30
0.0
 40
5.0
 50
0.0
 51
90.0
  0
ARC
  8
LC-006-100-D08-0
  6
CONTINUOUS
  5
2B6
 10
525.710253
 20
334.694
 30
0.0
 40
2.0
 50
90.0
 51
180.0
  0
LINE
  8
LC-006-100-D08-0
  6
CONTINUOUS
  5
2B7
 10
332.917439
 20
402.194
 30
0.0
 11
297.917439
 21
402.194
 31
0.0
  0
LINE
  8
LC-006-100-D08-0
  6
CONTINUOUS
  5
2B8
 10
494.648075
 20
160.939562
 30
0.0
 11
532.772431
 21
160.939562
 31
0.0
  0
LINE
  8
LC-006-100-D08-0
  6
CONTINUOUS
  5
2B9
 10
533.710253
 20
164.439562
 30
0.0
 11
533.710253
 21
248.879705
 31
0.0
  0
LINE
  8
LC-006-100-D08-0
  6
CONTINUOUS
  5
2BA
 10
504.317499
 20
253.879705
 30
0.0
 11
529.097669
 21
253.879705
 31
0.0
  0
ARC
  8
LC-006-100-D08-0
  6
CONTINUOUS
  5
2BB
 10
523.710253
 20
302.694
 30
0.0
 40
30.0
 50
90.0
 51
180.0
  0
LINE
  8
LC-006-100-D08-0
  6
CONTINUOUS
  5
2BC
 10
332.917439
 20
423.194
 30
0.0
 11
297.917439
 21
423.194
 31
0.0
  0
LINE
  8
LC-006-100-D08-0
  6
CONTINUOUS
  5
2BD
 10
493.710253
 20
164.439562
 30
0.0
 11
533.710253
 21
164.439562
 31
0.0
  0
LINE
  8
LC-006-100-D08-0
  6
CONTINUOUS
  5
2BE
 10
493.710253
 20
164.439562
 30
0.0
 11
494.648075
 21
160.939562
 31
0.0
  0
LINE
  8
LC-006-100-D08-0
  6
CONTINUOUS
  5
2BF
 10
533.710253
 20
164.439562
 30
0.0
 11
532.772431
 21
160.939562
 31
0.0
  0
LINE
  8
LC-006-100-D08-0
  6
CONTINUOUS
  5
2C0
 10
332.917439
 20
400.194
 30
0.0
 11
295.417439
 21
400.194
 31
0.0
  0
ARC
  8
LC-004-002-----0
  6
CONTINUOUS
 62
     1
  5
2C1
 10
328.917439
 20
376.244
 30
0.0
 40
0.8
 50
0.0
 51
180.0
  0
LINE
  8
LC-007-005-----0
  6
CONTINUOUS
  5
2C2
 10
301.667615
 20
450.694
 30
0.0
 11
299.295187
 21
453.066428
 31
0.0
  0
LINE
  8
LC-004-002-----0
  6
CONTINUOUS
 62
     1
  5
2C3
 10
330.417439
 20
366.694
 30
0.0
 11
330.417439
 21
357.706053
 31
0.0
  0
ARC
  8
LC-006-100-D08-0
  6
CONTINUOUS
  5
2C4
 10
327.917439
 20
367.694
 30
0.0
 40
3.0
 50
180.0
 51
270.0
  0
LINE
  8
LC-004-002-----0
  6
CONTINUOUS
 62
     1
  5
2C5
 10
327.417439
 20
366.694
 30
0.0
 11
327.417439
 21
369.194
 31
0.0
  0
LINE
  8
LC-007-005-----0
  6
CONTINUOUS
  5
2C6
 10
335.417439
 20
414.115749
 30
0.0
 11
332.917439
 21
416.615749
 31
0.0
  0
LINE
  8
LC-008-100-D03-0
  6
CONTINUOUS
  5
2C7
 10
329.717439
 20
376.694
 30
0.0
 11
333.417439
 21
376.694
 31
0.0
  0
LINE
  8
LC-006-100-D08-0
  6
CONTINUOUS
 62
     7
  5
2C8
 10
540.210253
 20
290.694
 30
0.0
 11
539.710253
 21
290.694
 31
0.0
  0
ARC
  8
LC-006-100-D08-0
  6
CONTINUOUS
  5
2C9
 10
540.210253
 20
315.694
 30
0.0
 40
25.0
 50
270.0
 51
0.0
  0
LINE
  8
LC-004-002-----0
  6
CONTINUOUS
 62
     1
  5
2CA
 10
324.917439
 20
374.194
 30
0.0
 11
327.417439
 21
374.194
 31
0.0
  0
LINE
  8
LC-007-005-----0
  6
CONTINUOUS
  5
2CB
 10
326.339188
 20
423.194
 30
0.0
 11
324.339188
 21
425.194
 31
0.0
  0
LINE
  8
LC-007-005-----0
  6
CONTINUOUS
  5
2CC
 10
299.171681
 20
450.361507
 30
0.0
 11
297.372947
 21
452.160241
 31
0.0
  0
LINE
  8
LC-007-005-----0
  6
CONTINUOUS
  5
2CD
 10
335.417439
 20
411.287322
 30
0.0
 11
332.917439
 21
413.787322
 31
0.0
  0
LINE
  8
LC-007-005-----0
  6
CONTINUOUS
  5
2CE
 10
323.510761
 20
423.194
 30
0.0
 11
321.510761
 21
425.194
 31
0.0
  0
LINE
  8
LC-007-005-----0
  6
CONTINUOUS
  5
2CF
 10
297.975427
 20
448.729333
 30
0.0
 11
296.059523
 21
450.645238
 31
0.0
  0
LINE
  8
LC-007-005-----0
  6
CONTINUOUS
  5
2D0
 10
335.417439
 20
408.458895
 30
0.0
 11
332.917439
 21
410.958895
 31
0.0
  0
LINE
  8
LC-004-002-----0
  6
CONTINUOUS
 62
     1
  5
2D1
 10
324.917439
 20
369.194
 30
0.0
 11
327.417439
 21
369.194
 31
0.0
  0
LINE
  8
LC-004-002-----0
  6
CONTINUOUS
 62
     1
  5
2D2
 10
327.417439
 20
374.194
 30
0.0
 11
327.417439
 21
376.694
 31
0.0
  0
LINE
  8
LC-004-002-----0
  6
CONTINUOUS
 62
     1
  5
2D3
 10
332.917439
 20
366.694
 30
0.0
 11
332.917439
 21
357.65311
 31
0.0
  0
ARC
  8
LC-008-100-D03-0
  6
CONTINUOUS
  5
2D4
 10
320.917439
 20
371.694
 30
0.0
 40
2.5
 50
90.0
 51
180.0
  0
ARC
  8
LC-004-002-----0
  6
CONTINUOUS
 62
     1
  5
2D5
 10
328.917439
 20
367.144
 30
0.0
 40
0.8
 50
180.0
 51
0.0
  0
ARC
  8
LC-008-100-D03-0
  6
CONTINUOUS
  5
2D6
 10
320.917439
 20
371.694
 30
0.0
 40
2.5
 50
180.0
 51
270.0
  0
LINE
  8
LC-007-005-----0
  6
CONTINUOUS
  5
2D7
 10
320.682334
 20
423.194
 30
0.0
 11
318.682334
 21
425.194
 31
0.0
  0
LINE
  8
LC-004-002-----0
  6
CONTINUOUS
 62
     1
  5
2D8
 10
327.417439
 20
333.194
 30
0.0
 11
327.417439
 21
291.523313
 31
0.0
  0
ARC
  8
LC-008-100-D03-0
  6
CONTINUOUS
  5
2D9
 10
327.917439
 20
367.194
 30
0.0
 40
0.5
 50
180.0
 51
270.0
  0
LINE
  8
LC-007-005-----0
  6
CONTINUOUS
  5
2DA
 10
297.917439
 20
445.958895
 30
0.0
 11
295.424111
 21
448.452223
 31
0.0
  0
LINE
  8
LC-007-005-----0
  6
CONTINUOUS
  5
2DB
 10
335.417439
 20
405.630468
 30
0.0
 11
332.917439
 21
408.130468
 31
0.0
  0
LINE
  8
LC-004-002-----0
  6
CONTINUOUS
  5
2DC
 10
335.417439
 20
357.600166
 30
0.0
 11
327.468527
 21
357.768504
 31
0.0
  0
LINE
  8
LC-008-100-D03-0
  6
CONTINUOUS
  5
2DD
 10
328.117439
 20
376.244
 30
0.0
 11
328.117439
 21
367.144
 31
0.0
  0
LINE
  8
LC-008-100-D03-0
  6
CONTINUOUS
  5
2DE
 10
329.717439
 20
376.244
 30
0.0
 11
329.717439
 21
367.144
 31
0.0
  0
LINE
  8
LC-004-002-----0
  6
CONTINUOUS
  5
2DF
 10
327.468527
 20
357.768504
 30
0.0
 11
322.490631
 21
348.68612
 31
0.0
  0
LINE
  8
LC-004-002-----0
  6
CONTINUOUS
  5
2E0
 10
322.490631
 20
348.68612
 30
0.0
 11
321.495371
 21
349.709151
 31
0.0
  0
LINE
  8
LC-008-100-D03-0
  6
CONTINUOUS
  5
2E1
 10
327.917439
 20
366.694
 30
0.0
 11
328.117439
 21
366.694
 31
0.0
  0
LINE
  8
LC-004-002-----0
  6
CONTINUOUS
  5
2E2
 10
321.495371
 20
349.709151
 30
0.0
 11
313.396523
 21
347.021723
 31
0.0
  0
LINE
  8
LC-008-100-D03-0
  6
CONTINUOUS
  5
2E3
 10
327.417439
 20
376.194
 30
0.0
 11
327.417439
 21
367.194
 31
0.0
  0
LINE
  8
LC-004-002-----0
  6
CONTINUOUS
  5
2E4
 10
313.396523
 20
347.021723
 30
0.0
 11
306.636866
 21
351.339758
 31
0.0
  0
LINE
  8
LC-004-002-----0
  6
CONTINUOUS
  5
2E5
 10
306.636866
 20
351.339758
 30
0.0
 11
297.65984
 21
346.174281
 31
0.0
  0
ARC
  8
LC-008-100-D03-0
  6
CONTINUOUS
  5
2E6
 10
327.917439
 20
376.194
 30
0.0
 40
0.5
 50
90.0
 51
180.0
  0
LINE
  8
LC-004-002-----0
  6
CONTINUOUS
  5
2E7
 10
297.65984
 20
346.174281
 30
0.0
 11
295.417439
 21
346.547163
 31
0.0
  0
LINE
  8
LC-008-100-D03-0
  6
CONTINUOUS
  5
2E8
 10
327.917439
 20
376.694
 30
0.0
 11
328.117439
 21
376.694
 31
0.0
  0
LINE
  8
LC-007-005-----0
  6
CONTINUOUS
  5
2E9
 10
317.853907
 20
423.194
 30
0.0
 11
315.853907
 21
425.194
 31
0.0
  0
LINE
  8
LC-007-005-----0
  6
CONTINUOUS
  5
2EA
 10
297.917439
 20
443.130468
 30
0.0
 11
295.417439
 21
445.630468
 31
0.0
  0
LINE
  8
LC-007-005-----0
  6
CONTINUOUS
  5
2EB
 10
335.417439
 20
402.802041
 30
0.0
 11
332.917439
 21
405.302041
 31
0.0
  0
LINE
  8
LC-007-005-----0
  6
CONTINUOUS
  5
2EC
 10
315.025479
 20
423.194
 30
0.0
 11
313.025479
 21
425.194
 31
0.0
  0
LINE
  8
LC-007-005-----0
  6
CONTINUOUS
  5
2ED
 10
297.917439
 20
440.302041
 30
0.0
 11
295.417439
 21
442.802041
 31
0.0
  0
LINE
  8
LC-007-005-----0
  6
CONTINUOUS
  5
2EE
 10
335.417439
 20
399.973614
 30
0.0
 11
332.917439
 21
402.473614
 31
0.0
  0
LINE
  8
LC-007-005-----0
  6
CONTINUOUS
  5
2EF
 10
312.197052
 20
423.194
 30
0.0
 11
310.197052
 21
425.194
 31
0.0
  0
LINE
  8
LC-007-005-----0
  6
CONTINUOUS
  5
2F0
 10
297.917439
 20
437.473614
 30
0.0
 11
295.417439
 21
439.973614
 31
0.0
  0
LINE
  8
LC-007-005-----0
  6
CONTINUOUS
  5
2F1
 10
335.417439
 20
397.145187
 30
0.0
 11
332.917439
 21
399.645187
 31
0.0
  0
LINE
  8
LC-007-005-----0
  6
CONTINUOUS
  5
2F2
 10
332.368625
 20
400.194
 30
0.0
 11
330.368625
 21
402.194
 31
0.0
  0
LINE
  8
LC-012-001-----0
  6
CONTINUOUS
  5
2F4
 10
318.417439
 20
371.694
 30
0.0
 11
318.417439
 21
371.694
 31
0.0
  0
LINE
  8
LC-012-001-----0
  6
CONTINUOUS
  5
2F5
 10
318.417439
 20
371.694
 30
0.0
 11
318.417439
 21
371.694
 31
0.0
  0
LINE
  8
LC-012-001-----0
  6
CONTINUOUS
  5
2F6
 10
318.417439
 20
371.694
 30
0.0
 11
318.417439
 21
371.694
 31
0.0
  0
LINE
  8
LC-007-005-----0
  6
CONTINUOUS
  5
2F7
 10
309.368625
 20
423.194
 30
0.0
 11
307.368625
 21
425.194
 31
0.0
  0
LINE
  8
LC-008-100-D03-0
  6
CONTINUOUS
  5
2F8
 10
327.417439
 20
374.194
 30
0.0
 11
320.917439
 21
374.194
 31
0.0
  0
LINE
  8
LC-008-100-D03-0
  6
CONTINUOUS
  5
2F9
 10
327.417439
 20
369.194
 30
0.0
 11
320.917439
 21
369.194
 31
0.0
  0
LINE
  8
LC-006-100-D08-0
  6
CONTINUOUS
  5
2FA
 10
333.117439
 20
366.694
 30
0.0
 11
333.117439
 21
357.648874
 31
0.0
  0
LINE
  8
LC-004-002-----0
  5
2FB
 10
511.710253
 20
371.27478
 30
0.0
 11
525.710253
 21
371.27478
 31
0.0
  0
LINE
  8
LC-006-100-D08-0
  6
CONTINUOUS
  5
2FC
 10
328.417439
 20
364.694
 30
0.0
 11
328.417439
 21
357.748408
 31
0.0
  0
LINE
  8
LC-006-100-D08-0
  6
CONTINUOUS
  5
2FD
 10
324.917439
 20
374.194
 30
0.0
 11
324.917439
 21
375.694
 31
0.0
  0
LINE
  8
LC-006-100-D08-0
  6
CONTINUOUS
  5
2FE
 10
324.917439
 20
369.194
 30
0.0
 11
324.917439
 21
367.694
 31
0.0
  0
LINE
  8
LC-007-005-----0
  6
CONTINUOUS
  5
2FF
 10
297.917439
 20
434.645187
 30
0.0
 11
295.417439
 21
437.145187
 31
0.0
  0
LINE
  8
LC-006-100-D08-0
  6
CONTINUOUS
  5
300
 10
327.917439
 20
364.694
 30
0.0
 11
328.417439
 21
364.694
 31
0.0
  0
LINE
  8
LC-006-100-D08-0
  6
CONTINUOUS
  5
301
 10
327.917439
 20
378.694
 30
0.0
 11
332.917439
 21
378.694
 31
0.0
  0
LINE
  8
LC-006-100-D08-0
  6
CONTINUOUS
  5
302
 10
330.217439
 20
366.694
 30
0.0
 11
330.217439
 21
357.710289
 31
0.0
  0
LINE
  8
LC-007-005-----0
  6
CONTINUOUS
  5
303
 10
335.417439
 20
394.31676
 30
0.0
 11
332.917439
 21
396.81676
 31
0.0
  0
LINE
  8
LC-007-005-----0
  6
CONTINUOUS
  5
304
 10
329.540198
 20
400.194
 30
0.0
 11
327.540198
 21
402.194
 31
0.0
  0
LINE
  8
LC-007-005-----0
  6
CONTINUOUS
  5
305
 10
306.540198
 20
423.194
 30
0.0
 11
304.540198
 21
425.194
 31
0.0
  0
LINE
  8
LC-007-005-----0
  6
CONTINUOUS
  5
306
 10
297.917439
 20
431.81676
 30
0.0
 11
295.417439
 21
434.31676
 31
0.0
  0
LINE
  8
LC-007-005-----0
  6
CONTINUOUS
  5
307
 10
335.417439
 20
391.488332
 30
0.0
 11
332.917439
 21
393.988332
 31
0.0
  0
LINE
  8
LC-007-005-----0
  6
CONTINUOUS
  5
308
 10
326.711771
 20
400.194
 30
0.0
 11
324.711771
 21
402.194
 31
0.0
  0
LINE
  8
LC-007-005-----0
  6
CONTINUOUS
  5
309
 10
303.711771
 20
423.194
 30
0.0
 11
301.711771
 21
425.194
 31
0.0
  0
LINE
  8
LC-007-005-----0
  6
CONTINUOUS
  5
30A
 10
297.917439
 20
428.988332
 30
0.0
 11
295.417439
 21
431.488332
 31
0.0
  0
LINE
  8
LC-007-005-----0
  6
CONTINUOUS
  5
30B
 10
335.417439
 20
388.659905
 30
0.0
 11
332.917439
 21
391.159905
 31
0.0
  0
LINE
  8
LC-007-005-----0
  6
CONTINUOUS
  5
30C
 10
323.883344
 20
400.194
 30
0.0
 11
321.883344
 21
402.194
 31
0.0
  0
LINE
  8
LC-007-005-----0
  6
CONTINUOUS
  5
30D
 10
300.883344
 20
423.194
 30
0.0
 11
298.883344
 21
425.194
 31
0.0
  0
LINE
  8
LC-007-005-----0
  6
CONTINUOUS
  5
30E
 10
297.917439
 20
426.159905
 30
0.0
 11
295.417439
 21
428.659905
 31
0.0
  0
LINE
  8
LC-007-005-----0
  6
CONTINUOUS
  5
30F
 10
335.417439
 20
385.831478
 30
0.0
 11
332.917439
 21
388.331478
 31
0.0
  0
LINE
  8
LC-007-005-----0
  6
CONTINUOUS
  5
310
 10
321.054917
 20
400.194
 30
0.0
 11
319.054917
 21
402.194
 31
0.0
  0
LINE
  8
LC-007-005-----0
  6
CONTINUOUS
  5
311
 10
298.054917
 20
423.194
 30
0.0
 11
295.417439
 21
425.831478
 31
0.0
  0
LINE
  8
LC-007-005-----0
  6
CONTINUOUS
  5
312
 10
335.417439
 20
383.003051
 30
0.0
 11
332.917439
 21
385.503051
 31
0.0
  0
LINE
  8
LC-007-005-----0
  6
CONTINUOUS
  5
313
 10
318.22649
 20
400.194
 30
0.0
 11
316.22649
 21
402.194
 31
0.0
  0
LINE
  8
LC-007-005-----0
  6
CONTINUOUS
  5
314
 10
297.917439
 20
420.503051
 30
0.0
 11
295.417439
 21
423.003051
 31
0.0
  0
LINE
  8
LC-007-005-----0
  6
CONTINUOUS
  5
315
 10
335.417439
 20
380.174624
 30
0.0
 11
332.917439
 21
382.674624
 31
0.0
  0
LINE
  8
LC-007-005-----0
  6
CONTINUOUS
  5
316
 10
315.398062
 20
400.194
 30
0.0
 11
313.398062
 21
402.194
 31
0.0
  0
LINE
  8
LC-007-005-----0
  6
CONTINUOUS
  5
317
 10
297.917439
 20
417.674624
 30
0.0
 11
293.898062
 21
421.694
 31
0.0
  0
LINE
  8
LC-007-005-----0
  6
CONTINUOUS
  5
318
 10
335.417439
 20
377.346197
 30
0.0
 11
332.917439
 21
379.846197
 31
0.0
  0
LINE
  8
LC-007-005-----0
  6
CONTINUOUS
  5
319
 10
312.569635
 20
400.194
 30
0.0
 11
310.569635
 21
402.194
 31
0.0
  0
LINE
  8
LC-007-005-----0
  6
CONTINUOUS
  5
31A
 10
297.917439
 20
414.846197
 30
0.0
 11
295.417439
 21
417.346197
 31
0.0
  0
LINE
  8
LC-007-005-----0
  6
CONTINUOUS
  5
31B
 10
293.069635
 20
419.694
 30
0.0
 11
291.069635
 21
421.694
 31
0.0
  0
LINE
  8
LC-007-005-----0
  6
CONTINUOUS
  5
31C
 10
333.241208
 20
376.694
 30
0.0
 11
331.241208
 21
378.694
 31
0.0
  0
LINE
  8
LC-007-005-----0
  6
CONTINUOUS
  5
31D
 10
309.741208
 20
400.194
 30
0.0
 11
307.741208
 21
402.194
 31
0.0
  0
LINE
  8
LC-007-005-----0
  6
CONTINUOUS
  5
31E
 10
297.917439
 20
412.01777
 30
0.0
 11
295.417439
 21
414.51777
 31
0.0
  0
LINE
  8
LC-007-005-----0
  6
CONTINUOUS
  5
31F
 10
290.241208
 20
419.694
 30
0.0
 11
288.241208
 21
421.694
 31
0.0
  0
LINE
  8
LC-007-005-----0
  6
CONTINUOUS
  5
320
 10
330.412781
 20
376.694
 30
0.0
 11
328.412781
 21
378.694
 31
0.0
  0
LINE
  8
LC-007-005-----0
  6
CONTINUOUS
  5
321
 10
306.912781
 20
400.194
 30
0.0
 11
304.912781
 21
402.194
 31
0.0
  0
LINE
  8
LC-007-005-----0
  6
CONTINUOUS
  5
322
 10
297.917439
 20
409.189343
 30
0.0
 11
295.417439
 21
411.689343
 31
0.0
  0
LINE
  8
LC-007-005-----0
  6
CONTINUOUS
  5
323
 10
287.412781
 20
419.694
 30
0.0
 11
285.412781
 21
421.694
 31
0.0
  0
LINE
  8
LC-007-005-----0
  6
CONTINUOUS
  5
324
 10
327.584354
 20
376.694
 30
0.0
 11
326.155949
 21
378.122406
 31
0.0
  0
LINE
  8
LC-007-005-----0
  6
CONTINUOUS
  5
325
 10
304.084354
 20
400.194
 30
0.0
 11
302.084354
 21
402.194
 31
0.0
  0
LINE
  8
LC-007-005-----0
  6
CONTINUOUS
  5
326
 10
297.917439
 20
406.360915
 30
0.0
 11
295.417439
 21
408.860915
 31
0.0
  0
LINE
  8
LC-007-005-----0
  6
CONTINUOUS
  5
327
 10
284.584354
 20
419.694
 30
0.0
 11
282.584354
 21
421.694
 31
0.0
  0
LINE
  8
LC-007-005-----0
  6
CONTINUOUS
  5
328
 10
327.255927
 20
374.194
 30
0.0
 11
325.011315
 21
376.438612
 31
0.0
  0
LINE
  8
LC-007-005-----0
  6
CONTINUOUS
  5
329
 10
301.255927
 20
400.194
 30
0.0
 11
299.255927
 21
402.194
 31
0.0
  0
LINE
  8
LC-007-005-----0
  6
CONTINUOUS
  5
32A
 10
297.917439
 20
403.532488
 30
0.0
 11
295.417439
 21
406.032488
 31
0.0
  0
LINE
  8
LC-007-005-----0
  6
CONTINUOUS
  5
32B
 10
281.755927
 20
419.694
 30
0.0
 11
279.755927
 21
421.694
 31
0.0
  0
LINE
  8
LC-007-005-----0
  6
CONTINUOUS
  5
32C
 10
298.4275
 20
400.194
 30
0.0
 11
295.417439
 21
403.204061
 31
0.0
  0
LINE
  8
LC-007-005-----0
  6
CONTINUOUS
  5
32D
 10
278.9275
 20
419.694
 30
0.0
 11
276.9275
 21
421.694
 31
0.0
  0
LINE
  8
LC-013-100-D01-0
  5
32F
 10
502.210253
 20
365.194
 30
0.0
 11
502.210253
 21
365.194
 31
0.0
  0
LINE
  8
LC-007-005-----0
  6
CONTINUOUS
  5
330
 10
330.217439
 20
365.575634
 30
0.0
 11
329.099073
 21
366.694
 31
0.0
  0
LINE
  8
LC-007-005-----0
  6
CONTINUOUS
  5
331
 10
327.417439
 20
368.375634
 30
0.0
 11
326.599073
 21
369.194
 31
0.0
  0
LINE
  8
LC-007-005-----0
  6
CONTINUOUS
  5
332
 10
295.599073
 20
400.194
 30
0.0
 11
295.417439
 21
400.375634
 31
0.0
  0
LINE
  8
LC-007-005-----0
  6
CONTINUOUS
  5
333
 10
276.099073
 20
419.694
 30
0.0
 11
274.099073
 21
421.694
 31
0.0
  0
LINE
  8
LC-007-005-----0
  6
CONTINUOUS
  5
334
 10
330.217439
 20
362.747207
 30
0.0
 11
328.417439
 21
364.547207
 31
0.0
  0
LINE
  8
LC-007-005-----0
  6
CONTINUOUS
  5
335
 10
328.270645
 20
364.694
 30
0.0
 11
324.917439
 21
368.047207
 31
0.0
  0
LINE
  8
LC-007-005-----0
  6
CONTINUOUS
  5
336
 10
273.270645
 20
419.694
 30
0.0
 11
271.270645
 21
421.694
 31
0.0
  0
LINE
  8
LC-007-005-----0
  6
CONTINUOUS
  5
337
 10
330.217439
 20
359.91878
 30
0.0
 11
328.417439
 21
361.71878
 31
0.0
  0
LINE
  8
LC-007-005-----0
  6
CONTINUOUS
  5
338
 10
270.442218
 20
419.694
 30
0.0
 11
268.442218
 21
421.694
 31
0.0
  0
LINE
  8
LC-007-005-----0
  6
CONTINUOUS
  5
339
 10
329.58409
 20
357.723702
 30
0.0
 11
328.417439
 21
358.890353
 31
0.0
  0
LINE
  8
LC-007-005-----0
  6
CONTINUOUS
  5
33A
 10
267.613791
 20
419.694
 30
0.0
 11
265.613791
 21
421.694
 31
0.0
  0
LINE
  8
LC-007-005-----0
  6
CONTINUOUS
  5
33B
 10
297.917439
 20
352.6208
 30
0.0
 11
296.844239
 21
353.694
 31
0.0
  0
LINE
  8
LC-007-005-----0
  6
CONTINUOUS
  5
33C
 10
297.917439
 20
349.792373
 30
0.0
 11
294.015811
 21
353.694
 31
0.0
  0
LINE
  8
LC-007-005-----0
  6
CONTINUOUS
  5
33D
 10
297.917439
 20
346.963946
 30
0.0
 11
295.417439
 21
349.463946
 31
0.0
  0
LINE
  8
LC-007-005-----0
  6
CONTINUOUS
  5
33E
 10
293.187384
 20
351.694
 30
0.0
 11
291.187384
 21
353.694
 31
0.0
  0
LINE
  8
LC-007-005-----0
  6
CONTINUOUS
  5
33F
 10
295.523418
 20
346.52954
 30
0.0
 11
295.417439
 21
346.635519
 31
0.0
  0
LINE
  8
LC-007-005-----0
  6
CONTINUOUS
  5
340
 10
290.358957
 20
351.694
 30
0.0
 11
288.358957
 21
353.694
 31
0.0
  0
LINE
  8
LC-007-005-----0
  6
CONTINUOUS
  5
341
 10
287.53053
 20
351.694
 30
0.0
 11
285.53053
 21
353.694
 31
0.0
  0
LINE
  8
LC-007-005-----0
  6
CONTINUOUS
  5
342
 10
284.702103
 20
351.694
 30
0.0
 11
282.702103
 21
353.694
 31
0.0
  0
LINE
  8
LC-007-005-----0
  6
CONTINUOUS
  5
343
 10
281.873676
 20
351.694
 30
0.0
 11
279.873676
 21
353.694
 31
0.0
  0
LINE
  8
LC-007-005-----0
  6
CONTINUOUS
  5
344
 10
279.045249
 20
351.694
 30
0.0
 11
277.045249
 21
353.694
 31
0.0
  0
LINE
  8
LC-007-005-----0
  6
CONTINUOUS
  5
345
 10
276.216822
 20
351.694
 30
0.0
 11
274.216822
 21
353.694
 31
0.0
  0
LINE
  8
LC-007-005-----0
  6
CONTINUOUS
  5
346
 10
273.388394
 20
351.694
 30
0.0
 11
271.388394
 21
353.694
 31
0.0
  0
ARC
  8
LC-006-100-D08-0
  6
CONTINUOUS
  5
347
 10
503.210253
 20
366.194
 30
0.0
 40
33.0
 50
202.191607
 51
331.97228
  0
ARC
  8
LC-006-100-D08-0
  6
CONTINUOUS
  5
348
 10
478.210253
 20
355.995961
 30
0.0
 40
6.0
 50
180.0
 51
202.191607
  0
LINE
  8
LC-007-005-----0
  6
CONTINUOUS
  5
349
 10
270.559967
 20
351.694
 30
0.0
 11
268.559967
 21
353.694
 31
0.0
  0
LINE
  8
LC-007-005-----0
  6
CONTINUOUS
  5
34A
 10
267.73154
 20
351.694
 30
0.0
 11
265.73154
 21
353.694
 31
0.0
  0
LINE
  8
LC-004-002-----0
  6
CONTINUOUS
  5
34B
 10
259.246259
 20
351.694
 30
0.0
 11
257.917439
 21
353.02282
 31
0.0
  0
LINE
  8
LC-004-002-----0
  6
CONTINUOUS
 62
     1
  5
34C
 10
297.917439
 20
423.331478
 30
0.0
 11
297.917439
 21
402.194
 31
0.0
  0
LINE
  8
LC-006-100-D08-0
  6
CONTINUOUS
  5
34D
 10
534.210253
 20
351.45198
 30
0.0
 11
534.210253
 21
286.694
 31
0.0
  0
LINE
  8
LC-004-002-----0
  6
CONTINUOUS
 62
     1
  5
34E
 10
332.917439
 20
423.194
 30
0.0
 11
332.917439
 21
402.194
 31
0.0
  0
LINE
  8
LC-006-100-D08-0
  6
CONTINUOUS
  5
34F
 10
535.210253
 20
336.694
 30
0.0
 11
535.210253
 21
286.694
 31
0.0
  0
LINE
  8
LC-006-100-D08-0
  6
CONTINUOUS
  5
350
 10
533.710253
 20
335.694
 30
0.0
 11
533.710253
 21
287.694
 31
0.0
  0
ARC
  8
LC-006-100-D08-0
  6
CONTINUOUS
  5
351
 10
532.710253
 20
287.694
 30
0.0
 40
1.0
 50
270.0
 51
0.0
  0
ARC
  8
LC-006-100-D08-0
  6
CONTINUOUS
  5
352
 10
532.710253
 20
335.694
 30
0.0
 40
1.0
 50
0.0
 51
90.0
  0
LINE
  8
LC-006-100-D08-0
  6
CONTINUOUS
  5
353
 10
534.210253
 20
336.694
 30
0.0
 11
535.210253
 21
336.694
 31
0.0
  0
LINE
  8
LC-006-100-D08-0
  6
CONTINUOUS
  5
354
 10
534.210253
 20
286.694
 30
0.0
 11
535.210253
 21
286.694
 31
0.0
  0
ENDSEC
  0
EOF
