  0
SECTION
  2
HEADER
  9
$ACADVER
  1
AC1009
  9
$INSBASE
 10
-40.116871
 20
136.829
 30
0.0
  9
$EXTMIN
 10
-40.116871
 20
136.829
 30
0.0
  9
$EXTMAX
 10
799.883129
 20
730.829
 30
0.0
  9
$LIMMIN
 10
-40.116871
 20
136.829
  9
$LIMMAX
 10
799.883129
 20
730.829
  9
$ORTHOMODE
 70
     0
  9
$REGENMODE
 70
     1
  9
$FILLMODE
 70
     1
  9
$QTEXTMODE
 70
     0
  9
$MIRRTEXT
 70
     1
  9
$DRAGMODE
 70
     2
  9
$LTSCALE
 40
2.0
  9
$OSMODE
 70
     0
  9
$ATTMODE
 70
     1
  9
$TEXTSIZE
 40
0.2
  9
$TRACEWID
 40
0.05
  9
$TEXTSTYLE
  7
STANDARD
  9
$CLAYER
  8
0
  9
$CELTYPE
  6
BYLAYER
  9
$CECOLOR
 62
     7
  9
$DIMSCALE
 40
2.0
  9
$DIMASZ
 40
3.5
  9
$DIMEXO
 40
0.0625
  9
$DIMDLI
 40
0.38
  9
$DIMRND
 40
0.0
  9
$DIMDLE
 40
0.0
  9
$DIMEXE
 40
0.18
  9
$DIMTP
 40
0.0
  9
$DIMTM
 40
0.0
  9
$DIMTXT
 40
3.5
  9
$DIMCEN
 40
0.09
  9
$DIMTSZ
 40
0.0
  9
$DIMTOL
 70
     0
  9
$DIMLIM
 70
     0
  9
$DIMTIH
 70
     1
  9
$DIMTOH
 70
     1
  9
$DIMSE1
 70
     0
  9
$DIMSE2
 70
     0
  9
$DIMTAD
 70
     1
  9
$DIMZIN
 70
     0
  9
$DIMBLK
  1

  9
$DIMASO
 70
     1
  9
$DIMSHO
 70
     1
  9
$DIMPOST
  1

  9
$DIMAPOST
  1

  9
$DIMALT
 70
     0
  9
$DIMALTD
 70
     2
  9
$DIMALTF
 40
25.4
  9
$DIMLFAC
 40
1.0
  9
$DIMTOFL
 70
     0
  9
$DIMTVP
 40
0.0
  9
$DIMTIX
 70
     0
  9
$DIMSOXD
 70
     0
  9
$DIMSAH
 70
     0
  9
$DIMBLK1
  1

  9
$DIMBLK2
  1

  9
$DIMSTYLE
  2
STANDARD
  9
$DIMCLRD
 70
     0
  9
$DIMCLRE
 70
     0
  9
$DIMCLRT
 70
     0
  9
$DIMTFAC
 40
1.0
  9
$DIMGAP
 40
0.09
  9
$LUNITS
 70
     2
  9
$LUPREC
 70
     2
  9
$AXISMODE
 70
     0
  9
$AXISUNIT
 10
0.0
 20
0.0
  9
$SKETCHINC
 40
0.1
  9
$FILLETRAD
 40
0.0
  9
$AUNITS
 70
     0
  9
$AUPREC
 70
     0
  9
$MENU
  1
acad
  9
$ELEVATION
 40
0.0
  9
$PELEVATION
 40
0.0
  9
$THICKNESS
 40
0.0
  9
$LIMCHECK
 70
     0
  9
$BLIPMODE
 70
     1
  9
$CHAMFERA
 40
0.0
  9
$CHAMFERB
 40
0.0
  9
$SKPOLY
 70
     0
  9
$TDCREATE
 40
0.000000000
  9
$TDUPDATE
 40
0.000000000
  9
$TDINDWG
 40
0.0000000000
  9
$TDUSRTIMER
 40
0.0000000000
  9
$USRTIMER
 70
     1
  9
$ANGBASE
 50
0.0
  9
$ANGDIR
 70
     0
  9
$PDMODE
 70
     0
  9
$PDSIZE
 40
0.0
  9
$PLINEWID
 40
0.0
  9
$COORDS
 70
     0
  9
$SPLFRAME
 70
     0
  9
$SPLINETYPE
 70
     6
  9
$SPLINESEGS
 70
     8
  9
$ATTDIA
 70
     0
  9
$ATTREQ
 70
     1
  9
$HANDLING
 70
     1
  9
$HANDSEED
  5
203
  9
$SURFTAB1
 70
     6
  9
$SURFTAB2
 70
     6
  9
$SURFTYPE
 70
     6
  9
$SURFU
 70
     6
  9
$SURFV
 70
     6
  9
$UCSNAME
  2

  9
$UCSORG
 10
0.0
 20
0.0
 30
0.0
  9
$UCSXDIR
 10
1.0
 20
0.0
 30
0.0
  9
$UCSYDIR
 10
0.0
 20
1.0
 30
0.0
  9
$PUCSNAME
  2

  9
$PUCSORG
 10
0.0
 20
0.0
 30
0.0
  9
$PUCSXDIR
 10
1.0
 20
0.0
 30
0.0
  9
$PUCSYDIR
 10
0.0
 20
1.0
 30
0.0
  9
$USERI1
 70
     0
  9
$USERI2
 70
     0
  9
$USERI3
 70
     0
  9
$USERI4
 70
     0
  9
$USERI5
 70
     0
  9
$USERR1
 40
0.0
  9
$USERR2
 40
0.0
  9
$USERR3
 40
0.0
  9
$USERR4
 40
0.0
  9
$USERR5
 40
0.0
  9
$WORLDVIEW
 70
     1
  9
$SHADEDGE
 70
     3
  9
$SHADEDIF
 70
    70
  9
$TILEMODE
 70
     1
  9
$MAXACTVP
 70
    16
  9
$PINSBASE
 10
0.0
 20
0.0
 30
0.0
  9
$PLIMCHECK
 70
     0
  9
$PEXTMIN
 10
1.000000E+20
 20
1.000000E+20
 30
1.000000E+20
  9
$PEXTMAX
 10
-1.000000E+20
 20
-1.000000E+20
 30
-1.000000E+20
  9
$PLIMMIN
 10
-40.116871
 20
136.829
  9
$PLIMMAX
 10
799.883129
 20
730.829
  9
$UNITMODE
 70
     0
  9
$VISRETAIN
 70
     0
  9
$PLINEGEN
 70
     1
  9
$PSLTSCALE
 70
     0
  9
$TREEDEPTH
 70
  3020
  9
$DWGCODEPAGE
  3
dos850
  0
ENDSEC
  0
SECTION
  2
TABLES
  0
TABLE
  2
VPORT
 70
     1
  0
VPORT
  2
*ACTIVE
 70
     0
 10
0.0
 20
0.0
 11
1.0
 21
1.0
 12
420.0
 22
297.0
 13
0.0
 23
0.0
 14
1.0
 24
1.0
 15
0.0
 25
0.0
 16
0.0
 26
0.0
 36
1.0
 17
-40.116871
 27
136.829
 37
0.0
 40
594.0
 41
1.604229
 42
50.0
 43
0.0
 44
0.0
 50
0.0
 51
0.0
 71
     0
 72
   100
 73
     1
 74
     1
 75
     0
 76
     0
 77
     0
 78
     0
  0
ENDTAB
  0
TABLE
  2
LTYPE
 70
     2
  0
LTYPE
  2
CONTINUOUS
 70
    64
  3
Solid line
 72
    65
 73
     0
 40
0.0
  0
LTYPE
  2
DASHDOT
 70
    64
  3
__ . __ . __ . __ . __
 72
    65
 73
     4
 40
4.0
 49
2.0
 49
-0.9
 49
0.2
 49
-0.9
  0
ENDTAB
  0
TABLE
  2
LAYER
 70
    10
  0
LAYER
  2
0
 70
     0
 62
     7
  6
CONTINUOUS
  0
LAYER
  2
LC-INFO-1-2-MM-A3-0
 70
     1
 62
    -1
  6
CONTINUOUS
  0
LAYER
  2
LC-003-005-----0
 70
     0
 62
     2
  6
CONTINUOUS
  0
LAYER
  2
LC-005-003-MTH-0
 70
     0
 62
     2
  6
CONTINUOUS
  0
LAYER
  2
LC-006-003-MTG-0
 70
     0
 62
     2
  6
CONTINUOUS
  0
LAYER
  2
LC-004-003-----0
 70
     0
 62
     2
  6
CONTINUOUS
  0
LAYER
  2
LC-007-000-----0
 70
     0
 62
     7
  6
CONTINUOUS
  0
LAYER
  2
LC-001-002-----0
 70
     0
 62
     1
  6
CONTINUOUS
  0
LAYER
  2
LC-002-002-RND-0
 70
     0
 62
     1
  6
CONTINUOUS
  0
LAYER
  2
LC-000
 70
     0
 62
     7
  6
CONTINUOUS
  0
ENDTAB
  0
TABLE
  2
STYLE
 70
     4
  0
STYLE
  2
STANDARD
 70
     0
 40
0.0
 41
1.0
 50
0.0
 71
     0
 42
0.0
  3
txt
  4

  0
STYLE
  2
LC-STANDARD
 70
    64
 40
0.0
 41
1.0
 50
0.0
 71
     0
 42
3.5
  3
MONOTXT
  4

  0
STYLE
  2
LC-TXTSTYLE-150-400-0-0-D2
 70
    64
 40
0.0
 41
1.0
 50
15.0
 71
     0
 42
3.5
  3
MONOTXT
  4

  0
STYLE
  2
LC-TXTSTYLE-150-400-0-0-D3
 70
    64
 40
0.0
 41
1.0
 50
15.0
 71
     0
 42
3.5
  3
LC-STANDARD
  4

  0
ENDTAB
  0
TABLE
  2
VIEW
 70
     0
  0
ENDTAB
  0
TABLE
  2
UCS
 70
     0
  0
ENDTAB
  0
TABLE
  2
APPID
 70
     1
  0
APPID
  2
ACAD
 70
     0
  0
ENDTAB
  0
TABLE
  2
DIMSTYLE
 70
     3
  0
DIMSTYLE
  2
STANDARD
 70
     0
  3

  4

  5

  6

  7

 40
1.0
 41
0.18
 42
0.0625
 43
0.38
 44
0.18
 45
0.0
 46
0.0
 47
0.0
 48
0.0
 71
     0
 72
     0
 73
     1
 74
     1
 75
     0
 76
     0
 77
     0
 78
     0
140
0.18
141
0.09
142
0.0
143
25.4
144
1.0
145
0.0
146
1.0
147
0.09
170
     0
171
     2
172
     0
173
     0
174
     0
175
     0
176
     0
177
     0
178
     0
  0
DIMSTYLE
  2
LC-STANDARD
 70
     0
  3

  4

  5

  6

  7

 40
1.0
 41
3.5
 42
0.0
 43
7.5
 44
1.8
 45
0.0
 46
0.0
 47
0.0
 48
0.0
 71
     0
 72
     0
 73
     0
 74
     0
 75
     0
 76
     0
 77
     1
 78
     8
140
3.5
141
0.0
142
0.0
143
25.4
144
1.0
145
0.0
146
0.71
147
1.5
170
     0
171
     2
172
     1
173
     0
174
     0
175
     0
176
     0
177
     0
178
     3
  0
DIMSTYLE
  2
LC-DIM-L-0090-02-02
 70
     0
  3

  4

  5

  6

  7

 40
2.0
 41
3.5
 42
0.0
 43
7.5
 44
1.8
 45
0.0
 46
0.0
 47
0.0
 48
0.0
 71
     0
 72
     0
 73
     0
 74
     0
 75
     0
 76
     0
 77
     1
 78
     8
140
9.0
141
0.0
142
0.0
143
25.4
144
1.0
145
0.0
146
0.71
147
1.5
170
     0
171
     2
172
     0
173
     0
174
     0
175
     0
176
     2
177
     2
178
     6
  0
ENDTAB
  0
ENDSEC
  0
SECTION
  2
BLOCKS
  0
BLOCK
  8
0
  5
23
  2
*X0
 70
    65
 10
329.880106
 20
530.53752
 30
0.0
  3
*X0
  0
LINE
  8
LC-003-005-----0
  6
CONTINUOUS
  5
25
 10
558.821792
 20
530.53752
 30
0.0
 11
559.876404
 21
531.592133
 31
0.0
  0
LINE
  8
LC-003-005-----0
  6
CONTINUOUS
  5
26
 10
555.993365
 20
530.53752
 30
0.0
 11
558.098071
 21
532.642227
 31
0.0
  0
LINE
  8
LC-003-005-----0
  6
CONTINUOUS
  5
27
 10
553.164937
 20
530.53752
 30
0.0
 11
555.864937
 21
533.23752
 31
0.0
  0
LINE
  8
LC-003-005-----0
  6
CONTINUOUS
  5
28
 10
550.33651
 20
530.53752
 30
0.0
 11
553.03651
 21
533.23752
 31
0.0
  0
LINE
  8
LC-003-005-----0
  6
CONTINUOUS
  5
29
 10
547.508083
 20
530.53752
 30
0.0
 11
550.208083
 21
533.23752
 31
0.0
  0
LINE
  8
LC-003-005-----0
  6
CONTINUOUS
  5
2A
 10
544.679656
 20
530.53752
 30
0.0
 11
547.379656
 21
533.23752
 31
0.0
  0
LINE
  8
LC-003-005-----0
  6
CONTINUOUS
  5
2B
 10
541.851229
 20
530.53752
 30
0.0
 11
544.551229
 21
533.23752
 31
0.0
  0
LINE
  8
LC-003-005-----0
  6
CONTINUOUS
  5
2C
 10
539.022802
 20
530.53752
 30
0.0
 11
541.722802
 21
533.23752
 31
0.0
  0
LINE
  8
LC-003-005-----0
  6
CONTINUOUS
  5
2D
 10
536.194375
 20
530.53752
 30
0.0
 11
538.894375
 21
533.23752
 31
0.0
  0
LINE
  8
LC-003-005-----0
  6
CONTINUOUS
  5
2E
 10
533.365948
 20
530.53752
 30
0.0
 11
536.065948
 21
533.23752
 31
0.0
  0
LINE
  8
LC-003-005-----0
  6
CONTINUOUS
  5
2F
 10
530.53752
 20
530.53752
 30
0.0
 11
533.23752
 21
533.23752
 31
0.0
  0
LINE
  8
LC-003-005-----0
  6
CONTINUOUS
  5
30
 10
527.709093
 20
530.53752
 30
0.0
 11
530.409093
 21
533.23752
 31
0.0
  0
LINE
  8
LC-003-005-----0
  6
CONTINUOUS
  5
31
 10
524.880666
 20
530.53752
 30
0.0
 11
527.580666
 21
533.23752
 31
0.0
  0
LINE
  8
LC-003-005-----0
  6
CONTINUOUS
  5
32
 10
522.052239
 20
530.53752
 30
0.0
 11
524.752239
 21
533.23752
 31
0.0
  0
LINE
  8
LC-003-005-----0
  6
CONTINUOUS
  5
33
 10
519.223812
 20
530.53752
 30
0.0
 11
521.923812
 21
533.23752
 31
0.0
  0
LINE
  8
LC-003-005-----0
  6
CONTINUOUS
  5
34
 10
516.395385
 20
530.53752
 30
0.0
 11
519.095385
 21
533.23752
 31
0.0
  0
LINE
  8
LC-003-005-----0
  6
CONTINUOUS
  5
35
 10
513.566958
 20
530.53752
 30
0.0
 11
516.266958
 21
533.23752
 31
0.0
  0
LINE
  8
LC-003-005-----0
  6
CONTINUOUS
  5
36
 10
510.738531
 20
530.53752
 30
0.0
 11
513.438531
 21
533.23752
 31
0.0
  0
LINE
  8
LC-003-005-----0
  6
CONTINUOUS
  5
37
 10
507.910103
 20
530.53752
 30
0.0
 11
510.610103
 21
533.23752
 31
0.0
  0
LINE
  8
LC-003-005-----0
  6
CONTINUOUS
  5
38
 10
505.081676
 20
530.53752
 30
0.0
 11
507.781676
 21
533.23752
 31
0.0
  0
LINE
  8
LC-003-005-----0
  6
CONTINUOUS
  5
39
 10
502.253249
 20
530.53752
 30
0.0
 11
504.953249
 21
533.23752
 31
0.0
  0
LINE
  8
LC-003-005-----0
  6
CONTINUOUS
  5
3A
 10
499.424822
 20
530.53752
 30
0.0
 11
502.124822
 21
533.23752
 31
0.0
  0
LINE
  8
LC-003-005-----0
  6
CONTINUOUS
  5
3B
 10
496.596395
 20
530.53752
 30
0.0
 11
499.296395
 21
533.23752
 31
0.0
  0
LINE
  8
LC-003-005-----0
  6
CONTINUOUS
  5
3C
 10
493.767968
 20
530.53752
 30
0.0
 11
496.467968
 21
533.23752
 31
0.0
  0
LINE
  8
LC-003-005-----0
  6
CONTINUOUS
  5
3D
 10
490.939541
 20
530.53752
 30
0.0
 11
493.639541
 21
533.23752
 31
0.0
  0
LINE
  8
LC-003-005-----0
  6
CONTINUOUS
  5
3E
 10
488.111114
 20
530.53752
 30
0.0
 11
490.811114
 21
533.23752
 31
0.0
  0
LINE
  8
LC-003-005-----0
  6
CONTINUOUS
  5
3F
 10
485.282686
 20
530.53752
 30
0.0
 11
487.982686
 21
533.23752
 31
0.0
  0
LINE
  8
LC-003-005-----0
  6
CONTINUOUS
  5
40
 10
482.454259
 20
530.53752
 30
0.0
 11
485.154259
 21
533.23752
 31
0.0
  0
LINE
  8
LC-003-005-----0
  6
CONTINUOUS
  5
41
 10
479.625832
 20
530.53752
 30
0.0
 11
482.325832
 21
533.23752
 31
0.0
  0
LINE
  8
LC-003-005-----0
  6
CONTINUOUS
  5
42
 10
476.797405
 20
530.53752
 30
0.0
 11
479.497405
 21
533.23752
 31
0.0
  0
LINE
  8
LC-003-005-----0
  6
CONTINUOUS
  5
43
 10
473.968978
 20
530.53752
 30
0.0
 11
476.668978
 21
533.23752
 31
0.0
  0
LINE
  8
LC-003-005-----0
  6
CONTINUOUS
  5
44
 10
471.140551
 20
530.53752
 30
0.0
 11
473.840551
 21
533.23752
 31
0.0
  0
LINE
  8
LC-003-005-----0
  6
CONTINUOUS
  5
45
 10
468.312124
 20
530.53752
 30
0.0
 11
471.012124
 21
533.23752
 31
0.0
  0
LINE
  8
LC-003-005-----0
  6
CONTINUOUS
  5
46
 10
465.483697
 20
530.53752
 30
0.0
 11
468.183697
 21
533.23752
 31
0.0
  0
LINE
  8
LC-003-005-----0
  6
CONTINUOUS
  5
47
 10
462.655269
 20
530.53752
 30
0.0
 11
465.355269
 21
533.23752
 31
0.0
  0
LINE
  8
LC-003-005-----0
  6
CONTINUOUS
  5
48
 10
459.826842
 20
530.53752
 30
0.0
 11
462.526842
 21
533.23752
 31
0.0
  0
LINE
  8
LC-003-005-----0
  6
CONTINUOUS
  5
49
 10
456.998415
 20
530.53752
 30
0.0
 11
459.698415
 21
533.23752
 31
0.0
  0
LINE
  8
LC-003-005-----0
  6
CONTINUOUS
  5
4A
 10
454.169988
 20
530.53752
 30
0.0
 11
456.869988
 21
533.23752
 31
0.0
  0
LINE
  8
LC-003-005-----0
  6
CONTINUOUS
  5
4B
 10
451.341561
 20
530.53752
 30
0.0
 11
454.041561
 21
533.23752
 31
0.0
  0
LINE
  8
LC-003-005-----0
  6
CONTINUOUS
  5
4C
 10
448.513134
 20
530.53752
 30
0.0
 11
451.213134
 21
533.23752
 31
0.0
  0
LINE
  8
LC-003-005-----0
  6
CONTINUOUS
  5
4D
 10
445.684707
 20
530.53752
 30
0.0
 11
448.384707
 21
533.23752
 31
0.0
  0
LINE
  8
LC-003-005-----0
  6
CONTINUOUS
  5
4E
 10
442.85628
 20
530.53752
 30
0.0
 11
445.55628
 21
533.23752
 31
0.0
  0
LINE
  8
LC-003-005-----0
  6
CONTINUOUS
  5
4F
 10
440.027852
 20
530.53752
 30
0.0
 11
442.727852
 21
533.23752
 31
0.0
  0
LINE
  8
LC-003-005-----0
  6
CONTINUOUS
  5
50
 10
437.199425
 20
530.53752
 30
0.0
 11
439.899425
 21
533.23752
 31
0.0
  0
LINE
  8
LC-003-005-----0
  6
CONTINUOUS
  5
51
 10
434.370998
 20
530.53752
 30
0.0
 11
437.070998
 21
533.23752
 31
0.0
  0
LINE
  8
LC-003-005-----0
  6
CONTINUOUS
  5
52
 10
431.542571
 20
530.53752
 30
0.0
 11
434.242571
 21
533.23752
 31
0.0
  0
LINE
  8
LC-003-005-----0
  6
CONTINUOUS
  5
53
 10
428.714144
 20
530.53752
 30
0.0
 11
431.414144
 21
533.23752
 31
0.0
  0
LINE
  8
LC-003-005-----0
  6
CONTINUOUS
  5
54
 10
425.885717
 20
530.53752
 30
0.0
 11
428.585717
 21
533.23752
 31
0.0
  0
LINE
  8
LC-003-005-----0
  6
CONTINUOUS
  5
55
 10
423.05729
 20
530.53752
 30
0.0
 11
425.75729
 21
533.23752
 31
0.0
  0
LINE
  8
LC-003-005-----0
  6
CONTINUOUS
  5
56
 10
420.228863
 20
530.53752
 30
0.0
 11
422.928863
 21
533.23752
 31
0.0
  0
LINE
  8
LC-003-005-----0
  6
CONTINUOUS
  5
57
 10
417.400435
 20
530.53752
 30
0.0
 11
420.100435
 21
533.23752
 31
0.0
  0
LINE
  8
LC-003-005-----0
  6
CONTINUOUS
  5
58
 10
414.572008
 20
530.53752
 30
0.0
 11
417.272008
 21
533.23752
 31
0.0
  0
LINE
  8
LC-003-005-----0
  6
CONTINUOUS
  5
59
 10
411.743581
 20
530.53752
 30
0.0
 11
414.443581
 21
533.23752
 31
0.0
  0
LINE
  8
LC-003-005-----0
  6
CONTINUOUS
  5
5A
 10
408.915154
 20
530.53752
 30
0.0
 11
411.615154
 21
533.23752
 31
0.0
  0
LINE
  8
LC-003-005-----0
  6
CONTINUOUS
  5
5B
 10
406.086727
 20
530.53752
 30
0.0
 11
408.786727
 21
533.23752
 31
0.0
  0
LINE
  8
LC-003-005-----0
  6
CONTINUOUS
  5
5C
 10
403.2583
 20
530.53752
 30
0.0
 11
405.9583
 21
533.23752
 31
0.0
  0
LINE
  8
LC-003-005-----0
  6
CONTINUOUS
  5
5D
 10
400.429873
 20
530.53752
 30
0.0
 11
403.129873
 21
533.23752
 31
0.0
  0
LINE
  8
LC-003-005-----0
  6
CONTINUOUS
  5
5E
 10
397.601446
 20
530.53752
 30
0.0
 11
400.301446
 21
533.23752
 31
0.0
  0
LINE
  8
LC-003-005-----0
  6
CONTINUOUS
  5
5F
 10
394.773018
 20
530.53752
 30
0.0
 11
397.473018
 21
533.23752
 31
0.0
  0
LINE
  8
LC-003-005-----0
  6
CONTINUOUS
  5
60
 10
391.944591
 20
530.53752
 30
0.0
 11
394.644591
 21
533.23752
 31
0.0
  0
LINE
  8
LC-003-005-----0
  6
CONTINUOUS
  5
61
 10
389.116164
 20
530.53752
 30
0.0
 11
391.816164
 21
533.23752
 31
0.0
  0
LINE
  8
LC-003-005-----0
  6
CONTINUOUS
  5
62
 10
387.083922
 20
531.333705
 30
0.0
 11
389.283922
 21
533.533705
 31
0.0
  0
LINE
  8
LC-003-005-----0
  6
CONTINUOUS
  5
63
 10
385.669708
 20
532.747919
 30
0.0
 11
387.869708
 21
534.947919
 31
0.0
  0
LINE
  8
LC-003-005-----0
  6
CONTINUOUS
  5
64
 10
383.630883
 20
533.53752
 30
0.0
 11
386.480106
 21
536.386744
 31
0.0
  0
LINE
  8
LC-003-005-----0
  6
CONTINUOUS
  5
65
 10
380.802456
 20
533.53752
 30
0.0
 11
386.1983
 21
538.933364
 31
0.0
  0
LINE
  8
LC-003-005-----0
  6
CONTINUOUS
  5
66
 10
377.974029
 20
533.53752
 30
0.0
 11
380.674029
 21
536.23752
 31
0.0
  0
LINE
  8
LC-003-005-----0
  6
CONTINUOUS
  5
67
 10
375.145601
 20
533.53752
 30
0.0
 11
377.845601
 21
536.23752
 31
0.0
  0
LINE
  8
LC-003-005-----0
  6
CONTINUOUS
  5
68
 10
372.317174
 20
533.53752
 30
0.0
 11
375.017174
 21
536.23752
 31
0.0
  0
LINE
  8
LC-003-005-----0
  6
CONTINUOUS
  5
69
 10
369.488747
 20
533.53752
 30
0.0
 11
372.188747
 21
536.23752
 31
0.0
  0
LINE
  8
LC-003-005-----0
  6
CONTINUOUS
  5
6A
 10
366.66032
 20
533.53752
 30
0.0
 11
369.36032
 21
536.23752
 31
0.0
  0
LINE
  8
LC-003-005-----0
  6
CONTINUOUS
  5
6B
 10
363.831893
 20
533.53752
 30
0.0
 11
366.531893
 21
536.23752
 31
0.0
  0
LINE
  8
LC-003-005-----0
  6
CONTINUOUS
  5
6C
 10
361.003466
 20
533.53752
 30
0.0
 11
363.703466
 21
536.23752
 31
0.0
  0
LINE
  8
LC-003-005-----0
  6
CONTINUOUS
  5
6D
 10
358.175039
 20
533.53752
 30
0.0
 11
360.875039
 21
536.23752
 31
0.0
  0
LINE
  8
LC-003-005-----0
  6
CONTINUOUS
  5
6E
 10
355.346612
 20
533.53752
 30
0.0
 11
358.046612
 21
536.23752
 31
0.0
  0
LINE
  8
LC-003-005-----0
  6
CONTINUOUS
  5
6F
 10
352.518184
 20
533.53752
 30
0.0
 11
355.218184
 21
536.23752
 31
0.0
  0
LINE
  8
LC-003-005-----0
  6
CONTINUOUS
  5
70
 10
349.689757
 20
533.53752
 30
0.0
 11
352.389757
 21
536.23752
 31
0.0
  0
LINE
  8
LC-003-005-----0
  6
CONTINUOUS
  5
71
 10
347.425683
 20
534.101874
 30
0.0
 11
349.785307
 21
536.461497
 31
0.0
  0
LINE
  8
LC-003-005-----0
  6
CONTINUOUS
  5
72
 10
346.827966
 20
536.332584
 30
0.0
 11
349.032507
 21
538.537125
 31
0.0
  0
LINE
  8
LC-003-005-----0
  6
CONTINUOUS
  5
73
 10
346.204476
 20
538.53752
 30
0.0
 11
348.406478
 21
540.739522
 31
0.0
  0
LINE
  8
LC-003-005-----0
  6
CONTINUOUS
  5
74
 10
343.376049
 20
538.53752
 30
0.0
 11
346.076049
 21
541.23752
 31
0.0
  0
LINE
  8
LC-003-005-----0
  6
CONTINUOUS
  5
75
 10
340.547622
 20
538.53752
 30
0.0
 11
343.247622
 21
541.23752
 31
0.0
  0
LINE
  8
LC-003-005-----0
  6
CONTINUOUS
  5
76
 10
334.019195
 20
534.83752
 30
0.0
 11
340.419195
 21
541.23752
 31
0.0
  0
LINE
  8
LC-003-005-----0
  6
CONTINUOUS
  5
77
 10
331.190767
 20
534.83752
 30
0.0
 11
334.270916
 21
537.917669
 31
0.0
  0
LINE
  8
LC-003-005-----0
  6
CONTINUOUS
  5
78
 10
334.798499
 20
538.445252
 30
0.0
 11
337.590767
 21
541.23752
 31
0.0
  0
LINE
  8
LC-003-005-----0
  6
CONTINUOUS
  5
79
 10
329.880106
 20
536.355287
 30
0.0
 11
331.36234
 21
537.83752
 31
0.0
  0
ENDBLK
  8
0
  5
7A
  0
BLOCK
  8
0
  5
7C
  2
*X1
 70
    65
 10
329.880106
 20
435.03752
 30
0.0
  3
*X1
  0
LINE
  8
LC-003-005-----0
  6
CONTINUOUS
  5
7D
 10
556.298158
 20
443.161073
 30
0.0
 11
558.874605
 21
445.73752
 31
0.0
  0
LINE
  8
LC-003-005-----0
  6
CONTINUOUS
  5
7E
 10
553.346178
 20
443.03752
 30
0.0
 11
556.046178
 21
445.73752
 31
0.0
  0
LINE
  8
LC-003-005-----0
  6
CONTINUOUS
  5
7F
 10
550.517751
 20
443.03752
 30
0.0
 11
553.217751
 21
445.73752
 31
0.0
  0
LINE
  8
LC-003-005-----0
  6
CONTINUOUS
  5
80
 10
547.689324
 20
443.03752
 30
0.0
 11
550.389324
 21
445.73752
 31
0.0
  0
LINE
  8
LC-003-005-----0
  6
CONTINUOUS
  5
81
 10
544.860897
 20
443.03752
 30
0.0
 11
547.560897
 21
445.73752
 31
0.0
  0
LINE
  8
LC-003-005-----0
  6
CONTINUOUS
  5
82
 10
542.03247
 20
443.03752
 30
0.0
 11
544.73247
 21
445.73752
 31
0.0
  0
LINE
  8
LC-003-005-----0
  6
CONTINUOUS
  5
83
 10
539.204043
 20
443.03752
 30
0.0
 11
541.904043
 21
445.73752
 31
0.0
  0
LINE
  8
LC-003-005-----0
  6
CONTINUOUS
  5
84
 10
536.375616
 20
443.03752
 30
0.0
 11
539.075616
 21
445.73752
 31
0.0
  0
LINE
  8
LC-003-005-----0
  6
CONTINUOUS
  5
85
 10
533.547188
 20
443.03752
 30
0.0
 11
536.247188
 21
445.73752
 31
0.0
  0
LINE
  8
LC-003-005-----0
  6
CONTINUOUS
  5
86
 10
530.718761
 20
443.03752
 30
0.0
 11
533.418761
 21
445.73752
 31
0.0
  0
LINE
  8
LC-003-005-----0
  6
CONTINUOUS
  5
87
 10
527.890334
 20
443.03752
 30
0.0
 11
530.590334
 21
445.73752
 31
0.0
  0
LINE
  8
LC-003-005-----0
  6
CONTINUOUS
  5
88
 10
525.061907
 20
443.03752
 30
0.0
 11
527.761907
 21
445.73752
 31
0.0
  0
LINE
  8
LC-003-005-----0
  6
CONTINUOUS
  5
89
 10
522.23348
 20
443.03752
 30
0.0
 11
524.93348
 21
445.73752
 31
0.0
  0
LINE
  8
LC-003-005-----0
  6
CONTINUOUS
  5
8A
 10
519.405053
 20
443.03752
 30
0.0
 11
522.105053
 21
445.73752
 31
0.0
  0
LINE
  8
LC-003-005-----0
  6
CONTINUOUS
  5
8B
 10
516.576626
 20
443.03752
 30
0.0
 11
519.276626
 21
445.73752
 31
0.0
  0
LINE
  8
LC-003-005-----0
  6
CONTINUOUS
  5
8C
 10
513.748199
 20
443.03752
 30
0.0
 11
516.448199
 21
445.73752
 31
0.0
  0
LINE
  8
LC-003-005-----0
  6
CONTINUOUS
  5
8D
 10
510.919771
 20
443.03752
 30
0.0
 11
513.619771
 21
445.73752
 31
0.0
  0
LINE
  8
LC-003-005-----0
  6
CONTINUOUS
  5
8E
 10
508.091344
 20
443.03752
 30
0.0
 11
510.791344
 21
445.73752
 31
0.0
  0
LINE
  8
LC-003-005-----0
  6
CONTINUOUS
  5
8F
 10
505.262917
 20
443.03752
 30
0.0
 11
507.962917
 21
445.73752
 31
0.0
  0
LINE
  8
LC-003-005-----0
  6
CONTINUOUS
  5
90
 10
502.43449
 20
443.03752
 30
0.0
 11
505.13449
 21
445.73752
 31
0.0
  0
LINE
  8
LC-003-005-----0
  6
CONTINUOUS
  5
91
 10
499.606063
 20
443.03752
 30
0.0
 11
502.306063
 21
445.73752
 31
0.0
  0
LINE
  8
LC-003-005-----0
  6
CONTINUOUS
  5
92
 10
496.777636
 20
443.03752
 30
0.0
 11
499.477636
 21
445.73752
 31
0.0
  0
LINE
  8
LC-003-005-----0
  6
CONTINUOUS
  5
93
 10
493.949209
 20
443.03752
 30
0.0
 11
496.649209
 21
445.73752
 31
0.0
  0
LINE
  8
LC-003-005-----0
  6
CONTINUOUS
  5
94
 10
491.120782
 20
443.03752
 30
0.0
 11
493.820782
 21
445.73752
 31
0.0
  0
LINE
  8
LC-003-005-----0
  6
CONTINUOUS
  5
95
 10
488.292354
 20
443.03752
 30
0.0
 11
490.992354
 21
445.73752
 31
0.0
  0
LINE
  8
LC-003-005-----0
  6
CONTINUOUS
  5
96
 10
485.463927
 20
443.03752
 30
0.0
 11
488.163927
 21
445.73752
 31
0.0
  0
LINE
  8
LC-003-005-----0
  6
CONTINUOUS
  5
97
 10
482.6355
 20
443.03752
 30
0.0
 11
485.3355
 21
445.73752
 31
0.0
  0
LINE
  8
LC-003-005-----0
  6
CONTINUOUS
  5
98
 10
479.807073
 20
443.03752
 30
0.0
 11
482.507073
 21
445.73752
 31
0.0
  0
LINE
  8
LC-003-005-----0
  6
CONTINUOUS
  5
99
 10
476.978646
 20
443.03752
 30
0.0
 11
479.678646
 21
445.73752
 31
0.0
  0
LINE
  8
LC-003-005-----0
  6
CONTINUOUS
  5
9A
 10
474.150219
 20
443.03752
 30
0.0
 11
476.850219
 21
445.73752
 31
0.0
  0
LINE
  8
LC-003-005-----0
  6
CONTINUOUS
  5
9B
 10
471.321792
 20
443.03752
 30
0.0
 11
474.021792
 21
445.73752
 31
0.0
  0
LINE
  8
LC-003-005-----0
  6
CONTINUOUS
  5
9C
 10
468.493365
 20
443.03752
 30
0.0
 11
471.193365
 21
445.73752
 31
0.0
  0
LINE
  8
LC-003-005-----0
  6
CONTINUOUS
  5
9D
 10
465.664937
 20
443.03752
 30
0.0
 11
468.364937
 21
445.73752
 31
0.0
  0
LINE
  8
LC-003-005-----0
  6
CONTINUOUS
  5
9E
 10
462.83651
 20
443.03752
 30
0.0
 11
465.53651
 21
445.73752
 31
0.0
  0
LINE
  8
LC-003-005-----0
  6
CONTINUOUS
  5
9F
 10
460.008083
 20
443.03752
 30
0.0
 11
462.708083
 21
445.73752
 31
0.0
  0
LINE
  8
LC-003-005-----0
  6
CONTINUOUS
  5
A0
 10
457.179656
 20
443.03752
 30
0.0
 11
459.879656
 21
445.73752
 31
0.0
  0
LINE
  8
LC-003-005-----0
  6
CONTINUOUS
  5
A1
 10
454.351229
 20
443.03752
 30
0.0
 11
457.051229
 21
445.73752
 31
0.0
  0
LINE
  8
LC-003-005-----0
  6
CONTINUOUS
  5
A2
 10
451.522802
 20
443.03752
 30
0.0
 11
454.222802
 21
445.73752
 31
0.0
  0
LINE
  8
LC-003-005-----0
  6
CONTINUOUS
  5
A3
 10
448.694375
 20
443.03752
 30
0.0
 11
451.394375
 21
445.73752
 31
0.0
  0
LINE
  8
LC-003-005-----0
  6
CONTINUOUS
  5
A4
 10
445.865948
 20
443.03752
 30
0.0
 11
448.565948
 21
445.73752
 31
0.0
  0
LINE
  8
LC-003-005-----0
  6
CONTINUOUS
  5
A5
 10
443.03752
 20
443.03752
 30
0.0
 11
445.73752
 21
445.73752
 31
0.0
  0
LINE
  8
LC-003-005-----0
  6
CONTINUOUS
  5
A6
 10
440.209093
 20
443.03752
 30
0.0
 11
442.909093
 21
445.73752
 31
0.0
  0
LINE
  8
LC-003-005-----0
  6
CONTINUOUS
  5
A7
 10
437.380666
 20
443.03752
 30
0.0
 11
440.080666
 21
445.73752
 31
0.0
  0
LINE
  8
LC-003-005-----0
  6
CONTINUOUS
  5
A8
 10
434.552239
 20
443.03752
 30
0.0
 11
437.252239
 21
445.73752
 31
0.0
  0
LINE
  8
LC-003-005-----0
  6
CONTINUOUS
  5
A9
 10
431.723812
 20
443.03752
 30
0.0
 11
434.423812
 21
445.73752
 31
0.0
  0
LINE
  8
LC-003-005-----0
  6
CONTINUOUS
  5
AA
 10
428.895385
 20
443.03752
 30
0.0
 11
431.595385
 21
445.73752
 31
0.0
  0
LINE
  8
LC-003-005-----0
  6
CONTINUOUS
  5
AB
 10
426.066958
 20
443.03752
 30
0.0
 11
428.766958
 21
445.73752
 31
0.0
  0
LINE
  8
LC-003-005-----0
  6
CONTINUOUS
  5
AC
 10
423.238531
 20
443.03752
 30
0.0
 11
425.938531
 21
445.73752
 31
0.0
  0
LINE
  8
LC-003-005-----0
  6
CONTINUOUS
  5
AD
 10
420.410103
 20
443.03752
 30
0.0
 11
423.110103
 21
445.73752
 31
0.0
  0
LINE
  8
LC-003-005-----0
  6
CONTINUOUS
  5
AE
 10
417.581676
 20
443.03752
 30
0.0
 11
420.281676
 21
445.73752
 31
0.0
  0
LINE
  8
LC-003-005-----0
  6
CONTINUOUS
  5
AF
 10
414.753249
 20
443.03752
 30
0.0
 11
417.453249
 21
445.73752
 31
0.0
  0
LINE
  8
LC-003-005-----0
  6
CONTINUOUS
  5
B0
 10
411.924822
 20
443.03752
 30
0.0
 11
414.624822
 21
445.73752
 31
0.0
  0
LINE
  8
LC-003-005-----0
  6
CONTINUOUS
  5
B1
 10
409.096395
 20
443.03752
 30
0.0
 11
411.796395
 21
445.73752
 31
0.0
  0
LINE
  8
LC-003-005-----0
  6
CONTINUOUS
  5
B2
 10
406.267968
 20
443.03752
 30
0.0
 11
408.967968
 21
445.73752
 31
0.0
  0
LINE
  8
LC-003-005-----0
  6
CONTINUOUS
  5
B3
 10
403.439541
 20
443.03752
 30
0.0
 11
406.139541
 21
445.73752
 31
0.0
  0
LINE
  8
LC-003-005-----0
  6
CONTINUOUS
  5
B4
 10
400.611114
 20
443.03752
 30
0.0
 11
403.311114
 21
445.73752
 31
0.0
  0
LINE
  8
LC-003-005-----0
  6
CONTINUOUS
  5
B5
 10
397.782686
 20
443.03752
 30
0.0
 11
400.482686
 21
445.73752
 31
0.0
  0
LINE
  8
LC-003-005-----0
  6
CONTINUOUS
  5
B6
 10
394.954259
 20
443.03752
 30
0.0
 11
397.654259
 21
445.73752
 31
0.0
  0
LINE
  8
LC-003-005-----0
  6
CONTINUOUS
  5
B7
 10
392.125832
 20
443.03752
 30
0.0
 11
394.825832
 21
445.73752
 31
0.0
  0
LINE
  8
LC-003-005-----0
  6
CONTINUOUS
  5
B8
 10
383.687575
 20
437.42769
 30
0.0
 11
391.997405
 21
445.73752
 31
0.0
  0
LINE
  8
LC-003-005-----0
  6
CONTINUOUS
  5
B9
 10
383.468978
 20
440.03752
 30
0.0
 11
389.168978
 21
445.73752
 31
0.0
  0
LINE
  8
LC-003-005-----0
  6
CONTINUOUS
  5
BA
 10
380.640551
 20
440.03752
 30
0.0
 11
383.340551
 21
442.73752
 31
0.0
  0
LINE
  8
LC-003-005-----0
  6
CONTINUOUS
  5
BB
 10
377.812124
 20
440.03752
 30
0.0
 11
380.512124
 21
442.73752
 31
0.0
  0
LINE
  8
LC-003-005-----0
  6
CONTINUOUS
  5
BC
 10
374.983697
 20
440.03752
 30
0.0
 11
377.683697
 21
442.73752
 31
0.0
  0
LINE
  8
LC-003-005-----0
  6
CONTINUOUS
  5
BD
 10
372.155269
 20
440.03752
 30
0.0
 11
374.855269
 21
442.73752
 31
0.0
  0
LINE
  8
LC-003-005-----0
  6
CONTINUOUS
  5
BE
 10
369.326842
 20
440.03752
 30
0.0
 11
372.026842
 21
442.73752
 31
0.0
  0
LINE
  8
LC-003-005-----0
  6
CONTINUOUS
  5
BF
 10
366.498415
 20
440.03752
 30
0.0
 11
369.198415
 21
442.73752
 31
0.0
  0
LINE
  8
LC-003-005-----0
  6
CONTINUOUS
  5
C0
 10
363.669988
 20
440.03752
 30
0.0
 11
366.369988
 21
442.73752
 31
0.0
  0
LINE
  8
LC-003-005-----0
  6
CONTINUOUS
  5
C1
 10
360.841561
 20
440.03752
 30
0.0
 11
363.541561
 21
442.73752
 31
0.0
  0
LINE
  8
LC-003-005-----0
  6
CONTINUOUS
  5
C2
 10
358.013134
 20
440.03752
 30
0.0
 11
360.713134
 21
442.73752
 31
0.0
  0
LINE
  8
LC-003-005-----0
  6
CONTINUOUS
  5
C3
 10
355.184707
 20
440.03752
 30
0.0
 11
357.884707
 21
442.73752
 31
0.0
  0
LINE
  8
LC-003-005-----0
  6
CONTINUOUS
  5
C4
 10
347.35628
 20
435.03752
 30
0.0
 11
348.657636
 21
436.338876
 31
0.0
  0
LINE
  8
LC-003-005-----0
  6
CONTINUOUS
  5
C5
 10
352.35628
 20
440.03752
 30
0.0
 11
355.05628
 21
442.73752
 31
0.0
  0
LINE
  8
LC-003-005-----0
  6
CONTINUOUS
  5
C6
 10
344.527852
 20
435.03752
 30
0.0
 11
352.227852
 21
442.73752
 31
0.0
  0
LINE
  8
LC-003-005-----0
  6
CONTINUOUS
  5
C7
 10
341.699425
 20
435.03752
 30
0.0
 11
344.399425
 21
437.73752
 31
0.0
  0
LINE
  8
LC-003-005-----0
  6
CONTINUOUS
  5
C8
 10
346.909811
 20
440.247906
 30
0.0
 11
349.399425
 21
442.73752
 31
0.0
  0
LINE
  8
LC-003-005-----0
  6
CONTINUOUS
  5
C9
 10
338.870998
 20
435.03752
 30
0.0
 11
341.570998
 21
437.73752
 31
0.0
  0
LINE
  8
LC-003-005-----0
  6
CONTINUOUS
  5
CA
 10
336.042571
 20
435.03752
 30
0.0
 11
338.911339
 21
437.906288
 31
0.0
  0
LINE
  8
LC-003-005-----0
  6
CONTINUOUS
  5
CB
 10
334.878648
 20
436.702025
 30
0.0
 11
337.497125
 21
439.320502
 31
0.0
  0
LINE
  8
LC-003-005-----0
  6
CONTINUOUS
  5
CC
 10
333.785717
 20
438.43752
 30
0.0
 11
336.082912
 21
440.734715
 31
0.0
  0
LINE
  8
LC-003-005-----0
  6
CONTINUOUS
  5
CD
 10
330.95729
 20
438.43752
 30
0.0
 11
333.95729
 21
441.43752
 31
0.0
  0
LINE
  8
LC-003-005-----0
  6
CONTINUOUS
  5
CE
 10
329.880106
 20
440.188764
 30
0.0
 11
331.128863
 21
441.43752
 31
0.0
  0
ENDBLK
  8
0
  5
CF
  0
BLOCK
  8
0
  5
D1
  2
*X2
 70
    65
 10
337.082274
 20
438.23752
 30
0.0
  3
*X2
  0
LINE
  8
LC-003-005-----0
  6
CONTINUOUS
  5
D2
 10
345.747953
 20
438.23752
 30
0.0
 11
345.789381
 21
438.278948
 31
0.0
  0
LINE
  8
LC-003-005-----0
  6
CONTINUOUS
  5
D3
 10
345.465111
 20
438.23752
 30
0.0
 11
345.789381
 21
438.56179
 31
0.0
  0
LINE
  8
LC-003-005-----0
  6
CONTINUOUS
  5
D4
 10
345.182268
 20
438.23752
 30
0.0
 11
345.789381
 21
438.844633
 31
0.0
  0
LINE
  8
LC-003-005-----0
  6
CONTINUOUS
  5
D5
 10
344.899425
 20
438.23752
 30
0.0
 11
345.789381
 21
439.127476
 31
0.0
  0
LINE
  8
LC-003-005-----0
  6
CONTINUOUS
  5
D6
 10
344.616583
 20
438.23752
 30
0.0
 11
345.789381
 21
439.410319
 31
0.0
  0
LINE
  8
LC-003-005-----0
  6
CONTINUOUS
  5
D7
 10
344.33374
 20
438.23752
 30
0.0
 11
345.789381
 21
439.693161
 31
0.0
  0
LINE
  8
LC-003-005-----0
  6
CONTINUOUS
  5
D8
 10
344.050897
 20
438.23752
 30
0.0
 11
345.789381
 21
439.976004
 31
0.0
  0
LINE
  8
LC-003-005-----0
  6
CONTINUOUS
  5
D9
 10
343.768054
 20
438.23752
 30
0.0
 11
345.768054
 21
440.23752
 31
0.0
  0
LINE
  8
LC-003-005-----0
  6
CONTINUOUS
  5
DA
 10
343.485212
 20
438.23752
 30
0.0
 11
345.485212
 21
440.23752
 31
0.0
  0
LINE
  8
LC-003-005-----0
  6
CONTINUOUS
  5
DB
 10
343.202369
 20
438.23752
 30
0.0
 11
345.202369
 21
440.23752
 31
0.0
  0
LINE
  8
LC-003-005-----0
  6
CONTINUOUS
  5
DC
 10
342.919526
 20
438.23752
 30
0.0
 11
344.919526
 21
440.23752
 31
0.0
  0
LINE
  8
LC-003-005-----0
  6
CONTINUOUS
  5
DD
 10
342.636684
 20
438.23752
 30
0.0
 11
344.636684
 21
440.23752
 31
0.0
  0
LINE
  8
LC-003-005-----0
  6
CONTINUOUS
  5
DE
 10
342.353841
 20
438.23752
 30
0.0
 11
344.353841
 21
440.23752
 31
0.0
  0
LINE
  8
LC-003-005-----0
  6
CONTINUOUS
  5
DF
 10
342.070998
 20
438.23752
 30
0.0
 11
344.070998
 21
440.23752
 31
0.0
  0
LINE
  8
LC-003-005-----0
  6
CONTINUOUS
  5
E0
 10
341.788155
 20
438.23752
 30
0.0
 11
343.788155
 21
440.23752
 31
0.0
  0
LINE
  8
LC-003-005-----0
  6
CONTINUOUS
  5
E1
 10
341.505313
 20
438.23752
 30
0.0
 11
343.505313
 21
440.23752
 31
0.0
  0
LINE
  8
LC-003-005-----0
  6
CONTINUOUS
  5
E2
 10
341.22247
 20
438.23752
 30
0.0
 11
343.22247
 21
440.23752
 31
0.0
  0
LINE
  8
LC-003-005-----0
  6
CONTINUOUS
  5
E3
 10
340.939627
 20
438.23752
 30
0.0
 11
342.939627
 21
440.23752
 31
0.0
  0
LINE
  8
LC-003-005-----0
  6
CONTINUOUS
  5
E4
 10
340.656785
 20
438.23752
 30
0.0
 11
343.128246
 21
440.708981
 31
0.0
  0
LINE
  8
LC-003-005-----0
  6
CONTINUOUS
  5
E5
 10
340.373942
 20
438.23752
 30
0.0
 11
343.851083
 21
441.714661
 31
0.0
  0
LINE
  8
LC-003-005-----0
  6
CONTINUOUS
  5
E6
 10
340.099423
 20
438.245844
 30
0.0
 11
344.57392
 21
442.720341
 31
0.0
  0
LINE
  8
LC-003-005-----0
  6
CONTINUOUS
  5
E7
 10
339.846327
 20
438.275591
 30
0.0
 11
345.08956
 21
443.518824
 31
0.0
  0
LINE
  8
LC-003-005-----0
  6
CONTINUOUS
  5
E8
 10
339.611054
 20
438.323161
 30
0.0
 11
345.068336
 21
443.780443
 31
0.0
  0
LINE
  8
LC-003-005-----0
  6
CONTINUOUS
  5
E9
 10
339.390948
 20
438.385898
 30
0.0
 11
344.960309
 21
443.955258
 31
0.0
  0
LINE
  8
LC-003-005-----0
  6
CONTINUOUS
  5
EA
 10
339.18418
 20
438.461973
 30
0.0
 11
344.793183
 21
444.070975
 31
0.0
  0
LINE
  8
LC-003-005-----0
  6
CONTINUOUS
  5
EB
 10
338.989449
 20
438.550084
 30
0.0
 11
344.547414
 21
444.108049
 31
0.0
  0
LINE
  8
LC-003-005-----0
  6
CONTINUOUS
  5
EC
 10
338.805816
 20
438.649293
 30
0.0
 11
344.181123
 21
444.024601
 31
0.0
  0
LINE
  8
LC-003-005-----0
  6
CONTINUOUS
  5
ED
 10
338.632607
 20
438.758927
 30
0.0
 11
343.808711
 21
443.935031
 31
0.0
  0
LINE
  8
LC-003-005-----0
  6
CONTINUOUS
  5
EE
 10
338.46935
 20
438.878513
 30
0.0
 11
343.436298
 21
443.845461
 31
0.0
  0
LINE
  8
LC-003-005-----0
  6
CONTINUOUS
  5
EF
 10
338.315737
 20
439.007742
 30
0.0
 11
343.063886
 21
443.755892
 31
0.0
  0
LINE
  8
LC-003-005-----0
  6
CONTINUOUS
  5
F0
 10
338.171389
 20
439.146238
 30
0.0
 11
342.691474
 21
443.666322
 31
0.0
  0
LINE
  8
LC-003-005-----0
  6
CONTINUOUS
  5
F1
 10
338.029968
 20
439.287659
 30
0.0
 11
342.319061
 21
443.576752
 31
0.0
  0
LINE
  8
LC-003-005-----0
  6
CONTINUOUS
  5
F2
 10
337.889783
 20
439.430316
 30
0.0
 11
341.946649
 21
443.487183
 31
0.0
  0
LINE
  8
LC-003-005-----0
  6
CONTINUOUS
  5
F3
 10
337.75793
 20
439.581306
 30
0.0
 11
341.574237
 21
443.397613
 31
0.0
  0
LINE
  8
LC-003-005-----0
  6
CONTINUOUS
  5
F4
 10
337.635662
 20
439.741881
 30
0.0
 11
341.201824
 21
443.308043
 31
0.0
  0
LINE
  8
LC-003-005-----0
  6
CONTINUOUS
  5
F5
 10
337.523245
 20
439.912307
 30
0.0
 11
340.829412
 21
443.218474
 31
0.0
  0
LINE
  8
LC-003-005-----0
  6
CONTINUOUS
  5
F6
 10
337.421105
 20
440.09301
 30
0.0
 11
340.457
 21
443.128904
 31
0.0
  0
LINE
  8
LC-003-005-----0
  6
CONTINUOUS
  5
F7
 10
337.329854
 20
440.284601
 30
0.0
 11
340.084587
 21
443.039335
 31
0.0
  0
LINE
  8
LC-003-005-----0
  6
CONTINUOUS
  5
F8
 10
337.25035
 20
440.48794
 30
0.0
 11
339.712175
 21
442.949765
 31
0.0
  0
LINE
  8
LC-003-005-----0
  6
CONTINUOUS
  5
F9
 10
337.183781
 20
440.704213
 30
0.0
 11
339.339763
 21
442.860195
 31
0.0
  0
LINE
  8
LC-003-005-----0
  6
CONTINUOUS
  5
FA
 10
337.131808
 20
440.935084
 30
0.0
 11
338.96735
 21
442.770626
 31
0.0
  0
LINE
  8
LC-003-005-----0
  6
CONTINUOUS
  5
FB
 10
337.096819
 20
441.182937
 30
0.0
 11
338.594938
 21
442.681056
 31
0.0
  0
LINE
  8
LC-003-005-----0
  6
CONTINUOUS
  5
FC
 10
337.082392
 20
441.451353
 30
0.0
 11
338.222525
 21
442.591486
 31
0.0
  0
LINE
  8
LC-003-005-----0
  6
CONTINUOUS
  5
FD
 10
337.082274
 20
441.734078
 30
0.0
 11
337.850113
 21
442.501917
 31
0.0
  0
LINE
  8
LC-003-005-----0
  6
CONTINUOUS
  5
FE
 10
337.082274
 20
442.01692
 30
0.0
 11
337.477701
 21
442.412347
 31
0.0
  0
LINE
  8
LC-003-005-----0
  6
CONTINUOUS
  5
FF
 10
337.082274
 20
442.299763
 30
0.0
 11
337.105288
 21
442.322777
 31
0.0
  0
ENDBLK
  8
0
  5
100
  0
BLOCK
  8
0
  5
102
  2
*D3
 70
    65
 10
0.0
 20
0.0
 30
0.0
  3
*D3
  0
LINE
  8
LC-005-003-MTH-0
  6
CONTINUOUS
  5
104
 10
389.580106
 20
533.23752
 30
0.0
 11
389.580106
 21
586.8
 31
0.0
  0
LINE
  8
LC-005-003-MTH-0
  6
CONTINUOUS
  5
105
 10
559.876404
 20
530.53752
 30
0.0
 11
559.876404
 21
586.8
 31
0.0
  0
LINE
  8
LC-006-003-MTG-0
  6
CONTINUOUS
  5
107
 10
389.580106
 20
576.0
 30
0.0
 11
559.876404
 21
576.0
 31
0.0
  0
LINE
  8
LC-004-003-----0
  6
CONTINUOUS
  5
109
 10
407.426114
 20
578.349471
 30
0.0
 11
389.580106
 21
576.0
 31
0.0
  0
LINE
  8
LC-004-003-----0
  6
CONTINUOUS
  5
10A
 10
389.580106
 20
576.0
 30
0.0
 11
407.426114
 21
573.650529
 31
0.0
  0
LINE
  8
LC-004-003-----0
  6
CONTINUOUS
  5
10B
 10
407.426114
 20
573.650529
 30
0.0
 11
407.426114
 21
578.349471
 31
0.0
  0
LINE
  8
LC-004-003-----0
  6
CONTINUOUS
  5
10C
 10
407.466152
 20
577.738609
 30
0.0
 11
394.260106
 21
576.0
 31
0.0
  0
LINE
  8
LC-004-003-----0
  6
CONTINUOUS
  5
10D
 10
394.260106
 20
576.0
 30
0.0
 11
407.466152
 21
574.261391
 31
0.0
  0
LINE
  8
LC-004-003-----0
  6
CONTINUOUS
  5
10E
 10
407.50619
 20
577.127746
 30
0.0
 11
398.940106
 21
576.0
 31
0.0
  0
LINE
  8
LC-004-003-----0
  6
CONTINUOUS
  5
10F
 10
398.940106
 20
576.0
 30
0.0
 11
407.50619
 21
574.872254
 31
0.0
  0
LINE
  8
LC-004-003-----0
  6
CONTINUOUS
  5
110
 10
407.546228
 20
576.516884
 30
0.0
 11
403.620106
 21
576.0
 31
0.0
  0
LINE
  8
LC-004-003-----0
  6
CONTINUOUS
  5
111
 10
403.620106
 20
576.0
 30
0.0
 11
407.546228
 21
575.483116
 31
0.0
  0
LINE
  8
LC-004-003-----0
  6
CONTINUOUS
  5
112
 10
542.030396
 20
573.650529
 30
0.0
 11
559.876404
 21
576.0
 31
0.0
  0
LINE
  8
LC-004-003-----0
  6
CONTINUOUS
  5
113
 10
559.876404
 20
576.0
 30
0.0
 11
542.030396
 21
578.349471
 31
0.0
  0
LINE
  8
LC-004-003-----0
  6
CONTINUOUS
  5
114
 10
542.030396
 20
578.349471
 30
0.0
 11
542.030396
 21
573.650529
 31
0.0
  0
LINE
  8
LC-004-003-----0
  6
CONTINUOUS
  5
115
 10
541.990358
 20
574.261391
 30
0.0
 11
555.196404
 21
576.0
 31
0.0
  0
LINE
  8
LC-004-003-----0
  6
CONTINUOUS
  5
116
 10
555.196404
 20
576.0
 30
0.0
 11
541.990358
 21
577.738609
 31
0.0
  0
LINE
  8
LC-004-003-----0
  6
CONTINUOUS
  5
117
 10
541.95032
 20
574.872254
 30
0.0
 11
550.516404
 21
576.0
 31
0.0
  0
LINE
  8
LC-004-003-----0
  6
CONTINUOUS
  5
118
 10
550.516404
 20
576.0
 30
0.0
 11
541.95032
 21
577.127746
 31
0.0
  0
LINE
  8
LC-004-003-----0
  6
CONTINUOUS
  5
119
 10
541.910282
 20
575.483116
 30
0.0
 11
545.836404
 21
576.0
 31
0.0
  0
LINE
  8
LC-004-003-----0
  6
CONTINUOUS
  5
11A
 10
545.836404
 20
576.0
 30
0.0
 11
541.910282
 21
576.516884
 31
0.0
  0
TEXT
  8
LC-004-003-----0
  6
CONTINUOUS
 62
     6
  5
11C
 10
458.389643
 20
586.431999
 30
0.0
 40
18.0
  1
165
 41
0.9
 51
15.0
  7
LC-TXTSTYLE-150-400-0-0-D0
 72
     1
 11
477.523501
 21
586.431999
 31
0.0
  0
ENDBLK
  8
0
  5
11D
  0
BLOCK
  8
0
  5
11F
  2
*D4
 70
    65
 10
0.0
 20
0.0
 30
0.0
  3
*D4
  0
LINE
  8
LC-005-003-MTH-0
  6
CONTINUOUS
  5
120
 10
329.880106
 20
438.43752
 30
0.0
 11
329.880106
 21
385.2
 31
0.0
  0
LINE
  8
LC-005-003-MTH-0
  6
CONTINUOUS
  5
121
 10
559.876404
 20
444.109317
 30
0.0
 11
559.876404
 21
385.2
 31
0.0
  0
LINE
  8
LC-006-003-MTG-0
  6
CONTINUOUS
  5
122
 10
329.880106
 20
396.0
 30
0.0
 11
559.876404
 21
396.0
 31
0.0
  0
LINE
  8
LC-004-003-----0
  6
CONTINUOUS
  5
123
 10
347.726114
 20
398.349471
 30
0.0
 11
329.880106
 21
396.0
 31
0.0
  0
LINE
  8
LC-004-003-----0
  6
CONTINUOUS
  5
124
 10
329.880106
 20
396.0
 30
0.0
 11
347.726114
 21
393.650529
 31
0.0
  0
LINE
  8
LC-004-003-----0
  6
CONTINUOUS
  5
125
 10
347.726114
 20
393.650529
 30
0.0
 11
347.726114
 21
398.349471
 31
0.0
  0
LINE
  8
LC-004-003-----0
  6
CONTINUOUS
  5
126
 10
347.766152
 20
397.738609
 30
0.0
 11
334.560106
 21
396.0
 31
0.0
  0
LINE
  8
LC-004-003-----0
  6
CONTINUOUS
  5
127
 10
334.560106
 20
396.0
 30
0.0
 11
347.766152
 21
394.261391
 31
0.0
  0
LINE
  8
LC-004-003-----0
  6
CONTINUOUS
  5
128
 10
347.80619
 20
397.127746
 30
0.0
 11
339.240106
 21
396.0
 31
0.0
  0
LINE
  8
LC-004-003-----0
  6
CONTINUOUS
  5
129
 10
339.240106
 20
396.0
 30
0.0
 11
347.80619
 21
394.872254
 31
0.0
  0
LINE
  8
LC-004-003-----0
  6
CONTINUOUS
  5
12A
 10
347.846228
 20
396.516884
 30
0.0
 11
343.920106
 21
396.0
 31
0.0
  0
LINE
  8
LC-004-003-----0
  6
CONTINUOUS
  5
12B
 10
343.920106
 20
396.0
 30
0.0
 11
347.846228
 21
395.483116
 31
0.0
  0
LINE
  8
LC-004-003-----0
  6
CONTINUOUS
  5
12C
 10
542.030396
 20
393.650529
 30
0.0
 11
559.876404
 21
396.0
 31
0.0
  0
LINE
  8
LC-004-003-----0
  6
CONTINUOUS
  5
12D
 10
559.876404
 20
396.0
 30
0.0
 11
542.030396
 21
398.349471
 31
0.0
  0
LINE
  8
LC-004-003-----0
  6
CONTINUOUS
  5
12E
 10
542.030396
 20
398.349471
 30
0.0
 11
542.030396
 21
393.650529
 31
0.0
  0
LINE
  8
LC-004-003-----0
  6
CONTINUOUS
  5
12F
 10
541.990358
 20
394.261391
 30
0.0
 11
555.196404
 21
396.0
 31
0.0
  0
LINE
  8
LC-004-003-----0
  6
CONTINUOUS
  5
130
 10
555.196404
 20
396.0
 30
0.0
 11
541.990358
 21
397.738609
 31
0.0
  0
LINE
  8
LC-004-003-----0
  6
CONTINUOUS
  5
131
 10
541.95032
 20
394.872254
 30
0.0
 11
550.516404
 21
396.0
 31
0.0
  0
LINE
  8
LC-004-003-----0
  6
CONTINUOUS
  5
132
 10
550.516404
 20
396.0
 30
0.0
 11
541.95032
 21
397.127746
 31
0.0
  0
LINE
  8
LC-004-003-----0
  6
CONTINUOUS
  5
133
 10
541.910282
 20
395.483116
 30
0.0
 11
545.836404
 21
396.0
 31
0.0
  0
LINE
  8
LC-004-003-----0
  6
CONTINUOUS
  5
134
 10
545.836404
 20
396.0
 30
0.0
 11
541.910282
 21
396.516884
 31
0.0
  0
TEXT
  8
LC-004-003-----0
  6
CONTINUOUS
 62
     6
  5
135
 10
440.394203
 20
406.431999
 30
0.0
 40
18.0
  1
230
 51
15.0
  7
LC-TXTSTYLE-150-400-0-0-D0
 72
     1
 11
459.528061
 21
406.431999
 31
0.0
  0
ENDBLK
  8
0
  5
136
  0
BLOCK
  8
0
  5
138
  2
*X5
 70
    65
 10
337.082274
 20
531.797047
 30
0.0
  3
*X5
  0
LINE
  8
LC-003-005-----0
  6
CONTINUOUS
  5
139
 10
344.641601
 20
532.16632
 30
0.0
 11
345.09616
 21
532.620878
 31
0.0
  0
LINE
  8
LC-003-005-----0
  6
CONTINUOUS
  5
13A
 10
344.39213
 20
532.199691
 30
0.0
 11
345.056481
 21
532.864043
 31
0.0
  0
LINE
  8
LC-003-005-----0
  6
CONTINUOUS
  5
13B
 10
344.164125
 20
532.254529
 30
0.0
 11
344.94626
 21
533.036664
 31
0.0
  0
LINE
  8
LC-003-005-----0
  6
CONTINUOUS
  5
13C
 10
343.93612
 20
532.309366
 30
0.0
 11
344.82798
 21
533.201227
 31
0.0
  0
LINE
  8
LC-003-005-----0
  6
CONTINUOUS
  5
13D
 10
343.708115
 20
532.364204
 30
0.0
 11
344.7097
 21
533.365789
 31
0.0
  0
LINE
  8
LC-003-005-----0
  6
CONTINUOUS
  5
13E
 10
343.48011
 20
532.419042
 30
0.0
 11
344.59142
 21
533.530352
 31
0.0
  0
LINE
  8
LC-003-005-----0
  6
CONTINUOUS
  5
13F
 10
343.252105
 20
532.47388
 30
0.0
 11
344.47314
 21
533.694915
 31
0.0
  0
LINE
  8
LC-003-005-----0
  6
CONTINUOUS
  5
140
 10
343.024101
 20
532.528718
 30
0.0
 11
344.35486
 21
533.859477
 31
0.0
  0
LINE
  8
LC-003-005-----0
  6
CONTINUOUS
  5
141
 10
342.796096
 20
532.583556
 30
0.0
 11
344.23658
 21
534.02404
 31
0.0
  0
LINE
  8
LC-003-005-----0
  6
CONTINUOUS
  5
142
 10
342.568091
 20
532.638394
 30
0.0
 11
344.118299
 21
534.188602
 31
0.0
  0
LINE
  8
LC-003-005-----0
  6
CONTINUOUS
  5
143
 10
342.340086
 20
532.693232
 30
0.0
 11
344.000019
 21
534.353165
 31
0.0
  0
LINE
  8
LC-003-005-----0
  6
CONTINUOUS
  5
144
 10
345.684375
 20
536.03752
 30
0.0
 11
345.789381
 21
536.142526
 31
0.0
  0
LINE
  8
LC-003-005-----0
  6
CONTINUOUS
  5
145
 10
342.112081
 20
532.74807
 30
0.0
 11
343.881739
 21
534.517727
 31
0.0
  0
LINE
  8
LC-003-005-----0
  6
CONTINUOUS
  5
146
 10
345.401532
 20
536.03752
 30
0.0
 11
345.789381
 21
536.425369
 31
0.0
  0
LINE
  8
LC-003-005-----0
  6
CONTINUOUS
  5
147
 10
341.884077
 20
532.802907
 30
0.0
 11
343.763459
 21
534.68229
 31
0.0
  0
LINE
  8
LC-003-005-----0
  6
CONTINUOUS
  5
148
 10
345.118689
 20
536.03752
 30
0.0
 11
345.789381
 21
536.708212
 31
0.0
  0
LINE
  8
LC-003-005-----0
  6
CONTINUOUS
  5
149
 10
341.656072
 20
532.857745
 30
0.0
 11
343.645179
 21
534.846853
 31
0.0
  0
LINE
  8
LC-003-005-----0
  6
CONTINUOUS
  5
14A
 10
344.835847
 20
536.03752
 30
0.0
 11
345.789381
 21
536.991054
 31
0.0
  0
LINE
  8
LC-003-005-----0
  6
CONTINUOUS
  5
14B
 10
341.428067
 20
532.912583
 30
0.0
 11
343.526899
 21
535.011415
 31
0.0
  0
LINE
  8
LC-003-005-----0
  6
CONTINUOUS
  5
14C
 10
344.553004
 20
536.03752
 30
0.0
 11
345.789381
 21
537.273897
 31
0.0
  0
LINE
  8
LC-003-005-----0
  6
CONTINUOUS
  5
14D
 10
341.200062
 20
532.967421
 30
0.0
 11
343.408619
 21
535.175978
 31
0.0
  0
LINE
  8
LC-003-005-----0
  6
CONTINUOUS
  5
14E
 10
344.270161
 20
536.03752
 30
0.0
 11
345.789381
 21
537.55674
 31
0.0
  0
LINE
  8
LC-003-005-----0
  6
CONTINUOUS
  5
14F
 10
340.972057
 20
533.022259
 30
0.0
 11
343.290339
 21
535.34054
 31
0.0
  0
LINE
  8
LC-003-005-----0
  6
CONTINUOUS
  5
150
 10
343.987319
 20
536.03752
 30
0.0
 11
345.789381
 21
537.839583
 31
0.0
  0
LINE
  8
LC-003-005-----0
  6
CONTINUOUS
  5
151
 10
340.744052
 20
533.077097
 30
0.0
 11
343.172058
 21
535.505103
 31
0.0
  0
LINE
  8
LC-003-005-----0
  6
CONTINUOUS
  5
152
 10
343.704476
 20
536.03752
 30
0.0
 11
345.704476
 21
538.03752
 31
0.0
  0
LINE
  8
LC-003-005-----0
  6
CONTINUOUS
  5
153
 10
340.516048
 20
533.131935
 30
0.0
 11
343.053778
 21
535.669665
 31
0.0
  0
LINE
  8
LC-003-005-----0
  6
CONTINUOUS
  5
154
 10
343.421633
 20
536.03752
 30
0.0
 11
345.421633
 21
538.03752
 31
0.0
  0
LINE
  8
LC-003-005-----0
  6
CONTINUOUS
  5
155
 10
340.288043
 20
533.186773
 30
0.0
 11
342.935498
 21
535.834228
 31
0.0
  0
LINE
  8
LC-003-005-----0
  6
CONTINUOUS
  5
156
 10
343.13879
 20
536.03752
 30
0.0
 11
345.13879
 21
538.03752
 31
0.0
  0
LINE
  8
LC-003-005-----0
  6
CONTINUOUS
  5
157
 10
340.060038
 20
533.241611
 30
0.0
 11
342.817218
 21
535.998791
 31
0.0
  0
LINE
  8
LC-003-005-----0
  6
CONTINUOUS
  5
158
 10
342.855948
 20
536.03752
 30
0.0
 11
344.855948
 21
538.03752
 31
0.0
  0
LINE
  8
LC-003-005-----0
  6
CONTINUOUS
  5
159
 10
339.832033
 20
533.296448
 30
0.0
 11
344.573105
 21
538.03752
 31
0.0
  0
LINE
  8
LC-003-005-----0
  6
CONTINUOUS
  5
15A
 10
339.604028
 20
533.351286
 30
0.0
 11
344.290262
 21
538.03752
 31
0.0
  0
LINE
  8
LC-003-005-----0
  6
CONTINUOUS
  5
15B
 10
339.376024
 20
533.406124
 30
0.0
 11
344.00742
 21
538.03752
 31
0.0
  0
LINE
  8
LC-003-005-----0
  6
CONTINUOUS
  5
15C
 10
339.148019
 20
533.460962
 30
0.0
 11
343.724577
 21
538.03752
 31
0.0
  0
LINE
  8
LC-003-005-----0
  6
CONTINUOUS
  5
15D
 10
338.920014
 20
533.5158
 30
0.0
 11
343.441734
 21
538.03752
 31
0.0
  0
LINE
  8
LC-003-005-----0
  6
CONTINUOUS
  5
15E
 10
338.692009
 20
533.570638
 30
0.0
 11
343.158891
 21
538.03752
 31
0.0
  0
LINE
  8
LC-003-005-----0
  6
CONTINUOUS
  5
15F
 10
338.464004
 20
533.625476
 30
0.0
 11
342.876049
 21
538.03752
 31
0.0
  0
LINE
  8
LC-003-005-----0
  6
CONTINUOUS
  5
160
 10
338.235999
 20
533.680314
 30
0.0
 11
342.593206
 21
538.03752
 31
0.0
  0
LINE
  8
LC-003-005-----0
  6
CONTINUOUS
  5
161
 10
338.007995
 20
533.735152
 30
0.0
 11
342.310363
 21
538.03752
 31
0.0
  0
LINE
  8
LC-003-005-----0
  6
CONTINUOUS
  5
162
 10
337.77999
 20
533.78999
 30
0.0
 11
342.027521
 21
538.03752
 31
0.0
  0
LINE
  8
LC-003-005-----0
  6
CONTINUOUS
  5
163
 10
337.551985
 20
533.844827
 30
0.0
 11
341.744678
 21
538.03752
 31
0.0
  0
LINE
  8
LC-003-005-----0
  6
CONTINUOUS
  5
164
 10
337.32398
 20
533.899665
 30
0.0
 11
341.461835
 21
538.03752
 31
0.0
  0
LINE
  8
LC-003-005-----0
  6
CONTINUOUS
  5
165
 10
337.095975
 20
533.954503
 30
0.0
 11
341.178993
 21
538.03752
 31
0.0
  0
LINE
  8
LC-003-005-----0
  6
CONTINUOUS
  5
166
 10
337.082274
 20
534.223645
 30
0.0
 11
340.89615
 21
538.03752
 31
0.0
  0
LINE
  8
LC-003-005-----0
  6
CONTINUOUS
  5
167
 10
337.082274
 20
534.506487
 30
0.0
 11
340.613307
 21
538.03752
 31
0.0
  0
LINE
  8
LC-003-005-----0
  6
CONTINUOUS
  5
168
 10
337.082274
 20
534.78933
 30
0.0
 11
340.330464
 21
538.03752
 31
0.0
  0
LINE
  8
LC-003-005-----0
  6
CONTINUOUS
  5
169
 10
337.096235
 20
535.086134
 30
0.0
 11
340.033661
 21
538.023559
 31
0.0
  0
LINE
  8
LC-003-005-----0
  6
CONTINUOUS
  5
16A
 10
337.147775
 20
535.420516
 30
0.0
 11
339.699278
 21
537.97202
 31
0.0
  0
LINE
  8
LC-003-005-----0
  6
CONTINUOUS
  5
16B
 10
337.260734
 20
535.816318
 30
0.0
 11
339.303476
 21
537.85906
 31
0.0
  0
LINE
  8
LC-003-005-----0
  6
CONTINUOUS
  5
16C
 10
337.521578
 20
536.360005
 30
0.0
 11
338.759789
 21
537.598216
 31
0.0
  0
ENDBLK
  8
0
  5
16D
  0
BLOCK
  8
0
  5
16F
  2
*D6
 70
    65
 10
0.0
 20
0.0
 30
0.0
  3
*D6
  0
LINE
  8
LC-005-003-MTH-0
  6
CONTINUOUS
  5
170
 10
555.876404
 20
443.03752
 30
0.0
 11
622.8
 21
443.03752
 31
0.0
  0
LINE
  8
LC-005-003-MTH-0
  6
CONTINUOUS
  5
171
 10
555.876404
 20
533.23752
 30
0.0
 11
622.8
 21
533.23752
 31
0.0
  0
LINE
  8
LC-006-003-MTG-0
  6
CONTINUOUS
  5
172
 10
612.0
 20
443.03752
 30
0.0
 11
612.0
 21
533.23752
 31
0.0
  0
LINE
  8
LC-004-003-----0
  6
CONTINUOUS
  5
173
 10
609.650529
 20
460.883528
 30
0.0
 11
612.0
 21
443.03752
 31
0.0
  0
LINE
  8
LC-004-003-----0
  6
CONTINUOUS
  5
174
 10
612.0
 20
443.03752
 30
0.0
 11
614.349471
 21
460.883528
 31
0.0
  0
LINE
  8
LC-004-003-----0
  6
CONTINUOUS
  5
175
 10
614.349471
 20
460.883528
 30
0.0
 11
609.650529
 21
460.883528
 31
0.0
  0
LINE
  8
LC-004-003-----0
  6
CONTINUOUS
  5
176
 10
610.261391
 20
460.923566
 30
0.0
 11
612.0
 21
447.71752
 31
0.0
  0
LINE
  8
LC-004-003-----0
  6
CONTINUOUS
  5
177
 10
612.0
 20
447.71752
 30
0.0
 11
613.738609
 21
460.923566
 31
0.0
  0
LINE
  8
LC-004-003-----0
  6
CONTINUOUS
  5
178
 10
610.872254
 20
460.963604
 30
0.0
 11
612.0
 21
452.39752
 31
0.0
  0
LINE
  8
LC-004-003-----0
  6
CONTINUOUS
  5
179
 10
612.0
 20
452.39752
 30
0.0
 11
613.127746
 21
460.963604
 31
0.0
  0
LINE
  8
LC-004-003-----0
  6
CONTINUOUS
  5
17A
 10
611.483116
 20
461.003642
 30
0.0
 11
612.0
 21
457.07752
 31
0.0
  0
LINE
  8
LC-004-003-----0
  6
CONTINUOUS
  5
17B
 10
612.0
 20
457.07752
 30
0.0
 11
612.516884
 21
461.003642
 31
0.0
  0
LINE
  8
LC-004-003-----0
  6
CONTINUOUS
  5
17C
 10
614.349471
 20
515.391513
 30
0.0
 11
612.0
 21
533.23752
 31
0.0
  0
LINE
  8
LC-004-003-----0
  6
CONTINUOUS
  5
17D
 10
612.0
 20
533.23752
 30
0.0
 11
609.650529
 21
515.391513
 31
0.0
  0
LINE
  8
LC-004-003-----0
  6
CONTINUOUS
  5
17E
 10
609.650529
 20
515.391513
 30
0.0
 11
614.349471
 21
515.391513
 31
0.0
  0
LINE
  8
LC-004-003-----0
  6
CONTINUOUS
  5
17F
 10
613.738609
 20
515.351475
 30
0.0
 11
612.0
 21
528.55752
 31
0.0
  0
LINE
  8
LC-004-003-----0
  6
CONTINUOUS
  5
180
 10
612.0
 20
528.55752
 30
0.0
 11
610.261391
 21
515.351475
 31
0.0
  0
LINE
  8
LC-004-003-----0
  6
CONTINUOUS
  5
181
 10
613.127746
 20
515.311437
 30
0.0
 11
612.0
 21
523.87752
 31
0.0
  0
LINE
  8
LC-004-003-----0
  6
CONTINUOUS
  5
182
 10
612.0
 20
523.87752
 30
0.0
 11
610.872254
 21
515.311437
 31
0.0
  0
LINE
  8
LC-004-003-----0
  6
CONTINUOUS
  5
183
 10
612.516884
 20
515.271399
 30
0.0
 11
612.0
 21
519.19752
 31
0.0
  0
LINE
  8
LC-004-003-----0
  6
CONTINUOUS
  5
184
 10
612.0
 20
519.19752
 30
0.0
 11
611.483116
 21
515.271399
 31
0.0
  0
TEXT
  8
LC-004-003-----0
  6
CONTINUOUS
 62
     6
  5
185
 10
601.568001
 20
460.115521
 30
0.0
 40
18.0
  1
DN90
 50
90.0
 51
15.0
  7
LC-TXTSTYLE-150-400-0-0-D0
 72
     1
 11
601.568001
 21
486.520246
 31
0.0
  0
ENDBLK
  8
0
  5
186
  0
BLOCK
  8
0
  5
188
  2
*D7
 70
    65
 10
0.0
 20
0.0
 30
0.0
  3
*D7
  0
LINE
  8
LC-005-003-MTH-0
  6
CONTINUOUS
  5
189
 10
329.880106
 20
441.43752
 30
0.0
 11
277.2
 21
441.43752
 31
0.0
  0
LINE
  8
LC-005-003-MTH-0
  6
CONTINUOUS
  5
18A
 10
329.880106
 20
534.83752
 30
0.0
 11
277.2
 21
534.83752
 31
0.0
  0
LINE
  8
LC-006-003-MTG-0
  6
CONTINUOUS
  5
18B
 10
288.0
 20
441.43752
 30
0.0
 11
288.0
 21
534.83752
 31
0.0
  0
LINE
  8
LC-004-003-----0
  6
CONTINUOUS
  5
18C
 10
285.650529
 20
459.283528
 30
0.0
 11
288.0
 21
441.43752
 31
0.0
  0
LINE
  8
LC-004-003-----0
  6
CONTINUOUS
  5
18D
 10
288.0
 20
441.43752
 30
0.0
 11
290.349471
 21
459.283528
 31
0.0
  0
LINE
  8
LC-004-003-----0
  6
CONTINUOUS
  5
18E
 10
290.349471
 20
459.283528
 30
0.0
 11
285.650529
 21
459.283528
 31
0.0
  0
LINE
  8
LC-004-003-----0
  6
CONTINUOUS
  5
18F
 10
286.261391
 20
459.323566
 30
0.0
 11
288.0
 21
446.11752
 31
0.0
  0
LINE
  8
LC-004-003-----0
  6
CONTINUOUS
  5
190
 10
288.0
 20
446.11752
 30
0.0
 11
289.738609
 21
459.323566
 31
0.0
  0
LINE
  8
LC-004-003-----0
  6
CONTINUOUS
  5
191
 10
286.872254
 20
459.363604
 30
0.0
 11
288.0
 21
450.79752
 31
0.0
  0
LINE
  8
LC-004-003-----0
  6
CONTINUOUS
  5
192
 10
288.0
 20
450.79752
 30
0.0
 11
289.127746
 21
459.363604
 31
0.0
  0
LINE
  8
LC-004-003-----0
  6
CONTINUOUS
  5
193
 10
287.483116
 20
459.403642
 30
0.0
 11
288.0
 21
455.47752
 31
0.0
  0
LINE
  8
LC-004-003-----0
  6
CONTINUOUS
  5
194
 10
288.0
 20
455.47752
 30
0.0
 11
288.516884
 21
459.403642
 31
0.0
  0
LINE
  8
LC-004-003-----0
  6
CONTINUOUS
  5
195
 10
290.349471
 20
516.991513
 30
0.0
 11
288.0
 21
534.83752
 31
0.0
  0
LINE
  8
LC-004-003-----0
  6
CONTINUOUS
  5
196
 10
288.0
 20
534.83752
 30
0.0
 11
285.650529
 21
516.991513
 31
0.0
  0
LINE
  8
LC-004-003-----0
  6
CONTINUOUS
  5
197
 10
285.650529
 20
516.991513
 30
0.0
 11
290.349471
 21
516.991513
 31
0.0
  0
LINE
  8
LC-004-003-----0
  6
CONTINUOUS
  5
198
 10
289.738609
 20
516.951475
 30
0.0
 11
288.0
 21
530.15752
 31
0.0
  0
LINE
  8
LC-004-003-----0
  6
CONTINUOUS
  5
199
 10
288.0
 20
530.15752
 30
0.0
 11
286.261391
 21
516.951475
 31
0.0
  0
LINE
  8
LC-004-003-----0
  6
CONTINUOUS
  5
19A
 10
289.127746
 20
516.911437
 30
0.0
 11
288.0
 21
525.47752
 31
0.0
  0
LINE
  8
LC-004-003-----0
  6
CONTINUOUS
  5
19B
 10
288.0
 20
525.47752
 30
0.0
 11
286.872254
 21
516.911437
 31
0.0
  0
LINE
  8
LC-004-003-----0
  6
CONTINUOUS
  5
19C
 10
288.516884
 20
516.871399
 30
0.0
 11
288.0
 21
520.79752
 31
0.0
  0
LINE
  8
LC-004-003-----0
  6
CONTINUOUS
  5
19D
 10
288.0
 20
520.79752
 30
0.0
 11
287.483116
 21
516.871399
 31
0.0
  0
TEXT
  8
LC-004-003-----0
  6
CONTINUOUS
 62
     6
  5
19E
 10
277.568001
 20
461.303521
 30
0.0
 40
18.0
  1
DN90
 50
90.0
 51
15.0
  7
LC-TXTSTYLE-150-400-0-0-D0
 72
     1
 11
277.568001
 21
487.708246
 31
0.0
  0
ENDBLK
  8
0
  5
19F
  0
BLOCK
  8
0
  5
1A1
  2
BLK1
 70
    64
 10
0.0
 20
0.0
 30
0.0
  3
BLK1
  0
ENDBLK
  8
0
  5
1A2
  0
ENDSEC
  0
SECTION
  2
ENTITIES
  0
VIEWPORT
  8
LC-000
  5
1FE
 67
     1
 68
     1
 10
420.0
 20
297.0
 30
0.0
 40
840.0
 41
594.0
 69
     1
1001
ACAD
1000
MVIEW
1002
{
1070
    16
1010
0.0
1020
0.0
1030
0.0
1010
0.0
1020
0.0
1030
1.0
1040
0.0
1040
594.0
1040
420.0
1040
297.0
1040
50.0
1040
0.0
1040
0.0
1070
     0
1070
   100
1070
     1
1070
     1
1070
     0
1070
     0
1070
     0
1070
     0
1040
0.0
1040
0.0
1040
0.0
1040
1.0
1040
1.0
1040
0.0
1040
0.0
1070
     0
1002
{
1002
}
1002
}
  0
VIEWPORT
  8
0
  5
1FF
 67
     1
 68
     1
 10
0.0
 20
0.0
 30
0.0
 40
0.0
 41
0.0
 69
     1
1001
ACAD
1000
MVIEW
1002
{
1070
    16
1010
0.0
1020
0.0
1030
0.0
1010
0.0
1020
0.0
1030
1.0
1040
0.0
1040
594.0
1040
0.0
1040
0.0
1040
50.0
1040
0.0
1040
0.0
1070
     0
1070
   100
1070
     0
1070
     1
1070
     0
1070
     0
1070
     0
1070
     0
1040
0.0
1040
0.0
1040
0.0
1040
0.5
1040
0.5
1040
0.5
1040
0.5
1070
     0
1002
{
1002
}
1002
}
  0
INSERT
  8
0
  5
1A3
  2
*X0
 10
329.880106
 20
530.53752
 30
0.0
  0
INSERT
  8
0
  5
1A4
  2
*X1
 10
329.880106
 20
435.03752
 30
0.0
  0
INSERT
  8
0
  5
1A5
  2
*X2
 10
337.082274
 20
438.23752
 30
0.0
  0
DIMENSION
  8
0
  5
1A6
  2
*D3
 10
474.728255
 20
576.0
 30
0.0
 11
474.728255
 21
576.0
 31
0.0
  1
165
 13
559.876404
 23
530.53752
 33
0.0
 14
389.580106
 24
533.23752
 34
0.0
  3
LC-DIM-L-0090-02-02
  0
DIMENSION
  8
0
  5
1A7
  2
*D4
 10
456.732815
 20
396.0
 30
0.0
 11
456.732815
 21
396.0
 31
0.0
 13
559.876404
 23
444.109317
 33
0.0
 14
329.880106
 24
438.43752
 34
0.0
  3
LC-DIM-L-0090-02-02
  0
INSERT
  8
0
  5
1A8
  2
*X5
 10
337.082274
 20
531.797047
 30
0.0
  0
DIMENSION
  8
0
  5
1A9
  2
*D6
 10
612.0
 20
483.725
 30
0.0
 11
612.0
 21
483.725
 31
0.0
  1
DN90
 13
555.876404
 23
533.23752
 33
0.0
 14
555.876404
 24
443.03752
 34
0.0
 50
90.0
  3
LC-DIM-L-0090-02-02
  0
DIMENSION
  8
0
  5
1AA
  2
*D7
 10
288.0
 20
484.913
 30
0.0
 11
288.0
 21
484.913
 31
0.0
  1
DN90
 13
329.880106
 23
534.83752
 33
0.0
 14
329.880106
 24
441.43752
 34
0.0
 50
90.0
  3
LC-DIM-L-0090-02-02
  0
INSERT
  8
0
  5
1AC
  2
BLK1
 10
0.0
 20
0.0
 30
0.0
  0
LINE
  8
LC-001-002-----0
  6
CONTINUOUS
  5
1AE
 10
349.450085
 20
536.978701
 30
0.0
 11
348.507537
 21
540.496339
 31
0.0
  0
LINE
  8
LC-001-002-----0
  6
CONTINUOUS
  5
1AF
 10
346.237155
 20
538.53752
 30
0.0
 11
339.080106
 21
538.53752
 31
0.0
  0
LINE
  8
LC-001-002-----0
  6
CONTINUOUS
  5
1B0
 10
349.450085
 20
439.296339
 30
0.0
 11
348.507537
 21
435.778701
 31
0.0
  0
LINE
  8
LC-001-002-----0
  6
CONTINUOUS
  5
1B1
 10
346.237155
 20
437.73752
 30
0.0
 11
339.080106
 21
437.73752
 31
0.0
  0
LINE
  8
LC-001-002-----0
  6
CONTINUOUS
  5
1B2
 10
347.541611
 20
435.03752
 30
0.0
 11
335.878648
 21
435.03752
 31
0.0
  0
LINE
  8
LC-001-002-----0
  6
CONTINUOUS
  5
1B3
 10
383.480106
 20
440.03752
 30
0.0
 11
350.416011
 21
440.03752
 31
0.0
  0
LINE
  8
LC-001-002-----0
  6
CONTINUOUS
  5
1B4
 10
347.541611
 20
541.23752
 30
0.0
 11
335.878648
 21
541.23752
 31
0.0
  0
LINE
  8
LC-001-002-----0
  6
CONTINUOUS
  5
1B5
 10
383.480106
 20
536.23752
 30
0.0
 11
350.416011
 21
536.23752
 31
0.0
  0
LINE
  8
LC-001-002-----0
  6
CONTINUOUS
  5
1B6
 10
333.878648
 20
537.83752
 30
0.0
 11
329.880106
 21
537.83752
 31
0.0
  0
LINE
  8
LC-001-002-----0
  6
CONTINUOUS
  5
1B7
 10
387.880106
 20
530.53752
 30
0.0
 11
559.876404
 21
530.53752
 31
0.0
  0
LINE
  8
LC-001-002-----0
  6
CONTINUOUS
  5
1B8
 10
333.878648
 20
438.43752
 30
0.0
 11
329.880106
 21
438.43752
 31
0.0
  0
LINE
  8
LC-001-002-----0
  6
CONTINUOUS
  5
1B9
 10
335.380106
 20
534.83752
 30
0.0
 11
329.880106
 21
534.83752
 31
0.0
  0
LINE
  8
LC-001-002-----0
  6
CONTINUOUS
  5
1BA
 10
347.477602
 20
533.908111
 30
0.0
 11
346.237155
 21
538.53752
 31
0.0
  0
LINE
  8
LC-001-002-----0
  6
CONTINUOUS
  5
1BB
 10
334.878648
 20
538.83752
 30
0.0
 11
334.878648
 21
540.23752
 31
0.0
  0
LINE
  8
LC-001-002-----0
  6
CONTINUOUS
  5
1BC
 10
384.880106
 20
533.53752
 30
0.0
 11
347.960565
 21
533.53752
 31
0.0
  0
LINE
  8
LC-001-002-----0
  6
CONTINUOUS
  5
1BD
 10
559.876404
 20
444.209317
 30
0.0
 11
559.876404
 21
532.165724
 31
0.0
  0
ARC
  8
LC-002-002-RND-0
  6
CONTINUOUS
  5
1BF
 10
335.878648
 20
540.23752
 30
0.0
 40
1.0
 50
90.0
 51
180.0
  0
ARC
  8
LC-002-002-RND-0
  6
CONTINUOUS
  5
1C0
 10
333.878648
 20
538.83752
 30
0.0
 40
1.0
 50
270.0
 51
0.0
  0
LINE
  8
LC-001-002-----0
  6
CONTINUOUS
  5
1C1
 10
387.880106
 20
445.73752
 30
0.0
 11
559.876404
 21
445.73752
 31
0.0
  0
LINE
  8
LC-001-002-----0
  6
CONTINUOUS
  5
1C2
 10
389.580106
 20
533.23752
 30
0.0
 11
555.876404
 21
533.23752
 31
0.0
  0
LINE
  8
LC-001-002-----0
  6
DASHDOT
 62
     2
  5
1C4
 10
559.876404
 20
488.13752
 30
0.0
 11
329.880106
 21
488.13752
 31
0.0
  0
LINE
  8
LC-001-002-----0
  6
CONTINUOUS
  5
1C5
 10
555.876404
 20
533.23752
 30
0.0
 11
559.876404
 21
532.165724
 31
0.0
  0
LINE
  8
LC-001-002-----0
  6
CONTINUOUS
  5
1C6
 10
335.380106
 20
441.43752
 30
0.0
 11
329.880106
 21
441.43752
 31
0.0
  0
LINE
  8
LC-001-002-----0
  6
CONTINUOUS
  5
1C7
 10
345.789381
 20
438.23752
 30
0.0
 11
345.789381
 21
440.23752
 31
0.0
  0
LINE
  8
LC-001-002-----0
  6
CONTINUOUS
  5
1C8
 10
342.789381
 20
440.23752
 30
0.0
 11
345.789381
 21
440.23752
 31
0.0
  0
LINE
  8
LC-001-002-----0
  6
CONTINUOUS
  5
1C9
 10
337.082274
 20
441.477994
 30
0.0
 11
337.082274
 21
442.317242
 31
0.0
  0
ARC
  8
LC-002-002-RND-0
  6
CONTINUOUS
  5
1CA
 10
340.082274
 20
441.477994
 30
0.0
 40
3.0
 50
180.0
 51
225.0
  0
LINE
  8
LC-001-002-----0
  6
CONTINUOUS
  5
1CB
 10
340.322747
 20
438.23752
 30
0.0
 11
345.789381
 21
438.23752
 31
0.0
  0
ARC
  8
LC-002-002-RND-0
  6
CONTINUOUS
  5
1CC
 10
340.322747
 20
441.23752
 30
0.0
 40
3.0
 50
225.0
 51
270.0
  0
LINE
  8
LC-001-002-----0
  6
CONTINUOUS
  5
1CD
 10
337.960954
 20
439.356673
 30
0.0
 11
338.201427
 21
439.1162
 31
0.0
  0
LINE
  8
LC-001-002-----0
  6
CONTINUOUS
  5
1CE
 10
337.082274
 20
442.317242
 30
0.0
 11
344.481137
 21
444.096758
 31
0.0
  0
ARC
  8
LC-002-002-RND-0
  6
CONTINUOUS
  5
1CF
 10
344.598059
 20
443.610621
 30
0.0
 40
0.5
 50
324.293129
 51
103.523468
  0
LINE
  8
LC-001-002-----0
  6
CONTINUOUS
  5
1D0
 10
342.789381
 20
440.23752
 30
0.0
 11
345.004066
 21
443.318801
 31
0.0
  0
LINE
  8
LC-001-002-----0
  6
CONTINUOUS
  5
1D1
 10
345.789381
 20
538.03752
 30
0.0
 11
345.789381
 21
536.03752
 31
0.0
  0
LINE
  8
LC-001-002-----0
  6
CONTINUOUS
  5
1D2
 10
342.789381
 20
536.03752
 30
0.0
 11
345.789381
 21
536.03752
 31
0.0
  0
LINE
  8
LC-001-002-----0
  6
CONTINUOUS
  5
1D3
 10
337.082274
 20
534.797047
 30
0.0
 11
337.082274
 21
533.957799
 31
0.0
  0
ARC
  8
LC-002-002-RND-0
  6
CONTINUOUS
  5
1D4
 10
340.082274
 20
534.797047
 30
0.0
 40
3.0
 50
135.0
 51
180.0
  0
LINE
  8
LC-001-002-----0
  6
CONTINUOUS
  5
1D5
 10
340.322747
 20
538.03752
 30
0.0
 11
345.789381
 21
538.03752
 31
0.0
  0
ARC
  8
LC-002-002-RND-0
  6
CONTINUOUS
  5
1D6
 10
340.322747
 20
535.03752
 30
0.0
 40
3.0
 50
90.0
 51
135.0
  0
LINE
  8
LC-001-002-----0
  6
CONTINUOUS
  5
1D7
 10
337.960954
 20
536.918368
 30
0.0
 11
338.201427
 21
537.158841
 31
0.0
  0
LINE
  8
LC-001-002-----0
  6
CONTINUOUS
  5
1D8
 10
337.082274
 20
533.957799
 30
0.0
 11
344.481137
 21
532.178283
 31
0.0
  0
ARC
  8
LC-002-002-RND-0
  6
CONTINUOUS
  5
1D9
 10
344.598059
 20
532.66442
 30
0.0
 40
0.5
 50
256.476532
 51
35.706871
  0
LINE
  8
LC-001-002-----0
  6
CONTINUOUS
  5
1DA
 10
342.789381
 20
536.03752
 30
0.0
 11
345.004066
 21
532.95624
 31
0.0
  0
ARC
  8
LC-002-002-RND-0
  6
CONTINUOUS
  5
1DB
 10
350.416011
 20
537.23752
 30
0.0
 40
1.0
 50
195.0
 51
270.0
  0
LINE
  8
LC-001-002-----0
  6
CONTINUOUS
  5
1DC
 10
347.477602
 20
442.36693
 30
0.0
 11
346.237155
 21
437.73752
 31
0.0
  0
LINE
  8
LC-001-002-----0
  6
CONTINUOUS
  5
1DD
 10
329.880106
 20
534.83752
 30
0.0
 11
329.880106
 21
537.83752
 31
0.0
  0
ARC
  8
LC-002-002-RND-0
  6
CONTINUOUS
  5
1DE
 10
347.541611
 20
540.23752
 30
0.0
 40
1.0
 50
15.0
 51
90.0
  0
LINE
  8
LC-001-002-----0
  6
CONTINUOUS
  5
1DF
 10
334.878648
 20
437.43752
 30
0.0
 11
334.878648
 21
436.03752
 31
0.0
  0
LINE
  8
LC-001-002-----0
  6
CONTINUOUS
  5
1E0
 10
384.880106
 20
442.73752
 30
0.0
 11
347.960565
 21
442.73752
 31
0.0
  0
LINE
  8
LC-001-002-----0
  6
CONTINUOUS
  5
1E1
 10
335.380106
 20
534.83752
 30
0.0
 11
339.080106
 21
538.53752
 31
0.0
  0
ARC
  8
LC-002-002-RND-0
  6
CONTINUOUS
  5
1E2
 10
335.878648
 20
436.03752
 30
0.0
 40
1.0
 50
180.0
 51
270.0
  0
ARC
  8
LC-002-002-RND-0
  6
CONTINUOUS
  5
1E3
 10
333.878648
 20
437.43752
 30
0.0
 40
1.0
 50
0.0
 51
90.0
  0
LINE
  8
LC-001-002-----0
  6
CONTINUOUS
  5
1E4
 10
389.580106
 20
443.03752
 30
0.0
 11
555.876404
 21
443.03752
 31
0.0
  0
LINE
  8
LC-001-002-----0
  6
CONTINUOUS
  5
1E5
 10
384.880106
 20
533.53752
 30
0.0
 11
384.880106
 21
442.73752
 31
0.0
  0
LINE
  8
LC-001-002-----0
  6
CONTINUOUS
  5
1E6
 10
555.876404
 20
443.03752
 30
0.0
 11
559.876404
 21
444.109317
 31
0.0
  0
ARC
  8
LC-002-002-RND-0
  6
CONTINUOUS
  5
1E7
 10
350.416011
 20
439.03752
 30
0.0
 40
1.0
 50
90.0
 51
165.0
  0
LINE
  8
LC-001-002-----0
  6
CONTINUOUS
  5
1E8
 10
329.880106
 20
441.43752
 30
0.0
 11
329.880106
 21
438.43752
 31
0.0
  0
ARC
  8
LC-002-002-RND-0
  6
CONTINUOUS
  5
1E9
 10
347.541611
 20
436.03752
 30
0.0
 40
1.0
 50
270.0
 51
345.0
  0
LINE
  8
LC-001-002-----0
  6
CONTINUOUS
  5
1EA
 10
389.580106
 20
533.23752
 30
0.0
 11
386.480106
 21
536.33752
 31
0.0
  0
LINE
  8
LC-001-002-----0
  6
CONTINUOUS
  5
1EB
 10
335.380106
 20
441.43752
 30
0.0
 11
339.080106
 21
437.73752
 31
0.0
  0
LINE
  8
LC-001-002-----0
  6
CONTINUOUS
  5
1EC
 10
389.580106
 20
443.03752
 30
0.0
 11
386.480106
 21
439.93752
 31
0.0
  0
LINE
  8
LC-001-002-----0
  6
CONTINUOUS
  5
1ED
 10
387.880106
 20
445.73752
 30
0.0
 11
384.880106
 21
442.73752
 31
0.0
  0
LINE
  8
LC-001-002-----0
  6
CONTINUOUS
  5
1EE
 10
387.880106
 20
530.53752
 30
0.0
 11
384.880106
 21
533.53752
 31
0.0
  0
ARC
  8
LC-002-002-RND-0
  6
CONTINUOUS
  5
1EF
 10
347.960565
 20
442.23752
 30
0.0
 40
0.5
 50
90.0
 51
165.0
  0
ARC
  8
LC-002-002-RND-0
  6
CONTINUOUS
  5
1F0
 10
347.960565
 20
534.03752
 30
0.0
 40
0.5
 50
195.0
 51
270.0
  0
LINE
  8
LC-001-002-----0
  6
CONTINUOUS
  5
1F1
 10
386.480106
 20
439.93752
 30
0.0
 11
386.480106
 21
437.93752
 31
0.0
  0
LINE
  8
LC-001-002-----0
  6
CONTINUOUS
  5
1F2
 10
385.480106
 20
437.03752
 30
0.0
 11
384.480106
 21
437.03752
 31
0.0
  0
LINE
  8
LC-001-002-----0
  6
CONTINUOUS
  5
1F3
 10
383.480106
 20
440.03752
 30
0.0
 11
383.480106
 21
437.93752
 31
0.0
  0
ARC
  8
LC-002-002-RND-0
  6
CONTINUOUS
  5
1F4
 10
384.480106
 20
438.03752
 30
0.0
 40
1.0
 50
180.0
 51
270.0
  0
ARC
  8
LC-002-002-RND-0
  6
CONTINUOUS
  5
1F5
 10
385.480106
 20
438.03752
 30
0.0
 40
1.0
 50
270.0
 51
0.0
  0
LINE
  8
LC-001-002-----0
  6
CONTINUOUS
  5
1F6
 10
386.480106
 20
536.33752
 30
0.0
 11
386.480106
 21
538.33752
 31
0.0
  0
LINE
  8
LC-001-002-----0
  6
CONTINUOUS
  5
1F7
 10
385.480106
 20
539.23752
 30
0.0
 11
384.480106
 21
539.23752
 31
0.0
  0
LINE
  8
LC-001-002-----0
  6
CONTINUOUS
  5
1F8
 10
383.480106
 20
536.23752
 30
0.0
 11
383.480106
 21
538.33752
 31
0.0
  0
ARC
  8
LC-002-002-RND-0
  6
CONTINUOUS
  5
1F9
 10
384.480106
 20
538.23752
 30
0.0
 40
1.0
 50
90.0
 51
180.0
  0
ARC
  8
LC-002-002-RND-0
  6
CONTINUOUS
  5
1FA
 10
385.480106
 20
538.23752
 30
0.0
 40
1.0
 50
0.0
 51
90.0
  0
LINE
  8
LC-001-002-----0
  6
CONTINUOUS
  5
1FB
 10
335.380106
 20
441.43752
 30
0.0
 11
335.380106
 21
534.83752
 31
0.0
  0
LINE
  8
LC-001-002-----0
  6
CONTINUOUS
  5
1FC
 10
329.880106
 20
534.83752
 30
0.0
 11
329.880106
 21
441.43752
 31
0.0
  0
ENDSEC
  0
EOF
