  0
SECTION
  2
HEADER
  9
$ACADVER
  1
AC1009
  9
$INSBASE
 10
0.0
 20
0.0
 30
0.0
  9
$EXTMIN
 10
-210.0
 20
-148.5
 30
0.0
  9
$EXTMAX
 10
630.0
 20
445.5
 30
0.0
  9
$LIMMIN
 10
-210.0
 20
-148.5
  9
$LIMMAX
 10
630.0
 20
445.5
  9
$ORTHOMODE
 70
     0
  9
$REGENMODE
 70
     1
  9
$FILLMODE
 70
     1
  9
$QTEXTMODE
 70
     0
  9
$MIRRTEXT
 70
     1
  9
$DRAGMODE
 70
     2
  9
$LTSCALE
 40
2.0
  9
$OSMODE
 70
     0
  9
$ATTMODE
 70
     1
  9
$TEXTSIZE
 40
0.2
  9
$TRACEWID
 40
0.05
  9
$TEXTSTYLE
  7
STANDARD
  9
$CLAYER
  8
0
  9
$CELTYPE
  6
BYLAYER
  9
$CECOLOR
 62
     7
  9
$DIMSCALE
 40
2.0
  9
$DIMASZ
 40
3.5
  9
$DIMEXO
 40
0.0625
  9
$DIMDLI
 40
0.38
  9
$DIMRND
 40
0.0
  9
$DIMDLE
 40
0.0
  9
$DIMEXE
 40
0.18
  9
$DIMTP
 40
0.0
  9
$DIMTM
 40
0.0
  9
$DIMTXT
 40
3.5
  9
$DIMCEN
 40
0.09
  9
$DIMTSZ
 40
0.0
  9
$DIMTOL
 70
     0
  9
$DIMLIM
 70
     0
  9
$DIMTIH
 70
     1
  9
$DIMTOH
 70
     1
  9
$DIMSE1
 70
     0
  9
$DIMSE2
 70
     0
  9
$DIMTAD
 70
     1
  9
$DIMZIN
 70
     0
  9
$DIMBLK
  1

  9
$DIMASO
 70
     1
  9
$DIMSHO
 70
     1
  9
$DIMPOST
  1

  9
$DIMAPOST
  1

  9
$DIMALT
 70
     0
  9
$DIMALTD
 70
     2
  9
$DIMALTF
 40
25.4
  9
$DIMLFAC
 40
1.0
  9
$DIMTOFL
 70
     0
  9
$DIMTVP
 40
0.0
  9
$DIMTIX
 70
     0
  9
$DIMSOXD
 70
     0
  9
$DIMSAH
 70
     0
  9
$DIMBLK1
  1

  9
$DIMBLK2
  1

  9
$DIMSTYLE
  2
STANDARD
  9
$DIMCLRD
 70
     0
  9
$DIMCLRE
 70
     0
  9
$DIMCLRT
 70
     0
  9
$DIMTFAC
 40
1.0
  9
$DIMGAP
 40
0.09
  9
$LUNITS
 70
     2
  9
$LUPREC
 70
     2
  9
$AXISMODE
 70
     0
  9
$AXISUNIT
 10
0.0
 20
0.0
  9
$SKETCHINC
 40
0.1
  9
$FILLETRAD
 40
0.0
  9
$AUNITS
 70
     0
  9
$AUPREC
 70
     0
  9
$MENU
  1
acad
  9
$ELEVATION
 40
0.0
  9
$PELEVATION
 40
0.0
  9
$THICKNESS
 40
0.0
  9
$LIMCHECK
 70
     0
  9
$BLIPMODE
 70
     1
  9
$CHAMFERA
 40
0.0
  9
$CHAMFERB
 40
0.0
  9
$SKPOLY
 70
     0
  9
$TDCREATE
 40
0.000000000
  9
$TDUPDATE
 40
0.000000000
  9
$TDINDWG
 40
0.0000000000
  9
$TDUSRTIMER
 40
0.0000000000
  9
$USRTIMER
 70
     1
  9
$ANGBASE
 50
0.0
  9
$ANGDIR
 70
     0
  9
$PDMODE
 70
     0
  9
$PDSIZE
 40
0.0
  9
$PLINEWID
 40
0.0
  9
$COORDS
 70
     0
  9
$SPLFRAME
 70
     0
  9
$SPLINETYPE
 70
     6
  9
$SPLINESEGS
 70
     8
  9
$ATTDIA
 70
     0
  9
$ATTREQ
 70
     1
  9
$HANDLING
 70
     1
  9
$HANDSEED
  5
C9
  9
$SURFTAB1
 70
     6
  9
$SURFTAB2
 70
     6
  9
$SURFTYPE
 70
     6
  9
$SURFU
 70
     6
  9
$SURFV
 70
     6
  9
$UCSNAME
  2

  9
$UCSORG
 10
0.0
 20
0.0
 30
0.0
  9
$UCSXDIR
 10
1.0
 20
0.0
 30
0.0
  9
$UCSYDIR
 10
0.0
 20
1.0
 30
0.0
  9
$PUCSNAME
  2

  9
$PUCSORG
 10
0.0
 20
0.0
 30
0.0
  9
$PUCSXDIR
 10
1.0
 20
0.0
 30
0.0
  9
$PUCSYDIR
 10
0.0
 20
1.0
 30
0.0
  9
$USERI1
 70
     0
  9
$USERI2
 70
     0
  9
$USERI3
 70
     0
  9
$USERI4
 70
     0
  9
$USERI5
 70
     0
  9
$USERR1
 40
0.0
  9
$USERR2
 40
0.0
  9
$USERR3
 40
0.0
  9
$USERR4
 40
0.0
  9
$USERR5
 40
0.0
  9
$WORLDVIEW
 70
     1
  9
$SHADEDGE
 70
     3
  9
$SHADEDIF
 70
    70
  9
$TILEMODE
 70
     1
  9
$MAXACTVP
 70
    16
  9
$PINSBASE
 10
0.0
 20
0.0
 30
0.0
  9
$PLIMCHECK
 70
     0
  9
$PEXTMIN
 10
1.000000E+20
 20
1.000000E+20
 30
1.000000E+20
  9
$PEXTMAX
 10
-1.000000E+20
 20
-1.000000E+20
 30
-1.000000E+20
  9
$PLIMMIN
 10
-210.0
 20
-148.5
  9
$PLIMMAX
 10
630.0
 20
445.5
  9
$UNITMODE
 70
     0
  9
$VISRETAIN
 70
     0
  9
$PLINEGEN
 70
     1
  9
$PSLTSCALE
 70
     0
  9
$TREEDEPTH
 70
  3020
  9
$DWGCODEPAGE
  3
dos850
  0
ENDSEC
  0
SECTION
  2
TABLES
  0
TABLE
  2
VPORT
 70
     1
  0
VPORT
  2
*ACTIVE
 70
     0
 10
0.0
 20
0.0
 11
1.0
 21
1.0
 12
420.0
 22
297.0
 13
0.0
 23
0.0
 14
1.0
 24
1.0
 15
0.0
 25
0.0
 16
0.0
 26
0.0
 36
1.0
 17
-210.0
 27
-148.5
 37
0.0
 40
594.0
 41
1.604229
 42
50.0
 43
0.0
 44
0.0
 50
0.0
 51
0.0
 71
     0
 72
   100
 73
     1
 74
     1
 75
     0
 76
     0
 77
     0
 78
     0
  0
ENDTAB
  0
TABLE
  2
LTYPE
 70
     2
  0
LTYPE
  2
CONTINUOUS
 70
    64
  3
Solid line
 72
    65
 73
     0
 40
0.0
  0
LTYPE
  2
DASHDOT
 70
    64
  3
__ . __ . __ . __ . __
 72
    65
 73
     4
 40
7.5
 49
5.0
 49
-1.25
 49
0.0
 49
-1.25
  0
ENDTAB
  0
TABLE
  2
LAYER
 70
     8
  0
LAYER
  2
0
 70
     0
 62
     7
  6
CONTINUOUS
  0
LAYER
  2
LC-INFO-1-2-MM-A3-0
 70
     1
 62
    -1
  6
CONTINUOUS
  0
LAYER
  2
LC-003-003-MTH-0
 70
     0
 62
     2
  6
CONTINUOUS
  0
LAYER
  2
LC-004-003-MTG-0
 70
     0
 62
     2
  6
CONTINUOUS
  0
LAYER
  2
LC-002-003-----0
 70
     0
 62
     2
  6
CONTINUOUS
  0
LAYER
  2
LC-005-005-----0
 70
     0
 62
     2
  6
CONTINUOUS
  0
LAYER
  2
LC-001-002-----0
 70
     0
 62
     1
  6
CONTINUOUS
  0
LAYER
  2
LC-000
 70
     0
 62
     7
  6
CONTINUOUS
  0
ENDTAB
  0
TABLE
  2
STYLE
 70
     4
  0
STYLE
  2
STANDARD
 70
     0
 40
0.0
 41
1.0
 50
0.0
 71
     0
 42
0.0
  3
txt
  4

  0
STYLE
  2
LC-STANDARD
 70
    64
 40
0.0
 41
1.0
 50
0.0
 71
     0
 42
3.5
  3
MONOTXT
  4

  0
STYLE
  2
LC-TXTSTYLE-150-400-0-0-D2
 70
    64
 40
0.0
 41
1.0
 50
15.0
 71
     0
 42
3.5
  3
MONOTXT
  4

  0
STYLE
  2
LC-TXTSTYLE-150-400-0-0-D3
 70
    64
 40
0.0
 41
1.0
 50
15.0
 71
     0
 42
3.5
  3
LC-STANDARD
  4

  0
ENDTAB
  0
TABLE
  2
VIEW
 70
     0
  0
ENDTAB
  0
TABLE
  2
UCS
 70
     0
  0
ENDTAB
  0
TABLE
  2
APPID
 70
     1
  0
APPID
  2
ACAD
 70
     0
  0
ENDTAB
  0
TABLE
  2
DIMSTYLE
 70
     4
  0
DIMSTYLE
  2
STANDARD
 70
     0
  3

  4

  5

  6

  7

 40
1.0
 41
0.18
 42
0.0625
 43
0.38
 44
0.18
 45
0.0
 46
0.0
 47
0.0
 48
0.0
 71
     0
 72
     0
 73
     1
 74
     1
 75
     0
 76
     0
 77
     0
 78
     0
140
0.18
141
0.09
142
0.0
143
25.4
144
1.0
145
0.0
146
1.0
147
0.09
170
     0
171
     2
172
     0
173
     0
174
     0
175
     0
176
     0
177
     0
178
     0
  0
DIMSTYLE
  2
LC-STANDARD
 70
     0
  3

  4

  5

  6

  7

 40
1.0
 41
3.5
 42
0.0
 43
7.5
 44
1.8
 45
0.0
 46
0.0
 47
0.0
 48
0.0
 71
     0
 72
     0
 73
     0
 74
     0
 75
     0
 76
     0
 77
     1
 78
     8
140
3.5
141
0.0
142
0.0
143
25.4
144
1.0
145
0.0
146
0.71
147
1.5
170
     0
171
     2
172
     1
173
     0
174
     0
175
     0
176
     0
177
     0
178
     3
  0
DIMSTYLE
  2
LC-DIM-L-0090-02-02
 70
     0
  3

  4

  5

  6

  7

 40
2.0
 41
3.5
 42
0.0
 43
7.5
 44
1.8
 45
0.0
 46
0.0
 47
0.0
 48
0.0
 71
     0
 72
     0
 73
     0
 74
     0
 75
     0
 76
     0
 77
     1
 78
     8
140
9.0
141
0.0
142
0.0
143
25.4
144
1.0
145
0.0
146
0.71
147
1.5
170
     0
171
     2
172
     0
173
     0
174
     0
175
     0
176
     2
177
     2
178
     6
  0
DIMSTYLE
  2
LC-DIM-L-0090-01-02
 70
     0
  3

  4

  5

  6

  7

 40
2.0
 41
3.5
 42
0.0
 43
7.5
 44
1.8
 45
0.0
 46
0.0
 47
0.0
 48
0.0
 71
     0
 72
     0
 73
     0
 74
     0
 75
     0
 76
     0
 77
     1
 78
     8
140
9.0
141
0.0
142
0.0
143
25.4
144
1.0
145
0.0
146
0.71
147
1.5
170
     0
171
     2
172
     0
173
     0
174
     0
175
     0
176
     2
177
     2
178
     6
  0
ENDTAB
  0
ENDSEC
  0
SECTION
  2
BLOCKS
  0
BLOCK
  8
0
  5
24
  2
*D0
 70
    65
 10
0.0
 20
0.0
 30
0.0
  3
*D0
  0
LINE
  8
LC-003-003-MTH-0
  6
CONTINUOUS
  5
26
 10
253.240882
 20
173.743082
 30
0.0
 11
253.240882
 21
206.8
 31
0.0
  0
LINE
  8
LC-003-003-MTH-0
  6
CONTINUOUS
  5
27
 10
344.240882
 20
173.743082
 30
0.0
 11
344.240882
 21
206.8
 31
0.0
  0
LINE
  8
LC-004-003-MTG-0
  6
CONTINUOUS
  5
29
 10
253.240882
 20
196.0
 30
0.0
 11
344.240882
 21
196.0
 31
0.0
  0
LINE
  8
LC-002-003-----0
  6
CONTINUOUS
  5
2B
 10
271.086889
 20
198.349471
 30
0.0
 11
253.240882
 21
196.0
 31
0.0
  0
LINE
  8
LC-002-003-----0
  6
CONTINUOUS
  5
2C
 10
253.240882
 20
196.0
 30
0.0
 11
271.086889
 21
193.650529
 31
0.0
  0
LINE
  8
LC-002-003-----0
  6
CONTINUOUS
  5
2D
 10
271.086889
 20
193.650529
 30
0.0
 11
271.086889
 21
198.349471
 31
0.0
  0
LINE
  8
LC-002-003-----0
  6
CONTINUOUS
  5
2E
 10
271.126927
 20
197.738609
 30
0.0
 11
257.920882
 21
196.0
 31
0.0
  0
LINE
  8
LC-002-003-----0
  6
CONTINUOUS
  5
2F
 10
257.920882
 20
196.0
 30
0.0
 11
271.126927
 21
194.261391
 31
0.0
  0
LINE
  8
LC-002-003-----0
  6
CONTINUOUS
  5
30
 10
271.166965
 20
197.127746
 30
0.0
 11
262.600882
 21
196.0
 31
0.0
  0
LINE
  8
LC-002-003-----0
  6
CONTINUOUS
  5
31
 10
262.600882
 20
196.0
 30
0.0
 11
271.166965
 21
194.872254
 31
0.0
  0
LINE
  8
LC-002-003-----0
  6
CONTINUOUS
  5
32
 10
271.207004
 20
196.516884
 30
0.0
 11
267.280882
 21
196.0
 31
0.0
  0
LINE
  8
LC-002-003-----0
  6
CONTINUOUS
  5
33
 10
267.280882
 20
196.0
 30
0.0
 11
271.207004
 21
195.483116
 31
0.0
  0
LINE
  8
LC-002-003-----0
  6
CONTINUOUS
  5
34
 10
326.394874
 20
193.650529
 30
0.0
 11
344.240882
 21
196.0
 31
0.0
  0
LINE
  8
LC-002-003-----0
  6
CONTINUOUS
  5
35
 10
344.240882
 20
196.0
 30
0.0
 11
326.394874
 21
198.349471
 31
0.0
  0
LINE
  8
LC-002-003-----0
  6
CONTINUOUS
  5
36
 10
326.394874
 20
198.349471
 30
0.0
 11
326.394874
 21
193.650529
 31
0.0
  0
LINE
  8
LC-002-003-----0
  6
CONTINUOUS
  5
37
 10
326.354836
 20
194.261391
 30
0.0
 11
339.560882
 21
196.0
 31
0.0
  0
LINE
  8
LC-002-003-----0
  6
CONTINUOUS
  5
38
 10
339.560882
 20
196.0
 30
0.0
 11
326.354836
 21
197.738609
 31
0.0
  0
LINE
  8
LC-002-003-----0
  6
CONTINUOUS
  5
39
 10
326.314798
 20
194.872254
 30
0.0
 11
334.880882
 21
196.0
 31
0.0
  0
LINE
  8
LC-002-003-----0
  6
CONTINUOUS
  5
3A
 10
334.880882
 20
196.0
 30
0.0
 11
326.314798
 21
197.127746
 31
0.0
  0
LINE
  8
LC-002-003-----0
  6
CONTINUOUS
  5
3B
 10
326.27476
 20
195.483116
 30
0.0
 11
330.200882
 21
196.0
 31
0.0
  0
LINE
  8
LC-002-003-----0
  6
CONTINUOUS
  5
3C
 10
330.200882
 20
196.0
 30
0.0
 11
326.27476
 21
196.516884
 31
0.0
  0
TEXT
  8
LC-002-003-----0
  6
CONTINUOUS
 62
     6
  5
3E
 10
284.315655
 20
206.431999
 30
0.0
 40
18.0
  1
Ø90
 41
0.9
 51
15.0
  7
LC-TXTSTYLE-150-400-0-0-D0
 72
     1
 11
301.536128
 21
206.431999
 31
0.0
  0
ENDBLK
  8
0
  5
3F
  0
BLOCK
  8
0
  5
41
  2
*X1
 70
    65
 10
182.294996
 20
132.743082
 30
0.0
  3
*X1
  0
LINE
  8
LC-005-005-----0
  6
CONTINUOUS
  5
43
 10
367.502533
 20
132.743082
 30
0.0
 11
368.740882
 21
133.981431
 31
0.0
  0
LINE
  8
LC-005-005-----0
  6
CONTINUOUS
  5
44
 10
367.240882
 20
135.309858
 30
0.0
 11
368.740882
 21
136.809858
 31
0.0
  0
LINE
  8
LC-005-005-----0
  6
CONTINUOUS
  5
45
 10
367.240882
 20
138.138285
 30
0.0
 11
368.740882
 21
139.638285
 31
0.0
  0
LINE
  8
LC-005-005-----0
  6
CONTINUOUS
  5
46
 10
367.240882
 20
140.966712
 30
0.0
 11
368.740882
 21
142.466712
 31
0.0
  0
LINE
  8
LC-005-005-----0
  6
CONTINUOUS
  5
47
 10
367.240882
 20
143.795139
 30
0.0
 11
368.740882
 21
145.295139
 31
0.0
  0
LINE
  8
LC-005-005-----0
  6
CONTINUOUS
  5
48
 10
367.240882
 20
146.623566
 30
0.0
 11
368.740882
 21
148.123566
 31
0.0
  0
LINE
  8
LC-005-005-----0
  6
CONTINUOUS
  5
49
 10
367.240882
 20
149.451993
 30
0.0
 11
368.740882
 21
150.951993
 31
0.0
  0
LINE
  8
LC-005-005-----0
  6
CONTINUOUS
  5
4A
 10
367.240882
 20
152.28042
 30
0.0
 11
368.707262
 21
153.746801
 31
0.0
  0
LINE
  8
LC-005-005-----0
  6
CONTINUOUS
  5
4B
 10
367.062919
 20
154.930885
 30
0.0
 11
368.336133
 21
156.204099
 31
0.0
  0
LINE
  8
LC-005-005-----0
  6
CONTINUOUS
  5
4C
 10
366.490654
 20
157.187046
 30
0.0
 11
367.65357
 21
158.349963
 31
0.0
  0
LINE
  8
LC-005-005-----0
  6
CONTINUOUS
  5
4D
 10
365.627482
 20
159.152302
 30
0.0
 11
366.726502
 21
160.251322
 31
0.0
  0
LINE
  8
LC-005-005-----0
  6
CONTINUOUS
  5
4E
 10
364.524282
 20
160.877529
 30
0.0
 11
365.58894
 21
161.942187
 31
0.0
  0
LINE
  8
LC-005-005-----0
  6
CONTINUOUS
  5
4F
 10
363.204481
 20
162.386156
 30
0.0
 11
364.257367
 21
163.439041
 31
0.0
  0
LINE
  8
LC-005-005-----0
  6
CONTINUOUS
  5
50
 10
361.674569
 20
163.684671
 30
0.0
 11
362.736366
 21
164.746467
 31
0.0
  0
LINE
  8
LC-005-005-----0
  6
CONTINUOUS
  5
51
 10
359.926555
 20
164.765083
 30
0.0
 11
361.019988
 21
165.858516
 31
0.0
  0
LINE
  8
LC-005-005-----0
  6
CONTINUOUS
  5
52
 10
357.965702
 20
165.632657
 30
0.0
 11
359.090368
 21
166.757324
 31
0.0
  0
LINE
  8
LC-005-005-----0
  6
CONTINUOUS
  5
53
 10
356.003489
 20
166.498872
 30
0.0
 11
357.10489
 21
167.600273
 31
0.0
  0
LINE
  8
LC-005-005-----0
  6
CONTINUOUS
  5
54
 10
354.123109
 20
167.446919
 30
0.0
 11
355.205478
 21
168.529287
 31
0.0
  0
LINE
  8
LC-005-005-----0
  6
CONTINUOUS
  5
55
 10
352.320539
 20
168.472776
 30
0.0
 11
353.387557
 21
169.539794
 31
0.0
  0
LINE
  8
LC-005-005-----0
  6
CONTINUOUS
  5
56
 10
344.762418
 20
163.743082
 30
0.0
 11
345.740882
 21
164.721546
 31
0.0
  0
LINE
  8
LC-005-005-----0
  6
CONTINUOUS
  5
57
 10
350.592628
 20
169.573292
 30
0.0
 11
351.647567
 21
170.628231
 31
0.0
  0
LINE
  8
LC-005-005-----0
  6
CONTINUOUS
  5
58
 10
343.835981
 20
165.645073
 30
0.0
 11
345.740882
 21
167.549973
 31
0.0
  0
LINE
  8
LC-005-005-----0
  6
CONTINUOUS
  5
59
 10
348.936955
 20
170.746046
 30
0.0
 11
349.982784
 21
171.791875
 31
0.0
  0
LINE
  8
LC-005-005-----0
  6
CONTINUOUS
  5
5A
 10
343.984846
 20
168.622364
 30
0.0
 11
345.740882
 21
170.3784
 31
0.0
  0
LINE
  8
LC-005-005-----0
  6
CONTINUOUS
  5
5B
 10
347.286815
 20
171.924334
 30
0.0
 11
348.362908
 21
173.000426
 31
0.0
  0
LINE
  8
LC-005-005-----0
  6
CONTINUOUS
  5
5C
 10
344.133711
 20
171.599656
 30
0.0
 11
346.251042
 21
173.716988
 31
0.0
  0
LINE
  8
LC-005-005-----0
  6
CONTINUOUS
  5
5D
 10
228.909604
 20
132.743082
 30
0.0
 11
230.240882
 21
134.07436
 31
0.0
  0
LINE
  8
LC-005-005-----0
  6
CONTINUOUS
  5
5E
 10
228.740882
 20
135.402787
 30
0.0
 11
230.240882
 21
136.902787
 31
0.0
  0
LINE
  8
LC-005-005-----0
  6
CONTINUOUS
  5
5F
 10
228.740882
 20
138.231214
 30
0.0
 11
230.240882
 21
139.731214
 31
0.0
  0
LINE
  8
LC-005-005-----0
  6
CONTINUOUS
  5
60
 10
228.740882
 20
141.059641
 30
0.0
 11
230.240882
 21
142.559641
 31
0.0
  0
LINE
  8
LC-005-005-----0
  6
CONTINUOUS
  5
61
 10
251.740882
 20
164.059641
 30
0.0
 11
253.63057
 21
165.949329
 31
0.0
  0
LINE
  8
LC-005-005-----0
  6
CONTINUOUS
  5
62
 10
228.740882
 20
143.888068
 30
0.0
 11
230.240882
 21
145.388068
 31
0.0
  0
LINE
  8
LC-005-005-----0
  6
CONTINUOUS
  5
63
 10
251.740882
 20
166.888068
 30
0.0
 11
253.495883
 21
168.643069
 31
0.0
  0
LINE
  8
LC-005-005-----0
  6
CONTINUOUS
  5
64
 10
228.740882
 20
146.716495
 30
0.0
 11
230.240882
 21
148.216495
 31
0.0
  0
LINE
  8
LC-005-005-----0
  6
CONTINUOUS
  5
65
 10
251.740882
 20
169.716495
 30
0.0
 11
253.361196
 21
171.336809
 31
0.0
  0
LINE
  8
LC-005-005-----0
  6
CONTINUOUS
  5
66
 10
228.740882
 20
149.544922
 30
0.0
 11
230.240882
 21
151.044922
 31
0.0
  0
LINE
  8
LC-005-005-----0
  6
CONTINUOUS
  5
67
 10
251.465274
 20
172.269314
 30
0.0
 11
252.939042
 21
173.743082
 31
0.0
  0
LINE
  8
LC-005-005-----0
  6
CONTINUOUS
  5
68
 10
228.740882
 20
152.373349
 30
0.0
 11
230.292582
 21
153.925049
 31
0.0
  0
LINE
  8
LC-005-005-----0
  6
CONTINUOUS
  5
69
 10
244.382393
 20
168.01486
 30
0.0
 11
249.654523
 21
173.286991
 31
0.0
  0
LINE
  8
LC-005-005-----0
  6
CONTINUOUS
  5
6A
 10
228.986711
 20
155.447606
 30
0.0
 11
231.144119
 21
157.605014
 31
0.0
  0
LINE
  8
LC-005-005-----0
  6
CONTINUOUS
  5
6B
 10
238.940157
 20
165.401052
 30
0.0
 11
241.84794
 21
168.308835
 31
0.0
  0
LINE
  8
LC-005-005-----0
  6
CONTINUOUS
  5
6C
 10
230.497616
 20
159.786937
 30
0.0
 11
236.697026
 21
165.986348
 31
0.0
  0
ENDBLK
  8
0
  5
6D
  0
BLOCK
  8
0
  5
6F
  2
*D2
 70
    65
 10
0.0
 20
0.0
 30
0.0
  3
*D2
  0
LINE
  8
LC-003-003-MTH-0
  6
CONTINUOUS
  5
70
 10
228.740882
 20
132.743082
 30
0.0
 11
228.740882
 21
69.2
 31
0.0
  0
LINE
  8
LC-003-003-MTH-0
  6
CONTINUOUS
  5
71
 10
368.740882
 20
132.743082
 30
0.0
 11
368.740882
 21
69.2
 31
0.0
  0
LINE
  8
LC-004-003-MTG-0
  6
CONTINUOUS
  5
72
 10
228.740882
 20
80.0
 30
0.0
 11
368.740882
 21
80.0
 31
0.0
  0
LINE
  8
LC-002-003-----0
  6
CONTINUOUS
  5
73
 10
246.586889
 20
82.349471
 30
0.0
 11
228.740882
 21
80.0
 31
0.0
  0
LINE
  8
LC-002-003-----0
  6
CONTINUOUS
  5
74
 10
228.740882
 20
80.0
 30
0.0
 11
246.586889
 21
77.650529
 31
0.0
  0
LINE
  8
LC-002-003-----0
  6
CONTINUOUS
  5
75
 10
246.586889
 20
77.650529
 30
0.0
 11
246.586889
 21
82.349471
 31
0.0
  0
LINE
  8
LC-002-003-----0
  6
CONTINUOUS
  5
76
 10
246.626927
 20
81.738609
 30
0.0
 11
233.420882
 21
80.0
 31
0.0
  0
LINE
  8
LC-002-003-----0
  6
CONTINUOUS
  5
77
 10
233.420882
 20
80.0
 30
0.0
 11
246.626927
 21
78.261391
 31
0.0
  0
LINE
  8
LC-002-003-----0
  6
CONTINUOUS
  5
78
 10
246.666965
 20
81.127746
 30
0.0
 11
238.100882
 21
80.0
 31
0.0
  0
LINE
  8
LC-002-003-----0
  6
CONTINUOUS
  5
79
 10
238.100882
 20
80.0
 30
0.0
 11
246.666965
 21
78.872254
 31
0.0
  0
LINE
  8
LC-002-003-----0
  6
CONTINUOUS
  5
7A
 10
246.707004
 20
80.516884
 30
0.0
 11
242.780882
 21
80.0
 31
0.0
  0
LINE
  8
LC-002-003-----0
  6
CONTINUOUS
  5
7B
 10
242.780882
 20
80.0
 30
0.0
 11
246.707004
 21
79.483116
 31
0.0
  0
LINE
  8
LC-002-003-----0
  6
CONTINUOUS
  5
7C
 10
350.894874
 20
77.650529
 30
0.0
 11
368.740882
 21
80.0
 31
0.0
  0
LINE
  8
LC-002-003-----0
  6
CONTINUOUS
  5
7D
 10
368.740882
 20
80.0
 30
0.0
 11
350.894874
 21
82.349471
 31
0.0
  0
LINE
  8
LC-002-003-----0
  6
CONTINUOUS
  5
7E
 10
350.894874
 20
82.349471
 30
0.0
 11
350.894874
 21
77.650529
 31
0.0
  0
LINE
  8
LC-002-003-----0
  6
CONTINUOUS
  5
7F
 10
350.854836
 20
78.261391
 30
0.0
 11
364.060882
 21
80.0
 31
0.0
  0
LINE
  8
LC-002-003-----0
  6
CONTINUOUS
  5
80
 10
364.060882
 20
80.0
 30
0.0
 11
350.854836
 21
81.738609
 31
0.0
  0
LINE
  8
LC-002-003-----0
  6
CONTINUOUS
  5
81
 10
350.814798
 20
78.872254
 30
0.0
 11
359.380882
 21
80.0
 31
0.0
  0
LINE
  8
LC-002-003-----0
  6
CONTINUOUS
  5
82
 10
359.380882
 20
80.0
 30
0.0
 11
350.814798
 21
81.127746
 31
0.0
  0
LINE
  8
LC-002-003-----0
  6
CONTINUOUS
  5
83
 10
350.77476
 20
79.483116
 30
0.0
 11
354.700882
 21
80.0
 31
0.0
  0
LINE
  8
LC-002-003-----0
  6
CONTINUOUS
  5
84
 10
354.700882
 20
80.0
 30
0.0
 11
350.77476
 21
80.516884
 31
0.0
  0
TEXT
  8
LC-002-003-----0
  6
CONTINUOUS
 62
     6
  5
85
 10
280.464077
 20
90.431999
 30
0.0
 40
18.0
  1
Ø140
 51
15.0
  7
LC-TXTSTYLE-150-400-0-0-D0
 72
     2
 11
329.446754
 21
90.431999
 31
0.0
  0
ENDBLK
  8
0
  5
86
  0
BLOCK
  8
0
  5
88
  2
*D3
 70
    65
 10
0.0
 20
0.0
 30
0.0
  3
*D3
  0
LINE
  8
LC-003-003-MTH-0
  6
CONTINUOUS
  5
89
 10
368.740882
 20
132.743082
 30
0.0
 11
414.0
 21
132.743082
 31
0.0
  0
LINE
  8
LC-003-003-MTH-0
  6
CONTINUOUS
  5
8A
 10
345.240882
 20
173.743082
 30
0.0
 11
414.0
 21
173.743082
 31
0.0
  0
LINE
  8
LC-004-003-MTG-0
  6
CONTINUOUS
  5
8B
 10
403.2
 20
132.743082
 30
0.0
 11
403.2
 21
173.743082
 31
0.0
  0
LINE
  8
LC-002-003-----0
  6
CONTINUOUS
  5
8C
 10
400.850529
 20
150.58909
 30
0.0
 11
403.2
 21
132.743082
 31
0.0
  0
LINE
  8
LC-002-003-----0
  6
CONTINUOUS
  5
8D
 10
403.2
 20
132.743082
 30
0.0
 11
405.549471
 21
150.58909
 31
0.0
  0
LINE
  8
LC-002-003-----0
  6
CONTINUOUS
  5
8E
 10
405.549471
 20
150.58909
 30
0.0
 11
400.850529
 21
150.58909
 31
0.0
  0
LINE
  8
LC-002-003-----0
  6
CONTINUOUS
  5
8F
 10
401.461391
 20
150.629128
 30
0.0
 11
403.2
 21
137.423082
 31
0.0
  0
LINE
  8
LC-002-003-----0
  6
CONTINUOUS
  5
90
 10
403.2
 20
137.423082
 30
0.0
 11
404.938609
 21
150.629128
 31
0.0
  0
LINE
  8
LC-002-003-----0
  6
CONTINUOUS
  5
91
 10
402.072254
 20
150.669166
 30
0.0
 11
403.2
 21
142.103082
 31
0.0
  0
LINE
  8
LC-002-003-----0
  6
CONTINUOUS
  5
92
 10
403.2
 20
142.103082
 30
0.0
 11
404.327746
 21
150.669166
 31
0.0
  0
LINE
  8
LC-002-003-----0
  6
CONTINUOUS
  5
93
 10
402.683116
 20
150.709204
 30
0.0
 11
403.2
 21
146.783082
 31
0.0
  0
LINE
  8
LC-002-003-----0
  6
CONTINUOUS
  5
94
 10
403.2
 20
146.783082
 30
0.0
 11
403.716884
 21
150.709204
 31
0.0
  0
LINE
  8
LC-002-003-----0
  6
CONTINUOUS
  5
95
 10
405.549471
 20
155.897075
 30
0.0
 11
403.2
 21
173.743082
 31
0.0
  0
LINE
  8
LC-002-003-----0
  6
CONTINUOUS
  5
96
 10
403.2
 20
173.743082
 30
0.0
 11
400.850529
 21
155.897075
 31
0.0
  0
LINE
  8
LC-002-003-----0
  6
CONTINUOUS
  5
97
 10
400.850529
 20
155.897075
 30
0.0
 11
405.549471
 21
155.897075
 31
0.0
  0
LINE
  8
LC-002-003-----0
  6
CONTINUOUS
  5
98
 10
404.938609
 20
155.857037
 30
0.0
 11
403.2
 21
169.063082
 31
0.0
  0
LINE
  8
LC-002-003-----0
  6
CONTINUOUS
  5
99
 10
403.2
 20
169.063082
 30
0.0
 11
401.461391
 21
155.857037
 31
0.0
  0
LINE
  8
LC-002-003-----0
  6
CONTINUOUS
  5
9A
 10
404.327746
 20
155.816998
 30
0.0
 11
403.2
 21
164.383082
 31
0.0
  0
LINE
  8
LC-002-003-----0
  6
CONTINUOUS
  5
9B
 10
403.2
 20
164.383082
 30
0.0
 11
402.072254
 21
155.816998
 31
0.0
  0
LINE
  8
LC-002-003-----0
  6
CONTINUOUS
  5
9C
 10
403.716884
 20
155.77696
 30
0.0
 11
403.2
 21
159.703082
 31
0.0
  0
LINE
  8
LC-002-003-----0
  6
CONTINUOUS
  5
9D
 10
403.2
 20
159.703082
 30
0.0
 11
402.683116
 21
155.77696
 31
0.0
  0
TEXT
  8
LC-002-003-----0
  6
CONTINUOUS
 62
     6
  5
9E
 10
398.168001
 20
161.410254
 30
0.0
 40
18.0
  1
41
 50
90.0
 51
15.0
  7
LC-TXTSTYLE-150-400-0-0-D0
 72
     1
 11
398.168001
 21
173.273246
 31
0.0
  0
ENDBLK
  8
0
  5
9F
  0
ENDSEC
  0
SECTION
  2
ENTITIES
  0
VIEWPORT
  8
LC-000
  5
C5
 67
     1
 68
     1
 10
420.0
 20
297.0
 30
0.0
 40
840.0
 41
594.0
 69
     1
1001
ACAD
1000
MVIEW
1002
{
1070
    16
1010
0.0
1020
0.0
1030
0.0
1010
0.0
1020
0.0
1030
1.0
1040
0.0
1040
594.0
1040
420.0
1040
297.0
1040
50.0
1040
0.0
1040
0.0
1070
     0
1070
   100
1070
     1
1070
     1
1070
     0
1070
     0
1070
     0
1070
     0
1040
0.0
1040
0.0
1040
0.0
1040
1.0
1040
1.0
1040
0.0
1040
0.0
1070
     0
1002
{
1002
}
1002
}
  0
VIEWPORT
  8
0
  5
C6
 67
     1
 68
     1
 10
0.0
 20
0.0
 30
0.0
 40
0.0
 41
0.0
 69
     1
1001
ACAD
1000
MVIEW
1002
{
1070
    16
1010
0.0
1020
0.0
1030
0.0
1010
0.0
1020
0.0
1030
1.0
1040
0.0
1040
594.0
1040
0.0
1040
0.0
1040
50.0
1040
0.0
1040
0.0
1070
     0
1070
   100
1070
     0
1070
     1
1070
     0
1070
     0
1070
     0
1070
     0
1040
0.0
1040
0.0
1040
0.0
1040
0.5
1040
0.5
1040
0.5
1040
0.5
1070
     0
1002
{
1002
}
1002
}
  0
DIMENSION
  8
0
  5
A0
  2
*D0
 10
298.740882
 20
196.0
 30
0.0
 11
298.740882
 21
196.0
 31
0.0
  1
%%c90
 13
253.240882
 23
173.743082
 33
0.0
 14
344.240882
 24
173.743082
 34
0.0
  3
LC-DIM-L-0090-02-02
  0
INSERT
  8
0
  5
A1
  2
*X1
 10
182.294996
 20
132.743082
 30
0.0
  0
DIMENSION
  8
0
  5
A2
  2
*D2
 10
333.131508
 20
80.0
 30
0.0
 11
333.131508
 21
80.0
 31
0.0
  1
%%c<>
 13
228.740882
 23
132.743082
 33
0.0
 14
368.740882
 24
132.743082
 34
0.0
  3
LC-DIM-L-0090-01-02
  0
DIMENSION
  8
0
  5
A3
  2
*D3
 10
403.2
 20
170.478
 30
0.0
 11
403.2
 21
170.478
 31
0.0
 13
345.240882
 23
173.743082
 33
0.0
 14
368.740882
 24
132.743082
 34
0.0
 50
90.0
  3
LC-DIM-L-0090-01-02
  0
LINE
  8
LC-001-002-----0
  6
CONTINUOUS
  5
A5
 10
367.240882
 20
132.743082
 30
0.0
 11
367.240882
 21
152.743082
 31
0.0
  0
ARC
  8
LC-001-002-----0
  6
CONTINUOUS
  5
A6
 10
353.703895
 20
152.743082
 30
0.0
 40
13.536986
 50
0.0
 51
68.695466
  0
ARC
  8
LC-001-002-----0
  6
CONTINUOUS
  5
A7
 10
243.777868
 20
152.743082
 30
0.0
 40
13.536986
 50
111.304534
 51
180.0
  0
ARC
  8
LC-001-002-----0
  6
CONTINUOUS
  5
A8
 10
345.740882
 20
168.743082
 30
0.0
 40
3.536986
 50
51.549256
 51
90.0
  0
ARC
  8
LC-001-002-----0
  6
CONTINUOUS
  5
A9
 10
243.740882
 20
152.743082
 30
0.0
 40
15.0
 50
111.304534
 51
180.0
  0
ARC
  8
LC-001-002-----0
  6
CONTINUOUS
  5
AA
 10
223.758009
 20
203.984518
 30
0.0
 40
41.463014
 50
291.304534
 51
308.450744
  0
LINE
  8
LC-001-002-----0
  6
CONTINUOUS
  5
AB
 10
368.740882
 20
132.743082
 30
0.0
 11
228.740882
 21
132.743082
 31
0.0
  0
LINE
  8
LC-001-002-----0
  6
DASHDOT
 62
     2
  5
AD
 10
298.740882
 20
173.743082
 30
0.0
 11
298.740882
 21
132.743082
 31
0.0
  0
ARC
  8
LC-001-002-----0
  6
CONTINUOUS
  5
AE
 10
223.758009
 20
203.984518
 30
0.0
 40
40.0
 50
291.304534
 51
308.450744
  0
ARC
  8
LC-001-002-----0
  6
CONTINUOUS
  5
AF
 10
251.740882
 20
168.743082
 30
0.0
 40
3.536986
 50
90.0
 51
128.450744
  0
ARC
  8
LC-001-002-----0
  6
CONTINUOUS
  5
B0
 10
353.740882
 20
152.743082
 30
0.0
 40
15.0
 50
0.0
 51
68.695466
  0
LINE
  8
LC-001-002-----0
  6
CONTINUOUS
  5
B1
 10
368.740882
 20
132.743082
 30
0.0
 11
368.740882
 21
152.743082
 31
0.0
  0
LINE
  8
LC-001-002-----0
  6
CONTINUOUS
  5
B2
 10
345.740882
 20
173.743082
 30
0.0
 11
344.240882
 21
173.743082
 31
0.0
  0
ARC
  8
LC-001-002-----0
  6
CONTINUOUS
  5
B3
 10
345.740882
 20
168.743082
 30
0.0
 40
5.0
 50
51.549256
 51
90.0
  0
LINE
  8
LC-001-002-----0
  6
CONTINUOUS
  5
B4
 10
230.240882
 20
132.743082
 30
0.0
 11
230.240882
 21
152.743082
 31
0.0
  0
LINE
  8
LC-001-002-----0
  6
CONTINUOUS
  5
B5
 10
228.740882
 20
132.743082
 30
0.0
 11
228.740882
 21
152.743082
 31
0.0
  0
LINE
  8
LC-001-002-----0
  6
CONTINUOUS
  5
B6
 10
228.740882
 20
132.743082
 30
0.0
 11
228.740882
 21
152.743082
 31
0.0
  0
LINE
  8
LC-001-002-----0
  6
CONTINUOUS
  5
B7
 10
251.740882
 20
173.743082
 30
0.0
 11
253.240882
 21
173.743082
 31
0.0
  0
LINE
  8
LC-001-002-----0
  6
CONTINUOUS
  5
B8
 10
345.740882
 20
163.743082
 30
0.0
 11
345.740882
 21
172.244549
 31
0.0
  0
LINE
  8
LC-001-002-----0
  6
CONTINUOUS
  5
B9
 10
345.740882
 20
163.743082
 30
0.0
 11
344.240882
 21
163.743082
 31
0.0
  0
ARC
  8
LC-001-002-----0
  6
CONTINUOUS
  5
BA
 10
251.740882
 20
168.743082
 30
0.0
 40
5.0
 50
90.0
 51
128.450744
  0
ARC
  8
LC-001-002-----0
  6
CONTINUOUS
  5
BB
 10
373.723755
 20
203.984518
 30
0.0
 40
40.0
 50
231.549256
 51
248.695466
  0
LINE
  8
LC-001-002-----0
  6
CONTINUOUS
  5
BC
 10
251.740882
 20
163.743082
 30
0.0
 11
251.740882
 21
172.280068
 31
0.0
  0
LINE
  8
LC-001-002-----0
  6
CONTINUOUS
  5
BD
 10
251.740882
 20
163.743082
 30
0.0
 11
253.240882
 21
163.743082
 31
0.0
  0
LINE
  8
LC-001-002-----0
  6
CONTINUOUS
  5
BE
 10
344.240882
 20
163.743082
 30
0.0
 11
253.240882
 21
163.743082
 31
0.0
  0
LINE
  8
LC-001-002-----0
  6
CONTINUOUS
  5
BF
 10
344.240882
 20
173.743082
 30
0.0
 11
253.240882
 21
173.743082
 31
0.0
  0
LINE
  8
LC-001-002-----0
  6
CONTINUOUS
  5
C0
 10
253.240882
 20
173.743082
 30
0.0
 11
253.740882
 21
163.743082
 31
0.0
  0
LINE
  8
LC-001-002-----0
  6
CONTINUOUS
  5
C1
 10
252.240882
 20
163.743082
 30
0.0
 11
253.240882
 21
163.743082
 31
0.0
  0
LINE
  8
LC-001-002-----0
  6
CONTINUOUS
  5
C2
 10
344.240882
 20
173.743082
 30
0.0
 11
343.740882
 21
163.743082
 31
0.0
  0
ARC
  8
LC-001-002-----0
  6
CONTINUOUS
  5
C3
 10
373.723755
 20
203.984518
 30
0.0
 40
41.463014
 50
231.549256
 51
248.695466
  0
ENDSEC
  0
EOF
