  0
SECTION
  2
HEADER
  9
$ACADVER
  1
AC1009
  9
$INSBASE
 10
0.0
 20
0.0
 30
0.0
  9
$EXTMIN
 10
0.0
 20
0.0
 30
0.0
  9
$EXTMAX
 10
840.0
 20
594.0
 30
0.0
  9
$LIMMIN
 10
0.0
 20
0.0
  9
$LIMMAX
 10
840.0
 20
594.0
  9
$ORTHOMODE
 70
     0
  9
$REGENMODE
 70
     1
  9
$FILLMODE
 70
     1
  9
$QTEXTMODE
 70
     0
  9
$MIRRTEXT
 70
     1
  9
$DRAGMODE
 70
     2
  9
$LTSCALE
 40
2.0
  9
$OSMODE
 70
     0
  9
$ATTMODE
 70
     1
  9
$TEXTSIZE
 40
0.2
  9
$TRACEWID
 40
0.05
  9
$TEXTSTYLE
  7
STANDARD
  9
$CLAYER
  8
0
  9
$CELTYPE
  6
BYLAYER
  9
$CECOLOR
 62
     7
  9
$DIMSCALE
 40
2.0
  9
$DIMASZ
 40
3.5
  9
$DIMEXO
 40
0.0625
  9
$DIMDLI
 40
0.38
  9
$DIMRND
 40
0.0
  9
$DIMDLE
 40
0.0
  9
$DIMEXE
 40
0.18
  9
$DIMTP
 40
0.0
  9
$DIMTM
 40
0.0
  9
$DIMTXT
 40
3.5
  9
$DIMCEN
 40
0.09
  9
$DIMTSZ
 40
0.0
  9
$DIMTOL
 70
     0
  9
$DIMLIM
 70
     0
  9
$DIMTIH
 70
     1
  9
$DIMTOH
 70
     1
  9
$DIMSE1
 70
     0
  9
$DIMSE2
 70
     0
  9
$DIMTAD
 70
     1
  9
$DIMZIN
 70
     0
  9
$DIMBLK
  1

  9
$DIMASO
 70
     1
  9
$DIMSHO
 70
     1
  9
$DIMPOST
  1

  9
$DIMAPOST
  1

  9
$DIMALT
 70
     0
  9
$DIMALTD
 70
     2
  9
$DIMALTF
 40
25.4
  9
$DIMLFAC
 40
1.0
  9
$DIMTOFL
 70
     0
  9
$DIMTVP
 40
0.0
  9
$DIMTIX
 70
     0
  9
$DIMSOXD
 70
     0
  9
$DIMSAH
 70
     0
  9
$DIMBLK1
  1

  9
$DIMBLK2
  1

  9
$DIMSTYLE
  2
STANDARD
  9
$DIMCLRD
 70
     0
  9
$DIMCLRE
 70
     0
  9
$DIMCLRT
 70
     0
  9
$DIMTFAC
 40
1.0
  9
$DIMGAP
 40
0.09
  9
$LUNITS
 70
     2
  9
$LUPREC
 70
     2
  9
$AXISMODE
 70
     0
  9
$AXISUNIT
 10
0.0
 20
0.0
  9
$SKETCHINC
 40
0.1
  9
$FILLETRAD
 40
0.0
  9
$AUNITS
 70
     0
  9
$AUPREC
 70
     0
  9
$MENU
  1
acad
  9
$ELEVATION
 40
0.0
  9
$PELEVATION
 40
0.0
  9
$THICKNESS
 40
0.0
  9
$LIMCHECK
 70
     0
  9
$BLIPMODE
 70
     1
  9
$CHAMFERA
 40
0.0
  9
$CHAMFERB
 40
0.0
  9
$SKPOLY
 70
     0
  9
$TDCREATE
 40
0.000000000
  9
$TDUPDATE
 40
0.000000000
  9
$TDINDWG
 40
0.0000000000
  9
$TDUSRTIMER
 40
0.0000000000
  9
$USRTIMER
 70
     1
  9
$ANGBASE
 50
0.0
  9
$ANGDIR
 70
     0
  9
$PDMODE
 70
     0
  9
$PDSIZE
 40
0.0
  9
$PLINEWID
 40
0.0
  9
$COORDS
 70
     0
  9
$SPLFRAME
 70
     0
  9
$SPLINETYPE
 70
     6
  9
$SPLINESEGS
 70
     8
  9
$ATTDIA
 70
     0
  9
$ATTREQ
 70
     1
  9
$HANDLING
 70
     1
  9
$HANDSEED
  5
2B7
  9
$SURFTAB1
 70
     6
  9
$SURFTAB2
 70
     6
  9
$SURFTYPE
 70
     6
  9
$SURFU
 70
     6
  9
$SURFV
 70
     6
  9
$UCSNAME
  2

  9
$UCSORG
 10
0.0
 20
0.0
 30
0.0
  9
$UCSXDIR
 10
1.0
 20
0.0
 30
0.0
  9
$UCSYDIR
 10
0.0
 20
1.0
 30
0.0
  9
$PUCSNAME
  2

  9
$PUCSORG
 10
0.0
 20
0.0
 30
0.0
  9
$PUCSXDIR
 10
1.0
 20
0.0
 30
0.0
  9
$PUCSYDIR
 10
0.0
 20
1.0
 30
0.0
  9
$USERI1
 70
     0
  9
$USERI2
 70
     0
  9
$USERI3
 70
     0
  9
$USERI4
 70
     0
  9
$USERI5
 70
     0
  9
$USERR1
 40
0.0
  9
$USERR2
 40
0.0
  9
$USERR3
 40
0.0
  9
$USERR4
 40
0.0
  9
$USERR5
 40
0.0
  9
$WORLDVIEW
 70
     1
  9
$SHADEDGE
 70
     3
  9
$SHADEDIF
 70
    70
  9
$TILEMODE
 70
     1
  9
$MAXACTVP
 70
    16
  9
$PINSBASE
 10
0.0
 20
0.0
 30
0.0
  9
$PLIMCHECK
 70
     0
  9
$PEXTMIN
 10
1.000000E+20
 20
1.000000E+20
 30
1.000000E+20
  9
$PEXTMAX
 10
-1.000000E+20
 20
-1.000000E+20
 30
-1.000000E+20
  9
$PLIMMIN
 10
0.0
 20
0.0
  9
$PLIMMAX
 10
840.0
 20
594.0
  9
$UNITMODE
 70
     0
  9
$VISRETAIN
 70
     0
  9
$PLINEGEN
 70
     1
  9
$PSLTSCALE
 70
     0
  9
$TREEDEPTH
 70
  3020
  9
$DWGCODEPAGE
  3
dos850
  0
ENDSEC
  0
SECTION
  2
TABLES
  0
TABLE
  2
VPORT
 70
     1
  0
VPORT
  2
*ACTIVE
 70
     0
 10
0.0
 20
0.0
 11
1.0
 21
1.0
 12
420.0
 22
297.0
 13
0.0
 23
0.0
 14
1.0
 24
1.0
 15
0.0
 25
0.0
 16
0.0
 26
0.0
 36
1.0
 17
0.0
 27
0.0
 37
0.0
 40
594.0
 41
1.604229
 42
50.0
 43
0.0
 44
0.0
 50
0.0
 51
0.0
 71
     0
 72
   100
 73
     1
 74
     1
 75
     0
 76
     0
 77
     0
 78
     0
  0
ENDTAB
  0
TABLE
  2
LTYPE
 70
     2
  0
LTYPE
  2
CONTINUOUS
 70
    64
  3
Solid line
 72
    65
 73
     0
 40
0.0
  0
LTYPE
  2
DASHDOT
 70
    64
  3
__ . __ . __ . __ . __
 72
    65
 73
     4
 40
7.5
 49
5.0
 49
-1.25
 49
0.0
 49
-1.25
  0
ENDTAB
  0
TABLE
  2
LAYER
 70
    10
  0
LAYER
  2
0
 70
     0
 62
     7
  6
CONTINUOUS
  0
LAYER
  2
LC-INFO-1-2-MM-A3-0
 70
     1
 62
    -1
  6
CONTINUOUS
  0
LAYER
  2
LC-004-005-----0
 70
     0
 62
     2
  6
CONTINUOUS
  0
LAYER
  2
LC-006-003-MTH-0
 70
     0
 62
     2
  6
CONTINUOUS
  0
LAYER
  2
LC-007-003-MTG-0
 70
     0
 62
     2
  6
CONTINUOUS
  0
LAYER
  2
LC-005-003-----0
 70
     0
 62
     2
  6
CONTINUOUS
  0
LAYER
  2
LC-003-000-----0
 70
     0
 62
     7
  6
CONTINUOUS
  0
LAYER
  2
LC-001-002-----0
 70
     0
 62
     1
  6
CONTINUOUS
  0
LAYER
  2
LC-002-001-----0
 70
     0
 62
     1
  6
CONTINUOUS
  0
LAYER
  2
LC-000
 70
     0
 62
     7
  6
CONTINUOUS
  0
ENDTAB
  0
TABLE
  2
STYLE
 70
     4
  0
STYLE
  2
STANDARD
 70
     0
 40
0.0
 41
1.0
 50
0.0
 71
     0
 42
0.0
  3
txt
  4

  0
STYLE
  2
LC-STANDARD
 70
    64
 40
0.0
 41
1.0
 50
0.0
 71
     0
 42
3.5
  3
MONOTXT
  4

  0
STYLE
  2
LC-TXTSTYLE-150-400-0-0-D2
 70
    64
 40
0.0
 41
1.0
 50
15.0
 71
     0
 42
3.5
  3
MONOTXT
  4

  0
STYLE
  2
LC-TXTSTYLE-150-400-0-0-D3
 70
    64
 40
0.0
 41
1.0
 50
15.0
 71
     0
 42
3.5
  3
LC-STANDARD
  4

  0
ENDTAB
  0
TABLE
  2
VIEW
 70
     0
  0
ENDTAB
  0
TABLE
  2
UCS
 70
     0
  0
ENDTAB
  0
TABLE
  2
APPID
 70
     1
  0
APPID
  2
ACAD
 70
     0
  0
ENDTAB
  0
TABLE
  2
DIMSTYLE
 70
     3
  0
DIMSTYLE
  2
STANDARD
 70
     0
  3

  4

  5

  6

  7

 40
1.0
 41
0.18
 42
0.0625
 43
0.38
 44
0.18
 45
0.0
 46
0.0
 47
0.0
 48
0.0
 71
     0
 72
     0
 73
     1
 74
     1
 75
     0
 76
     0
 77
     0
 78
     0
140
0.18
141
0.09
142
0.0
143
25.4
144
1.0
145
0.0
146
1.0
147
0.09
170
     0
171
     2
172
     0
173
     0
174
     0
175
     0
176
     0
177
     0
178
     0
  0
DIMSTYLE
  2
LC-STANDARD
 70
     0
  3

  4

  5

  6

  7

 40
1.0
 41
3.5
 42
0.0
 43
7.5
 44
1.8
 45
0.0
 46
0.0
 47
0.0
 48
0.0
 71
     0
 72
     0
 73
     0
 74
     0
 75
     0
 76
     0
 77
     1
 78
     8
140
3.5
141
0.0
142
0.0
143
25.4
144
1.0
145
0.0
146
0.71
147
1.5
170
     0
171
     2
172
     1
173
     0
174
     0
175
     0
176
     0
177
     0
178
     3
  0
DIMSTYLE
  2
LC-DIM-L-0090-02-02
 70
     0
  3

  4

  5

  6

  7

 40
2.0
 41
3.5
 42
0.0
 43
7.5
 44
1.8
 45
0.0
 46
0.0
 47
0.0
 48
0.0
 71
     0
 72
     0
 73
     0
 74
     0
 75
     0
 76
     0
 77
     1
 78
     8
140
9.0
141
0.0
142
0.0
143
25.4
144
1.0
145
0.0
146
0.71
147
1.5
170
     0
171
     2
172
     0
173
     0
174
     0
175
     0
176
     2
177
     2
178
     6
  0
ENDTAB
  0
ENDSEC
  0
SECTION
  2
BLOCKS
  0
BLOCK
  8
0
  5
23
  2
BLK1
 70
    64
 10
0.0
 20
0.0
 30
0.0
  3
BLK1
  0
ENDBLK
  8
0
  5
24
  0
BLOCK
  8
0
  5
26
  2
BLK2
 70
    64
 10
0.0
 20
0.0
 30
0.0
  3
BLK2
  0
ENDBLK
  8
0
  5
27
  0
BLOCK
  8
0
  5
29
  2
*X2
 70
    65
 10
227.788961
 20
329.030367
 30
0.0
  3
*X2
  0
LINE
  8
LC-004-005-----0
  6
CONTINUOUS
  5
2B
 10
227.788961
 20
332.239609
 30
0.0
 11
229.788961
 21
330.239609
 31
0.0
  0
LINE
  8
LC-004-005-----0
  6
CONTINUOUS
  5
2C
 10
229.998204
 20
330.030367
 30
0.0
 11
230.998204
 21
329.030367
 31
0.0
  0
LINE
  8
LC-004-005-----0
  6
CONTINUOUS
  5
2D
 10
227.788961
 20
336.48225
 30
0.0
 11
229.788961
 21
334.48225
 31
0.0
  0
LINE
  8
LC-004-005-----0
  6
CONTINUOUS
  5
2E
 10
234.240845
 20
330.030367
 30
0.0
 11
235.240845
 21
329.030367
 31
0.0
  0
LINE
  8
LC-004-005-----0
  6
CONTINUOUS
  5
2F
 10
231.983485
 20
336.530367
 30
0.0
 11
233.183485
 21
335.330367
 31
0.0
  0
LINE
  8
LC-004-005-----0
  6
CONTINUOUS
  5
30
 10
238.483485
 20
330.030367
 30
0.0
 11
239.483485
 21
329.030367
 31
0.0
  0
LINE
  8
LC-004-005-----0
  6
CONTINUOUS
  5
31
 10
236.226126
 20
336.530367
 30
0.0
 11
237.426126
 21
335.330367
 31
0.0
  0
LINE
  8
LC-004-005-----0
  6
CONTINUOUS
  5
32
 10
238.284603
 20
334.471889
 30
0.0
 11
238.426126
 21
334.330367
 31
0.0
  0
LINE
  8
LC-004-005-----0
  6
CONTINUOUS
  5
33
 10
240.468767
 20
336.530367
 30
0.0
 11
240.788961
 21
336.210172
 31
0.0
  0
ENDBLK
  8
0
  5
34
  0
BLOCK
  8
0
  5
36
  2
*X3
 70
    65
 10
230.286576
 20
213.228701
 30
0.0
  3
*X3
  0
LINE
  8
LC-004-005-----0
  6
CONTINUOUS
  5
37
 10
230.286579
 20
213.776491
 30
0.0
 11
230.834346
 21
213.228724
 31
0.0
  0
LINE
  8
LC-004-005-----0
  6
CONTINUOUS
  5
38
 10
230.286587
 20
215.190696
 30
0.0
 11
232.248568
 21
213.228717
 31
0.0
  0
LINE
  8
LC-004-005-----0
  6
CONTINUOUS
  5
39
 10
230.286594
 20
216.604901
 30
0.0
 11
231.286589
 21
215.604907
 31
0.0
  0
LINE
  8
LC-004-005-----0
  6
CONTINUOUS
  5
3A
 10
232.662783
 20
214.228714
 30
0.0
 11
233.66279
 21
213.228709
 31
0.0
  0
LINE
  8
LC-004-005-----0
  6
CONTINUOUS
  5
3B
 10
230.776984
 20
217.528724
 30
0.0
 11
231.77699
 21
216.528719
 31
0.0
  0
LINE
  8
LC-004-005-----0
  6
CONTINUOUS
  5
3C
 10
234.077005
 20
214.228707
 30
0.0
 11
235.077012
 21
213.228702
 31
0.0
  0
LINE
  8
LC-004-005-----0
  6
CONTINUOUS
  5
3D
 10
232.191206
 20
217.528717
 30
0.0
 11
233.191212
 21
216.528712
 31
0.0
  0
LINE
  8
LC-004-005-----0
  6
CONTINUOUS
  5
3E
 10
233.605428
 20
217.528709
 30
0.0
 11
234.605434
 21
216.528704
 31
0.0
  0
LINE
  8
LC-004-005-----0
  6
CONTINUOUS
  5
3F
 10
235.01965
 20
217.528702
 30
0.0
 11
236.019656
 21
216.528697
 31
0.0
  0
LINE
  8
LC-004-005-----0
  6
CONTINUOUS
  5
40
 10
236.433872
 20
217.528694
 30
0.0
 11
237.433878
 21
216.528689
 31
0.0
  0
LINE
  8
LC-004-005-----0
  6
CONTINUOUS
  5
41
 10
237.848094
 20
217.528687
 30
0.0
 11
238.8481
 21
216.528682
 31
0.0
  0
LINE
  8
LC-004-005-----0
  6
CONTINUOUS
  5
42
 10
239.262316
 20
217.528679
 30
0.0
 11
240.262322
 21
216.528674
 31
0.0
  0
LINE
  8
LC-004-005-----0
  6
CONTINUOUS
  5
43
 10
240.676538
 20
217.528672
 30
0.0
 11
241.676544
 21
216.528667
 31
0.0
  0
LINE
  8
LC-004-005-----0
  6
CONTINUOUS
  5
44
 10
241.470342
 20
218.149081
 30
0.0
 11
242.371246
 21
217.248178
 31
0.0
  0
LINE
  8
LC-004-005-----0
  6
CONTINUOUS
  5
45
 10
241.619213
 20
219.414423
 30
0.0
 11
242.520117
 21
218.51352
 31
0.0
  0
LINE
  8
LC-004-005-----0
  6
CONTINUOUS
  5
46
 10
241.768084
 20
220.679765
 30
0.0
 11
242.668987
 21
219.778863
 31
0.0
  0
LINE
  8
LC-004-005-----0
  6
CONTINUOUS
  5
47
 10
241.916954
 20
221.945107
 30
0.0
 11
242.817858
 21
221.044205
 31
0.0
  0
LINE
  8
LC-004-005-----0
  6
CONTINUOUS
  5
48
 10
242.065825
 20
223.21045
 30
0.0
 11
242.966729
 21
222.309547
 31
0.0
  0
LINE
  8
LC-004-005-----0
  6
CONTINUOUS
  5
49
 10
242.214695
 20
224.475792
 30
0.0
 11
243.115599
 21
223.574889
 31
0.0
  0
LINE
  8
LC-004-005-----0
  6
CONTINUOUS
  5
4A
 10
242.363566
 20
225.741134
 30
0.0
 11
243.26447
 21
224.840231
 31
0.0
  0
LINE
  8
LC-004-005-----0
  6
CONTINUOUS
  5
4B
 10
242.512437
 20
227.006476
 30
0.0
 11
243.41334
 21
226.105574
 31
0.0
  0
LINE
  8
LC-004-005-----0
  6
CONTINUOUS
  5
4C
 10
243.514857
 20
226.004057
 30
0.0
 11
244.709107
 21
224.809809
 31
0.0
  0
LINE
  8
LC-004-005-----0
  6
CONTINUOUS
  5
4D
 10
242.661307
 20
228.271819
 30
0.0
 11
243.562211
 21
227.370916
 31
0.0
  0
LINE
  8
LC-004-005-----0
  6
CONTINUOUS
  5
4E
 10
245.185818
 20
225.747312
 30
0.0
 11
246.380462
 21
224.552668
 31
0.0
  0
LINE
  8
LC-004-005-----0
  6
CONTINUOUS
  5
4F
 10
242.810178
 20
229.537161
 30
0.0
 11
243.711082
 21
228.636258
 31
0.0
  0
LINE
  8
LC-004-005-----0
  6
CONTINUOUS
  5
50
 10
246.856778
 20
225.490566
 30
0.0
 11
248.051818
 21
224.295528
 31
0.0
  0
LINE
  8
LC-004-005-----0
  6
CONTINUOUS
  5
51
 10
242.959048
 20
230.802503
 30
0.0
 11
243.859952
 21
229.9016
 31
0.0
  0
LINE
  8
LC-004-005-----0
  6
CONTINUOUS
  5
52
 10
248.527738
 20
225.233821
 30
0.0
 11
249.723173
 21
224.038387
 31
0.0
  0
LINE
  8
LC-004-005-----0
  6
CONTINUOUS
  5
53
 10
243.107919
 20
232.067845
 30
0.0
 11
244.008823
 21
231.166943
 31
0.0
  0
LINE
  8
LC-004-005-----0
  6
CONTINUOUS
  5
54
 10
243.25679
 20
233.333187
 30
0.0
 11
244.561328
 21
232.028651
 31
0.0
  0
LINE
  8
LC-004-005-----0
  6
CONTINUOUS
  5
55
 10
243.40566
 20
234.59853
 30
0.0
 11
245.11021
 21
232.893982
 31
0.0
  0
LINE
  8
LC-004-005-----0
  6
CONTINUOUS
  5
56
 10
243.554531
 20
235.863872
 30
0.0
 11
245.110217
 21
234.308187
 31
0.0
  0
LINE
  8
LC-004-005-----0
  6
CONTINUOUS
  5
57
 10
244.803967
 20
236.02865
 30
0.0
 11
245.110225
 21
235.722393
 31
0.0
  0
ENDBLK
  8
0
  5
58
  0
BLOCK
  8
0
  5
5A
  2
*X4
 70
    65
 10
227.788961
 20
211.530367
 30
0.0
  3
*X4
  0
LINE
  8
LC-004-005-----0
  6
CONTINUOUS
  5
5B
 10
227.788961
 20
213.44568
 30
0.0
 11
229.704277
 21
211.530367
 31
0.0
  0
LINE
  8
LC-004-005-----0
  6
CONTINUOUS
  5
5C
 10
227.788961
 20
217.688318
 30
0.0
 11
229.786589
 21
215.690692
 31
0.0
  0
LINE
  8
LC-004-005-----0
  6
CONTINUOUS
  5
5D
 10
232.748571
 20
212.728714
 30
0.0
 11
233.94692
 21
211.530367
 31
0.0
  0
LINE
  8
LC-004-005-----0
  6
CONTINUOUS
  5
5E
 10
230.691196
 20
219.028725
 30
0.0
 11
231.691202
 21
218.02872
 31
0.0
  0
LINE
  8
LC-004-005-----0
  6
CONTINUOUS
  5
5F
 10
236.991237
 20
212.728692
 30
0.0
 11
238.189564
 21
211.530367
 31
0.0
  0
LINE
  8
LC-004-005-----0
  6
CONTINUOUS
  5
60
 10
234.933862
 20
219.028702
 30
0.0
 11
235.933868
 21
218.028697
 31
0.0
  0
LINE
  8
LC-004-005-----0
  6
CONTINUOUS
  5
61
 10
239.176528
 20
219.02868
 30
0.0
 11
240.176534
 21
218.028675
 31
0.0
  0
ENDBLK
  8
0
  5
62
  0
BLOCK
  8
0
  5
64
  2
*X5
 70
    65
 10
233.605949
 20
306.530367
 30
0.0
  3
*X5
  0
LINE
  8
LC-004-005-----0
  6
CONTINUOUS
  5
65
 10
627.757856
 20
326.530367
 30
0.0
 11
627.771995
 21
326.544506
 31
0.0
  0
LINE
  8
LC-004-005-----0
  6
CONTINUOUS
  5
66
 10
623.515215
 20
326.530367
 30
0.0
 11
625.457827
 21
328.472979
 31
0.0
  0
LINE
  8
LC-004-005-----0
  6
CONTINUOUS
  5
67
 10
619.272574
 20
326.530367
 30
0.0
 11
621.772574
 21
329.030367
 31
0.0
  0
LINE
  8
LC-004-005-----0
  6
CONTINUOUS
  5
68
 10
615.029934
 20
326.530367
 30
0.0
 11
617.529934
 21
329.030367
 31
0.0
  0
LINE
  8
LC-004-005-----0
  6
CONTINUOUS
  5
69
 10
610.787293
 20
326.530367
 30
0.0
 11
613.287293
 21
329.030367
 31
0.0
  0
LINE
  8
LC-004-005-----0
  6
CONTINUOUS
  5
6A
 10
606.544652
 20
326.530367
 30
0.0
 11
609.044652
 21
329.030367
 31
0.0
  0
LINE
  8
LC-004-005-----0
  6
CONTINUOUS
  5
6B
 10
602.302011
 20
326.530367
 30
0.0
 11
604.802011
 21
329.030367
 31
0.0
  0
LINE
  8
LC-004-005-----0
  6
CONTINUOUS
  5
6C
 10
598.059371
 20
326.530367
 30
0.0
 11
600.559371
 21
329.030367
 31
0.0
  0
LINE
  8
LC-004-005-----0
  6
CONTINUOUS
  5
6D
 10
593.81673
 20
326.530367
 30
0.0
 11
596.31673
 21
329.030367
 31
0.0
  0
LINE
  8
LC-004-005-----0
  6
CONTINUOUS
  5
6E
 10
589.574089
 20
326.530367
 30
0.0
 11
592.074089
 21
329.030367
 31
0.0
  0
LINE
  8
LC-004-005-----0
  6
CONTINUOUS
  5
6F
 10
585.331449
 20
326.530367
 30
0.0
 11
587.831449
 21
329.030367
 31
0.0
  0
LINE
  8
LC-004-005-----0
  6
CONTINUOUS
  5
70
 10
581.088808
 20
326.530367
 30
0.0
 11
583.588808
 21
329.030367
 31
0.0
  0
LINE
  8
LC-004-005-----0
  6
CONTINUOUS
  5
71
 10
576.846167
 20
326.530367
 30
0.0
 11
579.346167
 21
329.030367
 31
0.0
  0
LINE
  8
LC-004-005-----0
  6
CONTINUOUS
  5
72
 10
572.603527
 20
326.530367
 30
0.0
 11
575.103527
 21
329.030367
 31
0.0
  0
LINE
  8
LC-004-005-----0
  6
CONTINUOUS
  5
73
 10
568.360886
 20
326.530367
 30
0.0
 11
570.860886
 21
329.030367
 31
0.0
  0
LINE
  8
LC-004-005-----0
  6
CONTINUOUS
  5
74
 10
564.118245
 20
326.530367
 30
0.0
 11
566.618245
 21
329.030367
 31
0.0
  0
LINE
  8
LC-004-005-----0
  6
CONTINUOUS
  5
75
 10
559.875605
 20
326.530367
 30
0.0
 11
562.375605
 21
329.030367
 31
0.0
  0
LINE
  8
LC-004-005-----0
  6
CONTINUOUS
  5
76
 10
555.632964
 20
326.530367
 30
0.0
 11
558.132964
 21
329.030367
 31
0.0
  0
LINE
  8
LC-004-005-----0
  6
CONTINUOUS
  5
77
 10
551.390323
 20
326.530367
 30
0.0
 11
553.890323
 21
329.030367
 31
0.0
  0
LINE
  8
LC-004-005-----0
  6
CONTINUOUS
  5
78
 10
547.147683
 20
326.530367
 30
0.0
 11
549.647683
 21
329.030367
 31
0.0
  0
LINE
  8
LC-004-005-----0
  6
CONTINUOUS
  5
79
 10
542.905042
 20
326.530367
 30
0.0
 11
545.405042
 21
329.030367
 31
0.0
  0
LINE
  8
LC-004-005-----0
  6
CONTINUOUS
  5
7A
 10
538.662401
 20
326.530367
 30
0.0
 11
541.162401
 21
329.030367
 31
0.0
  0
LINE
  8
LC-004-005-----0
  6
CONTINUOUS
  5
7B
 10
534.41976
 20
326.530367
 30
0.0
 11
536.91976
 21
329.030367
 31
0.0
  0
LINE
  8
LC-004-005-----0
  6
CONTINUOUS
  5
7C
 10
530.17712
 20
326.530367
 30
0.0
 11
532.67712
 21
329.030367
 31
0.0
  0
LINE
  8
LC-004-005-----0
  6
CONTINUOUS
  5
7D
 10
525.934479
 20
326.530367
 30
0.0
 11
528.434479
 21
329.030367
 31
0.0
  0
LINE
  8
LC-004-005-----0
  6
CONTINUOUS
  5
7E
 10
521.691838
 20
326.530367
 30
0.0
 11
524.191838
 21
329.030367
 31
0.0
  0
LINE
  8
LC-004-005-----0
  6
CONTINUOUS
  5
7F
 10
517.449198
 20
326.530367
 30
0.0
 11
519.949198
 21
329.030367
 31
0.0
  0
LINE
  8
LC-004-005-----0
  6
CONTINUOUS
  5
80
 10
513.206557
 20
326.530367
 30
0.0
 11
515.706557
 21
329.030367
 31
0.0
  0
LINE
  8
LC-004-005-----0
  6
CONTINUOUS
  5
81
 10
508.963916
 20
326.530367
 30
0.0
 11
511.463916
 21
329.030367
 31
0.0
  0
LINE
  8
LC-004-005-----0
  6
CONTINUOUS
  5
82
 10
504.721276
 20
326.530367
 30
0.0
 11
507.221276
 21
329.030367
 31
0.0
  0
LINE
  8
LC-004-005-----0
  6
CONTINUOUS
  5
83
 10
500.478635
 20
326.530367
 30
0.0
 11
502.978635
 21
329.030367
 31
0.0
  0
LINE
  8
LC-004-005-----0
  6
CONTINUOUS
  5
84
 10
496.235994
 20
326.530367
 30
0.0
 11
498.735994
 21
329.030367
 31
0.0
  0
LINE
  8
LC-004-005-----0
  6
CONTINUOUS
  5
85
 10
491.993354
 20
326.530367
 30
0.0
 11
494.493354
 21
329.030367
 31
0.0
  0
LINE
  8
LC-004-005-----0
  6
CONTINUOUS
  5
86
 10
487.750713
 20
326.530367
 30
0.0
 11
490.250713
 21
329.030367
 31
0.0
  0
LINE
  8
LC-004-005-----0
  6
CONTINUOUS
  5
87
 10
483.508072
 20
326.530367
 30
0.0
 11
486.008072
 21
329.030367
 31
0.0
  0
LINE
  8
LC-004-005-----0
  6
CONTINUOUS
  5
88
 10
479.265432
 20
326.530367
 30
0.0
 11
481.765432
 21
329.030367
 31
0.0
  0
LINE
  8
LC-004-005-----0
  6
CONTINUOUS
  5
89
 10
475.022791
 20
326.530367
 30
0.0
 11
477.522791
 21
329.030367
 31
0.0
  0
LINE
  8
LC-004-005-----0
  6
CONTINUOUS
  5
8A
 10
470.78015
 20
326.530367
 30
0.0
 11
473.28015
 21
329.030367
 31
0.0
  0
LINE
  8
LC-004-005-----0
  6
CONTINUOUS
  5
8B
 10
466.537509
 20
326.530367
 30
0.0
 11
469.037509
 21
329.030367
 31
0.0
  0
LINE
  8
LC-004-005-----0
  6
CONTINUOUS
  5
8C
 10
462.294869
 20
326.530367
 30
0.0
 11
464.794869
 21
329.030367
 31
0.0
  0
LINE
  8
LC-004-005-----0
  6
CONTINUOUS
  5
8D
 10
458.052228
 20
326.530367
 30
0.0
 11
460.552228
 21
329.030367
 31
0.0
  0
LINE
  8
LC-004-005-----0
  6
CONTINUOUS
  5
8E
 10
453.809587
 20
326.530367
 30
0.0
 11
456.309587
 21
329.030367
 31
0.0
  0
LINE
  8
LC-004-005-----0
  6
CONTINUOUS
  5
8F
 10
449.566947
 20
326.530367
 30
0.0
 11
452.066947
 21
329.030367
 31
0.0
  0
LINE
  8
LC-004-005-----0
  6
CONTINUOUS
  5
90
 10
445.324306
 20
326.530367
 30
0.0
 11
447.824306
 21
329.030367
 31
0.0
  0
LINE
  8
LC-004-005-----0
  6
CONTINUOUS
  5
91
 10
441.081665
 20
326.530367
 30
0.0
 11
443.581665
 21
329.030367
 31
0.0
  0
LINE
  8
LC-004-005-----0
  6
CONTINUOUS
  5
92
 10
436.839025
 20
326.530367
 30
0.0
 11
439.339025
 21
329.030367
 31
0.0
  0
LINE
  8
LC-004-005-----0
  6
CONTINUOUS
  5
93
 10
432.596384
 20
326.530367
 30
0.0
 11
435.096384
 21
329.030367
 31
0.0
  0
LINE
  8
LC-004-005-----0
  6
CONTINUOUS
  5
94
 10
428.353743
 20
326.530367
 30
0.0
 11
430.853743
 21
329.030367
 31
0.0
  0
LINE
  8
LC-004-005-----0
  6
CONTINUOUS
  5
95
 10
424.111103
 20
326.530367
 30
0.0
 11
426.611103
 21
329.030367
 31
0.0
  0
LINE
  8
LC-004-005-----0
  6
CONTINUOUS
  5
96
 10
419.868462
 20
326.530367
 30
0.0
 11
422.368462
 21
329.030367
 31
0.0
  0
LINE
  8
LC-004-005-----0
  6
CONTINUOUS
  5
97
 10
415.625821
 20
326.530367
 30
0.0
 11
418.125821
 21
329.030367
 31
0.0
  0
LINE
  8
LC-004-005-----0
  6
CONTINUOUS
  5
98
 10
411.383181
 20
326.530367
 30
0.0
 11
413.883181
 21
329.030367
 31
0.0
  0
LINE
  8
LC-004-005-----0
  6
CONTINUOUS
  5
99
 10
407.14054
 20
326.530367
 30
0.0
 11
409.64054
 21
329.030367
 31
0.0
  0
LINE
  8
LC-004-005-----0
  6
CONTINUOUS
  5
9A
 10
402.897899
 20
326.530367
 30
0.0
 11
405.397899
 21
329.030367
 31
0.0
  0
LINE
  8
LC-004-005-----0
  6
CONTINUOUS
  5
9B
 10
398.655258
 20
326.530367
 30
0.0
 11
401.155258
 21
329.030367
 31
0.0
  0
LINE
  8
LC-004-005-----0
  6
CONTINUOUS
  5
9C
 10
394.412618
 20
326.530367
 30
0.0
 11
396.912618
 21
329.030367
 31
0.0
  0
LINE
  8
LC-004-005-----0
  6
CONTINUOUS
  5
9D
 10
390.169977
 20
326.530367
 30
0.0
 11
392.669977
 21
329.030367
 31
0.0
  0
LINE
  8
LC-004-005-----0
  6
CONTINUOUS
  5
9E
 10
385.927336
 20
326.530367
 30
0.0
 11
388.427336
 21
329.030367
 31
0.0
  0
LINE
  8
LC-004-005-----0
  6
CONTINUOUS
  5
9F
 10
381.684696
 20
326.530367
 30
0.0
 11
384.184696
 21
329.030367
 31
0.0
  0
LINE
  8
LC-004-005-----0
  6
CONTINUOUS
  5
A0
 10
377.442055
 20
326.530367
 30
0.0
 11
379.942055
 21
329.030367
 31
0.0
  0
LINE
  8
LC-004-005-----0
  6
CONTINUOUS
  5
A1
 10
373.199414
 20
326.530367
 30
0.0
 11
375.699414
 21
329.030367
 31
0.0
  0
LINE
  8
LC-004-005-----0
  6
CONTINUOUS
  5
A2
 10
368.956774
 20
326.530367
 30
0.0
 11
371.456774
 21
329.030367
 31
0.0
  0
LINE
  8
LC-004-005-----0
  6
CONTINUOUS
  5
A3
 10
364.714133
 20
326.530367
 30
0.0
 11
367.214133
 21
329.030367
 31
0.0
  0
LINE
  8
LC-004-005-----0
  6
CONTINUOUS
  5
A4
 10
360.471492
 20
326.530367
 30
0.0
 11
362.971492
 21
329.030367
 31
0.0
  0
LINE
  8
LC-004-005-----0
  6
CONTINUOUS
  5
A5
 10
356.228852
 20
326.530367
 30
0.0
 11
358.728852
 21
329.030367
 31
0.0
  0
LINE
  8
LC-004-005-----0
  6
CONTINUOUS
  5
A6
 10
351.986211
 20
326.530367
 30
0.0
 11
354.486211
 21
329.030367
 31
0.0
  0
LINE
  8
LC-004-005-----0
  6
CONTINUOUS
  5
A7
 10
347.74357
 20
326.530367
 30
0.0
 11
350.24357
 21
329.030367
 31
0.0
  0
LINE
  8
LC-004-005-----0
  6
CONTINUOUS
  5
A8
 10
343.50093
 20
326.530367
 30
0.0
 11
346.00093
 21
329.030367
 31
0.0
  0
LINE
  8
LC-004-005-----0
  6
CONTINUOUS
  5
A9
 10
339.258289
 20
326.530367
 30
0.0
 11
341.758289
 21
329.030367
 31
0.0
  0
LINE
  8
LC-004-005-----0
  6
CONTINUOUS
  5
AA
 10
335.015648
 20
326.530367
 30
0.0
 11
337.515648
 21
329.030367
 31
0.0
  0
LINE
  8
LC-004-005-----0
  6
CONTINUOUS
  5
AB
 10
330.773007
 20
326.530367
 30
0.0
 11
333.273007
 21
329.030367
 31
0.0
  0
LINE
  8
LC-004-005-----0
  6
CONTINUOUS
  5
AC
 10
326.530367
 20
326.530367
 30
0.0
 11
329.030367
 21
329.030367
 31
0.0
  0
LINE
  8
LC-004-005-----0
  6
CONTINUOUS
  5
AD
 10
322.287726
 20
326.530367
 30
0.0
 11
324.787726
 21
329.030367
 31
0.0
  0
LINE
  8
LC-004-005-----0
  6
CONTINUOUS
  5
AE
 10
318.045085
 20
326.530367
 30
0.0
 11
320.545085
 21
329.030367
 31
0.0
  0
LINE
  8
LC-004-005-----0
  6
CONTINUOUS
  5
AF
 10
313.802445
 20
326.530367
 30
0.0
 11
316.302445
 21
329.030367
 31
0.0
  0
LINE
  8
LC-004-005-----0
  6
CONTINUOUS
  5
B0
 10
309.559804
 20
326.530367
 30
0.0
 11
312.059804
 21
329.030367
 31
0.0
  0
LINE
  8
LC-004-005-----0
  6
CONTINUOUS
  5
B1
 10
305.317163
 20
326.530367
 30
0.0
 11
307.817163
 21
329.030367
 31
0.0
  0
LINE
  8
LC-004-005-----0
  6
CONTINUOUS
  5
B2
 10
301.074523
 20
326.530367
 30
0.0
 11
303.574523
 21
329.030367
 31
0.0
  0
LINE
  8
LC-004-005-----0
  6
CONTINUOUS
  5
B3
 10
296.831882
 20
326.530367
 30
0.0
 11
299.331882
 21
329.030367
 31
0.0
  0
LINE
  8
LC-004-005-----0
  6
CONTINUOUS
  5
B4
 10
292.589241
 20
326.530367
 30
0.0
 11
295.089241
 21
329.030367
 31
0.0
  0
LINE
  8
LC-004-005-----0
  6
CONTINUOUS
  5
B5
 10
288.346601
 20
326.530367
 30
0.0
 11
290.846601
 21
329.030367
 31
0.0
  0
LINE
  8
LC-004-005-----0
  6
CONTINUOUS
  5
B6
 10
284.10396
 20
326.530367
 30
0.0
 11
286.60396
 21
329.030367
 31
0.0
  0
LINE
  8
LC-004-005-----0
  6
CONTINUOUS
  5
B7
 10
279.861319
 20
326.530367
 30
0.0
 11
282.392647
 21
329.061694
 31
0.0
  0
LINE
  8
LC-004-005-----0
  6
CONTINUOUS
  5
B8
 10
276.024144
 20
326.935832
 30
0.0
 11
278.822076
 21
329.733764
 31
0.0
  0
LINE
  8
LC-004-005-----0
  6
CONTINUOUS
  5
B9
 10
272.816531
 20
327.97086
 30
0.0
 11
275.876854
 21
331.031183
 31
0.0
  0
LINE
  8
LC-004-005-----0
  6
CONTINUOUS
  5
BA
 10
270.068366
 20
329.465336
 30
0.0
 11
273.409894
 21
332.806863
 31
0.0
  0
LINE
  8
LC-004-005-----0
  6
CONTINUOUS
  5
BB
 10
267.321806
 20
330.961416
 30
0.0
 11
270.931151
 21
334.570761
 31
0.0
  0
LINE
  8
LC-004-005-----0
  6
CONTINUOUS
  5
BC
 10
263.894895
 20
331.777146
 30
0.0
 11
267.971794
 21
335.854045
 31
0.0
  0
LINE
  8
LC-004-005-----0
  6
CONTINUOUS
  5
BD
 10
259.705475
 20
331.830367
 30
0.0
 11
264.380674
 21
336.505565
 31
0.0
  0
LINE
  8
LC-004-005-----0
  6
CONTINUOUS
  5
BE
 10
255.462834
 20
331.830367
 30
0.0
 11
260.162834
 21
336.530367
 31
0.0
  0
LINE
  8
LC-004-005-----0
  6
CONTINUOUS
  5
BF
 10
251.220194
 20
331.830367
 30
0.0
 11
255.920194
 21
336.530367
 31
0.0
  0
LINE
  8
LC-004-005-----0
  6
CONTINUOUS
  5
C0
 10
246.977553
 20
331.830367
 30
0.0
 11
251.677553
 21
336.530367
 31
0.0
  0
LINE
  8
LC-004-005-----0
  6
CONTINUOUS
  5
C1
 10
242.734912
 20
331.830367
 30
0.0
 11
247.434912
 21
336.530367
 31
0.0
  0
LINE
  8
LC-004-005-----0
  6
CONTINUOUS
  5
C2
 10
238.492272
 20
331.830367
 30
0.0
 11
240.902981
 21
334.241076
 31
0.0
  0
LINE
  8
LC-004-005-----0
  6
CONTINUOUS
  5
C3
 10
241.078252
 20
334.416347
 30
0.0
 11
243.192272
 21
336.530367
 31
0.0
  0
LINE
  8
LC-004-005-----0
  6
CONTINUOUS
  5
C4
 10
234.249631
 20
331.830367
 30
0.0
 11
237.332328
 21
334.913063
 31
0.0
  0
ENDBLK
  8
0
  5
C5
  0
BLOCK
  8
0
  5
C7
  2
*X6
 70
    65
 10
233.603571
 20
186.528411
 30
0.0
  3
*X6
  0
LINE
  8
LC-004-005-----0
  6
CONTINUOUS
  5
C8
 10
622.08179
 20
219.030367
 30
0.0
 11
624.581775
 21
221.530349
 31
0.0
  0
LINE
  8
LC-004-005-----0
  6
CONTINUOUS
  5
C9
 10
617.839147
 20
219.030367
 30
0.0
 11
620.339108
 21
221.530325
 31
0.0
  0
LINE
  8
LC-004-005-----0
  6
CONTINUOUS
  5
CA
 10
613.596503
 20
219.030367
 30
0.0
 11
616.096441
 21
221.530301
 31
0.0
  0
LINE
  8
LC-004-005-----0
  6
CONTINUOUS
  5
CB
 10
609.35386
 20
219.030367
 30
0.0
 11
611.853773
 21
221.530277
 31
0.0
  0
LINE
  8
LC-004-005-----0
  6
CONTINUOUS
  5
CC
 10
605.111216
 20
219.030367
 30
0.0
 11
607.611106
 21
221.530253
 31
0.0
  0
LINE
  8
LC-004-005-----0
  6
CONTINUOUS
  5
CD
 10
600.868573
 20
219.030367
 30
0.0
 11
603.368439
 21
221.53023
 31
0.0
  0
LINE
  8
LC-004-005-----0
  6
CONTINUOUS
  5
CE
 10
596.625929
 20
219.030367
 30
0.0
 11
599.125771
 21
221.530206
 31
0.0
  0
LINE
  8
LC-004-005-----0
  6
CONTINUOUS
  5
CF
 10
592.383286
 20
219.030367
 30
0.0
 11
594.883104
 21
221.530182
 31
0.0
  0
LINE
  8
LC-004-005-----0
  6
CONTINUOUS
  5
D0
 10
588.140642
 20
219.030367
 30
0.0
 11
590.640437
 21
221.530158
 31
0.0
  0
LINE
  8
LC-004-005-----0
  6
CONTINUOUS
  5
D1
 10
583.897999
 20
219.030367
 30
0.0
 11
586.397769
 21
221.530134
 31
0.0
  0
LINE
  8
LC-004-005-----0
  6
CONTINUOUS
  5
D2
 10
579.655355
 20
219.030367
 30
0.0
 11
582.155102
 21
221.53011
 31
0.0
  0
LINE
  8
LC-004-005-----0
  6
CONTINUOUS
  5
D3
 10
575.412712
 20
219.030367
 30
0.0
 11
577.912435
 21
221.530087
 31
0.0
  0
LINE
  8
LC-004-005-----0
  6
CONTINUOUS
  5
D4
 10
571.170068
 20
219.030367
 30
0.0
 11
573.669767
 21
221.530063
 31
0.0
  0
LINE
  8
LC-004-005-----0
  6
CONTINUOUS
  5
D5
 10
566.927425
 20
219.030367
 30
0.0
 11
569.4271
 21
221.530039
 31
0.0
  0
LINE
  8
LC-004-005-----0
  6
CONTINUOUS
  5
D6
 10
562.684781
 20
219.030367
 30
0.0
 11
565.184433
 21
221.530015
 31
0.0
  0
LINE
  8
LC-004-005-----0
  6
CONTINUOUS
  5
D7
 10
558.442138
 20
219.030367
 30
0.0
 11
560.941765
 21
221.529991
 31
0.0
  0
LINE
  8
LC-004-005-----0
  6
CONTINUOUS
  5
D8
 10
554.199494
 20
219.030367
 30
0.0
 11
556.699098
 21
221.529967
 31
0.0
  0
LINE
  8
LC-004-005-----0
  6
CONTINUOUS
  5
D9
 10
549.956851
 20
219.030367
 30
0.0
 11
552.456431
 21
221.529944
 31
0.0
  0
LINE
  8
LC-004-005-----0
  6
CONTINUOUS
  5
DA
 10
545.714207
 20
219.030367
 30
0.0
 11
548.213763
 21
221.52992
 31
0.0
  0
LINE
  8
LC-004-005-----0
  6
CONTINUOUS
  5
DB
 10
541.471564
 20
219.030367
 30
0.0
 11
543.971096
 21
221.529896
 31
0.0
  0
LINE
  8
LC-004-005-----0
  6
CONTINUOUS
  5
DC
 10
537.22892
 20
219.030367
 30
0.0
 11
539.728429
 21
221.529872
 31
0.0
  0
LINE
  8
LC-004-005-----0
  6
CONTINUOUS
  5
DD
 10
532.986277
 20
219.030367
 30
0.0
 11
535.485761
 21
221.529848
 31
0.0
  0
LINE
  8
LC-004-005-----0
  6
CONTINUOUS
  5
DE
 10
528.743633
 20
219.030367
 30
0.0
 11
531.243094
 21
221.529824
 31
0.0
  0
LINE
  8
LC-004-005-----0
  6
CONTINUOUS
  5
DF
 10
524.50099
 20
219.030367
 30
0.0
 11
527.000427
 21
221.529801
 31
0.0
  0
LINE
  8
LC-004-005-----0
  6
CONTINUOUS
  5
E0
 10
520.258346
 20
219.030367
 30
0.0
 11
522.757759
 21
221.529777
 31
0.0
  0
LINE
  8
LC-004-005-----0
  6
CONTINUOUS
  5
E1
 10
516.015703
 20
219.030367
 30
0.0
 11
518.515092
 21
221.529753
 31
0.0
  0
LINE
  8
LC-004-005-----0
  6
CONTINUOUS
  5
E2
 10
511.773059
 20
219.030367
 30
0.0
 11
514.272425
 21
221.529729
 31
0.0
  0
LINE
  8
LC-004-005-----0
  6
CONTINUOUS
  5
E3
 10
507.530416
 20
219.030367
 30
0.0
 11
510.029757
 21
221.529705
 31
0.0
  0
LINE
  8
LC-004-005-----0
  6
CONTINUOUS
  5
E4
 10
503.287772
 20
219.030367
 30
0.0
 11
505.78709
 21
221.529681
 31
0.0
  0
LINE
  8
LC-004-005-----0
  6
CONTINUOUS
  5
E5
 10
499.045129
 20
219.030367
 30
0.0
 11
501.544423
 21
221.529657
 31
0.0
  0
LINE
  8
LC-004-005-----0
  6
CONTINUOUS
  5
E6
 10
494.802485
 20
219.030367
 30
0.0
 11
497.301755
 21
221.529634
 31
0.0
  0
LINE
  8
LC-004-005-----0
  6
CONTINUOUS
  5
E7
 10
490.559842
 20
219.030367
 30
0.0
 11
493.059088
 21
221.52961
 31
0.0
  0
LINE
  8
LC-004-005-----0
  6
CONTINUOUS
  5
E8
 10
486.317198
 20
219.030367
 30
0.0
 11
488.81642
 21
221.529586
 31
0.0
  0
LINE
  8
LC-004-005-----0
  6
CONTINUOUS
  5
E9
 10
482.074555
 20
219.030367
 30
0.0
 11
484.573753
 21
221.529562
 31
0.0
  0
LINE
  8
LC-004-005-----0
  6
CONTINUOUS
  5
EA
 10
477.831911
 20
219.030367
 30
0.0
 11
480.331086
 21
221.529538
 31
0.0
  0
LINE
  8
LC-004-005-----0
  6
CONTINUOUS
  5
EB
 10
473.589268
 20
219.030367
 30
0.0
 11
476.088418
 21
221.529514
 31
0.0
  0
LINE
  8
LC-004-005-----0
  6
CONTINUOUS
  5
EC
 10
469.346624
 20
219.030367
 30
0.0
 11
471.845751
 21
221.529491
 31
0.0
  0
LINE
  8
LC-004-005-----0
  6
CONTINUOUS
  5
ED
 10
465.10398
 20
219.030367
 30
0.0
 11
467.603084
 21
221.529467
 31
0.0
  0
LINE
  8
LC-004-005-----0
  6
CONTINUOUS
  5
EE
 10
460.861337
 20
219.030367
 30
0.0
 11
463.360416
 21
221.529443
 31
0.0
  0
LINE
  8
LC-004-005-----0
  6
CONTINUOUS
  5
EF
 10
456.618693
 20
219.030367
 30
0.0
 11
459.117749
 21
221.529419
 31
0.0
  0
LINE
  8
LC-004-005-----0
  6
CONTINUOUS
  5
F0
 10
452.37605
 20
219.030367
 30
0.0
 11
454.875082
 21
221.529395
 31
0.0
  0
LINE
  8
LC-004-005-----0
  6
CONTINUOUS
  5
F1
 10
448.133406
 20
219.030367
 30
0.0
 11
450.632414
 21
221.529371
 31
0.0
  0
LINE
  8
LC-004-005-----0
  6
CONTINUOUS
  5
F2
 10
443.890763
 20
219.030367
 30
0.0
 11
446.389747
 21
221.529348
 31
0.0
  0
LINE
  8
LC-004-005-----0
  6
CONTINUOUS
  5
F3
 10
439.648119
 20
219.030367
 30
0.0
 11
442.14708
 21
221.529324
 31
0.0
  0
LINE
  8
LC-004-005-----0
  6
CONTINUOUS
  5
F4
 10
435.405476
 20
219.030367
 30
0.0
 11
437.904412
 21
221.5293
 31
0.0
  0
LINE
  8
LC-004-005-----0
  6
CONTINUOUS
  5
F5
 10
431.162832
 20
219.030367
 30
0.0
 11
433.661745
 21
221.529276
 31
0.0
  0
LINE
  8
LC-004-005-----0
  6
CONTINUOUS
  5
F6
 10
426.920189
 20
219.030367
 30
0.0
 11
429.419078
 21
221.529252
 31
0.0
  0
LINE
  8
LC-004-005-----0
  6
CONTINUOUS
  5
F7
 10
422.677545
 20
219.030367
 30
0.0
 11
425.17641
 21
221.529228
 31
0.0
  0
LINE
  8
LC-004-005-----0
  6
CONTINUOUS
  5
F8
 10
418.434902
 20
219.030367
 30
0.0
 11
420.933743
 21
221.529205
 31
0.0
  0
LINE
  8
LC-004-005-----0
  6
CONTINUOUS
  5
F9
 10
414.192258
 20
219.030367
 30
0.0
 11
416.691076
 21
221.529181
 31
0.0
  0
LINE
  8
LC-004-005-----0
  6
CONTINUOUS
  5
FA
 10
409.949615
 20
219.030367
 30
0.0
 11
412.448408
 21
221.529157
 31
0.0
  0
LINE
  8
LC-004-005-----0
  6
CONTINUOUS
  5
FB
 10
405.706971
 20
219.030367
 30
0.0
 11
408.205741
 21
221.529133
 31
0.0
  0
LINE
  8
LC-004-005-----0
  6
CONTINUOUS
  5
FC
 10
401.464328
 20
219.030367
 30
0.0
 11
403.963074
 21
221.529109
 31
0.0
  0
LINE
  8
LC-004-005-----0
  6
CONTINUOUS
  5
FD
 10
397.221684
 20
219.030367
 30
0.0
 11
399.720406
 21
221.529085
 31
0.0
  0
LINE
  8
LC-004-005-----0
  6
CONTINUOUS
  5
FE
 10
392.979041
 20
219.030367
 30
0.0
 11
395.477739
 21
221.529062
 31
0.0
  0
LINE
  8
LC-004-005-----0
  6
CONTINUOUS
  5
FF
 10
388.736397
 20
219.030367
 30
0.0
 11
391.235072
 21
221.529038
 31
0.0
  0
LINE
  8
LC-004-005-----0
  6
CONTINUOUS
  5
100
 10
384.493754
 20
219.030367
 30
0.0
 11
386.992404
 21
221.529014
 31
0.0
  0
LINE
  8
LC-004-005-----0
  6
CONTINUOUS
  5
101
 10
380.25111
 20
219.030367
 30
0.0
 11
382.749737
 21
221.52899
 31
0.0
  0
LINE
  8
LC-004-005-----0
  6
CONTINUOUS
  5
102
 10
376.008467
 20
219.030367
 30
0.0
 11
378.50707
 21
221.528966
 31
0.0
  0
LINE
  8
LC-004-005-----0
  6
CONTINUOUS
  5
103
 10
371.765823
 20
219.030367
 30
0.0
 11
374.264402
 21
221.528942
 31
0.0
  0
LINE
  8
LC-004-005-----0
  6
CONTINUOUS
  5
104
 10
367.52318
 20
219.030367
 30
0.0
 11
370.021735
 21
221.528919
 31
0.0
  0
LINE
  8
LC-004-005-----0
  6
CONTINUOUS
  5
105
 10
363.280536
 20
219.030367
 30
0.0
 11
365.779068
 21
221.528895
 31
0.0
  0
LINE
  8
LC-004-005-----0
  6
CONTINUOUS
  5
106
 10
359.037893
 20
219.030367
 30
0.0
 11
361.5364
 21
221.528871
 31
0.0
  0
LINE
  8
LC-004-005-----0
  6
CONTINUOUS
  5
107
 10
354.795249
 20
219.030367
 30
0.0
 11
357.293733
 21
221.528847
 31
0.0
  0
LINE
  8
LC-004-005-----0
  6
CONTINUOUS
  5
108
 10
350.552606
 20
219.030367
 30
0.0
 11
353.051066
 21
221.528823
 31
0.0
  0
LINE
  8
LC-004-005-----0
  6
CONTINUOUS
  5
109
 10
346.309962
 20
219.030367
 30
0.0
 11
348.808398
 21
221.528799
 31
0.0
  0
LINE
  8
LC-004-005-----0
  6
CONTINUOUS
  5
10A
 10
342.067319
 20
219.030367
 30
0.0
 11
344.565731
 21
221.528775
 31
0.0
  0
LINE
  8
LC-004-005-----0
  6
CONTINUOUS
  5
10B
 10
337.824675
 20
219.030367
 30
0.0
 11
340.323064
 21
221.528752
 31
0.0
  0
LINE
  8
LC-004-005-----0
  6
CONTINUOUS
  5
10C
 10
333.582032
 20
219.030367
 30
0.0
 11
336.080396
 21
221.528728
 31
0.0
  0
LINE
  8
LC-004-005-----0
  6
CONTINUOUS
  5
10D
 10
329.339388
 20
219.030367
 30
0.0
 11
331.837729
 21
221.528704
 31
0.0
  0
LINE
  8
LC-004-005-----0
  6
CONTINUOUS
  5
10E
 10
325.096745
 20
219.030367
 30
0.0
 11
327.595062
 21
221.52868
 31
0.0
  0
LINE
  8
LC-004-005-----0
  6
CONTINUOUS
  5
10F
 10
320.854101
 20
219.030367
 30
0.0
 11
323.352394
 21
221.528656
 31
0.0
  0
LINE
  8
LC-004-005-----0
  6
CONTINUOUS
  5
110
 10
316.611458
 20
219.030367
 30
0.0
 11
319.109727
 21
221.528632
 31
0.0
  0
LINE
  8
LC-004-005-----0
  6
CONTINUOUS
  5
111
 10
312.368814
 20
219.030367
 30
0.0
 11
314.86706
 21
221.528609
 31
0.0
  0
LINE
  8
LC-004-005-----0
  6
CONTINUOUS
  5
112
 10
308.126171
 20
219.030367
 30
0.0
 11
310.624392
 21
221.528585
 31
0.0
  0
LINE
  8
LC-004-005-----0
  6
CONTINUOUS
  5
113
 10
303.883527
 20
219.030367
 30
0.0
 11
306.381725
 21
221.528561
 31
0.0
  0
LINE
  8
LC-004-005-----0
  6
CONTINUOUS
  5
114
 10
299.640884
 20
219.030367
 30
0.0
 11
302.139058
 21
221.528537
 31
0.0
  0
LINE
  8
LC-004-005-----0
  6
CONTINUOUS
  5
115
 10
295.39824
 20
219.030367
 30
0.0
 11
297.89639
 21
221.528513
 31
0.0
  0
LINE
  8
LC-004-005-----0
  6
CONTINUOUS
  5
116
 10
291.155597
 20
219.030367
 30
0.0
 11
293.653723
 21
221.528489
 31
0.0
  0
LINE
  8
LC-004-005-----0
  6
CONTINUOUS
  5
117
 10
286.912953
 20
219.030367
 30
0.0
 11
289.411056
 21
221.528466
 31
0.0
  0
LINE
  8
LC-004-005-----0
  6
CONTINUOUS
  5
118
 10
282.653592
 20
219.013649
 30
0.0
 11
285.168388
 21
221.528442
 31
0.0
  0
LINE
  8
LC-004-005-----0
  6
CONTINUOUS
  5
119
 10
277.022254
 20
217.624957
 30
0.0
 11
280.925721
 21
221.528418
 31
0.0
  0
LINE
  8
LC-004-005-----0
  6
CONTINUOUS
  5
11A
 10
267.125054
 20
211.970407
 30
0.0
 11
276.345305
 21
221.190646
 31
0.0
  0
LINE
  8
LC-004-005-----0
  6
CONTINUOUS
  5
11B
 10
262.442369
 20
211.530367
 30
0.0
 11
268.597924
 21
217.685914
 31
0.0
  0
LINE
  8
LC-004-005-----0
  6
CONTINUOUS
  5
11C
 10
258.199726
 20
211.530367
 30
0.0
 11
262.898872
 21
216.229507
 31
0.0
  0
LINE
  8
LC-004-005-----0
  6
CONTINUOUS
  5
11D
 10
253.957082
 20
211.530367
 30
0.0
 11
258.655253
 21
216.228531
 31
0.0
  0
LINE
  8
LC-004-005-----0
  6
CONTINUOUS
  5
11E
 10
249.714439
 20
211.530367
 30
0.0
 11
254.41264
 21
216.228561
 31
0.0
  0
LINE
  8
LC-004-005-----0
  6
CONTINUOUS
  5
11F
 10
245.471795
 20
211.530367
 30
0.0
 11
250.170026
 21
216.228591
 31
0.0
  0
LINE
  8
LC-004-005-----0
  6
CONTINUOUS
  5
120
 10
241.286567
 20
211.587782
 30
0.0
 11
245.927413
 21
216.228622
 31
0.0
  0
LINE
  8
LC-004-005-----0
  6
CONTINUOUS
  5
121
 10
239.484823
 20
214.028678
 30
0.0
 11
241.6848
 21
216.228652
 31
0.0
  0
LINE
  8
LC-004-005-----0
  6
CONTINUOUS
  5
122
 10
235.60357
 20
214.390068
 30
0.0
 11
237.442187
 21
216.228682
 31
0.0
  0
ENDBLK
  8
0
  5
123
  0
BLOCK
  8
0
  5
125
  2
*X7
 70
    65
 10
296.788961
 20
319.530367
 30
0.0
  3
*X7
  0
LINE
  8
LC-004-005-----0
  6
CONTINUOUS
  5
126
 10
299.732322
 20
319.530902
 30
0.0
 11
302.788427
 21
322.587002
 31
0.0
  0
LINE
  8
LC-004-005-----0
  6
CONTINUOUS
  5
127
 10
298.57442
 20
319.787213
 30
0.0
 11
302.532116
 21
323.744904
 31
0.0
  0
LINE
  8
LC-004-005-----0
  6
CONTINUOUS
  5
128
 10
297.725611
 20
320.352618
 30
0.0
 11
301.966712
 21
324.593714
 31
0.0
  0
LINE
  8
LC-004-005-----0
  6
CONTINUOUS
  5
129
 10
297.119742
 20
321.160962
 30
0.0
 11
301.158369
 21
325.199584
 31
0.0
  0
LINE
  8
LC-004-005-----0
  6
CONTINUOUS
  5
12A
 10
296.801453
 20
322.256886
 30
0.0
 11
300.062446
 21
325.517875
 31
0.0
  0
LINE
  8
LC-004-005-----0
  6
CONTINUOUS
  5
12B
 10
297.235547
 20
324.105193
 30
0.0
 11
298.214139
 21
325.083783
 31
0.0
  0
ENDBLK
  8
0
  5
12C
  0
BLOCK
  8
0
  5
12E
  2
*X8
 70
    65
 10
296.788961
 20
222.530367
 30
0.0
  3
*X8
  0
LINE
  8
LC-004-005-----0
  6
CONTINUOUS
  5
12F
 10
300.369085
 20
222.586992
 30
0.0
 11
302.732336
 21
224.95024
 31
0.0
  0
LINE
  8
LC-004-005-----0
  6
CONTINUOUS
  5
130
 10
299.003024
 20
222.635146
 30
0.0
 11
302.684183
 21
226.3163
 31
0.0
  0
LINE
  8
LC-004-005-----0
  6
CONTINUOUS
  5
131
 10
298.043838
 20
223.090173
 30
0.0
 11
302.229157
 21
227.275487
 31
0.0
  0
LINE
  8
LC-004-005-----0
  6
CONTINUOUS
  5
132
 10
297.338766
 20
223.799315
 30
0.0
 11
301.520017
 21
227.98056
 31
0.0
  0
LINE
  8
LC-004-005-----0
  6
CONTINUOUS
  5
133
 10
296.888653
 20
224.763416
 30
0.0
 11
300.555916
 21
228.430674
 31
0.0
  0
LINE
  8
LC-004-005-----0
  6
CONTINUOUS
  5
134
 10
296.851696
 20
226.140671
 30
0.0
 11
299.178661
 21
228.467633
 31
0.0
  0
ENDBLK
  8
0
  5
135
  0
BLOCK
  8
0
  5
137
  2
*X9
 70
    65
 10
267.742651
 20
311.030367
 30
0.0
  3
*X9
  0
LINE
  8
LC-004-005-----0
  6
CONTINUOUS
  5
138
 10
272.788915
 20
312.6955
 30
0.0
 11
274.454048
 21
311.030367
 31
0.0
  0
LINE
  8
LC-004-005-----0
  6
CONTINUOUS
  5
139
 10
275.696689
 20
314.030367
 30
0.0
 11
278.696689
 21
311.030367
 31
0.0
  0
LINE
  8
LC-004-005-----0
  6
CONTINUOUS
  5
13A
 10
279.939329
 20
314.030367
 30
0.0
 11
282.939329
 21
311.030367
 31
0.0
  0
LINE
  8
LC-004-005-----0
  6
CONTINUOUS
  5
13B
 10
272.788915
 20
325.423422
 30
0.0
 11
275.18197
 21
323.030367
 31
0.0
  0
LINE
  8
LC-004-005-----0
  6
CONTINUOUS
  5
13C
 10
284.18197
 20
314.030367
 30
0.0
 11
287.18197
 21
311.030367
 31
0.0
  0
LINE
  8
LC-004-005-----0
  6
CONTINUOUS
  5
13D
 10
276.323382
 20
326.131595
 30
0.0
 11
279.424611
 21
323.030367
 31
0.0
  0
LINE
  8
LC-004-005-----0
  6
CONTINUOUS
  5
13E
 10
287.788915
 20
314.666062
 30
0.0
 11
291.424611
 21
311.030367
 31
0.0
  0
LINE
  8
LC-004-005-----0
  6
CONTINUOUS
  5
13F
 10
280.667251
 20
326.030367
 30
0.0
 11
283.667251
 21
323.030367
 31
0.0
  0
LINE
  8
LC-004-005-----0
  6
CONTINUOUS
  5
140
 10
287.788915
 20
318.908703
 30
0.0
 11
295.667251
 21
311.030367
 31
0.0
  0
LINE
  8
LC-004-005-----0
  6
CONTINUOUS
  5
141
 10
284.909892
 20
326.030367
 30
0.0
 11
299.909892
 21
311.030367
 31
0.0
  0
LINE
  8
LC-004-005-----0
  6
CONTINUOUS
  5
142
 10
289.152533
 20
326.030367
 30
0.0
 11
304.152533
 21
311.030367
 31
0.0
  0
LINE
  8
LC-004-005-----0
  6
CONTINUOUS
  5
143
 10
293.395174
 20
326.030367
 30
0.0
 11
296.288961
 21
323.136579
 31
0.0
  0
LINE
  8
LC-004-005-----0
  6
CONTINUOUS
  5
144
 10
300.349926
 20
319.075614
 30
0.0
 11
307.788961
 21
311.636579
 31
0.0
  0
LINE
  8
LC-004-005-----0
  6
CONTINUOUS
  5
145
 10
302.844595
 20
320.823586
 30
0.0
 11
307.788961
 21
315.87922
 31
0.0
  0
LINE
  8
LC-004-005-----0
  6
CONTINUOUS
  5
146
 10
303.288961
 20
324.62186
 30
0.0
 11
307.788961
 21
320.12186
 31
0.0
  0
LINE
  8
LC-004-005-----0
  6
CONTINUOUS
  5
147
 10
306.123096
 20
326.030367
 30
0.0
 11
307.788961
 21
324.364501
 31
0.0
  0
ENDBLK
  8
0
  5
148
  0
BLOCK
  8
0
  5
14A
  2
*X10
 70
    65
 10
267.740868
 20
202.028893
 30
0.0
  3
*X10
  0
LINE
  8
LC-004-005-----0
  6
CONTINUOUS
  5
14B
 10
272.788915
 20
223.600078
 30
0.0
 11
274.801771
 21
221.587225
 31
0.0
  0
LINE
  8
LC-004-005-----0
  6
CONTINUOUS
  5
14C
 10
275.601268
 20
225.030367
 30
0.0
 11
278.602677
 21
222.028961
 31
0.0
  0
LINE
  8
LC-004-005-----0
  6
CONTINUOUS
  5
14D
 10
279.843911
 20
225.030367
 30
0.0
 11
282.844984
 21
222.029298
 31
0.0
  0
LINE
  8
LC-004-005-----0
  6
CONTINUOUS
  5
14E
 10
272.788915
 20
236.327991
 30
0.0
 11
275.086543
 21
234.030367
 31
0.0
  0
LINE
  8
LC-004-005-----0
  6
CONTINUOUS
  5
14F
 10
284.086555
 20
225.030367
 30
0.0
 11
287.08729
 21
222.029636
 31
0.0
  0
LINE
  8
LC-004-005-----0
  6
CONTINUOUS
  5
150
 10
276.329182
 20
237.030367
 30
0.0
 11
279.329186
 21
234.030367
 31
0.0
  0
LINE
  8
LC-004-005-----0
  6
CONTINUOUS
  5
151
 10
287.788915
 20
225.570649
 30
0.0
 11
291.329596
 21
222.029973
 31
0.0
  0
LINE
  8
LC-004-005-----0
  6
CONTINUOUS
  5
152
 10
280.571826
 20
237.030367
 30
0.0
 11
283.57183
 21
234.030367
 31
0.0
  0
LINE
  8
LC-004-005-----0
  6
CONTINUOUS
  5
153
 10
287.788915
 20
229.813287
 30
0.0
 11
295.571903
 21
222.03031
 31
0.0
  0
LINE
  8
LC-004-005-----0
  6
CONTINUOUS
  5
154
 10
284.814469
 20
237.030367
 30
0.0
 11
296.289054
 21
225.555798
 31
0.0
  0
LINE
  8
LC-004-005-----0
  6
CONTINUOUS
  5
155
 10
289.057113
 20
237.030367
 30
0.0
 11
297.728154
 21
228.359337
 31
0.0
  0
LINE
  8
LC-004-005-----0
  6
CONTINUOUS
  5
156
 10
303.288961
 20
222.798537
 30
0.0
 11
304.057133
 21
222.030367
 31
0.0
  0
LINE
  8
LC-004-005-----0
  6
CONTINUOUS
  5
157
 10
293.299756
 20
237.030367
 30
0.0
 11
307.788961
 21
222.541181
 31
0.0
  0
LINE
  8
LC-004-005-----0
  6
CONTINUOUS
  5
158
 10
297.5424
 20
237.030367
 30
0.0
 11
307.788961
 21
226.783819
 31
0.0
  0
LINE
  8
LC-004-005-----0
  6
CONTINUOUS
  5
159
 10
301.785043
 20
237.030367
 30
0.0
 11
307.788961
 21
231.026457
 31
0.0
  0
LINE
  8
LC-004-005-----0
  6
CONTINUOUS
  5
15A
 10
306.027687
 20
237.030367
 30
0.0
 11
307.788961
 21
235.269095
 31
0.0
  0
ENDBLK
  8
0
  5
15B
  0
BLOCK
  8
0
  5
15D
  2
*X11
 70
    65
 10
308.288961
 20
222.030367
 30
0.0
  3
*X11
  0
LINE
  8
LC-004-005-----0
  6
CONTINUOUS
  5
15E
 10
308.288961
 20
223.435795
 30
0.0
 11
310.788961
 21
225.935791
 31
0.0
  0
LINE
  8
LC-004-005-----0
  6
CONTINUOUS
  5
15F
 10
308.288961
 20
227.678433
 30
0.0
 11
310.788961
 21
230.178429
 31
0.0
  0
LINE
  8
LC-004-005-----0
  6
CONTINUOUS
  5
160
 10
308.288961
 20
231.921071
 30
0.0
 11
310.788961
 21
234.421067
 31
0.0
  0
LINE
  8
LC-004-005-----0
  6
CONTINUOUS
  5
161
 10
308.288961
 20
236.163708
 30
0.0
 11
310.788961
 21
238.663705
 31
0.0
  0
LINE
  8
LC-004-005-----0
  6
CONTINUOUS
  5
162
 10
308.288961
 20
240.406346
 30
0.0
 11
310.788961
 21
242.906343
 31
0.0
  0
LINE
  8
LC-004-005-----0
  6
CONTINUOUS
  5
163
 10
308.288961
 20
244.648984
 30
0.0
 11
310.788961
 21
247.148981
 31
0.0
  0
LINE
  8
LC-004-005-----0
  6
CONTINUOUS
  5
164
 10
308.288961
 20
248.891622
 30
0.0
 11
310.788961
 21
251.391619
 31
0.0
  0
LINE
  8
LC-004-005-----0
  6
CONTINUOUS
  5
165
 10
308.288961
 20
253.13426
 30
0.0
 11
310.788961
 21
255.634257
 31
0.0
  0
LINE
  8
LC-004-005-----0
  6
CONTINUOUS
  5
166
 10
308.288961
 20
257.376898
 30
0.0
 11
310.788961
 21
259.876894
 31
0.0
  0
LINE
  8
LC-004-005-----0
  6
CONTINUOUS
  5
167
 10
308.288961
 20
261.619536
 30
0.0
 11
310.788961
 21
264.119532
 31
0.0
  0
LINE
  8
LC-004-005-----0
  6
CONTINUOUS
  5
168
 10
308.288961
 20
265.862173
 30
0.0
 11
310.788961
 21
268.36217
 31
0.0
  0
LINE
  8
LC-004-005-----0
  6
CONTINUOUS
  5
169
 10
308.288961
 20
270.104811
 30
0.0
 11
310.788961
 21
272.604808
 31
0.0
  0
LINE
  8
LC-004-005-----0
  6
CONTINUOUS
  5
16A
 10
308.288961
 20
274.347449
 30
0.0
 11
310.788961
 21
276.847446
 31
0.0
  0
LINE
  8
LC-004-005-----0
  6
CONTINUOUS
  5
16B
 10
308.288961
 20
278.590087
 30
0.0
 11
310.788961
 21
281.090084
 31
0.0
  0
LINE
  8
LC-004-005-----0
  6
CONTINUOUS
  5
16C
 10
308.288961
 20
282.832725
 30
0.0
 11
310.788961
 21
285.332722
 31
0.0
  0
LINE
  8
LC-004-005-----0
  6
CONTINUOUS
  5
16D
 10
308.288961
 20
287.075363
 30
0.0
 11
310.788961
 21
289.57536
 31
0.0
  0
LINE
  8
LC-004-005-----0
  6
CONTINUOUS
  5
16E
 10
308.288961
 20
291.318001
 30
0.0
 11
310.788961
 21
293.817997
 31
0.0
  0
LINE
  8
LC-004-005-----0
  6
CONTINUOUS
  5
16F
 10
308.288961
 20
295.560639
 30
0.0
 11
310.788961
 21
298.060635
 31
0.0
  0
LINE
  8
LC-004-005-----0
  6
CONTINUOUS
  5
170
 10
308.288961
 20
299.803276
 30
0.0
 11
310.788961
 21
302.303273
 31
0.0
  0
LINE
  8
LC-004-005-----0
  6
CONTINUOUS
  5
171
 10
308.288961
 20
304.045914
 30
0.0
 11
310.788961
 21
306.545911
 31
0.0
  0
LINE
  8
LC-004-005-----0
  6
CONTINUOUS
  5
172
 10
308.288961
 20
308.288552
 30
0.0
 11
310.15987
 21
310.159458
 31
0.0
  0
LINE
  8
LC-004-005-----0
  6
CONTINUOUS
  5
173
 10
308.288961
 20
312.53119
 30
0.0
 11
310.788961
 21
315.031187
 31
0.0
  0
LINE
  8
LC-004-005-----0
  6
CONTINUOUS
  5
174
 10
308.288961
 20
316.773828
 30
0.0
 11
310.788961
 21
319.273825
 31
0.0
  0
LINE
  8
LC-004-005-----0
  6
CONTINUOUS
  5
175
 10
308.288961
 20
321.016466
 30
0.0
 11
310.788961
 21
323.516463
 31
0.0
  0
LINE
  8
LC-004-005-----0
  6
CONTINUOUS
  5
176
 10
308.288961
 20
325.259104
 30
0.0
 11
309.060225
 21
326.030367
 31
0.0
  0
ENDBLK
  8
0
  5
177
  0
BLOCK
  8
0
  5
179
  2
*D12
 70
    65
 10
0.0
 20
0.0
 30
0.0
  3
*D12
  0
LINE
  8
LC-006-003-MTH-0
  6
CONTINUOUS
  5
17B
 10
227.788961
 20
336.530367
 30
0.0
 11
227.788961
 21
380.8
 31
0.0
  0
LINE
  8
LC-006-003-MTH-0
  6
CONTINUOUS
  5
17C
 10
627.788961
 20
326.530367
 30
0.0
 11
627.788961
 21
380.8
 31
0.0
  0
LINE
  8
LC-007-003-MTG-0
  6
CONTINUOUS
  5
17E
 10
227.788961
 20
370.0
 30
0.0
 11
627.788961
 21
370.0
 31
0.0
  0
LINE
  8
LC-005-003-----0
  6
CONTINUOUS
  5
180
 10
245.634969
 20
372.349471
 30
0.0
 11
227.788961
 21
370.0
 31
0.0
  0
LINE
  8
LC-005-003-----0
  6
CONTINUOUS
  5
181
 10
227.788961
 20
370.0
 30
0.0
 11
245.634969
 21
367.650529
 31
0.0
  0
LINE
  8
LC-005-003-----0
  6
CONTINUOUS
  5
182
 10
245.634969
 20
367.650529
 30
0.0
 11
245.634969
 21
372.349471
 31
0.0
  0
LINE
  8
LC-005-003-----0
  6
CONTINUOUS
  5
183
 10
245.675007
 20
371.738609
 30
0.0
 11
232.468961
 21
370.0
 31
0.0
  0
LINE
  8
LC-005-003-----0
  6
CONTINUOUS
  5
184
 10
232.468961
 20
370.0
 30
0.0
 11
245.675007
 21
368.261391
 31
0.0
  0
LINE
  8
LC-005-003-----0
  6
CONTINUOUS
  5
185
 10
245.715045
 20
371.127746
 30
0.0
 11
237.148961
 21
370.0
 31
0.0
  0
LINE
  8
LC-005-003-----0
  6
CONTINUOUS
  5
186
 10
237.148961
 20
370.0
 30
0.0
 11
245.715045
 21
368.872254
 31
0.0
  0
LINE
  8
LC-005-003-----0
  6
CONTINUOUS
  5
187
 10
245.755083
 20
370.516884
 30
0.0
 11
241.828961
 21
370.0
 31
0.0
  0
LINE
  8
LC-005-003-----0
  6
CONTINUOUS
  5
188
 10
241.828961
 20
370.0
 30
0.0
 11
245.755083
 21
369.483116
 31
0.0
  0
LINE
  8
LC-005-003-----0
  6
CONTINUOUS
  5
189
 10
609.942954
 20
367.650529
 30
0.0
 11
627.788961
 21
370.0
 31
0.0
  0
LINE
  8
LC-005-003-----0
  6
CONTINUOUS
  5
18A
 10
627.788961
 20
370.0
 30
0.0
 11
609.942954
 21
372.349471
 31
0.0
  0
LINE
  8
LC-005-003-----0
  6
CONTINUOUS
  5
18B
 10
609.942954
 20
372.349471
 30
0.0
 11
609.942954
 21
367.650529
 31
0.0
  0
LINE
  8
LC-005-003-----0
  6
CONTINUOUS
  5
18C
 10
609.902916
 20
368.261391
 30
0.0
 11
623.108961
 21
370.0
 31
0.0
  0
LINE
  8
LC-005-003-----0
  6
CONTINUOUS
  5
18D
 10
623.108961
 20
370.0
 30
0.0
 11
609.902916
 21
371.738609
 31
0.0
  0
LINE
  8
LC-005-003-----0
  6
CONTINUOUS
  5
18E
 10
609.862878
 20
368.872254
 30
0.0
 11
618.428961
 21
370.0
 31
0.0
  0
LINE
  8
LC-005-003-----0
  6
CONTINUOUS
  5
18F
 10
618.428961
 20
370.0
 30
0.0
 11
609.862878
 21
371.127746
 31
0.0
  0
LINE
  8
LC-005-003-----0
  6
CONTINUOUS
  5
190
 10
609.82284
 20
369.483116
 30
0.0
 11
613.748961
 21
370.0
 31
0.0
  0
LINE
  8
LC-005-003-----0
  6
CONTINUOUS
  5
191
 10
613.748961
 20
370.0
 30
0.0
 11
609.82284
 21
370.516884
 31
0.0
  0
TEXT
  8
LC-005-003-----0
  6
CONTINUOUS
 62
     6
  5
193
 10
360.824201
 20
380.431999
 30
0.0
 40
18.0
  1
170-400
 41
0.9
 51
15.0
  7
LC-TXTSTYLE-150-400-0-0-D0
 72
     1
 11
409.870657
 21
380.431999
 31
0.0
  0
ENDBLK
  8
0
  5
194
  0
BLOCK
  8
0
  5
196
  2
*D13
 70
    65
 10
0.0
 20
0.0
 30
0.0
  3
*D13
  0
LINE
  8
LC-006-003-MTH-0
  6
CONTINUOUS
  5
197
 10
624.788961
 20
219.030367
 30
0.0
 11
700.8
 21
219.030367
 31
0.0
  0
LINE
  8
LC-006-003-MTH-0
  6
CONTINUOUS
  5
198
 10
624.788961
 20
329.030367
 30
0.0
 11
700.8
 21
329.030367
 31
0.0
  0
LINE
  8
LC-007-003-MTG-0
  6
CONTINUOUS
  5
199
 10
690.0
 20
219.030367
 30
0.0
 11
690.0
 21
329.030367
 31
0.0
  0
LINE
  8
LC-005-003-----0
  6
CONTINUOUS
  5
19A
 10
687.650529
 20
236.876374
 30
0.0
 11
690.0
 21
219.030367
 31
0.0
  0
LINE
  8
LC-005-003-----0
  6
CONTINUOUS
  5
19B
 10
690.0
 20
219.030367
 30
0.0
 11
692.349471
 21
236.876374
 31
0.0
  0
LINE
  8
LC-005-003-----0
  6
CONTINUOUS
  5
19C
 10
692.349471
 20
236.876374
 30
0.0
 11
687.650529
 21
236.876374
 31
0.0
  0
LINE
  8
LC-005-003-----0
  6
CONTINUOUS
  5
19D
 10
688.261391
 20
236.916412
 30
0.0
 11
690.0
 21
223.710367
 31
0.0
  0
LINE
  8
LC-005-003-----0
  6
CONTINUOUS
  5
19E
 10
690.0
 20
223.710367
 30
0.0
 11
691.738609
 21
236.916412
 31
0.0
  0
LINE
  8
LC-005-003-----0
  6
CONTINUOUS
  5
19F
 10
688.872254
 20
236.95645
 30
0.0
 11
690.0
 21
228.390367
 31
0.0
  0
LINE
  8
LC-005-003-----0
  6
CONTINUOUS
  5
1A0
 10
690.0
 20
228.390367
 30
0.0
 11
691.127746
 21
236.95645
 31
0.0
  0
LINE
  8
LC-005-003-----0
  6
CONTINUOUS
  5
1A1
 10
689.483116
 20
236.996488
 30
0.0
 11
690.0
 21
233.070367
 31
0.0
  0
LINE
  8
LC-005-003-----0
  6
CONTINUOUS
  5
1A2
 10
690.0
 20
233.070367
 30
0.0
 11
690.516884
 21
236.996488
 31
0.0
  0
LINE
  8
LC-005-003-----0
  6
CONTINUOUS
  5
1A3
 10
692.349471
 20
311.184359
 30
0.0
 11
690.0
 21
329.030367
 31
0.0
  0
LINE
  8
LC-005-003-----0
  6
CONTINUOUS
  5
1A4
 10
690.0
 20
329.030367
 30
0.0
 11
687.650529
 21
311.184359
 31
0.0
  0
LINE
  8
LC-005-003-----0
  6
CONTINUOUS
  5
1A5
 10
687.650529
 20
311.184359
 30
0.0
 11
692.349471
 21
311.184359
 31
0.0
  0
LINE
  8
LC-005-003-----0
  6
CONTINUOUS
  5
1A6
 10
691.738609
 20
311.144321
 30
0.0
 11
690.0
 21
324.350367
 31
0.0
  0
LINE
  8
LC-005-003-----0
  6
CONTINUOUS
  5
1A7
 10
690.0
 20
324.350367
 30
0.0
 11
688.261391
 21
311.144321
 31
0.0
  0
LINE
  8
LC-005-003-----0
  6
CONTINUOUS
  5
1A8
 10
691.127746
 20
311.104283
 30
0.0
 11
690.0
 21
319.670367
 31
0.0
  0
LINE
  8
LC-005-003-----0
  6
CONTINUOUS
  5
1A9
 10
690.0
 20
319.670367
 30
0.0
 11
688.872254
 21
311.104283
 31
0.0
  0
LINE
  8
LC-005-003-----0
  6
CONTINUOUS
  5
1AA
 10
690.516884
 20
311.064245
 30
0.0
 11
690.0
 21
314.990367
 31
0.0
  0
LINE
  8
LC-005-003-----0
  6
CONTINUOUS
  5
1AB
 10
690.0
 20
314.990367
 30
0.0
 11
689.483116
 21
311.064245
 31
0.0
  0
TEXT
  8
LC-005-003-----0
  6
CONTINUOUS
 62
     6
  5
1AC
 10
679.568001
 20
239.678522
 30
0.0
 40
18.0
  1
DN100
 50
90.0
 51
15.0
  7
LC-TXTSTYLE-150-400-0-0-D0
 72
     1
 11
679.568001
 21
273.354113
 31
0.0
  0
ENDBLK
  8
0
  5
1AD
  0
BLOCK
  8
0
  5
1AF
  2
*X14
 70
    65
 10
152.788961
 20
313.530367
 30
0.0
  3
*X14
  0
LINE
  8
LC-004-005-----0
  6
CONTINUOUS
  5
1B0
 10
207.46435
 20
313.530367
 30
0.0
 11
207.788961
 21
313.854978
 31
0.0
  0
LINE
  8
LC-004-005-----0
  6
CONTINUOUS
  5
1B1
 10
200.393282
 20
313.530367
 30
0.0
 11
207.788961
 21
320.926046
 31
0.0
  0
LINE
  8
LC-004-005-----0
  6
CONTINUOUS
  5
1B2
 10
193.322214
 20
313.530367
 30
0.0
 11
207.788961
 21
327.997114
 31
0.0
  0
LINE
  8
LC-004-005-----0
  6
CONTINUOUS
  5
1B3
 10
186.251146
 20
313.530367
 30
0.0
 11
201.251146
 21
328.530367
 31
0.0
  0
LINE
  8
LC-004-005-----0
  6
CONTINUOUS
  5
1B4
 10
179.180078
 20
313.530367
 30
0.0
 11
194.180078
 21
328.530367
 31
0.0
  0
LINE
  8
LC-004-005-----0
  6
CONTINUOUS
  5
1B5
 10
172.644124
 20
314.065481
 30
0.0
 11
187.109011
 21
328.530367
 31
0.0
  0
LINE
  8
LC-004-005-----0
  6
CONTINUOUS
  5
1B6
 10
167.330611
 20
315.823035
 30
0.0
 11
180.037943
 21
328.530367
 31
0.0
  0
LINE
  8
LC-004-005-----0
  6
CONTINUOUS
  5
1B7
 10
162.890857
 20
318.454349
 30
0.0
 11
173.79785
 21
329.361341
 31
0.0
  0
LINE
  8
LC-004-005-----0
  6
CONTINUOUS
  5
1B8
 10
159.190076
 20
321.824635
 30
0.0
 11
169.83496
 21
332.46952
 31
0.0
  0
LINE
  8
LC-004-005-----0
  6
CONTINUOUS
  5
1B9
 10
156.20683
 20
325.912458
 30
0.0
 11
167.837784
 21
337.543412
 31
0.0
  0
LINE
  8
LC-004-005-----0
  6
CONTINUOUS
  5
1BA
 10
154.016401
 20
330.793096
 30
0.0
 11
167.788961
 21
344.565657
 31
0.0
  0
LINE
  8
LC-004-005-----0
  6
CONTINUOUS
  5
1BB
 10
152.855795
 20
336.703558
 30
0.0
 11
167.788961
 21
351.636724
 31
0.0
  0
LINE
  8
LC-004-005-----0
  6
CONTINUOUS
  5
1BC
 10
152.788961
 20
343.707792
 30
0.0
 11
166.934183
 21
357.853014
 31
0.0
  0
LINE
  8
LC-004-005-----0
  6
CONTINUOUS
  5
1BD
 10
152.788961
 20
350.77886
 30
0.0
 11
159.863115
 21
357.853014
 31
0.0
  0
LINE
  8
LC-004-005-----0
  6
CONTINUOUS
  5
1BE
 10
152.788961
 20
357.849928
 30
0.0
 11
152.792047
 21
357.853014
 31
0.0
  0
ENDBLK
  8
0
  5
1BF
  0
BLOCK
  8
0
  5
1C1
  2
*X15
 70
    65
 10
152.786607
 20
184.52874
 30
0.0
  3
*X15
  0
LINE
  8
LC-004-005-----0
  6
CONTINUOUS
  5
1C2
 10
205.386605
 20
219.52874
 30
0.0
 11
207.788961
 21
221.931097
 31
0.0
  0
LINE
  8
LC-004-005-----0
  6
CONTINUOUS
  5
1C3
 10
198.315537
 20
219.52874
 30
0.0
 11
207.788961
 21
229.002165
 31
0.0
  0
LINE
  8
LC-004-005-----0
  6
CONTINUOUS
  5
1C4
 10
163.738515
 20
192.022786
 30
0.0
 11
167.786607
 21
196.070878
 31
0.0
  0
LINE
  8
LC-004-005-----0
  6
CONTINUOUS
  5
1C5
 10
191.244469
 20
219.52874
 30
0.0
 11
206.244469
 21
234.52874
 31
0.0
  0
LINE
  8
LC-004-005-----0
  6
CONTINUOUS
  5
1C6
 10
156.667447
 20
192.022786
 30
0.0
 11
167.786607
 21
203.141946
 31
0.0
  0
LINE
  8
LC-004-005-----0
  6
CONTINUOUS
  5
1C7
 10
184.173401
 20
219.52874
 30
0.0
 11
199.173401
 21
234.52874
 31
0.0
  0
LINE
  8
LC-004-005-----0
  6
CONTINUOUS
  5
1C8
 10
152.786607
 20
195.213014
 30
0.0
 11
167.811806
 21
210.238213
 31
0.0
  0
LINE
  8
LC-004-005-----0
  6
CONTINUOUS
  5
1C9
 10
177.077134
 20
219.503541
 30
0.0
 11
192.102333
 21
234.52874
 31
0.0
  0
LINE
  8
LC-004-005-----0
  6
CONTINUOUS
  5
1CA
 10
152.786607
 20
202.284082
 30
0.0
 11
185.031266
 21
234.52874
 31
0.0
  0
LINE
  8
LC-004-005-----0
  6
CONTINUOUS
  5
1CB
 10
152.786607
 20
209.355149
 30
0.0
 11
177.960198
 21
234.52874
 31
0.0
  0
LINE
  8
LC-004-005-----0
  6
CONTINUOUS
  5
1CC
 10
154.213057
 20
217.852668
 30
0.0
 11
169.462679
 21
233.10229
 31
0.0
  0
ENDBLK
  8
0
  5
1CD
  0
BLOCK
  8
0
  5
1CF
  2
*X16
 70
    65
 10
152.786607
 20
191.754929
 30
0.0
  3
*X16
  0
LINE
  8
LC-004-005-----0
  6
CONTINUOUS
  5
1D0
 10
152.786607
 20
192.022786
 30
0.0
 11
154.929464
 21
191.754929
 31
0.0
  0
LINE
  8
LC-004-005-----0
  6
CONTINUOUS
  5
1D1
 10
154.929464
 20
191.754929
 30
0.0
 11
157.072321
 21
192.290643
 31
0.0
  0
LINE
  8
LC-004-005-----0
  6
CONTINUOUS
  5
1D2
 10
157.072321
 20
192.290643
 30
0.0
 11
159.215178
 21
191.754929
 31
0.0
  0
LINE
  8
LC-004-005-----0
  6
CONTINUOUS
  5
1D3
 10
159.215178
 20
191.754929
 30
0.0
 11
161.358035
 21
192.290643
 31
0.0
  0
LINE
  8
LC-004-005-----0
  6
CONTINUOUS
  5
1D4
 10
161.358035
 20
192.290643
 30
0.0
 11
163.500893
 21
191.754929
 31
0.0
  0
LINE
  8
LC-004-005-----0
  6
CONTINUOUS
  5
1D5
 10
163.500893
 20
191.754929
 30
0.0
 11
165.64375
 21
192.290643
 31
0.0
  0
LINE
  8
LC-004-005-----0
  6
CONTINUOUS
  5
1D6
 10
165.64375
 20
192.290643
 30
0.0
 11
167.786607
 21
192.022786
 31
0.0
  0
ENDBLK
  8
0
  5
1D7
  0
BLOCK
  8
0
  5
1D9
  2
*X17
 70
    65
 10
152.788961
 20
357.585156
 30
0.0
  3
*X17
  0
LINE
  8
LC-004-005-----0
  6
CONTINUOUS
  5
1DA
 10
152.788961
 20
357.853014
 30
0.0
 11
154.931818
 21
357.585156
 31
0.0
  0
LINE
  8
LC-004-005-----0
  6
CONTINUOUS
  5
1DB
 10
154.931818
 20
357.585156
 30
0.0
 11
157.074676
 21
358.120871
 31
0.0
  0
LINE
  8
LC-004-005-----0
  6
CONTINUOUS
  5
1DC
 10
157.074676
 20
358.120871
 30
0.0
 11
159.217533
 21
357.585156
 31
0.0
  0
LINE
  8
LC-004-005-----0
  6
CONTINUOUS
  5
1DD
 10
159.217533
 20
357.585156
 30
0.0
 11
161.36039
 21
358.120871
 31
0.0
  0
LINE
  8
LC-004-005-----0
  6
CONTINUOUS
  5
1DE
 10
161.36039
 20
358.120871
 30
0.0
 11
163.503247
 21
357.585156
 31
0.0
  0
LINE
  8
LC-004-005-----0
  6
CONTINUOUS
  5
1DF
 10
163.503247
 20
357.585156
 30
0.0
 11
165.646104
 21
358.120871
 31
0.0
  0
LINE
  8
LC-004-005-----0
  6
CONTINUOUS
  5
1E0
 10
165.646104
 20
358.120871
 30
0.0
 11
167.788961
 21
357.853014
 31
0.0
  0
ENDBLK
  8
0
  5
1E1
  0
ENDSEC
  0
SECTION
  2
ENTITIES
  0
VIEWPORT
  8
LC-000
  5
2B1
 67
     1
 68
     1
 10
420.0
 20
297.0
 30
0.0
 40
840.0
 41
594.0
 69
     1
1001
ACAD
1000
MVIEW
1002
{
1070
    16
1010
0.0
1020
0.0
1030
0.0
1010
0.0
1020
0.0
1030
1.0
1040
0.0
1040
594.0
1040
420.0
1040
297.0
1040
50.0
1040
0.0
1040
0.0
1070
     0
1070
   100
1070
     1
1070
     1
1070
     0
1070
     0
1070
     0
1070
     0
1040
0.0
1040
0.0
1040
0.0
1040
1.0
1040
1.0
1040
0.0
1040
0.0
1070
     0
1002
{
1002
}
1002
}
  0
VIEWPORT
  8
0
  5
2B2
 67
     1
 68
     1
 10
0.0
 20
0.0
 30
0.0
 40
0.0
 41
0.0
 69
     1
1001
ACAD
1000
MVIEW
1002
{
1070
    16
1010
0.0
1020
0.0
1030
0.0
1010
0.0
1020
0.0
1030
1.0
1040
0.0
1040
594.0
1040
0.0
1040
0.0
1040
50.0
1040
0.0
1040
0.0
1070
     0
1070
   100
1070
     0
1070
     1
1070
     0
1070
     0
1070
     0
1070
     0
1040
0.0
1040
0.0
1040
0.0
1040
0.5
1040
0.5
1040
0.5
1040
0.5
1070
     0
1002
{
1002
}
1002
}
  0
INSERT
  8
0
  5
1E3
  2
BLK1
 10
0.0
 20
0.0
 30
0.0
  0
INSERT
  8
0
  5
1E4
  2
BLK2
 10
0.0
 20
0.0
 30
0.0
  0
INSERT
  8
0
  5
1E5
  2
*X2
 10
227.788961
 20
329.030367
 30
0.0
  0
INSERT
  8
0
  5
1E6
  2
*X3
 10
230.286576
 20
213.228701
 30
0.0
  0
INSERT
  8
0
  5
1E7
  2
*X4
 10
227.788961
 20
211.530367
 30
0.0
  0
INSERT
  8
0
  5
1E8
  2
*X5
 10
233.605949
 20
306.530367
 30
0.0
  0
INSERT
  8
0
  5
1E9
  2
*X6
 10
233.603571
 20
186.528411
 30
0.0
  0
INSERT
  8
0
  5
1EA
  2
*X7
 10
296.788961
 20
319.530367
 30
0.0
  0
INSERT
  8
0
  5
1EB
  2
*X8
 10
296.788961
 20
222.530367
 30
0.0
  0
INSERT
  8
0
  5
1EC
  2
*X9
 10
267.742651
 20
311.030367
 30
0.0
  0
INSERT
  8
0
  5
1ED
  2
*X10
 10
267.740868
 20
202.028893
 30
0.0
  0
INSERT
  8
0
  5
1EE
  2
*X11
 10
308.288961
 20
222.030367
 30
0.0
  0
DIMENSION
  8
0
  5
1EF
  2
*D12
 10
407.075412
 20
370.0
 30
0.0
 11
407.075412
 21
370.0
 31
0.0
  1
170-400
 13
227.788961
 23
336.530367
 33
0.0
 14
627.788961
 24
326.530367
 34
0.0
  3
LC-DIM-L-0090-02-02
  0
DIMENSION
  8
0
  5
1F0
  2
*D13
 10
690.0
 20
270.558867
 30
0.0
 11
690.0
 21
270.558867
 31
0.0
  1
DN100
 13
624.788961
 23
329.030367
 33
0.0
 14
624.788961
 24
219.030367
 34
0.0
 50
90.0
  3
LC-DIM-L-0090-02-02
  0
INSERT
  8
0
  5
1F1
  2
*X14
 10
152.788961
 20
313.530367
 30
0.0
  0
INSERT
  8
0
  5
1F2
  2
*X15
 10
152.786607
 20
184.52874
 30
0.0
  0
INSERT
  8
0
  5
1F3
  2
*X16
 10
152.786607
 20
191.754929
 30
0.0
  0
INSERT
  8
0
  5
1F4
  2
*X17
 10
152.788961
 20
357.585156
 30
0.0
  0
LINE
  8
LC-001-002-----0
  6
CONTINUOUS
  5
1F6
 10
227.788961
 20
336.530367
 30
0.0
 11
227.788961
 21
211.530367
 31
0.0
  0
LINE
  8
LC-001-002-----0
  6
CONTINUOUS
  5
1F7
 10
227.788961
 20
211.530367
 30
0.0
 11
240.786567
 21
211.530367
 31
0.0
  0
LINE
  8
LC-001-002-----0
  6
CONTINUOUS
  5
1F8
 10
227.788961
 20
336.530367
 30
0.0
 11
240.788961
 21
336.530367
 31
0.0
  0
LINE
  8
LC-001-002-----0
  6
CONTINUOUS
  5
1F9
 10
240.788961
 20
336.530367
 30
0.0
 11
240.788961
 21
335.330367
 31
0.0
  0
LINE
  8
LC-001-002-----0
  6
CONTINUOUS
  5
1FA
 10
240.788961
 20
329.030367
 30
0.0
 11
227.788961
 21
329.030367
 31
0.0
  0
LINE
  8
LC-001-002-----0
  6
CONTINUOUS
  5
1FB
 10
240.788961
 20
330.030367
 30
0.0
 11
229.788961
 21
330.030367
 31
0.0
  0
LINE
  8
LC-001-002-----0
  6
CONTINUOUS
  5
1FC
 10
237.788961
 20
335.330367
 30
0.0
 11
229.788961
 21
335.330367
 31
0.0
  0
LINE
  8
LC-001-002-----0
  6
CONTINUOUS
  5
1FD
 10
229.788961
 20
335.330367
 30
0.0
 11
229.788961
 21
330.030367
 31
0.0
  0
LINE
  8
LC-001-002-----0
  6
CONTINUOUS
  5
1FE
 10
237.788961
 20
335.330367
 30
0.0
 11
238.366312
 21
334.330367
 31
0.0
  0
LINE
  8
LC-001-002-----0
  6
CONTINUOUS
  5
1FF
 10
240.788961
 20
335.330367
 30
0.0
 11
240.211611
 21
334.330367
 31
0.0
  0
LINE
  8
LC-001-002-----0
  6
CONTINUOUS
  5
200
 10
238.366312
 20
334.330367
 30
0.0
 11
240.211611
 21
334.330367
 31
0.0
  0
LINE
  8
LC-001-002-----0
  6
CONTINUOUS
  5
201
 10
230.288961
 20
330.530367
 30
0.0
 11
230.288961
 21
334.830367
 31
0.0
  0
LINE
  8
LC-001-002-----0
  6
CONTINUOUS
  5
202
 10
230.288961
 20
334.830367
 30
0.0
 11
235.288961
 21
334.830367
 31
0.0
  0
LINE
  8
LC-001-002-----0
  6
CONTINUOUS
  5
203
 10
235.288961
 20
334.830367
 30
0.0
 11
235.288961
 21
333.830367
 31
0.0
  0
LINE
  8
LC-001-002-----0
  6
CONTINUOUS
  5
204
 10
235.288961
 20
333.830367
 30
0.0
 11
231.288961
 21
333.830367
 31
0.0
  0
LINE
  8
LC-001-002-----0
  6
CONTINUOUS
  5
205
 10
231.288961
 20
333.830367
 30
0.0
 11
231.288961
 21
331.530367
 31
0.0
  0
LINE
  8
LC-001-002-----0
  6
CONTINUOUS
  5
206
 10
231.288961
 20
331.530367
 30
0.0
 11
241.288961
 21
331.530367
 31
0.0
  0
LINE
  8
LC-001-002-----0
  6
CONTINUOUS
  5
207
 10
230.288961
 20
330.530367
 30
0.0
 11
241.399712
 21
330.530367
 31
0.0
  0
LINE
  8
LC-001-002-----0
  6
CONTINUOUS
  5
208
 10
240.788961
 20
330.030367
 30
0.0
 11
240.788961
 21
218.028671
 31
0.0
  0
LINE
  8
LC-001-002-----0
  6
CONTINUOUS
  5
209
 10
241.288961
 20
331.530367
 30
0.0
 11
242.288961
 21
331.530367
 31
0.0
  0
LINE
  8
LC-001-002-----0
  6
CONTINUOUS
  5
20A
 10
242.288961
 20
331.530367
 30
0.0
 11
243.288961
 21
323.030367
 31
0.0
  0
LINE
  8
LC-002-001-----0
  6
CONTINUOUS
  5
20C
 10
241.399712
 20
330.530367
 30
0.0
 11
243.576182
 21
312.030367
 31
0.0
  0
LINE
  8
LC-001-002-----0
  6
CONTINUOUS
  5
20D
 10
243.576182
 20
312.030367
 30
0.0
 11
245.112491
 21
312.030367
 31
0.0
  0
LINE
  8
LC-001-002-----0
  6
CONTINUOUS
  5
20E
 10
243.288961
 20
323.030367
 30
0.0
 11
249.788961
 21
324.030367
 31
0.0
  0
LINE
  8
LC-001-002-----0
  6
CONTINUOUS
  5
20F
 10
249.788961
 20
324.030367
 30
0.0
 11
249.788961
 21
323.018602
 31
0.0
  0
LINE
  8
LC-001-002-----0
  6
CONTINUOUS
  5
210
 10
243.405729
 20
322.037843
 30
0.0
 11
244.112491
 21
316.030367
 31
0.0
  0
LINE
  8
LC-001-002-----0
  6
CONTINUOUS
  5
211
 10
244.112491
 20
316.030367
 30
0.0
 11
245.112491
 21
316.030367
 31
0.0
  0
LINE
  8
LC-001-002-----0
  6
CONTINUOUS
  5
212
 10
245.112491
 20
316.030367
 30
0.0
 11
245.112491
 21
312.030367
 31
0.0
  0
LINE
  8
LC-001-002-----0
  6
CONTINUOUS
  5
213
 10
243.405729
 20
322.037843
 30
0.0
 11
249.788961
 21
323.018602
 31
0.0
  0
LINE
  8
LC-001-002-----0
  6
CONTINUOUS
  5
214
 10
241.286594
 20
216.528669
 30
0.0
 11
242.286594
 21
216.528663
 31
0.0
  0
LINE
  8
LC-001-002-----0
  6
CONTINUOUS
  5
215
 10
242.286594
 20
216.528663
 30
0.0
 11
243.286639
 21
225.028658
 31
0.0
  0
LINE
  8
LC-002-001-----0
  6
CONTINUOUS
  5
216
 10
241.397349
 20
217.528668
 30
0.0
 11
243.573918
 21
236.028657
 31
0.0
  0
LINE
  8
LC-001-002-----0
  6
CONTINUOUS
  5
217
 10
243.573918
 20
236.028657
 30
0.0
 11
245.110227
 21
236.028648
 31
0.0
  0
LINE
  8
LC-001-002-----0
  6
CONTINUOUS
  5
218
 10
243.286639
 20
225.028658
 30
0.0
 11
249.786633
 21
224.028624
 31
0.0
  0
LINE
  8
LC-001-002-----0
  6
CONTINUOUS
  5
219
 10
249.786633
 20
224.028624
 30
0.0
 11
249.786639
 21
225.040389
 31
0.0
  0
LINE
  8
LC-001-002-----0
  6
CONTINUOUS
  5
21A
 10
243.403411
 20
226.021181
 30
0.0
 11
244.110205
 21
232.028654
 31
0.0
  0
LINE
  8
LC-001-002-----0
  6
CONTINUOUS
  5
21B
 10
244.110205
 20
232.028654
 30
0.0
 11
245.110205
 21
232.028648
 31
0.0
  0
LINE
  8
LC-001-002-----0
  6
CONTINUOUS
  5
21C
 10
245.110205
 20
232.028648
 30
0.0
 11
245.110227
 21
236.028648
 31
0.0
  0
LINE
  8
LC-001-002-----0
  6
CONTINUOUS
  5
21D
 10
243.403411
 20
226.021181
 30
0.0
 11
249.786639
 21
225.040389
 31
0.0
  0
LINE
  8
LC-001-002-----0
  6
CONTINUOUS
  5
21E
 10
240.786607
 20
219.028671
 30
0.0
 11
227.786607
 21
219.02874
 31
0.0
  0
LINE
  8
LC-001-002-----0
  6
CONTINUOUS
  5
21F
 10
240.786602
 20
218.028671
 30
0.0
 11
229.786602
 21
218.02873
 31
0.0
  0
LINE
  8
LC-001-002-----0
  6
CONTINUOUS
  5
220
 10
237.786573
 20
212.728687
 30
0.0
 11
229.786573
 21
212.72873
 31
0.0
  0
LINE
  8
LC-001-002-----0
  6
CONTINUOUS
  5
221
 10
229.786573
 20
212.72873
 30
0.0
 11
229.786602
 21
218.02873
 31
0.0
  0
LINE
  8
LC-001-002-----0
  6
CONTINUOUS
  5
222
 10
237.786573
 20
212.728687
 30
0.0
 11
238.363929
 21
213.728684
 31
0.0
  0
LINE
  8
LC-001-002-----0
  6
CONTINUOUS
  5
223
 10
238.363929
 20
213.728684
 30
0.0
 11
240.209229
 21
213.728674
 31
0.0
  0
LINE
  8
LC-001-002-----0
  6
CONTINUOUS
  5
224
 10
230.286599
 20
217.528727
 30
0.0
 11
230.286576
 21
213.228727
 31
0.0
  0
LINE
  8
LC-001-002-----0
  6
CONTINUOUS
  5
225
 10
230.286576
 20
213.228727
 30
0.0
 11
235.286576
 21
213.228701
 31
0.0
  0
LINE
  8
LC-001-002-----0
  6
CONTINUOUS
  5
226
 10
235.286576
 20
213.228701
 30
0.0
 11
235.286581
 21
214.228701
 31
0.0
  0
LINE
  8
LC-001-002-----0
  6
CONTINUOUS
  5
227
 10
235.286581
 20
214.228701
 30
0.0
 11
231.286581
 21
214.228722
 31
0.0
  0
LINE
  8
LC-001-002-----0
  6
CONTINUOUS
  5
228
 10
231.286581
 20
214.228722
 30
0.0
 11
231.286594
 21
216.528722
 31
0.0
  0
LINE
  8
LC-001-002-----0
  6
CONTINUOUS
  5
229
 10
231.286594
 20
216.528722
 30
0.0
 11
241.286594
 21
216.528669
 31
0.0
  0
LINE
  8
LC-001-002-----0
  6
CONTINUOUS
  5
22A
 10
230.286599
 20
217.528727
 30
0.0
 11
241.397349
 21
217.528668
 31
0.0
  0
LINE
  8
LC-001-002-----0
  6
CONTINUOUS
  5
22B
 10
240.786573
 20
212.728671
 30
0.0
 11
240.209229
 21
213.728674
 31
0.0
  0
LINE
  8
LC-001-002-----0
  6
CONTINUOUS
  5
22C
 10
240.786567
 20
211.528671
 30
0.0
 11
240.786573
 21
212.728671
 31
0.0
  0
LINE
  8
LC-001-002-----0
  6
CONTINUOUS
  5
22D
 10
235.605949
 20
333.330367
 30
0.0
 11
233.605949
 21
333.330367
 31
0.0
  0
LINE
  8
LC-001-002-----0
  6
CONTINUOUS
  5
22E
 10
233.605949
 20
333.330367
 30
0.0
 11
233.605949
 21
331.830367
 31
0.0
  0
LINE
  8
LC-001-002-----0
  6
CONTINUOUS
  5
22F
 10
235.605949
 20
334.080367
 30
0.0
 11
235.605949
 21
333.330367
 31
0.0
  0
ARC
  8
LC-001-002-----0
  6
CONTINUOUS
  5
230
 10
236.605949
 20
334.080367
 30
0.0
 40
1.0
 50
89.999981
 51
180.0
  0
LINE
  8
LC-001-002-----0
  6
CONTINUOUS
  5
231
 10
236.778598
 20
335.080367
 30
0.0
 11
236.605949
 21
335.080367
 31
0.0
  0
ARC
  8
LC-001-002-----0
  6
CONTINUOUS
  5
232
 10
236.778598
 20
334.080367
 30
0.0
 40
1.0
 50
30.0
 51
90.0
  0
LINE
  8
LC-001-002-----0
  6
CONTINUOUS
  5
233
 10
237.644624
 20
334.580367
 30
0.0
 11
237.673491
 21
334.530367
 31
0.0
  0
ARC
  8
LC-001-002-----0
  6
CONTINUOUS
  5
234
 10
238.539517
 20
335.030367
 30
0.0
 40
1.0
 50
210.0
 51
270.000058
  0
LINE
  8
LC-001-002-----0
  6
CONTINUOUS
  5
235
 10
241.288961
 20
336.530367
 30
0.0
 11
241.288961
 21
335.030367
 31
0.0
  0
ARC
  8
LC-001-002-----0
  6
CONTINUOUS
  5
236
 10
240.288961
 20
335.030367
 30
0.0
 40
1.0
 50
270.000058
 51
0.0
  0
LINE
  8
LC-002-001-----0
  6
CONTINUOUS
  5
237
 10
238.539517
 20
334.030367
 30
0.0
 11
240.288962
 21
334.030367
 31
0.0
  0
LINE
  8
LC-001-002-----0
  6
CONTINUOUS
  5
238
 10
241.286567
 20
211.528669
 30
0.0
 11
241.286575
 21
213.028669
 31
0.0
  0
ARC
  8
LC-001-002-----0
  6
CONTINUOUS
  5
239
 10
240.286575
 20
213.028674
 30
0.0
 40
1.0
 50
359.999696
 51
89.999696
  0
LINE
  8
LC-002-001-----0
  6
CONTINUOUS
  5
23A
 10
238.537136
 20
214.028683
 30
0.0
 11
240.286581
 21
214.028674
 31
0.0
  0
ARC
  8
LC-001-002-----0
  6
CONTINUOUS
  5
23B
 10
238.53713
 20
213.028683
 30
0.0
 40
1.0
 50
89.999467
 51
149.999696
  0
ARC
  8
LC-001-002-----0
  6
CONTINUOUS
  5
23C
 10
236.776217
 20
213.978693
 30
0.0
 40
1.0
 50
269.999696
 51
329.999525
  0
LINE
  8
LC-001-002-----0
  6
CONTINUOUS
  5
23D
 10
236.776212
 20
212.978693
 30
0.0
 11
236.603562
 21
212.978694
 31
0.0
  0
ARC
  8
LC-001-002-----0
  6
CONTINUOUS
  5
23E
 10
236.603567
 20
213.978694
 30
0.0
 40
1.0
 50
179.999696
 51
269.999544
  0
LINE
  8
LC-001-002-----0
  6
CONTINUOUS
  5
23F
 10
235.603567
 20
213.978699
 30
0.0
 11
235.603571
 21
214.728699
 31
0.0
  0
LINE
  8
LC-001-002-----0
  6
CONTINUOUS
  5
240
 10
235.603571
 20
214.728699
 30
0.0
 11
233.603571
 21
214.728709
 31
0.0
  0
LINE
  8
LC-001-002-----0
  6
CONTINUOUS
  5
241
 10
233.603571
 20
214.728709
 30
0.0
 11
233.603579
 21
216.228709
 31
0.0
  0
LINE
  8
LC-001-002-----0
  6
CONTINUOUS
  5
242
 10
233.603579
 20
216.228709
 30
0.0
 11
262.740344
 21
216.228502
 31
0.0
  0
LINE
  8
LC-001-002-----0
  6
CONTINUOUS
  5
243
 10
240.788961
 20
212.724536
 30
0.0
 11
240.788961
 21
211.530367
 31
0.0
  0
LINE
  8
LC-001-002-----0
  6
DASHDOT
 62
     2
  5
245
 10
152.788961
 20
274.030367
 30
0.0
 11
207.788961
 21
274.030367
 31
0.0
  0
LINE
  8
LC-004-005-----0
  6
CONTINUOUS
  5
246
 10
243.487034
 20
312.788128
 30
0.0
 11
244.244796
 21
312.030367
 31
0.0
  0
LINE
  8
LC-004-005-----0
  6
CONTINUOUS
  5
247
 10
243.298472
 20
314.390902
 30
0.0
 11
245.112491
 21
312.576886
 31
0.0
  0
LINE
  8
LC-004-005-----0
  6
CONTINUOUS
  5
248
 10
243.109911
 20
315.993676
 30
0.0
 11
245.112491
 21
313.991098
 31
0.0
  0
LINE
  8
LC-004-005-----0
  6
CONTINUOUS
  5
249
 10
242.921349
 20
317.59645
 30
0.0
 11
244.062498
 21
316.455302
 31
0.0
  0
LINE
  8
LC-004-005-----0
  6
CONTINUOUS
  5
24A
 10
230.288961
 20
331.643033
 30
0.0
 11
231.401629
 21
330.530367
 31
0.0
  0
LINE
  8
LC-004-005-----0
  6
CONTINUOUS
  5
24B
 10
242.732787
 20
319.199224
 30
0.0
 11
243.873937
 21
318.058076
 31
0.0
  0
LINE
  8
LC-004-005-----0
  6
CONTINUOUS
  5
24C
 10
230.288961
 20
333.057246
 30
0.0
 11
231.288961
 21
332.057247
 31
0.0
  0
LINE
  8
LC-004-005-----0
  6
CONTINUOUS
  5
24D
 10
231.815843
 20
331.530367
 30
0.0
 11
232.815844
 21
330.530367
 31
0.0
  0
LINE
  8
LC-004-005-----0
  6
CONTINUOUS
  5
24E
 10
242.544226
 20
320.801998
 30
0.0
 11
243.685375
 21
319.66085
 31
0.0
  0
LINE
  8
LC-004-005-----0
  6
CONTINUOUS
  5
24F
 10
230.288961
 20
334.471459
 30
0.0
 11
231.288961
 21
333.47146
 31
0.0
  0
LINE
  8
LC-004-005-----0
  6
CONTINUOUS
  5
250
 10
242.355664
 20
322.404772
 30
0.0
 11
243.496813
 21
321.263624
 31
0.0
  0
LINE
  8
LC-004-005-----0
  6
CONTINUOUS
  5
251
 10
231.344267
 20
334.830367
 30
0.0
 11
232.344269
 21
333.830367
 31
0.0
  0
LINE
  8
LC-004-005-----0
  6
CONTINUOUS
  5
252
 10
234.644272
 20
331.530367
 30
0.0
 11
235.644273
 21
330.530367
 31
0.0
  0
LINE
  8
LC-004-005-----0
  6
CONTINUOUS
  5
253
 10
242.167102
 20
324.007546
 30
0.0
 11
244.03944
 21
322.135211
 31
0.0
  0
LINE
  8
LC-004-005-----0
  6
CONTINUOUS
  5
254
 10
232.758482
 20
334.830367
 30
0.0
 11
233.758483
 21
333.830367
 31
0.0
  0
LINE
  8
LC-004-005-----0
  6
CONTINUOUS
  5
255
 10
236.058486
 20
331.530367
 30
0.0
 11
237.058487
 21
330.530367
 31
0.0
  0
LINE
  8
LC-004-005-----0
  6
CONTINUOUS
  5
256
 10
241.978541
 20
325.61032
 30
0.0
 11
243.11969
 21
324.469172
 31
0.0
  0
LINE
  8
LC-004-005-----0
  6
CONTINUOUS
  5
257
 10
244.389226
 20
323.199638
 30
0.0
 11
245.265305
 21
322.32356
 31
0.0
  0
LINE
  8
LC-004-005-----0
  6
CONTINUOUS
  5
258
 10
234.172696
 20
334.830367
 30
0.0
 11
235.172698
 21
333.830367
 31
0.0
  0
LINE
  8
LC-004-005-----0
  6
CONTINUOUS
  5
259
 10
237.472701
 20
331.530367
 30
0.0
 11
238.472702
 21
330.530367
 31
0.0
  0
LINE
  8
LC-004-005-----0
  6
CONTINUOUS
  5
25A
 10
241.789979
 20
327.213094
 30
0.0
 11
242.931128
 21
326.071946
 31
0.0
  0
LINE
  8
LC-004-005-----0
  6
CONTINUOUS
  5
25B
 10
245.614878
 20
323.3882
 30
0.0
 11
246.49117
 21
322.511909
 31
0.0
  0
LINE
  8
LC-004-005-----0
  6
CONTINUOUS
  5
25C
 10
238.886915
 20
331.530367
 30
0.0
 11
239.886916
 21
330.530367
 31
0.0
  0
LINE
  8
LC-004-005-----0
  6
CONTINUOUS
  5
25D
 10
241.601417
 20
328.815868
 30
0.0
 11
242.742567
 21
327.67472
 31
0.0
  0
LINE
  8
LC-004-005-----0
  6
CONTINUOUS
  5
25E
 10
246.84053
 20
323.576762
 30
0.0
 11
247.717035
 21
322.700258
 31
0.0
  0
LINE
  8
LC-004-005-----0
  6
CONTINUOUS
  5
25F
 10
240.30113
 20
331.530367
 30
0.0
 11
242.554005
 21
329.277494
 31
0.0
  0
LINE
  8
LC-004-005-----0
  6
CONTINUOUS
  5
260
 10
248.066183
 20
323.765324
 30
0.0
 11
248.9429
 21
322.888608
 31
0.0
  0
LINE
  8
LC-004-005-----0
  6
CONTINUOUS
  5
261
 10
241.715344
 20
331.530367
 30
0.0
 11
242.365443
 21
330.880268
 31
0.0
  0
LINE
  8
LC-004-005-----0
  6
CONTINUOUS
  5
262
 10
249.291835
 20
323.953886
 30
0.0
 11
249.788961
 21
323.45676
 31
0.0
  0
LINE
  8
LC-004-005-----0
  6
CONTINUOUS
  5
263
 10
233.230057
 20
331.530367
 30
0.0
 11
234.230058
 21
330.530367
 31
0.0
  0
LINE
  8
LC-004-005-----0
  6
CONTINUOUS
  5
264
 10
244.487434
 20
316.030367
 30
0.0
 11
245.112491
 21
315.405311
 31
0.0
  0
LINE
  8
LC-001-002-----0
  6
CONTINUOUS
  5
265
 10
627.788961
 20
326.530367
 30
0.0
 11
627.788961
 21
221.530367
 31
0.0
  0
LINE
  8
LC-001-002-----0
  6
CONTINUOUS
  5
266
 10
627.788961
 20
221.530367
 30
0.0
 11
279.76705
 21
221.530367
 31
0.0
  0
LINE
  8
LC-001-002-----0
  6
CONTINUOUS
  5
267
 10
249.786639
 20
225.040389
 30
0.0
 11
249.786639
 21
323.018602
 31
0.0
  0
LINE
  8
LC-001-002-----0
  6
CONTINUOUS
  5
268
 10
245.112491
 20
312.030367
 30
0.0
 11
245.112491
 21
236.028648
 31
0.0
  0
LINE
  8
LC-001-002-----0
  6
CONTINUOUS
  5
269
 10
243.573918
 20
236.028657
 30
0.0
 11
243.573918
 21
312.030367
 31
0.0
  0
LINE
  8
LC-001-002-----0
  6
CONTINUOUS
  5
26A
 10
241.286567
 20
211.530367
 30
0.0
 11
263.518451
 21
211.530367
 31
0.0
  0
LINE
  8
LC-001-002-----0
  6
CONTINUOUS
  5
26B
 10
241.288961
 20
336.530367
 30
0.0
 11
263.518451
 21
336.530367
 31
0.0
  0
ARC
  8
LC-001-002-----0
  6
CONTINUOUS
  5
26C
 10
263.518451
 20
226.530367
 30
0.0
 40
15.0
 50
270.000058
 51
311.409622
  0
ARC
  8
LC-001-002-----0
  6
CONTINUOUS
  5
26D
 10
283.361586
 20
204.030367
 30
0.0
 40
15.0
 50
90.0
 51
131.409603
  0
LINE
  8
LC-001-002-----0
  6
CONTINUOUS
  5
26E
 10
624.788961
 20
219.030367
 30
0.0
 11
283.361586
 21
219.030367
 31
0.0
  0
ARC
  8
LC-001-002-----0
  6
CONTINUOUS
  5
26F
 10
263.518451
 20
321.530367
 30
0.0
 40
15.0
 50
48.590378
 51
89.999981
  0
ARC
  8
LC-001-002-----0
  6
CONTINUOUS
  5
270
 10
283.361586
 20
344.030367
 30
0.0
 40
15.0
 50
228.590226
 51
270.0
  0
LINE
  8
LC-001-002-----0
  6
CONTINUOUS
  5
271
 10
624.788961
 20
329.030367
 30
0.0
 11
283.361586
 21
329.030367
 31
0.0
  0
LINE
  8
LC-001-002-----0
  6
CONTINUOUS
  5
272
 10
233.605949
 20
331.830367
 30
0.0
 11
262.742647
 21
331.830367
 31
0.0
  0
LINE
  8
LC-002-001-----0
  6
CONTINUOUS
  5
273
 10
627.788961
 20
326.530367
 30
0.0
 11
279.769391
 21
326.530367
 31
0.0
  0
ARC
  8
LC-002-001-----0
  6
CONTINUOUS
  5
274
 10
279.769391
 20
344.030367
 30
0.0
 40
17.5
 50
235.419727
 51
270.0
  0
ARC
  8
LC-001-002-----0
  6
CONTINUOUS
  5
275
 10
262.742647
 20
319.330367
 30
0.0
 40
12.5
 50
55.419879
 51
89.999981
  0
ARC
  8
LC-001-002-----0
  6
CONTINUOUS
  5
276
 10
262.740344
 20
228.728502
 30
0.0
 40
12.5
 50
269.999773
 51
304.579817
  0
ARC
  8
LC-002-001-----0
  6
CONTINUOUS
  5
277
 10
279.766957
 20
204.028411
 30
0.0
 40
17.5
 50
89.999696
 51
124.580028
  0
LINE
  8
LC-001-002-----0
  6
CONTINUOUS
 62
     2
  5
278
 10
262.742651
 20
331.830367
 30
0.0
 11
262.742651
 21
216.228502
 31
0.0
  0
LINE
  8
LC-001-002-----0
  6
CONTINUOUS
  5
279
 10
624.788961
 20
329.030367
 30
0.0
 11
627.788961
 21
326.530367
 31
0.0
  0
LINE
  8
LC-001-002-----0
  6
CONTINUOUS
  5
27A
 10
624.788961
 20
219.030367
 30
0.0
 11
627.788961
 21
221.530367
 31
0.0
  0
LINE
  8
LC-001-002-----0
  6
CONTINUOUS
  5
27B
 10
307.788961
 20
326.030367
 30
0.0
 11
307.788961
 21
222.030367
 31
0.0
  0
LINE
  8
LC-001-002-----0
  6
CONTINUOUS
  5
27C
 10
307.788961
 20
222.030367
 30
0.0
 11
303.288961
 21
222.030367
 31
0.0
  0
LINE
  8
LC-001-002-----0
  6
CONTINUOUS
  5
27D
 10
277.742651
 20
326.030367
 30
0.0
 11
296.288961
 21
326.030367
 31
0.0
  0
ARC
  8
LC-001-002-----0
  6
CONTINUOUS
  5
27E
 10
277.742651
 20
336.030367
 30
0.0
 40
10.0
 50
240.305611
 51
270.000058
  0
ARC
  8
LC-001-002-----0
  6
CONTINUOUS
  5
27F
 10
277.740868
 20
212.028893
 30
0.0
 40
10.0
 50
89.999619
 51
119.694085
  0
LINE
  8
LC-001-002-----0
  6
CONTINUOUS
  5
280
 10
272.788915
 20
327.343566
 30
0.0
 11
272.788915
 21
222.030367
 31
0.0
  0
LINE
  8
LC-001-002-----0
  6
CONTINUOUS
  5
281
 10
272.788915
 20
222.030367
 30
0.0
 11
272.788915
 21
220.715719
 31
0.0
  0
LINE
  8
LC-001-002-----0
  6
CONTINUOUS
  5
282
 10
272.788915
 20
323.030367
 30
0.0
 11
287.788915
 21
323.030367
 31
0.0
  0
LINE
  8
LC-001-002-----0
  6
CONTINUOUS
  5
283
 10
287.788915
 20
225.030367
 30
0.0
 11
272.788915
 21
225.030367
 31
0.0
  0
LINE
  8
LC-001-002-----0
  6
CONTINUOUS
  5
284
 10
287.788915
 20
225.030367
 30
0.0
 11
287.788915
 21
234.030367
 31
0.0
  0
LINE
  8
LC-001-002-----0
  6
CONTINUOUS
  5
285
 10
287.788915
 20
234.030367
 30
0.0
 11
272.788915
 21
234.030367
 31
0.0
  0
LINE
  8
LC-001-002-----0
  6
CONTINUOUS
  5
286
 10
272.788915
 20
237.030367
 30
0.0
 11
307.788915
 21
237.030367
 31
0.0
  0
LINE
  8
LC-001-002-----0
  6
CONTINUOUS
  5
287
 10
287.788915
 20
323.030367
 30
0.0
 11
287.788915
 21
314.030367
 31
0.0
  0
LINE
  8
LC-001-002-----0
  6
CONTINUOUS
  5
288
 10
287.788915
 20
314.030367
 30
0.0
 11
272.788915
 21
314.030367
 31
0.0
  0
LINE
  8
LC-001-002-----0
  6
CONTINUOUS
  5
289
 10
272.788915
 20
311.030367
 30
0.0
 11
307.788915
 21
311.030367
 31
0.0
  0
ARC
  8
LC-001-002-----0
  6
CONTINUOUS
  5
28A
 10
299.788961
 20
322.530367
 30
0.0
 40
3.5
 50
179.999829
 51
0.0
  0
ARC
  8
LC-001-002-----0
  6
CONTINUOUS
  5
28B
 10
299.788961
 20
225.530367
 30
0.0
 40
3.5
 50
0.0
 51
179.999829
  0
CIRCLE
  8
LC-001-002-----0
  6
CONTINUOUS
  5
28C
 10
299.788961
 20
225.530367
 30
0.0
 40
3.0
  0
CIRCLE
  8
LC-001-002-----0
  6
CONTINUOUS
  5
28D
 10
299.788961
 20
322.530367
 30
0.0
 40
3.0
  0
LINE
  8
LC-001-002-----0
  6
CONTINUOUS
  5
28E
 10
296.288961
 20
322.530367
 30
0.0
 11
296.288961
 21
326.030367
 31
0.0
  0
LINE
  8
LC-001-002-----0
  6
CONTINUOUS
  5
28F
 10
303.288961
 20
322.530367
 30
0.0
 11
303.288961
 21
326.030367
 31
0.0
  0
LINE
  8
LC-001-002-----0
  6
CONTINUOUS
  5
290
 10
303.288961
 20
326.030367
 30
0.0
 11
307.788961
 21
326.030367
 31
0.0
  0
LINE
  8
LC-001-002-----0
  6
CONTINUOUS
  5
291
 10
296.288961
 20
225.530367
 30
0.0
 11
296.288961
 21
222.030367
 31
0.0
  0
LINE
  8
LC-001-002-----0
  6
CONTINUOUS
  5
292
 10
303.288961
 20
225.530367
 30
0.0
 11
303.288961
 21
222.030367
 31
0.0
  0
LINE
  8
LC-001-002-----0
  6
CONTINUOUS
  5
293
 10
303.288961
 20
225.530367
 30
0.0
 11
303.288961
 21
222.030367
 31
0.0
  0
LINE
  8
LC-001-002-----0
  6
CONTINUOUS
  5
294
 10
296.288961
 20
222.030367
 30
0.0
 11
277.740868
 21
222.030367
 31
0.0
  0
LINE
  8
LC-002-001-----0
  6
CONTINUOUS
  5
295
 10
308.288961
 20
326.030367
 30
0.0
 11
308.288961
 21
222.030367
 31
0.0
  0
LINE
  8
LC-002-001-----0
  6
CONTINUOUS
  5
296
 10
310.788961
 20
326.030367
 30
0.0
 11
310.788961
 21
312.530367
 31
0.0
  0
LINE
  8
LC-001-002-----0
  6
CONTINUOUS
  5
297
 10
308.288961
 20
326.030367
 30
0.0
 11
310.788961
 21
326.030367
 31
0.0
  0
LINE
  8
LC-001-002-----0
  6
CONTINUOUS
  5
298
 10
308.288961
 20
222.030367
 30
0.0
 11
310.788961
 21
222.030367
 31
0.0
  0
LINE
  8
LC-001-002-----0
  6
CONTINUOUS
  5
299
 10
309.288961
 20
311.030367
 30
0.0
 11
310.788961
 21
312.530367
 31
0.0
  0
LINE
  8
LC-001-002-----0
  6
CONTINUOUS
  5
29A
 10
309.288961
 20
311.030367
 30
0.0
 11
310.788961
 21
309.530367
 31
0.0
  0
LINE
  8
LC-002-001-----0
  6
CONTINUOUS
  5
29B
 10
310.788961
 20
309.530367
 30
0.0
 11
310.788961
 21
222.030367
 31
0.0
  0
LINE
  8
LC-002-001-----0
  6
DASHDOT
 62
     2
  5
29C
 10
310.387038
 20
312.128443
 30
0.0
 11
355.087966
 21
234.704086
 31
0.0
  0
LINE
  8
LC-002-001-----0
  6
DASHDOT
 62
     2
  5
29D
 10
310.788961
 20
306.432286
 30
0.0
 11
352.922902
 21
233.454087
 31
0.0
  0
LINE
  8
LC-001-002-----0
  6
DASHDOT
 62
     2
  5
29E
 10
352.922902
 20
233.454087
 30
0.0
 11
355.087966
 21
234.704086
 31
0.0
  0
LINE
  8
LC-001-002-----0
  6
CONTINUOUS
  5
29F
 10
207.788961
 20
328.530367
 30
0.0
 11
207.788961
 21
219.52874
 31
0.0
  0
LINE
  8
LC-001-002-----0
  6
CONTINUOUS
  5
2A0
 10
167.788961
 20
338.530367
 30
0.0
 11
167.788961
 21
357.853014
 31
0.0
  0
ARC
  8
LC-001-002-----0
  6
CONTINUOUS
  5
2A1
 10
177.788961
 20
338.530367
 30
0.0
 40
10.0
 50
180.0
 51
270.000058
  0
LINE
  8
LC-001-002-----0
  6
CONTINUOUS
  5
2A2
 10
207.788961
 20
328.530367
 30
0.0
 11
177.788961
 21
328.530367
 31
0.0
  0
LINE
  8
LC-001-002-----0
  6
CONTINUOUS
  5
2A3
 10
207.786607
 20
219.52874
 30
0.0
 11
177.786607
 21
219.52874
 31
0.0
  0
ARC
  8
LC-001-002-----0
  6
CONTINUOUS
  5
2A4
 10
177.786607
 20
209.52874
 30
0.0
 40
10.0
 50
90.0
 51
179.999848
  0
LINE
  8
LC-001-002-----0
  6
CONTINUOUS
  5
2A5
 10
167.786607
 20
209.52874
 30
0.0
 11
167.786607
 21
192.022786
 31
0.0
  0
LINE
  8
LC-001-002-----0
  6
CONTINUOUS
  5
2A6
 10
152.786607
 20
209.52874
 30
0.0
 11
152.786607
 21
192.022786
 31
0.0
  0
ARC
  8
LC-001-002-----0
  6
CONTINUOUS
  5
2A7
 10
177.786607
 20
209.52874
 30
0.0
 40
25.0
 50
89.999981
 51
180.0
  0
LINE
  8
LC-002-001-----0
  6
CONTINUOUS
  5
2A8
 10
207.786607
 20
234.52874
 30
0.0
 11
177.786607
 21
234.52874
 31
0.0
  0
LINE
  8
LC-001-002-----0
  6
CONTINUOUS
  5
2A9
 10
152.788961
 20
338.530367
 30
0.0
 11
152.788961
 21
357.853014
 31
0.0
  0
ARC
  8
LC-001-002-----0
  6
CONTINUOUS
  5
2AA
 10
177.788961
 20
338.530367
 30
0.0
 40
25.0
 50
180.0
 51
270.000058
  0
LINE
  8
LC-002-001-----0
  6
CONTINUOUS
  5
2AB
 10
207.788961
 20
313.530367
 30
0.0
 11
177.788961
 21
313.530367
 31
0.0
  0
LINE
  8
LC-001-002-----0
  6
DASHDOT
 62
     2
  5
2AC
 10
227.788961
 20
274.030367
 30
0.0
 11
627.788961
 21
274.030367
 31
0.0
  0
LINE
  8
LC-002-001-----0
  6
DASHDOT
 62
     2
  5
2AD
 10
310.747688
 20
312.296293
 30
0.0
 11
397.197317
 21
297.052852
 31
0.0
  0
LINE
  8
LC-002-001-----0
  6
DASHDOT
 62
     2
  5
2AE
 10
311.870027
 20
309.559827
 30
0.0
 11
396.763196
 21
294.590833
 31
0.0
  0
LINE
  8
LC-001-002-----0
  6
DASHDOT
 62
     2
  5
2AF
 10
396.763196
 20
294.590833
 30
0.0
 11
397.197317
 21
297.052852
 31
0.0
  0
ENDSEC
  0
EOF
