  0
SECTION
  2
HEADER
  9
$ACADVER
  1
AC1015
  9
$ACADMAINTVER
 70
     6
  9
$DWGCODEPAGE
  3
ANSI_1252
  9
$INSBASE
 10
0.0
 20
0.0
 30
0.0
  9
$EXTMIN
 10
-271.75
 20
-87.335738
 30
0.0
  9
$EXTMAX
 10
568.25
 20
506.664262
 30
0.0
  9
$LIMMIN
 10
-271.75
 20
-87.335738
  9
$LIMMAX
 10
568.25
 20
506.664262
  9
$ORTHOMODE
 70
     0
  9
$REGENMODE
 70
     1
  9
$FILLMODE
 70
     1
  9
$QTEXTMODE
 70
     0
  9
$MIRRTEXT
 70
     1
  9
$LTSCALE
 40
2.0
  9
$ATTMODE
 70
     1
  9
$TEXTSIZE
 40
2.5
  9
$TRACEWID
 40
1.0
  9
$TEXTSTYLE
  7
Standard
  9
$CLAYER
  8
0
  9
$CELTYPE
  6
ByLayer
  9
$CECOLOR
 62
     7
  9
$CELTSCALE
 40
1.0
  9
$DISPSILH
 70
     0
  9
$DIMSCALE
 40
2.0
  9
$DIMASZ
 40
3.5
  9
$DIMEXO
 40
0.625
  9
$DIMDLI
 40
3.75
  9
$DIMRND
 40
0.0
  9
$DIMDLE
 40
0.0
  9
$DIMEXE
 40
1.25
  9
$DIMTP
 40
0.0
  9
$DIMTM
 40
0.0
  9
$DIMTXT
 40
3.5
  9
$DIMCEN
 40
2.5
  9
$DIMTSZ
 40
0.0
  9
$DIMTOL
 70
     0
  9
$DIMLIM
 70
     0
  9
$DIMTIH
 70
     0
  9
$DIMTOH
 70
     0
  9
$DIMSE1
 70
     0
  9
$DIMSE2
 70
     0
  9
$DIMTAD
 70
     1
  9
$DIMZIN
 70
     8
  9
$DIMBLK
  1

  9
$DIMASO
 70
     1
  9
$DIMSHO
 70
     1
  9
$DIMPOST
  1

  9
$DIMAPOST
  1

  9
$DIMALT
 70
     0
  9
$DIMALTD
 70
     3
  9
$DIMALTF
 40
0.03937
  9
$DIMLFAC
 40
1.0
  9
$DIMTOFL
 70
     1
  9
$DIMTVP
 40
0.0
  9
$DIMTIX
 70
     0
  9
$DIMSOXD
 70
     0
  9
$DIMSAH
 70
     0
  9
$DIMBLK1
  1

  9
$DIMBLK2
  1

  9
$DIMSTYLE
  2
ISO-25
  9
$DIMCLRD
 70
     0
  9
$DIMCLRE
 70
     0
  9
$DIMCLRT
 70
     0
  9
$DIMTFAC
 40
1.0
  9
$DIMGAP
 40
0.625
  9
$DIMJUST
 70
     0
  9
$DIMSD1
 70
     0
  9
$DIMSD2
 70
     0
  9
$DIMTOLJ
 70
     0
  9
$DIMTZIN
 70
     8
  9
$DIMALTZ
 70
     0
  9
$DIMALTTZ
 70
     0
  9
$DIMUPT
 70
     0
  9
$DIMDEC
 70
     2
  9
$DIMTDEC
 70
     2
  9
$DIMALTU
 70
     2
  9
$DIMALTTD
 70
     3
  9
$DIMTXSTY
  7
Standard
  9
$DIMAUNIT
 70
     0
  9
$DIMADEC
 70
     0
  9
$DIMALTRND
 40
0.0
  9
$DIMAZIN
 70
     0
  9
$DIMDSEP
 70
    44
  9
$DIMATFIT
 70
     3
  9
$DIMFRAC
 70
     0
  9
$DIMLDRBLK
  1

  9
$DIMLUNIT
 70
     2
  9
$DIMLWD
 70
    -2
  9
$DIMLWE
 70
    -2
  9
$DIMTMOVE
 70
     0
  9
$LUNITS
 70
     2
  9
$LUPREC
 70
     4
  9
$SKETCHINC
 40
1.0
  9
$FILLETRAD
 40
10.0
  9
$AUNITS
 70
     0
  9
$AUPREC
 70
     0
  9
$MENU
  1
.
  9
$ELEVATION
 40
0.0
  9
$PELEVATION
 40
0.0
  9
$THICKNESS
 40
0.0
  9
$LIMCHECK
 70
     0
  9
$CHAMFERA
 40
10.0
  9
$CHAMFERB
 40
10.0
  9
$CHAMFERC
 40
20.0
  9
$CHAMFERD
 40
0.0
  9
$SKPOLY
 70
     0
  9
$TDCREATE
 40
2456878.23609235
  9
$TDUCREATE
 40
2456878.152759016
  9
$TDUPDATE
 40
2456878.236092361
  9
$TDUUPDATE
 40
2456878.152759028
  9
$TDINDWG
 40
0.0000000116
  9
$TDUSRTIMER
 40
0.0000000116
  9
$USRTIMER
 70
     1
  9
$ANGBASE
 50
0.0
  9
$ANGDIR
 70
     0
  9
$PDMODE
 70
     0
  9
$PDSIZE
 40
0.0
  9
$PLINEWID
 40
0.0
  9
$SPLFRAME
 70
     0
  9
$SPLINETYPE
 70
     6
  9
$SPLINESEGS
 70
     8
  9
$HANDSEED
  5
30F
  9
$SURFTAB1
 70
     6
  9
$SURFTAB2
 70
     6
  9
$SURFTYPE
 70
     6
  9
$SURFU
 70
     6
  9
$SURFV
 70
     6
  9
$UCSBASE
  2

  9
$UCSNAME
  2

  9
$UCSORG
 10
0.0
 20
0.0
 30
0.0
  9
$UCSXDIR
 10
1.0
 20
0.0
 30
0.0
  9
$UCSYDIR
 10
0.0
 20
1.0
 30
0.0
  9
$UCSORTHOREF
  2

  9
$UCSORTHOVIEW
 70
     0
  9
$UCSORGTOP
 10
0.0
 20
0.0
 30
0.0
  9
$UCSORGBOTTOM
 10
0.0
 20
0.0
 30
0.0
  9
$UCSORGLEFT
 10
0.0
 20
0.0
 30
0.0
  9
$UCSORGRIGHT
 10
0.0
 20
0.0
 30
0.0
  9
$UCSORGFRONT
 10
0.0
 20
0.0
 30
0.0
  9
$UCSORGBACK
 10
0.0
 20
0.0
 30
0.0
  9
$PUCSBASE
  2

  9
$PUCSNAME
  2

  9
$PUCSORG
 10
0.0
 20
0.0
 30
0.0
  9
$PUCSXDIR
 10
1.0
 20
0.0
 30
0.0
  9
$PUCSYDIR
 10
0.0
 20
1.0
 30
0.0
  9
$PUCSORTHOREF
  2

  9
$PUCSORTHOVIEW
 70
     0
  9
$PUCSORGTOP
 10
0.0
 20
0.0
 30
0.0
  9
$PUCSORGBOTTOM
 10
0.0
 20
0.0
 30
0.0
  9
$PUCSORGLEFT
 10
0.0
 20
0.0
 30
0.0
  9
$PUCSORGRIGHT
 10
0.0
 20
0.0
 30
0.0
  9
$PUCSORGFRONT
 10
0.0
 20
0.0
 30
0.0
  9
$PUCSORGBACK
 10
0.0
 20
0.0
 30
0.0
  9
$USERI1
 70
     0
  9
$USERI2
 70
     0
  9
$USERI3
 70
     0
  9
$USERI4
 70
     0
  9
$USERI5
 70
     0
  9
$USERR1
 40
0.0
  9
$USERR2
 40
0.0
  9
$USERR3
 40
0.0
  9
$USERR4
 40
0.0
  9
$USERR5
 40
0.0
  9
$WORLDVIEW
 70
     1
  9
$SHADEDGE
 70
     3
  9
$SHADEDIF
 70
    70
  9
$TILEMODE
 70
     1
  9
$MAXACTVP
 70
    64
  9
$PINSBASE
 10
0.0
 20
0.0
 30
0.0
  9
$PLIMCHECK
 70
     0
  9
$PEXTMIN
 10
-271.75
 20
-87.335738
 30
0.0
  9
$PEXTMAX
 10
568.25
 20
506.664262
 30
0.0
  9
$PLIMMIN
 10
-271.75
 20
-87.335738
  9
$PLIMMAX
 10
568.25
 20
506.664262
  9
$UNITMODE
 70
     0
  9
$VISRETAIN
 70
     1
  9
$PLINEGEN
 70
     0
  9
$PSLTSCALE
 70
     1
  9
$TREEDEPTH
 70
  3020
  9
$CMLSTYLE
  2
Standard
  9
$CMLJUST
 70
     0
  9
$CMLSCALE
 40
20.0
  9
$PROXYGRAPHICS
 70
     1
  9
$MEASUREMENT
 70
     1
  9
$CELWEIGHT
370
    -1
  9
$ENDCAPS
280
     0
  9
$JOINSTYLE
280
     0
  9
$LWDISPLAY
290
     0
  9
$INSUNITS
 70
     4
  9
$HYPERLINKBASE
  1

  9
$STYLESHEET
  1

  9
$XEDIT
290
     1
  9
$CEPSNTYPE
380
     0
  9
$PSTYLEMODE
290
     1
  9
$FINGERPRINTGUID
  2
{FAEB1C30-E019-11D5-929B-00C0DF256EC4}
  9
$VERSIONGUID
  2
{FAEB1C32-E019-11D5-929B-00C0DF256EC4}
  9
$EXTNAMES
290
     1
  9
$PSVPSCALE
 40
0.0
  9
$OLESTARTUP
290
     0
  0
ENDSEC
  0
SECTION
  2
CLASSES
  0
CLASS
  1
ACDBDICTIONARYWDFLT
  2
AcDbDictionaryWithDefault
  3
ObjectDBX Classes
 90
        0
280
     0
281
     0
  0
CLASS
  1
ACDBPLACEHOLDER
  2
AcDbPlaceHolder
  3
ObjectDBX Classes
 90
        0
280
     0
281
     0
  0
CLASS
  1
LAYOUT
  2
AcDbLayout
  3
ObjectDBX Classes
 90
        0
280
     0
281
     0
  0
ENDSEC
  0
SECTION
  2
TABLES
  0
TABLE
  2
VPORT
  5
8
330
0
100
AcDbSymbolTable
 70
     2
  0
VPORT
  5
29
330
8
100
AcDbSymbolTableRecord
100
AcDbViewportTableRecord
  2
*ACTIVE
 70
     0
 10
0.0
 20
0.0
 11
1.0
 21
1.0
 12
148.25
 22
209.664262
 13
0.0
 23
0.0
 14
1.0
 24
1.0
 15
0.0
 25
0.0
 16
0.0
 26
0.0
 36
1.0
 17
0.0
 27
0.0
 37
0.0
 40
594.0
 41
1.414141
 42
50.0
 43
0.0
 44
0.0
 50
0.0
 51
0.0
 71
    16
 72
   100
 73
     1
 74
     0
 75
     0
 76
     0
 77
     0
 78
     0
281
     0
 65
     0
110
0.0
120
0.0
130
0.0
111
1.0
121
0.0
131
0.0
112
0.0
122
1.0
132
0.0
 79
     0
146
0.0
  0
ENDTAB
  0
TABLE
  2
LTYPE
  5
5
330
0
100
AcDbSymbolTable
 70
     3
  0
LTYPE
  5
14
330
5
100
AcDbSymbolTableRecord
100
AcDbLinetypeTableRecord
  2
ByBlock
 70
     0
  3

 72
    65
 73
     0
 40
0.0
  0
LTYPE
  5
15
330
5
100
AcDbSymbolTableRecord
100
AcDbLinetypeTableRecord
  2
ByLayer
 70
     0
  3

 72
    65
 73
     0
 40
0.0
  0
LTYPE
  5
16
330
5
100
AcDbSymbolTableRecord
100
AcDbLinetypeTableRecord
  2
Continuous
 70
     0
  3
Solid line
 72
    65
 73
     0
 40
0.0
  0
LTYPE
  5
2A
330
5
100
AcDbSymbolTableRecord
100
AcDbLinetypeTableRecord
  2
DASHED
 70
     0
  3
__ __ __ __ __
 72
    65
 73
     2
 40
6.25
 49
5.0
 74
     4
 75
     0
340
0
 46
1.0
 50
0.0
 44
0.0
 45
0.0
 49
-1.25
 74
     4
 75
     0
340
0
 46
1.0
 50
0.0
 44
0.0
 45
0.0
  0
LTYPE
  5
2FF
330
5
100
AcDbSymbolTableRecord
100
AcDbLinetypeTableRecord
  2
DASHDOT
 70
     0
  3
__ . __ . __ . __ . __
 72
    65
 73
     4
 40
7.5
 49
5.0
 74
     4
 75
     0
340
0
 46
1.0
 50
0.0
 44
0.0
 45
0.0
 49
-1.25
 74
     4
 75
     0
340
0
 46
1.0
 50
0.0
 44
0.0
 45
0.0
 49
0.0
 74
     4
 75
     0
340
0
 46
1.0
 50
0.0
 44
0.0
 45
0.0
 49
-1.25
 74
     4
 75
     0
340
0
 46
1.0
 50
0.0
 44
0.0
 45
0.0
  0
ENDTAB
  0
TABLE
  2
LAYER
  5
2
330
0
100
AcDbSymbolTable
 70
     9
  0
LAYER
  5
10
330
2
100
AcDbSymbolTableRecord
100
AcDbLayerTableRecord
  2
0
 70
     0
 62
     7
  6
Continuous
370
    -3
390
F
  0
LAYER
  5
2B
330
2
100
AcDbSymbolTableRecord
100
AcDbLayerTableRecord
  2
LC-INFO-1-2-mm-A3-0
 70
     1
 62
     7
  6
ByBlock
370
    -3
390
F
  0
LAYER
  5
2C
330
2
100
AcDbSymbolTableRecord
100
AcDbLayerTableRecord
  2
LC-CUT-HIDDEN
 70
     0
 62
     7
  6
DASHED
370
    -3
390
F
  0
LAYER
  5
2D
330
2
100
AcDbSymbolTableRecord
100
AcDbLayerTableRecord
  2
LC-VIEWPORT
 70
     0
 62
     7
  6
ByBlock
370
    -3
390
F
  0
LAYER
  5
2E
330
2
100
AcDbSymbolTableRecord
100
AcDbLayerTableRecord
  2
LC-3D-HIDDEN
 70
     0
 62
     9
  6
DASHED
370
    -3
390
F
  0
LAYER
  5
30
330
2
100
AcDbSymbolTableRecord
100
AcDbLayerTableRecord
  2
LC-001-100-D00-0
 70
     0
 62
     1
  6
ByBlock
370
    -3
390
F
  0
LAYER
  5
2A9
330
2
100
AcDbSymbolTableRecord
100
AcDbLayerTableRecord
  2
LC-002-101-D00-0
 70
     0
 62
     2
  6
ByBlock
370
    -3
390
F
  0
LAYER
  5
2AB
330
2
100
AcDbSymbolTableRecord
100
AcDbLayerTableRecord
  2
Defpoints
 70
     0
 62
     7
  6
Continuous
290
     0
370
    -3
390
F
  0
LAYER
  5
301
330
2
100
AcDbSymbolTableRecord
100
AcDbLayerTableRecord
  2
LC-003-003-----0
 70
     0
 62
     2
  6
ByBlock
370
    -3
390
F
  0
ENDTAB
  0
TABLE
  2
STYLE
  5
3
330
0
100
AcDbSymbolTable
 70
     3
  0
STYLE
  5
11
330
3
100
AcDbSymbolTableRecord
100
AcDbTextStyleTableRecord
  2
Standard
 70
     0
 40
0.0
 41
1.0
 50
0.0
 71
     0
 42
2.5
  3
txt
  4

  0
STYLE
  5
2F
330
3
100
AcDbSymbolTableRecord
100
AcDbTextStyleTableRecord
  2
LCTX15-400-0-0-Arial
 70
     0
 40
0.0
 41
0.8
 50
0.0
 71
     0
 42
3.5
  3

  4

1001
ACAD
1000
Arial
1071
 16777218
  0
STYLE
  5
2A7
330
3
100
AcDbSymbolTableRecord
100
AcDbTextStyleTableRecord
  2
LCTX15-400-0-0pDIN-Schrift
 70
     0
 40
2.5
 41
0.8
 50
15.0
 71
     0
 42
3.5
  3
STANDARD
  4

  0
ENDTAB
  0
TABLE
  2
VIEW
  5
6
330
0
100
AcDbSymbolTable
 70
     0
  0
ENDTAB
  0
TABLE
  2
UCS
  5
7
330
0
100
AcDbSymbolTable
 70
     0
  0
ENDTAB
  0
TABLE
  2
APPID
  5
9
330
0
100
AcDbSymbolTable
 70
     1
  0
APPID
  5
12
330
9
100
AcDbSymbolTableRecord
100
AcDbRegAppTableRecord
  2
ACAD
 70
     0
  0
ENDTAB
  0
TABLE
  2
DIMSTYLE
  5
A
330
0
100
AcDbSymbolTable
 70
     2
100
AcDbDimStyleTable
  0
DIMSTYLE
105
27
330
A
100
AcDbSymbolTableRecord
100
AcDbDimStyleTableRecord
  2
ISO-25
 70
     0
 41
2.5
 42
0.625
 43
3.75
 44
1.25
 73
     0
 74
     0
 77
     1
 78
     8
140
2.5
141
2.5
143
0.03937
147
0.625
171
     3
172
     1
271
     2
272
     2
274
     3
278
    44
283
     0
284
     8
340
11
  0
DIMSTYLE
105
2A8
102
{ACAD_REACTORS
330
2AA
330
2B9
330
2C8
330
2D5
330
2E4
330
2F1
330
302
102
}
330
A
100
AcDbSymbolTableRecord
100
AcDbDimStyleTableRecord
  2
LC-DIM-L-0140-02-02
 70
     0
 40
2.0
 41
14.0
 42
0.0
 43
7.5
 44
1.8
 73
     0
 74
     0
 77
     1
 78
     8
 79
     2
140
14.0
141
0.0
146
0.71
147
1.5
176
     2
177
     2
178
     2
179
     2
271
     2
278
    44
289
     1
340
2A7
  0
ENDTAB
  0
TABLE
  2
BLOCK_RECORD
  5
1
330
0
100
AcDbSymbolTable
 70
    23
  0
BLOCK_RECORD
  5
1F
330
1
100
AcDbSymbolTableRecord
100
AcDbBlockTableRecord
  2
*Model_Space
340
22
  0
BLOCK_RECORD
  5
1B
330
1
100
AcDbSymbolTableRecord
100
AcDbBlockTableRecord
  2
*Paper_Space
340
1E
  0
BLOCK_RECORD
  5
23
330
1
100
AcDbSymbolTableRecord
100
AcDbBlockTableRecord
  2
*Paper_Space0
340
26
  0
BLOCK_RECORD
  5
134
330
1
100
AcDbSymbolTableRecord
100
AcDbBlockTableRecord
  2
POLY1
340
0
102
{BLKREFS
331
13F
102
}
  0
BLOCK_RECORD
  5
144
330
1
100
AcDbSymbolTableRecord
100
AcDbBlockTableRecord
  2
POLY2
340
0
102
{BLKREFS
331
14F
102
}
  0
BLOCK_RECORD
  5
17E
330
1
100
AcDbSymbolTableRecord
100
AcDbBlockTableRecord
  2
KLON1
340
0
102
{BLKREFS
331
1A1
102
}
  0
BLOCK_RECORD
  5
1A2
330
1
100
AcDbSymbolTableRecord
100
AcDbBlockTableRecord
  2
KLON2
340
0
102
{BLKREFS
331
1CF
102
}
  0
BLOCK_RECORD
  5
1D0
330
1
100
AcDbSymbolTableRecord
100
AcDbBlockTableRecord
  2
KLON3
340
0
102
{BLKREFS
331
201
102
}
  0
BLOCK_RECORD
  5
202
330
1
100
AcDbSymbolTableRecord
100
AcDbBlockTableRecord
  2
KLON4
340
0
102
{BLKREFS
331
20F
102
}
  0
BLOCK_RECORD
  5
210
330
1
100
AcDbSymbolTableRecord
100
AcDbBlockTableRecord
  2
KLON5
340
0
102
{BLKREFS
331
222
102
}
  0
BLOCK_RECORD
  5
224
330
1
100
AcDbSymbolTableRecord
100
AcDbBlockTableRecord
  2
KLON6
340
0
102
{BLKREFS
331
22B
102
}
  0
BLOCK_RECORD
  5
22C
330
1
100
AcDbSymbolTableRecord
100
AcDbBlockTableRecord
  2
KLON7
340
0
102
{BLKREFS
331
231
102
}
  0
BLOCK_RECORD
  5
232
330
1
100
AcDbSymbolTableRecord
100
AcDbBlockTableRecord
  2
KLON8
340
0
102
{BLKREFS
331
243
102
}
  0
BLOCK_RECORD
  5
244
330
1
100
AcDbSymbolTableRecord
100
AcDbBlockTableRecord
  2
KLON9
340
0
102
{BLKREFS
331
255
102
}
  0
BLOCK_RECORD
  5
256
330
1
100
AcDbSymbolTableRecord
100
AcDbBlockTableRecord
  2
KLON10
340
0
102
{BLKREFS
331
27A
102
}
  0
BLOCK_RECORD
  5
27B
330
1
100
AcDbSymbolTableRecord
100
AcDbBlockTableRecord
  2
KLON11
340
0
102
{BLKREFS
331
299
102
}
  0
BLOCK_RECORD
  5
29A
330
1
100
AcDbSymbolTableRecord
100
AcDbBlockTableRecord
  2
KLON12
340
0
102
{BLKREFS
331
29F
102
}
  0
BLOCK_RECORD
  5
2A0
330
1
100
AcDbSymbolTableRecord
100
AcDbBlockTableRecord
  2
KLON13
340
0
102
{BLKREFS
331
2A6
102
}
  0
BLOCK_RECORD
  5
2AC
330
1
100
AcDbSymbolTableRecord
100
AcDbBlockTableRecord
  2
*D16
340
0
  0
BLOCK_RECORD
  5
2BA
330
1
100
AcDbSymbolTableRecord
100
AcDbBlockTableRecord
  2
*D17
340
0
  0
BLOCK_RECORD
  5
2C9
330
1
100
AcDbSymbolTableRecord
100
AcDbBlockTableRecord
  2
*D18
340
0
  0
BLOCK_RECORD
  5
2D6
330
1
100
AcDbSymbolTableRecord
100
AcDbBlockTableRecord
  2
*D19
340
0
  0
BLOCK_RECORD
  5
2E5
330
1
100
AcDbSymbolTableRecord
100
AcDbBlockTableRecord
  2
*D20
340
0
  0
BLOCK_RECORD
  5
2F2
330
1
100
AcDbSymbolTableRecord
100
AcDbBlockTableRecord
  2
*D21
340
0
  0
BLOCK_RECORD
  5
303
330
1
100
AcDbSymbolTableRecord
100
AcDbBlockTableRecord
  2
*D22
340
0
  0
ENDTAB
  0
ENDSEC
  0
SECTION
  2
BLOCKS
  0
BLOCK
  5
20
330
1F
100
AcDbEntity
  8
0
100
AcDbBlockBegin
  2
*Model_Space
 70
     0
 71
     0
 10
0.0
 20
0.0
 30
0.0
  3
*Model_Space
  1

  0
ENDBLK
  5
21
330
1F
100
AcDbEntity
  8
0
100
AcDbBlockEnd
  0
BLOCK
  5
1C
330
1B
100
AcDbEntity
 67
     1
  8
0
100
AcDbBlockBegin
  2
*Paper_Space
 70
     0
 71
     0
 10
0.0
 20
0.0
 30
0.0
  3
*Paper_Space
  1

  0
ENDBLK
  5
1D
330
1B
100
AcDbEntity
 67
     1
  8
0
100
AcDbBlockEnd
  0
BLOCK
  5
24
330
23
100
AcDbEntity
  8
0
100
AcDbBlockBegin
  2
*Paper_Space0
 70
     0
 71
     0
 10
0.0
 20
0.0
 30
0.0
  3
*Paper_Space0
  1

  0
ENDBLK
  5
25
330
23
100
AcDbEntity
  8
0
100
AcDbBlockEnd
  0
BLOCK
  5
135
330
134
100
AcDbEntity
  8
0
100
AcDbBlockBegin
  2
POLY1
 70
     0
 71
     0
 10
0.0
 20
0.0
 30
0.0
  3
POLY1
  1

  4
POLY1
  0
LINE
  5
137
330
134
100
AcDbEntity
  8
LC-001-100-D00-0
 62
     7
370
    50
100
AcDbLine
 10
185.844044
 20
383.023383
 30
0.0
 11
185.844044
 21
383.023383
 31
0.0
  0
LINE
  5
138
330
134
100
AcDbEntity
  8
LC-001-100-D00-0
 62
     7
370
    50
100
AcDbLine
 10
185.844044
 20
383.023383
 30
0.0
 11
184.167233
 21
379.524585
 31
0.0
  0
LINE
  5
139
330
134
100
AcDbEntity
  8
LC-001-100-D00-0
 62
     7
370
    50
100
AcDbLine
 10
184.167233
 20
379.524585
 30
0.0
 11
184.167233
 21
379.524585
 31
0.0
  0
LINE
  5
13A
330
134
100
AcDbEntity
  8
LC-001-100-D00-0
 62
     7
370
    50
100
AcDbLine
 10
184.167233
 20
379.524585
 30
0.0
 11
181.973016
 21
374.946176
 31
0.0
  0
LINE
  5
13B
330
134
100
AcDbEntity
  8
LC-001-100-D00-0
 62
     7
370
    50
100
AcDbLine
 10
181.973016
 20
374.946176
 30
0.0
 11
181.973016
 21
374.946176
 31
0.0
  0
LINE
  5
13C
330
134
100
AcDbEntity
  8
LC-001-100-D00-0
 62
     7
370
    50
100
AcDbLine
 10
181.973016
 20
374.946176
 30
0.0
 11
179.776375
 21
370.36893
 31
0.0
  0
LINE
  5
13D
330
134
100
AcDbEntity
  8
LC-001-100-D00-0
 62
     7
370
    50
100
AcDbLine
 10
179.776375
 20
370.36893
 30
0.0
 11
179.776375
 21
370.36893
 31
0.0
  0
LINE
  5
13E
330
134
100
AcDbEntity
  8
LC-001-100-D00-0
 62
     7
370
    50
100
AcDbLine
 10
179.776375
 20
370.36893
 30
0.0
 11
179.258397
 21
369.289593
 31
0.0
  0
ENDBLK
  5
136
330
134
100
AcDbEntity
  8
0
100
AcDbBlockEnd
  0
BLOCK
  5
145
330
144
100
AcDbEntity
  8
0
100
AcDbBlockBegin
  2
POLY2
 70
     0
 71
     0
 10
0.0
 20
0.0
 30
0.0
  3
POLY2
  1

  4
POLY2
  0
LINE
  5
147
330
144
100
AcDbEntity
  8
LC-001-100-D00-0
 62
     7
370
    50
100
AcDbLine
 10
120.680129
 20
369.289593
 30
0.0
 11
120.680129
 21
369.289593
 31
0.0
  0
LINE
  5
148
330
144
100
AcDbEntity
  8
LC-001-100-D00-0
 62
     7
370
    50
100
AcDbLine
 10
120.680129
 20
369.289593
 30
0.0
 11
120.162151
 21
370.36893
 31
0.0
  0
LINE
  5
149
330
144
100
AcDbEntity
  8
LC-001-100-D00-0
 62
     7
370
    50
100
AcDbLine
 10
120.162151
 20
370.36893
 30
0.0
 11
120.162151
 21
370.36893
 31
0.0
  0
LINE
  5
14A
330
144
100
AcDbEntity
  8
LC-001-100-D00-0
 62
     7
370
    50
100
AcDbLine
 10
120.162151
 20
370.36893
 30
0.0
 11
117.965511
 21
374.946177
 31
0.0
  0
LINE
  5
14B
330
144
100
AcDbEntity
  8
LC-001-100-D00-0
 62
     7
370
    50
100
AcDbLine
 10
117.965511
 20
374.946177
 30
0.0
 11
117.965511
 21
374.946177
 31
0.0
  0
LINE
  5
14C
330
144
100
AcDbEntity
  8
LC-001-100-D00-0
 62
     7
370
    50
100
AcDbLine
 10
117.965511
 20
374.946177
 30
0.0
 11
115.771291
 21
379.524585
 31
0.0
  0
LINE
  5
14D
330
144
100
AcDbEntity
  8
LC-001-100-D00-0
 62
     7
370
    50
100
AcDbLine
 10
115.771291
 20
379.524585
 30
0.0
 11
115.771291
 21
379.524585
 31
0.0
  0
LINE
  5
14E
330
144
100
AcDbEntity
  8
LC-001-100-D00-0
 62
     7
370
    50
100
AcDbLine
 10
115.771291
 20
379.524585
 30
0.0
 11
114.094479
 21
383.023383
 31
0.0
  0
ENDBLK
  5
146
330
144
100
AcDbEntity
  8
0
100
AcDbBlockEnd
  0
BLOCK
  5
17F
330
17E
100
AcDbEntity
  8
0
100
AcDbBlockBegin
  2
KLON1
 70
     0
 71
     0
 10
0.0
 20
0.0
 30
0.0
  3
KLON1
  1

  4
KLON1
  0
LINE
  5
181
330
17E
100
AcDbEntity
  8
LC-001-100-D00-0
 62
     7
370
    25
100
AcDbLine
 10
172.351717
 20
230.723382
 30
0.0
 11
174.829274
 21
233.200939
 31
0.0
  0
LINE
  5
182
330
17E
100
AcDbEntity
  8
LC-001-100-D00-0
 62
     7
370
    25
100
AcDbLine
 10
171.969262
 20
234.831055
 30
0.0
 11
174.969262
 21
237.831055
 31
0.0
  0
LINE
  5
183
330
17E
100
AcDbEntity
  8
LC-001-100-D00-0
 62
     7
370
    25
100
AcDbLine
 10
171.969262
 20
239.321183
 30
0.0
 11
174.969262
 21
242.321183
 31
0.0
  0
LINE
  5
184
330
17E
100
AcDbEntity
  8
LC-001-100-D00-0
 62
     7
370
    25
100
AcDbLine
 10
171.969262
 20
243.811311
 30
0.0
 11
174.969262
 21
246.811311
 31
0.0
  0
LINE
  5
185
330
17E
100
AcDbEntity
  8
LC-001-100-D00-0
 62
     7
370
    25
100
AcDbLine
 10
171.969262
 20
248.301439
 30
0.0
 11
174.969262
 21
251.301439
 31
0.0
  0
LINE
  5
186
330
17E
100
AcDbEntity
  8
LC-001-100-D00-0
 62
     7
370
    25
100
AcDbLine
 10
171.969262
 20
252.791567
 30
0.0
 11
174.969262
 21
255.791567
 31
0.0
  0
LINE
  5
187
330
17E
100
AcDbEntity
  8
LC-001-100-D00-0
 62
     7
370
    25
100
AcDbLine
 10
171.969262
 20
257.281695
 30
0.0
 11
174.969262
 21
260.281695
 31
0.0
  0
LINE
  5
188
330
17E
100
AcDbEntity
  8
LC-001-100-D00-0
 62
     7
370
    25
100
AcDbLine
 10
171.969262
 20
261.771823
 30
0.0
 11
174.969262
 21
264.771823
 31
0.0
  0
LINE
  5
189
330
17E
100
AcDbEntity
  8
LC-001-100-D00-0
 62
     7
370
    25
100
AcDbLine
 10
171.969262
 20
266.261951
 30
0.0
 11
174.969262
 21
269.261951
 31
0.0
  0
LINE
  5
18A
330
17E
100
AcDbEntity
  8
LC-001-100-D00-0
 62
     7
370
    25
100
AcDbLine
 10
171.969262
 20
270.752079
 30
0.0
 11
174.969262
 21
273.752079
 31
0.0
  0
LINE
  5
18B
330
17E
100
AcDbEntity
  8
LC-001-100-D00-0
 62
     7
370
    25
100
AcDbLine
 10
171.969262
 20
275.242208
 30
0.0
 11
174.969262
 21
278.242208
 31
0.0
  0
LINE
  5
18C
330
17E
100
AcDbEntity
  8
LC-001-100-D00-0
 62
     7
370
    25
100
AcDbLine
 10
171.969262
 20
279.732336
 30
0.0
 11
174.969262
 21
282.732336
 31
0.0
  0
LINE
  5
18D
330
17E
100
AcDbEntity
  8
LC-001-100-D00-0
 62
     7
370
    25
100
AcDbLine
 10
171.969262
 20
284.222464
 30
0.0
 11
194.804494
 21
307.057695
 31
0.0
  0
LINE
  5
18E
330
17E
100
AcDbEntity
  8
LC-001-100-D00-0
 62
     7
370
    25
100
AcDbLine
 10
191.867554
 20
308.610884
 30
0.0
 11
194.969262
 21
311.712592
 31
0.0
  0
LINE
  5
18F
330
17E
100
AcDbEntity
  8
LC-001-100-D00-0
 62
     7
370
    25
100
AcDbLine
 10
191.869262
 20
313.10272
 30
0.0
 11
194.969262
 21
316.20272
 31
0.0
  0
LINE
  5
190
330
17E
100
AcDbEntity
  8
LC-001-100-D00-0
 62
     7
370
    25
100
AcDbLine
 10
191.869262
 20
317.592848
 30
0.0
 11
194.969262
 21
320.692848
 31
0.0
  0
LINE
  5
191
330
17E
100
AcDbEntity
  8
LC-001-100-D00-0
 62
     7
370
    25
100
AcDbLine
 10
191.869262
 20
322.082976
 30
0.0
 11
194.969262
 21
325.182976
 31
0.0
  0
LINE
  5
192
330
17E
100
AcDbEntity
  8
LC-001-100-D00-0
 62
     7
370
    25
100
AcDbLine
 10
191.869262
 20
326.573104
 30
0.0
 11
194.969262
 21
329.673104
 31
0.0
  0
LINE
  5
193
330
17E
100
AcDbEntity
  8
LC-001-100-D00-0
 62
     7
370
    25
100
AcDbLine
 10
191.869262
 20
331.063232
 30
0.0
 11
194.969262
 21
334.163232
 31
0.0
  0
LINE
  5
194
330
17E
100
AcDbEntity
  8
LC-001-100-D00-0
 62
     7
370
    25
100
AcDbLine
 10
191.869262
 20
335.55336
 30
0.0
 11
194.969262
 21
338.65336
 31
0.0
  0
LINE
  5
195
330
17E
100
AcDbEntity
  8
LC-001-100-D00-0
 62
     7
370
    25
100
AcDbLine
 10
191.869262
 20
340.043488
 30
0.0
 11
194.969262
 21
343.143488
 31
0.0
  0
LINE
  5
196
330
17E
100
AcDbEntity
  8
LC-001-100-D00-0
 62
     7
370
    25
100
AcDbLine
 10
191.869262
 20
344.533616
 30
0.0
 11
194.969262
 21
347.633616
 31
0.0
  0
LINE
  5
197
330
17E
100
AcDbEntity
  8
LC-001-100-D00-0
 62
     7
370
    25
100
AcDbLine
 10
191.869262
 20
349.023744
 30
0.0
 11
194.969262
 21
352.123744
 31
0.0
  0
LINE
  5
198
330
17E
100
AcDbEntity
  8
LC-001-100-D00-0
 62
     7
370
    25
100
AcDbLine
 10
191.869262
 20
353.513872
 30
0.0
 11
194.969262
 21
356.613872
 31
0.0
  0
LINE
  5
199
330
17E
100
AcDbEntity
  8
LC-001-100-D00-0
 62
     7
370
    25
100
AcDbLine
 10
191.869262
 20
358.004
 30
0.0
 11
194.969262
 21
361.104
 31
0.0
  0
LINE
  5
19A
330
17E
100
AcDbEntity
  8
LC-001-100-D00-0
 62
     7
370
    25
100
AcDbLine
 10
191.869262
 20
362.494128
 30
0.0
 11
194.969262
 21
365.594128
 31
0.0
  0
LINE
  5
19B
330
17E
100
AcDbEntity
  8
LC-001-100-D00-0
 62
     7
370
    25
100
AcDbLine
 10
191.869262
 20
366.984256
 30
0.0
 11
194.969262
 21
370.084256
 31
0.0
  0
LINE
  5
19C
330
17E
100
AcDbEntity
  8
LC-001-100-D00-0
 62
     7
370
    25
100
AcDbLine
 10
191.869262
 20
371.474385
 30
0.0
 11
194.969262
 21
374.574385
 31
0.0
  0
LINE
  5
19D
330
17E
100
AcDbEntity
  8
LC-001-100-D00-0
 62
     7
370
    25
100
AcDbLine
 10
201.11826
 20
380.723382
 30
0.0
 11
203.469262
 21
383.074385
 31
0.0
  0
LINE
  5
19E
330
17E
100
AcDbEntity
  8
LC-001-100-D00-0
 62
     7
370
    25
100
AcDbLine
 10
191.869262
 20
375.964513
 30
0.0
 11
199.128132
 21
383.223382
 31
0.0
  0
LINE
  5
19F
330
17E
100
AcDbEntity
  8
LC-001-100-D00-0
 62
     7
370
    25
100
AcDbLine
 10
199.969262
 20
384.064513
 30
0.0
 11
200.628132
 21
384.723382
 31
0.0
  0
LINE
  5
1A0
330
17E
100
AcDbEntity
  8
LC-001-100-D00-0
 62
     7
370
    25
100
AcDbLine
 10
191.869262
 20
380.454641
 30
0.0
 11
194.638004
 21
383.223382
 31
0.0
  0
ENDBLK
  5
180
330
17E
100
AcDbEntity
  8
0
100
AcDbBlockEnd
  0
BLOCK
  5
1A3
330
1A2
100
AcDbEntity
  8
0
100
AcDbBlockBegin
  2
KLON2
 70
     0
 71
     0
 10
0.0
 20
0.0
 30
0.0
  3
KLON2
  1

  4
KLON2
  0
LINE
  5
1A5
330
1A2
100
AcDbEntity
  8
LC-001-100-D00-0
 62
     7
370
    25
100
AcDbLine
 10
127.450437
 20
230.723382
 30
0.0
 11
127.969262
 21
231.242208
 31
0.0
  0
LINE
  5
1A6
330
1A2
100
AcDbEntity
  8
LC-001-100-D00-0
 62
     7
370
    25
100
AcDbLine
 10
125.178695
 20
232.941768
 30
0.0
 11
127.969262
 21
235.732336
 31
0.0
  0
LINE
  5
1A7
330
1A2
100
AcDbEntity
  8
LC-001-100-D00-0
 62
     7
370
    25
100
AcDbLine
 10
124.969262
 20
237.222464
 30
0.0
 11
127.969262
 21
240.222464
 31
0.0
  0
LINE
  5
1A8
330
1A2
100
AcDbEntity
  8
LC-001-100-D00-0
 62
     7
370
    25
100
AcDbLine
 10
124.969262
 20
241.712592
 30
0.0
 11
127.969262
 21
244.712592
 31
0.0
  0
LINE
  5
1A9
330
1A2
100
AcDbEntity
  8
LC-001-100-D00-0
 62
     7
370
    25
100
AcDbLine
 10
124.969262
 20
246.20272
 30
0.0
 11
127.969262
 21
249.20272
 31
0.0
  0
LINE
  5
1AA
330
1A2
100
AcDbEntity
  8
LC-001-100-D00-0
 62
     7
370
    25
100
AcDbLine
 10
124.969262
 20
250.692848
 30
0.0
 11
127.969262
 21
253.692848
 31
0.0
  0
LINE
  5
1AB
330
1A2
100
AcDbEntity
  8
LC-001-100-D00-0
 62
     7
370
    25
100
AcDbLine
 10
124.969262
 20
255.182976
 30
0.0
 11
127.969262
 21
258.182976
 31
0.0
  0
LINE
  5
1AC
330
1A2
100
AcDbEntity
  8
LC-001-100-D00-0
 62
     7
370
    25
100
AcDbLine
 10
124.969262
 20
259.673104
 30
0.0
 11
127.969262
 21
262.673104
 31
0.0
  0
LINE
  5
1AD
330
1A2
100
AcDbEntity
  8
LC-001-100-D00-0
 62
     7
370
    25
100
AcDbLine
 10
124.969262
 20
264.163232
 30
0.0
 11
127.969262
 21
267.163232
 31
0.0
  0
LINE
  5
1AE
330
1A2
100
AcDbEntity
  8
LC-001-100-D00-0
 62
     7
370
    25
100
AcDbLine
 10
124.969262
 20
268.65336
 30
0.0
 11
127.969262
 21
271.65336
 31
0.0
  0
LINE
  5
1AF
330
1A2
100
AcDbEntity
  8
LC-001-100-D00-0
 62
     7
370
    25
100
AcDbLine
 10
124.969262
 20
273.143488
 30
0.0
 11
127.969262
 21
276.143488
 31
0.0
  0
LINE
  5
1B0
330
1A2
100
AcDbEntity
  8
LC-001-100-D00-0
 62
     7
370
    25
100
AcDbLine
 10
124.969262
 20
277.633616
 30
0.0
 11
127.969262
 21
280.633616
 31
0.0
  0
LINE
  5
1B1
330
1A2
100
AcDbEntity
  8
LC-001-100-D00-0
 62
     7
370
    25
100
AcDbLine
 10
124.969262
 20
282.123744
 30
0.0
 11
127.945527
 21
285.100009
 31
0.0
  0
LINE
  5
1B2
330
1A2
100
AcDbEntity
  8
LC-001-100-D00-0
 62
     7
370
    25
100
AcDbLine
 10
124.024017
 20
285.668627
 30
0.0
 11
126.145337
 21
287.789948
 31
0.0
  0
LINE
  5
1B3
330
1A2
100
AcDbEntity
  8
LC-001-100-D00-0
 62
     7
370
    25
100
AcDbLine
 10
121.778953
 20
287.913691
 30
0.0
 11
123.900273
 21
290.035012
 31
0.0
  0
LINE
  5
1B4
330
1A2
100
AcDbEntity
  8
LC-001-100-D00-0
 62
     7
370
    25
100
AcDbLine
 10
119.533889
 20
290.158755
 30
0.0
 11
121.655209
 21
292.280076
 31
0.0
  0
LINE
  5
1B5
330
1A2
100
AcDbEntity
  8
LC-001-100-D00-0
 62
     7
370
    25
100
AcDbLine
 10
117.288825
 20
292.403819
 30
0.0
 11
119.410145
 21
294.52514
 31
0.0
  0
LINE
  5
1B6
330
1A2
100
AcDbEntity
  8
LC-001-100-D00-0
 62
     7
370
    25
100
AcDbLine
 10
115.043761
 20
294.648883
 30
0.0
 11
117.165081
 21
296.770204
 31
0.0
  0
LINE
  5
1B7
330
1A2
100
AcDbEntity
  8
LC-001-100-D00-0
 62
     7
370
    25
100
AcDbLine
 10
112.798697
 20
296.893947
 30
0.0
 11
114.920017
 21
299.015268
 31
0.0
  0
LINE
  5
1B8
330
1A2
100
AcDbEntity
  8
LC-001-100-D00-0
 62
     7
370
    25
100
AcDbLine
 10
110.553633
 20
299.139011
 30
0.0
 11
112.674953
 21
301.260332
 31
0.0
  0
LINE
  5
1B9
330
1A2
100
AcDbEntity
  8
LC-001-100-D00-0
 62
     7
370
    25
100
AcDbLine
 10
108.308569
 20
301.384075
 30
0.0
 11
110.429889
 21
303.505396
 31
0.0
  0
LINE
  5
1BA
330
1A2
100
AcDbEntity
  8
LC-001-100-D00-0
 62
     7
370
    25
100
AcDbLine
 10
106.30567
 20
303.871304
 30
0.0
 11
108.57859
 21
306.144225
 31
0.0
  0
LINE
  5
1BB
330
1A2
100
AcDbEntity
  8
LC-001-100-D00-0
 62
     7
370
    25
100
AcDbLine
 10
105.114077
 20
307.16984
 30
0.0
 11
108.069262
 21
310.125025
 31
0.0
  0
LINE
  5
1BC
330
1A2
100
AcDbEntity
  8
LC-001-100-D00-0
 62
     7
370
    25
100
AcDbLine
 10
104.969262
 20
311.515153
 30
0.0
 11
108.069262
 21
314.615153
 31
0.0
  0
LINE
  5
1BD
330
1A2
100
AcDbEntity
  8
LC-001-100-D00-0
 62
     7
370
    25
100
AcDbLine
 10
104.969262
 20
316.005281
 30
0.0
 11
108.069262
 21
319.105281
 31
0.0
  0
LINE
  5
1BE
330
1A2
100
AcDbEntity
  8
LC-001-100-D00-0
 62
     7
370
    25
100
AcDbLine
 10
104.969262
 20
320.495409
 30
0.0
 11
108.069262
 21
323.595409
 31
0.0
  0
LINE
  5
1BF
330
1A2
100
AcDbEntity
  8
LC-001-100-D00-0
 62
     7
370
    25
100
AcDbLine
 10
104.969262
 20
324.985537
 30
0.0
 11
108.069262
 21
328.085537
 31
0.0
  0
LINE
  5
1C0
330
1A2
100
AcDbEntity
  8
LC-001-100-D00-0
 62
     7
370
    25
100
AcDbLine
 10
104.969262
 20
329.475665
 30
0.0
 11
108.069262
 21
332.575665
 31
0.0
  0
LINE
  5
1C1
330
1A2
100
AcDbEntity
  8
LC-001-100-D00-0
 62
     7
370
    25
100
AcDbLine
 10
104.969262
 20
333.965793
 30
0.0
 11
108.069262
 21
337.065793
 31
0.0
  0
LINE
  5
1C2
330
1A2
100
AcDbEntity
  8
LC-001-100-D00-0
 62
     7
370
    25
100
AcDbLine
 10
104.969262
 20
338.455921
 30
0.0
 11
108.069262
 21
341.555921
 31
0.0
  0
LINE
  5
1C3
330
1A2
100
AcDbEntity
  8
LC-001-100-D00-0
 62
     7
370
    25
100
AcDbLine
 10
104.969262
 20
342.946049
 30
0.0
 11
108.069262
 21
346.046049
 31
0.0
  0
LINE
  5
1C4
330
1A2
100
AcDbEntity
  8
LC-001-100-D00-0
 62
     7
370
    25
100
AcDbLine
 10
104.969262
 20
347.436177
 30
0.0
 11
108.069262
 21
350.536177
 31
0.0
  0
LINE
  5
1C5
330
1A2
100
AcDbEntity
  8
LC-001-100-D00-0
 62
     7
370
    25
100
AcDbLine
 10
104.969262
 20
351.926305
 30
0.0
 11
108.069262
 21
355.026305
 31
0.0
  0
LINE
  5
1C6
330
1A2
100
AcDbEntity
  8
LC-001-100-D00-0
 62
     7
370
    25
100
AcDbLine
 10
104.969262
 20
356.416434
 30
0.0
 11
108.069262
 21
359.516434
 31
0.0
  0
LINE
  5
1C7
330
1A2
100
AcDbEntity
  8
LC-001-100-D00-0
 62
     7
370
    25
100
AcDbLine
 10
104.969262
 20
360.906562
 30
0.0
 11
108.069262
 21
364.006562
 31
0.0
  0
LINE
  5
1C8
330
1A2
100
AcDbEntity
  8
LC-001-100-D00-0
 62
     7
370
    25
100
AcDbLine
 10
104.969262
 20
365.39669
 30
0.0
 11
108.069262
 21
368.49669
 31
0.0
  0
LINE
  5
1C9
330
1A2
100
AcDbEntity
  8
LC-001-100-D00-0
 62
     7
370
    25
100
AcDbLine
 10
104.969262
 20
369.886818
 30
0.0
 11
108.069262
 21
372.986818
 31
0.0
  0
LINE
  5
1CA
330
1A2
100
AcDbEntity
  8
LC-001-100-D00-0
 62
     7
370
    25
100
AcDbLine
 10
104.969262
 20
374.376946
 30
0.0
 11
108.069262
 21
377.476946
 31
0.0
  0
LINE
  5
1CB
330
1A2
100
AcDbEntity
  8
LC-001-100-D00-0
 62
     7
370
    25
100
AcDbLine
 10
104.897416
 20
378.795228
 30
0.0
 11
107.697416
 21
381.595228
 31
0.0
  0
LINE
  5
1CC
330
1A2
100
AcDbEntity
  8
LC-001-100-D00-0
 62
     7
370
    25
100
AcDbLine
 10
102.335442
 20
380.723382
 30
0.0
 11
104.835442
 21
383.223382
 31
0.0
  0
LINE
  5
1CD
330
1A2
100
AcDbEntity
  8
LC-001-100-D00-0
 62
     7
370
    25
100
AcDbLine
 10
97.845314
 20
380.723382
 30
0.0
 11
100.345314
 21
383.223382
 31
0.0
  0
LINE
  5
1CE
330
1A2
100
AcDbEntity
  8
LC-001-100-D00-0
 62
     7
370
    25
100
AcDbLine
 10
96.469262
 20
383.837458
 30
0.0
 11
97.355186
 21
384.723382
 31
0.0
  0
ENDBLK
  5
1A4
330
1A2
100
AcDbEntity
  8
0
100
AcDbBlockEnd
  0
BLOCK
  5
1D1
330
1D0
100
AcDbEntity
  8
0
100
AcDbBlockBegin
  2
KLON3
 70
     0
 71
     0
 10
0.0
 20
0.0
 30
0.0
  3
KLON3
  1

  4
KLON3
  0
LINE
  5
1D3
330
1D0
100
AcDbEntity
  8
LC-001-100-D00-0
 62
     7
370
    25
100
AcDbLine
 10
173.199455
 20
307.903297
 30
0.0
 11
180.089348
 21
314.79319
 31
0.0
  0
LINE
  5
1D4
330
1D0
100
AcDbEntity
  8
LC-001-100-D00-0
 62
     7
370
    25
100
AcDbLine
 10
168.329412
 20
307.523382
 30
0.0
 11
169.829412
 21
309.023382
 31
0.0
  0
LINE
  5
1D5
330
1D0
100
AcDbEntity
  8
LC-001-100-D00-0
 62
     7
370
    25
100
AcDbLine
 10
178.969262
 20
318.163232
 30
0.0
 11
180.469262
 21
319.663232
 31
0.0
  0
LINE
  5
1D6
330
1D0
100
AcDbEntity
  8
LC-001-100-D00-0
 62
     7
370
    25
100
AcDbLine
 10
163.839284
 20
307.523382
 30
0.0
 11
165.339284
 21
309.023382
 31
0.0
  0
LINE
  5
1D7
330
1D0
100
AcDbEntity
  8
LC-001-100-D00-0
 62
     7
370
    25
100
AcDbLine
 10
178.969262
 20
322.65336
 30
0.0
 11
180.469262
 21
324.15336
 31
0.0
  0
LINE
  5
1D8
330
1D0
100
AcDbEntity
  8
LC-001-100-D00-0
 62
     7
370
    25
100
AcDbLine
 10
159.349156
 20
307.523382
 30
0.0
 11
160.849156
 21
309.023382
 31
0.0
  0
LINE
  5
1D9
330
1D0
100
AcDbEntity
  8
LC-001-100-D00-0
 62
     7
370
    25
100
AcDbLine
 10
178.969262
 20
327.143488
 30
0.0
 11
180.469262
 21
328.643488
 31
0.0
  0
LINE
  5
1DA
330
1D0
100
AcDbEntity
  8
LC-001-100-D00-0
 62
     7
370
    25
100
AcDbLine
 10
154.859028
 20
307.523382
 30
0.0
 11
156.359028
 21
309.023382
 31
0.0
  0
LINE
  5
1DB
330
1D0
100
AcDbEntity
  8
LC-001-100-D00-0
 62
     7
370
    25
100
AcDbLine
 10
178.969262
 20
331.633616
 30
0.0
 11
180.469262
 21
333.133616
 31
0.0
  0
LINE
  5
1DC
330
1D0
100
AcDbEntity
  8
LC-001-100-D00-0
 62
     7
370
    25
100
AcDbLine
 10
150.3689
 20
307.523382
 30
0.0
 11
151.8689
 21
309.023382
 31
0.0
  0
LINE
  5
1DD
330
1D0
100
AcDbEntity
  8
LC-001-100-D00-0
 62
     7
370
    25
100
AcDbLine
 10
178.969262
 20
336.123744
 30
0.0
 11
180.469262
 21
337.623744
 31
0.0
  0
LINE
  5
1DE
330
1D0
100
AcDbEntity
  8
LC-001-100-D00-0
 62
     7
370
    25
100
AcDbLine
 10
145.878772
 20
307.523382
 30
0.0
 11
147.378772
 21
309.023382
 31
0.0
  0
LINE
  5
1DF
330
1D0
100
AcDbEntity
  8
LC-001-100-D00-0
 62
     7
370
    25
100
AcDbLine
 10
178.969262
 20
340.613872
 30
0.0
 11
180.469262
 21
342.113872
 31
0.0
  0
LINE
  5
1E0
330
1D0
100
AcDbEntity
  8
LC-001-100-D00-0
 62
     7
370
    25
100
AcDbLine
 10
141.388644
 20
307.523382
 30
0.0
 11
142.888644
 21
309.023382
 31
0.0
  0
LINE
  5
1E1
330
1D0
100
AcDbEntity
  8
LC-001-100-D00-0
 62
     7
370
    25
100
AcDbLine
 10
178.969262
 20
345.104
 30
0.0
 11
180.469262
 21
346.604
 31
0.0
  0
LINE
  5
1E2
330
1D0
100
AcDbEntity
  8
LC-001-100-D00-0
 62
     7
370
    25
100
AcDbLine
 10
136.898516
 20
307.523382
 30
0.0
 11
138.398516
 21
309.023382
 31
0.0
  0
LINE
  5
1E3
330
1D0
100
AcDbEntity
  8
LC-001-100-D00-0
 62
     7
370
    25
100
AcDbLine
 10
178.969262
 20
349.594128
 30
0.0
 11
180.469262
 21
351.094128
 31
0.0
  0
LINE
  5
1E4
330
1D0
100
AcDbEntity
  8
LC-001-100-D00-0
 62
     7
370
    25
100
AcDbLine
 10
132.408388
 20
307.523382
 30
0.0
 11
133.908388
 21
309.023382
 31
0.0
  0
LINE
  5
1E5
330
1D0
100
AcDbEntity
  8
LC-001-100-D00-0
 62
     7
370
    25
100
AcDbLine
 10
178.969262
 20
354.084256
 30
0.0
 11
180.469262
 21
355.584256
 31
0.0
  0
LINE
  5
1E6
330
1D0
100
AcDbEntity
  8
LC-001-100-D00-0
 62
     7
370
    25
100
AcDbLine
 10
128.023346
 20
307.628468
 30
0.0
 11
129.418412
 21
309.023534
 31
0.0
  0
LINE
  5
1E7
330
1D0
100
AcDbEntity
  8
LC-001-100-D00-0
 62
     7
370
    25
100
AcDbLine
 10
178.969262
 20
358.574385
 30
0.0
 11
180.469262
 21
360.074385
 31
0.0
  0
LINE
  5
1E8
330
1D0
100
AcDbEntity
  8
LC-001-100-D00-0
 62
     7
370
    25
100
AcDbLine
 10
124.660336
 20
308.755587
 30
0.0
 11
125.77359
 21
309.868841
 31
0.0
  0
LINE
  5
1E9
330
1D0
100
AcDbEntity
  8
LC-001-100-D00-0
 62
     7
370
    25
100
AcDbLine
 10
178.969262
 20
363.064513
 30
0.0
 11
180.469262
 21
364.564513
 31
0.0
  0
LINE
  5
1EA
330
1D0
100
AcDbEntity
  8
LC-001-100-D00-0
 62
     7
370
    25
100
AcDbLine
 10
122.137556
 20
310.722935
 30
0.0
 11
123.199098
 21
311.784476
 31
0.0
  0
LINE
  5
1EB
330
1D0
100
AcDbEntity
  8
LC-001-100-D00-0
 62
     7
370
    25
100
AcDbLine
 10
178.969262
 20
367.554641
 30
0.0
 11
181.411633
 21
369.997012
 31
0.0
  0
LINE
  5
1EC
330
1D0
100
AcDbEntity
  8
LC-001-100-D00-0
 62
     7
370
    25
100
AcDbLine
 10
120.348242
 20
313.423749
 30
0.0
 11
121.49767
 21
314.573176
 31
0.0
  0
LINE
  5
1ED
330
1D0
100
AcDbEntity
  8
LC-001-100-D00-0
 62
     7
370
    25
100
AcDbLine
 10
182.333577
 20
375.409083
 30
0.0
 11
185.514744
 21
378.590251
 31
0.0
  0
LINE
  5
1EE
330
1D0
100
AcDbEntity
  8
LC-001-100-D00-0
 62
     7
370
    25
100
AcDbLine
 10
119.48065
 20
317.046284
 30
0.0
 11
120.969262
 21
318.534897
 31
0.0
  0
LINE
  5
1EF
330
1D0
100
AcDbEntity
  8
LC-001-100-D00-0
 62
     7
370
    25
100
AcDbLine
 10
185.969262
 20
383.534897
 30
0.0
 11
188.957748
 21
386.523382
 31
0.0
  0
LINE
  5
1F0
330
1D0
100
AcDbEntity
  8
LC-001-100-D00-0
 62
     7
370
    25
100
AcDbLine
 10
119.469262
 20
321.525025
 30
0.0
 11
120.969262
 21
323.025025
 31
0.0
  0
LINE
  5
1F1
330
1D0
100
AcDbEntity
  8
LC-001-100-D00-0
 62
     7
370
    25
100
AcDbLine
 10
119.469262
 20
326.015153
 30
0.0
 11
120.969262
 21
327.515153
 31
0.0
  0
LINE
  5
1F2
330
1D0
100
AcDbEntity
  8
LC-001-100-D00-0
 62
     7
370
    25
100
AcDbLine
 10
119.469262
 20
330.505281
 30
0.0
 11
120.969262
 21
332.005281
 31
0.0
  0
LINE
  5
1F3
330
1D0
100
AcDbEntity
  8
LC-001-100-D00-0
 62
     7
370
    25
100
AcDbLine
 10
119.469262
 20
334.995409
 30
0.0
 11
120.969262
 21
336.495409
 31
0.0
  0
LINE
  5
1F4
330
1D0
100
AcDbEntity
  8
LC-001-100-D00-0
 62
     7
370
    25
100
AcDbLine
 10
119.469262
 20
339.485537
 30
0.0
 11
120.969262
 21
340.985537
 31
0.0
  0
LINE
  5
1F5
330
1D0
100
AcDbEntity
  8
LC-001-100-D00-0
 62
     7
370
    25
100
AcDbLine
 10
119.469262
 20
343.975665
 30
0.0
 11
120.969262
 21
345.475665
 31
0.0
  0
LINE
  5
1F6
330
1D0
100
AcDbEntity
  8
LC-001-100-D00-0
 62
     7
370
    25
100
AcDbLine
 10
119.469262
 20
348.465793
 30
0.0
 11
120.969262
 21
349.965793
 31
0.0
  0
LINE
  5
1F7
330
1D0
100
AcDbEntity
  8
LC-001-100-D00-0
 62
     7
370
    25
100
AcDbLine
 10
119.469262
 20
352.955921
 30
0.0
 11
120.969262
 21
354.455921
 31
0.0
  0
LINE
  5
1F8
330
1D0
100
AcDbEntity
  8
LC-001-100-D00-0
 62
     7
370
    25
100
AcDbLine
 10
119.469262
 20
357.446049
 30
0.0
 11
120.969262
 21
358.946049
 31
0.0
  0
LINE
  5
1F9
330
1D0
100
AcDbEntity
  8
LC-001-100-D00-0
 62
     7
370
    25
100
AcDbLine
 10
119.469262
 20
361.936177
 30
0.0
 11
120.969262
 21
363.436177
 31
0.0
  0
LINE
  5
1FA
330
1D0
100
AcDbEntity
  8
LC-001-100-D00-0
 62
     7
370
    25
100
AcDbLine
 10
119.469262
 20
366.426305
 30
0.0
 11
120.969262
 21
367.926305
 31
0.0
  0
LINE
  5
1FB
330
1D0
100
AcDbEntity
  8
LC-001-100-D00-0
 62
     7
370
    25
100
AcDbLine
 10
118.534308
 20
369.981479
 30
0.0
 11
119.659343
 21
371.106515
 31
0.0
  0
LINE
  5
1FC
330
1D0
100
AcDbEntity
  8
LC-001-100-D00-0
 62
     7
370
    25
100
AcDbLine
 10
117.083222
 20
373.020521
 30
0.0
 11
118.208258
 21
374.145557
 31
0.0
  0
LINE
  5
1FD
330
1D0
100
AcDbEntity
  8
LC-001-100-D00-0
 62
     7
370
    25
100
AcDbLine
 10
115.632136
 20
376.059563
 30
0.0
 11
116.757172
 21
377.184599
 31
0.0
  0
LINE
  5
1FE
330
1D0
100
AcDbEntity
  8
LC-001-100-D00-0
 62
     7
370
    25
100
AcDbLine
 10
114.18105
 20
379.098606
 30
0.0
 11
115.306086
 21
380.223642
 31
0.0
  0
LINE
  5
1FF
330
1D0
100
AcDbEntity
  8
LC-001-100-D00-0
 62
     7
370
    25
100
AcDbLine
 10
112.729964
 20
382.137648
 30
0.0
 11
113.969262
 21
383.376946
 31
0.0
  0
LINE
  5
200
330
1D0
100
AcDbEntity
  8
LC-001-100-D00-0
 62
     7
370
    25
100
AcDbLine
 10
111.12557
 20
385.023382
 30
0.0
 11
112.62557
 21
386.523382
 31
0.0
  0
ENDBLK
  5
1D2
330
1D0
100
AcDbEntity
  8
0
100
AcDbBlockEnd
  0
BLOCK
  5
203
330
202
100
AcDbEntity
  8
0
100
AcDbBlockBegin
  2
KLON4
 70
     0
 71
     0
 10
0.0
 20
0.0
 30
0.0
  3
KLON4
  1

  4
KLON4
  0
LINE
  5
205
330
202
100
AcDbEntity
  8
LC-001-100-D00-0
 62
     7
370
    25
100
AcDbLine
 10
131.969262
 20
352.964568
 30
0.0
 11
130.969262
 21
353.964568
 31
0.0
  0
LINE
  5
206
330
202
100
AcDbEntity
  8
LC-001-100-D00-0
 62
     7
370
    25
100
AcDbLine
 10
131.969262
 20
326.0238
 30
0.0
 11
130.969262
 21
327.0238
 31
0.0
  0
LINE
  5
207
330
202
100
AcDbEntity
  8
LC-001-100-D00-0
 62
     7
370
    25
100
AcDbLine
 10
131.969262
 20
357.454698
 30
0.0
 11
130.969262
 21
358.454698
 31
0.0
  0
LINE
  5
208
330
202
100
AcDbEntity
  8
LC-001-100-D00-0
 62
     7
370
    25
100
AcDbLine
 10
131.969262
 20
330.51393
 30
0.0
 11
130.969262
 21
331.51393
 31
0.0
  0
LINE
  5
209
330
202
100
AcDbEntity
  8
LC-001-100-D00-0
 62
     7
370
    25
100
AcDbLine
 10
131.969262
 20
361.944828
 30
0.0
 11
130.969262
 21
362.944828
 31
0.0
  0
LINE
  5
20A
330
202
100
AcDbEntity
  8
LC-001-100-D00-0
 62
     7
370
    25
100
AcDbLine
 10
131.969262
 20
335.00406
 30
0.0
 11
130.969262
 21
336.00406
 31
0.0
  0
LINE
  5
20B
330
202
100
AcDbEntity
  8
LC-001-100-D00-0
 62
     7
370
    25
100
AcDbLine
 10
131.969262
 20
366.434968
 30
0.0
 11
130.969262
 21
367.434968
 31
0.0
  0
LINE
  5
20C
330
202
100
AcDbEntity
  8
LC-001-100-D00-0
 62
     7
370
    25
100
AcDbLine
 10
115.380848
 20
383.023382
 30
0.0
 11
114.469262
 21
383.934968
 31
0.0
  0
LINE
  5
20D
330
202
100
AcDbEntity
  8
LC-001-100-D00-0
 62
     7
370
    25
100
AcDbLine
 10
111.880848
 20
386.523382
 30
0.0
 11
110.469262
 21
387.934968
 31
0.0
  0
LINE
  5
20E
330
202
100
AcDbEntity
  8
LC-001-100-D00-0
 62
     7
370
    25
100
AcDbLine
 10
131.969262
 20
339.4942
 30
0.0
 11
130.969262
 21
340.4942
 31
0.0
  0
ENDBLK
  5
204
330
202
100
AcDbEntity
  8
0
100
AcDbBlockEnd
  0
BLOCK
  5
211
330
210
100
AcDbEntity
  8
0
100
AcDbBlockBegin
  2
KLON5
 70
     0
 71
     0
 10
0.0
 20
0.0
 30
0.0
  3
KLON5
  1

  4
KLON5
  0
LINE
  5
213
330
210
100
AcDbEntity
  8
LC-001-100-D00-0
 62
     7
370
    25
100
AcDbLine
 10
182.732753
 20
383.023382
 30
0.0
 11
181.732753
 21
384.023382
 31
0.0
  0
LINE
  5
214
330
210
100
AcDbEntity
  8
LC-001-100-D00-0
 62
     7
370
    25
100
AcDbLine
 10
168.969262
 20
369.846105
 30
0.0
 11
167.969262
 21
370.846105
 31
0.0
  0
LINE
  5
215
330
210
100
AcDbEntity
  8
LC-001-100-D00-0
 62
     7
370
    25
100
AcDbLine
 10
168.969262
 20
342.905337
 30
0.0
 11
167.969262
 21
343.905337
 31
0.0
  0
LINE
  5
216
330
210
100
AcDbEntity
  8
LC-001-100-D00-0
 62
     7
370
    25
100
AcDbLine
 10
185.469262
 20
384.777003
 30
0.0
 11
183.469262
 21
386.777003
 31
0.0
  0
LINE
  5
217
330
210
100
AcDbEntity
  8
LC-001-100-D00-0
 62
     7
370
    25
100
AcDbLine
 10
169.173296
 20
374.132201
 30
0.0
 11
168.336425
 21
374.969073
 31
0.0
  0
LINE
  5
218
330
210
100
AcDbEntity
  8
LC-001-100-D00-0
 62
     7
370
    25
100
AcDbLine
 10
168.969262
 20
347.395467
 30
0.0
 11
167.969262
 21
348.395467
 31
0.0
  0
LINE
  5
219
330
210
100
AcDbEntity
  8
LC-001-100-D00-0
 62
     7
370
    25
100
AcDbLine
 10
168.969262
 20
320.454698
 30
0.0
 11
167.969262
 21
321.454698
 31
0.0
  0
LINE
  5
21A
330
210
100
AcDbEntity
  8
LC-001-100-D00-0
 62
     7
370
    25
100
AcDbLine
 10
188.213013
 20
386.523382
 30
0.0
 11
183.482581
 21
391.253814
 31
0.0
  0
LINE
  5
21B
330
210
100
AcDbEntity
  8
LC-001-100-D00-0
 62
     7
370
    25
100
AcDbLine
 10
170.38101
 20
377.414617
 30
0.0
 11
169.649059
 21
378.146568
 31
0.0
  0
LINE
  5
21C
330
210
100
AcDbEntity
  8
LC-001-100-D00-0
 62
     7
370
    25
100
AcDbLine
 10
168.969262
 20
351.885597
 30
0.0
 11
167.969262
 21
352.885597
 31
0.0
  0
LINE
  5
21D
330
210
100
AcDbEntity
  8
LC-001-100-D00-0
 62
     7
370
    25
100
AcDbLine
 10
168.969262
 20
324.944828
 30
0.0
 11
167.969262
 21
325.944828
 31
0.0
  0
LINE
  5
21E
330
210
100
AcDbEntity
  8
LC-001-100-D00-0
 62
     7
370
    25
100
AcDbLine
 10
188.203153
 20
391.023382
 30
0.0
 11
186.203153
 21
393.023382
 31
0.0
  0
LINE
  5
21F
330
210
100
AcDbEntity
  8
LC-001-100-D00-0
 62
     7
370
    25
100
AcDbLine
 10
172.33903
 20
379.946737
 30
0.0
 11
171.631808
 21
380.653959
 31
0.0
  0
LINE
  5
220
330
210
100
AcDbEntity
  8
LC-001-100-D00-0
 62
     7
370
    25
100
AcDbLine
 10
168.969262
 20
356.375737
 30
0.0
 11
167.969262
 21
357.375737
 31
0.0
  0
LINE
  5
221
330
210
100
AcDbEntity
  8
LC-001-100-D00-0
 62
     7
370
    25
100
AcDbLine
 10
168.969262
 20
329.434968
 30
0.0
 11
167.969262
 21
330.434968
 31
0.0
  0
ENDBLK
  5
212
330
210
100
AcDbEntity
  8
0
100
AcDbBlockEnd
  0
BLOCK
  5
225
330
224
100
AcDbEntity
  8
0
100
AcDbBlockBegin
  2
KLON6
 70
     0
 71
     0
 10
0.0
 20
0.0
 30
0.0
  3
KLON6
  1

  4
KLON6
  0
LINE
  5
227
330
224
100
AcDbEntity
  8
LC-001-100-D00-0
 62
     7
370
    50
100
AcDbLine
 10
101.710448
 20
383.223382
 30
0.0
 11
100.469262
 21
384.464568
 31
0.0
  0
LINE
  5
228
330
224
100
AcDbEntity
  8
LC-001-100-D00-0
 62
     7
370
    50
100
AcDbLine
 10
100.210448
 20
384.723382
 30
0.0
 11
93.969262
 21
390.964568
 31
0.0
  0
LINE
  5
229
330
224
100
AcDbEntity
  8
LC-001-100-D00-0
 62
     7
370
    50
100
AcDbLine
 10
102.969262
 20
386.454698
 30
0.0
 11
101.955853
 21
387.468107
 31
0.0
  0
LINE
  5
22A
330
224
100
AcDbEntity
  8
LC-001-100-D00-0
 62
     7
370
    50
100
AcDbLine
 10
101.287252
 20
388.136708
 30
0.0
 11
101.223803
 21
388.200158
 31
0.0
  0
ENDBLK
  5
226
330
224
100
AcDbEntity
  8
0
100
AcDbBlockEnd
  0
BLOCK
  5
22D
330
22C
100
AcDbEntity
  8
0
100
AcDbBlockBegin
  2
KLON7
 70
     0
 71
     0
 10
0.0
 20
0.0
 30
0.0
  3
KLON7
  1

  4
KLON7
  0
LINE
  5
22F
330
22C
100
AcDbEntity
  8
LC-001-100-D00-0
 62
     7
370
    50
100
AcDbLine
 10
205.969262
 20
386.727642
 30
0.0
 11
203.471392
 21
389.225512
 31
0.0
  0
LINE
  5
230
330
22C
100
AcDbEntity
  8
LC-001-100-D00-0
 62
     7
370
    50
100
AcDbLine
 10
205.969262
 20
391.217772
 30
0.0
 11
205.716457
 21
391.470577
 31
0.0
  0
ENDBLK
  5
22E
330
22C
100
AcDbEntity
  8
0
100
AcDbBlockEnd
  0
BLOCK
  5
233
330
232
100
AcDbEntity
  8
0
100
AcDbBlockBegin
  2
KLON8
 70
     0
 71
     0
 10
0.0
 20
0.0
 30
0.0
  3
KLON8
  1

  4
KLON8
  0
LINE
  5
235
330
232
100
AcDbEntity
  8
LC-001-100-D00-0
 62
     7
370
    25
100
AcDbLine
 10
191.0689
 20
348.223382
 30
0.0
 11
192.969262
 21
350.123744
 31
0.0
  0
LINE
  5
236
330
232
100
AcDbEntity
  8
LC-001-100-D00-0
 62
     7
370
    25
100
AcDbLine
 10
190.119262
 20
351.763872
 30
0.0
 11
192.969262
 21
354.613872
 31
0.0
  0
LINE
  5
237
330
232
100
AcDbEntity
  8
LC-001-100-D00-0
 62
     7
370
    25
100
AcDbLine
 10
190.119262
 20
356.254
 30
0.0
 11
192.969262
 21
359.104
 31
0.0
  0
LINE
  5
238
330
232
100
AcDbEntity
  8
LC-001-100-D00-0
 62
     7
370
    25
100
AcDbLine
 10
190.119262
 20
360.744128
 30
0.0
 11
192.969262
 21
363.594128
 31
0.0
  0
LINE
  5
239
330
232
100
AcDbEntity
  8
LC-001-100-D00-0
 62
     7
370
    25
100
AcDbLine
 10
188.108388
 20
363.223382
 30
0.0
 11
192.969262
 21
368.084256
 31
0.0
  0
LINE
  5
23A
330
232
100
AcDbEntity
  8
LC-001-100-D00-0
 62
     7
370
    25
100
AcDbLine
 10
187.469262
 20
367.074385
 30
0.0
 11
192.969262
 21
372.574385
 31
0.0
  0
LINE
  5
23B
330
232
100
AcDbEntity
  8
LC-001-100-D00-0
 62
     7
370
    25
100
AcDbLine
 10
187.469262
 20
371.564513
 30
0.0
 11
192.969262
 21
377.064513
 31
0.0
  0
LINE
  5
23C
330
232
100
AcDbEntity
  8
LC-001-100-D00-0
 62
     7
370
    25
100
AcDbLine
 10
187.469262
 20
376.054641
 30
0.0
 11
192.969262
 21
381.554641
 31
0.0
  0
LINE
  5
23D
330
232
100
AcDbEntity
  8
LC-001-100-D00-0
 62
     7
370
    25
100
AcDbLine
 10
202.137998
 20
390.723376
 30
0.0
 11
203.445513
 21
392.030892
 31
0.0
  0
LINE
  5
23E
330
232
100
AcDbEntity
  8
LC-001-100-D00-0
 62
     7
370
    25
100
AcDbLine
 10
187.719262
 20
380.794769
 30
0.0
 11
192.969262
 21
386.044769
 31
0.0
  0
LINE
  5
23F
330
232
100
AcDbEntity
  8
LC-001-100-D00-0
 62
     7
370
    25
100
AcDbLine
 10
197.64787
 20
390.723376
 30
0.0
 11
199.6474
 21
392.722907
 31
0.0
  0
LINE
  5
240
330
232
100
AcDbEntity
  8
LC-001-100-D00-0
 62
     7
370
    25
100
AcDbLine
 10
190.119262
 20
387.684897
 30
0.0
 11
192.969262
 21
390.534897
 31
0.0
  0
LINE
  5
241
330
232
100
AcDbEntity
  8
LC-001-100-D00-0
 62
     7
370
    25
100
AcDbLine
 10
193.157742
 20
390.723376
 30
0.0
 11
195.568968
 21
393.134602
 31
0.0
  0
LINE
  5
242
330
232
100
AcDbEntity
  8
LC-001-100-D00-0
 62
     7
370
    25
100
AcDbLine
 10
190.119262
 20
392.175025
 30
0.0
 11
191.167619
 21
393.223382
 31
0.0
  0
ENDBLK
  5
234
330
232
100
AcDbEntity
  8
0
100
AcDbBlockEnd
  0
BLOCK
  5
245
330
244
100
AcDbEntity
  8
0
100
AcDbBlockBegin
  2
KLON9
 70
     0
 71
     0
 10
0.0
 20
0.0
 30
0.0
  3
KLON9
  1

  4
KLON9
  0
LINE
  5
247
330
244
100
AcDbEntity
  8
LC-001-100-D00-0
 62
     7
370
    25
100
AcDbLine
 10
107.112865
 20
349.57978
 30
0.0
 11
109.819262
 21
352.286177
 31
0.0
  0
LINE
  5
248
330
244
100
AcDbEntity
  8
LC-001-100-D00-0
 62
     7
370
    25
100
AcDbLine
 10
106.969262
 20
353.926305
 30
0.0
 11
109.819262
 21
356.776305
 31
0.0
  0
LINE
  5
249
330
244
100
AcDbEntity
  8
LC-001-100-D00-0
 62
     7
370
    25
100
AcDbLine
 10
106.969262
 20
358.416434
 30
0.0
 11
109.819262
 21
361.266434
 31
0.0
  0
LINE
  5
24A
330
244
100
AcDbEntity
  8
LC-001-100-D00-0
 62
     7
370
    25
100
AcDbLine
 10
111.776211
 20
363.223382
 30
0.0
 11
112.469262
 21
363.916434
 31
0.0
  0
LINE
  5
24B
330
244
100
AcDbEntity
  8
LC-001-100-D00-0
 62
     7
370
    25
100
AcDbLine
 10
106.969262
 20
362.906562
 30
0.0
 11
112.469262
 21
368.406562
 31
0.0
  0
LINE
  5
24C
330
244
100
AcDbEntity
  8
LC-001-100-D00-0
 62
     7
370
    25
100
AcDbLine
 10
106.969262
 20
367.39669
 30
0.0
 11
112.469262
 21
372.89669
 31
0.0
  0
LINE
  5
24D
330
244
100
AcDbEntity
  8
LC-001-100-D00-0
 62
     7
370
    25
100
AcDbLine
 10
106.969262
 20
371.886818
 30
0.0
 11
112.469262
 21
377.386818
 31
0.0
  0
LINE
  5
24E
330
244
100
AcDbEntity
  8
LC-001-100-D00-0
 62
     7
370
    25
100
AcDbLine
 10
106.969262
 20
376.376946
 30
0.0
 11
112.219262
 21
381.626946
 31
0.0
  0
LINE
  5
24F
330
244
100
AcDbEntity
  8
LC-001-100-D00-0
 62
     7
370
    25
100
AcDbLine
 10
106.969262
 20
380.867074
 30
0.0
 11
111.12557
 21
385.023382
 31
0.0
  0
LINE
  5
250
330
244
100
AcDbEntity
  8
LC-001-100-D00-0
 62
     7
370
    25
100
AcDbLine
 10
106.969262
 20
385.357202
 30
0.0
 11
109.819262
 21
388.207202
 31
0.0
  0
LINE
  5
251
330
244
100
AcDbEntity
  8
LC-001-100-D00-0
 62
     7
370
    25
100
AcDbLine
 10
106.969262
 20
389.84733
 30
0.0
 11
109.738655
 21
392.616723
 31
0.0
  0
LINE
  5
252
330
244
100
AcDbEntity
  8
LC-001-100-D00-0
 62
     7
370
    25
100
AcDbLine
 10
103.35518
 20
390.723376
 30
0.0
 11
105.83221
 21
393.200406
 31
0.0
  0
LINE
  5
253
330
244
100
AcDbEntity
  8
LC-001-100-D00-0
 62
     7
370
    25
100
AcDbLine
 10
98.865052
 20
390.723376
 30
0.0
 11
100.954646
 21
392.81297
 31
0.0
  0
LINE
  5
254
330
244
100
AcDbEntity
  8
LC-001-100-D00-0
 62
     7
370
    25
100
AcDbLine
 10
94.969262
 20
391.317714
 30
0.0
 11
95.435057
 21
391.783509
 31
0.0
  0
ENDBLK
  5
246
330
244
100
AcDbEntity
  8
0
100
AcDbBlockEnd
  0
BLOCK
  5
257
330
256
100
AcDbEntity
  8
0
100
AcDbBlockBegin
  2
KLON10
 70
     0
 71
     0
 10
0.0
 20
0.0
 30
0.0
  3
KLON10
  1

  4
KLON10
  0
LINE
  5
259
330
256
100
AcDbEntity
  8
LC-001-100-D00-0
 62
     7
370
    25
100
AcDbLine
 10
199.647556
 20
392.723062
 30
0.0
 11
202.646517
 21
395.722023
 31
0.0
  0
LINE
  5
25A
330
256
100
AcDbEntity
  8
LC-001-100-D00-0
 62
     7
370
    25
100
AcDbLine
 10
195.569038
 20
393.134673
 30
0.0
 11
205.043485
 21
402.60912
 31
0.0
  0
LINE
  5
25B
330
256
100
AcDbEntity
  8
LC-001-100-D00-0
 62
     7
370
    25
100
AcDbLine
 10
182.673017
 20
384.728779
 30
0.0
 11
183.563865
 21
385.619628
 31
0.0
  0
LINE
  5
25C
330
256
100
AcDbEntity
  8
LC-001-100-D00-0
 62
     7
370
    25
100
AcDbLine
 10
191.167619
 20
393.223382
 30
0.0
 11
200.667619
 21
402.723382
 31
0.0
  0
LINE
  5
25D
330
256
100
AcDbEntity
  8
LC-001-100-D00-0
 62
     7
370
    25
100
AcDbLine
 10
178.177491
 20
384.723382
 30
0.0
 11
183.569262
 21
390.115153
 31
0.0
  0
LINE
  5
25E
330
256
100
AcDbEntity
  8
LC-001-100-D00-0
 62
     7
370
    25
100
AcDbLine
 10
186.677491
 20
393.223382
 30
0.0
 11
196.177491
 21
402.723382
 31
0.0
  0
LINE
  5
25F
330
256
100
AcDbEntity
  8
LC-001-100-D00-0
 62
     7
370
    25
100
AcDbLine
 10
176.93512
 20
387.971139
 30
0.0
 11
191.687363
 21
402.723382
 31
0.0
  0
LINE
  5
260
330
256
100
AcDbEntity
  8
LC-001-100-D00-0
 62
     7
370
    25
100
AcDbLine
 10
176.573889
 20
392.100035
 30
0.0
 11
187.197235
 21
402.723382
 31
0.0
  0
LINE
  5
261
330
256
100
AcDbEntity
  8
LC-001-100-D00-0
 62
     7
370
    25
100
AcDbLine
 10
176.212657
 20
396.228932
 30
0.0
 11
182.707107
 21
402.723382
 31
0.0
  0
LINE
  5
262
330
256
100
AcDbEntity
  8
LC-001-100-D00-0
 62
     7
370
    25
100
AcDbLine
 10
175.716979
 20
400.223382
 30
0.0
 11
179.520318
 21
404.026722
 31
0.0
  0
LINE
  5
263
330
256
100
AcDbEntity
  8
LC-001-100-D00-0
 62
     7
370
    25
100
AcDbLine
 10
171.226851
 20
400.223382
 30
0.0
 11
173.726851
 21
402.723382
 31
0.0
  0
LINE
  5
264
330
256
100
AcDbEntity
  8
LC-001-100-D00-0
 62
     7
370
    25
100
AcDbLine
 10
166.736723
 20
400.223382
 30
0.0
 11
169.236723
 21
402.723382
 31
0.0
  0
LINE
  5
265
330
256
100
AcDbEntity
  8
LC-001-100-D00-0
 62
     7
370
    25
100
AcDbLine
 10
162.246595
 20
400.223382
 30
0.0
 11
164.746595
 21
402.723382
 31
0.0
  0
LINE
  5
266
330
256
100
AcDbEntity
  8
LC-001-100-D00-0
 62
     7
370
    25
100
AcDbLine
 10
157.756467
 20
400.223382
 30
0.0
 11
160.256467
 21
402.723382
 31
0.0
  0
LINE
  5
267
330
256
100
AcDbEntity
  8
LC-001-100-D00-0
 62
     7
370
    25
100
AcDbLine
 10
148.668546
 20
395.625589
 30
0.0
 11
151.33582
 21
398.292864
 31
0.0
  0
LINE
  5
268
330
256
100
AcDbEntity
  8
LC-001-100-D00-0
 62
     7
370
    25
100
AcDbLine
 10
153.266339
 20
400.223382
 30
0.0
 11
155.766339
 21
402.723382
 31
0.0
  0
LINE
  5
269
330
256
100
AcDbEntity
  8
LC-001-100-D00-0
 62
     7
370
    25
100
AcDbLine
 10
148.560376
 20
400.007548
 30
0.0
 11
151.276211
 21
402.723382
 31
0.0
  0
LINE
  5
26A
330
256
100
AcDbEntity
  8
LC-001-100-D00-0
 62
     7
370
    25
100
AcDbLine
 10
144.286083
 20
400.223382
 30
0.0
 11
146.786083
 21
402.723382
 31
0.0
  0
LINE
  5
26B
330
256
100
AcDbEntity
  8
LC-001-100-D00-0
 62
     7
370
    25
100
AcDbLine
 10
139.795955
 20
400.223382
 30
0.0
 11
142.295955
 21
402.723382
 31
0.0
  0
LINE
  5
26C
330
256
100
AcDbEntity
  8
LC-001-100-D00-0
 62
     7
370
    25
100
AcDbLine
 10
119.805827
 20
384.723382
 30
0.0
 11
122.998593
 21
387.916149
 31
0.0
  0
LINE
  5
26D
330
256
100
AcDbEntity
  8
LC-001-100-D00-0
 62
     7
370
    25
100
AcDbLine
 10
135.305827
 20
400.223382
 30
0.0
 11
137.805827
 21
402.723382
 31
0.0
  0
LINE
  5
26E
330
256
100
AcDbEntity
  8
LC-001-100-D00-0
 62
     7
370
    25
100
AcDbLine
 10
116.369262
 20
385.776946
 30
0.0
 11
123.429092
 21
392.836776
 31
0.0
  0
LINE
  5
26F
330
256
100
AcDbEntity
  8
LC-001-100-D00-0
 62
     7
370
    25
100
AcDbLine
 10
130.815699
 20
400.223382
 30
0.0
 11
133.315699
 21
402.723382
 31
0.0
  0
LINE
  5
270
330
256
100
AcDbEntity
  8
LC-001-100-D00-0
 62
     7
370
    25
100
AcDbLine
 10
116.369262
 20
390.267074
 30
0.0
 11
123.859591
 21
397.757403
 31
0.0
  0
LINE
  5
271
330
256
100
AcDbEntity
  8
LC-001-100-D00-0
 62
     7
370
    25
100
AcDbLine
 10
126.32557
 20
400.223382
 30
0.0
 11
128.82557
 21
402.723382
 31
0.0
  0
LINE
  5
272
330
256
100
AcDbEntity
  8
LC-001-100-D00-0
 62
     7
370
    25
100
AcDbLine
 10
114.835442
 20
393.223382
 30
0.0
 11
124.335442
 21
402.723382
 31
0.0
  0
LINE
  5
273
330
256
100
AcDbEntity
  8
LC-001-100-D00-0
 62
     7
370
    25
100
AcDbLine
 10
110.345314
 20
393.223382
 30
0.0
 11
119.845314
 21
402.723382
 31
0.0
  0
LINE
  5
274
330
256
100
AcDbEntity
  8
LC-001-100-D00-0
 62
     7
370
    25
100
AcDbLine
 10
119.969262
 20
402.84733
 30
0.0
 11
121.176353
 21
404.05442
 31
0.0
  0
LINE
  5
275
330
256
100
AcDbEntity
  8
LC-001-100-D00-0
 62
     7
370
    25
100
AcDbLine
 10
105.832249
 20
393.200445
 30
0.0
 11
115.355186
 21
402.723382
 31
0.0
  0
LINE
  5
276
330
256
100
AcDbEntity
  8
LC-001-100-D00-0
 62
     7
370
    25
100
AcDbLine
 10
100.954831
 20
392.813155
 30
0.0
 11
110.865058
 21
402.723382
 31
0.0
  0
LINE
  5
277
330
256
100
AcDbEntity
  8
LC-001-100-D00-0
 62
     7
370
    25
100
AcDbLine
 10
97.975154
 20
394.323606
 30
0.0
 11
106.469262
 21
402.817714
 31
0.0
  0
LINE
  5
278
330
256
100
AcDbEntity
  8
LC-001-100-D00-0
 62
     7
370
    25
100
AcDbLine
 10
96.501544
 20
397.340124
 30
0.0
 11
101.884802
 21
402.723382
 31
0.0
  0
LINE
  5
279
330
256
100
AcDbEntity
  8
LC-001-100-D00-0
 62
     7
370
    25
100
AcDbLine
 10
94.469262
 20
399.79797
 30
0.0
 11
97.394674
 21
402.723382
 31
0.0
  0
ENDBLK
  5
258
330
256
100
AcDbEntity
  8
0
100
AcDbBlockEnd
  0
BLOCK
  5
27C
330
27B
100
AcDbEntity
  8
0
100
AcDbBlockBegin
  2
KLON11
 70
     0
 71
     0
 10
0.0
 20
0.0
 30
0.0
  3
KLON11
  1

  4
KLON11
  0
LINE
  5
27E
330
27B
100
AcDbEntity
  8
LC-001-100-D00-0
 62
     7
370
    25
100
AcDbLine
 10
206.469506
 20
399.697783
 30
0.0
 11
205.951605
 21
400.215684
 31
0.0
  0
LINE
  5
27F
330
27B
100
AcDbEntity
  8
LC-001-100-D00-0
 62
     7
370
    25
100
AcDbLine
 10
203.381155
 20
402.786133
 30
0.0
 11
202.629637
 21
403.537651
 31
0.0
  0
LINE
  5
280
330
27B
100
AcDbEntity
  8
LC-001-100-D00-0
 62
     7
370
    25
100
AcDbLine
 10
198.584126
 20
403.093034
 30
0.0
 11
197.837719
 21
403.839441
 31
0.0
  0
LINE
  5
281
330
27B
100
AcDbEntity
  8
LC-001-100-D00-0
 62
     7
370
    25
100
AcDbLine
 10
193.817742
 20
403.36929
 30
0.0
 11
193.076317
 21
404.110715
 31
0.0
  0
LINE
  5
282
330
27B
100
AcDbEntity
  8
LC-001-100-D00-0
 62
     7
370
    25
100
AcDbLine
 10
189.081392
 20
403.615512
 30
0.0
 11
188.344825
 21
404.352079
 31
0.0
  0
LINE
  5
283
330
27B
100
AcDbEntity
  8
LC-001-100-D00-0
 62
     7
370
    25
100
AcDbLine
 10
184.374488
 20
403.832288
 30
0.0
 11
183.64266
 21
404.564116
 31
0.0
  0
LINE
  5
284
330
27B
100
AcDbEntity
  8
LC-001-100-D00-0
 62
     7
370
    25
100
AcDbLine
 10
179.696465
 20
404.020183
 30
0.0
 11
178.969261
 21
404.747387
 31
0.0
  0
LINE
  5
285
330
27B
100
AcDbEntity
  8
LC-001-100-D00-0
 62
     7
370
    25
100
AcDbLine
 10
175.046778
 20
404.179742
 30
0.0
 11
174.324086
 21
404.902434
 31
0.0
  0
LINE
  5
286
330
27B
100
AcDbEntity
  8
LC-001-100-D00-0
 62
     7
370
    25
100
AcDbLine
 10
170.424901
 20
404.311491
 30
0.0
 11
169.706615
 21
405.029777
 31
0.0
  0
LINE
  5
287
330
27B
100
AcDbEntity
  8
LC-001-100-D00-0
 62
     7
370
    25
100
AcDbLine
 10
165.830327
 20
404.415937
 30
0.0
 11
165.116344
 21
405.129919
 31
0.0
  0
LINE
  5
288
330
27B
100
AcDbEntity
  8
LC-001-100-D00-0
 62
     7
370
    25
100
AcDbLine
 10
161.262569
 20
404.493567
 30
0.0
 11
160.55279
 21
405.203346
 31
0.0
  0
LINE
  5
289
330
27B
100
AcDbEntity
  8
LC-001-100-D00-0
 62
     7
370
    25
100
AcDbLine
 10
156.721154
 20
404.544853
 30
0.0
 11
156.015482
 21
405.250525
 31
0.0
  0
LINE
  5
28A
330
27B
100
AcDbEntity
  8
LC-001-100-D00-0
 62
     7
370
    25
100
AcDbLine
 10
152.205627
 20
404.570252
 30
0.0
 11
151.50397
 21
405.27191
 31
0.0
  0
LINE
  5
28B
330
27B
100
AcDbEntity
  8
LC-001-100-D00-0
 62
     7
370
    25
100
AcDbLine
 10
147.715548
 20
404.570204
 30
0.0
 11
147.017816
 21
405.267936
 31
0.0
  0
LINE
  5
28C
330
27B
100
AcDbEntity
  8
LC-001-100-D00-0
 62
     7
370
    25
100
AcDbLine
 10
143.250491
 20
404.545133
 30
0.0
 11
142.556597
 21
405.239026
 31
0.0
  0
LINE
  5
28D
330
27B
100
AcDbEntity
  8
LC-001-100-D00-0
 62
     7
370
    25
100
AcDbLine
 10
138.810044
 20
404.495451
 30
0.0
 11
138.119905
 21
405.18559
 31
0.0
  0
LINE
  5
28E
330
27B
100
AcDbEntity
  8
LC-001-100-D00-0
 62
     7
370
    25
100
AcDbLine
 10
134.393811
 20
404.421556
 30
0.0
 11
133.707345
 21
405.108022
 31
0.0
  0
LINE
  5
28F
330
27B
100
AcDbEntity
  8
LC-001-100-D00-0
 62
     7
370
    25
100
AcDbLine
 10
130.001405
 20
404.323834
 30
0.0
 11
129.318534
 21
405.006705
 31
0.0
  0
LINE
  5
290
330
27B
100
AcDbEntity
  8
LC-001-100-D00-0
 62
     7
370
    25
100
AcDbLine
 10
125.632453
 20
404.202658
 30
0.0
 11
124.953102
 21
404.88201
 31
0.0
  0
LINE
  5
291
330
27B
100
AcDbEntity
  8
LC-001-100-D00-0
 62
     7
370
    25
100
AcDbLine
 10
121.286595
 20
404.058388
 30
0.0
 11
120.610688
 21
404.734295
 31
0.0
  0
LINE
  5
292
330
27B
100
AcDbEntity
  8
LC-001-100-D00-0
 62
     7
370
    25
100
AcDbLine
 10
116.96348
 20
403.891375
 30
0.0
 11
116.290947
 21
404.563908
 31
0.0
  0
LINE
  5
293
330
27B
100
AcDbEntity
  8
LC-001-100-D00-0
 62
     7
370
    25
100
AcDbLine
 10
112.662768
 20
403.701959
 30
0.0
 11
111.993539
 21
404.371188
 31
0.0
  0
LINE
  5
294
330
27B
100
AcDbEntity
  8
LC-001-100-D00-0
 62
     7
370
    25
100
AcDbLine
 10
108.38413
 20
403.490469
 30
0.0
 11
107.718139
 21
404.15646
 31
0.0
  0
LINE
  5
295
330
27B
100
AcDbEntity
  8
LC-001-100-D00-0
 62
     7
370
    25
100
AcDbLine
 10
104.127248
 20
403.257223
 30
0.0
 11
103.464428
 21
403.920043
 31
0.0
  0
LINE
  5
296
330
27B
100
AcDbEntity
  8
LC-001-100-D00-0
 62
     7
370
    25
100
AcDbLine
 10
99.891811
 20
403.002532
 30
0.0
 11
99.232099
 21
403.662243
 31
0.0
  0
LINE
  5
297
330
27B
100
AcDbEntity
  8
LC-001-100-D00-0
 62
     7
370
    25
100
AcDbLine
 10
95.677518
 20
402.726697
 30
0.0
 11
95.020854
 21
403.383361
 31
0.0
  0
LINE
  5
298
330
27B
100
AcDbEntity
  8
LC-001-100-D00-0
 62
     7
370
    25
100
AcDbLine
 10
94.311238
 20
399.602849
 30
0.0
 11
92.98454
 21
400.929546
 31
0.0
  0
ENDBLK
  5
27D
330
27B
100
AcDbEntity
  8
0
100
AcDbBlockEnd
  0
BLOCK
  5
29B
330
29A
100
AcDbEntity
  8
0
100
AcDbBlockBegin
  2
KLON12
 70
     0
 71
     0
 10
0.0
 20
0.0
 30
0.0
  3
KLON12
  1

  4
KLON12
  0
LINE
  5
29D
330
29A
100
AcDbEntity
  8
LC-001-100-D00-0
 62
     7
370
    25
100
AcDbLine
 10
198.267791
 20
386.85317
 30
0.0
 11
202.137998
 21
390.723376
 31
0.0
  0
LINE
  5
29E
330
29A
100
AcDbEntity
  8
LC-001-100-D00-0
 62
     7
370
    25
100
AcDbLine
 10
195.469262
 20
388.544769
 30
0.0
 11
197.64787
 21
390.723376
 31
0.0
  0
ENDBLK
  5
29C
330
29A
100
AcDbEntity
  8
0
100
AcDbBlockEnd
  0
BLOCK
  5
2A1
330
2A0
100
AcDbEntity
  8
0
100
AcDbBlockBegin
  2
KLON13
 70
     0
 71
     0
 10
0.0
 20
0.0
 30
0.0
  3
KLON13
  1

  4
KLON13
  0
LINE
  5
2A3
330
2A0
100
AcDbEntity
  8
LC-001-100-D00-0
 62
     7
370
    25
100
AcDbLine
 10
103.131644
 20
386.009712
 30
0.0
 11
104.469262
 21
387.34733
 31
0.0
  0
LINE
  5
2A4
330
2A0
100
AcDbEntity
  8
LC-001-100-D00-0
 62
     7
370
    25
100
AcDbLine
 10
100.285017
 20
387.653213
 30
0.0
 11
103.35518
 21
390.723376
 31
0.0
  0
LINE
  5
2A5
330
2A0
100
AcDbEntity
  8
LC-001-100-D00-0
 62
     7
370
    25
100
AcDbLine
 10
97.43839
 20
389.296714
 30
0.0
 11
98.865052
 21
390.723376
 31
0.0
  0
ENDBLK
  5
2A2
330
2A0
100
AcDbEntity
  8
0
100
AcDbBlockEnd
  0
BLOCK
  5
2B7
330
2AC
100
AcDbEntity
  8
0
100
AcDbBlockBegin
  2
*D16
 70
     1
 71
     0
 10
0.0
 20
0.0
 30
0.0
  3
*D16
  1

  0
LINE
  5
2AD
330
2AC
100
AcDbEntity
  8
LC-002-101-D00-0
 62
     2
370
    -2
100
AcDbLine
 10
124.969262
 20
233.723382
 30
0.0
 11
124.969262
 21
209.034262
 31
0.0
  0
LINE
  5
2AE
330
2AC
100
AcDbEntity
  8
LC-002-101-D00-0
 62
     2
370
    -2
100
AcDbLine
 10
174.969262
 20
233.723382
 30
0.0
 11
174.969262
 21
209.034262
 31
0.0
  0
LINE
  5
2AF
330
2AC
100
AcDbEntity
  8
LC-002-101-D00-0
 62
     2
370
    -2
100
AcDbLine
 10
96.969262
 20
212.634262
 30
0.0
 11
68.969262
 21
212.634262
 31
0.0
  0
LINE
  5
2B0
330
2AC
100
AcDbEntity
  8
LC-002-101-D00-0
 62
     2
370
    -2
100
AcDbLine
 10
202.969262
 20
212.634262
 30
0.0
 11
286.931235
 21
212.634262
 31
0.0
  0
SOLID
  5
2B1
330
2AC
100
AcDbEntity
  8
LC-002-101-D00-0
 62
     2
100
AcDbTrace
 10
96.969262
 20
207.967595
 30
0.0
 11
96.969262
 21
217.300929
 31
0.0
 12
124.969262
 22
212.634262
 32
0.0
 13
124.969262
 23
212.634262
 33
0.0
  0
SOLID
  5
2B2
330
2AC
100
AcDbEntity
  8
LC-002-101-D00-0
 62
     2
100
AcDbTrace
 10
202.969262
 20
217.300929
 30
0.0
 11
202.969262
 21
207.967595
 31
0.0
 12
174.969262
 22
212.634262
 32
0.0
 13
174.969262
 23
212.634262
 33
0.0
  0
MTEXT
  5
2B3
330
2AC
100
AcDbEntity
  8
LC-002-101-D00-0
 62
     2
100
AcDbMText
 10
240.894478
 20
243.434262
 30
0.0
 40
28.0
 41
0.0
 71
     5
 72
     1
  1
\A1;DN50
  7
LCTX15-400-0-0pDIN-Schrift
 73
     1
 44
1.0
  0
POINT
  5
2B4
330
2AC
100
AcDbEntity
  8
Defpoints
 62
     0
100
AcDbPoint
 10
124.969262
 20
233.723382
 30
0.0
  0
POINT
  5
2B5
330
2AC
100
AcDbEntity
  8
Defpoints
 62
     0
100
AcDbPoint
 10
174.969262
 20
233.723382
 30
0.0
  0
POINT
  5
2B6
330
2AC
100
AcDbEntity
  8
Defpoints
 62
     0
100
AcDbPoint
 10
174.969262
 20
212.634262
 30
0.0
  0
ENDBLK
  5
2B8
330
2AC
100
AcDbEntity
  8
0
100
AcDbBlockEnd
  0
BLOCK
  5
2C6
330
2BA
100
AcDbEntity
  8
0
100
AcDbBlockBegin
  2
*D17
 70
     1
 71
     0
 10
0.0
 20
0.0
 30
0.0
  3
*D17
  1

  0
LINE
  5
2BB
330
2BA
100
AcDbEntity
  8
LC-002-101-D00-0
 62
     2
370
    -2
100
AcDbLine
 10
124.969262
 20
284.723382
 30
0.0
 11
39.226974
 21
284.723382
 31
0.0
  0
LINE
  5
2BC
330
2BA
100
AcDbEntity
  8
LC-002-101-D00-0
 62
     2
370
    -2
100
AcDbLine
 10
125.77311
 20
230.723382
 30
0.0
 11
39.226974
 21
230.723382
 31
0.0
  0
LINE
  5
2BD
330
2BA
100
AcDbEntity
  8
LC-002-101-D00-0
 62
     2
370
    -2
100
AcDbLine
 10
42.826974
 20
312.723382
 30
0.0
 11
42.826974
 21
340.723382
 31
0.0
  0
LINE
  5
2BE
330
2BA
100
AcDbEntity
  8
LC-002-101-D00-0
 62
     2
370
    -2
100
AcDbLine
 10
42.826974
 20
202.723382
 30
0.0
 11
42.826974
 21
174.723382
 31
0.0
  0
LINE
  5
2BF
330
2BA
100
AcDbEntity
  8
LC-002-101-D00-0
 62
     2
370
    -2
100
AcDbLine
 10
42.826974
 20
284.723382
 30
0.0
 11
42.826974
 21
230.723382
 31
0.0
  0
SOLID
  5
2C0
330
2BA
100
AcDbEntity
  8
LC-002-101-D00-0
 62
     2
100
AcDbTrace
 10
38.160307
 20
312.723382
 30
0.0
 11
47.49364
 21
312.723382
 31
0.0
 12
42.826974
 22
284.723382
 32
0.0
 13
42.826974
 23
284.723382
 33
0.0
  0
SOLID
  5
2C1
330
2BA
100
AcDbEntity
  8
LC-002-101-D00-0
 62
     2
100
AcDbTrace
 10
47.49364
 20
202.723382
 30
0.0
 11
38.160307
 21
202.723382
 31
0.0
 12
42.826974
 22
230.723382
 32
0.0
 13
42.826974
 23
230.723382
 33
0.0
  0
MTEXT
  5
2C2
330
2BA
100
AcDbEntity
  8
LC-002-101-D00-0
 62
     2
100
AcDbMText
 10
12.026974
 20
235.800262
 30
0.0
 40
28.0
 41
0.0
 71
     5
 72
     1
  1
\A1;54
  7
LCTX15-400-0-0pDIN-Schrift
 11
6.123031769111886E-17
 21
1.0
 31
0.0
 73
     1
 44
1.0
  0
POINT
  5
2C3
330
2BA
100
AcDbEntity
  8
Defpoints
 62
     0
100
AcDbPoint
 10
124.969262
 20
284.723382
 30
0.0
  0
POINT
  5
2C4
330
2BA
100
AcDbEntity
  8
Defpoints
 62
     0
100
AcDbPoint
 10
125.77311
 20
230.723382
 30
0.0
  0
POINT
  5
2C5
330
2BA
100
AcDbEntity
  8
Defpoints
 62
     0
100
AcDbPoint
 10
42.826974
 20
230.723382
 30
0.0
  0
ENDBLK
  5
2C7
330
2BA
100
AcDbEntity
  8
0
100
AcDbBlockEnd
  0
BLOCK
  5
2D3
330
2C9
100
AcDbEntity
  8
0
100
AcDbBlockBegin
  2
*D18
 70
     1
 71
     0
 10
0.0
 20
0.0
 30
0.0
  3
*D18
  1

  0
LINE
  5
2CA
330
2C9
100
AcDbEntity
  8
LC-002-101-D00-0
 62
     2
370
    -2
100
AcDbLine
 10
104.969262
 20
308.865518
 30
0.0
 11
104.969262
 21
139.536262
 31
0.0
  0
LINE
  5
2CB
330
2C9
100
AcDbEntity
  8
LC-002-101-D00-0
 62
     2
370
    -2
100
AcDbLine
 10
194.969262
 20
308.865518
 30
0.0
 11
194.969262
 21
139.536262
 31
0.0
  0
LINE
  5
2CC
330
2C9
100
AcDbEntity
  8
LC-002-101-D00-0
 62
     2
370
    -2
100
AcDbLine
 10
132.969262
 20
143.136262
 30
0.0
 11
166.969262
 21
143.136262
 31
0.0
  0
SOLID
  5
2CD
330
2C9
100
AcDbEntity
  8
LC-002-101-D00-0
 62
     2
100
AcDbTrace
 10
132.969262
 20
147.802929
 30
0.0
 11
132.969262
 21
138.469595
 31
0.0
 12
104.969262
 22
143.136262
 32
0.0
 13
104.969262
 23
143.136262
 33
0.0
  0
SOLID
  5
2CE
330
2C9
100
AcDbEntity
  8
LC-002-101-D00-0
 62
     2
100
AcDbTrace
 10
166.969262
 20
138.469595
 30
0.0
 11
166.969262
 21
147.802929
 31
0.0
 12
194.969262
 22
143.136262
 32
0.0
 13
194.969262
 23
143.136262
 33
0.0
  0
MTEXT
  5
2CF
330
2C9
100
AcDbEntity
  8
LC-002-101-D00-0
 62
     2
100
AcDbMText
 10
148.25
 20
173.936262
 30
0.0
 40
28.0
 41
0.0
 71
     5
 72
     1
  1
%%c\A1;90
  7
LCTX15-400-0-0pDIN-Schrift
 73
     1
 44
1.0
  0
POINT
  5
2D0
330
2C9
100
AcDbEntity
  8
Defpoints
 62
     0
100
AcDbPoint
 10
104.969262
 20
308.865518
 30
0.0
  0
POINT
  5
2D1
330
2C9
100
AcDbEntity
  8
Defpoints
 62
     0
100
AcDbPoint
 10
194.969262
 20
308.865518
 30
0.0
  0
POINT
  5
2D2
330
2C9
100
AcDbEntity
  8
Defpoints
 62
     0
100
AcDbPoint
 10
194.969262
 20
143.136262
 30
0.0
  0
ENDBLK
  5
2D4
330
2C9
100
AcDbEntity
  8
0
100
AcDbBlockEnd
  0
BLOCK
  5
2E2
330
2D6
100
AcDbEntity
  8
0
100
AcDbBlockBegin
  2
*D19
 70
     1
 71
     0
 10
0.0
 20
0.0
 30
0.0
  3
*D19
  1

  0
LINE
  5
2D7
330
2D6
100
AcDbEntity
  8
LC-002-101-D00-0
 62
     2
370
    -2
100
AcDbLine
 10
119.617162
 20
370.523382
 30
0.0
 11
67.978708
 21
370.523382
 31
0.0
  0
LINE
  5
2D8
330
2D6
100
AcDbEntity
  8
LC-002-101-D00-0
 62
     2
370
    -2
100
AcDbLine
 10
130.969262
 20
319.523382
 30
0.0
 11
67.978708
 21
319.523382
 31
0.0
  0
LINE
  5
2D9
330
2D6
100
AcDbEntity
  8
LC-002-101-D00-0
 62
     2
370
    -2
100
AcDbLine
 10
71.578708
 20
398.523382
 30
0.0
 11
71.578708
 21
426.523382
 31
0.0
  0
LINE
  5
2DA
330
2D6
100
AcDbEntity
  8
LC-002-101-D00-0
 62
     2
370
    -2
100
AcDbLine
 10
71.578708
 20
291.523382
 30
0.0
 11
71.578708
 21
263.523382
 31
0.0
  0
LINE
  5
2DB
330
2D6
100
AcDbEntity
  8
LC-002-101-D00-0
 62
     2
370
    -2
100
AcDbLine
 10
71.578708
 20
370.523382
 30
0.0
 11
71.578708
 21
319.523382
 31
0.0
  0
SOLID
  5
2DC
330
2D6
100
AcDbEntity
  8
LC-002-101-D00-0
 62
     2
100
AcDbTrace
 10
66.912041
 20
398.523382
 30
0.0
 11
76.245375
 21
398.523382
 31
0.0
 12
71.578708
 22
370.523382
 32
0.0
 13
71.578708
 23
370.523382
 33
0.0
  0
SOLID
  5
2DD
330
2D6
100
AcDbEntity
  8
LC-002-101-D00-0
 62
     2
100
AcDbTrace
 10
76.245375
 20
291.523382
 30
0.0
 11
66.912041
 21
291.523382
 31
0.0
 12
71.578708
 22
319.523382
 32
0.0
 13
71.578708
 23
319.523382
 33
0.0
  0
MTEXT
  5
2DE
330
2D6
100
AcDbEntity
  8
LC-002-101-D00-0
 62
     2
100
AcDbMText
 10
40.778708
 20
334.998262
 30
0.0
 40
28.0
 41
0.0
 71
     5
 72
     1
  1
\A1;50
  7
LCTX15-400-0-0pDIN-Schrift
 11
6.123031769111886E-17
 21
1.0
 31
0.0
 73
     1
 44
1.0
  0
POINT
  5
2DF
330
2D6
100
AcDbEntity
  8
Defpoints
 62
     0
100
AcDbPoint
 10
119.617162
 20
370.523382
 30
0.0
  0
POINT
  5
2E0
330
2D6
100
AcDbEntity
  8
Defpoints
 62
     0
100
AcDbPoint
 10
130.969262
 20
319.523382
 30
0.0
  0
POINT
  5
2E1
330
2D6
100
AcDbEntity
  8
Defpoints
 62
     0
100
AcDbPoint
 10
71.578708
 20
319.523382
 30
0.0
  0
ENDBLK
  5
2E3
330
2D6
100
AcDbEntity
  8
0
100
AcDbBlockEnd
  0
BLOCK
  5
2EF
330
2E5
100
AcDbEntity
  8
0
100
AcDbBlockBegin
  2
*D20
 70
     1
 71
     0
 10
0.0
 20
0.0
 30
0.0
  3
*D20
  1

  0
LINE
  5
2E6
330
2E5
100
AcDbEntity
  8
LC-002-101-D00-0
 62
     2
370
    -2
100
AcDbLine
 10
125.77311
 20
230.723382
 30
0.0
 11
-12.9521
 21
230.723382
 31
0.0
  0
LINE
  5
2E7
330
2E5
100
AcDbEntity
  8
LC-002-101-D00-0
 62
     2
370
    -2
100
AcDbLine
 10
98.469262
 20
387.223382
 30
0.0
 11
-12.9521
 21
387.223382
 31
0.0
  0
LINE
  5
2E8
330
2E5
100
AcDbEntity
  8
LC-002-101-D00-0
 62
     2
370
    -2
100
AcDbLine
 10
-9.3521
 20
258.723382
 30
0.0
 11
-9.3521
 21
359.223382
 31
0.0
  0
SOLID
  5
2E9
330
2E5
100
AcDbEntity
  8
LC-002-101-D00-0
 62
     2
100
AcDbTrace
 10
-14.018767
 20
258.723382
 30
0.0
 11
-4.685433
 21
258.723382
 31
0.0
 12
-9.3521
 22
230.723382
 32
0.0
 13
-9.3521
 23
230.723382
 33
0.0
  0
SOLID
  5
2EA
330
2E5
100
AcDbEntity
  8
LC-002-101-D00-0
 62
     2
100
AcDbTrace
 10
-4.685433
 20
359.223382
 30
0.0
 11
-14.018767
 21
359.223382
 31
0.0
 12
-9.3521
 22
387.223382
 32
0.0
 13
-9.3521
 23
387.223382
 33
0.0
  0
MTEXT
  5
2EB
330
2E5
100
AcDbEntity
  8
LC-002-101-D00-0
 62
     2
100
AcDbMText
 10
-40.1521
 20
307.674262
 30
0.0
 40
28.0
 41
0.0
 71
     5
 72
     1
  1
\A1;157,5
  7
LCTX15-400-0-0pDIN-Schrift
 11
6.123031769111886E-17
 21
1.0
 31
0.0
 73
     1
 44
1.0
  0
POINT
  5
2EC
330
2E5
100
AcDbEntity
  8
Defpoints
 62
     0
100
AcDbPoint
 10
125.77311
 20
230.723382
 30
0.0
  0
POINT
  5
2ED
330
2E5
100
AcDbEntity
  8
Defpoints
 62
     0
100
AcDbPoint
 10
98.469262
 20
387.223382
 30
0.0
  0
POINT
  5
2EE
330
2E5
100
AcDbEntity
  8
Defpoints
 62
     0
100
AcDbPoint
 10
-9.3521
 20
387.223382
 30
0.0
  0
ENDBLK
  5
2F0
330
2E5
100
AcDbEntity
  8
0
100
AcDbBlockEnd
  0
BLOCK
  5
2FD
330
2F2
100
AcDbEntity
  8
0
100
AcDbBlockBegin
  2
*D21
 70
     1
 71
     0
 10
0.0
 20
0.0
 30
0.0
  3
*D21
  1

  0
LINE
  5
2F3
330
2F2
100
AcDbEntity
  8
LC-002-101-D00-0
 62
     2
370
    -2
100
AcDbLine
 10
98.469262
 20
387.223382
 30
0.0
 11
18.994272
 21
387.223382
 31
0.0
  0
LINE
  5
2F4
330
2F2
100
AcDbEntity
  8
LC-002-101-D00-0
 62
     2
370
    -2
100
AcDbLine
 10
93.969262
 20
391.723382
 30
0.0
 11
18.994272
 21
391.723382
 31
0.0
  0
LINE
  5
2F5
330
2F2
100
AcDbEntity
  8
LC-002-101-D00-0
 62
     2
370
    -2
100
AcDbLine
 10
22.594272
 20
359.223382
 30
0.0
 11
22.594272
 21
331.223382
 31
0.0
  0
LINE
  5
2F6
330
2F2
100
AcDbEntity
  8
LC-002-101-D00-0
 62
     2
370
    -2
100
AcDbLine
 10
22.594272
 20
419.723382
 30
0.0
 11
22.594272
 21
451.838986
 31
0.0
  0
SOLID
  5
2F7
330
2F2
100
AcDbEntity
  8
LC-002-101-D00-0
 62
     2
100
AcDbTrace
 10
27.260938
 20
359.223382
 30
0.0
 11
17.927605
 21
359.223382
 31
0.0
 12
22.594272
 22
387.223382
 32
0.0
 13
22.594272
 23
387.223382
 33
0.0
  0
SOLID
  5
2F8
330
2F2
100
AcDbEntity
  8
LC-002-101-D00-0
 62
     2
100
AcDbTrace
 10
17.927605
 20
419.723382
 30
0.0
 11
27.260938
 21
419.723382
 31
0.0
 12
22.594272
 22
391.723382
 32
0.0
 13
22.594272
 23
391.723382
 33
0.0
  0
MTEXT
  5
2F9
330
2F2
100
AcDbEntity
  8
LC-002-101-D00-0
 62
     2
100
AcDbMText
 10
-8.205728
 20
405.090262
 30
0.0
 40
28.0
 41
0.0
 71
     5
 72
     1
  1
\A1;6-25
  7
LCTX15-400-0-0pDIN-Schrift
 11
6.123031769111886E-17
 21
1.0
 31
0.0
 73
     1
 44
1.0
  0
POINT
  5
2FA
330
2F2
100
AcDbEntity
  8
Defpoints
 62
     0
100
AcDbPoint
 10
98.469262
 20
387.223382
 30
0.0
  0
POINT
  5
2FB
330
2F2
100
AcDbEntity
  8
Defpoints
 62
     0
100
AcDbPoint
 10
93.969262
 20
391.723382
 30
0.0
  0
POINT
  5
2FC
330
2F2
100
AcDbEntity
  8
Defpoints
 62
     0
100
AcDbPoint
 10
22.594272
 20
391.723382
 30
0.0
  0
ENDBLK
  5
2FE
330
2F2
100
AcDbEntity
  8
0
100
AcDbBlockEnd
  0
BLOCK
  5
30D
330
303
100
AcDbEntity
  8
0
100
AcDbBlockBegin
  2
*D22
 70
     1
 71
     0
 10
0.0
 20
0.0
 30
0.0
  3
*D22
  1

  0
LINE
  5
304
330
303
100
AcDbEntity
  8
LC-003-003-----0
 62
     2
370
    -2
100
AcDbLine
 10
92.969262
 20
401.188371
 30
0.0
 11
92.969262
 21
420.989637
 31
0.0
  0
LINE
  5
305
330
303
100
AcDbEntity
  8
LC-003-003-----0
 62
     2
370
    -2
100
AcDbLine
 10
206.969262
 20
401.188371
 30
0.0
 11
206.969262
 21
420.989637
 31
0.0
  0
LINE
  5
306
330
303
100
AcDbEntity
  8
LC-003-003-----0
 62
     2
370
    -2
100
AcDbLine
 10
120.969262
 20
417.389637
 30
0.0
 11
178.969262
 21
417.389637
 31
0.0
  0
SOLID
  5
307
330
303
100
AcDbEntity
  8
LC-003-003-----0
 62
     2
100
AcDbTrace
 10
120.969262
 20
422.056304
 30
0.0
 11
120.969262
 21
412.722971
 31
0.0
 12
92.969262
 22
417.389637
 32
0.0
 13
92.969262
 23
417.389637
 33
0.0
  0
SOLID
  5
308
330
303
100
AcDbEntity
  8
LC-003-003-----0
 62
     2
100
AcDbTrace
 10
178.969262
 20
412.722971
 30
0.0
 11
178.969262
 21
422.056304
 31
0.0
 12
206.969262
 22
417.389637
 32
0.0
 13
206.969262
 23
417.389637
 33
0.0
  0
MTEXT
  5
309
330
303
100
AcDbEntity
  8
LC-003-003-----0
 62
     2
100
AcDbMText
 10
150.305939
 20
448.189637
 30
0.0
 40
28.0
 41
0.0
 71
     5
 72
     1
  1
%%c\A1;114
  7
LCTX15-400-0-0pDIN-Schrift
 73
     1
 44
1.0
  0
POINT
  5
30A
330
303
100
AcDbEntity
  8
Defpoints
 62
     0
100
AcDbPoint
 10
92.969262
 20
401.188371
 30
0.0
  0
POINT
  5
30B
330
303
100
AcDbEntity
  8
Defpoints
 62
     0
100
AcDbPoint
 10
206.969262
 20
401.188371
 30
0.0
  0
POINT
  5
30C
330
303
100
AcDbEntity
  8
Defpoints
 62
     0
100
AcDbPoint
 10
206.969262
 20
417.389637
 30
0.0
  0
ENDBLK
  5
30E
330
303
100
AcDbEntity
  8
0
100
AcDbBlockEnd
  0
ENDSEC
  0
SECTION
  2
ENTITIES
  0
LINE
  5
31
330
1F
100
AcDbEntity
  8
LC-001-100-D00-0
 62
     7
370
    50
100
AcDbLine
 10
189.219262
 20
390.77338
 30
0.0
 11
187.969263
 21
390.77338
 31
0.0
  0
LINE
  5
32
330
1F
100
AcDbEntity
  8
LC-001-100-D00-0
 62
     7
370
    50
100
AcDbLine
 10
111.96926
 20
390.77338
 30
0.0
 11
110.719262
 21
390.77338
 31
0.0
  0
LINE
  5
33
330
1F
100
AcDbEntity
  8
LC-001-100-D00-0
 62
     7
370
    50
100
AcDbLine
 10
110.719262
 20
388.273382
 30
0.0
 11
111.96926
 21
388.273382
 31
0.0
  0
LINE
  5
34
330
1F
100
AcDbEntity
  8
LC-001-100-D00-0
 62
     7
370
    50
100
AcDbLine
 10
187.969263
 20
388.273382
 30
0.0
 11
189.219262
 21
388.273382
 31
0.0
  0
LINE
  5
35
330
1F
100
AcDbEntity
  8
LC-001-100-D00-0
 62
     7
370
    50
100
AcDbLine
 10
195.469262
 20
390.723379
 30
0.0
 11
195.469262
 21
385.237442
 31
0.0
  0
LINE
  5
36
330
1F
100
AcDbEntity
  8
LC-001-100-D00-0
 62
     7
370
    50
100
AcDbLine
 10
104.46926
 20
385.237442
 30
0.0
 11
106.969265
 21
385.237442
 31
0.0
  0
LINE
  5
37
330
1F
100
AcDbEntity
  8
LC-001-100-D00-0
 62
     7
370
    50
100
AcDbLine
 10
192.969262
 20
385.237442
 30
0.0
 11
195.469262
 21
385.237442
 31
0.0
  0
LINE
  5
38
330
1F
100
AcDbEntity
  8
LC-001-100-D00-0
 62
     7
370
    50
100
AcDbLine
 10
104.46926
 20
385.237442
 30
0.0
 11
104.46926
 21
390.723379
 31
0.0
  0
LINE
  5
39
330
1F
100
AcDbEntity
  8
LC-001-100-D00-0
 62
     7
370
    50
100
AcDbLine
 10
95.21926
 20
390.577929
 30
0.0
 11
104.46926
 21
385.237442
 31
0.0
  0
LINE
  5
3A
330
1F
100
AcDbEntity
  8
LC-001-100-D00-0
 62
     7
370
    50
100
AcDbLine
 10
195.469262
 20
385.237442
 30
0.0
 11
204.719262
 21
390.577929
 31
0.0
  0
LINE
  5
3B
330
1F
100
AcDbEntity
  8
LC-001-100-D00-0
 62
     7
370
    50
100
AcDbLine
 10
204.719262
 20
390.577929
 30
0.0
 11
204.719262
 21
390.723379
 31
0.0
  0
LINE
  5
3C
330
1F
100
AcDbEntity
  8
LC-001-100-D00-0
 62
     7
370
    50
100
AcDbLine
 10
95.21926
 20
390.723379
 30
0.0
 11
95.21926
 21
390.577929
 31
0.0
  0
LINE
  5
3D
330
1F
100
AcDbEntity
  8
LC-001-100-D00-0
 62
     7
370
    50
100
AcDbLine
 10
204.719262
 20
390.723379
 30
0.0
 11
195.469262
 21
390.723379
 31
0.0
  0
LINE
  5
3E
330
1F
100
AcDbEntity
  8
LC-001-100-D00-0
 62
     7
370
    50
100
AcDbLine
 10
104.46926
 20
390.723379
 30
0.0
 11
95.21926
 21
390.723379
 31
0.0
  0
ARC
  5
3F
330
1F
100
AcDbEntity
  8
LC-001-100-D00-0
 62
     7
370
    50
100
AcDbCircle
 10
204.769262
 20
401.188371
 30
0.0
 40
2.199999999999988
100
AcDbArc
 50
332.111773
 51
86.059831
  0
ARC
  5
40
330
1F
100
AcDbEntity
  8
LC-001-100-D00-0
 62
     7
370
    50
100
AcDbCircle
 10
95.169262
 20
401.188371
 30
0.0
 40
2.20000000000003
100
AcDbArc
 50
93.940169
 51
207.888227
  0
ARC
  5
41
330
1F
100
AcDbEntity
  8
LC-001-100-D00-0
 62
     7
370
    50
100
AcDbCircle
 10
149.969262
 20
-394.426618
 30
0.0
 40
799.0000000000005
100
AcDbArc
 50
86.059831
 51
93.940169
  0
ARC
  5
42
330
1F
100
AcDbEntity
  8
LC-001-100-D00-0
 62
     7
370
    50
100
AcDbCircle
 10
95.169262
 20
401.188371
 30
0.0
 40
1.500000000000222
100
AcDbArc
 50
93.940169
 51
207.888227
  0
LINE
  5
43
330
1F
100
AcDbEntity
  8
LC-001-100-D00-0
 62
     7
370
    50
100
AcDbLine
 10
94.403138
 20
399.429196
 30
0.0
 11
93.843473
 21
400.486746
 31
0.0
  0
LINE
  5
44
330
1F
100
AcDbEntity
  8
LC-001-100-D00-0
 62
     7
370
    50
100
AcDbLine
 10
93.784435
 20
399.101773
 30
0.0
 11
94.403138
 21
399.429196
 31
0.0
  0
LINE
  5
45
330
1F
100
AcDbEntity
  8
LC-001-100-D00-0
 62
     7
370
    50
100
AcDbLine
 10
93.224769
 20
400.159323
 30
0.0
 11
93.784435
 21
399.101773
 31
0.0
  0
ARC
  5
46
330
1F
100
AcDbEntity
  8
LC-001-100-D00-0
 62
     7
370
    50
100
AcDbCircle
 10
149.969262
 20
-394.426618
 30
0.0
 40
799.7000000000004
100
AcDbArc
 50
86.059831
 51
93.940169
  0
LINE
  5
47
330
1F
100
AcDbEntity
  8
LC-001-100-D00-0
 62
     7
370
    50
100
AcDbLine
 10
206.154091
 20
399.101773
 30
0.0
 11
206.713758
 21
400.159323
 31
0.0
  0
LINE
  5
48
330
1F
100
AcDbEntity
  8
LC-001-100-D00-0
 62
     7
370
    50
100
AcDbLine
 10
205.535387
 20
399.429196
 30
0.0
 11
206.154091
 21
399.101773
 31
0.0
  0
LINE
  5
49
330
1F
100
AcDbEntity
  8
LC-001-100-D00-0
 62
     7
370
    50
100
AcDbLine
 10
206.095055
 20
400.486746
 30
0.0
 11
205.535387
 21
399.429196
 31
0.0
  0
ARC
  5
4A
330
1F
100
AcDbEntity
  8
LC-001-100-D00-0
 62
     7
370
    50
100
AcDbCircle
 10
204.769262
 20
401.188371
 30
0.0
 40
1.50000000000025
100
AcDbArc
 50
332.111773
 51
86.059831
  0
LINE
  5
4B
330
1F
100
AcDbEntity
  8
LC-001-100-D00-0
 62
     7
370
    50
100
AcDbLine
 10
93.784435
 20
399.101773
 30
0.0
 11
95.640955
 21
399.101773
 31
0.0
  0
LINE
  5
4C
330
1F
100
AcDbEntity
  8
LC-001-100-D00-0
 62
     7
370
    50
100
AcDbLine
 10
204.29757
 20
399.101773
 30
0.0
 11
206.154091
 21
399.101773
 31
0.0
  0
LINE
  5
4D
330
1F
100
AcDbEntity
  8
LC-001-100-D00-0
 62
     7
370
    50
100
AcDbLine
 10
95.066188
 20
402.684824
 30
0.0
 11
95.131351
 21
402.684824
 31
0.0
  0
LINE
  5
4E
330
1F
100
AcDbEntity
  8
LC-001-100-D00-0
 62
     7
370
    50
100
AcDbLine
 10
204.807173
 20
402.684824
 30
0.0
 11
204.872334
 21
402.684824
 31
0.0
  0
LINE
  5
4F
330
1F
100
AcDbEntity
  8
LC-001-100-D00-0
 62
     7
370
    50
100
AcDbLine
 10
204.457521
 20
399.429196
 30
0.0
 11
205.535387
 21
399.429196
 31
0.0
  0
LINE
  5
50
330
1F
100
AcDbEntity
  8
LC-001-100-D00-0
 62
     7
370
    50
100
AcDbLine
 10
94.403138
 20
399.429196
 30
0.0
 11
95.481006
 21
399.429196
 31
0.0
  0
LINE
  5
51
330
1F
100
AcDbEntity
  8
LC-001-100-D00-0
 62
     7
370
    50
100
AcDbLine
 10
176.475609
 20
393.223384
 30
0.0
 11
175.055865
 21
393.223384
 31
0.0
  0
ELLIPSE
  5
52
330
1F
100
AcDbEntity
  8
LC-001-100-D00-0
 62
     7
370
    50
100
AcDbEllipse
 10
175.043523
 20
392.223382
 30
0.0
 11
-0.02467392139885779
 21
-0.9998478805047175
 31
0.0
210
0.0
220
0.0
230
1.0
 40
0.706891
 41
0.0174426690722953
 42
1.588238995867125
  0
LINE
  5
53
330
1F
100
AcDbEntity
  8
LC-001-100-D00-0
 62
     7
370
    50
100
AcDbLine
 10
174.336416
 20
392.223382
 30
0.0
 11
174.329706
 21
391.67975
 31
0.0
  0
ELLIPSE
  5
54
330
1F
100
AcDbEntity
  8
LC-001-100-D00-0
 62
     7
370
    50
100
AcDbEllipse
 10
173.549082
 20
385.723382
 30
0.0
 11
-0.02467392139888612
 21
-0.9998478805046607
 31
0.0
210
0.0
220
0.0
230
1.0
 40
0.706891
 41
3.159035322662129
 42
4.222388701742863
  0
LINE
  5
55
330
1F
100
AcDbEntity
  8
LC-001-100-D00-0
 62
     7
370
    50
100
AcDbLine
 10
173.53674
 20
384.723382
 30
0.0
 11
169.753718
 21
384.723382
 31
0.0
  0
LINE
  5
56
330
1F
100
AcDbEntity
  8
LC-001-100-D00-0
 62
     7
370
    50
100
AcDbLine
 10
169.753718
 20
384.723382
 30
0.0
 11
169.233746
 21
395.223381
 31
0.0
  0
LINE
  5
57
330
1F
100
AcDbEntity
  8
LC-001-100-D00-0
 62
     7
370
    50
100
AcDbLine
 10
169.233746
 20
395.223381
 30
0.0
 11
151.26005
 21
395.223381
 31
0.0
  0
LINE
  5
58
330
1F
100
AcDbEntity
  8
LC-001-100-D00-0
 62
     7
370
    50
100
AcDbLine
 10
151.383476
 20
400.223383
 30
0.0
 11
151.26005
 21
395.223381
 31
0.0
  0
LINE
  5
59
330
1F
100
AcDbEntity
  8
LC-001-100-D00-0
 62
     7
370
    50
100
AcDbLine
 10
151.26005
 20
395.223381
 30
0.0
 11
148.678474
 21
395.223381
 31
0.0
  0
LINE
  5
5A
330
1F
100
AcDbEntity
  8
LC-001-100-D00-0
 62
     7
370
    50
100
AcDbLine
 10
148.678474
 20
395.223381
 30
0.0
 11
148.555048
 21
400.223383
 31
0.0
  0
LINE
  5
5B
330
1F
100
AcDbEntity
  8
LC-001-100-D00-0
 62
     7
370
    50
100
AcDbLine
 10
124.075336
 20
400.223383
 30
0.0
 11
148.555048
 21
400.223383
 31
0.0
  0
LINE
  5
5C
330
1F
100
AcDbEntity
  8
LC-001-100-D00-0
 62
     7
370
    50
100
AcDbLine
 10
122.719263
 20
384.723382
 30
0.0
 11
124.075336
 21
400.223383
 31
0.0
  0
LINE
  5
5D
330
1F
100
AcDbEntity
  8
LC-001-100-D00-0
 62
     7
370
    50
100
AcDbLine
 10
117.369262
 20
384.723382
 30
0.0
 11
122.719263
 21
384.723382
 31
0.0
  0
ARC
  5
5E
330
1F
100
AcDbEntity
  8
LC-001-100-D00-0
 62
     7
370
    50
100
AcDbCircle
 10
117.369262
 20
385.723382
 30
0.0
 40
1.0
100
AcDbArc
 50
180.0
 51
270.0
  0
LINE
  5
5F
330
1F
100
AcDbEntity
  8
LC-001-100-D00-0
 62
     7
370
    50
100
AcDbLine
 10
116.36926
 20
392.223382
 30
0.0
 11
116.36926
 21
385.723384
 31
0.0
  0
ARC
  5
60
330
1F
100
AcDbEntity
  8
LC-001-100-D00-0
 62
     7
370
    50
100
AcDbCircle
 10
115.369262
 20
392.223382
 30
0.0
 40
1.0
100
AcDbArc
 50
0.0
 51
90.0
  0
LINE
  5
61
330
1F
100
AcDbEntity
  8
LC-001-100-D00-0
 62
     7
370
    50
100
AcDbLine
 10
107.346577
 20
393.223384
 30
0.0
 11
115.369262
 21
393.223384
 31
0.0
  0
ARC
  5
62
330
1F
100
AcDbEntity
  8
LC-001-100-D00-0
 62
     7
370
    50
100
AcDbCircle
 10
107.34658
 20
343.223382
 30
0.0
 40
50.0
100
AcDbArc
 50
90.0
 51
99.764667
  0
LINE
  5
63
330
1F
100
AcDbEntity
  8
LC-001-100-D00-0
 62
     7
370
    50
100
AcDbLine
 10
98.86649
 20
392.499016
 30
0.0
 11
95.337292
 21
399.723382
 31
0.0
  0
LINE
  5
64
330
1F
100
AcDbEntity
  8
LC-001-100-D00-0
 62
     7
370
    50
100
AcDbLine
 10
95.337292
 20
399.723382
 30
0.0
 11
94.469262
 21
399.723382
 31
0.0
  0
LINE
  5
65
330
1F
100
AcDbEntity
  8
LC-001-100-D00-0
 62
     7
370
    50
100
AcDbLine
 10
94.469262
 20
400.223383
 30
0.0
 11
94.469262
 21
399.723382
 31
0.0
  0
LINE
  5
66
330
1F
100
AcDbEntity
  8
LC-001-100-D00-0
 62
     7
370
    50
100
AcDbLine
 10
93.969261
 20
400.223383
 30
0.0
 11
94.469262
 21
400.223383
 31
0.0
  0
LINE
  5
67
330
1F
100
AcDbEntity
  8
LC-001-100-D00-0
 62
     7
370
    50
100
AcDbLine
 10
93.969261
 20
401.223385
 30
0.0
 11
93.969261
 21
400.223383
 31
0.0
  0
ARC
  5
68
330
1F
100
AcDbEntity
  8
LC-001-100-D00-0
 62
     7
370
    50
100
AcDbCircle
 10
95.469262
 20
401.223382
 30
0.0
 40
1.5
100
AcDbArc
 50
90.0
 51
180.0
  0
LINE
  5
69
330
1F
100
AcDbEntity
  8
LC-001-100-D00-0
 62
     7
370
    50
100
AcDbLine
 10
104.46926
 20
402.723381
 30
0.0
 11
95.469264
 21
402.723381
 31
0.0
  0
LINE
  5
6A
330
1F
100
AcDbEntity
  8
LC-001-100-D00-0
 62
     7
370
    50
100
AcDbLine
 10
104.46926
 20
403.276803
 30
0.0
 11
104.46926
 21
402.723381
 31
0.0
  0
ARC
  5
6B
330
1F
100
AcDbEntity
  8
LC-001-100-D00-0
 62
     7
370
    50
100
AcDbCircle
 10
149.969262
 20
-394.426618
 30
0.0
 40
799.0000000000005
100
AcDbArc
 50
93.1209
 51
93.264542
  0
LINE
  5
6C
330
1F
100
AcDbEntity
  8
LC-001-100-D00-0
 62
     7
370
    50
100
AcDbLine
 10
106.469264
 20
403.388368
 30
0.0
 11
106.469264
 21
402.723381
 31
0.0
  0
LINE
  5
6D
330
1F
100
AcDbEntity
  8
LC-001-100-D00-0
 62
     7
370
    50
100
AcDbLine
 10
119.969262
 20
402.723381
 30
0.0
 11
106.469264
 21
402.723381
 31
0.0
  0
LINE
  5
6E
330
1F
100
AcDbEntity
  8
LC-001-100-D00-0
 62
     7
370
    50
100
AcDbLine
 10
119.969262
 20
404.009977
 30
0.0
 11
119.969262
 21
402.723381
 31
0.0
  0
ARC
  5
6F
330
1F
100
AcDbEntity
  8
LC-001-100-D00-0
 62
     7
370
    50
100
AcDbCircle
 10
149.969262
 20
-394.426618
 30
0.0
 40
799.0000000000005
100
AcDbArc
 50
92.008273
 51
92.151787
  0
LINE
  5
70
330
1F
100
AcDbEntity
  8
LC-001-100-D00-0
 62
     7
370
    50
100
AcDbLine
 10
121.969262
 20
404.08262
 30
0.0
 11
121.969262
 21
402.723381
 31
0.0
  0
LINE
  5
71
330
1F
100
AcDbEntity
  8
LC-001-100-D00-0
 62
     7
370
    50
100
AcDbLine
 10
135.469263
 20
402.723381
 30
0.0
 11
121.969262
 21
402.723381
 31
0.0
  0
LINE
  5
72
330
1F
100
AcDbEntity
  8
LC-001-100-D00-0
 62
     7
370
    50
100
AcDbLine
 10
135.469263
 20
404.441798
 30
0.0
 11
135.469263
 21
402.723381
 31
0.0
  0
ARC
  5
73
330
1F
100
AcDbEntity
  8
LC-001-100-D00-0
 62
     7
370
    50
100
AcDbCircle
 10
149.969262
 20
-394.426618
 30
0.0
 40
799.0000000000005
100
AcDbArc
 50
90.896404
 51
91.039843
  0
LINE
  5
74
330
1F
100
AcDbEntity
  8
LC-001-100-D00-0
 62
     7
370
    50
100
AcDbLine
 10
137.469264
 20
404.475601
 30
0.0
 11
137.469264
 21
402.723381
 31
0.0
  0
LINE
  5
75
330
1F
100
AcDbEntity
  8
LC-001-100-D00-0
 62
     7
370
    50
100
AcDbLine
 10
162.469262
 20
402.723381
 30
0.0
 11
137.469264
 21
402.723381
 31
0.0
  0
LINE
  5
76
330
1F
100
AcDbEntity
  8
LC-001-100-D00-0
 62
     7
370
    50
100
AcDbLine
 10
162.469262
 20
402.723381
 30
0.0
 11
162.469262
 21
404.475601
 31
0.0
  0
ARC
  5
77
330
1F
100
AcDbEntity
  8
LC-001-100-D00-0
 62
     7
370
    50
100
AcDbCircle
 10
149.969262
 20
-394.426618
 30
0.0
 40
799.0000000000005
100
AcDbArc
 50
88.960157
 51
89.103596
  0
LINE
  5
78
330
1F
100
AcDbEntity
  8
LC-001-100-D00-0
 62
     7
370
    50
100
AcDbLine
 10
164.469262
 20
402.723381
 30
0.0
 11
164.469262
 21
404.441798
 31
0.0
  0
LINE
  5
79
330
1F
100
AcDbEntity
  8
LC-001-100-D00-0
 62
     7
370
    50
100
AcDbLine
 10
177.969262
 20
402.723381
 30
0.0
 11
164.469262
 21
402.723381
 31
0.0
  0
LINE
  5
7A
330
1F
100
AcDbEntity
  8
LC-001-100-D00-0
 62
     7
370
    50
100
AcDbLine
 10
177.969262
 20
402.723381
 30
0.0
 11
177.969262
 21
404.08262
 31
0.0
  0
ARC
  5
7B
330
1F
100
AcDbEntity
  8
LC-001-100-D00-0
 62
     7
370
    50
100
AcDbCircle
 10
149.969262
 20
-394.426618
 30
0.0
 40
799.0000000000005
100
AcDbArc
 50
87.848213
 51
87.991727
  0
LINE
  5
7C
330
1F
100
AcDbEntity
  8
LC-001-100-D00-0
 62
     7
370
    50
100
AcDbLine
 10
179.969262
 20
402.723381
 30
0.0
 11
179.969262
 21
404.009977
 31
0.0
  0
LINE
  5
7D
330
1F
100
AcDbEntity
  8
LC-001-100-D00-0
 62
     7
370
    50
100
AcDbLine
 10
193.469262
 20
402.723381
 30
0.0
 11
179.969262
 21
402.723381
 31
0.0
  0
LINE
  5
7E
330
1F
100
AcDbEntity
  8
LC-001-100-D00-0
 62
     7
370
    50
100
AcDbLine
 10
193.469262
 20
402.723381
 30
0.0
 11
193.469262
 21
403.388368
 31
0.0
  0
ARC
  5
7F
330
1F
100
AcDbEntity
  8
LC-001-100-D00-0
 62
     7
370
    50
100
AcDbCircle
 10
149.969262
 20
-394.426618
 30
0.0
 40
799.0000000000003
100
AcDbArc
 50
86.735458
 51
86.8791
  0
LINE
  5
80
330
1F
100
AcDbEntity
  8
LC-001-100-D00-0
 62
     7
370
    50
100
AcDbLine
 10
195.469262
 20
402.723381
 30
0.0
 11
195.469262
 21
403.276803
 31
0.0
  0
LINE
  5
81
330
1F
100
AcDbEntity
  8
LC-001-100-D00-0
 62
     7
370
    50
100
AcDbLine
 10
204.469262
 20
402.723381
 30
0.0
 11
195.469262
 21
402.723381
 31
0.0
  0
ARC
  5
82
330
1F
100
AcDbEntity
  8
LC-001-100-D00-0
 62
     7
370
    50
100
AcDbCircle
 10
204.469262
 20
401.223382
 30
0.0
 40
1.5
100
AcDbArc
 50
0.0
 51
90.0
  0
LINE
  5
83
330
1F
100
AcDbEntity
  8
LC-001-100-D00-0
 62
     7
370
    50
100
AcDbLine
 10
205.969263
 20
400.223383
 30
0.0
 11
205.969263
 21
401.223385
 31
0.0
  0
LINE
  5
84
330
1F
100
AcDbEntity
  8
LC-001-100-D00-0
 62
     7
370
    50
100
AcDbLine
 10
205.469262
 20
400.223383
 30
0.0
 11
205.969263
 21
400.223383
 31
0.0
  0
LINE
  5
85
330
1F
100
AcDbEntity
  8
LC-001-100-D00-0
 62
     7
370
    50
100
AcDbLine
 10
205.469262
 20
399.723382
 30
0.0
 11
205.469262
 21
400.223383
 31
0.0
  0
LINE
  5
86
330
1F
100
AcDbEntity
  8
LC-001-100-D00-0
 62
     7
370
    50
100
AcDbLine
 10
205.469262
 20
399.723382
 30
0.0
 11
204.601236
 21
399.723382
 31
0.0
  0
LINE
  5
87
330
1F
100
AcDbEntity
  8
LC-001-100-D00-0
 62
     7
370
    50
100
AcDbLine
 10
204.601236
 20
399.723382
 30
0.0
 11
201.072033
 21
392.499016
 31
0.0
  0
ARC
  5
88
330
1F
100
AcDbEntity
  8
LC-001-100-D00-0
 62
     7
370
    50
100
AcDbCircle
 10
192.591944
 20
343.223382
 30
0.0
 40
49.99999999999999
100
AcDbArc
 50
80.235333
 51
90.0
  0
LINE
  5
89
330
1F
100
AcDbEntity
  8
LC-001-100-D00-0
 62
     7
370
    50
100
AcDbLine
 10
184.569262
 20
393.223384
 30
0.0
 11
192.591945
 21
393.223384
 31
0.0
  0
ARC
  5
8A
330
1F
100
AcDbEntity
  8
LC-001-100-D00-0
 62
     7
370
    50
100
AcDbCircle
 10
184.569262
 20
392.223382
 30
0.0
 40
1.0
100
AcDbArc
 50
90.0
 51
180.0
  0
LINE
  5
8B
330
1F
100
AcDbEntity
  8
LC-001-100-D00-0
 62
     7
370
    50
100
AcDbLine
 10
183.569262
 20
385.723384
 30
0.0
 11
183.569262
 21
392.223382
 31
0.0
  0
ARC
  5
8C
330
1F
100
AcDbEntity
  8
LC-001-100-D00-0
 62
     7
370
    50
100
AcDbCircle
 10
182.569262
 20
385.723382
 30
0.0
 40
1.0
100
AcDbArc
 50
270.0
 51
0.0
  0
LINE
  5
8D
330
1F
100
AcDbEntity
  8
LC-001-100-D00-0
 62
     7
370
    50
100
AcDbLine
 10
177.219262
 20
384.723382
 30
0.0
 11
182.569262
 21
384.723382
 31
0.0
  0
LINE
  5
8E
330
1F
100
AcDbEntity
  8
LC-001-100-D00-0
 62
     7
370
    50
100
AcDbLine
 10
175.863188
 20
400.223383
 30
0.0
 11
177.219262
 21
384.723382
 31
0.0
  0
LINE
  5
8F
330
1F
100
AcDbEntity
  8
LC-001-100-D00-0
 62
     7
370
    50
100
AcDbLine
 10
151.383476
 20
400.223383
 30
0.0
 11
175.863188
 21
400.223383
 31
0.0
  0
LINE
  5
90
330
1F
100
AcDbEntity
  8
LC-001-100-D00-0
 62
     7
370
    50
100
AcDbLine
 10
137.469264
 20
404.475601
 30
0.0
 11
162.469262
 21
404.475601
 31
0.0
  0
LINE
  5
91
330
1F
100
AcDbEntity
  8
LC-001-100-D00-0
 62
     7
370
    50
100
AcDbLine
 10
106.469264
 20
403.388368
 30
0.0
 11
119.969262
 21
403.388368
 31
0.0
  0
LINE
  5
92
330
1F
100
AcDbEntity
  8
LC-001-100-D00-0
 62
     7
370
    50
100
AcDbLine
 10
179.969262
 20
403.388368
 30
0.0
 11
193.469262
 21
403.388368
 31
0.0
  0
LINE
  5
93
330
1F
100
AcDbEntity
  8
LC-001-100-D00-0
 62
     7
370
    50
100
AcDbLine
 10
121.969262
 20
404.08262
 30
0.0
 11
135.469263
 21
404.08262
 31
0.0
  0
LINE
  5
94
330
1F
100
AcDbEntity
  8
LC-001-100-D00-0
 62
     7
370
    50
100
AcDbLine
 10
164.469262
 20
404.08262
 30
0.0
 11
177.969262
 21
404.08262
 31
0.0
  0
LINE
  5
95
330
1F
100
AcDbEntity
  8
LC-001-100-D00-0
 62
     7
370
    50
100
AcDbLine
 10
130.184805
 20
384.723382
 30
0.0
 11
130.704777
 21
395.223381
 31
0.0
  0
LINE
  5
96
330
1F
100
AcDbEntity
  8
LC-001-100-D00-0
 62
     7
370
    50
100
AcDbLine
 10
126.401784
 20
384.723382
 30
0.0
 11
130.184805
 21
384.723382
 31
0.0
  0
ELLIPSE
  5
97
330
1F
100
AcDbEntity
  8
LC-001-100-D00-0
 62
     7
370
    50
100
AcDbEllipse
 10
126.389442
 20
385.723382
 30
0.0
 11
0.02467392139828352
 21
-0.9998478804808222
 31
0.0
210
0.0
220
0.0
230
1.0
 40
0.706891
 41
2.060796605436651
 42
3.124149984517472
  0
LINE
  5
98
330
1F
100
AcDbEntity
  8
LC-001-100-D00-0
 62
     7
370
    50
100
AcDbLine
 10
125.602109
 20
392.223382
 30
0.0
 11
125.608818
 21
391.67975
 31
0.0
  0
ELLIPSE
  5
99
330
1F
100
AcDbEntity
  8
LC-001-100-D00-0
 62
     7
370
    50
100
AcDbEllipse
 10
124.895001
 20
392.223382
 30
0.0
 11
0.02467392139740096
 21
-0.9998478804451217
 31
0.0
210
0.0
220
0.0
230
1.0
 40
0.706891
 41
4.694946311312679
 42
6.265742638107209
  0
LINE
  5
9A
330
1F
100
AcDbEntity
  8
LC-001-100-D00-0
 62
     7
370
    50
100
AcDbLine
 10
123.462917
 20
393.223384
 30
0.0
 11
124.882659
 21
393.223384
 31
0.0
  0
LINE
  5
9B
330
1F
100
AcDbEntity
  8
LC-001-100-D00-0
 62
     7
370
    50
100
AcDbLine
 10
130.704777
 20
395.223381
 30
0.0
 11
148.678474
 21
395.223381
 31
0.0
  0
LINE
  5
9C
330
1F
100
AcDbEntity
  8
LC-001-100-D00-0
 62
     7
370
    50
100
AcDbLine
 10
130.184805
 20
384.723382
 30
0.0
 11
131.216397
 21
384.723382
 31
0.0
  0
LINE
  5
9D
330
1F
100
AcDbEntity
  8
LC-001-100-D00-0
 62
     7
370
    50
100
AcDbLine
 10
131.216397
 20
384.723382
 30
0.0
 11
131.995568
 21
395.223381
 31
0.0
  0
LINE
  5
9E
330
1F
100
AcDbEntity
  8
LC-001-100-D00-0
 62
     7
370
    50
100
AcDbLine
 10
168.722126
 20
384.723382
 30
0.0
 11
169.753718
 21
384.723382
 31
0.0
  0
LINE
  5
9F
330
1F
100
AcDbEntity
  8
LC-001-100-D00-0
 62
     7
370
    50
100
AcDbLine
 10
168.722126
 20
384.723382
 30
0.0
 11
167.942958
 21
395.223381
 31
0.0
  0
LINE
  5
A0
330
1F
100
AcDbEntity
  8
LC-001-100-D00-0
 62
     7
370
    50
100
AcDbLine
 10
149.239816
 20
384.723382
 30
0.0
 11
150.698708
 21
384.723382
 31
0.0
  0
LINE
  5
A1
330
1F
100
AcDbEntity
  8
LC-001-100-D00-0
 62
     7
370
    50
100
AcDbLine
 10
149.239816
 20
384.723382
 30
0.0
 11
149.056537
 21
395.223381
 31
0.0
  0
LINE
  5
A2
330
1F
100
AcDbEntity
  8
LC-001-100-D00-0
 62
     7
370
    50
100
AcDbLine
 10
150.698708
 20
384.723382
 30
0.0
 11
150.881987
 21
395.223381
 31
0.0
  0
LINE
  5
A3
330
1F
100
AcDbEntity
  8
LC-001-100-D00-0
 62
     7
370
    50
100
AcDbLine
 10
109.819261
 20
385.023379
 30
0.0
 11
109.819261
 21
392.223382
 31
0.0
  0
LINE
  5
A4
330
1F
100
AcDbEntity
  8
LC-001-100-D00-0
 62
     7
370
    50
100
AcDbLine
 10
190.119262
 20
392.223382
 30
0.0
 11
190.119262
 21
385.023379
 31
0.0
  0
LINE
  5
A5
330
1F
100
AcDbEntity
  8
LC-001-100-D00-0
 62
     7
370
    50
100
AcDbLine
 10
190.119262
 20
363.223383
 30
0.0
 11
190.119262
 21
348.223382
 31
0.0
  0
LINE
  5
A6
330
1F
100
AcDbEntity
  8
LC-001-100-D00-0
 62
     7
370
    50
100
AcDbLine
 10
109.819261
 20
348.223382
 30
0.0
 11
119.469261
 21
348.223382
 31
0.0
  0
LINE
  5
A7
330
1F
100
AcDbEntity
  8
LC-001-100-D00-0
 62
     7
370
    50
100
AcDbLine
 10
180.469262
 20
348.223382
 30
0.0
 11
190.119262
 21
348.223382
 31
0.0
  0
LINE
  5
A8
330
1F
100
AcDbEntity
  8
LC-001-100-D00-0
 62
     7
370
    50
100
AcDbLine
 10
109.819261
 20
348.223382
 30
0.0
 11
109.819261
 21
363.223383
 31
0.0
  0
LINE
  5
A9
330
1F
100
AcDbEntity
  8
LC-001-100-D00-0
 62
     7
370
    50
100
AcDbLine
 10
190.119262
 20
363.223383
 30
0.0
 11
187.469262
 21
363.223383
 31
0.0
  0
LINE
  5
AA
330
1F
100
AcDbEntity
  8
LC-001-100-D00-0
 62
     7
370
    50
100
AcDbLine
 10
112.469261
 20
363.223383
 30
0.0
 11
109.819261
 21
363.223383
 31
0.0
  0
LINE
  5
AB
330
1F
100
AcDbEntity
  8
LC-001-100-D00-0
 62
     7
370
    50
100
AcDbLine
 10
204.969263
 20
390.723379
 30
0.0
 11
204.969263
 21
391.666868
 31
0.0
  0
LINE
  5
AC
330
1F
100
AcDbEntity
  8
LC-001-100-D00-0
 62
     7
370
    50
100
AcDbLine
 10
94.969263
 20
391.666868
 30
0.0
 11
94.969263
 21
390.723379
 31
0.0
  0
ARC
  5
AD
330
1F
100
AcDbEntity
  8
LC-001-100-D00-0
 62
     7
370
    50
100
AcDbCircle
 10
192.590698
 20
343.223382
 30
0.0
 40
49.99999999999992
100
AcDbArc
 50
75.66616
 51
90.0
  0
ARC
  5
AE
330
1F
100
AcDbEntity
  8
LC-001-100-D00-0
 62
     7
370
    50
100
AcDbCircle
 10
107.347827
 20
343.223382
 30
0.0
 40
49.99999999999994
100
AcDbArc
 50
90.0
 51
104.33384
  0
LINE
  5
AF
330
1F
100
AcDbEntity
  8
LC-001-100-D00-0
 62
     7
370
    50
100
AcDbLine
 10
192.969262
 20
349.723381
 30
0.0
 11
192.969262
 21
390.723379
 31
0.0
  0
LINE
  5
B0
330
1F
100
AcDbEntity
  8
LC-001-100-D00-0
 62
     7
370
    50
100
AcDbLine
 10
106.969265
 20
390.723379
 30
0.0
 11
106.969265
 21
349.723381
 31
0.0
  0
LINE
  5
B1
330
1F
100
AcDbEntity
  8
LC-001-100-D00-0
 62
     7
370
    50
100
AcDbLine
 10
108.469261
 20
348.223382
 30
0.0
 11
106.969265
 21
349.723381
 31
0.0
  0
LINE
  5
B2
330
1F
100
AcDbEntity
  8
LC-001-100-D00-0
 62
     7
370
    50
100
AcDbLine
 10
192.969262
 20
349.723381
 30
0.0
 11
191.469262
 21
348.223382
 31
0.0
  0
ARC
  5
B3
330
1F
100
AcDbEntity
  8
LC-001-100-D00-0
 62
     7
370
    50
100
AcDbCircle
 10
191.119262
 20
392.223382
 30
0.0
 40
1.0
100
AcDbArc
 50
90.0
 51
180.0
  0
ARC
  5
B4
330
1F
100
AcDbEntity
  8
LC-001-100-D00-0
 62
     7
370
    50
100
AcDbCircle
 10
108.819262
 20
392.223382
 30
0.0
 40
1.0
100
AcDbArc
 50
0.0
 51
90.0
  0
LINE
  5
B5
330
1F
100
AcDbEntity
  8
LC-001-100-D00-0
 62
     7
370
    50
100
AcDbLine
 10
131.847152
 20
393.223384
 30
0.0
 11
149.091448
 21
393.223384
 31
0.0
  0
LINE
  5
B6
330
1F
100
AcDbEntity
  8
LC-001-100-D00-0
 62
     7
370
    50
100
AcDbLine
 10
150.847077
 20
393.223384
 30
0.0
 11
168.091371
 21
393.223384
 31
0.0
  0
LINE
  5
B7
330
1F
100
AcDbEntity
  8
LC-001-100-D00-0
 62
     7
370
    50
100
AcDbLine
 10
112.219265
 20
385.023379
 30
0.0
 11
109.819261
 21
385.023379
 31
0.0
  0
LINE
  5
B8
330
1F
100
AcDbEntity
  8
LC-001-100-D00-0
 62
     7
370
    50
100
AcDbLine
 10
112.219265
 20
379.023382
 30
0.0
 11
112.219265
 21
385.023379
 31
0.0
  0
LINE
  5
B9
330
1F
100
AcDbEntity
  8
LC-001-100-D00-0
 62
     7
370
    50
100
AcDbLine
 10
112.469261
 20
378.090368
 30
0.0
 11
112.219265
 21
379.023382
 31
0.0
  0
LINE
  5
BA
330
1F
100
AcDbEntity
  8
LC-001-100-D00-0
 62
     7
370
    50
100
AcDbLine
 10
112.469261
 20
378.090368
 30
0.0
 11
112.469261
 21
363.223383
 31
0.0
  0
LINE
  5
BB
330
1F
100
AcDbEntity
  8
LC-001-100-D00-0
 62
     7
370
    50
100
AcDbLine
 10
108.469261
 20
348.223382
 30
0.0
 11
109.819261
 21
348.223382
 31
0.0
  0
LINE
  5
BC
330
1F
100
AcDbEntity
  8
LC-001-100-D00-0
 62
     7
370
    50
100
AcDbLine
 10
108.819259
 20
393.223384
 30
0.0
 11
107.347829
 21
393.223384
 31
0.0
  0
LINE
  5
BD
330
1F
100
AcDbEntity
  8
LC-001-100-D00-0
 62
     7
370
    50
100
AcDbLine
 10
94.969263
 20
390.723379
 30
0.0
 11
106.969265
 21
390.723379
 31
0.0
  0
LINE
  5
BE
330
1F
100
AcDbEntity
  8
LC-001-100-D00-0
 62
     7
370
    50
100
AcDbLine
 10
187.469262
 20
363.223383
 30
0.0
 11
187.469262
 21
378.090368
 31
0.0
  0
LINE
  5
BF
330
1F
100
AcDbEntity
  8
LC-001-100-D00-0
 62
     7
370
    50
100
AcDbLine
 10
187.719262
 20
379.023382
 30
0.0
 11
187.469262
 21
378.090368
 31
0.0
  0
LINE
  5
C0
330
1F
100
AcDbEntity
  8
LC-001-100-D00-0
 62
     7
370
    50
100
AcDbLine
 10
187.719262
 20
385.023379
 30
0.0
 11
187.719262
 21
379.023382
 31
0.0
  0
LINE
  5
C1
330
1F
100
AcDbEntity
  8
LC-001-100-D00-0
 62
     7
370
    50
100
AcDbLine
 10
190.119262
 20
385.023379
 30
0.0
 11
187.719262
 21
385.023379
 31
0.0
  0
LINE
  5
C2
330
1F
100
AcDbEntity
  8
LC-001-100-D00-0
 62
     7
370
    50
100
AcDbLine
 10
190.119262
 20
348.223382
 30
0.0
 11
191.469262
 21
348.223382
 31
0.0
  0
LINE
  5
C3
330
1F
100
AcDbEntity
  8
LC-001-100-D00-0
 62
     7
370
    50
100
AcDbLine
 10
192.590698
 20
393.223384
 30
0.0
 11
191.119262
 21
393.223384
 31
0.0
  0
LINE
  5
C4
330
1F
100
AcDbEntity
  8
LC-001-100-D00-0
 62
     7
370
    50
100
AcDbLine
 10
192.969262
 20
390.723379
 30
0.0
 11
204.969263
 21
390.723379
 31
0.0
  0
LINE
  5
C5
330
1F
100
AcDbEntity
  8
LC-001-100-D00-0
 62
     7
370
    50
100
AcDbLine
 10
93.969261
 20
380.723381
 30
0.0
 11
93.969261
 21
391.723381
 31
0.0
  0
LINE
  5
C6
330
1F
100
AcDbEntity
  8
LC-001-100-D00-0
 62
     7
370
    50
100
AcDbLine
 10
205.969263
 20
391.723381
 30
0.0
 11
205.969263
 21
380.723381
 31
0.0
  0
LINE
  5
C7
330
1F
100
AcDbEntity
  8
LC-001-100-D00-0
 62
     7
370
    50
100
AcDbLine
 10
205.969263
 20
391.723381
 30
0.0
 11
204.745943
 21
391.723381
 31
0.0
  0
LINE
  5
C8
330
1F
100
AcDbEntity
  8
LC-001-100-D00-0
 62
     7
370
    50
100
AcDbLine
 10
95.192579
 20
391.723381
 30
0.0
 11
93.969261
 21
391.723381
 31
0.0
  0
LINE
  5
C9
330
1F
100
AcDbEntity
  8
LC-001-100-D00-0
 62
     7
370
    50
100
AcDbLine
 10
93.969261
 20
391.723381
 30
0.0
 11
98.469263
 21
387.223379
 31
0.0
  0
LINE
  5
CA
330
1F
100
AcDbEntity
  8
LC-001-100-D00-0
 62
     7
370
    50
100
AcDbLine
 10
201.469263
 20
387.223379
 30
0.0
 11
205.969263
 21
391.723381
 31
0.0
  0
LINE
  5
CB
330
1F
100
AcDbEntity
  8
LC-001-100-D00-0
 62
     7
370
    50
100
AcDbLine
 10
95.969265
 20
384.723382
 30
0.0
 11
95.969265
 21
380.723381
 31
0.0
  0
LINE
  5
CC
330
1F
100
AcDbEntity
  8
LC-001-100-D00-0
 62
     7
370
    50
100
AcDbLine
 10
203.969262
 20
380.723381
 30
0.0
 11
203.969262
 21
384.723382
 31
0.0
  0
LINE
  5
CD
330
1F
100
AcDbEntity
  8
LC-001-100-D00-0
 62
     7
370
    50
100
AcDbLine
 10
203.969262
 20
380.723381
 30
0.0
 11
202.969262
 21
380.723381
 31
0.0
  0
LINE
  5
CE
330
1F
100
AcDbEntity
  8
LC-001-100-D00-0
 62
     7
370
    50
100
AcDbLine
 10
96.96926
 20
380.723381
 30
0.0
 11
95.969265
 21
380.723381
 31
0.0
  0
LINE
  5
CF
330
1F
100
AcDbEntity
  8
LC-001-100-D00-0
 62
     7
370
    50
100
AcDbLine
 10
199.856015
 20
388.223381
 30
0.0
 11
200.433364
 21
387.223379
 31
0.0
  0
LINE
  5
D0
330
1F
100
AcDbEntity
  8
LC-001-100-D00-0
 62
     7
370
    50
100
AcDbLine
 10
99.505162
 20
387.223379
 30
0.0
 11
100.082507
 21
388.223381
 31
0.0
  0
LINE
  5
D1
330
1F
100
AcDbEntity
  8
LC-001-100-D00-0
 62
     7
370
    50
100
AcDbLine
 10
100.082507
 20
388.223381
 30
0.0
 11
100.65986
 21
387.223379
 31
0.0
  0
LINE
  5
D2
330
1F
100
AcDbEntity
  8
LC-001-100-D00-0
 62
     7
370
    50
100
AcDbLine
 10
199.278664
 20
387.223379
 30
0.0
 11
199.856015
 21
388.223381
 31
0.0
  0
LINE
  5
D3
330
1F
100
AcDbEntity
  8
LC-001-100-D00-0
 62
     7
370
    50
100
AcDbLine
 10
100.469259
 20
383.223379
 30
0.0
 11
100.469259
 21
384.723382
 31
0.0
  0
LINE
  5
D4
330
1F
100
AcDbEntity
  8
LC-001-100-D00-0
 62
     7
370
    50
100
AcDbLine
 10
199.469263
 20
384.723382
 30
0.0
 11
199.469263
 21
383.223379
 31
0.0
  0
LINE
  5
D5
330
1F
100
AcDbEntity
  8
LC-001-100-D00-0
 62
     7
370
    50
100
AcDbLine
 10
198.701313
 20
388.223381
 30
0.0
 11
199.278664
 21
387.223379
 31
0.0
  0
LINE
  5
D6
330
1F
100
AcDbEntity
  8
LC-001-100-D00-0
 62
     7
370
    50
100
AcDbLine
 10
100.65986
 20
387.223379
 30
0.0
 11
101.237213
 21
388.223381
 31
0.0
  0
LINE
  5
D7
330
1F
100
AcDbEntity
  8
LC-001-100-D00-0
 62
     7
370
    50
100
AcDbLine
 10
101.237213
 20
388.223381
 30
0.0
 11
101.814559
 21
387.223379
 31
0.0
  0
LINE
  5
D8
330
1F
100
AcDbEntity
  8
LC-001-100-D00-0
 62
     7
370
    50
100
AcDbLine
 10
198.123963
 20
387.223379
 30
0.0
 11
198.701313
 21
388.223381
 31
0.0
  0
LINE
  5
D9
330
1F
100
AcDbEntity
  8
LC-001-100-D00-0
 62
     7
370
    50
100
AcDbLine
 10
197.546612
 20
388.223381
 30
0.0
 11
198.123963
 21
387.223379
 31
0.0
  0
LINE
  5
DA
330
1F
100
AcDbEntity
  8
LC-001-100-D00-0
 62
     7
370
    50
100
AcDbLine
 10
101.814559
 20
387.223379
 30
0.0
 11
102.391912
 21
388.223381
 31
0.0
  0
LINE
  5
DB
330
1F
100
AcDbEntity
  8
LC-001-100-D00-0
 62
     7
370
    50
100
AcDbLine
 10
102.391912
 20
388.223381
 30
0.0
 11
102.969264
 21
387.223379
 31
0.0
  0
LINE
  5
DC
330
1F
100
AcDbEntity
  8
LC-001-100-D00-0
 62
     7
370
    50
100
AcDbLine
 10
196.969261
 20
387.223379
 30
0.0
 11
197.546612
 21
388.223381
 31
0.0
  0
LINE
  5
DD
330
1F
100
AcDbEntity
  8
LC-001-100-D00-0
 62
     7
370
    50
100
AcDbLine
 10
102.969264
 20
387.223379
 30
0.0
 11
102.969264
 21
383.223379
 31
0.0
  0
LINE
  5
DE
330
1F
100
AcDbEntity
  8
LC-001-100-D00-0
 62
     7
370
    50
100
AcDbLine
 10
196.969261
 20
383.223379
 30
0.0
 11
196.969261
 21
387.223379
 31
0.0
  0
LINE
  5
DF
330
1F
100
AcDbEntity
  8
LC-001-100-D00-0
 62
     7
370
    50
100
AcDbLine
 10
199.469263
 20
383.223379
 30
0.0
 11
196.969261
 21
383.223379
 31
0.0
  0
LINE
  5
E0
330
1F
100
AcDbEntity
  8
LC-001-100-D00-0
 62
     7
370
    50
100
AcDbLine
 10
200.433364
 20
387.223379
 30
0.0
 11
201.469263
 21
387.223379
 31
0.0
  0
LINE
  5
E1
330
1F
100
AcDbEntity
  8
LC-001-100-D00-0
 62
     7
370
    50
100
AcDbLine
 10
203.969262
 20
384.723382
 30
0.0
 11
199.469263
 21
384.723382
 31
0.0
  0
LINE
  5
E2
330
1F
100
AcDbEntity
  8
LC-001-100-D00-0
 62
     7
370
    50
100
AcDbLine
 10
205.969263
 20
380.723381
 30
0.0
 11
203.969262
 21
380.723381
 31
0.0
  0
LINE
  5
E3
330
1F
100
AcDbEntity
  8
LC-001-100-D00-0
 62
     7
370
    50
100
AcDbLine
 10
102.969264
 20
383.223379
 30
0.0
 11
100.469259
 21
383.223379
 31
0.0
  0
LINE
  5
E4
330
1F
100
AcDbEntity
  8
LC-001-100-D00-0
 62
     7
370
    50
100
AcDbLine
 10
98.469263
 20
387.223379
 30
0.0
 11
99.505162
 21
387.223379
 31
0.0
  0
LINE
  5
E5
330
1F
100
AcDbEntity
  8
LC-001-100-D00-0
 62
     7
370
    50
100
AcDbLine
 10
100.469259
 20
384.723382
 30
0.0
 11
95.969265
 21
384.723382
 31
0.0
  0
LINE
  5
E6
330
1F
100
AcDbEntity
  8
LC-001-100-D00-0
 62
     7
370
    50
100
AcDbLine
 10
95.969265
 20
380.723381
 30
0.0
 11
93.969261
 21
380.723381
 31
0.0
  0
CIRCLE
  5
E7
330
1F
100
AcDbEntity
  8
LC-001-100-D00-0
 62
     7
370
    50
100
AcDbCircle
 10
110.719262
 20
389.523382
 30
0.0
 40
1.25
  0
CIRCLE
  5
E8
330
1F
100
AcDbEntity
  8
LC-001-100-D00-0
 62
     7
370
    50
100
AcDbCircle
 10
189.219262
 20
389.523382
 30
0.0
 40
1.249999999999972
  0
LINE
  5
E9
330
1F
100
AcDbEntity
  8
LC-001-100-D00-0
 62
     7
370
    50
100
AcDbLine
 10
110.219261
 20
391.023384
 30
0.0
 11
110.219261
 21
393.023381
 31
0.0
  0
LINE
  5
EA
330
1F
100
AcDbEntity
  8
LC-001-100-D00-0
 62
     7
370
    50
100
AcDbLine
 10
189.719262
 20
393.023381
 30
0.0
 11
189.719262
 21
391.023384
 31
0.0
  0
LINE
  5
EB
330
1F
100
AcDbEntity
  8
LC-001-100-D00-0
 62
     7
370
    50
100
AcDbLine
 10
110.469265
 20
386.523382
 30
0.0
 11
110.469265
 21
388.223381
 31
0.0
  0
LINE
  5
EC
330
1F
100
AcDbEntity
  8
LC-001-100-D00-0
 62
     7
370
    50
100
AcDbLine
 10
189.469262
 20
388.223381
 30
0.0
 11
189.469262
 21
386.523382
 31
0.0
  0
LINE
  5
ED
330
1F
100
AcDbEntity
  8
LC-001-100-D00-0
 62
     7
370
    50
100
AcDbLine
 10
111.96926
 20
388.223381
 30
0.0
 11
111.96926
 21
391.023384
 31
0.0
  0
LINE
  5
EE
330
1F
100
AcDbEntity
  8
LC-001-100-D00-0
 62
     7
370
    50
100
AcDbLine
 10
187.969263
 20
391.023384
 30
0.0
 11
187.969263
 21
388.223381
 31
0.0
  0
ARC
  5
EF
330
1F
100
AcDbEntity
  8
LC-001-100-D00-0
 62
     7
370
    50
100
AcDbCircle
 10
114.469262
 20
391.023382
 30
0.0
 40
2.0
100
AcDbArc
 50
0.0
 51
90.0
  0
ARC
  5
F0
330
1F
100
AcDbEntity
  8
LC-001-100-D00-0
 62
     7
370
    50
100
AcDbCircle
 10
185.469262
 20
391.023382
 30
0.0
 40
2.0
100
AcDbArc
 50
90.0
 51
180.0
  0
LINE
  5
F1
330
1F
100
AcDbEntity
  8
LC-001-100-D00-0
 62
     7
370
    50
100
AcDbLine
 10
185.469262
 20
393.023381
 30
0.0
 11
183.969262
 21
393.023381
 31
0.0
  0
LINE
  5
F2
330
1F
100
AcDbEntity
  8
LC-001-100-D00-0
 62
     7
370
    50
100
AcDbLine
 10
176.493106
 20
393.023381
 30
0.0
 11
174.629133
 21
393.023381
 31
0.0
  0
LINE
  5
F3
330
1F
100
AcDbEntity
  8
LC-001-100-D00-0
 62
     7
370
    50
100
AcDbLine
 10
168.106212
 20
393.023381
 30
0.0
 11
150.843585
 21
393.023381
 31
0.0
  0
LINE
  5
F4
330
1F
100
AcDbEntity
  8
LC-001-100-D00-0
 62
     7
370
    50
100
AcDbLine
 10
149.094939
 20
393.023381
 30
0.0
 11
131.832311
 21
393.023381
 31
0.0
  0
LINE
  5
F5
330
1F
100
AcDbEntity
  8
LC-001-100-D00-0
 62
     7
370
    50
100
AcDbLine
 10
125.309391
 20
393.023381
 30
0.0
 11
123.445419
 21
393.023381
 31
0.0
  0
LINE
  5
F6
330
1F
100
AcDbEntity
  8
LC-001-100-D00-0
 62
     7
370
    50
100
AcDbLine
 10
115.969261
 20
393.023381
 30
0.0
 11
114.469262
 21
393.023381
 31
0.0
  0
LINE
  5
F7
330
1F
100
AcDbEntity
  8
LC-001-100-D00-0
 62
     7
370
    50
100
AcDbLine
 10
114.469262
 20
383.023383
 30
0.0
 11
114.469262
 21
386.523382
 31
0.0
  0
LINE
  5
F8
330
1F
100
AcDbEntity
  8
LC-001-100-D00-0
 62
     7
370
    50
100
AcDbLine
 10
185.469262
 20
386.523382
 30
0.0
 11
185.469262
 21
383.023383
 31
0.0
  0
LINE
  5
F9
330
1F
100
AcDbEntity
  8
LC-001-100-D00-0
 62
     7
370
    50
100
AcDbLine
 10
116.469262
 20
391.023384
 30
0.0
 11
116.469262
 21
385.023379
 31
0.0
  0
LINE
  5
FA
330
1F
100
AcDbEntity
  8
LC-001-100-D00-0
 62
     7
370
    50
100
AcDbLine
 10
183.469262
 20
385.023379
 30
0.0
 11
183.469262
 21
391.023384
 31
0.0
  0
ARC
  5
FB
330
1F
100
AcDbEntity
  8
LC-001-100-D00-0
 62
     7
370
    50
100
AcDbCircle
 10
117.469262
 20
385.023382
 30
0.0
 40
1.0
100
AcDbArc
 50
180.0
 51
270.0
  0
ARC
  5
FC
330
1F
100
AcDbEntity
  8
LC-001-100-D00-0
 62
     7
370
    50
100
AcDbCircle
 10
182.469262
 20
385.023382
 30
0.0
 40
1.0
100
AcDbArc
 50
270.0
 51
0.0
  0
ARC
  5
FD
330
1F
100
AcDbEntity
  8
LC-001-100-D00-0
 62
     7
370
    50
100
AcDbCircle
 10
119.969262
 20
372.023382
 30
0.0
 40
10.99999999999996
100
AcDbArc
 50
0.0
 51
90.0
  0
ARC
  5
FE
330
1F
100
AcDbEntity
  8
LC-001-100-D00-0
 62
     7
370
    50
100
AcDbCircle
 10
179.969262
 20
372.023382
 30
0.0
 40
11.0
100
AcDbArc
 50
90.0
 51
180.0
  0
ARC
  5
FF
330
1F
100
AcDbEntity
  8
LC-001-100-D00-0
 62
     7
370
    50
100
AcDbCircle
 10
119.969262
 20
372.023382
 30
0.0
 40
12.00000000000001
100
AcDbArc
 50
0.0
 51
90.0
  0
ARC
  5
100
330
1F
100
AcDbEntity
  8
LC-001-100-D00-0
 62
     7
370
    50
100
AcDbCircle
 10
179.969262
 20
372.023382
 30
0.0
 40
12.0
100
AcDbArc
 50
90.0
 51
180.0
  0
LINE
  5
101
330
1F
100
AcDbEntity
  8
LC-001-100-D00-0
 62
     7
370
    50
100
AcDbLine
 10
179.969262
 20
384.023385
 30
0.0
 11
119.969262
 21
384.023385
 31
0.0
  0
LINE
  5
102
330
1F
100
AcDbEntity
  8
LC-001-100-D00-0
 62
     7
370
    50
100
AcDbLine
 10
130.969262
 20
319.523382
 30
0.0
 11
130.969262
 21
372.023383
 31
0.0
  0
LINE
  5
103
330
1F
100
AcDbEntity
  8
LC-001-100-D00-0
 62
     7
370
    50
100
AcDbLine
 10
168.969262
 20
372.023383
 30
0.0
 11
168.969262
 21
319.523382
 31
0.0
  0
LINE
  5
104
330
1F
100
AcDbEntity
  8
LC-001-100-D00-0
 62
     7
370
    50
100
AcDbLine
 10
131.969264
 20
372.023383
 30
0.0
 11
131.969264
 21
319.523382
 31
0.0
  0
LINE
  5
105
330
1F
100
AcDbEntity
  8
LC-001-100-D00-0
 62
     7
370
    50
100
AcDbLine
 10
167.969262
 20
319.523382
 30
0.0
 11
167.969262
 21
372.023383
 31
0.0
  0
LINE
  5
106
330
1F
100
AcDbEntity
  8
LC-001-100-D00-0
 62
     7
370
    50
100
AcDbLine
 10
167.969262
 20
319.523382
 30
0.0
 11
131.969264
 21
319.523382
 31
0.0
  0
LINE
  5
107
330
1F
100
AcDbEntity
  8
LC-001-100-D00-0
 62
     7
370
    50
100
AcDbLine
 10
131.969264
 20
319.523382
 30
0.0
 11
130.969262
 21
319.523382
 31
0.0
  0
LINE
  5
108
330
1F
100
AcDbEntity
  8
LC-001-100-D00-0
 62
     7
370
    50
100
AcDbLine
 10
117.46926
 20
384.023385
 30
0.0
 11
119.969262
 21
384.023385
 31
0.0
  0
LINE
  5
109
330
1F
100
AcDbEntity
  8
LC-001-100-D00-0
 62
     7
370
    50
100
AcDbLine
 10
119.969262
 20
383.023383
 30
0.0
 11
114.469262
 21
383.023383
 31
0.0
  0
LINE
  5
10A
330
1F
100
AcDbEntity
  8
LC-001-100-D00-0
 62
     7
370
    50
100
AcDbLine
 10
110.469265
 20
388.223381
 30
0.0
 11
111.96926
 21
388.223381
 31
0.0
  0
LINE
  5
10B
330
1F
100
AcDbEntity
  8
LC-001-100-D00-0
 62
     7
370
    50
100
AcDbLine
 10
114.469262
 20
386.523382
 30
0.0
 11
110.469265
 21
386.523382
 31
0.0
  0
LINE
  5
10C
330
1F
100
AcDbEntity
  8
LC-001-100-D00-0
 62
     7
370
    50
100
AcDbLine
 10
110.219261
 20
393.023381
 30
0.0
 11
114.469262
 21
393.023381
 31
0.0
  0
LINE
  5
10D
330
1F
100
AcDbEntity
  8
LC-001-100-D00-0
 62
     7
370
    50
100
AcDbLine
 10
111.96926
 20
391.023384
 30
0.0
 11
110.219261
 21
391.023384
 31
0.0
  0
LINE
  5
10E
330
1F
100
AcDbEntity
  8
LC-001-100-D00-0
 62
     7
370
    50
100
AcDbLine
 10
168.969262
 20
319.523382
 30
0.0
 11
167.969262
 21
319.523382
 31
0.0
  0
LINE
  5
10F
330
1F
100
AcDbEntity
  8
LC-001-100-D00-0
 62
     7
370
    50
100
AcDbLine
 10
179.969262
 20
384.023385
 30
0.0
 11
182.469262
 21
384.023385
 31
0.0
  0
LINE
  5
110
330
1F
100
AcDbEntity
  8
LC-001-100-D00-0
 62
     7
370
    50
100
AcDbLine
 10
185.469262
 20
383.023383
 30
0.0
 11
179.969262
 21
383.023383
 31
0.0
  0
LINE
  5
111
330
1F
100
AcDbEntity
  8
LC-001-100-D00-0
 62
     7
370
    50
100
AcDbLine
 10
187.969263
 20
388.223381
 30
0.0
 11
189.469262
 21
388.223381
 31
0.0
  0
LINE
  5
112
330
1F
100
AcDbEntity
  8
LC-001-100-D00-0
 62
     7
370
    50
100
AcDbLine
 10
189.469262
 20
386.523382
 30
0.0
 11
185.469262
 21
386.523382
 31
0.0
  0
LINE
  5
113
330
1F
100
AcDbEntity
  8
LC-001-100-D00-0
 62
     7
370
    50
100
AcDbLine
 10
185.469262
 20
393.023381
 30
0.0
 11
189.719262
 21
393.023381
 31
0.0
  0
LINE
  5
114
330
1F
100
AcDbEntity
  8
LC-001-100-D00-0
 62
     7
370
    50
100
AcDbLine
 10
189.719262
 20
391.023384
 30
0.0
 11
187.969263
 21
391.023384
 31
0.0
  0
LINE
  5
115
330
1F
100
AcDbEntity
  8
LC-001-100-D00-0
 62
     7
370
    50
100
AcDbLine
 10
178.969262
 20
368.523383
 30
0.0
 11
168.969262
 21
368.523383
 31
0.0
  0
LINE
  5
116
330
1F
100
AcDbEntity
  8
LC-001-100-D00-0
 62
     7
370
    50
100
AcDbLine
 10
130.969262
 20
368.523383
 30
0.0
 11
120.969264
 21
368.523383
 31
0.0
  0
LINE
  5
117
330
1F
100
AcDbEntity
  8
LC-001-100-D00-0
 62
     7
370
    50
100
AcDbLine
 10
178.969262
 20
368.523383
 30
0.0
 11
178.969262
 21
317.523382
 31
0.0
  0
LINE
  5
118
330
1F
100
AcDbEntity
  8
LC-001-100-D00-0
 62
     7
370
    50
100
AcDbLine
 10
120.969264
 20
317.523382
 30
0.0
 11
120.969264
 21
368.523383
 31
0.0
  0
LINE
  5
119
330
1F
100
AcDbEntity
  8
LC-001-100-D00-0
 62
     7
370
    50
100
AcDbLine
 10
180.469262
 20
317.523382
 30
0.0
 11
180.469262
 21
368.023382
 31
0.0
  0
LINE
  5
11A
330
1F
100
AcDbEntity
  8
LC-001-100-D00-0
 62
     7
370
    50
100
AcDbLine
 10
119.469261
 20
368.023382
 30
0.0
 11
119.469261
 21
317.523382
 31
0.0
  0
LINE
  5
11B
330
1F
100
AcDbEntity
  8
LC-001-100-D00-0
 62
     7
370
    50
100
AcDbLine
 10
112.61565
 20
382.37706
 30
0.0
 11
119.469261
 21
368.023382
 31
0.0
  0
ARC
  5
11C
330
1F
100
AcDbEntity
  8
LC-001-100-D00-0
 62
     7
370
    50
100
AcDbCircle
 10
129.469262
 20
317.523382
 30
0.0
 40
10.0
100
AcDbArc
 50
180.0
 51
270.0
  0
ARC
  5
11D
330
1F
100
AcDbEntity
  8
LC-001-100-D00-0
 62
     7
370
    50
100
AcDbCircle
 10
113.969262
 20
383.023382
 30
0.0
 40
1.5
100
AcDbArc
 50
180.0
 51
205.523603
  0
LINE
  5
11E
330
1F
100
AcDbEntity
  8
LC-001-100-D00-0
 62
     7
370
    50
100
AcDbLine
 10
112.469261
 20
385.023379
 30
0.0
 11
112.469261
 21
383.023383
 31
0.0
  0
LINE
  5
11F
330
1F
100
AcDbEntity
  8
LC-001-100-D00-0
 62
     7
370
    50
100
AcDbLine
 10
110.119259
 20
385.023379
 30
0.0
 11
112.469261
 21
385.023379
 31
0.0
  0
LINE
  5
120
330
1F
100
AcDbEntity
  8
LC-001-100-D00-0
 62
     7
370
    50
100
AcDbLine
 10
110.119259
 20
386.523382
 30
0.0
 11
110.119259
 21
385.023379
 31
0.0
  0
LINE
  5
121
330
1F
100
AcDbEntity
  8
LC-001-100-D00-0
 62
     7
370
    50
100
AcDbLine
 10
113.969261
 20
386.523382
 30
0.0
 11
110.119259
 21
386.523382
 31
0.0
  0
LINE
  5
122
330
1F
100
AcDbEntity
  8
LC-001-100-D00-0
 62
     7
370
    50
100
AcDbLine
 10
113.969261
 20
383.023383
 30
0.0
 11
113.969261
 21
386.523382
 31
0.0
  0
LINE
  5
123
330
1F
100
AcDbEntity
  8
LC-001-100-D00-0
 62
     7
370
    50
100
AcDbLine
 10
120.526889
 20
369.289593
 30
0.0
 11
113.969261
 21
383.023383
 31
0.0
  0
LINE
  5
124
330
1F
100
AcDbEntity
  8
LC-001-100-D00-0
 62
     7
370
    50
100
AcDbLine
 10
120.526889
 20
369.289593
 30
0.0
 11
120.969264
 21
368.523383
 31
0.0
  0
ARC
  5
125
330
1F
100
AcDbEntity
  8
LC-001-100-D00-0
 62
     7
370
    50
100
AcDbCircle
 10
129.469262
 20
317.523382
 30
0.0
 40
8.5
100
AcDbArc
 50
180.0
 51
270.0
  0
ARC
  5
126
330
1F
100
AcDbEntity
  8
LC-001-100-D00-0
 62
     7
370
    50
100
AcDbCircle
 10
170.469262
 20
317.523382
 30
0.0
 40
8.5
100
AcDbArc
 50
270.0
 51
0.0
  0
LINE
  5
127
330
1F
100
AcDbEntity
  8
LC-001-100-D00-0
 62
     7
370
    50
100
AcDbLine
 10
178.969262
 20
368.523383
 30
0.0
 11
179.411637
 21
369.289593
 31
0.0
  0
LINE
  5
128
330
1F
100
AcDbEntity
  8
LC-001-100-D00-0
 62
     7
370
    50
100
AcDbLine
 10
185.969262
 20
383.023383
 30
0.0
 11
179.411637
 21
369.289593
 31
0.0
  0
LINE
  5
129
330
1F
100
AcDbEntity
  8
LC-001-100-D00-0
 62
     7
370
    50
100
AcDbLine
 10
185.969262
 20
386.523382
 30
0.0
 11
185.969262
 21
383.023383
 31
0.0
  0
LINE
  5
12A
330
1F
100
AcDbEntity
  8
LC-001-100-D00-0
 62
     7
370
    50
100
AcDbLine
 10
189.819262
 20
386.523382
 30
0.0
 11
185.969262
 21
386.523382
 31
0.0
  0
LINE
  5
12B
330
1F
100
AcDbEntity
  8
LC-001-100-D00-0
 62
     7
370
    50
100
AcDbLine
 10
189.819262
 20
385.023379
 30
0.0
 11
189.819262
 21
386.523382
 31
0.0
  0
LINE
  5
12C
330
1F
100
AcDbEntity
  8
LC-001-100-D00-0
 62
     7
370
    50
100
AcDbLine
 10
187.469262
 20
385.023379
 30
0.0
 11
189.819262
 21
385.023379
 31
0.0
  0
LINE
  5
12D
330
1F
100
AcDbEntity
  8
LC-001-100-D00-0
 62
     7
370
    50
100
AcDbLine
 10
187.469262
 20
383.023383
 30
0.0
 11
187.469262
 21
385.023379
 31
0.0
  0
ARC
  5
12E
330
1F
100
AcDbEntity
  8
LC-001-100-D00-0
 62
     7
370
    50
100
AcDbCircle
 10
185.969262
 20
383.023382
 30
0.0
 40
1.49999999999998
100
AcDbArc
 50
334.476397
 51
0.0
  0
LINE
  5
12F
330
1F
100
AcDbEntity
  8
LC-001-100-D00-0
 62
     7
370
    50
100
AcDbLine
 10
180.469262
 20
368.023382
 30
0.0
 11
187.322873
 21
382.37706
 31
0.0
  0
ARC
  5
130
330
1F
100
AcDbEntity
  8
LC-001-100-D00-0
 62
     7
370
    50
100
AcDbCircle
 10
170.469262
 20
317.523382
 30
0.0
 40
10.0
100
AcDbArc
 50
270.0
 51
0.0
  0
LINE
  5
131
330
1F
100
AcDbEntity
  8
LC-001-100-D00-0
 62
     7
370
    50
100
AcDbLine
 10
170.469262
 20
309.023382
 30
0.0
 11
129.469262
 21
309.023382
 31
0.0
  0
LINE
  5
132
330
1F
100
AcDbEntity
  8
LC-001-100-D00-0
 62
     7
370
    50
100
AcDbLine
 10
129.469262
 20
307.523382
 30
0.0
 11
170.469262
 21
307.523382
 31
0.0
  0
LINE
  5
133
330
1F
100
AcDbEntity
  8
LC-001-100-D00-0
 62
     7
370
    50
100
AcDbLine
 10
179.258397
 20
369.289593
 30
0.0
 11
179.411637
 21
369.289593
 31
0.0
  0
INSERT
  5
13F
330
1F
100
AcDbEntity
  8
LC-001-100-D00-0
 62
     7
370
    50
100
AcDbBlockReference
  2
POLY1
 10
0.0
 20
0.0
 30
0.0
  0
LINE
  5
140
330
1F
100
AcDbEntity
  8
LC-001-100-D00-0
 62
     7
370
    50
100
AcDbLine
 10
185.844044
 20
383.023383
 30
0.0
 11
185.969262
 21
383.023383
 31
0.0
  0
LINE
  5
141
330
1F
100
AcDbEntity
  8
LC-001-100-D00-0
 62
     7
370
    50
100
AcDbLine
 10
185.844044
 20
383.023383
 30
0.0
 11
185.469262
 21
383.023383
 31
0.0
  0
LINE
  5
142
330
1F
100
AcDbEntity
  8
LC-001-100-D00-0
 62
     7
370
    50
100
AcDbLine
 10
114.469262
 20
383.023383
 30
0.0
 11
114.094479
 21
383.023383
 31
0.0
  0
LINE
  5
143
330
1F
100
AcDbEntity
  8
LC-001-100-D00-0
 62
     7
370
    50
100
AcDbLine
 10
113.969261
 20
383.023383
 30
0.0
 11
114.094479
 21
383.023383
 31
0.0
  0
INSERT
  5
14F
330
1F
100
AcDbEntity
  8
LC-001-100-D00-0
 62
     7
370
    50
100
AcDbBlockReference
  2
POLY2
 10
0.0
 20
0.0
 30
0.0
  0
LINE
  5
150
330
1F
100
AcDbEntity
  8
LC-001-100-D00-0
 62
     7
370
    50
100
AcDbLine
 10
120.526889
 20
369.289593
 30
0.0
 11
120.680129
 21
369.289593
 31
0.0
  0
LINE
  5
151
330
1F
100
AcDbEntity
  8
LC-001-100-D00-0
 62
     7
370
    50
100
AcDbLine
 10
119.964162
 20
370.52338
 30
0.0
 11
130.969262
 21
370.52338
 31
0.0
  0
LINE
  5
152
330
1F
100
AcDbEntity
  8
LC-001-100-D00-0
 62
     7
370
    50
100
AcDbLine
 10
168.969262
 20
370.52338
 30
0.0
 11
179.974361
 21
370.52338
 31
0.0
  0
LINE
  5
153
330
1F
100
AcDbEntity
  8
LC-001-100-D00-0
 62
     7
370
    50
100
AcDbLine
 10
96.469259
 20
381.223382
 30
0.0
 11
96.469259
 21
384.723382
 31
0.0
  0
LINE
  5
154
330
1F
100
AcDbEntity
  8
LC-001-100-D00-0
 62
     7
370
    50
100
AcDbLine
 10
203.469261
 20
384.723382
 30
0.0
 11
203.469261
 21
381.223382
 31
0.0
  0
ARC
  5
155
330
1F
100
AcDbEntity
  8
LC-001-100-D00-0
 62
     7
370
    50
100
AcDbCircle
 10
202.969262
 20
381.223382
 30
0.0
 40
0.5
100
AcDbArc
 50
270.0
 51
0.0
  0
ARC
  5
156
330
1F
100
AcDbEntity
  8
LC-001-100-D00-0
 62
     7
370
    50
100
AcDbCircle
 10
96.969262
 20
381.223382
 30
0.0
 40
0.5
100
AcDbArc
 50
180.0
 51
270.0
  0
LINE
  5
157
330
1F
100
AcDbEntity
  8
LC-001-100-D00-0
 62
     7
370
    50
100
AcDbLine
 10
99.969266
 20
384.723382
 30
0.0
 11
99.969266
 21
383.223379
 31
0.0
  0
LINE
  5
158
330
1F
100
AcDbEntity
  8
LC-001-100-D00-0
 62
     7
370
    50
100
AcDbLine
 10
199.969262
 20
383.223379
 30
0.0
 11
199.969262
 21
384.723382
 31
0.0
  0
ARC
  5
159
330
1F
100
AcDbEntity
  8
LC-001-100-D00-0
 62
     7
370
    50
100
AcDbCircle
 10
184.969262
 20
308.865518
 30
0.0
 40
10.0
100
AcDbArc
 50
315.0
 51
0.0
  0
ARC
  5
15A
330
1F
100
AcDbEntity
  8
LC-001-100-D00-0
 62
     7
370
    50
100
AcDbCircle
 10
114.969262
 20
308.865518
 30
0.0
 40
10.00000000000001
100
AcDbArc
 50
180.0
 51
225.0
  0
LINE
  5
15B
330
1F
100
AcDbEntity
  8
LC-001-100-D00-0
 62
     7
370
    50
100
AcDbLine
 10
104.969261
 20
308.865518
 30
0.0
 11
104.969261
 21
378.723384
 31
0.0
  0
LINE
  5
15C
330
1F
100
AcDbEntity
  8
LC-001-100-D00-0
 62
     7
370
    50
100
AcDbLine
 10
194.969263
 20
378.723384
 30
0.0
 11
194.969263
 21
308.865518
 31
0.0
  0
LINE
  5
15D
330
1F
100
AcDbEntity
  8
LC-001-100-D00-0
 62
     7
370
    50
100
AcDbLine
 10
106.069265
 20
383.223379
 30
0.0
 11
108.069261
 21
381.223382
 31
0.0
  0
LINE
  5
15E
330
1F
100
AcDbEntity
  8
LC-001-100-D00-0
 62
     7
370
    50
100
AcDbLine
 10
191.869262
 20
381.223382
 30
0.0
 11
193.869263
 21
383.223379
 31
0.0
  0
LINE
  5
15F
330
1F
100
AcDbEntity
  8
LC-001-100-D00-0
 62
     7
370
    50
100
AcDbLine
 10
106.069265
 20
383.223379
 30
0.0
 11
106.969265
 21
383.223379
 31
0.0
  0
LINE
  5
160
330
1F
100
AcDbEntity
  8
LC-001-100-D00-0
 62
     7
370
    50
100
AcDbLine
 10
192.969262
 20
383.223379
 30
0.0
 11
193.869263
 21
383.223379
 31
0.0
  0
LINE
  5
161
330
1F
100
AcDbEntity
  8
LC-001-100-D00-0
 62
     7
370
    50
100
AcDbLine
 10
124.969261
 20
284.723382
 30
0.0
 11
107.898196
 21
301.79445
 31
0.0
  0
LINE
  5
162
330
1F
100
AcDbEntity
  8
LC-001-100-D00-0
 62
     7
370
    50
100
AcDbLine
 10
192.04033
 20
301.79445
 30
0.0
 11
174.969262
 21
284.723382
 31
0.0
  0
ARC
  5
163
330
1F
100
AcDbEntity
  8
LC-001-100-D00-0
 62
     7
370
    50
100
AcDbCircle
 10
115.069262
 20
308.765518
 30
0.0
 40
7.000000000000043
100
AcDbArc
 50
180.0
 51
225.0
  0
ARC
  5
164
330
1F
100
AcDbEntity
  8
LC-001-100-D00-0
 62
     7
370
    50
100
AcDbCircle
 10
184.869262
 20
308.765518
 30
0.0
 40
7.000000000000056
100
AcDbArc
 50
315.0
 51
0.0
  0
LINE
  5
165
330
1F
100
AcDbEntity
  8
LC-001-100-D00-0
 62
     7
370
    50
100
AcDbLine
 10
108.069261
 20
381.223382
 30
0.0
 11
108.069261
 21
308.765518
 31
0.0
  0
LINE
  5
166
330
1F
100
AcDbEntity
  8
LC-001-100-D00-0
 62
     7
370
    50
100
AcDbLine
 10
191.869262
 20
308.765518
 30
0.0
 11
191.869262
 21
381.223382
 31
0.0
  0
LINE
  5
167
330
1F
100
AcDbEntity
  8
LC-001-100-D00-0
 62
     7
370
    50
100
AcDbLine
 10
110.119512
 20
303.81577
 30
0.0
 11
127.090582
 21
286.844702
 31
0.0
  0
LINE
  5
168
330
1F
100
AcDbEntity
  8
LC-001-100-D00-0
 62
     7
370
    50
100
AcDbLine
 10
172.847942
 20
286.844702
 30
0.0
 11
189.81901
 21
303.81577
 31
0.0
  0
LINE
  5
169
330
1F
100
AcDbEntity
  8
LC-001-100-D00-0
 62
     7
370
    50
100
AcDbLine
 10
124.969261
 20
233.723381
 30
0.0
 11
124.969261
 21
284.723382
 31
0.0
  0
LINE
  5
16A
330
1F
100
AcDbEntity
  8
LC-001-100-D00-0
 62
     7
370
    50
100
AcDbLine
 10
174.969262
 20
284.723382
 30
0.0
 11
174.969262
 21
233.723381
 31
0.0
  0
LINE
  5
16B
330
1F
100
AcDbEntity
  8
LC-001-100-D00-0
 62
     7
370
    50
100
AcDbLine
 10
125.773111
 20
230.723382
 30
0.0
 11
124.969261
 21
233.723381
 31
0.0
  0
LINE
  5
16C
330
1F
100
AcDbEntity
  8
LC-001-100-D00-0
 62
     7
370
    50
100
AcDbLine
 10
174.969262
 20
233.723381
 30
0.0
 11
174.165414
 21
230.723382
 31
0.0
  0
ARC
  5
16D
330
1F
100
AcDbEntity
  8
LC-001-100-D00-0
 62
     7
370
    50
100
AcDbCircle
 10
174.969262
 20
284.723382
 30
0.0
 40
3.000000000000024
100
AcDbArc
 50
135.0
 51
180.0
  0
ARC
  5
16E
330
1F
100
AcDbEntity
  8
LC-001-100-D00-0
 62
     7
370
    50
100
AcDbCircle
 10
124.969262
 20
284.723382
 30
0.0
 40
3.000000000000014
100
AcDbArc
 50
0.0
 51
45.0
  0
LINE
  5
16F
330
1F
100
AcDbEntity
  8
LC-001-100-D00-0
 62
     7
370
    50
100
AcDbLine
 10
127.969263
 20
284.723382
 30
0.0
 11
127.969263
 21
230.723382
 31
0.0
  0
LINE
  5
170
330
1F
100
AcDbEntity
  8
LC-001-100-D00-0
 62
     7
370
    50
100
AcDbLine
 10
171.969262
 20
230.723382
 30
0.0
 11
171.969262
 21
284.723382
 31
0.0
  0
LINE
  5
171
330
1F
100
AcDbEntity
  8
LC-001-100-D00-0
 62
     7
370
    50
100
AcDbLine
 10
171.969262
 20
230.723382
 30
0.0
 11
127.969263
 21
230.723382
 31
0.0
  0
LINE
  5
172
330
1F
100
AcDbEntity
  8
LC-001-100-D00-0
 62
     7
370
    50
100
AcDbLine
 10
102.969264
 20
380.723381
 30
0.0
 11
104.969261
 21
378.723384
 31
0.0
  0
LINE
  5
173
330
1F
100
AcDbEntity
  8
LC-001-100-D00-0
 62
     7
370
    50
100
AcDbLine
 10
127.969263
 20
230.723382
 30
0.0
 11
125.773111
 21
230.723382
 31
0.0
  0
LINE
  5
174
330
1F
100
AcDbEntity
  8
LC-001-100-D00-0
 62
     7
370
    50
100
AcDbLine
 10
99.969266
 20
383.223379
 30
0.0
 11
106.069265
 21
383.223379
 31
0.0
  0
LINE
  5
175
330
1F
100
AcDbEntity
  8
LC-001-100-D00-0
 62
     7
370
    50
100
AcDbLine
 10
102.969264
 20
380.723381
 30
0.0
 11
96.96926
 21
380.723381
 31
0.0
  0
LINE
  5
176
330
1F
100
AcDbEntity
  8
LC-001-100-D00-0
 62
     7
370
    50
100
AcDbLine
 10
96.469259
 20
384.723382
 30
0.0
 11
99.969266
 21
384.723382
 31
0.0
  0
LINE
  5
177
330
1F
100
AcDbEntity
  8
LC-001-100-D00-0
 62
     7
370
    50
100
AcDbLine
 10
194.969263
 20
378.723384
 30
0.0
 11
196.969261
 21
380.723381
 31
0.0
  0
LINE
  5
178
330
1F
100
AcDbEntity
  8
LC-001-100-D00-0
 62
     7
370
    50
100
AcDbLine
 10
174.165414
 20
230.723382
 30
0.0
 11
171.969262
 21
230.723382
 31
0.0
  0
LINE
  5
179
330
1F
100
AcDbEntity
  8
LC-001-100-D00-0
 62
     7
370
    50
100
AcDbLine
 10
193.869263
 20
383.223379
 30
0.0
 11
199.969262
 21
383.223379
 31
0.0
  0
LINE
  5
17A
330
1F
100
AcDbEntity
  8
LC-001-100-D00-0
 62
     7
370
    50
100
AcDbLine
 10
202.969262
 20
380.723381
 30
0.0
 11
196.969261
 21
380.723381
 31
0.0
  0
LINE
  5
17B
330
1F
100
AcDbEntity
  8
LC-001-100-D00-0
 62
     7
370
    50
100
AcDbLine
 10
199.969262
 20
384.723382
 30
0.0
 11
203.469261
 21
384.723382
 31
0.0
  0
LINE
  5
17C
330
1F
100
AcDbEntity
  8
LC-001-100-D00-0
 62
     7
370
    50
100
AcDbLine
 10
98.227767
 20
380.723381
 30
0.0
 11
104.969261
 21
369.089411
 31
0.0
  0
LINE
  5
17D
330
1F
100
AcDbEntity
  8
LC-001-100-D00-0
 62
     7
370
    50
100
AcDbLine
 10
201.521104
 20
380.723381
 30
0.0
 11
194.969263
 21
369.369888
 31
0.0
  0
INSERT
  5
1A1
330
1F
100
AcDbEntity
  8
LC-001-100-D00-0
 62
     7
370
    25
100
AcDbBlockReference
  2
KLON1
 10
0.0
 20
0.0
 30
0.0
  0
INSERT
  5
1CF
330
1F
100
AcDbEntity
  8
LC-001-100-D00-0
 62
     7
370
    25
100
AcDbBlockReference
  2
KLON2
 10
0.0
 20
0.0
 30
0.0
  0
INSERT
  5
201
330
1F
100
AcDbEntity
  8
LC-001-100-D00-0
 62
     7
370
    25
100
AcDbBlockReference
  2
KLON3
 10
0.0
 20
0.0
 30
0.0
  0
INSERT
  5
20F
330
1F
100
AcDbEntity
  8
LC-001-100-D00-0
 62
     7
370
    25
100
AcDbBlockReference
  2
KLON4
 10
0.0
 20
0.0
 30
0.0
  0
INSERT
  5
222
330
1F
100
AcDbEntity
  8
LC-001-100-D00-0
 62
     7
370
    25
100
AcDbBlockReference
  2
KLON5
 10
0.0
 20
0.0
 30
0.0
  0
LINE
  5
223
330
1F
100
AcDbEntity
  8
LC-001-100-D00-0
 62
     7
370
    50
100
AcDbLine
 10
188.224281
 20
390.280028
 30
0.0
 11
188.462616
 21
390.518363
 31
0.0
  0
INSERT
  5
22B
330
1F
100
AcDbEntity
  8
LC-001-100-D00-0
 62
     7
370
    50
100
AcDbBlockReference
  2
KLON6
 10
0.0
 20
0.0
 30
0.0
  0
INSERT
  5
231
330
1F
100
AcDbEntity
  8
LC-001-100-D00-0
 62
     7
370
    50
100
AcDbBlockReference
  2
KLON7
 10
0.0
 20
0.0
 30
0.0
  0
INSERT
  5
243
330
1F
100
AcDbEntity
  8
LC-001-100-D00-0
 62
     7
370
    25
100
AcDbBlockReference
  2
KLON8
 10
0.0
 20
0.0
 30
0.0
  0
INSERT
  5
255
330
1F
100
AcDbEntity
  8
LC-001-100-D00-0
 62
     7
370
    25
100
AcDbBlockReference
  2
KLON9
 10
0.0
 20
0.0
 30
0.0
  0
INSERT
  5
27A
330
1F
100
AcDbEntity
  8
LC-001-100-D00-0
 62
     7
370
    25
100
AcDbBlockReference
  2
KLON10
 10
0.0
 20
0.0
 30
0.0
  0
INSERT
  5
299
330
1F
100
AcDbEntity
  8
LC-001-100-D00-0
 62
     7
370
    25
100
AcDbBlockReference
  2
KLON11
 10
0.0
 20
0.0
 30
0.0
  0
INSERT
  5
29F
330
1F
100
AcDbEntity
  8
LC-001-100-D00-0
 62
     7
370
    25
100
AcDbBlockReference
  2
KLON12
 10
0.0
 20
0.0
 30
0.0
  0
INSERT
  5
2A6
330
1F
100
AcDbEntity
  8
LC-001-100-D00-0
 62
     7
370
    25
100
AcDbBlockReference
  2
KLON13
 10
0.0
 20
0.0
 30
0.0
  0
DIMENSION
  5
2AA
330
1F
100
AcDbEntity
  8
LC-002-101-D00-0
 62
     7
370
    25
100
AcDbDimension
  2
*D16
 10
174.969262
 20
212.634262
 30
0.0
 11
240.894478
 21
243.434262
 31
0.0
 70
   160
  1
DN50
 71
     5
 42
50.0
  3
LC-DIM-L-0140-02-02
100
AcDbAlignedDimension
 13
124.969262
 23
233.723382
 33
0.0
 14
174.969262
 24
233.723382
 34
0.0
100
AcDbRotatedDimension
  0
DIMENSION
  5
2B9
330
1F
100
AcDbEntity
  8
LC-002-101-D00-0
 62
     7
370
    25
100
AcDbDimension
  2
*D17
 10
42.826974
 20
230.723382
 30
0.0
 11
12.026974
 21
235.800262
 31
0.0
 70
   160
 71
     5
 42
54.0
 53
90.0
  3
LC-DIM-L-0140-02-02
100
AcDbAlignedDimension
 13
124.969262
 23
284.723382
 33
0.0
 14
125.77311
 24
230.723382
 34
0.0
 50
90.0
100
AcDbRotatedDimension
  0
DIMENSION
  5
2C8
330
1F
100
AcDbEntity
  8
LC-002-101-D00-0
 62
     7
370
    25
100
AcDbDimension
  2
*D18
 10
194.969262
 20
143.136262
 30
0.0
 11
148.25
 21
173.936262
 31
0.0
 70
   160
  1
%%c<>
 71
     5
 42
90.0
  3
LC-DIM-L-0140-02-02
100
AcDbAlignedDimension
 13
104.969262
 23
308.865518
 33
0.0
 14
194.969262
 24
308.865518
 34
0.0
100
AcDbRotatedDimension
  0
DIMENSION
  5
2D5
330
1F
100
AcDbEntity
  8
LC-002-101-D00-0
 62
     7
370
    25
100
AcDbDimension
  2
*D19
 10
71.578708
 20
319.523382
 30
0.0
 11
40.778708
 21
334.998262
 31
0.0
 70
   160
  1
50
 71
     5
 42
51.0
 53
90.0
  3
LC-DIM-L-0140-02-02
100
AcDbAlignedDimension
 13
119.617162
 23
370.523382
 33
0.0
 14
130.969262
 24
319.523382
 34
0.0
 50
90.0
100
AcDbRotatedDimension
  0
DIMENSION
  5
2E4
330
1F
100
AcDbEntity
  8
LC-002-101-D00-0
 62
     7
370
    25
100
AcDbDimension
  2
*D20
 10
-9.3521
 20
387.223382
 30
0.0
 11
-40.1521
 21
307.674262
 31
0.0
 70
   160
  1
157,5
 71
     5
 42
156.5
 53
90.0
  3
LC-DIM-L-0140-02-02
100
AcDbAlignedDimension
 13
125.77311
 23
230.723382
 33
0.0
 14
98.469262
 24
387.223382
 34
0.0
 50
90.0
100
AcDbRotatedDimension
  0
DIMENSION
  5
2F1
330
1F
100
AcDbEntity
  8
LC-002-101-D00-0
 62
     7
370
    25
100
AcDbDimension
  2
*D21
 10
22.594272
 20
391.723382
 30
0.0
 11
-8.205728
 21
405.090262
 31
0.0
 70
   160
  1
6-25
 71
     5
 42
4.5
 53
90.0
  3
LC-DIM-L-0140-02-02
100
AcDbAlignedDimension
 13
98.469262
 23
387.223382
 33
0.0
 14
93.969262
 24
391.723382
 34
0.0
 50
90.0
100
AcDbRotatedDimension
  0
LINE
  5
300
330
1F
100
AcDbEntity
  8
LC-002-101-D00-0
  6
DASHDOT
 62
     7
370
    25
100
AcDbLine
 10
149.969262
 20
229.223382
 30
0.0
 11
149.969262
 21
406.568946
 31
0.0
  0
DIMENSION
  5
302
330
1F
100
AcDbEntity
  8
LC-003-003-----0
 62
     7
370
    25
100
AcDbDimension
  2
*D22
 10
206.969262
 20
417.389637
 30
0.0
 11
150.305939
 21
448.189637
 31
0.0
 70
   160
  1
%%c<>
 71
     5
 42
114.0
  3
LC-DIM-L-0140-02-02
100
AcDbAlignedDimension
 13
92.969262
 23
401.188371
 33
0.0
 14
206.969262
 24
401.188371
 34
0.0
100
AcDbRotatedDimension
  0
ENDSEC
  0
SECTION
  2
OBJECTS
  0
DICTIONARY
  5
C
330
0
100
AcDbDictionary
281
     1
  3
ACAD_GROUP
350
D
  3
ACAD_LAYOUT
350
1A
  3
ACAD_MLINESTYLE
350
17
  3
ACAD_PLOTSETTINGS
350
19
  3
ACAD_PLOTSTYLENAME
350
E
  0
DICTIONARY
  5
D
102
{ACAD_REACTORS
330
C
102
}
330
C
100
AcDbDictionary
281
     1
  0
DICTIONARY
  5
1A
102
{ACAD_REACTORS
330
C
102
}
330
C
100
AcDbDictionary
281
     1
  3
Layout1
350
1E
  3
Layout2
350
26
  3
Model
350
22
  0
DICTIONARY
  5
17
102
{ACAD_REACTORS
330
C
102
}
330
C
100
AcDbDictionary
281
     1
  3
Standard
350
18
  0
DICTIONARY
  5
19
102
{ACAD_REACTORS
330
C
102
}
330
C
100
AcDbDictionary
281
     1
  0
ACDBDICTIONARYWDFLT
  5
E
102
{ACAD_REACTORS
330
C
102
}
330
C
100
AcDbDictionary
281
     1
  3
Normal
350
F
100
AcDbDictionaryWithDefault
340
F
  0
LAYOUT
  5
1E
102
{ACAD_REACTORS
330
1A
102
}
330
1A
100
AcDbPlotSettings
  1

  2

  4

  6

 40
0.0
 41
0.0
 42
0.0
 43
0.0
 44
0.0
 45
0.0
 46
0.0
 47
0.0
 48
0.0
 49
0.0
140
0.0
141
0.0
142
1.0
143
1.0
 70
   688
 72
     0
 73
     0
 74
     5
  7

 75
    16
147
1.0
148
0.0
149
0.0
100
AcDbLayout
  1
Layout1
 70
     1
 71
     1
 10
-271.75
 20
-87.335738
 11
568.25
 21
506.664262
 12
0.0
 22
0.0
 32
0.0
 14
-271.75
 24
-87.335738
 34
0.0
 15
568.25
 25
506.664262
 35
0.0
146
0.0
 13
0.0
 23
0.0
 33
0.0
 16
1.0
 26
0.0
 36
0.0
 17
0.0
 27
1.0
 37
0.0
 76
     0
330
1B
  0
LAYOUT
  5
26
102
{ACAD_REACTORS
330
1A
102
}
330
1A
100
AcDbPlotSettings
  1

  2

  4

  6

 40
0.0
 41
0.0
 42
0.0
 43
0.0
 44
0.0
 45
0.0
 46
0.0
 47
0.0
 48
0.0
 49
0.0
140
0.0
141
0.0
142
1.0
143
1.0
 70
   688
 72
     0
 73
     0
 74
     5
  7

 75
    16
147
1.0
148
0.0
149
0.0
100
AcDbLayout
  1
Layout2
 70
     1
 71
     2
 10
0.0
 20
0.0
 11
0.0
 21
0.0
 12
0.0
 22
0.0
 32
0.0
 14
0.0
 24
0.0
 34
0.0
 15
0.0
 25
0.0
 35
0.0
146
0.0
 13
0.0
 23
0.0
 33
0.0
 16
1.0
 26
0.0
 36
0.0
 17
0.0
 27
1.0
 37
0.0
 76
     0
330
23
  0
LAYOUT
  5
22
102
{ACAD_REACTORS
330
1A
102
}
330
1A
100
AcDbPlotSettings
  1

  2

  4

  6

 40
0.0
 41
0.0
 42
0.0
 43
0.0
 44
0.0
 45
0.0
 46
0.0
 47
0.0
 48
0.0
 49
0.0
140
0.0
141
0.0
142
1.0
143
1.0
 70
  1776
 72
     0
 73
     0
 74
     0
  7

 75
     0
147
1.0
148
0.0
149
0.0
100
AcDbLayout
  1
Model
 70
     1
 71
     0
 10
-271.75
 20
-87.335738
 11
568.25
 21
506.664262
 12
0.0
 22
0.0
 32
0.0
 14
-271.75
 24
-87.335738
 34
0.0
 15
568.25
 25
506.664262
 35
0.0
146
0.0
 13
0.0
 23
0.0
 33
0.0
 16
1.0
 26
0.0
 36
0.0
 17
0.0
 27
1.0
 37
0.0
 76
     0
330
1F
  0
MLINESTYLE
  5
18
102
{ACAD_REACTORS
330
17
102
}
330
17
100
AcDbMlineStyle
  2
Standard
 70
     0
  3

 62
   256
 51
90.0
 52
90.0
 71
     2
 49
0.5
 62
   256
  6
BYLAYER
 49
-0.5
 62
   256
  6
BYLAYER
  0
ACDBPLACEHOLDER
  5
F
102
{ACAD_REACTORS
330
E
102
}
330
E
  0
ENDSEC
  0
EOF
