  0
SECTION
  2
HEADER
  9
$ACADVER
  1
AC1009
  9
$INSBASE
 10
0.0
 20
0.0
 30
0.0
  9
$EXTMIN
 10
0.0
 20
0.0
 30
0.0
  9
$EXTMAX
 10
840.0
 20
594.0
 30
0.0
  9
$LIMMIN
 10
0.0
 20
0.0
  9
$LIMMAX
 10
840.0
 20
594.0
  9
$ORTHOMODE
 70
     0
  9
$REGENMODE
 70
     1
  9
$FILLMODE
 70
     1
  9
$QTEXTMODE
 70
     0
  9
$MIRRTEXT
 70
     1
  9
$DRAGMODE
 70
     2
  9
$LTSCALE
 40
2.0
  9
$OSMODE
 70
     0
  9
$ATTMODE
 70
     1
  9
$TEXTSIZE
 40
0.2
  9
$TRACEWID
 40
0.05
  9
$TEXTSTYLE
  7
STANDARD
  9
$CLAYER
  8
0
  9
$CELTYPE
  6
BYLAYER
  9
$CECOLOR
 62
     7
  9
$DIMSCALE
 40
2.0
  9
$DIMASZ
 40
3.5
  9
$DIMEXO
 40
0.0625
  9
$DIMDLI
 40
0.38
  9
$DIMRND
 40
0.0
  9
$DIMDLE
 40
0.0
  9
$DIMEXE
 40
0.18
  9
$DIMTP
 40
0.0
  9
$DIMTM
 40
0.0
  9
$DIMTXT
 40
3.5
  9
$DIMCEN
 40
0.09
  9
$DIMTSZ
 40
0.0
  9
$DIMTOL
 70
     0
  9
$DIMLIM
 70
     0
  9
$DIMTIH
 70
     1
  9
$DIMTOH
 70
     1
  9
$DIMSE1
 70
     0
  9
$DIMSE2
 70
     0
  9
$DIMTAD
 70
     1
  9
$DIMZIN
 70
     0
  9
$DIMBLK
  1

  9
$DIMASO
 70
     1
  9
$DIMSHO
 70
     1
  9
$DIMPOST
  1

  9
$DIMAPOST
  1

  9
$DIMALT
 70
     0
  9
$DIMALTD
 70
     2
  9
$DIMALTF
 40
25.4
  9
$DIMLFAC
 40
1.0
  9
$DIMTOFL
 70
     0
  9
$DIMTVP
 40
0.0
  9
$DIMTIX
 70
     0
  9
$DIMSOXD
 70
     0
  9
$DIMSAH
 70
     0
  9
$DIMBLK1
  1

  9
$DIMBLK2
  1

  9
$DIMSTYLE
  2
STANDARD
  9
$DIMCLRD
 70
     0
  9
$DIMCLRE
 70
     0
  9
$DIMCLRT
 70
     0
  9
$DIMTFAC
 40
1.0
  9
$DIMGAP
 40
0.09
  9
$LUNITS
 70
     2
  9
$LUPREC
 70
     2
  9
$AXISMODE
 70
     0
  9
$AXISUNIT
 10
0.0
 20
0.0
  9
$SKETCHINC
 40
0.1
  9
$FILLETRAD
 40
0.0
  9
$AUNITS
 70
     0
  9
$AUPREC
 70
     0
  9
$MENU
  1
acad
  9
$ELEVATION
 40
0.0
  9
$PELEVATION
 40
0.0
  9
$THICKNESS
 40
0.0
  9
$LIMCHECK
 70
     0
  9
$BLIPMODE
 70
     1
  9
$CHAMFERA
 40
0.0
  9
$CHAMFERB
 40
0.0
  9
$SKPOLY
 70
     0
  9
$TDCREATE
 40
0.000000000
  9
$TDUPDATE
 40
0.000000000
  9
$TDINDWG
 40
0.0000000000
  9
$TDUSRTIMER
 40
0.0000000000
  9
$USRTIMER
 70
     1
  9
$ANGBASE
 50
0.0
  9
$ANGDIR
 70
     0
  9
$PDMODE
 70
     0
  9
$PDSIZE
 40
0.0
  9
$PLINEWID
 40
0.0
  9
$COORDS
 70
     0
  9
$SPLFRAME
 70
     0
  9
$SPLINETYPE
 70
     6
  9
$SPLINESEGS
 70
     8
  9
$ATTDIA
 70
     0
  9
$ATTREQ
 70
     1
  9
$HANDLING
 70
     1
  9
$HANDSEED
  5
2E6
  9
$SURFTAB1
 70
     6
  9
$SURFTAB2
 70
     6
  9
$SURFTYPE
 70
     6
  9
$SURFU
 70
     6
  9
$SURFV
 70
     6
  9
$UCSNAME
  2

  9
$UCSORG
 10
0.0
 20
0.0
 30
0.0
  9
$UCSXDIR
 10
1.0
 20
0.0
 30
0.0
  9
$UCSYDIR
 10
0.0
 20
1.0
 30
0.0
  9
$PUCSNAME
  2

  9
$PUCSORG
 10
0.0
 20
0.0
 30
0.0
  9
$PUCSXDIR
 10
1.0
 20
0.0
 30
0.0
  9
$PUCSYDIR
 10
0.0
 20
1.0
 30
0.0
  9
$USERI1
 70
     0
  9
$USERI2
 70
     0
  9
$USERI3
 70
     0
  9
$USERI4
 70
     0
  9
$USERI5
 70
     0
  9
$USERR1
 40
0.0
  9
$USERR2
 40
0.0
  9
$USERR3
 40
0.0
  9
$USERR4
 40
0.0
  9
$USERR5
 40
0.0
  9
$WORLDVIEW
 70
     1
  9
$SHADEDGE
 70
     3
  9
$SHADEDIF
 70
    70
  9
$TILEMODE
 70
     1
  9
$MAXACTVP
 70
    16
  9
$PINSBASE
 10
0.0
 20
0.0
 30
0.0
  9
$PLIMCHECK
 70
     0
  9
$PEXTMIN
 10
1.000000E+20
 20
1.000000E+20
 30
1.000000E+20
  9
$PEXTMAX
 10
-1.000000E+20
 20
-1.000000E+20
 30
-1.000000E+20
  9
$PLIMMIN
 10
0.0
 20
0.0
  9
$PLIMMAX
 10
840.0
 20
594.0
  9
$UNITMODE
 70
     0
  9
$VISRETAIN
 70
     0
  9
$PLINEGEN
 70
     1
  9
$PSLTSCALE
 70
     0
  9
$TREEDEPTH
 70
  3020
  9
$DWGCODEPAGE
  3
dos850
  0
ENDSEC
  0
SECTION
  2
TABLES
  0
TABLE
  2
VPORT
 70
     1
  0
VPORT
  2
*ACTIVE
 70
     0
 10
0.0
 20
0.0
 11
1.0
 21
1.0
 12
420.0
 22
297.0
 13
0.0
 23
0.0
 14
1.0
 24
1.0
 15
0.0
 25
0.0
 16
0.0
 26
0.0
 36
1.0
 17
0.0
 27
0.0
 37
0.0
 40
594.0
 41
1.604229
 42
50.0
 43
0.0
 44
0.0
 50
0.0
 51
0.0
 71
     0
 72
   100
 73
     1
 74
     1
 75
     0
 76
     0
 77
     0
 78
     0
  0
ENDTAB
  0
TABLE
  2
LTYPE
 70
     3
  0
LTYPE
  2
CONTINUOUS
 70
    64
  3
Solid line
 72
    65
 73
     0
 40
0.0
  0
LTYPE
  2
DASHED
 70
    64
  3
__ __ __ __ __
 72
    65
 73
     2
 40
6.25
 49
5.0
 49
-1.25
  0
LTYPE
  2
DASHDOT
 70
    64
  3
__ . __ . __ . __ . __
 72
    65
 73
     4
 40
7.5
 49
5.0
 49
-1.25
 49
0.0
 49
-1.25
  0
ENDTAB
  0
TABLE
  2
LAYER
 70
    10
  0
LAYER
  2
0
 70
     0
 62
     7
  6
CONTINUOUS
  0
LAYER
  2
LC-INFO-1-2-MM-A3-0
 70
     1
 62
    -1
  6
CONTINUOUS
  0
LAYER
  2
LC-003-003-MTH-0
 70
     0
 62
     2
  6
CONTINUOUS
  0
LAYER
  2
LC-004-003-MTG-0
 70
     0
 62
     2
  6
CONTINUOUS
  0
LAYER
  2
LC-002-003-----0
 70
     0
 62
     2
  6
CONTINUOUS
  0
LAYER
  2
LC-008-005-----0
 70
     0
 62
     2
  6
CONTINUOUS
  0
LAYER
  2
LC-006-000-----0
 70
     0
 62
     7
  6
CONTINUOUS
  0
LAYER
  2
LC-005-002-----0
 70
     0
 62
     1
  6
CONTINUOUS
  0
LAYER
  2
LC-007-002-RND-0
 70
     0
 62
     1
  6
CONTINUOUS
  0
LAYER
  2
LC-000
 70
     0
 62
     7
  6
CONTINUOUS
  0
ENDTAB
  0
TABLE
  2
STYLE
 70
     5
  0
STYLE
  2
STANDARD
 70
     0
 40
0.0
 41
1.0
 50
0.0
 71
     0
 42
0.0
  3
txt
  4

  0
STYLE
  2
LC-STANDARD
 70
    64
 40
0.0
 41
1.0
 50
0.0
 71
     0
 42
3.5
  3
MONOTXT
  4

  0
STYLE
  2
LC-TXTSTYLE-0-400-0-0-DIN2
 70
    64
 40
0.0
 41
1.0
 50
0.0
 71
     0
 42
3.5
  3
MONOTXT
  4

  0
STYLE
  2
LC-TXTSTYLE-150-400-0-0-D3
 70
    64
 40
0.0
 41
1.0
 50
15.0
 71
     0
 42
3.5
  3
MONOTXT
  4

  0
STYLE
  2
LC-TXTSTYLE-150-400-0-0-D4
 70
    64
 40
0.0
 41
1.0
 50
15.0
 71
     0
 42
3.5
  3
LC-STANDARD
  4

  0
ENDTAB
  0
TABLE
  2
VIEW
 70
     0
  0
ENDTAB
  0
TABLE
  2
UCS
 70
     0
  0
ENDTAB
  0
TABLE
  2
APPID
 70
     1
  0
APPID
  2
ACAD
 70
     0
  0
ENDTAB
  0
TABLE
  2
DIMSTYLE
 70
     3
  0
DIMSTYLE
  2
STANDARD
 70
     0
  3

  4

  5

  6

  7

 40
1.0
 41
0.18
 42
0.0625
 43
0.38
 44
0.18
 45
0.0
 46
0.0
 47
0.0
 48
0.0
 71
     0
 72
     0
 73
     1
 74
     1
 75
     0
 76
     0
 77
     0
 78
     0
140
0.18
141
0.09
142
0.0
143
25.4
144
1.0
145
0.0
146
1.0
147
0.09
170
     0
171
     2
172
     0
173
     0
174
     0
175
     0
176
     0
177
     0
178
     0
  0
DIMSTYLE
  2
LC-STANDARD
 70
     0
  3

  4

  5

  6

  7

 40
1.0
 41
3.5
 42
0.0
 43
7.5
 44
1.8
 45
0.0
 46
0.0
 47
0.0
 48
0.0
 71
     0
 72
     0
 73
     0
 74
     0
 75
     0
 76
     0
 77
     1
 78
     8
140
3.5
141
0.0
142
0.0
143
25.4
144
1.0
145
0.0
146
0.71
147
1.5
170
     0
171
     2
172
     1
173
     0
174
     0
175
     0
176
     0
177
     0
178
     3
  0
DIMSTYLE
  2
LC-DIM-L-0090-02-02
 70
     0
  3

  4

  5

  6

  7

 40
2.0
 41
3.5
 42
0.0
 43
7.5
 44
1.8
 45
0.0
 46
0.0
 47
0.0
 48
0.0
 71
     0
 72
     0
 73
     0
 74
     0
 75
     0
 76
     0
 77
     1
 78
     8
140
9.0
141
0.0
142
0.0
143
25.4
144
1.0
145
0.0
146
0.71
147
1.5
170
     0
171
     2
172
     0
173
     0
174
     0
175
     0
176
     2
177
     2
178
     6
  0
ENDTAB
  0
ENDSEC
  0
SECTION
  2
BLOCKS
  0
BLOCK
  8
0
  5
24
  2
*D0
 70
    65
 10
0.0
 20
0.0
 30
0.0
  3
*D0
  0
LINE
  8
LC-003-003-MTH-0
  6
CONTINUOUS
  5
26
 10
332.086141
 20
306.835414
 30
0.0
 11
332.086141
 21
334.8
 31
0.0
  0
LINE
  8
LC-003-003-MTH-0
  6
CONTINUOUS
  5
27
 10
407.086141
 20
306.835414
 30
0.0
 11
407.086141
 21
334.8
 31
0.0
  0
LINE
  8
LC-004-003-MTG-0
  6
CONTINUOUS
  5
29
 10
332.086141
 20
324.0
 30
0.0
 11
407.086141
 21
324.0
 31
0.0
  0
LINE
  8
LC-002-003-----0
  6
CONTINUOUS
  5
2B
 10
349.932148
 20
326.349471
 30
0.0
 11
332.086141
 21
324.0
 31
0.0
  0
LINE
  8
LC-002-003-----0
  6
CONTINUOUS
  5
2C
 10
332.086141
 20
324.0
 30
0.0
 11
349.932148
 21
321.650529
 31
0.0
  0
LINE
  8
LC-002-003-----0
  6
CONTINUOUS
  5
2D
 10
349.932148
 20
321.650529
 30
0.0
 11
349.932148
 21
326.349471
 31
0.0
  0
LINE
  8
LC-002-003-----0
  6
CONTINUOUS
  5
2E
 10
349.972186
 20
325.738609
 30
0.0
 11
336.766141
 21
324.0
 31
0.0
  0
LINE
  8
LC-002-003-----0
  6
CONTINUOUS
  5
2F
 10
336.766141
 20
324.0
 30
0.0
 11
349.972186
 21
322.261391
 31
0.0
  0
LINE
  8
LC-002-003-----0
  6
CONTINUOUS
  5
30
 10
350.012224
 20
325.127746
 30
0.0
 11
341.446141
 21
324.0
 31
0.0
  0
LINE
  8
LC-002-003-----0
  6
CONTINUOUS
  5
31
 10
341.446141
 20
324.0
 30
0.0
 11
350.012224
 21
322.872254
 31
0.0
  0
LINE
  8
LC-002-003-----0
  6
CONTINUOUS
  5
32
 10
350.052263
 20
324.516884
 30
0.0
 11
346.126141
 21
324.0
 31
0.0
  0
LINE
  8
LC-002-003-----0
  6
CONTINUOUS
  5
33
 10
346.126141
 20
324.0
 30
0.0
 11
350.052263
 21
323.483116
 31
0.0
  0
LINE
  8
LC-002-003-----0
  6
CONTINUOUS
  5
34
 10
389.240133
 20
321.650529
 30
0.0
 11
407.086141
 21
324.0
 31
0.0
  0
LINE
  8
LC-002-003-----0
  6
CONTINUOUS
  5
35
 10
407.086141
 20
324.0
 30
0.0
 11
389.240133
 21
326.349471
 31
0.0
  0
LINE
  8
LC-002-003-----0
  6
CONTINUOUS
  5
36
 10
389.240133
 20
326.349471
 30
0.0
 11
389.240133
 21
321.650529
 31
0.0
  0
LINE
  8
LC-002-003-----0
  6
CONTINUOUS
  5
37
 10
389.200095
 20
322.261391
 30
0.0
 11
402.406141
 21
324.0
 31
0.0
  0
LINE
  8
LC-002-003-----0
  6
CONTINUOUS
  5
38
 10
402.406141
 20
324.0
 30
0.0
 11
389.200095
 21
325.738609
 31
0.0
  0
LINE
  8
LC-002-003-----0
  6
CONTINUOUS
  5
39
 10
389.160057
 20
322.872254
 30
0.0
 11
397.726141
 21
324.0
 31
0.0
  0
LINE
  8
LC-002-003-----0
  6
CONTINUOUS
  5
3A
 10
397.726141
 20
324.0
 30
0.0
 11
389.160057
 21
325.127746
 31
0.0
  0
LINE
  8
LC-002-003-----0
  6
CONTINUOUS
  5
3B
 10
389.120019
 20
323.483116
 30
0.0
 11
393.046141
 21
324.0
 31
0.0
  0
LINE
  8
LC-002-003-----0
  6
CONTINUOUS
  5
3C
 10
393.046141
 20
324.0
 30
0.0
 11
389.120019
 21
324.516884
 31
0.0
  0
TEXT
  8
LC-002-003-----0
  6
CONTINUOUS
 62
     6
  5
3E
 10
352.514669
 20
334.431999
 30
0.0
 40
18.0
  1
Ø75
 41
0.9
 51
15.0
  7
LC-TXTSTYLE-150-400-0-0-D0
 72
     1
 11
369.735141
 21
334.431999
 31
0.0
  0
ENDBLK
  8
0
  5
3F
  0
BLOCK
  8
0
  5
41
  2
BLK1
 70
    64
 10
0.0
 20
0.0
 30
0.0
  3
BLK1
  0
ENDBLK
  8
0
  5
42
  0
BLOCK
  8
0
  5
44
  2
BLK2
 70
    64
 10
0.0
 20
0.0
 30
0.0
  3
BLK2
  0
ENDBLK
  8
0
  5
45
  0
BLOCK
  8
0
  5
47
  2
BLK3
 70
    64
 10
0.0
 20
0.0
 30
0.0
  3
BLK3
  0
ENDBLK
  8
0
  5
48
  0
BLOCK
  8
0
  5
4A
  2
BLK4
 70
    64
 10
0.0
 20
0.0
 30
0.0
  3
BLK4
  0
ENDBLK
  8
0
  5
4B
  0
BLOCK
  8
0
  5
4D
  2
BLK5
 70
    64
 10
0.0
 20
0.0
 30
0.0
  3
BLK5
  0
ENDBLK
  8
0
  5
4E
  0
BLOCK
  8
0
  5
50
  2
*X6
 70
    65
 10
244.441015
 20
136.392556
 30
0.0
  3
*X6
  0
LINE
  8
LC-008-005-----0
  6
CONTINUOUS
  5
52
 10
358.571787
 20
308.937015
 30
0.0
 11
355.921974
 21
311.586828
 31
0.0
  0
LINE
  8
LC-008-005-----0
  6
CONTINUOUS
  5
53
 10
356.10244
 20
308.577934
 30
0.0
 11
353.50703
 21
311.173344
 31
0.0
  0
LINE
  8
LC-008-005-----0
  6
CONTINUOUS
  5
54
 10
353.695617
 20
308.15633
 30
0.0
 11
351.128634
 21
310.723313
 31
0.0
  0
LINE
  8
LC-008-005-----0
  6
CONTINUOUS
  5
55
 10
351.314125
 20
307.709395
 30
0.0
 11
348.700741
 21
310.322779
 31
0.0
  0
LINE
  8
LC-008-005-----0
  6
CONTINUOUS
  5
56
 10
348.878917
 20
307.316176
 30
0.0
 11
346.211179
 21
309.983914
 31
0.0
  0
LINE
  8
LC-008-005-----0
  6
CONTINUOUS
  5
57
 10
346.383677
 20
306.982989
 30
0.0
 11
343.655796
 21
309.71087
 31
0.0
  0
LINE
  8
LC-008-005-----0
  6
CONTINUOUS
  5
58
 10
343.824471
 20
306.713768
 30
0.0
 11
341.033438
 21
309.504801
 31
0.0
  0
LINE
  8
LC-008-005-----0
  6
CONTINUOUS
  5
59
 10
341.201067
 20
306.508744
 30
0.0
 11
338.468752
 21
309.241059
 31
0.0
  0
LINE
  8
LC-008-005-----0
  6
CONTINUOUS
  5
5A
 10
338.642987
 20
306.238398
 30
0.0
 11
336.015032
 21
308.866353
 31
0.0
  0
LINE
  8
LC-008-005-----0
  6
CONTINUOUS
  5
5B
 10
336.201591
 20
305.851366
 30
0.0
 11
333.661053
 21
308.391905
 31
0.0
  0
LINE
  8
LC-008-005-----0
  6
CONTINUOUS
  5
5C
 10
333.86329
 20
305.36124
 30
0.0
 11
332.111967
 21
307.112563
 31
0.0
  0
ENDBLK
  8
0
  5
5D
  0
BLOCK
  8
0
  5
5F
  2
*X7
 70
    65
 10
281.456141
 20
136.392556
 30
0.0
  3
*X7
  0
LINE
  8
LC-008-005-----0
  6
CONTINUOUS
  5
60
 10
369.586141
 20
312.064796
 30
0.0
 11
369.000328
 21
312.650609
 31
0.0
  0
LINE
  8
LC-008-005-----0
  6
CONTINUOUS
  5
61
 10
369.169954
 20
309.652556
 30
0.0
 11
366.233739
 21
312.588771
 31
0.0
  0
LINE
  8
LC-008-005-----0
  6
CONTINUOUS
  5
62
 10
366.341527
 20
309.652556
 30
0.0
 11
363.548579
 21
312.445503
 31
0.0
  0
LINE
  8
LC-008-005-----0
  6
CONTINUOUS
  5
63
 10
365.611141
 20
307.554515
 30
0.0
 11
364.586141
 21
308.579515
 31
0.0
  0
LINE
  8
LC-008-005-----0
  6
CONTINUOUS
  5
64
 10
363.715747
 20
309.449909
 30
0.0
 11
360.938405
 21
312.227251
 31
0.0
  0
LINE
  8
LC-008-005-----0
  6
CONTINUOUS
  5
65
 10
365.611141
 20
304.726088
 30
0.0
 11
364.586141
 21
305.751088
 31
0.0
  0
LINE
  8
LC-008-005-----0
  6
CONTINUOUS
  5
66
 10
361.107906
 20
309.229323
 30
0.0
 11
358.397758
 21
311.93947
 31
0.0
  0
LINE
  8
LC-008-005-----0
  6
CONTINUOUS
  5
67
 10
365.611141
 20
301.897661
 30
0.0
 11
364.586141
 21
302.922661
 31
0.0
  0
LINE
  8
LC-008-005-----0
  6
CONTINUOUS
  5
68
 10
365.611141
 20
299.069233
 30
0.0
 11
364.586141
 21
300.094233
 31
0.0
  0
LINE
  8
LC-008-005-----0
  6
CONTINUOUS
  5
69
 10
365.611141
 20
296.240806
 30
0.0
 11
363.645979
 21
298.205968
 31
0.0
  0
ENDBLK
  8
0
  5
6A
  0
BLOCK
  8
0
  5
6C
  2
*X8
 70
    65
 10
281.456141
 20
136.392556
 30
0.0
  3
*X8
  0
LINE
  8
LC-008-005-----0
  6
CONTINUOUS
  5
6D
 10
381.78126
 20
311.183385
 30
0.0
 11
381.062517
 21
311.902128
 31
0.0
  0
LINE
  8
LC-008-005-----0
  6
CONTINUOUS
  5
6E
 10
380.267896
 20
309.868323
 30
0.0
 11
377.874253
 21
312.261966
 31
0.0
  0
LINE
  8
LC-008-005-----0
  6
CONTINUOUS
  5
6F
 10
378.080037
 20
309.227754
 30
0.0
 11
374.810205
 21
312.497587
 31
0.0
  0
LINE
  8
LC-008-005-----0
  6
CONTINUOUS
  5
70
 10
374.999071
 20
309.480293
 30
0.0
 11
371.856046
 21
312.623319
 31
0.0
  0
LINE
  8
LC-008-005-----0
  6
CONTINUOUS
  5
71
 10
374.586141
 20
307.064796
 30
0.0
 11
373.561141
 21
308.089796
 31
0.0
  0
LINE
  8
LC-008-005-----0
  6
CONTINUOUS
  5
72
 10
371.998381
 20
309.652556
 30
0.0
 11
369.586141
 21
312.064796
 31
0.0
  0
LINE
  8
LC-008-005-----0
  6
CONTINUOUS
  5
73
 10
374.586141
 20
304.236369
 30
0.0
 11
373.561141
 21
305.261369
 31
0.0
  0
LINE
  8
LC-008-005-----0
  6
CONTINUOUS
  5
74
 10
374.586141
 20
301.407942
 30
0.0
 11
373.561141
 21
302.432942
 31
0.0
  0
LINE
  8
LC-008-005-----0
  6
CONTINUOUS
  5
75
 10
375.406563
 20
297.759093
 30
0.0
 11
373.561141
 21
299.604515
 31
0.0
  0
LINE
  8
LC-008-005-----0
  6
CONTINUOUS
  5
76
 10
374.808846
 20
295.528383
 30
0.0
 11
373.561141
 21
296.776088
 31
0.0
  0
ENDBLK
  8
0
  5
77
  0
BLOCK
  8
0
  5
79
  2
*X9
 70
    65
 10
281.456141
 20
136.392556
 30
0.0
  3
*X9
  0
LINE
  8
LC-008-005-----0
  6
CONTINUOUS
  5
7A
 10
406.80396
 20
305.959676
 30
0.0
 11
404.067168
 21
308.696467
 31
0.0
  0
LINE
  8
LC-008-005-----0
  6
CONTINUOUS
  5
7B
 10
404.361904
 20
305.573304
 30
0.0
 11
400.692771
 21
309.242437
 31
0.0
  0
LINE
  8
LC-008-005-----0
  6
CONTINUOUS
  5
7C
 10
400.922075
 20
306.184706
 30
0.0
 11
397.560242
 21
309.546539
 31
0.0
  0
LINE
  8
LC-008-005-----0
  6
CONTINUOUS
  5
7D
 10
397.75286
 20
306.525494
 30
0.0
 11
394.464169
 21
309.814185
 31
0.0
  0
LINE
  8
LC-008-005-----0
  6
CONTINUOUS
  5
7E
 10
394.672178
 20
306.777749
 30
0.0
 11
391.239377
 21
310.21055
 31
0.0
  0
LINE
  8
LC-008-005-----0
  6
CONTINUOUS
  5
7F
 10
391.471365
 20
307.150135
 30
0.0
 11
387.866169
 21
310.755331
 31
0.0
  0
LINE
  8
LC-008-005-----0
  6
CONTINUOUS
  5
80
 10
388.131126
 20
307.661946
 30
0.0
 11
384.393341
 21
311.399732
 31
0.0
  0
LINE
  8
LC-008-005-----0
  6
CONTINUOUS
  5
81
 10
384.656674
 20
308.307972
 30
0.0
 11
381.78126
 21
311.183385
 31
0.0
  0
LINE
  8
LC-008-005-----0
  6
CONTINUOUS
  5
82
 10
381.292365
 20
308.843853
 30
0.0
 11
380.267896
 21
309.868323
 31
0.0
  0
ENDBLK
  8
0
  5
83
  0
BLOCK
  8
0
  5
85
  2
*X10
 70
    65
 10
387.836141
 20
291.598664
 30
0.0
  3
*X10
  0
LINE
  8
LC-008-005-----0
  6
CONTINUOUS
  5
86
 10
389.352846
 20
295.126518
 30
0.0
 11
389.086141
 21
295.393223
 31
0.0
  0
LINE
  8
LC-008-005-----0
  6
CONTINUOUS
  5
87
 10
389.291878
 20
292.35906
 30
0.0
 11
387.836141
 21
293.814796
 31
0.0
  0
ENDBLK
  8
0
  5
88
  0
BLOCK
  8
0
  5
8A
  2
*X11
 70
    65
 10
389.286141
 20
291.598664
 30
0.0
  3
*X11
  0
LINE
  8
LC-008-005-----0
  6
CONTINUOUS
  5
8B
 10
392.858151
 20
294.44964
 30
0.0
 11
391.49648
 21
295.811312
 31
0.0
  0
LINE
  8
LC-008-005-----0
  6
CONTINUOUS
  5
8C
 10
391.065
 20
293.414364
 30
0.0
 11
389.367933
 21
295.111431
 31
0.0
  0
ENDBLK
  8
0
  5
8D
  0
BLOCK
  8
0
  5
8F
  2
*X12
 70
    65
 10
344.775262
 20
291.598664
 30
0.0
  3
*X12
  0
LINE
  8
LC-008-005-----0
  6
CONTINUOUS
  5
90
 10
349.804349
 20
295.077036
 30
0.0
 11
349.070073
 21
295.811312
 31
0.0
  0
LINE
  8
LC-008-005-----0
  6
CONTINUOUS
  5
91
 10
349.480437
 20
292.572521
 30
0.0
 11
346.241646
 21
295.811312
 31
0.0
  0
ENDBLK
  8
0
  5
92
  0
BLOCK
  8
0
  5
94
  2
*X13
 70
    65
 10
348.886141
 20
291.598664
 30
0.0
  3
*X13
  0
LINE
  8
LC-008-005-----0
  6
CONTINUOUS
  5
95
 10
351.336141
 20
293.545244
 30
0.0
 11
350.913852
 21
293.967532
 31
0.0
  0
LINE
  8
LC-008-005-----0
  6
CONTINUOUS
  5
96
 10
350.086141
 20
294.795244
 30
0.0
 11
349.82089
 21
295.060495
 31
0.0
  0
LINE
  8
LC-008-005-----0
  6
CONTINUOUS
  5
97
 10
350.276946
 20
291.776012
 30
0.0
 11
349.884606
 21
292.168352
 31
0.0
  0
ENDBLK
  8
0
  5
98
  0
BLOCK
  8
0
  5
9A
  2
BLK6
 70
    64
 10
0.0
 20
0.0
 30
0.0
  3
BLK6
  0
ENDBLK
  8
0
  5
9B
  0
BLOCK
  8
0
  5
9D
  2
*X15
 70
    65
 10
358.586141
 20
301.697237
 30
0.0
  3
*X15
  0
LINE
  8
LC-008-005-----0
  6
CONTINUOUS
  5
9E
 10
361.094207
 20
301.697237
 30
0.0
 11
361.586141
 21
302.189171
 31
0.0
  0
LINE
  8
LC-008-005-----0
  6
CONTINUOUS
  5
9F
 10
359.679993
 20
301.697237
 30
0.0
 11
361.586141
 21
303.603385
 31
0.0
  0
LINE
  8
LC-008-005-----0
  6
CONTINUOUS
  5
A0
 10
358.586141
 20
302.017598
 30
0.0
 11
360.26578
 21
303.697237
 31
0.0
  0
LINE
  8
LC-008-005-----0
  6
CONTINUOUS
  5
A1
 10
358.586141
 20
303.431812
 30
0.0
 11
358.851566
 21
303.697237
 31
0.0
  0
ENDBLK
  8
0
  5
A2
  0
BLOCK
  8
0
  5
A4
  2
*X16
 70
    65
 10
348.186141
 20
288.776012
 30
0.0
  3
*X16
  0
LINE
  8
LC-008-005-----0
  6
DASHED
  5
A6
 10
349.886141
 20
292.025395
 30
0.0
 11
349.029772
 21
292.881764
 31
0.0
  0
LINE
  8
LC-008-005-----0
  6
DASHED
  5
A7
 10
349.886141
 20
291.883974
 30
0.0
 11
348.986141
 21
292.783974
 31
0.0
  0
LINE
  8
LC-008-005-----0
  6
CONTINUOUS
  5
A8
 10
349.886141
 20
291.601131
 30
0.0
 11
348.986141
 21
292.501131
 31
0.0
  0
LINE
  8
LC-008-005-----0
  6
CONTINUOUS
  5
A9
 10
349.886141
 20
291.45971
 30
0.0
 11
348.986141
 21
292.35971
 31
0.0
  0
LINE
  8
LC-008-005-----0
  6
DASHED
  5
AA
 10
349.886141
 20
291.176867
 30
0.0
 11
348.986141
 21
292.076867
 31
0.0
  0
LINE
  8
LC-008-005-----0
  6
DASHED
  5
AB
 10
349.886141
 20
291.035446
 30
0.0
 11
348.986141
 21
291.935446
 31
0.0
  0
LINE
  8
LC-008-005-----0
  6
CONTINUOUS
  5
AC
 10
349.886141
 20
290.752603
 30
0.0
 11
348.986141
 21
291.652603
 31
0.0
  0
LINE
  8
LC-008-005-----0
  6
CONTINUOUS
  5
AD
 10
349.886141
 20
290.611182
 30
0.0
 11
348.927374
 21
291.569949
 31
0.0
  0
LINE
  8
LC-008-005-----0
  6
DASHED
  5
AE
 10
349.886141
 20
290.328339
 30
0.0
 11
348.759174
 21
291.455305
 31
0.0
  0
LINE
  8
LC-008-005-----0
  6
DASHED
  5
AF
 10
349.886141
 20
290.186917
 30
0.0
 11
348.682384
 21
291.390674
 31
0.0
  0
LINE
  8
LC-008-005-----0
  6
CONTINUOUS
  5
B0
 10
349.886141
 20
289.904075
 30
0.0
 11
348.543002
 21
291.247214
 31
0.0
  0
LINE
  8
LC-008-005-----0
  6
CONTINUOUS
  5
B1
 10
349.886141
 20
289.762653
 30
0.0
 11
348.480438
 21
291.168357
 31
0.0
  0
LINE
  8
LC-008-005-----0
  6
DASHED
  5
B2
 10
349.886141
 20
289.479811
 30
0.0
 11
348.370133
 21
290.995819
 31
0.0
  0
LINE
  8
LC-008-005-----0
  6
DASHED
  5
B3
 10
349.886141
 20
289.338389
 30
0.0
 11
348.322856
 21
290.901674
 31
0.0
  0
LINE
  8
LC-008-005-----0
  6
CONTINUOUS
  5
B4
 10
349.886141
 20
289.055547
 30
0.0
 11
348.246036
 21
290.695652
 31
0.0
  0
LINE
  8
LC-008-005-----0
  6
CONTINUOUS
  5
B5
 10
349.886141
 20
288.914125
 30
0.0
 11
348.217783
 21
290.582483
 31
0.0
  0
LINE
  8
LC-008-005-----0
  6
DASHED
  5
B6
 10
349.741412
 20
288.776012
 30
0.0
 11
348.187124
 21
290.3303
 31
0.0
  0
LINE
  8
LC-008-005-----0
  6
DASHED
  5
B7
 10
349.597361
 20
288.778641
 30
0.0
 11
348.18877
 21
290.187232
 31
0.0
  0
LINE
  8
LC-008-005-----0
  6
CONTINUOUS
  5
B8
 10
349.253357
 20
288.839802
 30
0.0
 11
348.249931
 21
289.843228
 31
0.0
  0
LINE
  8
LC-008-005-----0
  6
CONTINUOUS
  5
B9
 10
349.019398
 20
288.93234
 30
0.0
 11
348.342469
 21
289.609269
 31
0.0
  0
ENDBLK
  8
0
  5
BA
  0
BLOCK
  8
0
  5
BC
  2
*X17
 70
    65
 10
349.886141
 20
288.776012
 30
0.0
  3
*X17
  0
LINE
  8
LC-008-005-----0
  6
CONTINUOUS
  5
BD
 10
351.336141
 20
291.706766
 30
0.0
 11
351.266895
 21
291.776012
 31
0.0
  0
LINE
  8
LC-008-005-----0
  6
DASHED
  5
BE
 10
351.336141
 20
291.423923
 30
0.0
 11
350.984052
 21
291.776012
 31
0.0
  0
LINE
  8
LC-008-005-----0
  6
DASHED
  5
BF
 10
351.336141
 20
291.282502
 30
0.0
 11
350.842631
 21
291.776012
 31
0.0
  0
LINE
  8
LC-008-005-----0
  6
CONTINUOUS
  5
C0
 10
351.336141
 20
290.999659
 30
0.0
 11
350.559788
 21
291.776012
 31
0.0
  0
LINE
  8
LC-008-005-----0
  6
CONTINUOUS
  5
C1
 10
351.336141
 20
290.858238
 30
0.0
 11
350.418367
 21
291.776012
 31
0.0
  0
LINE
  8
LC-008-005-----0
  6
DASHED
  5
C2
 10
351.336141
 20
290.575395
 30
0.0
 11
350.135524
 21
291.776012
 31
0.0
  0
LINE
  8
LC-008-005-----0
  6
DASHED
  5
C3
 10
351.336141
 20
290.433974
 30
0.0
 11
349.994103
 21
291.776012
 31
0.0
  0
LINE
  8
LC-008-005-----0
  6
CONTINUOUS
  5
C4
 10
351.336141
 20
290.151131
 30
0.0
 11
349.886141
 21
291.601131
 31
0.0
  0
LINE
  8
LC-008-005-----0
  6
CONTINUOUS
  5
C5
 10
351.336141
 20
290.00971
 30
0.0
 11
349.886141
 21
291.45971
 31
0.0
  0
LINE
  8
LC-008-005-----0
  6
DASHED
  5
C6
 10
351.336141
 20
289.726867
 30
0.0
 11
349.886141
 21
291.176867
 31
0.0
  0
LINE
  8
LC-008-005-----0
  6
DASHED
  5
C7
 10
351.336141
 20
289.585446
 30
0.0
 11
349.886141
 21
291.035446
 31
0.0
  0
LINE
  8
LC-008-005-----0
  6
CONTINUOUS
  5
C8
 10
351.336141
 20
289.302603
 30
0.0
 11
349.886141
 21
290.752603
 31
0.0
  0
LINE
  8
LC-008-005-----0
  6
CONTINUOUS
  5
C9
 10
351.336141
 20
289.161182
 30
0.0
 11
349.886141
 21
290.611182
 31
0.0
  0
LINE
  8
LC-008-005-----0
  6
DASHED
  5
CA
 10
351.336141
 20
288.878339
 30
0.0
 11
349.886141
 21
290.328339
 31
0.0
  0
LINE
  8
LC-008-005-----0
  6
DASHED
  5
CB
 10
351.297047
 20
288.776012
 30
0.0
 11
349.886141
 21
290.186917
 31
0.0
  0
LINE
  8
LC-008-005-----0
  6
CONTINUOUS
  5
CC
 10
351.014204
 20
288.776012
 30
0.0
 11
349.886141
 21
289.904075
 31
0.0
  0
LINE
  8
LC-008-005-----0
  6
CONTINUOUS
  5
CD
 10
350.872782
 20
288.776012
 30
0.0
 11
349.886141
 21
289.762653
 31
0.0
  0
LINE
  8
LC-008-005-----0
  6
DASHED
  5
CE
 10
350.58994
 20
288.776012
 30
0.0
 11
349.886141
 21
289.479811
 31
0.0
  0
LINE
  8
LC-008-005-----0
  6
DASHED
  5
CF
 10
350.448518
 20
288.776012
 30
0.0
 11
349.886141
 21
289.338389
 31
0.0
  0
LINE
  8
LC-008-005-----0
  6
CONTINUOUS
  5
D0
 10
350.165676
 20
288.776012
 30
0.0
 11
349.886141
 21
289.055547
 31
0.0
  0
LINE
  8
LC-008-005-----0
  6
CONTINUOUS
  5
D1
 10
350.024254
 20
288.776012
 30
0.0
 11
349.886141
 21
288.914125
 31
0.0
  0
ENDBLK
  8
0
  5
D2
  0
BLOCK
  8
0
  5
D4
  2
*X18
 70
    65
 10
387.986141
 20
288.776012
 30
0.0
  3
*X18
  0
LINE
  8
LC-008-005-----0
  6
CONTINUOUS
  5
D5
 10
390.186141
 20
292.87901
 30
0.0
 11
390.168425
 21
292.896726
 31
0.0
  0
LINE
  8
LC-008-005-----0
  6
DASHED
  5
D6
 10
390.186141
 20
292.596167
 30
0.0
 11
389.98911
 21
292.793198
 31
0.0
  0
LINE
  8
LC-008-005-----0
  6
DASHED
  5
D7
 10
390.186141
 20
292.454746
 30
0.0
 11
389.899452
 21
292.741434
 31
0.0
  0
LINE
  8
LC-008-005-----0
  6
CONTINUOUS
  5
D8
 10
390.186141
 20
292.171903
 30
0.0
 11
389.720137
 21
292.637907
 31
0.0
  0
LINE
  8
LC-008-005-----0
  6
CONTINUOUS
  5
D9
 10
390.186141
 20
292.030482
 30
0.0
 11
389.63048
 21
292.586143
 31
0.0
  0
LINE
  8
LC-008-005-----0
  6
DASHED
  5
DA
 10
390.186141
 20
291.747639
 30
0.0
 11
389.457924
 21
292.475856
 31
0.0
  0
LINE
  8
LC-008-005-----0
  6
DASHED
  5
DB
 10
390.80876
 20
290.983599
 30
0.0
 11
390.193728
 21
291.598631
 31
0.0
  0
LINE
  8
LC-008-005-----0
  6
DASHED
  5
DC
 10
390.186141
 20
291.606218
 30
0.0
 11
389.389399
 21
292.402959
 31
0.0
  0
LINE
  8
LC-008-005-----0
  6
CONTINUOUS
  5
DD
 10
390.961221
 20
290.548294
 30
0.0
 11
389.298847
 21
292.210668
 31
0.0
  0
LINE
  8
LC-008-005-----0
  6
CONTINUOUS
  5
DE
 10
390.982104
 20
290.385991
 30
0.0
 11
389.286141
 21
292.081953
 31
0.0
  0
LINE
  8
LC-008-005-----0
  6
DASHED
  5
DF
 10
390.976757
 20
290.108494
 30
0.0
 11
389.286141
 21
291.799111
 31
0.0
  0
LINE
  8
LC-008-005-----0
  6
DASHED
  5
E0
 10
390.957837
 20
289.985993
 30
0.0
 11
389.286141
 21
291.657689
 31
0.0
  0
LINE
  8
LC-008-005-----0
  6
CONTINUOUS
  5
E1
 10
390.8963
 20
289.764688
 30
0.0
 11
389.286141
 21
291.374847
 31
0.0
  0
LINE
  8
LC-008-005-----0
  6
CONTINUOUS
  5
E2
 10
390.855595
 20
289.663971
 30
0.0
 11
389.286141
 21
291.233425
 31
0.0
  0
LINE
  8
LC-008-005-----0
  6
DASHED
  5
E3
 10
390.757204
 20
289.47952
 30
0.0
 11
389.286141
 21
290.950583
 31
0.0
  0
LINE
  8
LC-008-005-----0
  6
DASHED
  5
E4
 10
390.700214
 20
289.395088
 30
0.0
 11
389.286141
 21
290.809161
 31
0.0
  0
LINE
  8
LC-008-005-----0
  6
CONTINUOUS
  5
E5
 10
390.571656
 20
289.240803
 30
0.0
 11
389.286141
 21
290.526319
 31
0.0
  0
LINE
  8
LC-008-005-----0
  6
CONTINUOUS
  5
E6
 10
390.500265
 20
289.170773
 30
0.0
 11
389.286141
 21
290.384897
 31
0.0
  0
LINE
  8
LC-008-005-----0
  6
DASHED
  5
E7
 10
390.343212
 20
289.044984
 30
0.0
 11
389.286141
 21
290.102054
 31
0.0
  0
LINE
  8
LC-008-005-----0
  6
DASHED
  5
E8
 10
390.257333
 20
288.989441
 30
0.0
 11
389.286141
 21
289.960633
 31
0.0
  0
LINE
  8
LC-008-005-----0
  6
CONTINUOUS
  5
E9
 10
390.069736
 20
288.894195
 30
0.0
 11
389.286141
 21
289.67779
 31
0.0
  0
LINE
  8
LC-008-005-----0
  6
CONTINUOUS
  5
EA
 10
389.96725
 20
288.85526
 30
0.0
 11
389.286141
 21
289.536369
 31
0.0
  0
LINE
  8
LC-008-005-----0
  6
DASHED
  5
EB
 10
389.741721
 20
288.797946
 30
0.0
 11
389.286141
 21
289.253526
 31
0.0
  0
LINE
  8
LC-008-005-----0
  6
DASHED
  5
EC
 10
389.616554
 20
288.781692
 30
0.0
 11
389.286141
 21
289.112105
 31
0.0
  0
LINE
  8
LC-008-005-----0
  6
CONTINUOUS
  5
ED
 10
389.339391
 20
288.776012
 30
0.0
 11
389.286141
 21
288.829262
 31
0.0
  0
ENDBLK
  8
0
  5
EE
  0
BLOCK
  8
0
  5
F0
  2
*X19
 70
    65
 10
387.836141
 20
288.776012
 30
0.0
  3
*X19
  0
LINE
  8
LC-008-005-----0
  6
CONTINUOUS
  5
F1
 10
389.286141
 20
291.657689
 30
0.0
 11
389.167819
 21
291.776012
 31
0.0
  0
LINE
  8
LC-008-005-----0
  6
DASHED
  5
F2
 10
389.286141
 20
291.374847
 30
0.0
 11
388.884976
 21
291.776012
 31
0.0
  0
LINE
  8
LC-008-005-----0
  6
DASHED
  5
F3
 10
389.286141
 20
291.233425
 30
0.0
 11
388.743554
 21
291.776012
 31
0.0
  0
LINE
  8
LC-008-005-----0
  6
CONTINUOUS
  5
F4
 10
389.286141
 20
290.950583
 30
0.0
 11
388.460712
 21
291.776012
 31
0.0
  0
LINE
  8
LC-008-005-----0
  6
CONTINUOUS
  5
F5
 10
389.286141
 20
290.809161
 30
0.0
 11
388.31929
 21
291.776012
 31
0.0
  0
LINE
  8
LC-008-005-----0
  6
DASHED
  5
F6
 10
389.286141
 20
290.526319
 30
0.0
 11
388.036448
 21
291.776012
 31
0.0
  0
LINE
  8
LC-008-005-----0
  6
DASHED
  5
F7
 10
389.286141
 20
290.384897
 30
0.0
 11
387.895026
 21
291.776012
 31
0.0
  0
LINE
  8
LC-008-005-----0
  6
CONTINUOUS
  5
F8
 10
389.286141
 20
290.102054
 30
0.0
 11
387.836141
 21
291.552054
 31
0.0
  0
LINE
  8
LC-008-005-----0
  6
CONTINUOUS
  5
F9
 10
389.286141
 20
289.960633
 30
0.0
 11
387.836141
 21
291.410633
 31
0.0
  0
LINE
  8
LC-008-005-----0
  6
DASHED
  5
FA
 10
389.286141
 20
289.67779
 30
0.0
 11
387.836141
 21
291.12779
 31
0.0
  0
LINE
  8
LC-008-005-----0
  6
DASHED
  5
FB
 10
389.286141
 20
289.536369
 30
0.0
 11
387.836141
 21
290.986369
 31
0.0
  0
LINE
  8
LC-008-005-----0
  6
CONTINUOUS
  5
FC
 10
389.286141
 20
289.253526
 30
0.0
 11
387.836141
 21
290.703526
 31
0.0
  0
LINE
  8
LC-008-005-----0
  6
CONTINUOUS
  5
FD
 10
389.286141
 20
289.112105
 30
0.0
 11
387.836141
 21
290.562105
 31
0.0
  0
LINE
  8
LC-008-005-----0
  6
DASHED
  5
FE
 10
389.286141
 20
288.829262
 30
0.0
 11
387.836141
 21
290.279262
 31
0.0
  0
LINE
  8
LC-008-005-----0
  6
DASHED
  5
FF
 10
389.19797
 20
288.776012
 30
0.0
 11
387.836141
 21
290.137841
 31
0.0
  0
LINE
  8
LC-008-005-----0
  6
CONTINUOUS
  5
100
 10
388.915127
 20
288.776012
 30
0.0
 11
387.836141
 21
289.854998
 31
0.0
  0
LINE
  8
LC-008-005-----0
  6
CONTINUOUS
  5
101
 10
388.773706
 20
288.776012
 30
0.0
 11
387.836141
 21
289.713577
 31
0.0
  0
LINE
  8
LC-008-005-----0
  6
DASHED
  5
102
 10
388.490863
 20
288.776012
 30
0.0
 11
387.836141
 21
289.430734
 31
0.0
  0
LINE
  8
LC-008-005-----0
  6
DASHED
  5
103
 10
388.349442
 20
288.776012
 30
0.0
 11
387.836141
 21
289.289313
 31
0.0
  0
LINE
  8
LC-008-005-----0
  6
CONTINUOUS
  5
104
 10
388.066599
 20
288.776012
 30
0.0
 11
387.836141
 21
289.00647
 31
0.0
  0
LINE
  8
LC-008-005-----0
  6
CONTINUOUS
  5
105
 10
387.925178
 20
288.776012
 30
0.0
 11
387.836141
 21
288.865049
 31
0.0
  0
ENDBLK
  8
0
  5
106
  0
BLOCK
  8
0
  5
108
  2
*X20
 70
    65
 10
283.456141
 20
137.392556
 30
0.0
  3
*X20
  0
LINE
  8
LC-008-005-----0
  6
DASHED
  5
109
 10
364.586141
 20
305.043981
 30
0.0
 11
360.46219
 21
309.167932
 31
0.0
  0
LINE
  8
LC-008-005-----0
  6
DASHED
  5
10A
 10
364.586141
 20
304.336874
 30
0.0
 11
359.825326
 21
309.097689
 31
0.0
  0
LINE
  8
LC-008-005-----0
  6
CONTINUOUS
  5
10B
 10
364.586141
 20
302.922661
 30
0.0
 11
358.586141
 21
308.922661
 31
0.0
  0
LINE
  8
LC-008-005-----0
  6
CONTINUOUS
  5
10C
 10
364.586141
 20
302.215554
 30
0.0
 11
358.586141
 21
308.215554
 31
0.0
  0
LINE
  8
LC-008-005-----0
  6
DASHED
  5
10D
 10
364.586141
 20
300.80134
 30
0.0
 11
358.586141
 21
306.80134
 31
0.0
  0
LINE
  8
LC-008-005-----0
  6
DASHED
  5
10E
 10
364.586141
 20
300.094233
 30
0.0
 11
361.586141
 21
303.094233
 31
0.0
  0
LINE
  8
LC-008-005-----0
  6
DASHED
  5
10F
 10
360.983137
 20
303.697237
 30
0.0
 11
358.586141
 21
306.094233
 31
0.0
  0
LINE
  8
LC-008-005-----0
  6
CONTINUOUS
  5
110
 10
363.568923
 20
299.697237
 30
0.0
 11
361.568923
 21
301.697237
 31
0.0
  0
LINE
  8
LC-008-005-----0
  6
CONTINUOUS
  5
111
 10
359.568923
 20
303.697237
 30
0.0
 11
358.586141
 21
304.68002
 31
0.0
  0
LINE
  8
LC-008-005-----0
  6
CONTINUOUS
  5
112
 10
362.861817
 20
299.697237
 30
0.0
 11
360.861817
 21
301.697237
 31
0.0
  0
LINE
  8
LC-008-005-----0
  6
CONTINUOUS
  5
113
 10
358.861817
 20
303.697237
 30
0.0
 11
358.586141
 21
303.972913
 31
0.0
  0
LINE
  8
LC-008-005-----0
  6
DASHED
  5
114
 10
361.447603
 20
299.697237
 30
0.0
 11
360.586141
 21
300.5587
 31
0.0
  0
LINE
  8
LC-008-005-----0
  6
DASHED
  5
115
 10
360.740496
 20
299.697237
 30
0.0
 11
360.586141
 21
299.851593
 31
0.0
  0
ENDBLK
  8
0
  5
116
  0
BLOCK
  8
0
  5
118
  2
*X21
 70
    65
 10
283.456141
 20
137.392556
 30
0.0
  3
*X21
  0
LINE
  8
LC-008-005-----0
  6
DASHED
  5
119
 10
380.586141
 20
308.135864
 30
0.0
 11
379.660683
 21
309.061322
 31
0.0
  0
LINE
  8
LC-008-005-----0
  6
DASHED
  5
11A
 10
380.586141
 20
307.428757
 30
0.0
 11
378.863442
 21
309.151456
 31
0.0
  0
LINE
  8
LC-008-005-----0
  6
CONTINUOUS
  5
11B
 10
380.586141
 20
306.014544
 30
0.0
 11
377.554794
 21
309.045891
 31
0.0
  0
LINE
  8
LC-008-005-----0
  6
CONTINUOUS
  5
11C
 10
380.586141
 20
305.307437
 30
0.0
 11
377.201241
 21
308.692337
 31
0.0
  0
LINE
  8
LC-008-005-----0
  6
DASHED
  5
11D
 10
380.586141
 20
303.893223
 30
0.0
 11
376.494134
 21
307.98523
 31
0.0
  0
LINE
  8
LC-008-005-----0
  6
DASHED
  5
11E
 10
380.07502
 20
303.697237
 30
0.0
 11
376.14058
 21
307.631677
 31
0.0
  0
LINE
  8
LC-008-005-----0
  6
CONTINUOUS
  5
11F
 10
378.660806
 20
303.697237
 30
0.0
 11
375.433474
 21
306.92457
 31
0.0
  0
LINE
  8
LC-008-005-----0
  6
CONTINUOUS
  5
120
 10
377.9537
 20
303.697237
 30
0.0
 11
375.07992
 21
306.571017
 31
0.0
  0
LINE
  8
LC-008-005-----0
  6
DASHED
  5
121
 10
378.586141
 20
301.650583
 30
0.0
 11
378.539486
 21
301.697237
 31
0.0
  0
LINE
  8
LC-008-005-----0
  6
DASHED
  5
122
 10
377.586141
 20
302.650583
 30
0.0
 11
374.586141
 21
305.650583
 31
0.0
  0
LINE
  8
LC-008-005-----0
  6
DASHED
  5
123
 10
378.586141
 20
300.943476
 30
0.0
 11
377.832379
 21
301.697237
 31
0.0
  0
LINE
  8
LC-008-005-----0
  6
DASHED
  5
124
 10
377.586141
 20
301.943476
 30
0.0
 11
374.586141
 21
304.943476
 31
0.0
  0
LINE
  8
LC-008-005-----0
  6
CONTINUOUS
  5
125
 10
378.418166
 20
299.697237
 30
0.0
 11
374.586141
 21
303.529262
 31
0.0
  0
LINE
  8
LC-008-005-----0
  6
CONTINUOUS
  5
126
 10
377.711059
 20
299.697237
 30
0.0
 11
374.586141
 21
302.822156
 31
0.0
  0
LINE
  8
LC-008-005-----0
  6
DASHED
  5
127
 10
376.296845
 20
299.697237
 30
0.0
 11
374.586141
 21
301.407942
 31
0.0
  0
LINE
  8
LC-008-005-----0
  6
DASHED
  5
128
 10
375.589739
 20
299.697237
 30
0.0
 11
374.586141
 21
300.700835
 31
0.0
  0
ENDBLK
  8
0
  5
129
  0
BLOCK
  8
0
  5
12B
  2
*X22
 70
    65
 10
377.586141
 20
301.697237
 30
0.0
  3
*X22
  0
LINE
  8
LC-008-005-----0
  6
CONTINUOUS
  5
12C
 10
379.478983
 20
301.697237
 30
0.0
 11
380.586141
 21
302.804395
 31
0.0
  0
LINE
  8
LC-008-005-----0
  6
CONTINUOUS
  5
12D
 10
378.06477
 20
301.697237
 30
0.0
 11
380.06477
 21
303.697237
 31
0.0
  0
LINE
  8
LC-008-005-----0
  6
CONTINUOUS
  5
12E
 10
377.586141
 20
302.632822
 30
0.0
 11
378.650556
 21
303.697237
 31
0.0
  0
ENDBLK
  8
0
  5
12F
  0
BLOCK
  8
0
  5
131
  2
*X23
 70
    65
 10
386.398388
 20
286.202735
 30
0.0
  3
*X23
  0
LINE
  8
LC-008-005-----0
  6
CONTINUOUS
  5
132
 10
387.836141
 20
293.956218
 30
0.0
 11
387.824826
 21
293.967532
 31
0.0
  0
LINE
  8
LC-008-005-----0
  6
DASHED
  5
133
 10
387.836141
 20
293.673375
 30
0.0
 11
387.541983
 21
293.967532
 31
0.0
  0
LINE
  8
LC-008-005-----0
  6
DASHED
  5
134
 10
387.836141
 20
293.531953
 30
0.0
 11
387.400562
 21
293.967532
 31
0.0
  0
LINE
  8
LC-008-005-----0
  6
CONTINUOUS
  5
135
 10
387.836141
 20
293.249111
 30
0.0
 11
387.167875
 21
293.917377
 31
0.0
  0
LINE
  8
LC-008-005-----0
  6
CONTINUOUS
  5
136
 10
387.836141
 20
293.107689
 30
0.0
 11
387.080552
 21
293.863279
 31
0.0
  0
LINE
  8
LC-008-005-----0
  6
DASHED
  5
137
 10
387.836141
 20
292.824847
 30
0.0
 11
386.949624
 21
293.711363
 31
0.0
  0
LINE
  8
LC-008-005-----0
  6
DASHED
  5
138
 10
387.836141
 20
292.683425
 30
0.0
 11
386.90749
 21
293.612077
 31
0.0
  0
LINE
  8
LC-008-005-----0
  6
CONTINUOUS
  5
139
 10
387.836141
 20
292.400583
 30
0.0
 11
386.886141
 21
293.350583
 31
0.0
  0
LINE
  8
LC-008-005-----0
  6
CONTINUOUS
  5
13A
 10
387.836141
 20
292.259161
 30
0.0
 11
386.886141
 21
293.209161
 31
0.0
  0
LINE
  8
LC-008-005-----0
  6
DASHED
  5
13B
 10
387.836141
 20
291.976319
 30
0.0
 11
386.886141
 21
292.926319
 31
0.0
  0
LINE
  8
LC-008-005-----0
  6
DASHED
  5
13C
 10
387.836141
 20
291.834897
 30
0.0
 11
386.886141
 21
292.784897
 31
0.0
  0
LINE
  8
LC-008-005-----0
  6
CONTINUOUS
  5
13D
 10
387.836141
 20
291.552054
 30
0.0
 11
386.886141
 21
292.502054
 31
0.0
  0
LINE
  8
LC-008-005-----0
  6
CONTINUOUS
  5
13E
 10
387.836141
 20
291.410633
 30
0.0
 11
386.886141
 21
292.360633
 31
0.0
  0
LINE
  8
LC-008-005-----0
  6
DASHED
  5
13F
 10
387.836141
 20
291.12779
 30
0.0
 11
386.886141
 21
292.07779
 31
0.0
  0
LINE
  8
LC-008-005-----0
  6
DASHED
  5
140
 10
387.836141
 20
290.986369
 30
0.0
 11
386.886141
 21
291.936369
 31
0.0
  0
LINE
  8
LC-008-005-----0
  6
CONTINUOUS
  5
141
 10
387.836141
 20
290.703526
 30
0.0
 11
386.886141
 21
291.653526
 31
0.0
  0
LINE
  8
LC-008-005-----0
  6
CONTINUOUS
  5
142
 10
387.836141
 20
290.562105
 30
0.0
 11
386.886141
 21
291.512105
 31
0.0
  0
LINE
  8
LC-008-005-----0
  6
DASHED
  5
143
 10
387.836141
 20
290.279262
 30
0.0
 11
386.886141
 21
291.229262
 31
0.0
  0
LINE
  8
LC-008-005-----0
  6
DASHED
  5
144
 10
387.836141
 20
290.137841
 30
0.0
 11
386.886141
 21
291.087841
 31
0.0
  0
LINE
  8
LC-008-005-----0
  6
CONTINUOUS
  5
145
 10
387.836141
 20
289.854998
 30
0.0
 11
386.886141
 21
290.804998
 31
0.0
  0
LINE
  8
LC-008-005-----0
  6
CONTINUOUS
  5
146
 10
387.836141
 20
289.713577
 30
0.0
 11
386.886141
 21
290.663577
 31
0.0
  0
LINE
  8
LC-008-005-----0
  6
DASHED
  5
147
 10
387.836141
 20
289.430734
 30
0.0
 11
386.886141
 21
290.380734
 31
0.0
  0
LINE
  8
LC-008-005-----0
  6
DASHED
  5
148
 10
387.836141
 20
289.289313
 30
0.0
 11
386.886141
 21
290.239313
 31
0.0
  0
LINE
  8
LC-008-005-----0
  6
CONTINUOUS
  5
149
 10
387.836141
 20
289.00647
 30
0.0
 11
386.886141
 21
289.95647
 31
0.0
  0
LINE
  8
LC-008-005-----0
  6
CONTINUOUS
  5
14A
 10
387.836141
 20
288.865049
 30
0.0
 11
386.886141
 21
289.815049
 31
0.0
  0
LINE
  8
LC-008-005-----0
  6
DASHED
  5
14B
 10
387.836141
 20
288.582206
 30
0.0
 11
386.886141
 21
289.532206
 31
0.0
  0
LINE
  8
LC-008-005-----0
  6
DASHED
  5
14C
 10
387.836141
 20
288.440785
 30
0.0
 11
386.886141
 21
289.390785
 31
0.0
  0
LINE
  8
LC-008-005-----0
  6
CONTINUOUS
  5
14D
 10
387.836141
 20
288.157942
 30
0.0
 11
386.886141
 21
289.107942
 31
0.0
  0
LINE
  8
LC-008-005-----0
  6
CONTINUOUS
  5
14E
 10
387.836141
 20
288.016521
 30
0.0
 11
386.886141
 21
288.966521
 31
0.0
  0
LINE
  8
LC-008-005-----0
  6
DASHED
  5
14F
 10
387.836141
 20
287.733678
 30
0.0
 11
386.886141
 21
288.683678
 31
0.0
  0
LINE
  8
LC-008-005-----0
  6
DASHED
  5
150
 10
387.836141
 20
287.592257
 30
0.0
 11
386.886141
 21
288.542257
 31
0.0
  0
LINE
  8
LC-008-005-----0
  6
CONTINUOUS
  5
151
 10
387.836141
 20
287.309414
 30
0.0
 11
386.886141
 21
288.259414
 31
0.0
  0
LINE
  8
LC-008-005-----0
  6
CONTINUOUS
  5
152
 10
387.836141
 20
287.167992
 30
0.0
 11
386.886141
 21
288.117992
 31
0.0
  0
LINE
  8
LC-008-005-----0
  6
DASHED
  5
153
 10
387.836141
 20
286.88515
 30
0.0
 11
386.886141
 21
287.83515
 31
0.0
  0
LINE
  8
LC-008-005-----0
  6
DASHED
  5
154
 10
387.836141
 20
286.743728
 30
0.0
 11
386.886141
 21
287.693728
 31
0.0
  0
LINE
  8
LC-008-005-----0
  6
CONTINUOUS
  5
155
 10
387.832321
 20
286.464706
 30
0.0
 11
386.725134
 21
287.571893
 31
0.0
  0
LINE
  8
LC-008-005-----0
  6
CONTINUOUS
  5
156
 10
387.794929
 20
286.360677
 30
0.0
 11
386.645999
 21
287.509606
 31
0.0
  0
LINE
  8
LC-008-005-----0
  6
DASHED
  5
157
 10
387.641299
 20
286.231463
 30
0.0
 11
386.516315
 21
287.356448
 31
0.0
  0
LINE
  8
LC-008-005-----0
  6
DASHED
  5
158
 10
387.518912
 20
286.212429
 30
0.0
 11
386.46644
 21
287.264901
 31
0.0
  0
LINE
  8
LC-008-005-----0
  6
CONTINUOUS
  5
159
 10
387.236069
 20
286.212429
 30
0.0
 11
386.40402
 21
287.044478
 31
0.0
  0
LINE
  8
LC-008-005-----0
  6
CONTINUOUS
  5
15A
 10
387.094648
 20
286.212429
 30
0.0
 11
386.399765
 21
286.907313
 31
0.0
  0
ENDBLK
  8
0
  5
15B
  0
BLOCK
  8
0
  5
15D
  2
*X24
 70
    65
 10
351.273894
 20
286.202735
 30
0.0
  3
*X24
  0
LINE
  8
LC-008-005-----0
  6
CONTINUOUS
  5
15E
 10
352.267087
 20
293.604247
 30
0.0
 11
351.922855
 21
293.948479
 31
0.0
  0
LINE
  8
LC-008-005-----0
  6
DASHED
  5
15F
 10
352.286141
 20
293.30235
 30
0.0
 11
351.620959
 21
293.967532
 31
0.0
  0
LINE
  8
LC-008-005-----0
  6
DASHED
  5
160
 10
352.286141
 20
293.160929
 30
0.0
 11
351.479537
 21
293.967532
 31
0.0
  0
LINE
  8
LC-008-005-----0
  6
CONTINUOUS
  5
161
 10
352.286141
 20
292.878086
 30
0.0
 11
351.336141
 21
293.828086
 31
0.0
  0
LINE
  8
LC-008-005-----0
  6
CONTINUOUS
  5
162
 10
352.286141
 20
292.736665
 30
0.0
 11
351.336141
 21
293.686665
 31
0.0
  0
LINE
  8
LC-008-005-----0
  6
DASHED
  5
163
 10
352.286141
 20
292.453822
 30
0.0
 11
351.336141
 21
293.403822
 31
0.0
  0
LINE
  8
LC-008-005-----0
  6
DASHED
  5
164
 10
352.286141
 20
292.312401
 30
0.0
 11
351.336141
 21
293.262401
 31
0.0
  0
LINE
  8
LC-008-005-----0
  6
CONTINUOUS
  5
165
 10
352.286141
 20
292.029558
 30
0.0
 11
351.336141
 21
292.979558
 31
0.0
  0
LINE
  8
LC-008-005-----0
  6
CONTINUOUS
  5
166
 10
352.286141
 20
291.888137
 30
0.0
 11
351.336141
 21
292.838137
 31
0.0
  0
LINE
  8
LC-008-005-----0
  6
DASHED
  5
167
 10
352.286141
 20
291.605294
 30
0.0
 11
351.336141
 21
292.555294
 31
0.0
  0
LINE
  8
LC-008-005-----0
  6
DASHED
  5
168
 10
352.286141
 20
291.463873
 30
0.0
 11
351.336141
 21
292.413873
 31
0.0
  0
LINE
  8
LC-008-005-----0
  6
CONTINUOUS
  5
169
 10
352.286141
 20
291.18103
 30
0.0
 11
351.336141
 21
292.13103
 31
0.0
  0
LINE
  8
LC-008-005-----0
  6
CONTINUOUS
  5
16A
 10
352.286141
 20
291.039609
 30
0.0
 11
351.336141
 21
291.989609
 31
0.0
  0
LINE
  8
LC-008-005-----0
  6
DASHED
  5
16B
 10
352.286141
 20
290.756766
 30
0.0
 11
351.336141
 21
291.706766
 31
0.0
  0
LINE
  8
LC-008-005-----0
  6
DASHED
  5
16C
 10
352.286141
 20
290.615345
 30
0.0
 11
351.336141
 21
291.565345
 31
0.0
  0
LINE
  8
LC-008-005-----0
  6
CONTINUOUS
  5
16D
 10
352.286141
 20
290.332502
 30
0.0
 11
351.336141
 21
291.282502
 31
0.0
  0
LINE
  8
LC-008-005-----0
  6
CONTINUOUS
  5
16E
 10
352.286141
 20
290.191081
 30
0.0
 11
351.336141
 21
291.141081
 31
0.0
  0
LINE
  8
LC-008-005-----0
  6
DASHED
  5
16F
 10
352.286141
 20
289.908238
 30
0.0
 11
351.336141
 21
290.858238
 31
0.0
  0
LINE
  8
LC-008-005-----0
  6
DASHED
  5
170
 10
352.286141
 20
289.766816
 30
0.0
 11
351.336141
 21
290.716816
 31
0.0
  0
LINE
  8
LC-008-005-----0
  6
CONTINUOUS
  5
171
 10
352.286141
 20
289.483974
 30
0.0
 11
351.336141
 21
290.433974
 31
0.0
  0
LINE
  8
LC-008-005-----0
  6
CONTINUOUS
  5
172
 10
352.286141
 20
289.342552
 30
0.0
 11
351.336141
 21
290.292552
 31
0.0
  0
LINE
  8
LC-008-005-----0
  6
DASHED
  5
173
 10
352.286141
 20
289.05971
 30
0.0
 11
351.336141
 21
290.00971
 31
0.0
  0
LINE
  8
LC-008-005-----0
  6
DASHED
  5
174
 10
352.286141
 20
288.918288
 30
0.0
 11
351.336141
 21
289.868288
 31
0.0
  0
LINE
  8
LC-008-005-----0
  6
CONTINUOUS
  5
175
 10
352.286141
 20
288.635446
 30
0.0
 11
351.336141
 21
289.585446
 31
0.0
  0
LINE
  8
LC-008-005-----0
  6
CONTINUOUS
  5
176
 10
352.286141
 20
288.494024
 30
0.0
 11
351.336141
 21
289.444024
 31
0.0
  0
LINE
  8
LC-008-005-----0
  6
DASHED
  5
177
 10
352.286141
 20
288.211182
 30
0.0
 11
351.336141
 21
289.161182
 31
0.0
  0
LINE
  8
LC-008-005-----0
  6
DASHED
  5
178
 10
352.286141
 20
288.06976
 30
0.0
 11
351.336141
 21
289.01976
 31
0.0
  0
LINE
  8
LC-008-005-----0
  6
CONTINUOUS
  5
179
 10
352.286141
 20
287.786917
 30
0.0
 11
351.336141
 21
288.736917
 31
0.0
  0
LINE
  8
LC-008-005-----0
  6
CONTINUOUS
  5
17A
 10
352.732136
 20
287.199501
 30
0.0
 11
351.336141
 21
288.595496
 31
0.0
  0
LINE
  8
LC-008-005-----0
  6
DASHED
  5
17B
 10
352.770219
 20
286.878576
 30
0.0
 11
351.336141
 21
288.312653
 31
0.0
  0
LINE
  8
LC-008-005-----0
  6
DASHED
  5
17C
 10
352.748426
 20
286.758947
 30
0.0
 11
351.336141
 21
288.171232
 31
0.0
  0
LINE
  8
LC-008-005-----0
  6
CONTINUOUS
  5
17D
 10
352.663486
 20
286.561044
 30
0.0
 11
351.336141
 21
287.888389
 31
0.0
  0
LINE
  8
LC-008-005-----0
  6
CONTINUOUS
  5
17E
 10
352.604785
 20
286.478324
 30
0.0
 11
351.336141
 21
287.746968
 31
0.0
  0
LINE
  8
LC-008-005-----0
  6
DASHED
  5
17F
 10
352.45866
 20
286.341606
 30
0.0
 11
351.336141
 21
287.464125
 31
0.0
  0
LINE
  8
LC-008-005-----0
  6
DASHED
  5
180
 10
352.370969
 20
286.287876
 30
0.0
 11
351.336141
 21
287.322704
 31
0.0
  0
LINE
  8
LC-008-005-----0
  6
CONTINUOUS
  5
181
 10
352.160686
 20
286.215316
 30
0.0
 11
351.336141
 21
287.039861
 31
0.0
  0
LINE
  8
LC-008-005-----0
  6
CONTINUOUS
  5
182
 10
352.022151
 20
286.212429
 30
0.0
 11
351.336141
 21
286.89844
 31
0.0
  0
LINE
  8
LC-008-005-----0
  6
DASHED
  5
183
 10
351.739309
 20
286.212429
 30
0.0
 11
351.336141
 21
286.615597
 31
0.0
  0
LINE
  8
LC-008-005-----0
  6
DASHED
  5
184
 10
351.595062
 20
286.215255
 30
0.0
 11
351.338967
 21
286.47135
 31
0.0
  0
ENDBLK
  8
0
  5
185
  0
BLOCK
  8
0
  5
187
  2
*X25
 70
    65
 10
351.586141
 20
197.397745
 30
0.0
  3
*X25
  0
LINE
  8
LC-008-005-----0
  6
CONTINUOUS
  5
188
 10
352.977026
 20
197.413534
 30
0.0
 11
354.492824
 21
198.929332
 31
0.0
  0
LINE
  8
LC-008-005-----0
  6
CONTINUOUS
  5
189
 10
351.941749
 20
199.206685
 30
0.0
 11
354.505219
 21
201.770154
 31
0.0
  0
LINE
  8
LC-008-005-----0
  6
CONTINUOUS
  5
18A
 10
351.586141
 20
201.679503
 30
0.0
 11
354.517615
 21
204.610977
 31
0.0
  0
LINE
  8
LC-008-005-----0
  6
CONTINUOUS
  5
18B
 10
351.591
 20
204.512789
 30
0.0
 11
354.53001
 21
207.4518
 31
0.0
  0
LINE
  8
LC-008-005-----0
  6
CONTINUOUS
  5
18C
 10
352.786141
 20
208.536358
 30
0.0
 11
354.542406
 21
210.292622
 31
0.0
  0
LINE
  8
LC-008-005-----0
  6
CONTINUOUS
  5
18D
 10
352.786141
 20
211.364785
 30
0.0
 11
354.554801
 21
213.133445
 31
0.0
  0
LINE
  8
LC-008-005-----0
  6
CONTINUOUS
  5
18E
 10
352.786141
 20
214.193212
 30
0.0
 11
354.567197
 21
215.974268
 31
0.0
  0
LINE
  8
LC-008-005-----0
  6
CONTINUOUS
  5
18F
 10
352.786141
 20
217.021639
 30
0.0
 11
354.579592
 21
218.81509
 31
0.0
  0
LINE
  8
LC-008-005-----0
  6
CONTINUOUS
  5
190
 10
352.786141
 20
219.850066
 30
0.0
 11
354.591988
 21
221.655913
 31
0.0
  0
LINE
  8
LC-008-005-----0
  6
CONTINUOUS
  5
191
 10
352.786141
 20
222.678493
 30
0.0
 11
354.604383
 21
224.496736
 31
0.0
  0
LINE
  8
LC-008-005-----0
  6
CONTINUOUS
  5
192
 10
352.786141
 20
225.50692
 30
0.0
 11
354.616779
 21
227.337558
 31
0.0
  0
LINE
  8
LC-008-005-----0
  6
CONTINUOUS
  5
193
 10
352.786141
 20
228.335347
 30
0.0
 11
354.629174
 21
230.178381
 31
0.0
  0
LINE
  8
LC-008-005-----0
  6
CONTINUOUS
  5
194
 10
352.786141
 20
231.163775
 30
0.0
 11
354.64157
 21
233.019203
 31
0.0
  0
LINE
  8
LC-008-005-----0
  6
CONTINUOUS
  5
195
 10
352.786141
 20
233.992202
 30
0.0
 11
354.653965
 21
235.860026
 31
0.0
  0
LINE
  8
LC-008-005-----0
  6
CONTINUOUS
  5
196
 10
352.786141
 20
236.820629
 30
0.0
 11
354.666361
 21
238.700849
 31
0.0
  0
LINE
  8
LC-008-005-----0
  6
CONTINUOUS
  5
197
 10
352.786141
 20
239.649056
 30
0.0
 11
354.678756
 21
241.541671
 31
0.0
  0
LINE
  8
LC-008-005-----0
  6
CONTINUOUS
  5
198
 10
352.786141
 20
242.477483
 30
0.0
 11
354.691152
 21
244.382494
 31
0.0
  0
LINE
  8
LC-008-005-----0
  6
CONTINUOUS
  5
199
 10
352.786141
 20
245.30591
 30
0.0
 11
354.703547
 21
247.223317
 31
0.0
  0
LINE
  8
LC-008-005-----0
  6
CONTINUOUS
  5
19A
 10
352.786141
 20
248.134337
 30
0.0
 11
354.715943
 21
250.064139
 31
0.0
  0
LINE
  8
LC-008-005-----0
  6
CONTINUOUS
  5
19B
 10
352.786141
 20
250.962764
 30
0.0
 11
354.728338
 21
252.904962
 31
0.0
  0
LINE
  8
LC-008-005-----0
  6
CONTINUOUS
  5
19C
 10
352.786141
 20
253.791192
 30
0.0
 11
354.740734
 21
255.745784
 31
0.0
  0
LINE
  8
LC-008-005-----0
  6
CONTINUOUS
  5
19D
 10
352.786141
 20
256.619619
 30
0.0
 11
354.753129
 21
258.586607
 31
0.0
  0
LINE
  8
LC-008-005-----0
  6
CONTINUOUS
  5
19E
 10
352.786141
 20
259.448046
 30
0.0
 11
354.765525
 21
261.42743
 31
0.0
  0
LINE
  8
LC-008-005-----0
  6
CONTINUOUS
  5
19F
 10
352.786141
 20
262.276473
 30
0.0
 11
354.77792
 21
264.268252
 31
0.0
  0
LINE
  8
LC-008-005-----0
  6
CONTINUOUS
  5
1A0
 10
352.786141
 20
265.1049
 30
0.0
 11
354.790316
 21
267.109075
 31
0.0
  0
LINE
  8
LC-008-005-----0
  6
CONTINUOUS
  5
1A1
 10
352.786141
 20
267.933327
 30
0.0
 11
354.802711
 21
269.949898
 31
0.0
  0
LINE
  8
LC-008-005-----0
  6
CONTINUOUS
  5
1A2
 10
352.786141
 20
270.761754
 30
0.0
 11
354.815107
 21
272.79072
 31
0.0
  0
LINE
  8
LC-008-005-----0
  6
CONTINUOUS
  5
1A3
 10
352.786141
 20
273.590181
 30
0.0
 11
354.827502
 21
275.631543
 31
0.0
  0
LINE
  8
LC-008-005-----0
  6
CONTINUOUS
  5
1A4
 10
352.786141
 20
276.418609
 30
0.0
 11
354.839898
 21
278.472366
 31
0.0
  0
LINE
  8
LC-008-005-----0
  6
CONTINUOUS
  5
1A5
 10
352.786141
 20
279.247036
 30
0.0
 11
354.852293
 21
281.313188
 31
0.0
  0
LINE
  8
LC-008-005-----0
  6
CONTINUOUS
  5
1A6
 10
352.786141
 20
282.075463
 30
0.0
 11
354.864689
 21
284.154011
 31
0.0
  0
LINE
  8
LC-008-005-----0
  6
CONTINUOUS
  5
1A7
 10
352.786141
 20
284.90389
 30
0.0
 11
354.877084
 21
286.994833
 31
0.0
  0
LINE
  8
LC-008-005-----0
  6
CONTINUOUS
  5
1A8
 10
352.786141
 20
287.732317
 30
0.0
 11
353.751061
 21
288.697237
 31
0.0
  0
ENDBLK
  8
0
  5
1A9
  0
BLOCK
  8
0
  5
1AB
  2
*X26
 70
    65
 10
384.287769
 20
197.397745
 30
0.0
  3
*X26
  0
LINE
  8
LC-008-005-----0
  6
CONTINUOUS
  5
1AC
 10
384.683481
 20
198.007291
 30
0.0
 11
387.586141
 21
200.909951
 31
0.0
  0
LINE
  8
LC-008-005-----0
  6
CONTINUOUS
  5
1AD
 10
384.671193
 20
200.82343
 30
0.0
 11
387.582681
 21
203.734918
 31
0.0
  0
LINE
  8
LC-008-005-----0
  6
CONTINUOUS
  5
1AE
 10
384.658906
 20
203.63957
 30
0.0
 11
387.024261
 21
206.004925
 31
0.0
  0
LINE
  8
LC-008-005-----0
  6
CONTINUOUS
  5
1AF
 10
384.646618
 20
206.455709
 30
0.0
 11
386.386141
 21
208.195232
 31
0.0
  0
LINE
  8
LC-008-005-----0
  6
CONTINUOUS
  5
1B0
 10
384.63433
 20
209.271848
 30
0.0
 11
386.386141
 21
211.023659
 31
0.0
  0
LINE
  8
LC-008-005-----0
  6
CONTINUOUS
  5
1B1
 10
384.622042
 20
212.087988
 30
0.0
 11
386.386141
 21
213.852086
 31
0.0
  0
LINE
  8
LC-008-005-----0
  6
CONTINUOUS
  5
1B2
 10
384.609754
 20
214.904127
 30
0.0
 11
386.386141
 21
216.680513
 31
0.0
  0
LINE
  8
LC-008-005-----0
  6
CONTINUOUS
  5
1B3
 10
384.597467
 20
217.720266
 30
0.0
 11
386.386141
 21
219.508941
 31
0.0
  0
LINE
  8
LC-008-005-----0
  6
CONTINUOUS
  5
1B4
 10
384.585179
 20
220.536406
 30
0.0
 11
386.386141
 21
222.337368
 31
0.0
  0
LINE
  8
LC-008-005-----0
  6
CONTINUOUS
  5
1B5
 10
384.572891
 20
223.352545
 30
0.0
 11
386.386141
 21
225.165795
 31
0.0
  0
LINE
  8
LC-008-005-----0
  6
CONTINUOUS
  5
1B6
 10
384.560603
 20
226.168684
 30
0.0
 11
386.386141
 21
227.994222
 31
0.0
  0
LINE
  8
LC-008-005-----0
  6
CONTINUOUS
  5
1B7
 10
384.548315
 20
228.984824
 30
0.0
 11
386.386141
 21
230.822649
 31
0.0
  0
LINE
  8
LC-008-005-----0
  6
CONTINUOUS
  5
1B8
 10
384.536028
 20
231.800963
 30
0.0
 11
386.386141
 21
233.651076
 31
0.0
  0
LINE
  8
LC-008-005-----0
  6
CONTINUOUS
  5
1B9
 10
384.52374
 20
234.617102
 30
0.0
 11
386.386141
 21
236.479503
 31
0.0
  0
LINE
  8
LC-008-005-----0
  6
CONTINUOUS
  5
1BA
 10
384.511452
 20
237.433241
 30
0.0
 11
386.386141
 21
239.30793
 31
0.0
  0
LINE
  8
LC-008-005-----0
  6
CONTINUOUS
  5
1BB
 10
384.499164
 20
240.249381
 30
0.0
 11
386.386141
 21
242.136358
 31
0.0
  0
LINE
  8
LC-008-005-----0
  6
CONTINUOUS
  5
1BC
 10
384.486876
 20
243.06552
 30
0.0
 11
386.386141
 21
244.964785
 31
0.0
  0
LINE
  8
LC-008-005-----0
  6
CONTINUOUS
  5
1BD
 10
384.474589
 20
245.881659
 30
0.0
 11
386.386141
 21
247.793212
 31
0.0
  0
LINE
  8
LC-008-005-----0
  6
CONTINUOUS
  5
1BE
 10
384.462301
 20
248.697799
 30
0.0
 11
386.386141
 21
250.621639
 31
0.0
  0
LINE
  8
LC-008-005-----0
  6
CONTINUOUS
  5
1BF
 10
384.450013
 20
251.513938
 30
0.0
 11
386.386141
 21
253.450066
 31
0.0
  0
LINE
  8
LC-008-005-----0
  6
CONTINUOUS
  5
1C0
 10
384.437725
 20
254.330077
 30
0.0
 11
386.386141
 21
256.278493
 31
0.0
  0
LINE
  8
LC-008-005-----0
  6
CONTINUOUS
  5
1C1
 10
384.425437
 20
257.146217
 30
0.0
 11
386.386141
 21
259.10692
 31
0.0
  0
LINE
  8
LC-008-005-----0
  6
CONTINUOUS
  5
1C2
 10
384.41315
 20
259.962356
 30
0.0
 11
386.386141
 21
261.935347
 31
0.0
  0
LINE
  8
LC-008-005-----0
  6
CONTINUOUS
  5
1C3
 10
384.400862
 20
262.778495
 30
0.0
 11
386.386141
 21
264.763775
 31
0.0
  0
LINE
  8
LC-008-005-----0
  6
CONTINUOUS
  5
1C4
 10
384.388574
 20
265.594635
 30
0.0
 11
386.386141
 21
267.592202
 31
0.0
  0
LINE
  8
LC-008-005-----0
  6
CONTINUOUS
  5
1C5
 10
384.376286
 20
268.410774
 30
0.0
 11
386.386141
 21
270.420629
 31
0.0
  0
LINE
  8
LC-008-005-----0
  6
CONTINUOUS
  5
1C6
 10
384.363998
 20
271.226913
 30
0.0
 11
386.386141
 21
273.249056
 31
0.0
  0
LINE
  8
LC-008-005-----0
  6
CONTINUOUS
  5
1C7
 10
384.351711
 20
274.043053
 30
0.0
 11
386.386141
 21
276.077483
 31
0.0
  0
LINE
  8
LC-008-005-----0
  6
CONTINUOUS
  5
1C8
 10
384.339423
 20
276.859192
 30
0.0
 11
386.386141
 21
278.90591
 31
0.0
  0
LINE
  8
LC-008-005-----0
  6
CONTINUOUS
  5
1C9
 10
384.327135
 20
279.675331
 30
0.0
 11
386.386141
 21
281.734337
 31
0.0
  0
LINE
  8
LC-008-005-----0
  6
CONTINUOUS
  5
1CA
 10
384.314847
 20
282.491471
 30
0.0
 11
386.386141
 21
284.562764
 31
0.0
  0
LINE
  8
LC-008-005-----0
  6
CONTINUOUS
  5
1CB
 10
384.302559
 20
285.30761
 30
0.0
 11
386.386141
 21
287.391192
 31
0.0
  0
LINE
  8
LC-008-005-----0
  6
CONTINUOUS
  5
1CC
 10
384.290271
 20
288.123749
 30
0.0
 11
384.86376
 21
288.697237
 31
0.0
  0
ENDBLK
  8
0
  5
1CD
  0
BLOCK
  8
0
  5
1CF
  2
*X27
 70
    65
 10
387.084364
 20
201.811312
 30
0.0
  3
*X27
  0
LINE
  8
LC-008-005-----0
  6
CONTINUOUS
  5
1D0
 10
389.086141
 20
286.907942
 30
0.0
 11
387.836141
 21
288.157942
 31
0.0
  0
LINE
  8
LC-008-005-----0
  6
CONTINUOUS
  5
1D1
 10
389.086141
 20
284.079515
 30
0.0
 11
387.085905
 21
286.079751
 31
0.0
  0
LINE
  8
LC-008-005-----0
  6
CONTINUOUS
  5
1D2
 10
389.086141
 20
281.251088
 30
0.0
 11
387.586141
 21
282.751088
 31
0.0
  0
LINE
  8
LC-008-005-----0
  6
CONTINUOUS
  5
1D3
 10
389.086141
 20
278.422661
 30
0.0
 11
387.586141
 21
279.922661
 31
0.0
  0
LINE
  8
LC-008-005-----0
  6
CONTINUOUS
  5
1D4
 10
389.086141
 20
275.594233
 30
0.0
 11
387.586141
 21
277.094233
 31
0.0
  0
LINE
  8
LC-008-005-----0
  6
CONTINUOUS
  5
1D5
 10
389.086141
 20
272.765806
 30
0.0
 11
387.586141
 21
274.265806
 31
0.0
  0
LINE
  8
LC-008-005-----0
  6
CONTINUOUS
  5
1D6
 10
389.086141
 20
269.937379
 30
0.0
 11
387.586141
 21
271.437379
 31
0.0
  0
LINE
  8
LC-008-005-----0
  6
CONTINUOUS
  5
1D7
 10
389.086141
 20
267.108952
 30
0.0
 11
387.586141
 21
268.608952
 31
0.0
  0
LINE
  8
LC-008-005-----0
  6
CONTINUOUS
  5
1D8
 10
389.086141
 20
264.280525
 30
0.0
 11
387.586141
 21
265.780525
 31
0.0
  0
LINE
  8
LC-008-005-----0
  6
CONTINUOUS
  5
1D9
 10
389.086141
 20
261.452098
 30
0.0
 11
387.586141
 21
262.952098
 31
0.0
  0
LINE
  8
LC-008-005-----0
  6
CONTINUOUS
  5
1DA
 10
389.086141
 20
258.623671
 30
0.0
 11
387.586141
 21
260.123671
 31
0.0
  0
LINE
  8
LC-008-005-----0
  6
CONTINUOUS
  5
1DB
 10
389.086141
 20
255.795244
 30
0.0
 11
387.586141
 21
257.295244
 31
0.0
  0
LINE
  8
LC-008-005-----0
  6
CONTINUOUS
  5
1DC
 10
389.086141
 20
252.966816
 30
0.0
 11
387.586141
 21
254.466816
 31
0.0
  0
LINE
  8
LC-008-005-----0
  6
CONTINUOUS
  5
1DD
 10
389.086141
 20
250.138389
 30
0.0
 11
387.586141
 21
251.638389
 31
0.0
  0
LINE
  8
LC-008-005-----0
  6
CONTINUOUS
  5
1DE
 10
389.086141
 20
247.309962
 30
0.0
 11
387.586141
 21
248.809962
 31
0.0
  0
LINE
  8
LC-008-005-----0
  6
CONTINUOUS
  5
1DF
 10
389.086141
 20
244.481535
 30
0.0
 11
387.586141
 21
245.981535
 31
0.0
  0
LINE
  8
LC-008-005-----0
  6
CONTINUOUS
  5
1E0
 10
389.086141
 20
241.653108
 30
0.0
 11
387.586141
 21
243.153108
 31
0.0
  0
LINE
  8
LC-008-005-----0
  6
CONTINUOUS
  5
1E1
 10
389.086141
 20
238.824681
 30
0.0
 11
387.586141
 21
240.324681
 31
0.0
  0
LINE
  8
LC-008-005-----0
  6
CONTINUOUS
  5
1E2
 10
389.086141
 20
235.996254
 30
0.0
 11
387.586141
 21
237.496254
 31
0.0
  0
LINE
  8
LC-008-005-----0
  6
CONTINUOUS
  5
1E3
 10
389.086141
 20
233.167827
 30
0.0
 11
387.586141
 21
234.667827
 31
0.0
  0
LINE
  8
LC-008-005-----0
  6
CONTINUOUS
  5
1E4
 10
389.086141
 20
230.339399
 30
0.0
 11
387.586141
 21
231.839399
 31
0.0
  0
LINE
  8
LC-008-005-----0
  6
CONTINUOUS
  5
1E5
 10
389.086141
 20
227.510972
 30
0.0
 11
387.586141
 21
229.010972
 31
0.0
  0
LINE
  8
LC-008-005-----0
  6
CONTINUOUS
  5
1E6
 10
389.086141
 20
224.682545
 30
0.0
 11
387.586141
 21
226.182545
 31
0.0
  0
LINE
  8
LC-008-005-----0
  6
CONTINUOUS
  5
1E7
 10
389.086141
 20
221.854118
 30
0.0
 11
387.586141
 21
223.354118
 31
0.0
  0
LINE
  8
LC-008-005-----0
  6
CONTINUOUS
  5
1E8
 10
389.086141
 20
219.025691
 30
0.0
 11
387.586141
 21
220.525691
 31
0.0
  0
LINE
  8
LC-008-005-----0
  6
CONTINUOUS
  5
1E9
 10
389.086141
 20
216.197264
 30
0.0
 11
387.586141
 21
217.697264
 31
0.0
  0
LINE
  8
LC-008-005-----0
  6
CONTINUOUS
  5
1EA
 10
389.086141
 20
213.368837
 30
0.0
 11
387.586141
 21
214.868837
 31
0.0
  0
LINE
  8
LC-008-005-----0
  6
CONTINUOUS
  5
1EB
 10
389.086141
 20
210.54041
 30
0.0
 11
387.586141
 21
212.04041
 31
0.0
  0
LINE
  8
LC-008-005-----0
  6
CONTINUOUS
  5
1EC
 10
389.086141
 20
207.711982
 30
0.0
 11
387.586141
 21
209.211982
 31
0.0
  0
LINE
  8
LC-008-005-----0
  6
CONTINUOUS
  5
1ED
 10
389.086141
 20
204.883555
 30
0.0
 11
387.586141
 21
206.383555
 31
0.0
  0
LINE
  8
LC-008-005-----0
  6
CONTINUOUS
  5
1EE
 10
389.086141
 20
202.055128
 30
0.0
 11
387.586141
 21
203.555128
 31
0.0
  0
ENDBLK
  8
0
  5
1EF
  0
BLOCK
  8
0
  5
1F1
  2
*X28
 70
    65
 10
349.886141
 20
201.811312
 30
0.0
  3
*X28
  0
LINE
  8
LC-008-005-----0
  6
CONTINUOUS
  5
1F2
 10
351.336141
 20
287.888389
 30
0.0
 11
350.448518
 21
288.776012
 31
0.0
  0
LINE
  8
LC-008-005-----0
  6
CONTINUOUS
  5
1F3
 10
351.586141
 20
284.809962
 30
0.0
 11
350.086141
 21
286.309962
 31
0.0
  0
LINE
  8
LC-008-005-----0
  6
CONTINUOUS
  5
1F4
 10
351.586141
 20
281.981535
 30
0.0
 11
350.086141
 21
283.481535
 31
0.0
  0
LINE
  8
LC-008-005-----0
  6
CONTINUOUS
  5
1F5
 10
351.586141
 20
279.153108
 30
0.0
 11
350.086141
 21
280.653108
 31
0.0
  0
LINE
  8
LC-008-005-----0
  6
CONTINUOUS
  5
1F6
 10
351.586141
 20
276.324681
 30
0.0
 11
350.086141
 21
277.824681
 31
0.0
  0
LINE
  8
LC-008-005-----0
  6
CONTINUOUS
  5
1F7
 10
351.586141
 20
273.496254
 30
0.0
 11
350.086141
 21
274.996254
 31
0.0
  0
LINE
  8
LC-008-005-----0
  6
CONTINUOUS
  5
1F8
 10
351.586141
 20
270.667827
 30
0.0
 11
350.086141
 21
272.167827
 31
0.0
  0
LINE
  8
LC-008-005-----0
  6
CONTINUOUS
  5
1F9
 10
351.586141
 20
267.839399
 30
0.0
 11
350.086141
 21
269.339399
 31
0.0
  0
LINE
  8
LC-008-005-----0
  6
CONTINUOUS
  5
1FA
 10
351.586141
 20
265.010972
 30
0.0
 11
350.086141
 21
266.510972
 31
0.0
  0
LINE
  8
LC-008-005-----0
  6
CONTINUOUS
  5
1FB
 10
351.586141
 20
262.182545
 30
0.0
 11
350.086141
 21
263.682545
 31
0.0
  0
LINE
  8
LC-008-005-----0
  6
CONTINUOUS
  5
1FC
 10
351.586141
 20
259.354118
 30
0.0
 11
350.086141
 21
260.854118
 31
0.0
  0
LINE
  8
LC-008-005-----0
  6
CONTINUOUS
  5
1FD
 10
351.586141
 20
256.525691
 30
0.0
 11
350.086141
 21
258.025691
 31
0.0
  0
LINE
  8
LC-008-005-----0
  6
CONTINUOUS
  5
1FE
 10
351.586141
 20
253.697264
 30
0.0
 11
350.086141
 21
255.197264
 31
0.0
  0
LINE
  8
LC-008-005-----0
  6
CONTINUOUS
  5
1FF
 10
351.586141
 20
250.868837
 30
0.0
 11
350.086141
 21
252.368837
 31
0.0
  0
LINE
  8
LC-008-005-----0
  6
CONTINUOUS
  5
200
 10
351.586141
 20
248.04041
 30
0.0
 11
350.086141
 21
249.54041
 31
0.0
  0
LINE
  8
LC-008-005-----0
  6
CONTINUOUS
  5
201
 10
351.586141
 20
245.211982
 30
0.0
 11
350.086141
 21
246.711982
 31
0.0
  0
LINE
  8
LC-008-005-----0
  6
CONTINUOUS
  5
202
 10
351.586141
 20
242.383555
 30
0.0
 11
350.086141
 21
243.883555
 31
0.0
  0
LINE
  8
LC-008-005-----0
  6
CONTINUOUS
  5
203
 10
351.586141
 20
239.555128
 30
0.0
 11
350.086141
 21
241.055128
 31
0.0
  0
LINE
  8
LC-008-005-----0
  6
CONTINUOUS
  5
204
 10
351.586141
 20
236.726701
 30
0.0
 11
350.086141
 21
238.226701
 31
0.0
  0
LINE
  8
LC-008-005-----0
  6
CONTINUOUS
  5
205
 10
351.586141
 20
233.898274
 30
0.0
 11
350.086141
 21
235.398274
 31
0.0
  0
LINE
  8
LC-008-005-----0
  6
CONTINUOUS
  5
206
 10
351.586141
 20
231.069847
 30
0.0
 11
350.086141
 21
232.569847
 31
0.0
  0
LINE
  8
LC-008-005-----0
  6
CONTINUOUS
  5
207
 10
351.586141
 20
228.24142
 30
0.0
 11
350.086141
 21
229.74142
 31
0.0
  0
LINE
  8
LC-008-005-----0
  6
CONTINUOUS
  5
208
 10
351.586141
 20
225.412993
 30
0.0
 11
350.086141
 21
226.912993
 31
0.0
  0
LINE
  8
LC-008-005-----0
  6
CONTINUOUS
  5
209
 10
351.586141
 20
222.584565
 30
0.0
 11
350.086141
 21
224.084565
 31
0.0
  0
LINE
  8
LC-008-005-----0
  6
CONTINUOUS
  5
20A
 10
351.586141
 20
219.756138
 30
0.0
 11
350.086141
 21
221.256138
 31
0.0
  0
LINE
  8
LC-008-005-----0
  6
CONTINUOUS
  5
20B
 10
351.586141
 20
216.927711
 30
0.0
 11
350.086141
 21
218.427711
 31
0.0
  0
LINE
  8
LC-008-005-----0
  6
CONTINUOUS
  5
20C
 10
351.586141
 20
214.099284
 30
0.0
 11
350.086141
 21
215.599284
 31
0.0
  0
LINE
  8
LC-008-005-----0
  6
CONTINUOUS
  5
20D
 10
351.586141
 20
211.270857
 30
0.0
 11
350.086141
 21
212.770857
 31
0.0
  0
LINE
  8
LC-008-005-----0
  6
CONTINUOUS
  5
20E
 10
351.586141
 20
208.44243
 30
0.0
 11
350.086141
 21
209.94243
 31
0.0
  0
LINE
  8
LC-008-005-----0
  6
CONTINUOUS
  5
20F
 10
351.586141
 20
205.614003
 30
0.0
 11
350.086141
 21
207.114003
 31
0.0
  0
LINE
  8
LC-008-005-----0
  6
CONTINUOUS
  5
210
 10
351.586141
 20
202.785576
 30
0.0
 11
350.086141
 21
204.285576
 31
0.0
  0
ENDBLK
  8
0
  5
211
  0
BLOCK
  8
0
  5
213
  2
BLK7
 70
    64
 10
0.0
 20
0.0
 30
0.0
  3
BLK7
  0
ENDBLK
  8
0
  5
214
  0
ENDSEC
  0
SECTION
  2
ENTITIES
  0
VIEWPORT
  8
LC-000
  5
2DB
 67
     1
 68
     1
 10
420.0
 20
297.0
 30
0.0
 40
840.0
 41
594.0
 69
     1
1001
ACAD
1000
MVIEW
1002
{
1070
    16
1010
0.0
1020
0.0
1030
0.0
1010
0.0
1020
0.0
1030
1.0
1040
0.0
1040
594.0
1040
420.0
1040
297.0
1040
50.0
1040
0.0
1040
0.0
1070
     0
1070
   100
1070
     1
1070
     1
1070
     0
1070
     0
1070
     0
1070
     0
1040
0.0
1040
0.0
1040
0.0
1040
1.0
1040
1.0
1040
0.0
1040
0.0
1070
     0
1002
{
1002
}
1002
}
  0
VIEWPORT
  8
0
  5
2DC
 67
     1
 68
     1
 10
0.0
 20
0.0
 30
0.0
 40
0.0
 41
0.0
 69
     1
1001
ACAD
1000
MVIEW
1002
{
1070
    16
1010
0.0
1020
0.0
1030
0.0
1010
0.0
1020
0.0
1030
1.0
1040
0.0
1040
594.0
1040
0.0
1040
0.0
1040
50.0
1040
0.0
1040
0.0
1070
     0
1070
   100
1070
     0
1070
     1
1070
     0
1070
     0
1070
     0
1070
     0
1040
0.0
1040
0.0
1040
0.0
1040
0.5
1040
0.5
1040
0.5
1040
0.5
1070
     0
1002
{
1002
}
1002
}
  0
DIMENSION
  8
0
  5
215
  2
*D0
 10
366.939896
 20
324.0
 30
0.0
 11
366.939896
 21
324.0
 31
0.0
  1
%%c<>
 13
332.086141
 23
306.835414
 33
0.0
 14
407.086141
 24
306.835414
 34
0.0
  3
LC-DIM-L-0090-02-02
  0
INSERT
  8
0
  5
217
  2
BLK1
 10
0.0
 20
0.0
 30
0.0
  0
INSERT
  8
0
  5
218
  2
BLK2
 10
0.0
 20
0.0
 30
0.0
  0
INSERT
  8
0
  5
219
  2
BLK3
 10
0.0
 20
0.0
 30
0.0
  0
INSERT
  8
0
  5
21A
  2
BLK4
 10
0.0
 20
0.0
 30
0.0
  0
INSERT
  8
0
  5
21B
  2
BLK5
 10
0.0
 20
0.0
 30
0.0
  0
INSERT
  8
0
  5
21C
  2
*X6
 10
244.441015
 20
136.392556
 30
0.0
  0
INSERT
  8
0
  5
21D
  2
*X7
 10
281.456141
 20
136.392556
 30
0.0
  0
INSERT
  8
0
  5
21E
  2
*X8
 10
281.456141
 20
136.392556
 30
0.0
  0
INSERT
  8
0
  5
21F
  2
*X9
 10
281.456141
 20
136.392556
 30
0.0
  0
INSERT
  8
0
  5
220
  2
*X10
 10
387.836141
 20
291.598664
 30
0.0
  0
INSERT
  8
0
  5
221
  2
*X11
 10
389.286141
 20
291.598664
 30
0.0
  0
INSERT
  8
0
  5
222
  2
*X12
 10
344.775262
 20
291.598664
 30
0.0
  0
INSERT
  8
0
  5
223
  2
*X13
 10
348.886141
 20
291.598664
 30
0.0
  0
INSERT
  8
0
  5
224
  2
BLK6
 10
0.0
 20
0.0
 30
0.0
  0
INSERT
  8
0
  5
225
  2
*X15
 10
358.586141
 20
301.697237
 30
0.0
  0
INSERT
  8
0
  5
226
  2
*X16
 10
348.186141
 20
288.776012
 30
0.0
  0
INSERT
  8
0
  5
227
  2
*X17
 10
349.886141
 20
288.776012
 30
0.0
  0
INSERT
  8
0
  5
228
  2
*X18
 10
387.986141
 20
288.776012
 30
0.0
  0
INSERT
  8
0
  5
229
  2
*X19
 10
387.836141
 20
288.776012
 30
0.0
  0
INSERT
  8
0
  5
22A
  2
*X20
 10
283.456141
 20
137.392556
 30
0.0
  0
INSERT
  8
0
  5
22B
  2
*X21
 10
283.456141
 20
137.392556
 30
0.0
  0
INSERT
  8
0
  5
22C
  2
*X22
 10
377.586141
 20
301.697237
 30
0.0
  0
INSERT
  8
0
  5
22D
  2
*X23
 10
386.398388
 20
286.202735
 30
0.0
  0
INSERT
  8
0
  5
22E
  2
*X24
 10
351.273894
 20
286.202735
 30
0.0
  0
INSERT
  8
0
  5
22F
  2
*X25
 10
351.586141
 20
197.397745
 30
0.0
  0
INSERT
  8
0
  5
230
  2
*X26
 10
384.287769
 20
197.397745
 30
0.0
  0
INSERT
  8
0
  5
231
  2
*X27
 10
387.084364
 20
201.811312
 30
0.0
  0
INSERT
  8
0
  5
232
  2
*X28
 10
349.886141
 20
201.811312
 30
0.0
  0
INSERT
  8
0
  5
233
  2
BLK7
 10
0.0
 20
0.0
 30
0.0
  0
LINE
  8
LC-005-002-----0
  6
CONTINUOUS
  5
235
 10
389.086141
 20
275.410886
 30
0.0
 11
389.086141
 21
275.93968
 31
0.0
  0
ARC
  8
LC-007-002-RND-0
  6
CONTINUOUS
  5
237
 10
333.586141
 20
306.835414
 30
0.0
 40
1.5
 50
180.0
 51
283.205368
  0
LINE
  8
LC-005-002-----0
  6
CONTINUOUS
  5
238
 10
374.586141
 20
299.697237
 30
0.0
 11
375.296175
 21
299.647587
 31
0.0
  0
ARC
  8
LC-007-002-RND-0
  6
CONTINUOUS
  5
239
 10
363.910985
 20
299.148805
 30
0.0
 40
0.5
 50
94.0
 51
195.0
  0
LINE
  8
LC-005-002-----0
  6
CONTINUOUS
  5
23A
 10
364.586141
 20
299.697237
 30
0.0
 11
363.876107
 21
299.647587
 31
0.0
  0
ARC
  8
LC-007-002-RND-0
  6
CONTINUOUS
  5
23B
 10
375.261297
 20
299.148805
 30
0.0
 40
0.5
 50
345.0
 51
86.0
  0
ARC
  8
LC-007-002-RND-0
  6
CONTINUOUS
  5
23C
 10
364.969804
 20
295.197237
 30
0.0
 40
0.5
 50
195.0
 51
270.0
  0
LINE
  8
LC-005-002-----0
  6
CONTINUOUS
  5
23D
 10
374.68544
 20
295.067828
 30
0.0
 11
375.74426
 21
299.019395
 31
0.0
  0
LINE
  8
LC-005-002-----0
  6
CONTINUOUS
  5
23E
 10
374.586141
 20
299.697237
 30
0.0
 11
374.586141
 21
309.505595
 31
0.0
  0
ARC
  8
LC-007-002-RND-0
  6
CONTINUOUS
  5
23F
 10
374.202477
 20
295.197237
 30
0.0
 40
0.5
 50
270.0
 51
345.0
  0
LINE
  8
LC-005-002-----0
  6
CONTINUOUS
  5
240
 10
364.486841
 20
295.067828
 30
0.0
 11
363.428022
 21
299.019395
 31
0.0
  0
LINE
  8
LC-005-002-----0
  6
CONTINUOUS
  5
241
 10
373.561141
 20
309.652556
 30
0.0
 11
373.561141
 21
294.697237
 31
0.0
  0
LINE
  8
LC-005-002-----0
  6
CONTINUOUS
  5
242
 10
365.611141
 20
309.652556
 30
0.0
 11
365.611141
 21
294.697237
 31
0.0
  0
LINE
  8
LC-005-002-----0
  6
CONTINUOUS
  5
243
 10
364.586141
 20
299.697237
 30
0.0
 11
364.586141
 21
309.505595
 31
0.0
  0
LINE
  8
LC-005-002-----0
  6
CONTINUOUS
  5
244
 10
374.586141
 20
299.697237
 30
0.0
 11
374.586141
 21
309.505595
 31
0.0
  0
LINE
  8
LC-005-002-----0
  6
CONTINUOUS
  5
245
 10
367.586141
 20
309.652556
 30
0.0
 11
373.561141
 21
309.652556
 31
0.0
  0
LINE
  8
LC-005-002-----0
  6
CONTINUOUS
  5
246
 10
365.611141
 20
309.652556
 30
0.0
 11
371.586141
 21
309.652556
 31
0.0
  0
LINE
  8
LC-005-002-----0
  6
CONTINUOUS
  5
247
 10
373.561141
 20
309.652556
 30
0.0
 11
367.586141
 21
309.652556
 31
0.0
  0
LINE
  8
LC-005-002-----0
  6
CONTINUOUS
  5
248
 10
332.086141
 20
306.835414
 30
0.0
 11
332.086141
 21
306.586484
 31
0.0
  0
LINE
  8
LC-005-002-----0
  6
CONTINUOUS
  5
249
 10
332.086141
 20
306.835414
 30
0.0
 11
332.086141
 21
306.835414
 31
0.0
  0
ARC
  8
LC-007-002-RND-0
  6
CONTINUOUS
  5
24A
 10
333.586141
 20
306.835414
 30
0.0
 40
1.5
 50
103.205368
 51
180.0
  0
ARC
  8
LC-005-002-----0
  6
CONTINUOUS
  5
24B
 10
345.025383
 20
258.084501
 30
0.0
 40
51.575022
 50
93.880388
 51
103.205368
  0
ARC
  8
LC-005-002-----0
  6
CONTINUOUS
  5
24C
 10
394.146898
 20
258.084501
 30
0.0
 40
51.575022
 50
76.794632
 51
86.119612
  0
ARC
  8
LC-007-002-RND-0
  6
CONTINUOUS
  5
24D
 10
405.586141
 20
306.835414
 30
0.0
 40
1.5
 50
256.794632
 51
0.0
  0
ARC
  8
LC-007-002-RND-0
  6
CONTINUOUS
  5
24E
 10
405.586141
 20
306.835414
 30
0.0
 40
1.5
 50
0.0
 51
76.794632
  0
ARC
  8
LC-005-002-----0
  6
CONTINUOUS
  5
24F
 10
394.146898
 20
258.084501
 30
0.0
 40
48.575022
 50
76.794632
 51
86.119612
  0
LINE
  8
LC-005-002-----0
  6
CONTINUOUS
  5
250
 10
407.086141
 20
306.835414
 30
0.0
 11
407.086141
 21
306.835414
 31
0.0
  0
ARC
  8
LC-005-002-----0
  6
CONTINUOUS
  5
251
 10
403.601266
 20
397.469249
 30
0.0
 40
91.13
 50
258.873099
 51
266.119612
  0
ARC
  8
LC-007-002-RND-0
  6
CONTINUOUS
  5
252
 10
403.601266
 20
397.469249
 30
0.0
 40
88.13
 50
258.873099
 51
266.119612
  0
ARC
  8
LC-005-002-----0
  6
CONTINUOUS
  5
253
 10
369.586141
 20
224.522556
 30
0.0
 40
88.13
 50
78.873099
 51
90.0
  0
ARC
  8
LC-005-002-----0
  6
CONTINUOUS
  5
254
 10
335.571015
 20
397.469249
 30
0.0
 40
91.13
 50
273.880388
 51
281.126901
  0
ARC
  8
LC-005-002-----0
  6
CONTINUOUS
  5
255
 10
369.586141
 20
224.522556
 30
0.0
 40
85.13
 50
93.367131
 51
101.126901
  0
ARC
  8
LC-005-002-----0
  6
CONTINUOUS
  5
256
 10
369.586141
 20
224.522556
 30
0.0
 40
88.13
 50
90.0
 51
101.126901
  0
ARC
  8
LC-007-002-RND-0
  6
CONTINUOUS
  5
257
 10
335.571015
 20
397.469249
 30
0.0
 40
88.13
 50
273.880388
 51
281.126901
  0
ARC
  8
LC-005-002-----0
  6
CONTINUOUS
  5
258
 10
403.601266
 20
397.469249
 30
0.0
 40
91.13
 50
258.873099
 51
266.119612
  0
ARC
  8
LC-005-002-----0
  6
CONTINUOUS
  5
259
 10
369.586141
 20
224.522556
 30
0.0
 40
85.13
 50
78.873099
 51
86.632869
  0
ARC
  8
LC-005-002-----0
  6
CONTINUOUS
  5
25A
 10
345.025383
 20
258.084501
 30
0.0
 40
48.575022
 50
93.880388
 51
103.205368
  0
LINE
  8
LC-005-002-----0
  6
CONTINUOUS
  5
25B
 10
374.586141
 20
299.697237
 30
0.0
 11
374.586141
 21
306.077237
 31
0.0
  0
LINE
  8
LC-005-002-----0
  6
CONTINUOUS
  5
25C
 10
333.586141
 20
305.335414
 30
0.0
 11
358.586141
 21
305.335414
 31
0.0
  0
LINE
  8
LC-005-002-----0
  6
CONTINUOUS
  5
25D
 10
405.586141
 20
305.335414
 30
0.0
 11
380.586141
 21
305.335414
 31
0.0
  0
LINE
  8
LC-005-002-----0
  6
CONTINUOUS
  5
25E
 10
368.586141
 20
294.697237
 30
0.0
 11
364.969804
 21
294.697237
 31
0.0
  0
LINE
  8
LC-005-002-----0
  6
CONTINUOUS
  5
25F
 10
373.561141
 20
294.697237
 30
0.0
 11
370.586141
 21
294.697237
 31
0.0
  0
LINE
  8
LC-005-002-----0
  6
CONTINUOUS
  5
260
 10
377.586141
 20
301.697237
 30
0.0
 11
377.586141
 21
303.697237
 31
0.0
  0
LINE
  8
LC-005-002-----0
  6
CONTINUOUS
  5
261
 10
377.586141
 20
301.697237
 30
0.0
 11
380.586141
 21
301.697237
 31
0.0
  0
LINE
  8
LC-005-002-----0
  6
CONTINUOUS
  5
262
 10
380.586141
 20
301.697237
 30
0.0
 11
380.586141
 21
303.697237
 31
0.0
  0
ARC
  8
LC-007-002-RND-0
  6
CONTINUOUS
  5
263
 10
387.086141
 20
301.697237
 30
0.0
 40
2.0
 50
0.0
 51
90.0
  0
LINE
  8
LC-005-002-----0
  6
CONTINUOUS
  5
264
 10
386.186141
 20
197.397745
 30
0.0
 11
383.626996
 21
197.397745
 31
0.0
  0
LINE
  8
LC-005-002-----0
  6
CONTINUOUS
  5
265
 10
389.086141
 20
301.697237
 30
0.0
 11
389.086141
 21
293.967532
 31
0.0
  0
LINE
  8
LC-005-002-----0
  6
CONTINUOUS
  5
266
 10
351.582575
 20
199.828792
 30
0.0
 11
352.986141
 21
197.397745
 31
0.0
  0
LINE
  8
LC-005-002-----0
  6
CONTINUOUS
  5
267
 10
352.786141
 20
207.110181
 30
0.0
 11
352.786141
 21
286.212429
 31
0.0
  0
LINE
  8
LC-005-002-----0
  6
CONTINUOUS
  5
268
 10
376.439445
 20
197.397745
 30
0.0
 11
369.586141
 21
197.397745
 31
0.0
  0
LINE
  8
LC-005-002-----0
  6
CONTINUOUS
  5
269
 10
361.586141
 20
301.697237
 30
0.0
 11
361.586141
 21
303.697237
 31
0.0
  0
LINE
  8
LC-005-002-----0
  6
CONTINUOUS
  5
26A
 10
361.586141
 20
301.697237
 30
0.0
 11
358.586141
 21
301.697237
 31
0.0
  0
LINE
  8
LC-005-002-----0
  6
CONTINUOUS
  5
26B
 10
358.586141
 20
301.697237
 30
0.0
 11
358.586141
 21
303.697237
 31
0.0
  0
ARC
  8
LC-007-002-RND-0
  6
CONTINUOUS
  5
26C
 10
352.086141
 20
301.697237
 30
0.0
 40
2.0
 50
90.0
 51
180.0
  0
LINE
  8
LC-005-002-----0
  6
CONTINUOUS
  5
26D
 10
352.986141
 20
197.397745
 30
0.0
 11
355.545286
 21
197.397745
 31
0.0
  0
LINE
  8
LC-005-002-----0
  6
CONTINUOUS
  5
26E
 10
351.591951
 20
205.041783
 30
0.0
 11
352.786141
 21
207.110181
 31
0.0
  0
LINE
  8
LC-005-002-----0
  6
CONTINUOUS
  5
26F
 10
350.086141
 20
301.697237
 30
0.0
 11
350.086141
 21
295.445899
 31
0.0
  0
LINE
  8
LC-005-002-----0
  6
CONTINUOUS
  5
270
 10
386.886141
 20
293.967532
 30
0.0
 11
386.386141
 21
293.467532
 31
0.0
  0
ARC
  8
LC-007-002-RND-0
  6
CONTINUOUS
  5
271
 10
387.536141
 20
286.512429
 30
0.0
 40
0.3
 50
270.0
 51
0.0
  0
LINE
  8
LC-005-002-----0
  6
CONTINUOUS
  5
272
 10
344.925262
 20
295.251504
 30
0.0
 11
349.636141
 21
292.531677
 31
0.0
  0
ARC
  8
LC-007-002-RND-0
  6
CONTINUOUS
  5
273
 10
389.486141
 20
290.276012
 30
0.0
 40
1.5
 50
270.0
 51
0.0
  0
LINE
  8
LC-005-002-----0
  6
DASHED
 62
     2
  5
274
 10
349.886141
 20
288.776012
 30
0.0
 11
349.886141
 21
291.776012
 31
0.0
  0
LINE
  8
LC-005-002-----0
  6
CONTINUOUS
  5
275
 10
389.486141
 20
288.776012
 30
0.0
 11
387.836141
 21
288.776012
 31
0.0
  0
LINE
  8
LC-005-002-----0
  6
CONTINUOUS
  5
276
 10
349.886141
 20
291.776012
 30
0.0
 11
349.886141
 21
292.098664
 31
0.0
  0
LINE
  8
LC-005-002-----0
  6
CONTINUOUS
  5
277
 10
389.286141
 20
291.776012
 30
0.0
 11
387.836141
 21
291.776012
 31
0.0
  0
ARC
  8
LC-007-002-RND-0
  6
CONTINUOUS
  5
278
 10
349.686141
 20
290.276012
 30
0.0
 40
1.5
 50
117.818139
 51
180.0
  0
ARC
  8
LC-007-002-RND-0
  6
CONTINUOUS
  5
279
 10
349.686141
 20
290.276012
 30
0.0
 40
1.5
 50
180.0
 51
270.0
  0
LINE
  8
LC-005-002-----0
  6
CONTINUOUS
  5
27A
 10
350.086141
 20
287.811312
 30
0.0
 11
349.886141
 21
288.011312
 31
0.0
  0
LINE
  8
LC-005-002-----0
  6
CONTINUOUS
  5
27B
 10
390.186141
 20
292.906954
 30
0.0
 11
390.186141
 21
291.602662
 31
0.0
  0
LINE
  8
LC-005-002-----0
  6
CONTINUOUS
  5
27C
 10
389.286141
 20
288.011312
 30
0.0
 11
389.286141
 21
288.776012
 31
0.0
  0
LINE
  8
LC-005-002-----0
  6
CONTINUOUS
  5
27D
 10
389.086141
 20
287.811312
 30
0.0
 11
389.286141
 21
288.011312
 31
0.0
  0
LINE
  8
LC-005-002-----0
  6
DASHED
 62
     2
  5
27E
 10
389.286141
 20
288.776012
 30
0.0
 11
389.286141
 21
291.776012
 31
0.0
  0
ARC
  8
LC-007-002-RND-0
  6
CONTINUOUS
  5
27F
 10
389.786141
 20
292.098664
 30
0.0
 40
0.5
 50
120.0
 51
180.0
  0
ARC
  8
LC-007-002-RND-0
  6
CONTINUOUS
  5
280
 10
387.386141
 20
293.467532
 30
0.0
 40
0.5
 50
90.0
 51
180.0
  0
LINE
  8
LC-005-002-----0
  6
CONTINUOUS
  5
281
 10
386.886141
 20
287.655392
 30
0.0
 11
386.886141
 21
293.467532
 31
0.0
  0
LINE
  8
LC-005-002-----0
  6
CONTINUOUS
  5
282
 10
352.286141
 20
287.655392
 30
0.0
 11
352.286141
 21
293.467532
 31
0.0
  0
LINE
  8
LC-005-002-----0
  6
CONTINUOUS
  5
283
 10
362.732836
 20
197.397745
 30
0.0
 11
369.586141
 21
197.397745
 31
0.0
  0
ARC
  8
LC-007-002-RND-0
  6
CONTINUOUS
  5
284
 10
351.786141
 20
293.467532
 30
0.0
 40
0.5
 50
0.0
 51
90.0
  0
LINE
  8
LC-005-002-----0
  6
CONTINUOUS
  5
285
 10
394.24702
 20
295.251504
 30
0.0
 11
389.536141
 21
292.531677
 31
0.0
  0
LINE
  8
LC-005-002-----0
  6
CONTINUOUS
  5
286
 10
352.286141
 20
293.967532
 30
0.0
 11
352.786141
 21
293.467532
 31
0.0
  0
LINE
  8
LC-005-002-----0
  6
CONTINUOUS
  5
287
 10
364.586141
 20
299.697237
 30
0.0
 11
364.586141
 21
306.077237
 31
0.0
  0
LINE
  8
LC-005-002-----0
  6
CONTINUOUS
  5
288
 10
380.586141
 20
303.697237
 30
0.0
 11
380.586141
 21
305.197237
 31
0.0
  0
LINE
  8
LC-005-002-----0
  6
CONTINUOUS
  5
289
 10
374.586141
 20
306.077237
 30
0.0
 11
377.767423
 21
309.258519
 31
0.0
  0
LINE
  8
LC-005-002-----0
  6
CONTINUOUS
  5
28A
 10
383.626996
 20
201.397745
 30
0.0
 11
383.626996
 21
197.397745
 31
0.0
  0
LINE
  8
LC-005-002-----0
  6
CONTINUOUS
  5
28B
 10
380.586141
 20
303.697237
 30
0.0
 11
380.586141
 21
308.938886
 31
0.0
  0
LINE
  8
LC-005-002-----0
  6
CONTINUOUS
  5
28C
 10
364.586141
 20
306.077237
 30
0.0
 11
361.404859
 21
309.258519
 31
0.0
  0
LINE
  8
LC-005-002-----0
  6
CONTINUOUS
  5
28D
 10
370.586141
 20
288.697237
 30
0.0
 11
370.586141
 21
294.697237
 31
0.0
  0
LINE
  8
LC-005-002-----0
  6
CONTINUOUS
  5
28E
 10
368.586141
 20
288.697237
 30
0.0
 11
368.586141
 21
294.697237
 31
0.0
  0
LINE
  8
LC-005-002-----0
  6
CONTINUOUS
  5
28F
 10
361.586141
 20
303.697237
 30
0.0
 11
351.986141
 21
303.697237
 31
0.0
  0
LINE
  8
LC-005-002-----0
  6
CONTINUOUS
  5
290
 10
361.404859
 20
309.258519
 30
0.0
 11
358.586141
 21
308.947241
 31
0.0
  0
LINE
  8
LC-005-002-----0
  6
CONTINUOUS
  5
291
 10
377.767423
 20
309.258519
 30
0.0
 11
380.586141
 21
308.938886
 31
0.0
  0
LINE
  8
LC-005-002-----0
  6
CONTINUOUS
  5
292
 10
352.786141
 20
288.697237
 30
0.0
 11
384.686141
 21
288.697237
 31
0.0
  0
LINE
  8
LC-005-002-----0
  6
CONTINUOUS
  5
293
 10
387.589707
 20
199.828792
 30
0.0
 11
386.186141
 21
197.397745
 31
0.0
  0
LINE
  8
LC-005-002-----0
  6
CONTINUOUS
  5
294
 10
351.636141
 20
286.212429
 30
0.0
 11
352.086141
 21
286.212429
 31
0.0
  0
ARC
  8
LC-007-002-RND-0
  6
CONTINUOUS
  5
295
 10
351.636141
 20
286.512429
 30
0.0
 40
0.3
 50
180.0
 51
270.0
  0
ARC
  8
LC-005-002-----0
  6
CONTINUOUS
  5
296
 10
352.023894
 20
286.952735
 30
0.0
 40
0.75
 50
274.806276
 51
69.533324
  0
LINE
  8
LC-005-002-----0
  6
CONTINUOUS
  5
297
 10
377.586141
 20
303.697237
 30
0.0
 11
387.086141
 21
303.697237
 31
0.0
  0
LINE
  8
LC-005-002-----0
  6
CONTINUOUS
  5
298
 10
387.084364
 20
285.212429
 30
0.0
 11
387.086141
 21
286.212429
 31
0.0
  0
LINE
  8
LC-005-002-----0
  6
CONTINUOUS
  5
299
 10
350.086141
 20
295.811312
 30
0.0
 11
350.086141
 21
293.967532
 31
0.0
  0
LINE
  8
LC-005-002-----0
  6
CONTINUOUS
  5
29A
 10
349.686141
 20
288.776012
 30
0.0
 11
351.336141
 21
288.776012
 31
0.0
  0
LINE
  8
LC-005-002-----0
  6
CONTINUOUS
  5
29B
 10
349.886141
 20
291.776012
 30
0.0
 11
351.336141
 21
291.776012
 31
0.0
  0
LINE
  8
LC-005-002-----0
  6
CONTINUOUS
  5
29C
 10
389.086141
 20
274.037851
 30
0.0
 11
389.086141
 21
287.811312
 31
0.0
  0
LINE
  8
LC-005-002-----0
  6
CONTINUOUS
  5
29D
 10
352.786141
 20
293.467532
 30
0.0
 11
352.786141
 21
286.212429
 31
0.0
  0
LINE
  8
LC-005-002-----0
  6
CONTINUOUS
  5
29E
 10
350.086141
 20
201.811312
 30
0.0
 11
350.086141
 21
287.811312
 31
0.0
  0
LINE
  8
LC-005-002-----0
  6
CONTINUOUS
  5
29F
 10
351.336141
 20
286.512429
 30
0.0
 11
351.336141
 21
293.967532
 31
0.0
  0
LINE
  8
LC-005-002-----0
  6
CONTINUOUS
  5
2A0
 10
387.586141
 20
201.811312
 30
0.0
 11
389.086141
 21
201.811312
 31
0.0
  0
LINE
  8
LC-005-002-----0
  6
CONTINUOUS
  5
2A1
 10
389.086141
 20
201.811312
 30
0.0
 11
389.086141
 21
274.037851
 31
0.0
  0
LINE
  8
LC-005-002-----0
  6
CONTINUOUS
  5
2A2
 10
352.087918
 20
285.212429
 30
0.0
 11
352.086141
 21
286.212429
 31
0.0
  0
LINE
  8
LC-005-002-----0
  6
CONTINUOUS
  5
2A3
 10
386.386141
 20
288.697237
 30
0.0
 11
369.586141
 21
288.697237
 31
0.0
  0
LINE
  8
LC-005-002-----0
  6
CONTINUOUS
  5
2A4
 10
345.075262
 20
295.811312
 30
0.0
 11
350.086141
 21
295.811312
 31
0.0
  0
LINE
  8
LC-005-002-----0
  6
CONTINUOUS
  5
2A5
 10
394.09702
 20
295.811312
 30
0.0
 11
389.086141
 21
295.811312
 31
0.0
  0
ARC
  8
LC-007-002-RND-0
  6
CONTINUOUS
  5
2A6
 10
394.09702
 20
295.511312
 30
0.0
 40
0.3
 50
300.0
 51
90.0
  0
ARC
  8
LC-007-002-RND-0
  6
CONTINUOUS
  5
2A7
 10
345.075262
 20
295.511312
 30
0.0
 40
0.3
 50
90.0
 51
240.0
  0
LINE
  8
LC-005-002-----0
  6
CONTINUOUS
  5
2A8
 10
350.086141
 20
201.811312
 30
0.0
 11
351.586141
 21
201.811312
 31
0.0
  0
LINE
  8
LC-005-002-----0
  6
CONTINUOUS
  5
2A9
 10
354.884513
 20
288.697237
 30
0.0
 11
360.54814
 21
301.697237
 31
0.0
  0
LINE
  8
LC-005-002-----0
  6
CONTINUOUS
  5
2AA
 10
369.086141
 20
304.697237
 30
0.0
 11
369.586141
 21
304.697237
 31
0.0
  0
LINE
  8
LC-005-002-----0
  6
CONTINUOUS
  5
2AB
 10
370.086141
 20
304.697237
 30
0.0
 11
369.586141
 21
304.697237
 31
0.0
  0
LINE
  8
LC-005-002-----0
  6
CONTINUOUS
  5
2AC
 10
350.086141
 20
293.967532
 30
0.0
 11
352.286141
 21
293.967532
 31
0.0
  0
ARC
  8
LC-007-002-RND-0
  6
CONTINUOUS
  5
2AD
 10
380.439445
 20
201.397745
 30
0.0
 40
4.0
 50
90.0
 51
180.0
  0
ARC
  8
LC-007-002-RND-0
  6
CONTINUOUS
  5
2AE
 10
358.732836
 20
201.397745
 30
0.0
 40
4.0
 50
0.0
 51
90.0
  0
LINE
  8
LC-005-002-----0
  6
CONTINUOUS
  5
2AF
 10
389.086141
 20
293.967532
 30
0.0
 11
386.886141
 21
293.967532
 31
0.0
  0
LINE
  8
LC-005-002-----0
  6
CONTINUOUS
  5
2B0
 10
389.286141
 20
291.776012
 30
0.0
 11
389.286141
 21
292.098664
 31
0.0
  0
LINE
  8
LC-005-002-----0
  6
CONTINUOUS
  5
2B1
 10
386.386141
 20
207.110181
 30
0.0
 11
386.386141
 21
293.467532
 31
0.0
  0
ARC
  8
LC-007-002-RND-0
  6
CONTINUOUS
  5
2B2
 10
349.386141
 20
292.098664
 30
0.0
 40
0.5
 50
0.0
 51
60.0
  0
ARC
  8
LC-007-002-RND-0
  6
CONTINUOUS
  5
2B3
 10
359.545286
 20
201.397745
 30
0.0
 40
4.0
 50
95.828791
 51
180.0
  0
ARC
  8
LC-007-002-RND-0
  6
CONTINUOUS
  5
2B4
 10
358.247555
 20
201.397745
 30
0.0
 40
4.0
 50
90.0
 51
159.137258
  0
LINE
  8
LC-005-002-----0
  6
CONTINUOUS
  5
2B5
 10
354.486136
 20
197.396704
 30
0.0
 11
354.884513
 21
288.697237
 31
0.0
  0
LINE
  8
LC-005-002-----0
  6
CONTINUOUS
  5
2B6
 10
358.247555
 20
205.397745
 30
0.0
 11
358.732836
 21
205.397745
 31
0.0
  0
LINE
  8
LC-005-002-----0
  6
CONTINUOUS
  5
2B7
 10
384.686121
 20
197.402367
 30
0.0
 11
384.287769
 21
288.697237
 31
0.0
  0
LINE
  8
LC-005-002-----0
  6
CONTINUOUS
  5
2B8
 10
387.580331
 20
205.041783
 30
0.0
 11
386.386141
 21
207.110181
 31
0.0
  0
LINE
  8
LC-005-002-----0
  6
CONTINUOUS
  5
2B9
 10
380.439445
 20
205.397745
 30
0.0
 11
380.924727
 21
205.397745
 31
0.0
  0
LINE
  8
LC-005-002-----0
  6
CONTINUOUS
  5
2BA
 10
384.287769
 20
288.697237
 30
0.0
 11
378.624141
 21
301.697237
 31
0.0
  0
ARC
  8
LC-005-002-----0
  6
CONTINUOUS
  5
2BB
 10
387.148388
 20
286.952735
 30
0.0
 40
0.75
 50
110.466676
 51
265.23921
  0
ARC
  8
LC-007-002-RND-0
  6
CONTINUOUS
  5
2BC
 10
389.486141
 20
290.276012
 30
0.0
 40
1.5
 50
0.0
 51
62.181861
  0
LINE
  8
LC-005-002-----0
  6
CONTINUOUS
  5
2BD
 10
349.886141
 20
288.011312
 30
0.0
 11
349.886141
 21
288.776012
 31
0.0
  0
LINE
  8
LC-005-002-----0
  6
CONTINUOUS
  5
2BE
 10
376.439445
 20
201.397745
 30
0.0
 11
376.439445
 21
197.397745
 31
0.0
  0
LINE
  8
LC-005-002-----0
  6
CONTINUOUS
  5
2BF
 10
351.586141
 20
205.03172
 30
0.0
 11
351.586141
 21
199.828792
 31
0.0
  0
LINE
  8
LC-005-002-----0
  6
CONTINUOUS
  5
2C0
 10
355.545286
 20
201.397745
 30
0.0
 11
355.545286
 21
197.397745
 31
0.0
  0
LINE
  8
LC-005-002-----0
  6
CONTINUOUS
  5
2C1
 10
387.586141
 20
205.03172
 30
0.0
 11
387.586141
 21
199.828792
 31
0.0
  0
ARC
  8
LC-007-002-RND-0
  6
CONTINUOUS
  5
2C2
 10
380.924727
 20
201.397745
 30
0.0
 40
4.0
 50
20.862742
 51
90.0
  0
LINE
  8
LC-005-002-----0
  6
CONTINUOUS
  5
2C3
 10
362.732836
 20
201.397745
 30
0.0
 11
362.732836
 21
197.397745
 31
0.0
  0
LINE
  8
LC-005-002-----0
  6
CONTINUOUS
  5
2C4
 10
387.536141
 20
286.212429
 30
0.0
 11
387.086141
 21
286.212429
 31
0.0
  0
LINE
  8
LC-005-002-----0
  6
CONTINUOUS
  5
2C5
 10
370.586141
 20
294.697237
 30
0.0
 11
370.086141
 21
304.697237
 31
0.0
  0
LINE
  8
LC-005-002-----0
  6
CONTINUOUS
  5
2C6
 10
368.586141
 20
294.697237
 30
0.0
 11
369.086141
 21
304.697237
 31
0.0
  0
ARC
  8
LC-007-002-RND-0
  6
CONTINUOUS
  5
2C7
 10
379.626996
 20
201.397745
 30
0.0
 40
4.0
 50
0.0
 51
84.171209
  0
LINE
  8
LC-005-002-----0
  6
CONTINUOUS
  5
2C8
 10
387.836141
 20
286.512429
 30
0.0
 11
387.836141
 21
293.967532
 31
0.0
  0
LINE
  8
LC-005-002-----0
  6
CONTINUOUS
  5
2C9
 10
374.586141
 20
299.697237
 30
0.0
 11
378.586141
 21
299.697237
 31
0.0
  0
LINE
  8
LC-005-002-----0
  6
CONTINUOUS
  5
2CA
 10
378.586141
 20
299.697237
 30
0.0
 11
378.586141
 21
301.697237
 31
0.0
  0
LINE
  8
LC-005-002-----0
  6
CONTINUOUS
  5
2CB
 10
364.586141
 20
299.697237
 30
0.0
 11
360.586141
 21
299.697237
 31
0.0
  0
LINE
  8
LC-005-002-----0
  6
CONTINUOUS
  5
2CC
 10
358.586141
 20
303.697237
 30
0.0
 11
358.586141
 21
308.947241
 31
0.0
  0
LINE
  8
LC-005-002-----0
  6
CONTINUOUS
  5
2CD
 10
360.586141
 20
299.697237
 30
0.0
 11
360.586141
 21
301.697237
 31
0.0
  0
LINE
  8
LC-005-002-----0
  6
CONTINUOUS
  5
2CE
 10
348.986141
 20
292.906954
 30
0.0
 11
348.986141
 21
291.602662
 31
0.0
  0
LINE
  8
LC-005-002-----0
  6
CONTINUOUS
  5
2CF
 10
351.586141
 20
285.212429
 30
0.0
 11
352.087918
 21
285.212429
 31
0.0
  0
LINE
  8
LC-005-002-----0
  6
CONTINUOUS
  5
2D0
 10
387.586141
 20
205.03172
 30
0.0
 11
387.586141
 21
285.212429
 31
0.0
  0
LINE
  8
LC-005-002-----0
  6
CONTINUOUS
  5
2D1
 10
387.084364
 20
285.212429
 30
0.0
 11
387.586141
 21
285.212429
 31
0.0
  0
LINE
  8
LC-005-002-----0
  6
CONTINUOUS
  5
2D2
 10
351.586141
 20
205.03172
 30
0.0
 11
351.586141
 21
285.212429
 31
0.0
  0
LINE
  8
LC-005-002-----0
  6
CONTINUOUS
  5
2D3
 10
370.586141
 20
294.697237
 30
0.0
 11
374.251216
 21
294.697237
 31
0.0
  0
LINE
  8
LC-005-002-----0
  6
CONTINUOUS
  5
2D4
 10
387.580331
 20
285.202366
 30
0.0
 11
387.580331
 21
279.999438
 31
0.0
  0
LINE
  8
LC-005-002-----0
  6
CONTINUOUS
  5
2D5
 10
351.580331
 20
285.202366
 30
0.0
 11
351.580331
 21
279.999438
 31
0.0
  0
LINE
  8
LC-005-002-----0
  6
DASHED
 62
     2
  5
2D6
 10
387.574521
 20
285.212429
 30
0.0
 11
386.380331
 21
287.280827
 31
0.0
  0
LINE
  8
LC-005-002-----0
  6
DASHED
 62
     2
  5
2D7
 10
351.586141
 20
285.212429
 30
0.0
 11
352.780331
 21
287.280827
 31
0.0
  0
LINE
  8
LC-005-002-----0
  6
DASHDOT
 62
     2
  5
2D9
 10
369.580331
 20
312.652556
 30
0.0
 11
369.580331
 21
197.397745
 31
0.0
  0
ENDSEC
  0
EOF
