  0
SECTION
  2
HEADER
  9
$ACADVER
  1
AC1015
  9
$ACADMAINTVER
 70
     6
  9
$DWGCODEPAGE
  3
ANSI_1252
  9
$INSBASE
 10
0.0
 20
0.0
 30
0.0
  9
$EXTMIN
 10
-123.0
 20
-87.0
 30
0.0
  9
$EXTMAX
 10
717.0
 20
507.0
 30
0.0
  9
$LIMMIN
 10
-123.0
 20
-87.0
  9
$LIMMAX
 10
717.0
 20
507.0
  9
$ORTHOMODE
 70
     0
  9
$REGENMODE
 70
     1
  9
$FILLMODE
 70
     1
  9
$QTEXTMODE
 70
     0
  9
$MIRRTEXT
 70
     1
  9
$LTSCALE
 40
2.0
  9
$ATTMODE
 70
     1
  9
$TEXTSIZE
 40
2.5
  9
$TRACEWID
 40
1.0
  9
$TEXTSTYLE
  7
Standard
  9
$CLAYER
  8
0
  9
$CELTYPE
  6
ByLayer
  9
$CECOLOR
 62
     7
  9
$CELTSCALE
 40
1.0
  9
$DISPSILH
 70
     0
  9
$DIMSCALE
 40
2.0
  9
$DIMASZ
 40
3.5
  9
$DIMEXO
 40
0.625
  9
$DIMDLI
 40
3.75
  9
$DIMRND
 40
0.0
  9
$DIMDLE
 40
0.0
  9
$DIMEXE
 40
1.25
  9
$DIMTP
 40
0.0
  9
$DIMTM
 40
0.0
  9
$DIMTXT
 40
3.5
  9
$DIMCEN
 40
2.5
  9
$DIMTSZ
 40
0.0
  9
$DIMTOL
 70
     0
  9
$DIMLIM
 70
     0
  9
$DIMTIH
 70
     0
  9
$DIMTOH
 70
     0
  9
$DIMSE1
 70
     0
  9
$DIMSE2
 70
     0
  9
$DIMTAD
 70
     1
  9
$DIMZIN
 70
     8
  9
$DIMBLK
  1

  9
$DIMASO
 70
     1
  9
$DIMSHO
 70
     1
  9
$DIMPOST
  1

  9
$DIMAPOST
  1

  9
$DIMALT
 70
     0
  9
$DIMALTD
 70
     3
  9
$DIMALTF
 40
0.03937
  9
$DIMLFAC
 40
1.0
  9
$DIMTOFL
 70
     1
  9
$DIMTVP
 40
0.0
  9
$DIMTIX
 70
     0
  9
$DIMSOXD
 70
     0
  9
$DIMSAH
 70
     0
  9
$DIMBLK1
  1

  9
$DIMBLK2
  1

  9
$DIMSTYLE
  2
ISO-25
  9
$DIMCLRD
 70
     0
  9
$DIMCLRE
 70
     0
  9
$DIMCLRT
 70
     0
  9
$DIMTFAC
 40
1.0
  9
$DIMGAP
 40
0.625
  9
$DIMJUST
 70
     0
  9
$DIMSD1
 70
     0
  9
$DIMSD2
 70
     0
  9
$DIMTOLJ
 70
     0
  9
$DIMTZIN
 70
     8
  9
$DIMALTZ
 70
     0
  9
$DIMALTTZ
 70
     0
  9
$DIMUPT
 70
     0
  9
$DIMDEC
 70
     2
  9
$DIMTDEC
 70
     2
  9
$DIMALTU
 70
     2
  9
$DIMALTTD
 70
     3
  9
$DIMTXSTY
  7
Standard
  9
$DIMAUNIT
 70
     0
  9
$DIMADEC
 70
     0
  9
$DIMALTRND
 40
0.0
  9
$DIMAZIN
 70
     0
  9
$DIMDSEP
 70
    44
  9
$DIMATFIT
 70
     3
  9
$DIMFRAC
 70
     0
  9
$DIMLDRBLK
  1

  9
$DIMLUNIT
 70
     2
  9
$DIMLWD
 70
    -2
  9
$DIMLWE
 70
    -2
  9
$DIMTMOVE
 70
     0
  9
$LUNITS
 70
     2
  9
$LUPREC
 70
     4
  9
$SKETCHINC
 40
1.0
  9
$FILLETRAD
 40
10.0
  9
$AUNITS
 70
     0
  9
$AUPREC
 70
     0
  9
$MENU
  1
.
  9
$ELEVATION
 40
0.0
  9
$PELEVATION
 40
0.0
  9
$THICKNESS
 40
0.0
  9
$LIMCHECK
 70
     0
  9
$CHAMFERA
 40
10.0
  9
$CHAMFERB
 40
10.0
  9
$CHAMFERC
 40
20.0
  9
$CHAMFERD
 40
0.0
  9
$SKPOLY
 70
     0
  9
$TDCREATE
 40
2456170.579715706
  9
$TDUCREATE
 40
2456170.496382373
  9
$TDUPDATE
 40
2456170.579715718
  9
$TDUUPDATE
 40
2456170.496382384
  9
$TDINDWG
 40
0.0000000116
  9
$TDUSRTIMER
 40
0.0000000116
  9
$USRTIMER
 70
     1
  9
$ANGBASE
 50
0.0
  9
$ANGDIR
 70
     0
  9
$PDMODE
 70
     0
  9
$PDSIZE
 40
0.0
  9
$PLINEWID
 40
0.0
  9
$SPLFRAME
 70
     0
  9
$SPLINETYPE
 70
     6
  9
$SPLINESEGS
 70
     8
  9
$HANDSEED
  5
FB
  9
$SURFTAB1
 70
     6
  9
$SURFTAB2
 70
     6
  9
$SURFTYPE
 70
     6
  9
$SURFU
 70
     6
  9
$SURFV
 70
     6
  9
$UCSBASE
  2

  9
$UCSNAME
  2

  9
$UCSORG
 10
0.0
 20
0.0
 30
0.0
  9
$UCSXDIR
 10
1.0
 20
0.0
 30
0.0
  9
$UCSYDIR
 10
0.0
 20
1.0
 30
0.0
  9
$UCSORTHOREF
  2

  9
$UCSORTHOVIEW
 70
     0
  9
$UCSORGTOP
 10
0.0
 20
0.0
 30
0.0
  9
$UCSORGBOTTOM
 10
0.0
 20
0.0
 30
0.0
  9
$UCSORGLEFT
 10
0.0
 20
0.0
 30
0.0
  9
$UCSORGRIGHT
 10
0.0
 20
0.0
 30
0.0
  9
$UCSORGFRONT
 10
0.0
 20
0.0
 30
0.0
  9
$UCSORGBACK
 10
0.0
 20
0.0
 30
0.0
  9
$PUCSBASE
  2

  9
$PUCSNAME
  2

  9
$PUCSORG
 10
0.0
 20
0.0
 30
0.0
  9
$PUCSXDIR
 10
1.0
 20
0.0
 30
0.0
  9
$PUCSYDIR
 10
0.0
 20
1.0
 30
0.0
  9
$PUCSORTHOREF
  2

  9
$PUCSORTHOVIEW
 70
     0
  9
$PUCSORGTOP
 10
0.0
 20
0.0
 30
0.0
  9
$PUCSORGBOTTOM
 10
0.0
 20
0.0
 30
0.0
  9
$PUCSORGLEFT
 10
0.0
 20
0.0
 30
0.0
  9
$PUCSORGRIGHT
 10
0.0
 20
0.0
 30
0.0
  9
$PUCSORGFRONT
 10
0.0
 20
0.0
 30
0.0
  9
$PUCSORGBACK
 10
0.0
 20
0.0
 30
0.0
  9
$USERI1
 70
     0
  9
$USERI2
 70
     0
  9
$USERI3
 70
     0
  9
$USERI4
 70
     0
  9
$USERI5
 70
     0
  9
$USERR1
 40
0.0
  9
$USERR2
 40
0.0
  9
$USERR3
 40
0.0
  9
$USERR4
 40
0.0
  9
$USERR5
 40
0.0
  9
$WORLDVIEW
 70
     1
  9
$SHADEDGE
 70
     3
  9
$SHADEDIF
 70
    70
  9
$TILEMODE
 70
     1
  9
$MAXACTVP
 70
    64
  9
$PINSBASE
 10
0.0
 20
0.0
 30
0.0
  9
$PLIMCHECK
 70
     0
  9
$PEXTMIN
 10
-123.0
 20
-87.0
 30
0.0
  9
$PEXTMAX
 10
717.0
 20
507.0
 30
0.0
  9
$PLIMMIN
 10
-123.0
 20
-87.0
  9
$PLIMMAX
 10
717.0
 20
507.0
  9
$UNITMODE
 70
     0
  9
$VISRETAIN
 70
     1
  9
$PLINEGEN
 70
     0
  9
$PSLTSCALE
 70
     1
  9
$TREEDEPTH
 70
  3020
  9
$CMLSTYLE
  2
Standard
  9
$CMLJUST
 70
     0
  9
$CMLSCALE
 40
20.0
  9
$PROXYGRAPHICS
 70
     1
  9
$MEASUREMENT
 70
     1
  9
$CELWEIGHT
370
    -1
  9
$ENDCAPS
280
     0
  9
$JOINSTYLE
280
     0
  9
$LWDISPLAY
290
     0
  9
$INSUNITS
 70
     4
  9
$HYPERLINKBASE
  1

  9
$STYLESHEET
  1

  9
$XEDIT
290
     1
  9
$CEPSNTYPE
380
     0
  9
$PSTYLEMODE
290
     1
  9
$FINGERPRINTGUID
  2
{FAEB1C30-E019-11D5-929B-00C0DF256EC4}
  9
$VERSIONGUID
  2
{FAEB1C32-E019-11D5-929B-00C0DF256EC4}
  9
$EXTNAMES
290
     1
  9
$PSVPSCALE
 40
0.0
  9
$OLESTARTUP
290
     0
  0
ENDSEC
  0
SECTION
  2
CLASSES
  0
CLASS
  1
ACDBDICTIONARYWDFLT
  2
AcDbDictionaryWithDefault
  3
ObjectDBX Classes
 90
        0
280
     0
281
     0
  0
CLASS
  1
ACDBPLACEHOLDER
  2
AcDbPlaceHolder
  3
ObjectDBX Classes
 90
        0
280
     0
281
     0
  0
CLASS
  1
LAYOUT
  2
AcDbLayout
  3
ObjectDBX Classes
 90
        0
280
     0
281
     0
  0
ENDSEC
  0
SECTION
  2
TABLES
  0
TABLE
  2
VPORT
  5
8
330
0
100
AcDbSymbolTable
 70
     2
  0
VPORT
  5
29
330
8
100
AcDbSymbolTableRecord
100
AcDbViewportTableRecord
  2
*ACTIVE
 70
     0
 10
0.0
 20
0.0
 11
1.0
 21
1.0
 12
297.0
 22
210.0
 13
0.0
 23
0.0
 14
1.0
 24
1.0
 15
0.0
 25
0.0
 16
0.0
 26
0.0
 36
1.0
 17
0.0
 27
0.0
 37
0.0
 40
594.0
 41
1.414141
 42
50.0
 43
0.0
 44
0.0
 50
0.0
 51
0.0
 71
    16
 72
   100
 73
     1
 74
     0
 75
     0
 76
     0
 77
     0
 78
     0
281
     0
 65
     0
110
0.0
120
0.0
130
0.0
111
1.0
121
0.0
131
0.0
112
0.0
122
1.0
132
0.0
 79
     0
146
0.0
  0
ENDTAB
  0
TABLE
  2
LTYPE
  5
5
330
0
100
AcDbSymbolTable
 70
     4
  0
LTYPE
  5
14
330
5
100
AcDbSymbolTableRecord
100
AcDbLinetypeTableRecord
  2
ByBlock
 70
     0
  3

 72
    65
 73
     0
 40
0.0
  0
LTYPE
  5
15
330
5
100
AcDbSymbolTableRecord
100
AcDbLinetypeTableRecord
  2
ByLayer
 70
     0
  3

 72
    65
 73
     0
 40
0.0
  0
LTYPE
  5
16
330
5
100
AcDbSymbolTableRecord
100
AcDbLinetypeTableRecord
  2
Continuous
 70
     0
  3
Solid line
 72
    65
 73
     0
 40
0.0
  0
LTYPE
  5
2A
330
5
100
AcDbSymbolTableRecord
100
AcDbLinetypeTableRecord
  2
DASHED
 70
     0
  3
__ __ __ __ __
 72
    65
 73
     2
 40
6.25
 49
5.0
 74
     4
 75
     0
340
0
 46
1.0
 50
0.0
 44
0.0
 45
0.0
 49
-1.25
 74
     4
 75
     0
340
0
 46
1.0
 50
0.0
 44
0.0
 45
0.0
  0
LTYPE
  5
8D
330
5
100
AcDbSymbolTableRecord
100
AcDbLinetypeTableRecord
  2
CENTER
 70
     0
  3
__ . __ . __ . __ . __
 72
    65
 73
     4
 40
7.5
 49
5.0
 74
     4
 75
     0
340
0
 46
1.0
 50
0.0
 44
0.0
 45
0.0
 49
-1.25
 74
     4
 75
     0
340
0
 46
1.0
 50
0.0
 44
0.0
 45
0.0
 49
0.0
 74
     4
 75
     0
340
0
 46
1.0
 50
0.0
 44
0.0
 45
0.0
 49
-1.25
 74
     4
 75
     0
340
0
 46
1.0
 50
0.0
 44
0.0
 45
0.0
  0
LTYPE
  5
C8
330
5
100
AcDbSymbolTableRecord
100
AcDbLinetypeTableRecord
  2
DASHDOT
 70
     0
  3
__ . __ . __ . __ . __
 72
    65
 73
     4
 40
7.5
 49
5.0
 74
     4
 75
     0
340
0
 46
1.0
 50
0.0
 44
0.0
 45
0.0
 49
-1.25
 74
     4
 75
     0
340
0
 46
1.0
 50
0.0
 44
0.0
 45
0.0
 49
0.0
 74
     4
 75
     0
340
0
 46
1.0
 50
0.0
 44
0.0
 45
0.0
 49
-1.25
 74
     4
 75
     0
340
0
 46
1.0
 50
0.0
 44
0.0
 45
0.0
  0
ENDTAB
  0
TABLE
  2
LAYER
  5
2
330
0
100
AcDbSymbolTable
 70
    10
  0
LAYER
  5
10
330
2
100
AcDbSymbolTableRecord
100
AcDbLayerTableRecord
  2
0
 70
     0
 62
     7
  6
Continuous
370
    -3
390
F
  0
LAYER
  5
2B
330
2
100
AcDbSymbolTableRecord
100
AcDbLayerTableRecord
  2
LC-INFO-1-2-mm-A3-0
 70
     1
 62
     7
  6
ByBlock
370
    -3
390
F
  0
LAYER
  5
2C
330
2
100
AcDbSymbolTableRecord
100
AcDbLayerTableRecord
  2
LC-CUT-HIDDEN
 70
     0
 62
     7
  6
DASHED
370
    -3
390
F
  0
LAYER
  5
2D
330
2
100
AcDbSymbolTableRecord
100
AcDbLayerTableRecord
  2
LC-VIEWPORT
 70
     0
 62
     7
  6
ByBlock
370
    -3
390
F
  0
LAYER
  5
2E
330
2
100
AcDbSymbolTableRecord
100
AcDbLayerTableRecord
  2
LC-3D-HIDDEN
 70
     0
 62
     9
  6
DASHED
370
    -3
390
F
  0
LAYER
  5
32
330
2
100
AcDbSymbolTableRecord
100
AcDbLayerTableRecord
  2
LC-001-002-----0
 70
     0
 62
     1
  6
ByBlock
370
    -3
390
F
  0
LAYER
  5
67
330
2
100
AcDbSymbolTableRecord
100
AcDbLayerTableRecord
  2
LC-002-002-RND-0
 70
     0
 62
     1
  6
ByBlock
370
    -3
390
F
  0
LAYER
  5
8E
330
2
100
AcDbSymbolTableRecord
100
AcDbLayerTableRecord
  2
LC-003-006-MLN-0
 70
     0
 62
     2
  6
CENTER
370
    -3
390
F
  0
LAYER
  5
CC
330
2
100
AcDbSymbolTableRecord
100
AcDbLayerTableRecord
  2
LC-004-003-----0
 70
     0
 62
     2
  6
ByBlock
370
    -3
390
F
  0
LAYER
  5
CE
330
2
100
AcDbSymbolTableRecord
100
AcDbLayerTableRecord
  2
Defpoints
 70
     0
 62
     7
  6
Continuous
290
     0
370
    -3
390
F
  0
ENDTAB
  0
TABLE
  2
STYLE
  5
3
330
0
100
AcDbSymbolTable
 70
     5
  0
STYLE
  5
11
330
3
100
AcDbSymbolTableRecord
100
AcDbTextStyleTableRecord
  2
Standard
 70
     0
 40
0.0
 41
1.0
 50
0.0
 71
     0
 42
2.5
  3
txt
  4

  0
STYLE
  5
2F
330
3
100
AcDbSymbolTableRecord
100
AcDbTextStyleTableRecord
  2
LCTX0-400-0-0-DIN-Schrift
 70
     0
 40
0.0
 41
0.8
 50
0.0
 71
     0
 42
3.5
  3
MONOTXT
  4

  0
STYLE
  5
30
330
3
100
AcDbSymbolTableRecord
100
AcDbTextStyleTableRecord
  2
LCTX15-400-0-0-DIN-Schrift
 70
     0
 40
0.0
 41
0.8
 50
15.0
 71
     0
 42
3.5
  3
MONOTXT
  4

  0
STYLE
  5
31
330
3
100
AcDbSymbolTableRecord
100
AcDbTextStyleTableRecord
  2
LCTX15-400-0-0-Arial
 70
     0
 40
0.0
 41
0.8
 50
0.0
 71
     0
 42
3.5
  3

  4

1001
ACAD
1000
Arial
1071
 16777218
  0
STYLE
  5
CA
330
3
100
AcDbSymbolTableRecord
100
AcDbTextStyleTableRecord
  2
LCTX15-400-0-0pDIN-Schrift
 70
     0
 40
2.5
 41
0.8
 50
15.0
 71
     0
 42
3.5
  3
STANDARD
  4

  0
ENDTAB
  0
TABLE
  2
VIEW
  5
6
330
0
100
AcDbSymbolTable
 70
     0
  0
ENDTAB
  0
TABLE
  2
UCS
  5
7
330
0
100
AcDbSymbolTable
 70
     0
  0
ENDTAB
  0
TABLE
  2
APPID
  5
9
330
0
100
AcDbSymbolTable
 70
     1
  0
APPID
  5
12
330
9
100
AcDbSymbolTableRecord
100
AcDbRegAppTableRecord
  2
ACAD
 70
     0
  0
ENDTAB
  0
TABLE
  2
DIMSTYLE
  5
A
330
0
100
AcDbSymbolTable
 70
     2
100
AcDbDimStyleTable
  0
DIMSTYLE
105
27
330
A
100
AcDbSymbolTableRecord
100
AcDbDimStyleTableRecord
  2
ISO-25
 70
     0
 41
2.5
 42
0.625
 43
3.75
 44
1.25
 73
     0
 74
     0
 77
     1
 78
     8
140
2.5
141
2.5
143
0.03937
147
0.625
171
     3
172
     1
271
     2
272
     2
274
     3
278
    44
283
     0
284
     8
340
11
  0
DIMSTYLE
105
CB
102
{ACAD_REACTORS
330
CD
330
DD
330
EC
102
}
330
A
100
AcDbSymbolTableRecord
100
AcDbDimStyleTableRecord
  2
LC-DIM-L-0140-02-02
 70
     0
 40
2.0
 41
14.0
 42
0.0
 43
7.5
 44
1.8
 73
     0
 74
     0
 77
     1
 78
     8
 79
     2
140
14.0
141
0.0
146
0.71
147
1.5
176
     2
177
     2
178
     2
179
     2
271
     2
278
    44
289
     1
340
CA
  0
ENDTAB
  0
TABLE
  2
BLOCK_RECORD
  5
1
330
0
100
AcDbSymbolTable
 70
     4
  0
BLOCK_RECORD
  5
1F
330
1
100
AcDbSymbolTableRecord
100
AcDbBlockTableRecord
  2
*Model_Space
340
22
  0
BLOCK_RECORD
  5
1B
330
1
100
AcDbSymbolTableRecord
100
AcDbBlockTableRecord
  2
*Paper_Space
340
1E
  0
BLOCK_RECORD
  5
23
330
1
100
AcDbSymbolTableRecord
100
AcDbBlockTableRecord
  2
*Paper_Space0
340
26
  0
BLOCK_RECORD
  5
CF
330
1
100
AcDbSymbolTableRecord
100
AcDbBlockTableRecord
  2
*D1
340
0
  0
BLOCK_RECORD
  5
DE
330
1
100
AcDbSymbolTableRecord
100
AcDbBlockTableRecord
  2
*D2
340
0
  0
BLOCK_RECORD
  5
ED
330
1
100
AcDbSymbolTableRecord
100
AcDbBlockTableRecord
  2
*D3
340
0
  0
ENDTAB
  0
ENDSEC
  0
SECTION
  2
BLOCKS
  0
BLOCK
  5
20
330
1F
100
AcDbEntity
  8
0
100
AcDbBlockBegin
  2
*Model_Space
 70
     0
 71
     0
 10
0.0
 20
0.0
 30
0.0
  3
*Model_Space
  1

  0
ENDBLK
  5
21
330
1F
100
AcDbEntity
  8
0
100
AcDbBlockEnd
  0
BLOCK
  5
1C
330
1B
100
AcDbEntity
 67
     1
  8
0
100
AcDbBlockBegin
  2
*Paper_Space
 70
     0
 71
     0
 10
0.0
 20
0.0
 30
0.0
  3
*Paper_Space
  1

  0
ENDBLK
  5
1D
330
1B
100
AcDbEntity
 67
     1
  8
0
100
AcDbBlockEnd
  0
BLOCK
  5
24
330
23
100
AcDbEntity
  8
0
100
AcDbBlockBegin
  2
*Paper_Space0
 70
     0
 71
     0
 10
0.0
 20
0.0
 30
0.0
  3
*Paper_Space0
  1

  0
ENDBLK
  5
25
330
23
100
AcDbEntity
  8
0
100
AcDbBlockEnd
  0
BLOCK
  5
DB
330
CF
100
AcDbEntity
  8
0
100
AcDbBlockBegin
  2
*D1
 70
     1
 71
     0
 10
0.0
 20
0.0
 30
0.0
  3
*D1
  1

  0
LINE
  5
D0
330
CF
100
AcDbEntity
  8
LC-004-003-----0
 62
     2
370
    -2
100
AcDbLine
 10
127.676178
 20
324.4593
 30
0.0
 11
101.921548
 21
324.4593
 31
0.0
  0
LINE
  5
D1
330
CF
100
AcDbEntity
  8
LC-004-003-----0
 62
     2
370
    -2
100
AcDbLine
 10
132.692359
 20
303.458807
 30
0.0
 11
101.921548
 21
303.458807
 31
0.0
  0
LINE
  5
D2
330
CF
100
AcDbEntity
  8
LC-004-003-----0
 62
     2
370
    -2
100
AcDbLine
 10
105.521548
 20
352.4593
 30
0.0
 11
105.521548
 21
380.4593
 31
0.0
  0
LINE
  5
D3
330
CF
100
AcDbEntity
  8
LC-004-003-----0
 62
     2
370
    -2
100
AcDbLine
 10
105.521548
 20
275.458807
 30
0.0
 11
105.521548
 21
247.458807
 31
0.0
  0
LINE
  5
D4
330
CF
100
AcDbEntity
  8
LC-004-003-----0
 62
     2
370
    -2
100
AcDbLine
 10
105.521548
 20
324.4593
 30
0.0
 11
105.521548
 21
303.458807
 31
0.0
  0
SOLID
  5
D5
330
CF
100
AcDbEntity
  8
LC-004-003-----0
 62
     2
100
AcDbTrace
 10
100.854881
 20
352.4593
 30
0.0
 11
110.188215
 21
352.4593
 31
0.0
 12
105.521548
 22
324.4593
 32
0.0
 13
105.521548
 23
324.4593
 33
0.0
  0
SOLID
  5
D6
330
CF
100
AcDbEntity
  8
LC-004-003-----0
 62
     2
100
AcDbTrace
 10
110.188215
 20
275.458807
 30
0.0
 11
100.854881
 21
275.458807
 31
0.0
 12
105.521548
 22
303.458807
 32
0.0
 13
105.521548
 23
303.458807
 33
0.0
  0
MTEXT
  5
D7
330
CF
100
AcDbEntity
  8
LC-004-003-----0
 62
     2
100
AcDbMText
 10
74.721548
 20
318.108
 30
0.0
 40
28.0
 41
0.0
 71
     5
 72
     1
  1
\A1;G1/2"
  7
LCTX15-400-0-0pDIN-Schrift
 11
6.123031769111886E-17
 21
1.0
 31
0.0
 73
     1
 44
1.0
  0
POINT
  5
D8
330
CF
100
AcDbEntity
  8
Defpoints
 62
     0
100
AcDbPoint
 10
127.676178
 20
324.4593
 30
0.0
  0
POINT
  5
D9
330
CF
100
AcDbEntity
  8
Defpoints
 62
     0
100
AcDbPoint
 10
132.692359
 20
303.458807
 30
0.0
  0
POINT
  5
DA
330
CF
100
AcDbEntity
  8
Defpoints
 62
     0
100
AcDbPoint
 10
105.521548
 20
303.458807
 30
0.0
  0
ENDBLK
  5
DC
330
CF
100
AcDbEntity
  8
0
100
AcDbBlockEnd
  0
BLOCK
  5
EA
330
DE
100
AcDbEntity
  8
0
100
AcDbBlockBegin
  2
*D2
 70
     1
 71
     0
 10
0.0
 20
0.0
 30
0.0
  3
*D2
  1

  0
LINE
  5
DF
330
DE
100
AcDbEntity
  8
LC-004-003-----0
 62
     2
370
    -2
100
AcDbLine
 10
176.708541
 20
313.958807
 30
0.0
 11
271.346348
 21
313.958807
 31
0.0
  0
LINE
  5
E0
330
DE
100
AcDbEntity
  8
LC-004-003-----0
 62
     2
370
    -2
100
AcDbLine
 10
188.414856
 20
264.708807
 30
0.0
 11
271.346348
 21
264.708807
 31
0.0
  0
LINE
  5
E1
330
DE
100
AcDbEntity
  8
LC-004-003-----0
 62
     2
370
    -2
100
AcDbLine
 10
267.746348
 20
341.958807
 30
0.0
 11
267.746348
 21
369.958807
 31
0.0
  0
LINE
  5
E2
330
DE
100
AcDbEntity
  8
LC-004-003-----0
 62
     2
370
    -2
100
AcDbLine
 10
267.746348
 20
236.708807
 30
0.0
 11
267.746348
 21
208.708807
 31
0.0
  0
LINE
  5
E3
330
DE
100
AcDbEntity
  8
LC-004-003-----0
 62
     2
370
    -2
100
AcDbLine
 10
267.746348
 20
313.958807
 30
0.0
 11
267.746348
 21
264.708807
 31
0.0
  0
SOLID
  5
E4
330
DE
100
AcDbEntity
  8
LC-004-003-----0
 62
     2
100
AcDbTrace
 10
263.079681
 20
341.958807
 30
0.0
 11
272.413014
 21
341.958807
 31
0.0
 12
267.746348
 22
313.958807
 32
0.0
 13
267.746348
 23
313.958807
 33
0.0
  0
SOLID
  5
E5
330
DE
100
AcDbEntity
  8
LC-004-003-----0
 62
     2
100
AcDbTrace
 10
272.413014
 20
236.708807
 30
0.0
 11
263.079681
 21
236.708807
 31
0.0
 12
267.746348
 22
264.708807
 32
0.0
 13
267.746348
 23
264.708807
 33
0.0
  0
MTEXT
  5
E6
330
DE
100
AcDbEntity
  8
LC-004-003-----0
 62
     2
100
AcDbMText
 10
236.946348
 20
281.874
 30
0.0
 40
28.0
 41
0.0
 71
     5
 72
     1
  1
\A1;50
  7
LCTX15-400-0-0pDIN-Schrift
 11
6.123031769111886E-17
 21
1.0
 31
0.0
 73
     1
 44
1.0
  0
POINT
  5
E7
330
DE
100
AcDbEntity
  8
Defpoints
 62
     0
100
AcDbPoint
 10
176.708541
 20
313.958807
 30
0.0
  0
POINT
  5
E8
330
DE
100
AcDbEntity
  8
Defpoints
 62
     0
100
AcDbPoint
 10
188.414856
 20
264.708807
 30
0.0
  0
POINT
  5
E9
330
DE
100
AcDbEntity
  8
Defpoints
 62
     0
100
AcDbPoint
 10
267.746348
 20
264.708807
 30
0.0
  0
ENDBLK
  5
EB
330
DE
100
AcDbEntity
  8
0
100
AcDbBlockEnd
  0
BLOCK
  5
F8
330
ED
100
AcDbEntity
  8
0
100
AcDbBlockBegin
  2
*D3
 70
     1
 71
     0
 10
0.0
 20
0.0
 30
0.0
  3
*D3
  1

  0
LINE
  5
EE
330
ED
100
AcDbEntity
  8
LC-004-003-----0
 62
     2
370
    -2
100
AcDbLine
 10
138.708541
 20
326.708807
 30
0.0
 11
138.708541
 21
202.836
 31
0.0
  0
LINE
  5
EF
330
ED
100
AcDbEntity
  8
LC-004-003-----0
 62
     2
370
    -2
100
AcDbLine
 10
176.698999
 20
313.949449
 30
0.0
 11
176.698999
 21
202.836
 31
0.0
  0
LINE
  5
F0
330
ED
100
AcDbEntity
  8
LC-004-003-----0
 62
     2
370
    -2
100
AcDbLine
 10
204.698999
 20
206.436
 30
0.0
 11
232.698999
 21
206.436
 31
0.0
  0
LINE
  5
F1
330
ED
100
AcDbEntity
  8
LC-004-003-----0
 62
     2
370
    -2
100
AcDbLine
 10
110.708541
 20
206.436
 30
0.0
 11
113.44729
 21
206.436
 31
0.0
  0
SOLID
  5
F2
330
ED
100
AcDbEntity
  8
LC-004-003-----0
 62
     2
100
AcDbTrace
 10
110.708541
 20
201.769333
 30
0.0
 11
110.708541
 21
211.102667
 31
0.0
 12
138.708541
 22
206.436
 32
0.0
 13
138.708541
 23
206.436
 33
0.0
  0
SOLID
  5
F3
330
ED
100
AcDbEntity
  8
LC-004-003-----0
 62
     2
100
AcDbTrace
 10
204.698999
 20
211.102667
 30
0.0
 11
204.698999
 21
201.769333
 31
0.0
 12
176.698999
 22
206.436
 32
0.0
 13
176.698999
 23
206.436
 33
0.0
  0
MTEXT
  5
F4
330
ED
100
AcDbEntity
  8
LC-004-003-----0
 62
     2
100
AcDbMText
 10
136.548149
 20
237.236
 30
0.0
 40
28.0
 41
0.0
 71
     5
 72
     1
  1
\A1;38
  7
LCTX15-400-0-0pDIN-Schrift
 73
     1
 44
1.0
  0
POINT
  5
F5
330
ED
100
AcDbEntity
  8
Defpoints
 62
     0
100
AcDbPoint
 10
138.708541
 20
326.708807
 30
0.0
  0
POINT
  5
F6
330
ED
100
AcDbEntity
  8
Defpoints
 62
     0
100
AcDbPoint
 10
176.698999
 20
313.949449
 30
0.0
  0
POINT
  5
F7
330
ED
100
AcDbEntity
  8
Defpoints
 62
     0
100
AcDbPoint
 10
176.698999
 20
206.436
 30
0.0
  0
ENDBLK
  5
F9
330
ED
100
AcDbEntity
  8
0
100
AcDbBlockEnd
  0
ENDSEC
  0
SECTION
  2
ENTITIES
  0
LINE
  5
33
102
{ACAD_REACTORS
330
FA
102
}
330
1F
100
AcDbEntity
  8
LC-001-002-----0
 62
     7
370
    50
100
AcDbLine
 10
137.708541
 20
324.458807
 30
0.0
 11
138.708541
 21
324.458807
 31
0.0
  0
LINE
  5
34
102
{ACAD_REACTORS
330
FA
102
}
330
1F
100
AcDbEntity
  8
LC-001-002-----0
 62
     7
370
    50
100
AcDbLine
 10
138.708541
 20
324.458807
 30
0.0
 11
138.708541
 21
303.458807
 31
0.0
  0
LINE
  5
35
102
{ACAD_REACTORS
330
FA
102
}
330
1F
100
AcDbEntity
  8
LC-001-002-----0
 62
     7
370
    50
100
AcDbLine
 10
138.708541
 20
303.458807
 30
0.0
 11
137.708541
 21
303.458807
 31
0.0
  0
LINE
  5
36
102
{ACAD_REACTORS
330
FA
102
}
330
1F
100
AcDbEntity
  8
LC-001-002-----0
 62
     7
370
    50
100
AcDbLine
 10
138.708541
 20
326.708807
 30
0.0
 11
138.708541
 21
324.458807
 31
0.0
  0
LINE
  5
37
102
{ACAD_REACTORS
330
FA
102
}
330
1F
100
AcDbEntity
  8
LC-001-002-----0
 62
     7
370
    50
100
AcDbLine
 10
138.708541
 20
303.458807
 30
0.0
 11
138.708541
 21
301.208807
 31
0.0
  0
LINE
  5
38
102
{ACAD_REACTORS
330
FA
102
}
330
1F
100
AcDbEntity
  8
LC-001-002-----0
 62
     7
370
    50
100
AcDbLine
 10
163.708541
 20
297.208807
 30
0.0
 11
189.708541
 21
297.208807
 31
0.0
  0
LINE
  5
39
102
{ACAD_REACTORS
330
FA
102
}
330
1F
100
AcDbEntity
  8
LC-001-002-----0
 62
     7
370
    50
100
AcDbLine
 10
192.208541
 20
280.208807
 30
0.0
 11
161.208541
 21
280.208807
 31
0.0
  0
LINE
  5
3A
102
{ACAD_REACTORS
330
FA
102
}
330
1F
100
AcDbEntity
  8
LC-001-002-----0
 62
     7
370
    50
100
AcDbLine
 10
161.208541
 20
280.208807
 30
0.0
 11
161.208541
 21
294.708807
 31
0.0
  0
LINE
  5
3B
102
{ACAD_REACTORS
330
FA
102
}
330
1F
100
AcDbEntity
  8
LC-001-002-----0
 62
     7
370
    50
100
AcDbLine
 10
192.208541
 20
294.708807
 30
0.0
 11
192.208541
 21
280.208807
 31
0.0
  0
LINE
  5
3C
102
{ACAD_REACTORS
330
FA
102
}
330
1F
100
AcDbEntity
  8
LC-001-002-----0
 62
     7
370
    50
100
AcDbLine
 10
163.708541
 20
297.208807
 30
0.0
 11
161.208541
 21
294.708807
 31
0.0
  0
LINE
  5
3D
102
{ACAD_REACTORS
330
FA
102
}
330
1F
100
AcDbEntity
  8
LC-001-002-----0
 62
     7
370
    50
100
AcDbLine
 10
189.708541
 20
297.208807
 30
0.0
 11
192.208541
 21
294.708807
 31
0.0
  0
LINE
  5
3E
102
{ACAD_REACTORS
330
FA
102
}
330
1F
100
AcDbEntity
  8
LC-001-002-----0
 62
     7
370
    50
100
AcDbLine
 10
161.208541
 20
294.708807
 30
0.0
 11
192.208541
 21
294.708807
 31
0.0
  0
LINE
  5
3F
102
{ACAD_REACTORS
330
FA
102
}
330
1F
100
AcDbEntity
  8
LC-001-002-----0
 62
     7
370
    50
100
AcDbLine
 10
188.958541
 20
280.208807
 30
0.0
 11
188.958541
 21
277.708807
 31
0.0
  0
LINE
  5
40
102
{ACAD_REACTORS
330
FA
102
}
330
1F
100
AcDbEntity
  8
LC-001-002-----0
 62
     7
370
    50
100
AcDbLine
 10
188.958541
 20
277.708807
 30
0.0
 11
164.458541
 21
277.708807
 31
0.0
  0
LINE
  5
41
102
{ACAD_REACTORS
330
FA
102
}
330
1F
100
AcDbEntity
  8
LC-001-002-----0
 62
     7
370
    50
100
AcDbLine
 10
164.458541
 20
277.708807
 30
0.0
 11
164.458541
 21
280.208807
 31
0.0
  0
LINE
  5
42
102
{ACAD_REACTORS
330
FA
102
}
330
1F
100
AcDbEntity
  8
LC-001-002-----0
 62
     7
370
    50
100
AcDbLine
 10
190.208541
 20
277.708807
 30
0.0
 11
190.208541
 21
272.708807
 31
0.0
  0
LINE
  5
43
102
{ACAD_REACTORS
330
FA
102
}
330
1F
100
AcDbEntity
  8
LC-001-002-----0
 62
     7
370
    50
100
AcDbLine
 10
190.208541
 20
272.708807
 30
0.0
 11
163.208541
 21
272.708807
 31
0.0
  0
LINE
  5
44
102
{ACAD_REACTORS
330
FA
102
}
330
1F
100
AcDbEntity
  8
LC-001-002-----0
 62
     7
370
    50
100
AcDbLine
 10
163.208541
 20
272.708807
 30
0.0
 11
163.208541
 21
277.708807
 31
0.0
  0
LINE
  5
45
102
{ACAD_REACTORS
330
FA
102
}
330
1F
100
AcDbEntity
  8
LC-001-002-----0
 62
     7
370
    50
100
AcDbLine
 10
163.208541
 20
277.708807
 30
0.0
 11
164.458541
 21
277.708807
 31
0.0
  0
LINE
  5
46
102
{ACAD_REACTORS
330
FA
102
}
330
1F
100
AcDbEntity
  8
LC-001-002-----0
 62
     7
370
    50
100
AcDbLine
 10
188.958541
 20
277.708807
 30
0.0
 11
190.208541
 21
277.708807
 31
0.0
  0
ARC
  5
47
102
{ACAD_REACTORS
330
FA
102
}
330
1F
100
AcDbEntity
  8
LC-001-002-----0
 62
     7
370
    50
100
AcDbCircle
 10
165.381148
 20
275.208807
 30
0.0
 40
0.4999999999996548
100
AcDbArc
 50
136.08159
 51
223.918258
  0
ARC
  5
48
102
{ACAD_REACTORS
330
FA
102
}
330
1F
100
AcDbEntity
  8
LC-001-002-----0
 62
     7
370
    50
100
AcDbCircle
 10
170.083541
 20
270.680682
 30
0.0
 40
7.028125000000284
100
AcDbArc
 50
43.91841
 51
136.081571
  0
ARC
  5
49
102
{ACAD_REACTORS
330
FA
102
}
330
1F
100
AcDbEntity
  8
LC-001-002-----0
 62
     7
370
    50
100
AcDbCircle
 10
174.785934
 20
275.208807
 30
0.0
 40
0.4999999999998026
100
AcDbArc
 50
316.081648
 51
43.91841
  0
ARC
  5
4A
102
{ACAD_REACTORS
330
FA
102
}
330
1F
100
AcDbEntity
  8
LC-001-002-----0
 62
     7
370
    50
100
AcDbCircle
 10
170.083541
 20
279.736932
 30
0.0
 40
7.028125000000588
100
AcDbArc
 50
223.918258
 51
316.08159
  0
ARC
  5
4B
102
{ACAD_REACTORS
330
FA
102
}
330
1F
100
AcDbEntity
  8
LC-001-002-----0
 62
     7
370
    50
100
AcDbCircle
 10
178.631148
 20
275.208807
 30
0.0
 40
0.5000000000011803
100
AcDbArc
 50
136.08159
 51
223.918258
  0
ARC
  5
4C
102
{ACAD_REACTORS
330
FA
102
}
330
1F
100
AcDbEntity
  8
LC-001-002-----0
 62
     7
370
    50
100
AcDbCircle
 10
183.333541
 20
270.680682
 30
0.0
 40
7.028125000000266
100
AcDbArc
 50
43.91841
 51
136.081571
  0
ARC
  5
4D
102
{ACAD_REACTORS
330
FA
102
}
330
1F
100
AcDbEntity
  8
LC-001-002-----0
 62
     7
370
    50
100
AcDbCircle
 10
188.035934
 20
275.208807
 30
0.0
 40
0.5000000000018893
100
AcDbArc
 50
316.081648
 51
43.91841
  0
ARC
  5
4E
102
{ACAD_REACTORS
330
FA
102
}
330
1F
100
AcDbEntity
  8
LC-001-002-----0
 62
     7
370
    50
100
AcDbCircle
 10
183.333541
 20
279.736932
 30
0.0
 40
7.02812500000064
100
AcDbArc
 50
223.918258
 51
316.08159
  0
ARC
  5
4F
102
{ACAD_REACTORS
330
FA
102
}
330
1F
100
AcDbEntity
  8
LC-001-002-----0
 62
     7
370
    50
100
AcDbCircle
 10
161.875207
 20
275.208807
 30
0.0
 40
2.833333333333384
100
AcDbArc
 50
298.072604
 51
61.927571
  0
ARC
  5
50
102
{ACAD_REACTORS
330
FA
102
}
330
1F
100
AcDbEntity
  8
LC-001-002-----0
 62
     7
370
    50
100
AcDbCircle
 10
191.541874
 20
275.208807
 30
0.0
 40
2.833333333333662
100
AcDbArc
 50
118.072449
 51
241.92719
  0
LINE
  5
51
102
{ACAD_REACTORS
330
FA
102
}
330
1F
100
AcDbEntity
  8
LC-001-002-----0
 62
     7
370
    50
100
AcDbLine
 10
189.208541
 20
272.708807
 30
0.0
 11
189.208541
 21
265.502492
 31
0.0
  0
LINE
  5
52
102
{ACAD_REACTORS
330
FA
102
}
330
1F
100
AcDbEntity
  8
LC-001-002-----0
 62
     7
370
    50
100
AcDbLine
 10
164.208541
 20
270.208807
 30
0.0
 11
164.208541
 21
272.708807
 31
0.0
  0
LINE
  5
53
102
{ACAD_REACTORS
330
FA
102
}
330
1F
100
AcDbEntity
  8
LC-001-002-----0
 62
     7
370
    50
100
AcDbLine
 10
174.958541
 20
342.958807
 30
0.0
 11
192.989763
 21
324.927584
 31
0.0
  0
LINE
  5
54
102
{ACAD_REACTORS
330
FA
102
}
330
1F
100
AcDbEntity
  8
LC-001-002-----0
 62
     7
370
    25
100
AcDbLine
 10
163.708541
 20
301.208807
 30
0.0
 11
176.708541
 21
313.958807
 31
0.0
  0
LINE
  5
55
102
{ACAD_REACTORS
330
FA
102
}
330
1F
100
AcDbEntity
  8
LC-001-002-----0
 62
     7
370
    25
100
AcDbLine
 10
158.708541
 20
326.708807
 30
0.0
 11
158.708541
 21
313.958807
 31
0.0
  0
LINE
  5
56
102
{ACAD_REACTORS
330
FA
102
}
330
1F
100
AcDbEntity
  8
LC-001-002-----0
 62
     7
370
    50
100
AcDbLine
 10
156.637473
 20
326.708807
 30
0.0
 11
138.708541
 21
326.708807
 31
0.0
  0
ARC
  5
57
102
{ACAD_REACTORS
330
FA
102
}
330
1F
100
AcDbEntity
  8
LC-001-002-----0
 62
     7
370
    50
100
AcDbCircle
 10
156.637473
 20
331.708807
 30
0.0
 40
5.0
100
AcDbArc
 50
270.0
 51
315.000058
  0
LINE
  5
58
102
{ACAD_REACTORS
330
FA
102
}
330
1F
100
AcDbEntity
  8
LC-001-002-----0
 62
     7
370
    50
100
AcDbLine
 10
160.173007
 20
328.173273
 30
0.0
 11
174.958541
 21
342.958807
 31
0.0
  0
LINE
  5
59
102
{ACAD_REACTORS
330
FA
102
}
330
1F
100
AcDbEntity
  8
LC-001-002-----0
 62
     7
370
    50
100
AcDbLine
 10
192.989763
 20
324.927584
 30
0.0
 11
191.173007
 21
323.110828
 31
0.0
  0
ARC
  5
5A
102
{ACAD_REACTORS
330
FA
102
}
330
1F
100
AcDbEntity
  8
LC-001-002-----0
 62
     7
370
    50
100
AcDbCircle
 10
194.708541
 20
319.575294
 30
0.0
 40
5.000000000000201
100
AcDbArc
 50
135.0
 51
179.999848
  0
LINE
  5
5B
102
{ACAD_REACTORS
330
FA
102
}
330
1F
100
AcDbEntity
  8
LC-001-002-----0
 62
     7
370
    50
100
AcDbLine
 10
189.708541
 20
297.208807
 30
0.0
 11
189.708541
 21
319.575294
 31
0.0
  0
LINE
  5
5C
102
{ACAD_REACTORS
330
FA
102
}
330
1F
100
AcDbEntity
  8
LC-001-002-----0
 62
     7
370
    50
100
AcDbLine
 10
138.708541
 20
301.208807
 30
0.0
 11
162.208541
 21
301.208807
 31
0.0
  0
ARC
  5
5D
102
{ACAD_REACTORS
330
FA
102
}
330
1F
100
AcDbEntity
  8
LC-001-002-----0
 62
     7
370
    50
100
AcDbCircle
 10
162.208541
 20
299.708807
 30
0.0
 40
1.5
100
AcDbArc
 50
0.0
 51
90.0
  0
LINE
  5
5E
102
{ACAD_REACTORS
330
FA
102
}
330
1F
100
AcDbEntity
  8
LC-001-002-----0
 62
     7
370
    50
100
AcDbLine
 10
163.708541
 20
299.708807
 30
0.0
 11
163.708541
 21
297.208807
 31
0.0
  0
LINE
  5
5F
102
{ACAD_REACTORS
330
FA
102
}
330
1F
100
AcDbEntity
  8
LC-001-002-----0
 62
     7
370
    50
100
AcDbLine
 10
173.36755
 20
344.549798
 30
0.0
 11
174.958541
 21
342.958807
 31
0.0
  0
LINE
  5
60
102
{ACAD_REACTORS
330
FA
102
}
330
1F
100
AcDbEntity
  8
LC-001-002-----0
 62
     7
370
    50
100
AcDbLine
 10
194.580754
 20
323.336594
 30
0.0
 11
192.989763
 21
324.927584
 31
0.0
  0
LINE
  5
61
102
{ACAD_REACTORS
330
FA
102
}
330
1F
100
AcDbEntity
  8
LC-001-002-----0
 62
     7
370
    50
100
AcDbLine
 10
187.509686
 20
358.691933
 30
0.0
 11
208.722889
 21
337.47873
 31
0.0
  0
LINE
  5
62
102
{ACAD_REACTORS
330
FA
102
}
330
1F
100
AcDbEntity
  8
LC-001-002-----0
 62
     7
370
    50
100
AcDbLine
 10
208.722889
 20
337.47873
 30
0.0
 11
194.580754
 21
323.336594
 31
0.0
  0
LINE
  5
63
102
{ACAD_REACTORS
330
FA
102
}
330
1F
100
AcDbEntity
  8
LC-001-002-----0
 62
     7
370
    50
100
AcDbLine
 10
187.509686
 20
358.691933
 30
0.0
 11
173.36755
 21
344.549798
 31
0.0
  0
LINE
  5
64
102
{ACAD_REACTORS
330
FA
102
}
330
1F
100
AcDbEntity
  8
LC-001-002-----0
 62
     7
370
    50
100
AcDbLine
 10
196.702074
 20
367.884321
 30
0.0
 11
217.915277
 21
346.671118
 31
0.0
  0
LINE
  5
65
102
{ACAD_REACTORS
330
FA
102
}
330
1F
100
AcDbEntity
  8
LC-001-002-----0
 62
     7
370
    50
100
AcDbLine
 10
217.915277
 20
342.428477
 30
0.0
 11
212.96553
 21
337.47873
 31
0.0
  0
LINE
  5
66
102
{ACAD_REACTORS
330
FA
102
}
330
1F
100
AcDbEntity
  8
LC-001-002-----0
 62
     7
370
    50
100
AcDbLine
 10
192.459433
 20
367.884321
 30
0.0
 11
187.509686
 21
362.934574
 31
0.0
  0
ARC
  5
68
102
{ACAD_REACTORS
330
FA
102
}
330
1F
100
AcDbEntity
  8
LC-002-002-RND-0
 62
     7
370
    50
100
AcDbCircle
 10
194.580754
 20
365.763001
 30
0.0
 40
3.000000000000185
100
AcDbArc
 50
45.0
 51
135.0
  0
ARC
  5
69
102
{ACAD_REACTORS
330
FA
102
}
330
1F
100
AcDbEntity
  8
LC-002-002-RND-0
 62
     7
370
    50
100
AcDbCircle
 10
189.631006
 20
360.813254
 30
0.0
 40
3.000000000000024
100
AcDbArc
 50
135.0
 51
225.0
  0
ARC
  5
6A
102
{ACAD_REACTORS
330
FA
102
}
330
1F
100
AcDbEntity
  8
LC-002-002-RND-0
 62
     7
370
    50
100
AcDbCircle
 10
210.84421
 20
339.60005
 30
0.0
 40
2.999999999999944
100
AcDbArc
 50
225.0
 51
315.0
  0
ARC
  5
6B
102
{ACAD_REACTORS
330
FA
102
}
330
1F
100
AcDbEntity
  8
LC-002-002-RND-0
 62
     7
370
    50
100
AcDbCircle
 10
215.793957
 20
344.549798
 30
0.0
 40
2.999999999999864
100
AcDbArc
 50
315.0
 51
45.0
  0
LINE
  5
6C
102
{ACAD_REACTORS
330
FA
102
}
330
1F
100
AcDbEntity
  8
LC-001-002-----0
 62
     7
370
    50
100
AcDbLine
 10
209.783549
 20
350.560205
 30
0.0
 11
204.833802
 21
345.610458
 31
0.0
  0
LINE
  5
6D
102
{ACAD_REACTORS
330
FA
102
}
330
1F
100
AcDbEntity
  8
LC-001-002-----0
 62
     7
370
    50
100
AcDbLine
 10
200.591161
 20
359.752593
 30
0.0
 11
195.641414
 21
354.802846
 31
0.0
  0
LINE
  5
6E
102
{ACAD_REACTORS
330
FA
102
}
330
1F
100
AcDbEntity
  8
LC-001-002-----0
 62
     7
370
    50
100
AcDbLine
 10
187.509686
 20
362.934574
 30
0.0
 11
195.641414
 21
354.802846
 31
0.0
  0
ARC
  5
6F
102
{ACAD_REACTORS
330
FA
102
}
330
1F
100
AcDbEntity
  8
LC-001-002-----0
 62
     7
370
    50
100
AcDbCircle
 10
204.156158
 20
354.125202
 30
0.0
 40
8.541666666666568
100
AcDbArc
 50
175.449719
 51
274.550281
  0
LINE
  5
70
102
{ACAD_REACTORS
330
FA
102
}
330
1F
100
AcDbEntity
  8
LC-001-002-----0
 62
     7
370
    50
100
AcDbLine
 10
188.414856
 20
264.708807
 30
0.0
 11
165.002225
 21
264.708807
 31
0.0
  0
LINE
  5
71
102
{ACAD_REACTORS
330
FA
102
}
330
1F
100
AcDbEntity
  8
LC-001-002-----0
 62
     7
370
    25
100
AcDbLine
 10
189.208541
 20
272.708807
 30
0.0
 11
164.208541
 21
270.521591
 31
0.0
  0
LINE
  5
72
102
{ACAD_REACTORS
330
FA
102
}
330
1F
100
AcDbEntity
  8
LC-001-002-----0
 62
     7
370
    25
100
AcDbLine
 10
189.208541
 20
271.704988
 30
0.0
 11
164.208541
 21
269.517771
 31
0.0
  0
LINE
  5
73
102
{ACAD_REACTORS
330
FA
102
}
330
1F
100
AcDbEntity
  8
LC-001-002-----0
 62
     7
370
    25
100
AcDbLine
 10
189.208541
 20
270.701168
 30
0.0
 11
164.208541
 21
268.513951
 31
0.0
  0
LINE
  5
74
102
{ACAD_REACTORS
330
FA
102
}
330
1F
100
AcDbEntity
  8
LC-001-002-----0
 62
     7
370
    25
100
AcDbLine
 10
189.208541
 20
269.697348
 30
0.0
 11
164.208541
 21
267.510131
 31
0.0
  0
LINE
  5
75
102
{ACAD_REACTORS
330
FA
102
}
330
1F
100
AcDbEntity
  8
LC-001-002-----0
 62
     7
370
    25
100
AcDbLine
 10
189.208541
 20
268.693528
 30
0.0
 11
164.208541
 21
266.506311
 31
0.0
  0
LINE
  5
76
102
{ACAD_REACTORS
330
FA
102
}
330
1F
100
AcDbEntity
  8
LC-001-002-----0
 62
     7
370
    25
100
AcDbLine
 10
189.208541
 20
267.689708
 30
0.0
 11
164.208541
 21
265.502492
 31
0.0
  0
LINE
  5
77
102
{ACAD_REACTORS
330
FA
102
}
330
1F
100
AcDbEntity
  8
LC-001-002-----0
 62
     7
370
    25
100
AcDbLine
 10
189.208541
 20
266.685888
 30
0.0
 11
166.610402
 21
264.708807
 31
0.0
  0
LINE
  5
78
102
{ACAD_REACTORS
330
FA
102
}
330
1F
100
AcDbEntity
  8
LC-001-002-----0
 62
     7
370
    25
100
AcDbLine
 10
176.708541
 20
272.619019
 30
0.0
 11
164.208541
 21
271.525411
 31
0.0
  0
LINE
  5
79
102
{ACAD_REACTORS
330
FA
102
}
330
1F
100
AcDbEntity
  8
LC-001-002-----0
 62
     7
370
    50
100
AcDbLine
 10
164.208541
 20
265.502492
 30
0.0
 11
165.002225
 21
264.708807
 31
0.0
  0
LINE
  5
7A
102
{ACAD_REACTORS
330
FA
102
}
330
1F
100
AcDbEntity
  8
LC-001-002-----0
 62
     7
370
    50
100
AcDbLine
 10
189.208541
 20
265.502492
 30
0.0
 11
188.414856
 21
264.708807
 31
0.0
  0
LINE
  5
7B
102
{ACAD_REACTORS
330
FA
102
}
330
1F
100
AcDbEntity
  8
LC-001-002-----0
 62
     7
370
    50
100
AcDbLine
 10
164.208541
 20
265.502492
 30
0.0
 11
164.208541
 21
270.208807
 31
0.0
  0
LINE
  5
7C
102
{ACAD_REACTORS
330
FA
102
}
330
1F
100
AcDbEntity
  8
LC-001-002-----0
 62
     7
370
    50
100
AcDbLine
 10
204.833802
 20
345.610458
 30
0.0
 11
212.96553
 21
337.47873
 31
0.0
  0
ARC
  5
7D
102
{ACAD_REACTORS
330
FA
102
}
330
1F
100
AcDbEntity
  8
LC-001-002-----0
 62
     7
370
    50
100
AcDbCircle
 10
201.268805
 20
351.237849
 30
0.0
 40
8.541666666666586
100
AcDbArc
 50
355.449719
 51
94.550281
  0
LINE
  5
7E
102
{ACAD_REACTORS
330
FA
102
}
330
1F
100
AcDbEntity
  8
LC-001-002-----0
 62
     7
370
    50
100
AcDbLine
 10
192.459433
 20
367.884321
 30
0.0
 11
200.591161
 21
359.752593
 31
0.0
  0
LINE
  5
7F
102
{ACAD_REACTORS
330
FA
102
}
330
1F
100
AcDbEntity
  8
LC-001-002-----0
 62
     7
370
    50
100
AcDbLine
 10
209.783549
 20
350.560205
 30
0.0
 11
217.915277
 21
342.428477
 31
0.0
  0
LINE
  5
80
102
{ACAD_REACTORS
330
FA
102
}
330
1F
100
AcDbEntity
  8
LC-001-002-----0
 62
     7
370
    50
100
AcDbLine
 10
202.712482
 20
370.359195
 30
0.0
 11
220.390151
 21
352.681526
 31
0.0
  0
LINE
  5
81
102
{ACAD_REACTORS
330
FA
102
}
330
1F
100
AcDbEntity
  8
LC-001-002-----0
 62
     7
370
    50
100
AcDbLine
 10
220.390151
 20
349.145992
 30
0.0
 11
217.915277
 21
346.671118
 31
0.0
  0
LINE
  5
82
102
{ACAD_REACTORS
330
FA
102
}
330
1F
100
AcDbEntity
  8
LC-001-002-----0
 62
     7
370
    50
100
AcDbLine
 10
199.176948
 20
370.359195
 30
0.0
 11
196.702074
 21
367.884321
 31
0.0
  0
ARC
  5
83
102
{ACAD_REACTORS
330
FA
102
}
330
1F
100
AcDbEntity
  8
LC-002-002-RND-0
 62
     7
370
    50
100
AcDbCircle
 10
200.944715
 20
368.591428
 30
0.0
 40
2.50000000000002
100
AcDbArc
 50
45.0
 51
135.0
  0
ARC
  5
84
102
{ACAD_REACTORS
330
FA
102
}
330
1F
100
AcDbEntity
  8
LC-002-002-RND-0
 62
     7
370
    50
100
AcDbCircle
 10
218.622384
 20
350.913759
 30
0.0
 40
2.50000000000002
100
AcDbArc
 50
315.0
 51
45.0
  0
LINE
  5
85
102
{ACAD_REACTORS
330
FA
102
}
330
1F
100
AcDbEntity
  8
LC-001-002-----0
 62
     7
370
    50
100
AcDbLine
 10
127.676178
 20
324.4593
 30
0.0
 11
137.676178
 21
324.4593
 31
0.0
  0
LINE
  5
86
102
{ACAD_REACTORS
330
FA
102
}
330
1F
100
AcDbEntity
  8
LC-001-002-----0
 62
     7
370
    50
100
AcDbLine
 10
125.676178
 20
305.458807
 30
0.0
 11
125.676178
 21
322.4593
 31
0.0
  0
LINE
  5
87
102
{ACAD_REACTORS
330
FA
102
}
330
1F
100
AcDbEntity
  8
LC-001-002-----0
 62
     7
370
    50
100
AcDbLine
 10
137.708541
 20
303.458807
 30
0.0
 11
127.676178
 21
303.458807
 31
0.0
  0
LINE
  5
88
102
{ACAD_REACTORS
330
FA
102
}
330
1F
100
AcDbEntity
  8
LC-001-002-----0
 62
     7
370
    50
100
AcDbLine
 10
127.676178
 20
303.458807
 30
0.0
 11
125.676178
 21
305.458807
 31
0.0
  0
LINE
  5
89
102
{ACAD_REACTORS
330
FA
102
}
330
1F
100
AcDbEntity
  8
LC-001-002-----0
 62
     7
370
    50
100
AcDbLine
 10
125.676178
 20
322.4593
 30
0.0
 11
127.676178
 21
324.4593
 31
0.0
  0
LINE
  5
8A
102
{ACAD_REACTORS
330
FA
102
}
330
1F
100
AcDbEntity
  8
LC-001-002-----0
 62
     7
370
    50
100
AcDbLine
 10
127.676178
 20
303.458807
 30
0.0
 11
127.676178
 21
324.4593
 31
0.0
  0
LINE
  5
8B
102
{ACAD_REACTORS
330
FA
102
}
330
1F
100
AcDbEntity
  8
LC-001-002-----0
 62
     7
370
    25
100
AcDbLine
 10
126.676178
 20
323.4593
 30
0.0
 11
137.676178
 21
323.4593
 31
0.0
  0
LINE
  5
8C
102
{ACAD_REACTORS
330
FA
102
}
330
1F
100
AcDbEntity
  8
LC-001-002-----0
 62
     7
370
    25
100
AcDbLine
 10
137.708541
 20
304.458807
 30
0.0
 11
126.676178
 21
304.458807
 31
0.0
  0
LINE
  5
8F
102
{ACAD_REACTORS
330
FA
102
}
330
1F
100
AcDbEntity
  8
LC-003-006-MLN-0
 62
     7
370
    25
100
AcDbLine
 10
115.676178
 20
313.949449
 30
0.0
 11
186.698999
 21
313.949449
 31
0.0
  0
LINE
  5
90
102
{ACAD_REACTORS
330
FA
102
}
330
1F
100
AcDbEntity
  8
LC-003-006-MLN-0
 62
     7
370
    25
100
AcDbLine
 10
176.708541
 20
336.677584
 30
0.0
 11
176.708541
 21
254.708807
 31
0.0
  0
LINE
  5
91
102
{ACAD_REACTORS
330
FA
102
}
330
1F
100
AcDbEntity
  8
LC-003-006-MLN-0
 62
     7
370
    25
100
AcDbLine
 10
169.637473
 20
319.606517
 30
0.0
 11
218.622384
 21
368.591428
 31
0.0
  0
ELLIPSE
  5
92
330
1F
100
AcDbEntity
  8
LC-001-002-----0
 62
     7
370
    50
100
AcDbEllipse
 10
42.832296
 20
361.802675
 30
0.0
 11
14.82286161362226
 21
-3.496962400559173E-8
 31
0.0
210
0.0
220
0.0
230
1.0
 40
0.626958
 41
3.141592653589799
 42
6.28318530717958
  0
LINE
  5
93
330
1F
100
AcDbEntity
  8
LC-001-002-----0
 62
     7
370
    50
100
AcDbLine
 10
55.832296
 20
323.336594
 30
0.0
 11
57.832296
 21
323.336594
 31
0.0
  0
LINE
  5
94
330
1F
100
AcDbEntity
  8
LC-001-002-----0
 62
     7
370
    50
100
AcDbLine
 10
27.332296
 20
294.708807
 30
0.0
 11
58.332296
 21
294.708807
 31
0.0
  0
LINE
  5
95
330
1F
100
AcDbEntity
  8
LC-001-002-----0
 62
     7
370
    50
100
AcDbLine
 10
27.332296
 20
280.208807
 30
0.0
 11
27.332296
 21
294.708807
 31
0.0
  0
LINE
  5
96
330
1F
100
AcDbEntity
  8
LC-001-002-----0
 62
     7
370
    50
100
AcDbLine
 10
58.332296
 20
294.708807
 30
0.0
 11
58.332296
 21
280.208807
 31
0.0
  0
LINE
  5
97
330
1F
100
AcDbEntity
  8
LC-001-002-----0
 62
     7
370
    50
100
AcDbLine
 10
29.832296
 20
297.208807
 30
0.0
 11
27.332296
 21
294.708807
 31
0.0
  0
LINE
  5
98
330
1F
100
AcDbEntity
  8
LC-001-002-----0
 62
     7
370
    50
100
AcDbLine
 10
55.832296
 20
297.208807
 30
0.0
 11
58.332296
 21
294.708807
 31
0.0
  0
LINE
  5
99
330
1F
100
AcDbEntity
  8
LC-001-002-----0
 62
     7
370
    50
100
AcDbLine
 10
29.832296
 20
297.208807
 30
0.0
 11
55.832296
 21
297.208807
 31
0.0
  0
LINE
  5
9A
330
1F
100
AcDbEntity
  8
LC-001-002-----0
 62
     7
370
    50
100
AcDbLine
 10
55.082296
 20
280.208807
 30
0.0
 11
55.082296
 21
277.708807
 31
0.0
  0
LINE
  5
9B
330
1F
100
AcDbEntity
  8
LC-001-002-----0
 62
     7
370
    50
100
AcDbLine
 10
55.082296
 20
277.708807
 30
0.0
 11
30.582296
 21
277.708807
 31
0.0
  0
LINE
  5
9C
330
1F
100
AcDbEntity
  8
LC-001-002-----0
 62
     7
370
    50
100
AcDbLine
 10
30.582296
 20
277.708807
 30
0.0
 11
30.582296
 21
280.208807
 31
0.0
  0
LINE
  5
9D
330
1F
100
AcDbEntity
  8
LC-001-002-----0
 62
     7
370
    50
100
AcDbLine
 10
56.332296
 20
277.708807
 30
0.0
 11
56.332296
 21
272.708807
 31
0.0
  0
LINE
  5
9E
330
1F
100
AcDbEntity
  8
LC-001-002-----0
 62
     7
370
    50
100
AcDbLine
 10
56.332296
 20
272.708807
 30
0.0
 11
29.332296
 21
272.708807
 31
0.0
  0
LINE
  5
9F
330
1F
100
AcDbEntity
  8
LC-001-002-----0
 62
     7
370
    50
100
AcDbLine
 10
29.332296
 20
272.708807
 30
0.0
 11
29.332296
 21
277.708807
 31
0.0
  0
LINE
  5
A0
330
1F
100
AcDbEntity
  8
LC-001-002-----0
 62
     7
370
    50
100
AcDbLine
 10
29.332296
 20
277.708807
 30
0.0
 11
30.582296
 21
277.708807
 31
0.0
  0
LINE
  5
A1
330
1F
100
AcDbEntity
  8
LC-001-002-----0
 62
     7
370
    50
100
AcDbLine
 10
55.082296
 20
277.708807
 30
0.0
 11
56.332296
 21
277.708807
 31
0.0
  0
ARC
  5
A2
330
1F
100
AcDbEntity
  8
LC-001-002-----0
 62
     7
370
    50
100
AcDbCircle
 10
31.504903
 20
275.208807
 30
0.0
 40
0.4999999999997367
100
AcDbArc
 50
136.08159
 51
223.918258
  0
ARC
  5
A3
330
1F
100
AcDbEntity
  8
LC-001-002-----0
 62
     7
370
    50
100
AcDbCircle
 10
36.207296
 20
270.680682
 30
0.0
 40
7.028125000000126
100
AcDbArc
 50
43.91841
 51
136.081571
  0
ARC
  5
A4
330
1F
100
AcDbEntity
  8
LC-001-002-----0
 62
     7
370
    50
100
AcDbCircle
 10
40.909689
 20
275.208807
 30
0.0
 40
0.4999999999998026
100
AcDbArc
 50
316.081648
 51
43.91841
  0
ARC
  5
A5
330
1F
100
AcDbEntity
  8
LC-001-002-----0
 62
     7
370
    50
100
AcDbCircle
 10
36.207296
 20
279.736932
 30
0.0
 40
7.028125000000506
100
AcDbArc
 50
223.918258
 51
316.08159
  0
ARC
  5
A6
330
1F
100
AcDbEntity
  8
LC-001-002-----0
 62
     7
370
    50
100
AcDbCircle
 10
44.754903
 20
275.208807
 30
0.0
 40
0.5000000000010226
100
AcDbArc
 50
136.08159
 51
223.918258
  0
ARC
  5
A7
330
1F
100
AcDbEntity
  8
LC-001-002-----0
 62
     7
370
    50
100
AcDbCircle
 10
49.457296
 20
270.680682
 30
0.0
 40
7.028125000000109
100
AcDbArc
 50
43.91841
 51
136.081571
  0
ARC
  5
A8
330
1F
100
AcDbEntity
  8
LC-001-002-----0
 62
     7
370
    50
100
AcDbCircle
 10
54.159689
 20
275.208807
 30
0.0
 40
0.500000000002047
100
AcDbArc
 50
316.081648
 51
43.91841
  0
ARC
  5
A9
330
1F
100
AcDbEntity
  8
LC-001-002-----0
 62
     7
370
    50
100
AcDbCircle
 10
49.457296
 20
279.736932
 30
0.0
 40
7.028125000000482
100
AcDbArc
 50
223.918258
 51
316.08159
  0
ARC
  5
AA
330
1F
100
AcDbEntity
  8
LC-001-002-----0
 62
     7
370
    50
100
AcDbCircle
 10
27.998963
 20
275.208807
 30
0.0
 40
2.833333333333585
100
AcDbArc
 50
298.072604
 51
61.927571
  0
ARC
  5
AB
330
1F
100
AcDbEntity
  8
LC-001-002-----0
 62
     7
370
    50
100
AcDbCircle
 10
57.665629
 20
275.208807
 30
0.0
 40
2.833333333333461
100
AcDbArc
 50
118.072449
 51
241.92719
  0
LINE
  5
AC
330
1F
100
AcDbEntity
  8
LC-001-002-----0
 62
     7
370
    50
100
AcDbLine
 10
55.832296
 20
297.208807
 30
0.0
 11
55.832296
 21
323.336594
 31
0.0
  0
LINE
  5
AD
330
1F
100
AcDbEntity
  8
LC-001-002-----0
 62
     7
370
    50
100
AcDbLine
 10
29.832296
 20
323.336594
 30
0.0
 11
29.832296
 21
297.208807
 31
0.0
  0
LINE
  5
AE
330
1F
100
AcDbEntity
  8
LC-001-002-----0
 62
     7
370
    50
100
AcDbLine
 10
30.332296
 20
265.502492
 30
0.0
 11
30.332296
 21
272.708807
 31
0.0
  0
LINE
  5
AF
330
1F
100
AcDbEntity
  8
LC-001-002-----0
 62
     7
370
    50
100
AcDbLine
 10
55.332296
 20
272.708807
 30
0.0
 11
55.332296
 21
265.502492
 31
0.0
  0
ELLIPSE
  5
B0
330
1F
100
AcDbEntity
  8
LC-001-002-----0
 62
     7
370
    50
100
AcDbEllipse
 10
42.832296
 20
352.68005
 30
0.0
 11
17.99999999992792
 21
0.0
 31
0.0
210
0.0
220
0.0
230
1.0
 40
0.893333
 41
2.538335851059483
 42
4.342929850482311
  0
ELLIPSE
  5
B1
330
1F
100
AcDbEntity
  8
LC-001-002-----0
 62
     7
370
    50
100
AcDbEllipse
 10
42.832296
 20
352.68005
 30
0.0
 11
17.99999999996228
 21
0.0
 31
0.0
210
0.0
220
0.0
230
1.0
 40
0.893333
 41
5.081848110287477
 42
6.886442109048304
  0
ARC
  5
B2
330
1F
100
AcDbEntity
  8
LC-001-002-----0
 62
     7
370
    50
100
AcDbCircle
 10
42.926894
 20
357.713558
 30
0.0
 40
15.2853730833067
100
AcDbArc
 50
166.858635
 51
15.516647
  0
LINE
  5
B3
330
1F
100
AcDbEntity
  8
LC-001-002-----0
 62
     7
370
    50
100
AcDbLine
 10
57.832296
 20
343.791496
 30
0.0
 11
57.832296
 21
323.336594
 31
0.0
  0
LINE
  5
B4
330
1F
100
AcDbEntity
  8
LC-001-002-----0
 62
     7
370
    50
100
AcDbLine
 10
27.832296
 20
343.791496
 30
0.0
 11
27.832296
 21
323.336594
 31
0.0
  0
LINE
  5
B5
330
1F
100
AcDbEntity
  8
LC-001-002-----0
 62
     7
370
    50
100
AcDbLine
 10
54.538612
 20
264.708807
 30
0.0
 11
31.12598
 21
264.708807
 31
0.0
  0
ARC
  5
B6
330
1F
100
AcDbEntity
  8
LC-001-002-----0
 62
     7
370
    50
100
AcDbCircle
 10
42.832296
 20
315.760117
 30
0.0
 40
22.86819126079627
100
AcDbArc
 50
73.486718
 51
106.513282
  0
LINE
  5
B7
330
1F
100
AcDbEntity
  8
LC-001-002-----0
 62
     7
370
    25
100
AcDbLine
 10
55.332296
 20
272.708807
 30
0.0
 11
30.332296
 21
270.521591
 31
0.0
  0
LINE
  5
B8
330
1F
100
AcDbEntity
  8
LC-001-002-----0
 62
     7
370
    25
100
AcDbLine
 10
55.332296
 20
265.682068
 30
0.0
 11
44.20787
 21
264.708807
 31
0.0
  0
LINE
  5
B9
330
1F
100
AcDbEntity
  8
LC-001-002-----0
 62
     7
370
    25
100
AcDbLine
 10
55.332296
 20
266.685888
 30
0.0
 11
32.734157
 21
264.708807
 31
0.0
  0
LINE
  5
BA
330
1F
100
AcDbEntity
  8
LC-001-002-----0
 62
     7
370
    25
100
AcDbLine
 10
42.832296
 20
272.619019
 30
0.0
 11
30.332296
 21
271.525411
 31
0.0
  0
LINE
  5
BB
330
1F
100
AcDbEntity
  8
LC-001-002-----0
 62
     7
370
    25
100
AcDbLine
 10
55.332296
 20
271.704988
 30
0.0
 11
30.332296
 21
269.517771
 31
0.0
  0
LINE
  5
BC
330
1F
100
AcDbEntity
  8
LC-001-002-----0
 62
     7
370
    25
100
AcDbLine
 10
55.332296
 20
270.701168
 30
0.0
 11
30.332296
 21
268.513951
 31
0.0
  0
LINE
  5
BD
330
1F
100
AcDbEntity
  8
LC-001-002-----0
 62
     7
370
    25
100
AcDbLine
 10
55.332296
 20
269.697348
 30
0.0
 11
30.332296
 21
267.510131
 31
0.0
  0
LINE
  5
BE
330
1F
100
AcDbEntity
  8
LC-001-002-----0
 62
     7
370
    25
100
AcDbLine
 10
55.332296
 20
268.693528
 30
0.0
 11
30.332296
 21
266.506311
 31
0.0
  0
LINE
  5
BF
330
1F
100
AcDbEntity
  8
LC-001-002-----0
 62
     7
370
    25
100
AcDbLine
 10
55.332296
 20
267.689708
 30
0.0
 11
30.332296
 21
265.502492
 31
0.0
  0
LINE
  5
C0
330
1F
100
AcDbEntity
  8
LC-001-002-----0
 62
     7
370
    50
100
AcDbLine
 10
30.332296
 20
265.502492
 30
0.0
 11
31.12598
 21
264.708807
 31
0.0
  0
LINE
  5
C1
330
1F
100
AcDbEntity
  8
LC-001-002-----0
 62
     7
370
    50
100
AcDbLine
 10
55.332296
 20
265.502492
 30
0.0
 11
54.538612
 21
264.708807
 31
0.0
  0
LINE
  5
C2
330
1F
100
AcDbEntity
  8
LC-001-002-----0
 62
     7
370
    50
100
AcDbLine
 10
27.832296
 20
323.336594
 30
0.0
 11
29.832296
 21
323.336594
 31
0.0
  0
LINE
  5
C3
330
1F
100
AcDbEntity
  8
LC-001-002-----0
 62
     7
370
    50
100
AcDbLine
 10
30.582296
 20
280.208807
 30
0.0
 11
27.332296
 21
280.208807
 31
0.0
  0
LINE
  5
C4
330
1F
100
AcDbEntity
  8
LC-001-002-----0
 62
     7
370
    50
100
AcDbLine
 10
58.332296
 20
280.208807
 30
0.0
 11
55.082296
 21
280.208807
 31
0.0
  0
ELLIPSE
  5
C5
330
1F
100
AcDbEntity
  8
LC-001-002-----0
 62
     7
370
    50
100
AcDbEllipse
 10
42.832296
 20
361.802675
 30
0.0
 11
14.82286161349111
 21
-1.295450642230548E-8
 31
0.0
210
0.0
220
0.0
230
1.0
 40
0.626958
 41
6.283185307179574
 42
9.424777960769392
  0
LINE
  5
C6
330
1F
100
AcDbEntity
  8
LC-001-002-----0
 62
     7
370
    50
100
AcDbLine
 10
29.832296
 20
323.336594
 30
0.0
 11
55.832296
 21
323.336594
 31
0.0
  0
LINE
  5
C7
330
1F
100
AcDbEntity
  8
LC-001-002-----0
 62
     7
370
    50
100
AcDbLine
 10
30.582296
 20
280.208807
 30
0.0
 11
55.082296
 21
280.208807
 31
0.0
  0
LINE
  5
C9
330
1F
100
AcDbEntity
  8
LC-001-002-----0
  6
DASHDOT
 62
     7
370
    25
100
AcDbLine
 10
42.832296
 20
371.095992
 30
0.0
 11
42.832296
 21
264.708807
 31
0.0
  0
DIMENSION
  5
CD
330
1F
100
AcDbEntity
  8
LC-004-003-----0
 62
     7
370
    25
100
AcDbDimension
  2
*D1
 10
105.521548
 20
303.458807
 30
0.0
 11
74.721548
 21
318.108
 31
0.0
 70
   160
  1
G1/2"
 71
     5
 42
21.000492
 53
90.0
  3
LC-DIM-L-0140-02-02
100
AcDbAlignedDimension
 13
127.676178
 23
324.4593
 33
0.0
 14
132.692359
 24
303.458807
 34
0.0
 50
90.0
100
AcDbRotatedDimension
  0
DIMENSION
  5
DD
330
1F
100
AcDbEntity
  8
LC-004-003-----0
 62
     7
370
    25
100
AcDbDimension
  2
*D2
 10
267.746348
 20
264.708807
 30
0.0
 11
236.946348
 21
281.874
 31
0.0
 70
   160
  1
50
 71
     5
 42
49.25
 53
90.0
  3
LC-DIM-L-0140-02-02
100
AcDbAlignedDimension
 13
176.708541
 23
313.958807
 33
0.0
 14
188.414856
 24
264.708807
 34
0.0
 50
90.0
100
AcDbRotatedDimension
  0
DIMENSION
  5
EC
330
1F
100
AcDbEntity
  8
LC-004-003-----0
 62
     7
370
    25
100
AcDbDimension
  2
*D3
 10
176.698999
 20
206.436
 30
0.0
 11
136.548149
 21
237.236
 31
0.0
 70
   160
  1
38
 71
     5
 42
37.990458
  3
LC-DIM-L-0140-02-02
100
AcDbAlignedDimension
 13
138.708541
 23
326.708807
 33
0.0
 14
176.698999
 24
313.949449
 34
0.0
100
AcDbRotatedDimension
  0
ENDSEC
  0
SECTION
  2
OBJECTS
  0
DICTIONARY
  5
C
330
0
100
AcDbDictionary
281
     1
  3
ACAD_GROUP
350
D
  3
ACAD_LAYOUT
350
1A
  3
ACAD_MLINESTYLE
350
17
  3
ACAD_PLOTSETTINGS
350
19
  3
ACAD_PLOTSTYLENAME
350
E
  0
DICTIONARY
  5
D
102
{ACAD_REACTORS
330
C
102
}
330
C
100
AcDbDictionary
281
     1
  3
LCGROUP1896
350
FA
  0
DICTIONARY
  5
1A
102
{ACAD_REACTORS
330
C
102
}
330
C
100
AcDbDictionary
281
     1
  3
Layout1
350
1E
  3
Layout2
350
26
  3
Model
350
22
  0
DICTIONARY
  5
17
102
{ACAD_REACTORS
330
C
102
}
330
C
100
AcDbDictionary
281
     1
  3
Standard
350
18
  0
DICTIONARY
  5
19
102
{ACAD_REACTORS
330
C
102
}
330
C
100
AcDbDictionary
281
     1
  0
ACDBDICTIONARYWDFLT
  5
E
102
{ACAD_REACTORS
330
C
102
}
330
C
100
AcDbDictionary
281
     1
  3
Normal
350
F
100
AcDbDictionaryWithDefault
340
F
  0
GROUP
  5
FA
102
{ACAD_REACTORS
330
D
102
}
330
D
100
AcDbGroup
300
5
 70
     1
 71
     1
340
33
340
34
340
35
340
36
340
37
340
38
340
39
340
3A
340
3B
340
3C
340
3D
340
3E
340
3F
340
40
340
41
340
42
340
43
340
44
340
45
340
46
340
47
340
48
340
49
340
4A
340
4B
340
4C
340
4D
340
4E
340
4F
340
50
340
51
340
52
340
53
340
54
340
55
340
56
340
57
340
58
340
59
340
5A
340
5B
340
5C
340
5D
340
5E
340
5F
340
60
340
61
340
62
340
63
340
64
340
65
340
66
340
68
340
69
340
6A
340
6B
340
6C
340
6D
340
6E
340
6F
340
70
340
71
340
72
340
73
340
74
340
75
340
76
340
77
340
78
340
79
340
7A
340
7B
340
7C
340
7D
340
7E
340
7F
340
80
340
81
340
82
340
83
340
84
340
85
340
86
340
87
340
88
340
89
340
8A
340
8B
340
8C
340
8F
340
90
340
91
  0
LAYOUT
  5
1E
102
{ACAD_REACTORS
330
1A
102
}
330
1A
100
AcDbPlotSettings
  1

  2

  4

  6

 40
0.0
 41
0.0
 42
0.0
 43
0.0
 44
0.0
 45
0.0
 46
0.0
 47
0.0
 48
0.0
 49
0.0
140
0.0
141
0.0
142
1.0
143
1.0
 70
   688
 72
     0
 73
     0
 74
     5
  7

 75
    16
147
1.0
148
0.0
149
0.0
100
AcDbLayout
  1
Layout1
 70
     1
 71
     1
 10
-123.0
 20
-87.0
 11
717.0
 21
507.0
 12
0.0
 22
0.0
 32
0.0
 14
-123.0
 24
-87.0
 34
0.0
 15
717.0
 25
507.0
 35
0.0
146
0.0
 13
0.0
 23
0.0
 33
0.0
 16
1.0
 26
0.0
 36
0.0
 17
0.0
 27
1.0
 37
0.0
 76
     0
330
1B
  0
LAYOUT
  5
26
102
{ACAD_REACTORS
330
1A
102
}
330
1A
100
AcDbPlotSettings
  1

  2

  4

  6

 40
0.0
 41
0.0
 42
0.0
 43
0.0
 44
0.0
 45
0.0
 46
0.0
 47
0.0
 48
0.0
 49
0.0
140
0.0
141
0.0
142
1.0
143
1.0
 70
   688
 72
     0
 73
     0
 74
     5
  7

 75
    16
147
1.0
148
0.0
149
0.0
100
AcDbLayout
  1
Layout2
 70
     1
 71
     2
 10
0.0
 20
0.0
 11
0.0
 21
0.0
 12
0.0
 22
0.0
 32
0.0
 14
0.0
 24
0.0
 34
0.0
 15
0.0
 25
0.0
 35
0.0
146
0.0
 13
0.0
 23
0.0
 33
0.0
 16
1.0
 26
0.0
 36
0.0
 17
0.0
 27
1.0
 37
0.0
 76
     0
330
23
  0
LAYOUT
  5
22
102
{ACAD_REACTORS
330
1A
102
}
330
1A
100
AcDbPlotSettings
  1

  2

  4

  6

 40
0.0
 41
0.0
 42
0.0
 43
0.0
 44
0.0
 45
0.0
 46
0.0
 47
0.0
 48
0.0
 49
0.0
140
0.0
141
0.0
142
1.0
143
1.0
 70
  1776
 72
     0
 73
     0
 74
     0
  7

 75
     0
147
1.0
148
0.0
149
0.0
100
AcDbLayout
  1
Model
 70
     1
 71
     0
 10
-123.0
 20
-87.0
 11
717.0
 21
507.0
 12
0.0
 22
0.0
 32
0.0
 14
-123.0
 24
-87.0
 34
0.0
 15
717.0
 25
507.0
 35
0.0
146
0.0
 13
0.0
 23
0.0
 33
0.0
 16
1.0
 26
0.0
 36
0.0
 17
0.0
 27
1.0
 37
0.0
 76
     0
330
1F
  0
MLINESTYLE
  5
18
102
{ACAD_REACTORS
330
17
102
}
330
17
100
AcDbMlineStyle
  2
Standard
 70
     0
  3

 62
   256
 51
90.0
 52
90.0
 71
     2
 49
0.5
 62
   256
  6
BYLAYER
 49
-0.5
 62
   256
  6
BYLAYER
  0
ACDBPLACEHOLDER
  5
F
102
{ACAD_REACTORS
330
E
102
}
330
E
  0
ENDSEC
  0
EOF
