  0
SECTION
  2
HEADER
  9
$ACADVER
  1
AC1009
  9
$INSBASE
 10
0.0
 20
0.0
 30
0.0
  9
$EXTMIN
 10
-174.0
 20
-123.0
 30
0.0
  9
$EXTMAX
 10
1014.0
 20
717.0
 30
0.0
  9
$LIMMIN
 10
-174.0
 20
-123.0
  9
$LIMMAX
 10
1014.0
 20
717.0
  9
$ORTHOMODE
 70
     0
  9
$REGENMODE
 70
     1
  9
$FILLMODE
 70
     1
  9
$QTEXTMODE
 70
     0
  9
$MIRRTEXT
 70
     1
  9
$DRAGMODE
 70
     2
  9
$LTSCALE
 40
2.0
  9
$OSMODE
 70
     0
  9
$ATTMODE
 70
     1
  9
$TEXTSIZE
 40
0.2
  9
$TRACEWID
 40
0.05
  9
$TEXTSTYLE
  7
STANDARD
  9
$CLAYER
  8
0
  9
$CELTYPE
  6
BYLAYER
  9
$CECOLOR
 62
     7
  9
$DIMSCALE
 40
2.0
  9
$DIMASZ
 40
3.5
  9
$DIMEXO
 40
0.0625
  9
$DIMDLI
 40
0.38
  9
$DIMRND
 40
0.0
  9
$DIMDLE
 40
0.0
  9
$DIMEXE
 40
0.18
  9
$DIMTP
 40
0.0
  9
$DIMTM
 40
0.0
  9
$DIMTXT
 40
3.5
  9
$DIMCEN
 40
0.09
  9
$DIMTSZ
 40
0.0
  9
$DIMTOL
 70
     0
  9
$DIMLIM
 70
     0
  9
$DIMTIH
 70
     1
  9
$DIMTOH
 70
     1
  9
$DIMSE1
 70
     0
  9
$DIMSE2
 70
     0
  9
$DIMTAD
 70
     1
  9
$DIMZIN
 70
     0
  9
$DIMBLK
  1

  9
$DIMASO
 70
     1
  9
$DIMSHO
 70
     1
  9
$DIMPOST
  1

  9
$DIMAPOST
  1

  9
$DIMALT
 70
     0
  9
$DIMALTD
 70
     2
  9
$DIMALTF
 40
25.4
  9
$DIMLFAC
 40
1.0
  9
$DIMTOFL
 70
     0
  9
$DIMTVP
 40
0.0
  9
$DIMTIX
 70
     0
  9
$DIMSOXD
 70
     0
  9
$DIMSAH
 70
     0
  9
$DIMBLK1
  1

  9
$DIMBLK2
  1

  9
$DIMSTYLE
  2
STANDARD
  9
$DIMCLRD
 70
     0
  9
$DIMCLRE
 70
     0
  9
$DIMCLRT
 70
     0
  9
$DIMTFAC
 40
1.0
  9
$DIMGAP
 40
0.09
  9
$LUNITS
 70
     2
  9
$LUPREC
 70
     2
  9
$AXISMODE
 70
     0
  9
$AXISUNIT
 10
0.0
 20
0.0
  9
$SKETCHINC
 40
0.1
  9
$FILLETRAD
 40
0.0
  9
$AUNITS
 70
     0
  9
$AUPREC
 70
     0
  9
$MENU
  1
acad
  9
$ELEVATION
 40
0.0
  9
$PELEVATION
 40
0.0
  9
$THICKNESS
 40
0.0
  9
$LIMCHECK
 70
     0
  9
$BLIPMODE
 70
     1
  9
$CHAMFERA
 40
0.0
  9
$CHAMFERB
 40
0.0
  9
$SKPOLY
 70
     0
  9
$TDCREATE
 40
0.000000000
  9
$TDUPDATE
 40
0.000000000
  9
$TDINDWG
 40
0.0000000000
  9
$TDUSRTIMER
 40
0.0000000000
  9
$USRTIMER
 70
     1
  9
$ANGBASE
 50
0.0
  9
$ANGDIR
 70
     0
  9
$PDMODE
 70
     0
  9
$PDSIZE
 40
0.0
  9
$PLINEWID
 40
0.0
  9
$COORDS
 70
     0
  9
$SPLFRAME
 70
     0
  9
$SPLINETYPE
 70
     6
  9
$SPLINESEGS
 70
     8
  9
$ATTDIA
 70
     0
  9
$ATTREQ
 70
     1
  9
$HANDLING
 70
     1
  9
$HANDSEED
  5
6C4
  9
$SURFTAB1
 70
     6
  9
$SURFTAB2
 70
     6
  9
$SURFTYPE
 70
     6
  9
$SURFU
 70
     6
  9
$SURFV
 70
     6
  9
$UCSNAME
  2

  9
$UCSORG
 10
0.0
 20
0.0
 30
0.0
  9
$UCSXDIR
 10
1.0
 20
0.0
 30
0.0
  9
$UCSYDIR
 10
0.0
 20
1.0
 30
0.0
  9
$PUCSNAME
  2

  9
$PUCSORG
 10
0.0
 20
0.0
 30
0.0
  9
$PUCSXDIR
 10
1.0
 20
0.0
 30
0.0
  9
$PUCSYDIR
 10
0.0
 20
1.0
 30
0.0
  9
$USERI1
 70
     0
  9
$USERI2
 70
     0
  9
$USERI3
 70
     0
  9
$USERI4
 70
     0
  9
$USERI5
 70
     0
  9
$USERR1
 40
0.0
  9
$USERR2
 40
0.0
  9
$USERR3
 40
0.0
  9
$USERR4
 40
0.0
  9
$USERR5
 40
0.0
  9
$WORLDVIEW
 70
     1
  9
$SHADEDGE
 70
     3
  9
$SHADEDIF
 70
    70
  9
$TILEMODE
 70
     1
  9
$MAXACTVP
 70
    16
  9
$PINSBASE
 10
0.0
 20
0.0
 30
0.0
  9
$PLIMCHECK
 70
     0
  9
$PEXTMIN
 10
1.000000E+20
 20
1.000000E+20
 30
1.000000E+20
  9
$PEXTMAX
 10
-1.000000E+20
 20
-1.000000E+20
 30
-1.000000E+20
  9
$PLIMMIN
 10
-174.0
 20
-123.0
  9
$PLIMMAX
 10
1014.0
 20
717.0
  9
$UNITMODE
 70
     0
  9
$VISRETAIN
 70
     0
  9
$PLINEGEN
 70
     1
  9
$PSLTSCALE
 70
     0
  9
$TREEDEPTH
 70
  3020
  9
$DWGCODEPAGE
  3
dos850
  0
ENDSEC
  0
SECTION
  2
TABLES
  0
TABLE
  2
VPORT
 70
     1
  0
VPORT
  2
*ACTIVE
 70
     0
 10
0.0
 20
0.0
 11
1.0
 21
1.0
 12
594.0
 22
420.0
 13
0.0
 23
0.0
 14
1.0
 24
1.0
 15
0.0
 25
0.0
 16
0.0
 26
0.0
 36
1.0
 17
-174.0
 27
-123.0
 37
0.0
 40
840.0
 41
1.604229
 42
50.0
 43
0.0
 44
0.0
 50
0.0
 51
0.0
 71
     0
 72
   100
 73
     1
 74
     1
 75
     0
 76
     0
 77
     0
 78
     0
  0
ENDTAB
  0
TABLE
  2
LTYPE
 70
     4
  0
LTYPE
  2
CONTINUOUS
 70
    64
  3
Solid line
 72
    65
 73
     0
 40
0.0
  0
LTYPE
  2
DASHDOT
 70
    64
  3
__ . __ . __ . __ . __
 72
    65
 73
     4
 40
7.5
 49
5.0
 49
-1.25
 49
0.0
 49
-1.25
  0
LTYPE
  2
DASHED
 70
    64
  3
__ __ __ __ __
 72
    65
 73
     2
 40
6.25
 49
5.0
 49
-1.25
  0
LTYPE
  2
CENTER
 70
    64
  3
__ . __ . __ . __ . __
 72
    65
 73
     4
 40
7.5
 49
5.0
 49
-1.25
 49
0.0
 49
-1.25
  0
ENDTAB
  0
TABLE
  2
LAYER
 70
    14
  0
LAYER
  2
0
 70
     0
 62
     7
  6
CONTINUOUS
  0
LAYER
  2
LC-INFO-1-2-MM-A2-0
 70
     1
 62
    -1
  6
CONTINUOUS
  0
LAYER
  2
LC-002-002-----0
 70
     0
 62
     1
  6
CONTINUOUS
  0
LAYER
  2
LC-005-003-MTH-0
 70
     0
 62
     2
  6
CONTINUOUS
  0
LAYER
  2
LC-004-003-----0
 70
     0
 62
     2
  6
CONTINUOUS
  0
LAYER
  2
LC-006-003-MTG-0
 70
     0
 62
     2
  6
CONTINUOUS
  0
LAYER
  2
LC-010-005-----0
 70
     0
 62
     2
  6
CONTINUOUS
  0
LAYER
  2
LC-007-000-----0
 70
     0
 62
     7
  6
CONTINUOUS
  0
LAYER
  2
LC-008-000-----0
 70
     0
 62
     7
  6
CONTINUOUS
  0
LAYER
  2
LC-001-002-RND-0
 70
     0
 62
     1
  6
CONTINUOUS
  0
LAYER
  2
LC-003-001-----0
 70
     0
 62
     1
  6
CONTINUOUS
  0
LAYER
  2
LC-009-006-MLN-0
 70
     0
 62
     2
  6
CENTER
  0
LAYER
  2
LC-011-002-___-0
 70
     0
 62
     2
  6
DASHED
  0
LAYER
  2
LC-000
 70
     0
 62
     7
  6
CONTINUOUS
  0
ENDTAB
  0
TABLE
  2
STYLE
 70
     4
  0
STYLE
  2
STANDARD
 70
     0
 40
0.0
 41
1.0
 50
0.0
 71
     0
 42
0.0
  3
txt
  4

  0
STYLE
  2
LC-STANDARD
 70
    64
 40
0.0
 41
1.0
 50
0.0
 71
     0
 42
3.5
  3
MONOTXT
  4

  0
STYLE
  2
LC-TXTSTYLE-150-400-0-0-D2
 70
    64
 40
0.0
 41
1.0
 50
15.0
 71
     0
 42
3.5
  3
MONOTXT
  4

  0
STYLE
  2
LC-TXTSTYLE-150-400-0-0-D3
 70
    64
 40
0.0
 41
1.0
 50
15.0
 71
     0
 42
3.5
  3
LC-STANDARD
  4

  0
ENDTAB
  0
TABLE
  2
VIEW
 70
     0
  0
ENDTAB
  0
TABLE
  2
UCS
 70
     0
  0
ENDTAB
  0
TABLE
  2
APPID
 70
     1
  0
APPID
  2
ACAD
 70
     0
  0
ENDTAB
  0
TABLE
  2
DIMSTYLE
 70
     3
  0
DIMSTYLE
  2
STANDARD
 70
     0
  3

  4

  5

  6

  7

 40
1.0
 41
0.18
 42
0.0625
 43
0.38
 44
0.18
 45
0.0
 46
0.0
 47
0.0
 48
0.0
 71
     0
 72
     0
 73
     1
 74
     1
 75
     0
 76
     0
 77
     0
 78
     0
140
0.18
141
0.09
142
0.0
143
25.4
144
1.0
145
0.0
146
1.0
147
0.09
170
     0
171
     2
172
     0
173
     0
174
     0
175
     0
176
     0
177
     0
178
     0
  0
DIMSTYLE
  2
LC-STANDARD
 70
     0
  3

  4

  5

  6

  7

 40
1.0
 41
3.5
 42
0.0
 43
7.5
 44
1.8
 45
0.0
 46
0.0
 47
0.0
 48
0.0
 71
     0
 72
     0
 73
     0
 74
     0
 75
     0
 76
     0
 77
     1
 78
     8
140
3.5
141
0.0
142
0.0
143
25.4
144
1.0
145
0.0
146
0.71
147
1.5
170
     0
171
     2
172
     1
173
     0
174
     0
175
     0
176
     0
177
     0
178
     3
  0
DIMSTYLE
  2
LC-DIM-L-0090-02-02
 70
     0
  3

  4

  5

  6

  7

 40
2.0
 41
3.5
 42
0.0
 43
7.5
 44
1.8
 45
0.0
 46
0.0
 47
0.0
 48
0.0
 71
     0
 72
     0
 73
     0
 74
     0
 75
     0
 76
     0
 77
     1
 78
     8
140
9.0
141
0.0
142
0.0
143
25.4
144
1.0
145
0.0
146
0.71
147
1.5
170
     0
171
     2
172
     0
173
     0
174
     0
175
     0
176
     2
177
     2
178
     6
  0
ENDTAB
  0
ENDSEC
  0
SECTION
  2
BLOCKS
  0
BLOCK
  8
0
  5
23
  2
BLK1
 70
    64
 10
0.0
 20
0.0
 30
0.0
  3
BLK1
  0
ARC
  8
LC-002-002-----0
  6
CONTINUOUS
  5
25
 10
130.427779
 20
314.749347
 30
0.0
 40
9.503897
 50
359.691743
 51
18.076087
  0
ARC
  8
LC-002-002-----0
  6
CONTINUOUS
  5
26
 10
134.114168
 20
316.049986
 30
0.0
 40
5.596654
 50
17.127699
 51
43.385681
  0
ARC
  8
LC-002-002-----0
  6
CONTINUOUS
  5
27
 10
136.062343
 20
317.80402
 30
0.0
 40
2.976645
 50
44.607571
 51
64.637306
  0
ARC
  8
LC-002-002-----0
  6
CONTINUOUS
  5
28
 10
136.420221
 20
318.53902
 30
0.0
 40
2.159209
 50
64.864126
 51
89.700366
  0
ARC
  8
LC-002-002-----0
  6
CONTINUOUS
  5
29
 10
136.442823
 20
318.539021
 30
0.0
 40
2.159209
 50
90.30014
 51
115.13638
  0
ARC
  8
LC-002-002-----0
  6
CONTINUOUS
  5
2A
 10
136.800707
 20
317.804023
 30
0.0
 40
2.976645
 50
115.3632
 51
135.392934
  0
ARC
  8
LC-002-002-----0
  6
CONTINUOUS
  5
2B
 10
138.748897
 20
316.050006
 30
0.0
 40
5.596654
 50
136.614824
 51
162.872807
  0
ARC
  8
LC-002-002-----0
  6
CONTINUOUS
  5
2C
 10
142.435298
 20
314.7494
 30
0.0
 40
9.503897
 50
161.924418
 51
180.308763
  0
ARC
  8
LC-002-002-----0
  6
CONTINUOUS
  5
2D
 10
142.435298
 20
314.647053
 30
0.0
 40
9.503897
 50
179.691743
 51
198.076087
  0
ARC
  8
LC-002-002-----0
  6
CONTINUOUS
  5
2E
 10
138.748909
 20
313.346414
 30
0.0
 40
5.596654
 50
197.127699
 51
223.385681
  0
ARC
  8
LC-002-002-----0
  6
CONTINUOUS
  5
2F
 10
136.800734
 20
311.59238
 30
0.0
 40
2.976645
 50
224.607571
 51
244.637306
  0
ARC
  8
LC-002-002-----0
  6
CONTINUOUS
  5
30
 10
136.442857
 20
310.857379
 30
0.0
 40
2.159209
 50
244.864126
 51
269.700366
  0
ARC
  8
LC-002-002-----0
  6
CONTINUOUS
  5
31
 10
136.420255
 20
310.857379
 30
0.0
 40
2.159209
 50
270.30014
 51
295.13638
  0
ARC
  8
LC-002-002-----0
  6
CONTINUOUS
  5
32
 10
136.062371
 20
311.592377
 30
0.0
 40
2.976645
 50
295.3632
 51
315.392934
  0
ARC
  8
LC-002-002-----0
  6
CONTINUOUS
  5
33
 10
134.11418
 20
313.346394
 30
0.0
 40
5.596654
 50
316.614824
 51
342.872807
  0
ARC
  8
LC-002-002-----0
  6
CONTINUOUS
  5
34
 10
130.42778
 20
314.647
 30
0.0
 40
9.503897
 50
341.924418
 51
0.308763
  0
ENDBLK
  8
0
  5
35
  0
BLOCK
  8
0
  5
37
  2
BLK2
 70
    64
 10
0.0
 20
0.0
 30
0.0
  3
BLK2
  0
ARC
  8
LC-002-002-----0
  6
CONTINUOUS
  5
38
 10
134.40423
 20
301.728211
 30
0.0
 40
5.522367
 50
359.802929
 51
23.824283
  0
ARC
  8
LC-002-002-----0
  6
CONTINUOUS
  5
39
 10
135.64554
 20
302.313247
 30
0.0
 40
4.150652
 50
23.358008
 51
52.474731
  0
ARC
  8
LC-002-002-----0
  6
CONTINUOUS
  5
3A
 10
136.395879
 20
303.279581
 30
0.0
 40
2.927234
 50
52.601501
 51
89.462986
  0
ARC
  8
LC-002-002-----0
  6
CONTINUOUS
  5
3B
 10
136.454978
 20
303.279624
 30
0.0
 40
2.927234
 50
90.619786
 51
127.481271
  0
ARC
  8
LC-002-002-----0
  6
CONTINUOUS
  5
3C
 10
137.206712
 20
302.314375
 30
0.0
 40
4.150652
 50
127.608041
 51
156.724764
  0
ARC
  8
LC-002-002-----0
  6
CONTINUOUS
  5
3D
 10
138.448866
 20
301.731133
 30
0.0
 40
5.522367
 50
156.258489
 51
180.279843
  0
ARC
  8
LC-002-002-----0
  6
CONTINUOUS
  5
3E
 10
138.448899
 20
301.685166
 30
0.0
 40
5.522367
 50
179.802929
 51
203.824283
  0
ARC
  8
LC-002-002-----0
  6
CONTINUOUS
  5
3F
 10
137.207589
 20
301.10013
 30
0.0
 40
4.150652
 50
203.358008
 51
232.474731
  0
ARC
  8
LC-002-002-----0
  6
CONTINUOUS
  5
40
 10
136.457251
 20
300.133796
 30
0.0
 40
2.927234
 50
232.601501
 51
269.462986
  0
ARC
  8
LC-002-002-----0
  6
CONTINUOUS
  5
41
 10
136.398151
 20
300.133753
 30
0.0
 40
2.927234
 50
270.619786
 51
307.481271
  0
ARC
  8
LC-002-002-----0
  6
CONTINUOUS
  5
42
 10
135.646417
 20
301.099002
 30
0.0
 40
4.150652
 50
307.608041
 51
336.724764
  0
ARC
  8
LC-002-002-----0
  6
CONTINUOUS
  5
43
 10
134.404263
 20
301.682245
 30
0.0
 40
5.522367
 50
336.258489
 51
0.279843
  0
ENDBLK
  8
0
  5
44
  0
BLOCK
  8
0
  5
46
  2
BLK3
 70
    64
 10
0.0
 20
0.0
 30
0.0
  3
BLK3
  0
ARC
  8
LC-002-002-----0
  6
CONTINUOUS
  5
47
 10
134.402718
 20
327.713915
 30
0.0
 40
5.522367
 50
359.726959
 51
23.748313
  0
ARC
  8
LC-002-002-----0
  6
CONTINUOUS
  5
48
 10
135.644803
 20
328.297304
 30
0.0
 40
4.150652
 50
23.282038
 51
52.398761
  0
ARC
  8
LC-002-002-----0
  6
CONTINUOUS
  5
49
 10
136.396422
 20
329.262643
 30
0.0
 40
2.927234
 50
52.525531
 51
89.387016
  0
ARC
  8
LC-002-002-----0
  6
CONTINUOUS
  5
4A
 10
136.455522
 20
329.262607
 30
0.0
 40
2.927234
 50
90.543815
 51
127.405301
  0
ARC
  8
LC-002-002-----0
  6
CONTINUOUS
  5
4B
 10
137.205975
 20
328.296362
 30
0.0
 40
4.150652
 50
127.53207
 51
156.648794
  0
ARC
  8
LC-002-002-----0
  6
CONTINUOUS
  5
4C
 10
138.447355
 20
327.711473
 30
0.0
 40
5.522367
 50
156.182518
 51
180.203873
  0
ARC
  8
LC-002-002-----0
  6
CONTINUOUS
  5
4D
 10
138.447327
 20
327.665507
 30
0.0
 40
5.522367
 50
179.726959
 51
203.748313
  0
ARC
  8
LC-002-002-----0
  6
CONTINUOUS
  5
4E
 10
137.205242
 20
327.082117
 30
0.0
 40
4.150652
 50
203.282038
 51
232.398761
  0
ARC
  8
LC-002-002-----0
  6
CONTINUOUS
  5
4F
 10
136.453623
 20
326.116779
 30
0.0
 40
2.927234
 50
232.525531
 51
269.387016
  0
ARC
  8
LC-002-002-----0
  6
CONTINUOUS
  5
50
 10
136.394523
 20
326.116814
 30
0.0
 40
2.927234
 50
270.543815
 51
307.405301
  0
ARC
  8
LC-002-002-----0
  6
CONTINUOUS
  5
51
 10
135.64407
 20
327.08306
 30
0.0
 40
4.150652
 50
307.53207
 51
336.648794
  0
ARC
  8
LC-002-002-----0
  6
CONTINUOUS
  5
52
 10
134.40269
 20
327.667948
 30
0.0
 40
5.522367
 50
336.182518
 51
0.203873
  0
ENDBLK
  8
0
  5
53
  0
BLOCK
  8
0
  5
55
  2
*D3
 70
    65
 10
0.0
 20
0.0
 30
0.0
  3
*D3
  0
LINE
  8
LC-005-003-MTH-0
  6
CONTINUOUS
  5
57
 10
188.771234
 20
178.022548
 30
0.0
 11
188.771234
 21
73.2
 31
0.0
  0
LINE
  8
LC-005-003-MTH-0
  6
CONTINUOUS
  5
58
 10
228.771234
 20
178.197992
 30
0.0
 11
228.771234
 21
73.2
 31
0.0
  0
LINE
  8
LC-004-003-----0
  6
CONTINUOUS
  5
5A
 10
170.925227
 20
81.650529
 30
0.0
 11
188.771234
 21
84.0
 31
0.0
  0
LINE
  8
LC-004-003-----0
  6
CONTINUOUS
  5
5B
 10
188.771234
 20
84.0
 30
0.0
 11
170.925227
 21
86.349471
 31
0.0
  0
LINE
  8
LC-004-003-----0
  6
CONTINUOUS
  5
5C
 10
170.925227
 20
86.349471
 30
0.0
 11
170.925227
 21
81.650529
 31
0.0
  0
LINE
  8
LC-004-003-----0
  6
CONTINUOUS
  5
5D
 10
170.885189
 20
82.261391
 30
0.0
 11
184.091234
 21
84.0
 31
0.0
  0
LINE
  8
LC-004-003-----0
  6
CONTINUOUS
  5
5E
 10
184.091234
 20
84.0
 30
0.0
 11
170.885189
 21
85.738609
 31
0.0
  0
LINE
  8
LC-004-003-----0
  6
CONTINUOUS
  5
5F
 10
170.845151
 20
82.872254
 30
0.0
 11
179.411234
 21
84.0
 31
0.0
  0
LINE
  8
LC-004-003-----0
  6
CONTINUOUS
  5
60
 10
179.411234
 20
84.0
 30
0.0
 11
170.845151
 21
85.127746
 31
0.0
  0
LINE
  8
LC-004-003-----0
  6
CONTINUOUS
  5
61
 10
170.805113
 20
83.483116
 30
0.0
 11
174.731234
 21
84.0
 31
0.0
  0
LINE
  8
LC-004-003-----0
  6
CONTINUOUS
  5
62
 10
174.731234
 20
84.0
 30
0.0
 11
170.805113
 21
84.516884
 31
0.0
  0
LINE
  8
LC-004-003-----0
  6
CONTINUOUS
  5
63
 10
246.617242
 20
86.349471
 30
0.0
 11
228.771234
 21
84.0
 31
0.0
  0
LINE
  8
LC-004-003-----0
  6
CONTINUOUS
  5
64
 10
228.771234
 20
84.0
 30
0.0
 11
246.617242
 21
81.650529
 31
0.0
  0
LINE
  8
LC-004-003-----0
  6
CONTINUOUS
  5
65
 10
246.617242
 20
81.650529
 30
0.0
 11
246.617242
 21
86.349471
 31
0.0
  0
LINE
  8
LC-004-003-----0
  6
CONTINUOUS
  5
66
 10
246.65728
 20
85.738609
 30
0.0
 11
233.451234
 21
84.0
 31
0.0
  0
LINE
  8
LC-004-003-----0
  6
CONTINUOUS
  5
67
 10
233.451234
 20
84.0
 30
0.0
 11
246.65728
 21
82.261391
 31
0.0
  0
LINE
  8
LC-004-003-----0
  6
CONTINUOUS
  5
68
 10
246.697318
 20
85.127746
 30
0.0
 11
238.131234
 21
84.0
 31
0.0
  0
LINE
  8
LC-004-003-----0
  6
CONTINUOUS
  5
69
 10
238.131234
 20
84.0
 30
0.0
 11
246.697318
 21
82.872254
 31
0.0
  0
LINE
  8
LC-004-003-----0
  6
CONTINUOUS
  5
6A
 10
246.737356
 20
84.516884
 30
0.0
 11
242.811234
 21
84.0
 31
0.0
  0
LINE
  8
LC-004-003-----0
  6
CONTINUOUS
  5
6B
 10
242.811234
 20
84.0
 30
0.0
 11
246.737356
 21
83.483116
 31
0.0
  0
LINE
  8
LC-006-003-MTG-0
  6
CONTINUOUS
  5
6D
 10
163.571234
 20
84.0
 30
0.0
 11
319.173754
 21
84.0
 31
0.0
  0
TEXT
  8
LC-004-003-----0
  6
CONTINUOUS
 62
     6
  5
6F
 10
256.04648
 20
94.431999
 30
0.0
 40
18.0
  1
DN40
 41
0.9
 51
15.0
  7
LC-TXTSTYLE-150-400-0-0-D0
  0
ENDBLK
  8
0
  5
70
  0
BLOCK
  8
0
  5
72
  2
*D4
 70
    65
 10
0.0
 20
0.0
 30
0.0
  3
*D4
  0
LINE
  8
LC-005-003-MTH-0
  6
CONTINUOUS
  5
73
 10
183.771234
 20
125.197992
 30
0.0
 11
183.771234
 21
31.2
 31
0.0
  0
LINE
  8
LC-005-003-MTH-0
  6
CONTINUOUS
  5
74
 10
233.771234
 20
125.197992
 30
0.0
 11
233.771234
 21
31.2
 31
0.0
  0
LINE
  8
LC-004-003-----0
  6
CONTINUOUS
  5
75
 10
165.925227
 20
39.650529
 30
0.0
 11
183.771234
 21
42.0
 31
0.0
  0
LINE
  8
LC-004-003-----0
  6
CONTINUOUS
  5
76
 10
183.771234
 20
42.0
 30
0.0
 11
165.925227
 21
44.349471
 31
0.0
  0
LINE
  8
LC-004-003-----0
  6
CONTINUOUS
  5
77
 10
165.925227
 20
44.349471
 30
0.0
 11
165.925227
 21
39.650529
 31
0.0
  0
LINE
  8
LC-004-003-----0
  6
CONTINUOUS
  5
78
 10
165.885189
 20
40.261391
 30
0.0
 11
179.091234
 21
42.0
 31
0.0
  0
LINE
  8
LC-004-003-----0
  6
CONTINUOUS
  5
79
 10
179.091234
 20
42.0
 30
0.0
 11
165.885189
 21
43.738609
 31
0.0
  0
LINE
  8
LC-004-003-----0
  6
CONTINUOUS
  5
7A
 10
165.845151
 20
40.872254
 30
0.0
 11
174.411234
 21
42.0
 31
0.0
  0
LINE
  8
LC-004-003-----0
  6
CONTINUOUS
  5
7B
 10
174.411234
 20
42.0
 30
0.0
 11
165.845151
 21
43.127746
 31
0.0
  0
LINE
  8
LC-004-003-----0
  6
CONTINUOUS
  5
7C
 10
165.805113
 20
41.483116
 30
0.0
 11
169.731234
 21
42.0
 31
0.0
  0
LINE
  8
LC-004-003-----0
  6
CONTINUOUS
  5
7D
 10
169.731234
 20
42.0
 30
0.0
 11
165.805113
 21
42.516884
 31
0.0
  0
LINE
  8
LC-004-003-----0
  6
CONTINUOUS
  5
7E
 10
251.617242
 20
44.349471
 30
0.0
 11
233.771234
 21
42.0
 31
0.0
  0
LINE
  8
LC-004-003-----0
  6
CONTINUOUS
  5
7F
 10
233.771234
 20
42.0
 30
0.0
 11
251.617242
 21
39.650529
 31
0.0
  0
LINE
  8
LC-004-003-----0
  6
CONTINUOUS
  5
80
 10
251.617242
 20
39.650529
 30
0.0
 11
251.617242
 21
44.349471
 31
0.0
  0
LINE
  8
LC-004-003-----0
  6
CONTINUOUS
  5
81
 10
251.65728
 20
43.738609
 30
0.0
 11
238.451234
 21
42.0
 31
0.0
  0
LINE
  8
LC-004-003-----0
  6
CONTINUOUS
  5
82
 10
238.451234
 20
42.0
 30
0.0
 11
251.65728
 21
40.261391
 31
0.0
  0
LINE
  8
LC-004-003-----0
  6
CONTINUOUS
  5
83
 10
251.697318
 20
43.127746
 30
0.0
 11
243.131234
 21
42.0
 31
0.0
  0
LINE
  8
LC-004-003-----0
  6
CONTINUOUS
  5
84
 10
243.131234
 20
42.0
 30
0.0
 11
251.697318
 21
40.872254
 31
0.0
  0
LINE
  8
LC-004-003-----0
  6
CONTINUOUS
  5
85
 10
251.737356
 20
42.516884
 30
0.0
 11
247.811234
 21
42.0
 31
0.0
  0
LINE
  8
LC-004-003-----0
  6
CONTINUOUS
  5
86
 10
247.811234
 20
42.0
 30
0.0
 11
251.737356
 21
41.483116
 31
0.0
  0
LINE
  8
LC-006-003-MTG-0
  6
CONTINUOUS
  5
87
 10
158.571234
 20
42.0
 30
0.0
 11
324.173754
 21
42.0
 31
0.0
  0
TEXT
  8
LC-004-003-----0
  6
CONTINUOUS
 62
     6
  5
88
 10
261.04648
 20
52.431999
 30
0.0
 40
18.0
  1
DN50
 51
15.0
  7
LC-TXTSTYLE-150-400-0-0-D0
  0
ENDBLK
  8
0
  5
89
  0
BLOCK
  8
0
  5
8B
  2
*D5
 70
    65
 10
0.0
 20
0.0
 30
0.0
  3
*D5
  0
LINE
  8
LC-005-003-MTH-0
  6
CONTINUOUS
  5
8C
 10
145.931425
 20
269.698719
 30
0.0
 11
145.931425
 21
189.2
 31
0.0
  0
LINE
  8
LC-005-003-MTH-0
  6
CONTINUOUS
  5
8D
 10
246.271234
 20
263.412029
 30
0.0
 11
246.271234
 21
189.2
 31
0.0
  0
LINE
  8
LC-004-003-----0
  6
CONTINUOUS
  5
8E
 10
128.085418
 20
197.650529
 30
0.0
 11
145.931425
 21
200.0
 31
0.0
  0
LINE
  8
LC-004-003-----0
  6
CONTINUOUS
  5
8F
 10
145.931425
 20
200.0
 30
0.0
 11
128.085418
 21
202.349471
 31
0.0
  0
LINE
  8
LC-004-003-----0
  6
CONTINUOUS
  5
90
 10
128.085418
 20
202.349471
 30
0.0
 11
128.085418
 21
197.650529
 31
0.0
  0
LINE
  8
LC-004-003-----0
  6
CONTINUOUS
  5
91
 10
128.045379
 20
198.261391
 30
0.0
 11
141.251425
 21
200.0
 31
0.0
  0
LINE
  8
LC-004-003-----0
  6
CONTINUOUS
  5
92
 10
141.251425
 20
200.0
 30
0.0
 11
128.045379
 21
201.738609
 31
0.0
  0
LINE
  8
LC-004-003-----0
  6
CONTINUOUS
  5
93
 10
128.005341
 20
198.872254
 30
0.0
 11
136.571425
 21
200.0
 31
0.0
  0
LINE
  8
LC-004-003-----0
  6
CONTINUOUS
  5
94
 10
136.571425
 20
200.0
 30
0.0
 11
128.005341
 21
201.127746
 31
0.0
  0
LINE
  8
LC-004-003-----0
  6
CONTINUOUS
  5
95
 10
127.965303
 20
199.483116
 30
0.0
 11
131.891425
 21
200.0
 31
0.0
  0
LINE
  8
LC-004-003-----0
  6
CONTINUOUS
  5
96
 10
131.891425
 20
200.0
 30
0.0
 11
127.965303
 21
200.516884
 31
0.0
  0
LINE
  8
LC-004-003-----0
  6
CONTINUOUS
  5
97
 10
264.117242
 20
202.349471
 30
0.0
 11
246.271234
 21
200.0
 31
0.0
  0
LINE
  8
LC-004-003-----0
  6
CONTINUOUS
  5
98
 10
246.271234
 20
200.0
 30
0.0
 11
264.117242
 21
197.650529
 31
0.0
  0
LINE
  8
LC-004-003-----0
  6
CONTINUOUS
  5
99
 10
264.117242
 20
197.650529
 30
0.0
 11
264.117242
 21
202.349471
 31
0.0
  0
LINE
  8
LC-004-003-----0
  6
CONTINUOUS
  5
9A
 10
264.15728
 20
201.738609
 30
0.0
 11
250.951234
 21
200.0
 31
0.0
  0
LINE
  8
LC-004-003-----0
  6
CONTINUOUS
  5
9B
 10
250.951234
 20
200.0
 30
0.0
 11
264.15728
 21
198.261391
 31
0.0
  0
LINE
  8
LC-004-003-----0
  6
CONTINUOUS
  5
9C
 10
264.197318
 20
201.127746
 30
0.0
 11
255.631234
 21
200.0
 31
0.0
  0
LINE
  8
LC-004-003-----0
  6
CONTINUOUS
  5
9D
 10
255.631234
 20
200.0
 30
0.0
 11
264.197318
 21
198.872254
 31
0.0
  0
LINE
  8
LC-004-003-----0
  6
CONTINUOUS
  5
9E
 10
264.237356
 20
200.516884
 30
0.0
 11
260.311234
 21
200.0
 31
0.0
  0
LINE
  8
LC-004-003-----0
  6
CONTINUOUS
  5
9F
 10
260.311234
 20
200.0
 30
0.0
 11
264.237356
 21
199.483116
 31
0.0
  0
LINE
  8
LC-006-003-MTG-0
  6
CONTINUOUS
  5
A0
 10
23.128905
 20
200.0
 30
0.0
 11
271.471234
 21
200.0
 31
0.0
  0
TEXT
  8
LC-004-003-----0
  6
CONTINUOUS
 62
     6
  5
A1
 10
40.69549
 20
210.431999
 30
0.0
 40
18.0
  1
73-120
 51
15.0
  7
LC-TXTSTYLE-150-400-0-0-D0
 72
     2
 11
124.246671
 21
210.431999
 31
0.0
  0
ENDBLK
  8
0
  5
A2
  0
BLOCK
  8
0
  5
A4
  2
*D6
 70
    65
 10
0.0
 20
0.0
 30
0.0
  3
*D6
  0
LINE
  8
LC-005-003-MTH-0
  6
CONTINUOUS
  5
A5
 10
663.999489
 20
264.697992
 30
0.0
 11
724.8
 21
264.697992
 31
0.0
  0
LINE
  8
LC-005-003-MTH-0
  6
CONTINUOUS
  5
A6
 10
663.999489
 20
364.697992
 30
0.0
 11
724.8
 21
364.697992
 31
0.0
  0
LINE
  8
LC-004-003-----0
  6
CONTINUOUS
  5
A7
 10
716.349471
 20
246.851985
 30
0.0
 11
714.0
 21
264.697992
 31
0.0
  0
LINE
  8
LC-004-003-----0
  6
CONTINUOUS
  5
A8
 10
714.0
 20
264.697992
 30
0.0
 11
711.650529
 21
246.851985
 31
0.0
  0
LINE
  8
LC-004-003-----0
  6
CONTINUOUS
  5
A9
 10
711.650529
 20
246.851985
 30
0.0
 11
716.349471
 21
246.851985
 31
0.0
  0
LINE
  8
LC-004-003-----0
  6
CONTINUOUS
  5
AA
 10
715.738609
 20
246.811947
 30
0.0
 11
714.0
 21
260.017992
 31
0.0
  0
LINE
  8
LC-004-003-----0
  6
CONTINUOUS
  5
AB
 10
714.0
 20
260.017992
 30
0.0
 11
712.261391
 21
246.811947
 31
0.0
  0
LINE
  8
LC-004-003-----0
  6
CONTINUOUS
  5
AC
 10
715.127746
 20
246.771909
 30
0.0
 11
714.0
 21
255.337992
 31
0.0
  0
LINE
  8
LC-004-003-----0
  6
CONTINUOUS
  5
AD
 10
714.0
 20
255.337992
 30
0.0
 11
712.872254
 21
246.771909
 31
0.0
  0
LINE
  8
LC-004-003-----0
  6
CONTINUOUS
  5
AE
 10
714.516884
 20
246.731871
 30
0.0
 11
714.0
 21
250.657992
 31
0.0
  0
LINE
  8
LC-004-003-----0
  6
CONTINUOUS
  5
AF
 10
714.0
 20
250.657992
 30
0.0
 11
713.483116
 21
246.731871
 31
0.0
  0
LINE
  8
LC-004-003-----0
  6
CONTINUOUS
  5
B0
 10
711.650529
 20
382.544
 30
0.0
 11
714.0
 21
364.697992
 31
0.0
  0
LINE
  8
LC-004-003-----0
  6
CONTINUOUS
  5
B1
 10
714.0
 20
364.697992
 30
0.0
 11
716.349471
 21
382.544
 31
0.0
  0
LINE
  8
LC-004-003-----0
  6
CONTINUOUS
  5
B2
 10
716.349471
 20
382.544
 30
0.0
 11
711.650529
 21
382.544
 31
0.0
  0
LINE
  8
LC-004-003-----0
  6
CONTINUOUS
  5
B3
 10
712.261391
 20
382.584038
 30
0.0
 11
714.0
 21
369.377992
 31
0.0
  0
LINE
  8
LC-004-003-----0
  6
CONTINUOUS
  5
B4
 10
714.0
 20
369.377992
 30
0.0
 11
715.738609
 21
382.584038
 31
0.0
  0
LINE
  8
LC-004-003-----0
  6
CONTINUOUS
  5
B5
 10
712.872254
 20
382.624076
 30
0.0
 11
714.0
 21
374.057992
 31
0.0
  0
LINE
  8
LC-004-003-----0
  6
CONTINUOUS
  5
B6
 10
714.0
 20
374.057992
 30
0.0
 11
715.127746
 21
382.624076
 31
0.0
  0
LINE
  8
LC-004-003-----0
  6
CONTINUOUS
  5
B7
 10
713.483116
 20
382.664114
 30
0.0
 11
714.0
 21
378.737992
 31
0.0
  0
LINE
  8
LC-004-003-----0
  6
CONTINUOUS
  5
B8
 10
714.0
 20
378.737992
 30
0.0
 11
714.516884
 21
382.664114
 31
0.0
  0
LINE
  8
LC-006-003-MTG-0
  6
CONTINUOUS
  5
B9
 10
714.0
 20
184.89874
 30
0.0
 11
714.0
 21
389.897992
 31
0.0
  0
TEXT
  8
LC-004-003-----0
  6
CONTINUOUS
 62
     6
  5
BA
 10
703.568001
 20
199.148789
 30
0.0
 40
18.0
  1
100
 50
90.0
 51
15.0
  7
LC-TXTSTYLE-150-400-0-0-D0
 72
     2
 11
703.568001
 21
237.416506
 31
0.0
  0
ENDBLK
  8
0
  5
BB
  0
BLOCK
  8
0
  5
BD
  2
BLK4
 70
    64
 10
0.0
 20
0.0
 30
0.0
  3
BLK4
  0
ENDBLK
  8
0
  5
BE
  0
BLOCK
  8
0
  5
C0
  2
BLK5
 70
    64
 10
0.0
 20
0.0
 30
0.0
  3
BLK5
  0
ENDBLK
  8
0
  5
C1
  0
BLOCK
  8
0
  5
C3
  2
BLK6
 70
    64
 10
0.0
 20
0.0
 30
0.0
  3
BLK6
  0
ENDBLK
  8
0
  5
C4
  0
BLOCK
  8
0
  5
C6
  2
BLK7
 70
    64
 10
0.0
 20
0.0
 30
0.0
  3
BLK7
  0
ENDBLK
  8
0
  5
C7
  0
BLOCK
  8
0
  5
C9
  2
BLK8
 70
    64
 10
0.0
 20
0.0
 30
0.0
  3
BLK8
  0
ENDBLK
  8
0
  5
CA
  0
BLOCK
  8
0
  5
CC
  2
BLK9
 70
    64
 10
0.0
 20
0.0
 30
0.0
  3
BLK9
  0
ENDBLK
  8
0
  5
CD
  0
BLOCK
  8
0
  5
CF
  2
BLK10
 70
    64
 10
0.0
 20
0.0
 30
0.0
  3
BLK10
  0
ENDBLK
  8
0
  5
D0
  0
BLOCK
  8
0
  5
D2
  2
BLK11
 70
    64
 10
0.0
 20
0.0
 30
0.0
  3
BLK11
  0
ENDBLK
  8
0
  5
D3
  0
BLOCK
  8
0
  5
D5
  2
BLK12
 70
    64
 10
0.0
 20
0.0
 30
0.0
  3
BLK12
  0
ENDBLK
  8
0
  5
D6
  0
BLOCK
  8
0
  5
D8
  2
BLK13
 70
    64
 10
0.0
 20
0.0
 30
0.0
  3
BLK13
  0
ENDBLK
  8
0
  5
D9
  0
BLOCK
  8
0
  5
DB
  2
BLK14
 70
    64
 10
0.0
 20
0.0
 30
0.0
  3
BLK14
  0
ENDBLK
  8
0
  5
DC
  0
BLOCK
  8
0
  5
DE
  2
BLK15
 70
    64
 10
0.0
 20
0.0
 30
0.0
  3
BLK15
  0
ENDBLK
  8
0
  5
DF
  0
BLOCK
  8
0
  5
E1
  2
BLK16
 70
    64
 10
0.0
 20
0.0
 30
0.0
  3
BLK16
  0
ENDBLK
  8
0
  5
E2
  0
BLOCK
  8
0
  5
E4
  2
BLK17
 70
    64
 10
0.0
 20
0.0
 30
0.0
  3
BLK17
  0
ENDBLK
  8
0
  5
E5
  0
BLOCK
  8
0
  5
E7
  2
*D21
 70
    65
 10
0.0
 20
0.0
 30
0.0
  3
*D21
  0
LINE
  8
LC-005-003-MTH-0
  6
CONTINUOUS
  5
E8
 10
386.499489
 20
362.197992
 30
0.0
 11
386.499489
 21
568.8
 31
0.0
  0
LINE
  8
LC-005-003-MTH-0
  6
CONTINUOUS
  5
E9
 10
666.499489
 20
362.197992
 30
0.0
 11
666.499489
 21
568.8
 31
0.0
  0
LINE
  8
LC-006-003-MTG-0
  6
CONTINUOUS
  5
EA
 10
386.499489
 20
558.0
 30
0.0
 11
666.499489
 21
558.0
 31
0.0
  0
LINE
  8
LC-004-003-----0
  6
CONTINUOUS
  5
EB
 10
404.345497
 20
560.349471
 30
0.0
 11
386.499489
 21
558.0
 31
0.0
  0
LINE
  8
LC-004-003-----0
  6
CONTINUOUS
  5
EC
 10
386.499489
 20
558.0
 30
0.0
 11
404.345497
 21
555.650529
 31
0.0
  0
LINE
  8
LC-004-003-----0
  6
CONTINUOUS
  5
ED
 10
404.345497
 20
555.650529
 30
0.0
 11
404.345497
 21
560.349471
 31
0.0
  0
LINE
  8
LC-004-003-----0
  6
CONTINUOUS
  5
EE
 10
404.385535
 20
559.738609
 30
0.0
 11
391.179489
 21
558.0
 31
0.0
  0
LINE
  8
LC-004-003-----0
  6
CONTINUOUS
  5
EF
 10
391.179489
 20
558.0
 30
0.0
 11
404.385535
 21
556.261391
 31
0.0
  0
LINE
  8
LC-004-003-----0
  6
CONTINUOUS
  5
F0
 10
404.425573
 20
559.127746
 30
0.0
 11
395.859489
 21
558.0
 31
0.0
  0
LINE
  8
LC-004-003-----0
  6
CONTINUOUS
  5
F1
 10
395.859489
 20
558.0
 30
0.0
 11
404.425573
 21
556.872254
 31
0.0
  0
LINE
  8
LC-004-003-----0
  6
CONTINUOUS
  5
F2
 10
404.465611
 20
558.516884
 30
0.0
 11
400.539489
 21
558.0
 31
0.0
  0
LINE
  8
LC-004-003-----0
  6
CONTINUOUS
  5
F3
 10
400.539489
 20
558.0
 30
0.0
 11
404.465611
 21
557.483116
 31
0.0
  0
LINE
  8
LC-004-003-----0
  6
CONTINUOUS
  5
F4
 10
648.653482
 20
555.650529
 30
0.0
 11
666.499489
 21
558.0
 31
0.0
  0
LINE
  8
LC-004-003-----0
  6
CONTINUOUS
  5
F5
 10
666.499489
 20
558.0
 30
0.0
 11
648.653482
 21
560.349471
 31
0.0
  0
LINE
  8
LC-004-003-----0
  6
CONTINUOUS
  5
F6
 10
648.653482
 20
560.349471
 30
0.0
 11
648.653482
 21
555.650529
 31
0.0
  0
LINE
  8
LC-004-003-----0
  6
CONTINUOUS
  5
F7
 10
648.613444
 20
556.261391
 30
0.0
 11
661.819489
 21
558.0
 31
0.0
  0
LINE
  8
LC-004-003-----0
  6
CONTINUOUS
  5
F8
 10
661.819489
 20
558.0
 30
0.0
 11
648.613444
 21
559.738609
 31
0.0
  0
LINE
  8
LC-004-003-----0
  6
CONTINUOUS
  5
F9
 10
648.573406
 20
556.872254
 30
0.0
 11
657.139489
 21
558.0
 31
0.0
  0
LINE
  8
LC-004-003-----0
  6
CONTINUOUS
  5
FA
 10
657.139489
 20
558.0
 30
0.0
 11
648.573406
 21
559.127746
 31
0.0
  0
LINE
  8
LC-004-003-----0
  6
CONTINUOUS
  5
FB
 10
648.533367
 20
557.483116
 30
0.0
 11
652.459489
 21
558.0
 31
0.0
  0
LINE
  8
LC-004-003-----0
  6
CONTINUOUS
  5
FC
 10
652.459489
 20
558.0
 30
0.0
 11
648.533367
 21
558.516884
 31
0.0
  0
TEXT
  8
LC-004-003-----0
  6
CONTINUOUS
 62
     6
  5
FD
 10
490.72616
 20
568.431999
 30
0.0
 40
18.0
  1
280
 51
15.0
  7
LC-TXTSTYLE-150-400-0-0-D0
 72
     1
 11
509.860018
 21
568.431999
 31
0.0
  0
ENDBLK
  8
0
  5
FE
  0
BLOCK
  8
0
  5
100
  2
*X22
 70
    65
 10
760.594274
 20
367.906777
 30
0.0
  3
*X22
  0
LINE
  8
LC-010-005-----0
  6
CONTINUOUS
  5
102
 10
762.369135
 20
371.830401
 30
0.0
 11
766.135394
 21
368.064147
 31
0.0
  0
LINE
  8
LC-010-005-----0
  6
CONTINUOUS
  5
103
 10
764.229699
 20
372.798265
 30
0.0
 11
768.672504
 21
368.355466
 31
0.0
  0
LINE
  8
LC-010-005-----0
  6
CONTINUOUS
  5
104
 10
766.114216
 20
373.742176
 30
0.0
 11
769.929674
 21
369.926722
 31
0.0
  0
ENDBLK
  8
0
  5
105
  0
BLOCK
  8
0
  5
107
  2
*X23
 70
    65
 10
760.59282
 20
472.907883
 30
0.0
  3
*X23
  0
LINE
  8
LC-010-005-----0
  6
CONTINUOUS
  5
108
 10
762.139117
 20
476.712153
 30
0.0
 11
765.492586
 21
473.358689
 31
0.0
  0
LINE
  8
LC-010-005-----0
  6
CONTINUOUS
  5
109
 10
763.999525
 20
477.680173
 30
0.0
 11
768.448192
 21
473.231511
 31
0.0
  0
LINE
  8
LC-010-005-----0
  6
CONTINUOUS
  5
10A
 10
765.863624
 20
478.644501
 30
0.0
 11
769.829439
 21
474.678691
 31
0.0
  0
ENDBLK
  8
0
  5
10B
  0
BLOCK
  8
0
  5
10D
  2
*D24
 70
    65
 10
0.0
 20
0.0
 30
0.0
  3
*D24
  0
LINE
  8
LC-005-003-MTH-0
  6
CONTINUOUS
  5
10E
 10
87.929273
 20
313.70022
 30
0.0
 11
87.929273
 21
388.8
 31
0.0
  0
LINE
  8
LC-005-003-MTH-0
  6
CONTINUOUS
  5
10F
 10
140.931425
 20
358.456078
 30
0.0
 11
140.931425
 21
388.8
 31
0.0
  0
LINE
  8
LC-006-003-MTG-0
  6
CONTINUOUS
  5
110
 10
87.929273
 20
378.0
 30
0.0
 11
140.931425
 21
378.0
 31
0.0
  0
LINE
  8
LC-004-003-----0
  6
CONTINUOUS
  5
111
 10
105.77528
 20
380.349471
 30
0.0
 11
87.929273
 21
378.0
 31
0.0
  0
LINE
  8
LC-004-003-----0
  6
CONTINUOUS
  5
112
 10
87.929273
 20
378.0
 30
0.0
 11
105.77528
 21
375.650529
 31
0.0
  0
LINE
  8
LC-004-003-----0
  6
CONTINUOUS
  5
113
 10
105.77528
 20
375.650529
 30
0.0
 11
105.77528
 21
380.349471
 31
0.0
  0
LINE
  8
LC-004-003-----0
  6
CONTINUOUS
  5
114
 10
105.815318
 20
379.738609
 30
0.0
 11
92.609273
 21
378.0
 31
0.0
  0
LINE
  8
LC-004-003-----0
  6
CONTINUOUS
  5
115
 10
92.609273
 20
378.0
 30
0.0
 11
105.815318
 21
376.261391
 31
0.0
  0
LINE
  8
LC-004-003-----0
  6
CONTINUOUS
  5
116
 10
105.855356
 20
379.127746
 30
0.0
 11
97.289273
 21
378.0
 31
0.0
  0
LINE
  8
LC-004-003-----0
  6
CONTINUOUS
  5
117
 10
97.289273
 20
378.0
 30
0.0
 11
105.855356
 21
376.872254
 31
0.0
  0
LINE
  8
LC-004-003-----0
  6
CONTINUOUS
  5
118
 10
105.895394
 20
378.516884
 30
0.0
 11
101.969273
 21
378.0
 31
0.0
  0
LINE
  8
LC-004-003-----0
  6
CONTINUOUS
  5
119
 10
101.969273
 20
378.0
 30
0.0
 11
105.895394
 21
377.483116
 31
0.0
  0
LINE
  8
LC-004-003-----0
  6
CONTINUOUS
  5
11A
 10
123.085418
 20
375.650529
 30
0.0
 11
140.931425
 21
378.0
 31
0.0
  0
LINE
  8
LC-004-003-----0
  6
CONTINUOUS
  5
11B
 10
140.931425
 20
378.0
 30
0.0
 11
123.085418
 21
380.349471
 31
0.0
  0
LINE
  8
LC-004-003-----0
  6
CONTINUOUS
  5
11C
 10
123.085418
 20
380.349471
 30
0.0
 11
123.085418
 21
375.650529
 31
0.0
  0
LINE
  8
LC-004-003-----0
  6
CONTINUOUS
  5
11D
 10
123.045379
 20
376.261391
 30
0.0
 11
136.251425
 21
378.0
 31
0.0
  0
LINE
  8
LC-004-003-----0
  6
CONTINUOUS
  5
11E
 10
136.251425
 20
378.0
 30
0.0
 11
123.045379
 21
379.738609
 31
0.0
  0
LINE
  8
LC-004-003-----0
  6
CONTINUOUS
  5
11F
 10
123.005341
 20
376.872254
 30
0.0
 11
131.571425
 21
378.0
 31
0.0
  0
LINE
  8
LC-004-003-----0
  6
CONTINUOUS
  5
120
 10
131.571425
 20
378.0
 30
0.0
 11
123.005341
 21
379.127746
 31
0.0
  0
LINE
  8
LC-004-003-----0
  6
CONTINUOUS
  5
121
 10
122.965303
 20
377.483116
 30
0.0
 11
126.891425
 21
378.0
 31
0.0
  0
LINE
  8
LC-004-003-----0
  6
CONTINUOUS
  5
122
 10
126.891425
 20
378.0
 30
0.0
 11
122.965303
 21
378.516884
 31
0.0
  0
TEXT
  8
LC-004-003-----0
  6
CONTINUOUS
 62
     6
  5
123
 10
105.362602
 20
388.431999
 30
0.0
 40
18.0
  1
55
 51
15.0
  7
LC-TXTSTYLE-150-400-0-0-D0
 72
     1
 11
117.225594
 21
388.431999
 31
0.0
  0
ENDBLK
  8
0
  5
124
  0
BLOCK
  8
0
  5
126
  2
BLK18
 70
    64
 10
0.0
 20
0.0
 30
0.0
  3
BLK18
  0
ARC
  8
LC-002-002-----0
  6
CONTINUOUS
  5
127
 10
518.796105
 20
337.651936
 30
0.0
 40
3.207986
 50
0.822609
 51
39.628027
  0
ARC
  8
LC-002-002-----0
  6
CONTINUOUS
  5
128
 10
517.388572
 20
336.481376
 30
0.0
 40
5.038655
 50
39.671711
 51
68.273542
  0
ARC
  8
LC-002-002-----0
  6
CONTINUOUS
  5
129
 10
516.537256
 20
334.546019
 30
0.0
 40
7.152052
 50
67.677361
 51
90.268336
  0
ARC
  8
LC-002-002-----0
  6
CONTINUOUS
  5
12A
 10
516.470265
 20
334.546019
 30
0.0
 40
7.152052
 50
89.731664
 51
112.322639
  0
ARC
  8
LC-002-002-----0
  6
CONTINUOUS
  5
12B
 10
515.618948
 20
336.481376
 30
0.0
 40
5.038655
 50
111.726458
 51
140.328289
  0
ARC
  8
LC-002-002-----0
  6
CONTINUOUS
  5
12C
 10
514.211416
 20
337.651936
 30
0.0
 40
3.207986
 50
140.371973
 51
179.177391
  0
ARC
  8
LC-002-002-----0
  6
CONTINUOUS
  5
12D
 10
514.211416
 20
337.744048
 30
0.0
 40
3.207986
 50
180.822609
 51
219.628027
  0
ARC
  8
LC-002-002-----0
  6
CONTINUOUS
  5
12E
 10
515.618948
 20
338.914609
 30
0.0
 40
5.038655
 50
219.671711
 51
248.273542
  0
ARC
  8
LC-002-002-----0
  6
CONTINUOUS
  5
12F
 10
516.470265
 20
340.849966
 30
0.0
 40
7.152052
 50
247.677361
 51
270.268336
  0
ARC
  8
LC-002-002-----0
  6
CONTINUOUS
  5
130
 10
516.537256
 20
340.849966
 30
0.0
 40
7.152052
 50
269.731664
 51
292.322639
  0
ARC
  8
LC-002-002-----0
  6
CONTINUOUS
  5
131
 10
517.388572
 20
338.914609
 30
0.0
 40
5.038655
 50
291.726458
 51
320.328289
  0
ARC
  8
LC-002-002-----0
  6
CONTINUOUS
  5
132
 10
518.796105
 20
337.744048
 30
0.0
 40
3.207986
 50
320.371973
 51
359.177391
  0
ENDBLK
  8
0
  5
133
  0
BLOCK
  8
0
  5
135
  2
BLK19
 70
    64
 10
0.0
 20
0.0
 30
0.0
  3
BLK19
  0
ARC
  8
LC-002-002-----0
  6
CONTINUOUS
  5
136
 10
498.035207
 20
333.213915
 30
0.0
 40
7.152052
 50
314.731664
 51
337.322639
  0
ARC
  8
LC-002-002-----0
  6
CONTINUOUS
  5
137
 10
500.005683
 20
332.447382
 30
0.0
 40
5.038655
 50
336.726458
 51
5.328289
  0
ARC
  8
LC-002-002-----0
  6
CONTINUOUS
  5
138
 10
501.82867
 20
332.614947
 30
0.0
 40
3.207986
 50
5.371973
 51
44.177391
  0
ARC
  8
LC-002-002-----0
  6
CONTINUOUS
  5
139
 10
501.893803
 20
332.549814
 30
0.0
 40
3.207986
 50
45.822609
 51
84.628027
  0
ARC
  8
LC-002-002-----0
  6
CONTINUOUS
  5
13A
 10
501.726239
 20
330.726827
 30
0.0
 40
5.038655
 50
84.671711
 51
113.273542
  0
ARC
  8
LC-002-002-----0
  6
CONTINUOUS
  5
13B
 10
502.492771
 20
328.756351
 30
0.0
 40
7.152052
 50
112.677361
 51
135.268336
  0
ARC
  8
LC-002-002-----0
  6
CONTINUOUS
  5
13C
 10
502.445401
 20
328.708981
 30
0.0
 40
7.152052
 50
134.731664
 51
157.322639
  0
ARC
  8
LC-002-002-----0
  6
CONTINUOUS
  5
13D
 10
500.474926
 20
329.475514
 30
0.0
 40
5.038655
 50
156.726458
 51
185.328289
  0
ARC
  8
LC-002-002-----0
  6
CONTINUOUS
  5
13E
 10
498.651939
 20
329.307949
 30
0.0
 40
3.207986
 50
185.371973
 51
224.177391
  0
ARC
  8
LC-002-002-----0
  6
CONTINUOUS
  5
13F
 10
498.586805
 20
329.373083
 30
0.0
 40
3.207986
 50
225.822609
 51
264.628027
  0
ARC
  8
LC-002-002-----0
  6
CONTINUOUS
  5
140
 10
498.75437
 20
331.196069
 30
0.0
 40
5.038655
 50
264.671711
 51
293.273542
  0
ARC
  8
LC-002-002-----0
  6
CONTINUOUS
  5
141
 10
497.987838
 20
333.166545
 30
0.0
 40
7.152052
 50
292.677361
 51
315.268336
  0
ENDBLK
  8
0
  5
142
  0
BLOCK
  8
0
  5
144
  2
BLK20
 70
    64
 10
0.0
 20
0.0
 30
0.0
  3
BLK20
  0
ARC
  8
LC-002-002-----0
  6
CONTINUOUS
  5
145
 10
490.351787
 20
314.731488
 30
0.0
 40
7.152052
 50
359.731664
 51
22.322639
  0
ARC
  8
LC-002-002-----0
  6
CONTINUOUS
  5
146
 10
492.287144
 20
315.582804
 30
0.0
 40
5.038655
 50
21.726458
 51
50.328289
  0
ARC
  8
LC-002-002-----0
  6
CONTINUOUS
  5
147
 10
493.457704
 20
316.990337
 30
0.0
 40
3.207986
 50
50.371973
 51
89.177391
  0
ARC
  8
LC-002-002-----0
  6
CONTINUOUS
  5
148
 10
493.549817
 20
316.990337
 30
0.0
 40
3.207986
 50
90.822609
 51
129.628027
  0
ARC
  8
LC-002-002-----0
  6
CONTINUOUS
  5
149
 10
494.720377
 20
315.582804
 30
0.0
 40
5.038655
 50
129.671711
 51
158.273542
  0
ARC
  8
LC-002-002-----0
  6
CONTINUOUS
  5
14A
 10
496.655734
 20
314.731488
 30
0.0
 40
7.152052
 50
157.677361
 51
180.268336
  0
ARC
  8
LC-002-002-----0
  6
CONTINUOUS
  5
14B
 10
496.655734
 20
314.664497
 30
0.0
 40
7.152052
 50
179.731664
 51
202.322639
  0
ARC
  8
LC-002-002-----0
  6
CONTINUOUS
  5
14C
 10
494.720377
 20
313.81318
 30
0.0
 40
5.038655
 50
201.726458
 51
230.328289
  0
ARC
  8
LC-002-002-----0
  6
CONTINUOUS
  5
14D
 10
493.549817
 20
312.405648
 30
0.0
 40
3.207986
 50
230.371973
 51
269.177391
  0
ARC
  8
LC-002-002-----0
  6
CONTINUOUS
  5
14E
 10
493.457704
 20
312.405648
 30
0.0
 40
3.207986
 50
270.822609
 51
309.628027
  0
ARC
  8
LC-002-002-----0
  6
CONTINUOUS
  5
14F
 10
492.287144
 20
313.81318
 30
0.0
 40
5.038655
 50
309.671711
 51
338.273542
  0
ARC
  8
LC-002-002-----0
  6
CONTINUOUS
  5
150
 10
490.351787
 20
314.664497
 30
0.0
 40
7.152052
 50
337.677361
 51
0.268336
  0
ENDBLK
  8
0
  5
151
  0
BLOCK
  8
0
  5
153
  2
BLK21
 70
    64
 10
0.0
 20
0.0
 30
0.0
  3
BLK21
  0
ARC
  8
LC-002-002-----0
  6
CONTINUOUS
  5
154
 10
497.902821
 20
296.087709
 30
0.0
 40
7.313452
 50
25.15134
 51
49.323543
  0
ARC
  8
LC-002-002-----0
  6
CONTINUOUS
  5
155
 10
498.19638
 20
296.555271
 30
0.0
 40
6.768012
 50
48.628367
 51
74.096828
  0
ARC
  8
LC-002-002-----0
  6
CONTINUOUS
  5
156
 10
498.817754
 20
298.935325
 30
0.0
 40
4.309134
 50
73.37119
 51
107.920459
  0
ARC
  8
LC-002-002-----0
  6
CONTINUOUS
  5
157
 10
498.453841
 20
300.225375
 30
0.0
 40
2.970129
 50
108.89828
 51
153.36718
  0
ARC
  8
LC-002-002-----0
  6
CONTINUOUS
  5
158
 10
499.358272
 20
299.883876
 30
0.0
 40
3.932957
 50
154.826556
 51
191.580497
  0
ARC
  8
LC-002-002-----0
  6
CONTINUOUS
  5
159
 10
501.782664
 20
300.307627
 30
0.0
 40
6.393463
 50
190.9392
 51
217.404387
  0
ARC
  8
LC-002-002-----0
  6
CONTINUOUS
  5
15A
 10
502.678439
 20
300.876665
 30
0.0
 40
7.451262
 50
216.696168
 51
240.566258
  0
ARC
  8
LC-002-002-----0
  6
CONTINUOUS
  5
15B
 10
501.84697
 20
299.254554
 30
0.0
 40
5.630401
 50
239.823515
 51
268.658667
  0
ARC
  8
LC-002-002-----0
  6
CONTINUOUS
  5
15C
 10
501.812193
 20
297.024492
 30
0.0
 40
3.400181
 50
268.364878
 51
308.931605
  0
ARC
  8
LC-002-002-----0
  6
CONTINUOUS
  5
15D
 10
501.887347
 20
296.755265
 30
0.0
 40
3.145473
 50
310.948784
 51
353.717819
  0
ENDBLK
  8
0
  5
15E
  0
BLOCK
  8
0
  5
160
  2
BLK22
 70
    64
 10
0.0
 20
0.0
 30
0.0
  3
BLK22
  0
ARC
  8
LC-002-002-----0
  6
CONTINUOUS
  5
161
 10
531.111953
 20
296.750365
 30
0.0
 40
3.13613
 50
186.71253
 51
229.472744
  0
ARC
  8
LC-002-002-----0
  6
CONTINUOUS
  5
162
 10
531.198894
 20
297.035036
 30
0.0
 40
3.411075
 50
231.470282
 51
271.859183
  0
ARC
  8
LC-002-002-----0
  6
CONTINUOUS
  5
163
 10
531.156274
 20
299.268571
 30
0.0
 40
5.644896
 50
271.556044
 51
300.277939
  0
ARC
  8
LC-002-002-----0
  6
CONTINUOUS
  5
164
 10
530.327651
 20
300.878083
 30
0.0
 40
7.453259
 50
299.540566
 51
323.354141
  0
ARC
  8
LC-002-002-----0
  6
CONTINUOUS
  5
165
 10
531.22708
 20
300.306825
 30
0.0
 40
6.391129
 50
322.650414
 51
349.064079
  0
ARC
  8
LC-002-002-----0
  6
CONTINUOUS
  5
166
 10
533.647015
 20
299.883836
 30
0.0
 40
3.935138
 50
348.426606
 51
25.085455
  0
ARC
  8
LC-002-002-----0
  6
CONTINUOUS
  5
167
 10
534.554406
 20
300.225956
 30
0.0
 40
2.96923
 50
26.53007
 51
70.909036
  0
ARC
  8
LC-002-002-----0
  6
CONTINUOUS
  5
168
 10
534.190258
 20
298.948212
 30
0.0
 40
4.296434
 50
71.893121
 51
106.435033
  0
ARC
  8
LC-002-002-----0
  6
CONTINUOUS
  5
169
 10
534.803799
 20
296.56876
 30
0.0
 40
6.752784
 50
105.716011
 51
131.1673
  0
ARC
  8
LC-002-002-----0
  6
CONTINUOUS
  5
16A
 10
535.113111
 20
296.080839
 30
0.0
 40
7.324227
 50
130.476279
 51
154.571679
  0
ENDBLK
  8
0
  5
16B
  0
BLOCK
  8
0
  5
16D
  2
BLK23
 70
    64
 10
0.0
 20
0.0
 30
0.0
  3
BLK23
  0
ARC
  8
LC-002-002-----0
  6
CONTINUOUS
  5
16E
 10
536.351787
 20
314.731488
 30
0.0
 40
7.152052
 50
359.731664
 51
22.322639
  0
ARC
  8
LC-002-002-----0
  6
CONTINUOUS
  5
16F
 10
538.287144
 20
315.582804
 30
0.0
 40
5.038655
 50
21.726458
 51
50.328289
  0
ARC
  8
LC-002-002-----0
  6
CONTINUOUS
  5
170
 10
539.457704
 20
316.990337
 30
0.0
 40
3.207986
 50
50.371973
 51
89.177391
  0
ARC
  8
LC-002-002-----0
  6
CONTINUOUS
  5
171
 10
539.549817
 20
316.990337
 30
0.0
 40
3.207986
 50
90.822609
 51
129.628027
  0
ARC
  8
LC-002-002-----0
  6
CONTINUOUS
  5
172
 10
540.720377
 20
315.582804
 30
0.0
 40
5.038655
 50
129.671711
 51
158.273542
  0
ARC
  8
LC-002-002-----0
  6
CONTINUOUS
  5
173
 10
542.655734
 20
314.731488
 30
0.0
 40
7.152052
 50
157.677361
 51
180.268336
  0
ARC
  8
LC-002-002-----0
  6
CONTINUOUS
  5
174
 10
542.655734
 20
314.664497
 30
0.0
 40
7.152052
 50
179.731664
 51
202.322639
  0
ARC
  8
LC-002-002-----0
  6
CONTINUOUS
  5
175
 10
540.720377
 20
313.81318
 30
0.0
 40
5.038655
 50
201.726458
 51
230.328289
  0
ARC
  8
LC-002-002-----0
  6
CONTINUOUS
  5
176
 10
539.549817
 20
312.405648
 30
0.0
 40
3.207986
 50
230.371973
 51
269.177391
  0
ARC
  8
LC-002-002-----0
  6
CONTINUOUS
  5
177
 10
539.457704
 20
312.405648
 30
0.0
 40
3.207986
 50
270.822609
 51
309.628027
  0
ARC
  8
LC-002-002-----0
  6
CONTINUOUS
  5
178
 10
538.287144
 20
313.81318
 30
0.0
 40
5.038655
 50
309.671711
 51
338.273542
  0
ARC
  8
LC-002-002-----0
  6
CONTINUOUS
  5
179
 10
536.351787
 20
314.664497
 30
0.0
 40
7.152052
 50
337.677361
 51
0.268336
  0
ENDBLK
  8
0
  5
17A
  0
BLOCK
  8
0
  5
17C
  2
BLK24
 70
    64
 10
0.0
 20
0.0
 30
0.0
  3
BLK24
  0
ARC
  8
LC-002-002-----0
  6
CONTINUOUS
  5
17D
 10
534.355582
 20
329.307949
 30
0.0
 40
3.207986
 50
315.822609
 51
354.628027
  0
ARC
  8
LC-002-002-----0
  6
CONTINUOUS
  5
17E
 10
532.532595
 20
329.475514
 30
0.0
 40
5.038655
 50
354.671711
 51
23.273542
  0
ARC
  8
LC-002-002-----0
  6
CONTINUOUS
  5
17F
 10
530.562119
 20
328.708981
 30
0.0
 40
7.152052
 50
22.677361
 51
45.268336
  0
ARC
  8
LC-002-002-----0
  6
CONTINUOUS
  5
180
 10
530.51475
 20
328.756351
 30
0.0
 40
7.152052
 50
44.731664
 51
67.322639
  0
ARC
  8
LC-002-002-----0
  6
CONTINUOUS
  5
181
 10
531.281282
 20
330.726827
 30
0.0
 40
5.038655
 50
66.726458
 51
95.328289
  0
ARC
  8
LC-002-002-----0
  6
CONTINUOUS
  5
182
 10
531.113717
 20
332.549814
 30
0.0
 40
3.207986
 50
95.371973
 51
134.177391
  0
ARC
  8
LC-002-002-----0
  6
CONTINUOUS
  5
183
 10
531.178851
 20
332.614947
 30
0.0
 40
3.207986
 50
135.822609
 51
174.628027
  0
ARC
  8
LC-002-002-----0
  6
CONTINUOUS
  5
184
 10
533.001838
 20
332.447382
 30
0.0
 40
5.038655
 50
174.671711
 51
203.273542
  0
ARC
  8
LC-002-002-----0
  6
CONTINUOUS
  5
185
 10
534.972313
 20
333.213915
 30
0.0
 40
7.152052
 50
202.677361
 51
225.268336
  0
ARC
  8
LC-002-002-----0
  6
CONTINUOUS
  5
186
 10
535.019683
 20
333.166545
 30
0.0
 40
7.152052
 50
224.731664
 51
247.322639
  0
ARC
  8
LC-002-002-----0
  6
CONTINUOUS
  5
187
 10
534.253151
 20
331.196069
 30
0.0
 40
5.038655
 50
246.726458
 51
275.328289
  0
ARC
  8
LC-002-002-----0
  6
CONTINUOUS
  5
188
 10
534.420715
 20
329.373083
 30
0.0
 40
3.207986
 50
275.371973
 51
314.177391
  0
ENDBLK
  8
0
  5
189
  0
BLOCK
  8
0
  5
18B
  2
BLK25
 70
    64
 10
0.0
 20
0.0
 30
0.0
  3
BLK25
  0
ENDBLK
  8
0
  5
18C
  0
BLOCK
  8
0
  5
18E
  2
*X33
 70
    65
 10
436.504751
 20
473.950042
 30
0.0
  3
*X33
  0
LINE
  8
LC-010-005-----0
  6
CONTINUOUS
  5
18F
 10
436.588582
 20
476.993353
 30
0.0
 11
436.770386
 21
476.811549
 31
0.0
  0
LINE
  8
LC-010-005-----0
  6
CONTINUOUS
  5
190
 10
438.44899
 20
477.961372
 30
0.0
 11
442.398412
 21
474.011956
 31
0.0
  0
LINE
  8
LC-010-005-----0
  6
CONTINUOUS
  5
191
 10
440.309398
 20
478.929391
 30
0.0
 11
444.737646
 21
474.501149
 31
0.0
  0
LINE
  8
LC-010-005-----0
  6
CONTINUOUS
  5
192
 10
442.221285
 20
479.845932
 30
0.0
 11
445.900643
 21
476.16658
 31
0.0
  0
ENDBLK
  8
0
  5
193
  0
BLOCK
  8
0
  5
195
  2
BLK26
 70
    64
 10
0.0
 20
0.0
 30
0.0
  3
BLK26
  0
ENDBLK
  8
0
  5
196
  0
BLOCK
  8
0
  5
198
  2
*D35
 70
    65
 10
0.0
 20
0.0
 30
0.0
  3
*D35
  0
LINE
  8
LC-005-003-MTH-0
  6
CONTINUOUS
  5
199
 10
492.437311
 20
121.697992
 30
0.0
 11
349.2
 21
121.697992
 31
0.0
  0
LINE
  8
LC-005-003-MTH-0
  6
CONTINUOUS
  5
19A
 10
297.359489
 20
314.697992
 30
0.0
 11
370.8
 21
314.697992
 31
0.0
  0
LINE
  8
LC-006-003-MTG-0
  6
CONTINUOUS
  5
19B
 10
360.0
 20
121.697992
 30
0.0
 11
360.0
 21
314.697992
 31
0.0
  0
LINE
  8
LC-004-003-----0
  6
CONTINUOUS
  5
19C
 10
357.650529
 20
139.544
 30
0.0
 11
360.0
 21
121.697992
 31
0.0
  0
LINE
  8
LC-004-003-----0
  6
CONTINUOUS
  5
19D
 10
360.0
 20
121.697992
 30
0.0
 11
362.349471
 21
139.544
 31
0.0
  0
LINE
  8
LC-004-003-----0
  6
CONTINUOUS
  5
19E
 10
362.349471
 20
139.544
 30
0.0
 11
357.650529
 21
139.544
 31
0.0
  0
LINE
  8
LC-004-003-----0
  6
CONTINUOUS
  5
19F
 10
358.261391
 20
139.584038
 30
0.0
 11
360.0
 21
126.377992
 31
0.0
  0
LINE
  8
LC-004-003-----0
  6
CONTINUOUS
  5
1A0
 10
360.0
 20
126.377992
 30
0.0
 11
361.738609
 21
139.584038
 31
0.0
  0
LINE
  8
LC-004-003-----0
  6
CONTINUOUS
  5
1A1
 10
358.872254
 20
139.624076
 30
0.0
 11
360.0
 21
131.057992
 31
0.0
  0
LINE
  8
LC-004-003-----0
  6
CONTINUOUS
  5
1A2
 10
360.0
 20
131.057992
 30
0.0
 11
361.127746
 21
139.624076
 31
0.0
  0
LINE
  8
LC-004-003-----0
  6
CONTINUOUS
  5
1A3
 10
359.483116
 20
139.664114
 30
0.0
 11
360.0
 21
135.737992
 31
0.0
  0
LINE
  8
LC-004-003-----0
  6
CONTINUOUS
  5
1A4
 10
360.0
 20
135.737992
 30
0.0
 11
360.516884
 21
139.664114
 31
0.0
  0
LINE
  8
LC-004-003-----0
  6
CONTINUOUS
  5
1A5
 10
362.349471
 20
296.851985
 30
0.0
 11
360.0
 21
314.697992
 31
0.0
  0
LINE
  8
LC-004-003-----0
  6
CONTINUOUS
  5
1A6
 10
360.0
 20
314.697992
 30
0.0
 11
357.650529
 21
296.851985
 31
0.0
  0
LINE
  8
LC-004-003-----0
  6
CONTINUOUS
  5
1A7
 10
357.650529
 20
296.851985
 30
0.0
 11
362.349471
 21
296.851985
 31
0.0
  0
LINE
  8
LC-004-003-----0
  6
CONTINUOUS
  5
1A8
 10
361.738609
 20
296.811947
 30
0.0
 11
360.0
 21
310.017992
 31
0.0
  0
LINE
  8
LC-004-003-----0
  6
CONTINUOUS
  5
1A9
 10
360.0
 20
310.017992
 30
0.0
 11
358.261391
 21
296.811947
 31
0.0
  0
LINE
  8
LC-004-003-----0
  6
CONTINUOUS
  5
1AA
 10
361.127746
 20
296.771909
 30
0.0
 11
360.0
 21
305.337992
 31
0.0
  0
LINE
  8
LC-004-003-----0
  6
CONTINUOUS
  5
1AB
 10
360.0
 20
305.337992
 30
0.0
 11
358.872254
 21
296.771909
 31
0.0
  0
LINE
  8
LC-004-003-----0
  6
CONTINUOUS
  5
1AC
 10
360.516884
 20
296.731871
 30
0.0
 11
360.0
 21
300.657992
 31
0.0
  0
LINE
  8
LC-004-003-----0
  6
CONTINUOUS
  5
1AD
 10
360.0
 20
300.657992
 30
0.0
 11
359.483116
 21
296.731871
 31
0.0
  0
TEXT
  8
LC-004-003-----0
  6
CONTINUOUS
 62
     6
  5
1AE
 10
349.568001
 20
201.85938
 30
0.0
 40
18.0
  1
193
 50
90.0
 51
15.0
  7
LC-TXTSTYLE-150-400-0-0-D0
 72
     1
 11
349.568001
 21
220.993238
 31
0.0
  0
ENDBLK
  8
0
  5
1AF
  0
BLOCK
  8
0
  5
1B1
  2
BLK27
 70
    64
 10
0.0
 20
0.0
 30
0.0
  3
BLK27
  0
ENDBLK
  8
0
  5
1B2
  0
BLOCK
  8
0
  5
1B4
  2
*D37
 70
    65
 10
0.0
 20
0.0
 30
0.0
  3
*D37
  0
LINE
  8
LC-005-003-MTH-0
  6
CONTINUOUS
  5
1B5
 10
386.499489
 20
362.197992
 30
0.0
 11
386.499489
 21
500.8
 31
0.0
  0
LINE
  8
LC-005-003-MTH-0
  6
CONTINUOUS
  5
1B6
 10
516.50376
 20
372.197992
 30
0.0
 11
516.50376
 21
500.8
 31
0.0
  0
LINE
  8
LC-006-003-MTG-0
  6
CONTINUOUS
  5
1B7
 10
386.499489
 20
490.0
 30
0.0
 11
516.50376
 21
490.0
 31
0.0
  0
LINE
  8
LC-004-003-----0
  6
CONTINUOUS
  5
1B8
 10
404.345497
 20
492.349471
 30
0.0
 11
386.499489
 21
490.0
 31
0.0
  0
LINE
  8
LC-004-003-----0
  6
CONTINUOUS
  5
1B9
 10
386.499489
 20
490.0
 30
0.0
 11
404.345497
 21
487.650529
 31
0.0
  0
LINE
  8
LC-004-003-----0
  6
CONTINUOUS
  5
1BA
 10
404.345497
 20
487.650529
 30
0.0
 11
404.345497
 21
492.349471
 31
0.0
  0
LINE
  8
LC-004-003-----0
  6
CONTINUOUS
  5
1BB
 10
404.385535
 20
491.738609
 30
0.0
 11
391.179489
 21
490.0
 31
0.0
  0
LINE
  8
LC-004-003-----0
  6
CONTINUOUS
  5
1BC
 10
391.179489
 20
490.0
 30
0.0
 11
404.385535
 21
488.261391
 31
0.0
  0
LINE
  8
LC-004-003-----0
  6
CONTINUOUS
  5
1BD
 10
404.425573
 20
491.127746
 30
0.0
 11
395.859489
 21
490.0
 31
0.0
  0
LINE
  8
LC-004-003-----0
  6
CONTINUOUS
  5
1BE
 10
395.859489
 20
490.0
 30
0.0
 11
404.425573
 21
488.872254
 31
0.0
  0
LINE
  8
LC-004-003-----0
  6
CONTINUOUS
  5
1BF
 10
404.465611
 20
490.516884
 30
0.0
 11
400.539489
 21
490.0
 31
0.0
  0
LINE
  8
LC-004-003-----0
  6
CONTINUOUS
  5
1C0
 10
400.539489
 20
490.0
 30
0.0
 11
404.465611
 21
489.483116
 31
0.0
  0
LINE
  8
LC-004-003-----0
  6
CONTINUOUS
  5
1C1
 10
498.657753
 20
487.650529
 30
0.0
 11
516.50376
 21
490.0
 31
0.0
  0
LINE
  8
LC-004-003-----0
  6
CONTINUOUS
  5
1C2
 10
516.50376
 20
490.0
 30
0.0
 11
498.657753
 21
492.349471
 31
0.0
  0
LINE
  8
LC-004-003-----0
  6
CONTINUOUS
  5
1C3
 10
498.657753
 20
492.349471
 30
0.0
 11
498.657753
 21
487.650529
 31
0.0
  0
LINE
  8
LC-004-003-----0
  6
CONTINUOUS
  5
1C4
 10
498.617715
 20
488.261391
 30
0.0
 11
511.82376
 21
490.0
 31
0.0
  0
LINE
  8
LC-004-003-----0
  6
CONTINUOUS
  5
1C5
 10
511.82376
 20
490.0
 30
0.0
 11
498.617715
 21
491.738609
 31
0.0
  0
LINE
  8
LC-004-003-----0
  6
CONTINUOUS
  5
1C6
 10
498.577677
 20
488.872254
 30
0.0
 11
507.14376
 21
490.0
 31
0.0
  0
LINE
  8
LC-004-003-----0
  6
CONTINUOUS
  5
1C7
 10
507.14376
 20
490.0
 30
0.0
 11
498.577677
 21
491.127746
 31
0.0
  0
LINE
  8
LC-004-003-----0
  6
CONTINUOUS
  5
1C8
 10
498.537639
 20
489.483116
 30
0.0
 11
502.46376
 21
490.0
 31
0.0
  0
LINE
  8
LC-004-003-----0
  6
CONTINUOUS
  5
1C9
 10
502.46376
 20
490.0
 30
0.0
 11
498.537639
 21
490.516884
 31
0.0
  0
TEXT
  8
LC-004-003-----0
  6
CONTINUOUS
 62
     6
  5
1CA
 10
423.936745
 20
500.431999
 30
0.0
 40
18.0
  1
130
 51
15.0
  7
LC-TXTSTYLE-150-400-0-0-D0
 72
     1
 11
443.070604
 21
500.431999
 31
0.0
  0
ENDBLK
  8
0
  5
1CB
  0
BLOCK
  8
0
  5
1CD
  2
*D38
 70
    65
 10
0.0
 20
0.0
 30
0.0
  3
*D38
  0
LINE
  8
LC-005-003-MTH-0
  6
CONTINUOUS
  5
1CE
 10
516.50376
 20
372.197992
 30
0.0
 11
516.50376
 21
458.8
 31
0.0
  0
LINE
  8
LC-005-003-MTH-0
  6
CONTINUOUS
  5
1CF
 10
616.499489
 20
349.940164
 30
0.0
 11
616.499489
 21
458.8
 31
0.0
  0
LINE
  8
LC-006-003-MTG-0
  6
CONTINUOUS
  5
1D0
 10
516.50376
 20
448.0
 30
0.0
 11
616.499489
 21
448.0
 31
0.0
  0
LINE
  8
LC-004-003-----0
  6
CONTINUOUS
  5
1D1
 10
534.349768
 20
450.349471
 30
0.0
 11
516.50376
 21
448.0
 31
0.0
  0
LINE
  8
LC-004-003-----0
  6
CONTINUOUS
  5
1D2
 10
516.50376
 20
448.0
 30
0.0
 11
534.349768
 21
445.650529
 31
0.0
  0
LINE
  8
LC-004-003-----0
  6
CONTINUOUS
  5
1D3
 10
534.349768
 20
445.650529
 30
0.0
 11
534.349768
 21
450.349471
 31
0.0
  0
LINE
  8
LC-004-003-----0
  6
CONTINUOUS
  5
1D4
 10
534.389806
 20
449.738609
 30
0.0
 11
521.18376
 21
448.0
 31
0.0
  0
LINE
  8
LC-004-003-----0
  6
CONTINUOUS
  5
1D5
 10
521.18376
 20
448.0
 30
0.0
 11
534.389806
 21
446.261391
 31
0.0
  0
LINE
  8
LC-004-003-----0
  6
CONTINUOUS
  5
1D6
 10
534.429844
 20
449.127746
 30
0.0
 11
525.86376
 21
448.0
 31
0.0
  0
LINE
  8
LC-004-003-----0
  6
CONTINUOUS
  5
1D7
 10
525.86376
 20
448.0
 30
0.0
 11
534.429844
 21
446.872254
 31
0.0
  0
LINE
  8
LC-004-003-----0
  6
CONTINUOUS
  5
1D8
 10
534.469882
 20
448.516884
 30
0.0
 11
530.54376
 21
448.0
 31
0.0
  0
LINE
  8
LC-004-003-----0
  6
CONTINUOUS
  5
1D9
 10
530.54376
 20
448.0
 30
0.0
 11
534.469882
 21
447.483116
 31
0.0
  0
LINE
  8
LC-004-003-----0
  6
CONTINUOUS
  5
1DA
 10
598.653482
 20
445.650529
 30
0.0
 11
616.499489
 21
448.0
 31
0.0
  0
LINE
  8
LC-004-003-----0
  6
CONTINUOUS
  5
1DB
 10
616.499489
 20
448.0
 30
0.0
 11
598.653482
 21
450.349471
 31
0.0
  0
LINE
  8
LC-004-003-----0
  6
CONTINUOUS
  5
1DC
 10
598.653482
 20
450.349471
 30
0.0
 11
598.653482
 21
445.650529
 31
0.0
  0
LINE
  8
LC-004-003-----0
  6
CONTINUOUS
  5
1DD
 10
598.613444
 20
446.261391
 30
0.0
 11
611.819489
 21
448.0
 31
0.0
  0
LINE
  8
LC-004-003-----0
  6
CONTINUOUS
  5
1DE
 10
611.819489
 20
448.0
 30
0.0
 11
598.613444
 21
449.738609
 31
0.0
  0
LINE
  8
LC-004-003-----0
  6
CONTINUOUS
  5
1DF
 10
598.573406
 20
446.872254
 30
0.0
 11
607.139489
 21
448.0
 31
0.0
  0
LINE
  8
LC-004-003-----0
  6
CONTINUOUS
  5
1E0
 10
607.139489
 20
448.0
 30
0.0
 11
598.573406
 21
449.127746
 31
0.0
  0
LINE
  8
LC-004-003-----0
  6
CONTINUOUS
  5
1E1
 10
598.533367
 20
447.483116
 30
0.0
 11
602.459489
 21
448.0
 31
0.0
  0
LINE
  8
LC-004-003-----0
  6
CONTINUOUS
  5
1E2
 10
602.459489
 20
448.0
 30
0.0
 11
598.533367
 21
448.516884
 31
0.0
  0
TEXT
  8
LC-004-003-----0
  6
CONTINUOUS
 62
     6
  5
1E3
 10
550.163012
 20
458.431999
 30
0.0
 40
18.0
  1
100
 51
15.0
  7
LC-TXTSTYLE-150-400-0-0-D0
 72
     1
 11
569.29687
 21
458.431999
 31
0.0
  0
ENDBLK
  8
0
  5
1E4
  0
BLOCK
  8
0
  5
1E6
  2
BLK28
 70
    64
 10
0.0
 20
0.0
 30
0.0
  3
BLK28
  0
ENDBLK
  8
0
  5
1E7
  0
BLOCK
  8
0
  5
1E9
  2
BLK29
 70
    64
 10
0.0
 20
0.0
 30
0.0
  3
BLK29
  0
ENDBLK
  8
0
  5
1EA
  0
BLOCK
  8
0
  5
1EC
  2
BLK30
 70
    64
 10
0.0
 20
0.0
 30
0.0
  3
BLK30
  0
ENDBLK
  8
0
  5
1ED
  0
BLOCK
  8
0
  5
1EF
  2
*X42
 70
    65
 10
436.504751
 20
368.950042
 30
0.0
  3
*X42
  0
LINE
  8
LC-010-005-----0
  6
CONTINUOUS
  5
1F0
 10
436.817274
 20
372.112927
 30
0.0
 11
437.495215
 21
371.434987
 31
0.0
  0
LINE
  8
LC-010-005-----0
  6
CONTINUOUS
  5
1F1
 10
438.67783
 20
373.080799
 30
0.0
 11
442.801713
 21
368.956921
 31
0.0
  0
LINE
  8
LC-010-005-----0
  6
CONTINUOUS
  5
1F2
 10
440.538386
 20
374.04867
 30
0.0
 11
444.934223
 21
369.652839
 31
0.0
  0
LINE
  8
LC-010-005-----0
  6
CONTINUOUS
  5
1F3
 10
442.507019
 20
374.908464
 30
0.0
 11
445.963174
 21
371.452314
 31
0.0
  0
ENDBLK
  8
0
  5
1F4
  0
BLOCK
  8
0
  5
1F6
  2
*D43
 70
    65
 10
0.0
 20
0.0
 30
0.0
  3
*D43
  0
LINE
  8
LC-005-003-MTH-0
  6
CONTINUOUS
  5
1F7
 10
436.50376
 20
443.950042
 30
0.0
 11
436.50376
 21
458.8
 31
0.0
  0
LINE
  8
LC-005-003-MTH-0
  6
CONTINUOUS
  5
1F8
 10
516.50376
 20
372.197992
 30
0.0
 11
516.50376
 21
458.8
 31
0.0
  0
LINE
  8
LC-006-003-MTG-0
  6
CONTINUOUS
  5
1F9
 10
436.50376
 20
448.0
 30
0.0
 11
516.50376
 21
448.0
 31
0.0
  0
LINE
  8
LC-004-003-----0
  6
CONTINUOUS
  5
1FA
 10
454.349768
 20
450.349471
 30
0.0
 11
436.50376
 21
448.0
 31
0.0
  0
LINE
  8
LC-004-003-----0
  6
CONTINUOUS
  5
1FB
 10
436.50376
 20
448.0
 30
0.0
 11
454.349768
 21
445.650529
 31
0.0
  0
LINE
  8
LC-004-003-----0
  6
CONTINUOUS
  5
1FC
 10
454.349768
 20
445.650529
 30
0.0
 11
454.349768
 21
450.349471
 31
0.0
  0
LINE
  8
LC-004-003-----0
  6
CONTINUOUS
  5
1FD
 10
454.389806
 20
449.738609
 30
0.0
 11
441.18376
 21
448.0
 31
0.0
  0
LINE
  8
LC-004-003-----0
  6
CONTINUOUS
  5
1FE
 10
441.18376
 20
448.0
 30
0.0
 11
454.389806
 21
446.261391
 31
0.0
  0
LINE
  8
LC-004-003-----0
  6
CONTINUOUS
  5
1FF
 10
454.429844
 20
449.127746
 30
0.0
 11
445.86376
 21
448.0
 31
0.0
  0
LINE
  8
LC-004-003-----0
  6
CONTINUOUS
  5
200
 10
445.86376
 20
448.0
 30
0.0
 11
454.429844
 21
446.872254
 31
0.0
  0
LINE
  8
LC-004-003-----0
  6
CONTINUOUS
  5
201
 10
454.469882
 20
448.516884
 30
0.0
 11
450.54376
 21
448.0
 31
0.0
  0
LINE
  8
LC-004-003-----0
  6
CONTINUOUS
  5
202
 10
450.54376
 20
448.0
 30
0.0
 11
454.469882
 21
447.483116
 31
0.0
  0
LINE
  8
LC-004-003-----0
  6
CONTINUOUS
  5
203
 10
498.657753
 20
445.650529
 30
0.0
 11
516.50376
 21
448.0
 31
0.0
  0
LINE
  8
LC-004-003-----0
  6
CONTINUOUS
  5
204
 10
516.50376
 20
448.0
 30
0.0
 11
498.657753
 21
450.349471
 31
0.0
  0
LINE
  8
LC-004-003-----0
  6
CONTINUOUS
  5
205
 10
498.657753
 20
450.349471
 30
0.0
 11
498.657753
 21
445.650529
 31
0.0
  0
LINE
  8
LC-004-003-----0
  6
CONTINUOUS
  5
206
 10
498.617715
 20
446.261391
 30
0.0
 11
511.82376
 21
448.0
 31
0.0
  0
LINE
  8
LC-004-003-----0
  6
CONTINUOUS
  5
207
 10
511.82376
 20
448.0
 30
0.0
 11
498.617715
 21
449.738609
 31
0.0
  0
LINE
  8
LC-004-003-----0
  6
CONTINUOUS
  5
208
 10
498.577677
 20
446.872254
 30
0.0
 11
507.14376
 21
448.0
 31
0.0
  0
LINE
  8
LC-004-003-----0
  6
CONTINUOUS
  5
209
 10
507.14376
 20
448.0
 30
0.0
 11
498.577677
 21
449.127746
 31
0.0
  0
LINE
  8
LC-004-003-----0
  6
CONTINUOUS
  5
20A
 10
498.537639
 20
447.483116
 30
0.0
 11
502.46376
 21
448.0
 31
0.0
  0
LINE
  8
LC-004-003-----0
  6
CONTINUOUS
  5
20B
 10
502.46376
 20
448.0
 30
0.0
 11
498.537639
 21
448.516884
 31
0.0
  0
TEXT
  8
LC-004-003-----0
  6
CONTINUOUS
 62
     6
  5
20C
 10
467.436014
 20
458.431999
 30
0.0
 40
18.0
  1
80
 51
15.0
  7
LC-TXTSTYLE-150-400-0-0-D0
 72
     1
 11
479.299006
 21
458.431999
 31
0.0
  0
ENDBLK
  8
0
  5
20D
  0
BLOCK
  8
0
  5
20F
  2
BLK31
 70
    64
 10
0.0
 20
0.0
 30
0.0
  3
BLK31
  0
ENDBLK
  8
0
  5
210
  0
BLOCK
  8
0
  5
212
  2
BLK32
 70
    64
 10
0.0
 20
0.0
 30
0.0
  3
BLK32
  0
ENDBLK
  8
0
  5
213
  0
BLOCK
  8
0
  5
215
  2
BLK33
 70
    64
 10
0.0
 20
0.0
 30
0.0
  3
BLK33
  0
ENDBLK
  8
0
  5
216
  0
BLOCK
  8
0
  5
218
  2
BLK34
 70
    64
 10
0.0
 20
0.0
 30
0.0
  3
BLK34
  0
ENDBLK
  8
0
  5
219
  0
BLOCK
  8
0
  5
21B
  2
BLK35
 70
    64
 10
0.0
 20
0.0
 30
0.0
  3
BLK35
  0
ENDBLK
  8
0
  5
21C
  0
BLOCK
  8
0
  5
21E
  2
BLK36
 70
    64
 10
0.0
 20
0.0
 30
0.0
  3
BLK36
  0
ENDBLK
  8
0
  5
21F
  0
BLOCK
  8
0
  5
221
  2
BLK37
 70
    64
 10
0.0
 20
0.0
 30
0.0
  3
BLK37
  0
ENDBLK
  8
0
  5
222
  0
BLOCK
  8
0
  5
224
  2
BLK38
 70
    64
 10
0.0
 20
0.0
 30
0.0
  3
BLK38
  0
ENDBLK
  8
0
  5
225
  0
BLOCK
  8
0
  5
227
  2
BLK39
 70
    64
 10
0.0
 20
0.0
 30
0.0
  3
BLK39
  0
ENDBLK
  8
0
  5
228
  0
BLOCK
  8
0
  5
22A
  2
BLK40
 70
    64
 10
0.0
 20
0.0
 30
0.0
  3
BLK40
  0
ENDBLK
  8
0
  5
22B
  0
BLOCK
  8
0
  5
22D
  2
BLK41
 70
    64
 10
0.0
 20
0.0
 30
0.0
  3
BLK41
  0
ENDBLK
  8
0
  5
22E
  0
BLOCK
  8
0
  5
230
  2
BLK42
 70
    64
 10
0.0
 20
0.0
 30
0.0
  3
BLK42
  0
ENDBLK
  8
0
  5
231
  0
BLOCK
  8
0
  5
233
  2
BLK43
 70
    64
 10
0.0
 20
0.0
 30
0.0
  3
BLK43
  0
ENDBLK
  8
0
  5
234
  0
BLOCK
  8
0
  5
236
  2
BLK44
 70
    64
 10
0.0
 20
0.0
 30
0.0
  3
BLK44
  0
ENDBLK
  8
0
  5
237
  0
BLOCK
  8
0
  5
239
  2
BLK45
 70
    64
 10
0.0
 20
0.0
 30
0.0
  3
BLK45
  0
ENDBLK
  8
0
  5
23A
  0
BLOCK
  8
0
  5
23C
  2
BLK46
 70
    64
 10
0.0
 20
0.0
 30
0.0
  3
BLK46
  0
ENDBLK
  8
0
  5
23D
  0
BLOCK
  8
0
  5
23F
  2
BLK47
 70
    64
 10
0.0
 20
0.0
 30
0.0
  3
BLK47
  0
ENDBLK
  8
0
  5
240
  0
BLOCK
  8
0
  5
242
  2
BLK48
 70
    64
 10
0.0
 20
0.0
 30
0.0
  3
BLK48
  0
ENDBLK
  8
0
  5
243
  0
BLOCK
  8
0
  5
245
  2
BLK49
 70
    64
 10
0.0
 20
0.0
 30
0.0
  3
BLK49
  0
ENDBLK
  8
0
  5
246
  0
BLOCK
  8
0
  5
248
  2
BLK50
 70
    64
 10
0.0
 20
0.0
 30
0.0
  3
BLK50
  0
ENDBLK
  8
0
  5
249
  0
ENDSEC
  0
SECTION
  2
ENTITIES
  0
VIEWPORT
  8
LC-000
  5
698
 67
     1
 68
     1
 10
594.0
 20
420.0
 30
0.0
 40
1188.0
 41
840.0
 69
     1
1001
ACAD
1000
MVIEW
1002
{
1070
    16
1010
0.0
1020
0.0
1030
0.0
1010
0.0
1020
0.0
1030
1.0
1040
0.0
1040
840.0
1040
594.0
1040
420.0
1040
50.0
1040
0.0
1040
0.0
1070
     0
1070
   100
1070
     1
1070
     1
1070
     0
1070
     0
1070
     0
1070
     0
1040
0.0
1040
0.0
1040
0.0
1040
1.0
1040
1.0
1040
0.0
1040
0.0
1070
     0
1002
{
1002
}
1002
}
  0
VIEWPORT
  8
0
  5
699
 67
     1
 68
     1
 10
0.0
 20
0.0
 30
0.0
 40
0.0
 41
0.0
 69
     1
1001
ACAD
1000
MVIEW
1002
{
1070
    16
1010
0.0
1020
0.0
1030
0.0
1010
0.0
1020
0.0
1030
1.0
1040
0.0
1040
840.0
1040
0.0
1040
0.0
1040
50.0
1040
0.0
1040
0.0
1070
     0
1070
   100
1070
     0
1070
     1
1070
     0
1070
     0
1070
     0
1070
     0
1040
0.0
1040
0.0
1040
0.0
1040
0.5
1040
0.5
1040
0.5
1040
0.5
1070
     0
1002
{
1002
}
1002
}
  0
INSERT
  8
0
  5
24A
  2
BLK1
 10
0.0
 20
0.0
 30
0.0
  0
INSERT
  8
0
  5
24B
  2
BLK2
 10
0.0
 20
0.0
 30
0.0
  0
INSERT
  8
0
  5
24C
  2
BLK3
 10
0.0
 20
0.0
 30
0.0
  0
DIMENSION
  8
0
  5
24D
  2
*D3
 10
208.771234
 20
84.0
 30
0.0
 11
208.771234
 21
84.0
 31
0.0
  1
DN40
 13
188.771234
 23
178.022548
 33
0.0
 14
228.771234
 24
178.197992
 34
0.0
  3
LC-DIM-L-0090-02-02
  0
DIMENSION
  8
0
  5
24E
  2
*D4
 10
208.771234
 20
42.0
 30
0.0
 11
208.771234
 21
42.0
 31
0.0
  1
DN50
 13
183.771234
 23
125.197992
 33
0.0
 14
233.771234
 24
125.197992
 34
0.0
  3
LC-DIM-L-0090-02-02
  0
DIMENSION
  8
0
  5
24F
  2
*D5
 10
110.131757
 20
200.0
 30
0.0
 11
110.131757
 21
200.0
 31
0.0
  1
73-120
 13
246.271234
 23
263.412029
 33
0.0
 14
145.931425
 24
269.698719
 34
0.0
  3
LC-DIM-L-0090-02-02
  0
DIMENSION
  8
0
  5
250
  2
*D6
 10
714.0
 20
213.0
 30
0.0
 11
714.0
 21
213.0
 31
0.0
 13
663.999489
 23
364.697992
 33
0.0
 14
663.999489
 24
264.697992
 34
0.0
 50
90.0
  3
LC-DIM-L-0090-02-02
  0
INSERT
  8
0
  5
252
  2
BLK4
 10
0.0
 20
0.0
 30
0.0
  0
INSERT
  8
0
  5
253
  2
BLK5
 10
0.0
 20
0.0
 30
0.0
  0
INSERT
  8
0
  5
254
  2
BLK6
 10
0.0
 20
0.0
 30
0.0
  0
INSERT
  8
0
  5
255
  2
BLK7
 10
0.0
 20
0.0
 30
0.0
  0
INSERT
  8
0
  5
256
  2
BLK8
 10
0.0
 20
0.0
 30
0.0
  0
INSERT
  8
0
  5
257
  2
BLK9
 10
0.0
 20
0.0
 30
0.0
  0
INSERT
  8
0
  5
259
  2
BLK10
 10
0.0
 20
0.0
 30
0.0
  0
INSERT
  8
0
  5
25A
  2
BLK11
 10
0.0
 20
0.0
 30
0.0
  0
INSERT
  8
0
  5
25B
  2
BLK12
 10
0.0
 20
0.0
 30
0.0
  0
INSERT
  8
0
  5
25C
  2
BLK13
 10
0.0
 20
0.0
 30
0.0
  0
INSERT
  8
0
  5
25D
  2
BLK14
 10
0.0
 20
0.0
 30
0.0
  0
INSERT
  8
0
  5
25E
  2
BLK15
 10
0.0
 20
0.0
 30
0.0
  0
INSERT
  8
0
  5
25F
  2
BLK16
 10
0.0
 20
0.0
 30
0.0
  0
INSERT
  8
0
  5
260
  2
BLK17
 10
0.0
 20
0.0
 30
0.0
  0
DIMENSION
  8
0
  5
261
  2
*D21
 10
507.064773
 20
558.0
 30
0.0
 11
507.064773
 21
558.0
 31
0.0
 13
386.499489
 23
362.197992
 33
0.0
 14
666.499489
 24
362.197992
 34
0.0
  3
LC-DIM-L-0090-02-02
  0
INSERT
  8
0
  5
262
  2
*X22
 10
760.594274
 20
367.906777
 30
0.0
  0
INSERT
  8
0
  5
263
  2
*X23
 10
760.59282
 20
472.907883
 30
0.0
  0
DIMENSION
  8
0
  5
264
  2
*D24
 10
114.430349
 20
378.0
 30
0.0
 11
114.430349
 21
378.0
 31
0.0
  1
55
 13
87.929273
 23
313.70022
 33
0.0
 14
140.931425
 24
358.456078
 34
0.0
  3
LC-DIM-L-0090-02-02
  0
INSERT
  8
0
  5
265
  2
BLK18
 10
0.0
 20
0.0
 30
0.0
  0
INSERT
  8
0
  5
266
  2
BLK19
 10
0.0
 20
0.0
 30
0.0
  0
INSERT
  8
0
  5
267
  2
BLK20
 10
0.0
 20
0.0
 30
0.0
  0
INSERT
  8
0
  5
268
  2
BLK21
 10
0.0
 20
0.0
 30
0.0
  0
INSERT
  8
0
  5
269
  2
BLK22
 10
0.0
 20
0.0
 30
0.0
  0
INSERT
  8
0
  5
26A
  2
BLK23
 10
0.0
 20
0.0
 30
0.0
  0
INSERT
  8
0
  5
26B
  2
BLK24
 10
0.0
 20
0.0
 30
0.0
  0
INSERT
  8
0
  5
26C
  2
BLK25
 10
0.0
 20
0.0
 30
0.0
  0
INSERT
  8
0
  5
26D
  2
*X33
 10
436.504751
 20
473.950042
 30
0.0
  0
INSERT
  8
0
  5
26E
  2
BLK26
 10
0.0
 20
0.0
 30
0.0
  0
DIMENSION
  8
0
  5
26F
  2
*D35
 10
360.0
 20
218.197992
 30
0.0
 11
360.0
 21
218.197992
 31
0.0
 13
297.359489
 23
314.697992
 33
0.0
 14
492.437311
 24
121.697992
 34
0.0
 50
90.0
  3
LC-DIM-L-0090-02-02
  0
INSERT
  8
0
  5
270
  2
BLK27
 10
0.0
 20
0.0
 30
0.0
  0
DIMENSION
  8
0
  5
271
  2
*D37
 10
440.275358
 20
490.0
 30
0.0
 11
440.275358
 21
490.0
 31
0.0
 13
386.499489
 23
362.197992
 33
0.0
 14
516.50376
 24
372.197992
 34
0.0
  3
LC-DIM-L-0090-02-02
  0
DIMENSION
  8
0
  5
272
  2
*D38
 10
566.501625
 20
448.0
 30
0.0
 11
566.501625
 21
448.0
 31
0.0
 13
516.50376
 23
372.197992
 33
0.0
 14
616.499489
 24
349.940164
 34
0.0
  3
LC-DIM-L-0090-02-02
  0
INSERT
  8
0
  5
273
  2
BLK28
 10
0.0
 20
0.0
 30
0.0
  0
INSERT
  8
0
  5
274
  2
BLK29
 10
0.0
 20
0.0
 30
0.0
  0
INSERT
  8
0
  5
275
  2
BLK30
 10
0.0
 20
0.0
 30
0.0
  0
INSERT
  8
0
  5
276
  2
*X42
 10
436.504751
 20
368.950042
 30
0.0
  0
DIMENSION
  8
0
  5
277
  2
*D43
 10
476.50376
 20
448.0
 30
0.0
 11
476.50376
 21
448.0
 31
0.0
 13
436.50376
 23
443.950042
 33
0.0
 14
516.50376
 24
372.197992
 34
0.0
  3
LC-DIM-L-0090-02-02
  0
INSERT
  8
0
  5
278
  2
BLK31
 10
0.0
 20
0.0
 30
0.0
  0
INSERT
  8
0
  5
279
  2
BLK32
 10
0.0
 20
0.0
 30
0.0
  0
INSERT
  8
0
  5
27A
  2
BLK33
 10
0.0
 20
0.0
 30
0.0
  0
INSERT
  8
0
  5
27B
  2
BLK34
 10
0.0
 20
0.0
 30
0.0
  0
INSERT
  8
0
  5
27C
  2
BLK35
 10
0.0
 20
0.0
 30
0.0
  0
INSERT
  8
0
  5
27D
  2
BLK36
 10
0.0
 20
0.0
 30
0.0
  0
INSERT
  8
0
  5
27E
  2
BLK37
 10
0.0
 20
0.0
 30
0.0
  0
INSERT
  8
0
  5
27F
  2
BLK38
 10
0.0
 20
0.0
 30
0.0
  0
INSERT
  8
0
  5
280
  2
BLK39
 10
0.0
 20
0.0
 30
0.0
  0
INSERT
  8
0
  5
281
  2
BLK40
 10
0.0
 20
0.0
 30
0.0
  0
INSERT
  8
0
  5
282
  2
BLK41
 10
0.0
 20
0.0
 30
0.0
  0
INSERT
  8
0
  5
283
  2
BLK42
 10
0.0
 20
0.0
 30
0.0
  0
INSERT
  8
0
  5
284
  2
BLK43
 10
0.0
 20
0.0
 30
0.0
  0
INSERT
  8
0
  5
285
  2
BLK44
 10
0.0
 20
0.0
 30
0.0
  0
INSERT
  8
0
  5
286
  2
BLK45
 10
0.0
 20
0.0
 30
0.0
  0
INSERT
  8
0
  5
287
  2
BLK46
 10
0.0
 20
0.0
 30
0.0
  0
INSERT
  8
0
  5
288
  2
BLK47
 10
0.0
 20
0.0
 30
0.0
  0
INSERT
  8
0
  5
289
  2
BLK48
 10
0.0
 20
0.0
 30
0.0
  0
INSERT
  8
0
  5
28A
  2
BLK49
 10
0.0
 20
0.0
 30
0.0
  0
INSERT
  8
0
  5
28B
  2
BLK50
 10
0.0
 20
0.0
 30
0.0
  0
ARC
  8
LC-001-002-RND-0
  6
CONTINUOUS
  5
28D
 10
495.50376
 20
171.697992
 30
0.0
 40
4.0
 50
90.0
 51
180.0
  0
CIRCLE
  8
LC-002-002-----0
  6
CONTINUOUS
  5
28E
 10
692.359489
 20
314.697992
 30
0.0
 40
4.25
  0
ARC
  8
LC-002-002-----0
  6
CONTINUOUS
  5
28F
 10
688.219489
 20
328.837992
 30
0.0
 40
3.1
 50
270.0
 51
90.0
  0
ARC
  8
LC-002-002-----0
  6
CONTINUOUS
  5
290
 10
436.50376
 20
314.697992
 30
0.0
 40
10.5
 50
324.049432
 51
215.950568
  0
ARC
  8
LC-002-002-----0
  6
CONTINUOUS
  5
291
 10
676.499489
 20
328.837992
 30
0.0
 40
3.1
 50
90.0
 51
270.0
  0
LINE
  8
LC-002-002-----0
  6
CONTINUOUS
  5
292
 10
487.522239
 20
226.697992
 30
0.0
 11
543.167328
 21
226.697992
 31
0.0
  0
LINE
  8
LC-002-002-----0
  6
CONTINUOUS
  5
293
 10
688.219489
 20
331.937992
 30
0.0
 11
676.499489
 21
331.937992
 31
0.0
  0
ARC
  8
LC-002-002-----0
  6
CONTINUOUS
  5
294
 10
430.008218
 20
371.950042
 30
0.0
 40
3.0
 50
180.000171
 51
296.388696
  0
ARC
  8
LC-001-002-RND-0
  6
CONTINUOUS
  5
295
 10
537.50376
 20
171.697992
 30
0.0
 40
4.0
 50
360.0
 51
90.0
  0
LINE
  8
LC-002-002-----0
  6
DASHDOT
 62
     2
  5
297
 10
174.920296
 20
314.697992
 30
0.0
 11
244.271234
 21
314.697992
 31
0.0
  0
LINE
  8
LC-002-002-----0
  6
CONTINUOUS
  5
298
 10
536.50376
 20
226.697992
 30
0.0
 11
536.50376
 21
175.697992
 31
0.0
  0
LINE
  8
LC-002-002-----0
  6
DASHDOT
 62
     2
  5
299
 10
760.596286
 20
390.907883
 30
0.0
 11
760.596286
 21
314.697992
 31
0.0
  0
ARC
  8
LC-001-002-RND-0
  6
CONTINUOUS
  5
29A
 10
248.271234
 20
307.197992
 30
0.0
 40
0.5
 50
360.0
 51
90.0
  0
ARC
  8
LC-001-002-RND-0
  6
CONTINUOUS
  5
29B
 10
247.771234
 20
307.197992
 30
0.0
 40
0.5
 50
90.0
 51
180.0
  0
LINE
  8
LC-002-002-----0
  6
CONTINUOUS
  5
29C
 10
248.271234
 20
307.697992
 30
0.0
 11
247.771234
 21
307.697992
 31
0.0
  0
LINE
  8
LC-002-002-----0
  6
CONTINUOUS
  5
29D
 10
-113.319391
 20
313.700211
 30
0.0
 11
-113.319391
 21
338.700211
 31
0.0
  0
ARC
  8
LC-002-002-----0
  6
CONTINUOUS
  5
29E
 10
239.146234
 20
302.197992
 30
0.0
 40
10.625
 50
334.942385
 51
25.057615
  0
LINE
  8
LC-002-002-----0
  6
CONTINUOUS
  5
29F
 10
248.771234
 20
297.197992
 30
0.0
 11
248.771234
 21
307.197992
 31
0.0
  0
ARC
  8
LC-001-002-RND-0
  6
CONTINUOUS
  5
2A0
 10
248.271234
 20
297.197992
 30
0.0
 40
0.5
 50
270.0
 51
360.0
  0
LINE
  8
LC-002-002-----0
  6
CONTINUOUS
  5
2A1
 10
248.271234
 20
296.697992
 30
0.0
 11
247.771234
 21
296.697992
 31
0.0
  0
LINE
  8
LC-002-002-----0
  6
DASHDOT
 62
     2
  5
2A2
 10
516.50376
 20
175.697992
 30
0.0
 11
516.50376
 21
119.14099
 31
0.0
  0
ARC
  8
LC-001-002-RND-0
  6
CONTINUOUS
  5
2A3
 10
247.771234
 20
297.197992
 30
0.0
 40
0.5
 50
180.0
 51
270.0
  0
ARC
  8
LC-002-002-----0
  6
DASHED
 62
     2
  5
2A5
 10
436.50376
 20
327.197992
 30
0.0
 40
6.0
 50
89.033562
 51
90.966438
  0
LINE
  8
LC-002-002-----0
  6
CONTINUOUS
  5
2A6
 10
230.271234
 20
316.797992
 30
0.0
 11
230.271234
 21
334.697992
 31
0.0
  0
LINE
  8
LC-002-002-----0
  6
CONTINUOUS
  5
2A7
 10
231.771234
 20
316.797992
 30
0.0
 11
231.771234
 21
334.697992
 31
0.0
  0
LINE
  8
LC-002-002-----0
  6
CONTINUOUS
  5
2A8
 10
233.271234
 20
316.797992
 30
0.0
 11
233.271234
 21
334.697992
 31
0.0
  0
LINE
  8
LC-002-002-----0
  6
CONTINUOUS
  5
2A9
 10
436.50221
 20
454.946861
 30
0.0
 11
436.50221
 21
443.950042
 31
0.0
  0
ARC
  8
LC-001-002-RND-0
  6
CONTINUOUS
  5
2AA
 10
733.596286
 20
307.197992
 30
0.0
 40
0.5
 50
90.0
 51
180.0
  0
ARC
  8
LC-001-002-RND-0
  6
CONTINUOUS
  5
2AB
 10
734.096286
 20
307.197992
 30
0.0
 40
0.5
 50
0.0
 51
90.0
  0
LINE
  8
LC-002-002-----0
  6
CONTINUOUS
  5
2AC
 10
733.596286
 20
307.697992
 30
0.0
 11
734.096286
 21
307.697992
 31
0.0
  0
ARC
  8
LC-002-002-----0
  6
CONTINUOUS
  5
2AD
 10
742.721286
 20
302.197992
 30
0.0
 40
10.625
 50
154.942385
 51
205.057615
  0
LINE
  8
LC-002-002-----0
  6
CONTINUOUS
  5
2AE
 10
733.096286
 20
297.197992
 30
0.0
 11
733.096286
 21
307.197992
 31
0.0
  0
ARC
  8
LC-001-002-RND-0
  6
CONTINUOUS
  5
2AF
 10
733.596286
 20
297.197992
 30
0.0
 40
0.5
 50
180.0
 51
270.0
  0
LINE
  8
LC-002-002-----0
  6
CONTINUOUS
  5
2B0
 10
733.596286
 20
296.697992
 30
0.0
 11
734.096286
 21
296.697992
 31
0.0
  0
ARC
  8
LC-001-002-RND-0
  6
CONTINUOUS
  5
2B1
 10
734.096286
 20
297.197992
 30
0.0
 40
0.5
 50
270.0
 51
0.0
  0
CIRCLE
  8
LC-002-002-----0
  6
CONTINUOUS
  5
2B2
 10
436.50376
 20
424.450042
 30
0.0
 40
15.0
  0
ARC
  8
LC-002-002-----0
  6
CONTINUOUS
  5
2B3
 10
436.50376
 20
424.450042
 30
0.0
 40
18.0
 50
49.471221
 51
131.001814
  0
LINE
  8
LC-002-002-----0
  6
DASHED
 62
     2
  5
2B4
 10
423.00376
 20
412.544161
 30
0.0
 11
423.00376
 21
391.950042
 31
0.0
  0
LINE
  8
LC-002-002-----0
  6
CONTINUOUS
  5
2B5
 10
737.596286
 20
372.197992
 30
0.0
 11
737.596286
 21
363.102006
 31
0.0
  0
LINE
  8
LC-002-002-----0
  6
CONTINUOUS
  5
2B6
 10
735.596286
 20
365.983955
 30
0.0
 11
735.596286
 21
340.697992
 31
0.0
  0
LINE
  8
LC-002-002-----0
  6
CONTINUOUS
  5
2B7
 10
745.596286
 20
173.197992
 30
0.0
 11
748.388187
 21
173.197992
 31
0.0
  0
LINE
  8
LC-002-002-----0
  6
CONTINUOUS
  5
2B8
 10
745.596286
 20
175.697992
 30
0.0
 11
745.596286
 21
173.197992
 31
0.0
  0
LINE
  8
LC-002-002-----0
  6
CONTINUOUS
  5
2B9
 10
797.804386
 20
173.197992
 30
0.0
 11
800.596286
 21
173.197992
 31
0.0
  0
LINE
  8
LC-002-002-----0
  6
CONTINUOUS
  5
2BA
 10
800.596286
 20
175.697992
 30
0.0
 11
800.596286
 21
173.197992
 31
0.0
  0
LINE
  8
LC-002-002-----0
  6
CONTINUOUS
  5
2BB
 10
793.096286
 20
178.022548
 30
0.0
 11
793.096286
 21
228.697992
 31
0.0
  0
ARC
  8
LC-001-002-RND-0
  6
CONTINUOUS
  5
2BC
 10
792.096286
 20
231.197992
 30
0.0
 40
2.5
 50
270.0
 51
0.0
  0
LINE
  8
LC-002-002-----0
  6
CONTINUOUS
  5
2BD
 10
796.07556
 20
121.697992
 30
0.0
 11
750.117012
 21
121.697992
 31
0.0
  0
ARC
  8
LC-001-002-RND-0
  6
CONTINUOUS
  5
2BE
 10
750.596286
 20
178.197992
 30
0.0
 40
2.5
 50
270.0
 51
0.0
  0
ARC
  8
LC-001-002-RND-0
  6
CONTINUOUS
  5
2BF
 10
795.596286
 20
178.022548
 30
0.0
 40
2.5
 50
180.0
 51
256.657636
  0
LINE
  8
LC-002-002-----0
  6
CONTINUOUS
  5
2C0
 10
748.096286
 20
125.197992
 30
0.0
 11
748.096286
 21
171.697992
 31
0.0
  0
LINE
  8
LC-002-002-----0
  6
CONTINUOUS
  5
2C1
 10
752.096286
 20
175.697992
 30
0.0
 11
800.596286
 21
175.697992
 31
0.0
  0
ARC
  8
LC-002-002-----0
  6
CONTINUOUS
  5
2C2
 10
458.258083
 20
437.009906
 30
0.0
 40
10.119728
 50
173.636834
 51
246.363166
  0
ARC
  8
LC-002-002-----0
  6
CONTINUOUS
  5
2C3
 10
436.50376
 20
424.450042
 30
0.0
 40
18.0
 50
289.471221
 51
10.528779
  0
LINE
  8
LC-002-002-----0
  6
CONTINUOUS
  5
2C4
 10
688.219489
 20
325.737992
 30
0.0
 11
686.588425
 21
325.737992
 31
0.0
  0
LINE
  8
LC-002-002-----0
  6
CONTINUOUS
  5
2C5
 10
676.499489
 20
325.737992
 30
0.0
 11
678.130553
 21
325.737992
 31
0.0
  0
ARC
  8
LC-002-002-----0
  6
CONTINUOUS
  5
2C6
 10
682.359489
 20
326.047992
 30
0.0
 40
3.1
 50
203.171101
 51
336.828899
  0
LINE
  8
LC-002-002-----0
  6
DASHED
 62
     2
  5
2C7
 10
450.00376
 20
431.155416
 30
0.0
 11
450.00376
 21
456.950042
 31
0.0
  0
ARC
  8
LC-001-002-RND-0
  6
CONTINUOUS
  5
2C8
 10
792.096286
 20
253.697992
 30
0.0
 40
2.5
 50
0.0
 51
10.917885
  0
LINE
  8
LC-002-002-----0
  6
CONTINUOUS
  5
2C9
 10
794.551035
 20
254.171497
 30
0.0
 11
785.479935
 21
301.197992
 31
0.0
  0
ARC
  8
LC-001-002-RND-0
  6
CONTINUOUS
  5
2CA
 10
773.096286
 20
352.197992
 30
0.0
 40
2.5
 50
10.917885
 51
90.0
  0
LINE
  8
LC-002-002-----0
  6
CONTINUOUS
  5
2CB
 10
777.667752
 20
341.697992
 30
0.0
 11
775.551035
 21
352.671497
 31
0.0
  0
ARC
  8
LC-002-002-----0
  6
CONTINUOUS
  5
2CC
 10
436.50376
 20
399.330314
 30
0.0
 40
10.119728
 50
53.636834
 51
126.363166
  0
ARC
  8
LC-002-002-----0
  6
CONTINUOUS
  5
2CD
 10
436.50376
 20
424.450042
 30
0.0
 40
18.0
 50
169.471221
 51
250.528779
  0
LINE
  8
LC-002-002-----0
  6
CONTINUOUS
  5
2CE
 10
-110.819391
 20
341.200211
 30
0.0
 11
-109.319391
 21
341.200211
 31
0.0
  0
LINE
  8
LC-002-002-----0
  6
CONTINUOUS
  5
2CF
 10
-119.319391
 20
313.700211
 30
0.0
 11
-119.319391
 21
336.200211
 31
0.0
  0
ARC
  8
LC-002-002-----0
  6
CONTINUOUS
  5
2D0
 10
414.749438
 20
437.009906
 30
0.0
 40
10.119728
 50
293.636834
 51
6.363166
  0
LINE
  8
LC-002-002-----0
  6
DASHED
 62
     2
  5
2D1
 10
423.00376
 20
431.950042
 30
0.0
 11
423.00376
 21
412.544161
 31
0.0
  0
LINE
  8
LC-002-002-----0
  6
DASHED
 62
     2
  5
2D2
 10
450.00376
 20
430.988391
 30
0.0
 11
450.00376
 21
412.544161
 31
0.0
  0
ARC
  8
LC-001-002-RND-0
  6
CONTINUOUS
  5
2D3
 10
752.096286
 20
171.697992
 30
0.0
 40
4.0
 50
90.0
 51
180.0
  0
ARC
  8
LC-001-002-RND-0
  6
CONTINUOUS
  5
2D4
 10
794.096286
 20
171.697992
 30
0.0
 40
4.0
 50
0.0
 51
76.657636
  0
LINE
  8
LC-002-002-----0
  6
CONTINUOUS
  5
2D5
 10
748.596286
 20
227.697992
 30
0.0
 11
748.596286
 21
305.397992
 31
0.0
  0
LINE
  8
LC-002-002-----0
  6
CONTINUOUS
  5
2D6
 10
748.596286
 20
341.697992
 30
0.0
 11
748.596286
 21
355.697992
 31
0.0
  0
LINE
  8
LC-002-002-----0
  6
CONTINUOUS
  5
2D7
 10
750.096286
 20
226.697992
 30
0.0
 11
750.096286
 21
305.397992
 31
0.0
  0
LINE
  8
LC-002-002-----0
  6
CONTINUOUS
  5
2D8
 10
750.096286
 20
341.697992
 30
0.0
 11
750.096286
 21
356.697992
 31
0.0
  0
LINE
  8
LC-002-002-----0
  6
CONTINUOUS
  5
2D9
 10
746.596286
 20
230.697992
 30
0.0
 11
746.596286
 21
371.197992
 31
0.0
  0
LINE
  8
LC-002-002-----0
  6
CONTINUOUS
  5
2DA
 10
746.596286
 20
334.697992
 30
0.0
 11
746.596286
 21
352.697992
 31
0.0
  0
LINE
  8
LC-002-002-----0
  6
CONTINUOUS
  5
2DB
 10
777.667752
 20
341.697992
 30
0.0
 11
780.271813
 21
328.197992
 31
0.0
  0
LINE
  8
LC-002-002-----0
  6
DASHDOT
 62
     2
  5
2DC
 10
436.50376
 20
391.950042
 30
0.0
 11
436.50376
 21
254.71876
 31
0.0
  0
LINE
  8
LC-002-002-----0
  6
CONTINUOUS
  5
2DD
 10
751.596286
 20
227.697992
 30
0.0
 11
751.596286
 21
302.627278
 31
0.0
  0
LINE
  8
LC-002-002-----0
  6
CONTINUOUS
  5
2DE
 10
751.596286
 20
341.697992
 30
0.0
 11
751.596286
 21
355.697992
 31
0.0
  0
LINE
  8
LC-002-002-----0
  6
CONTINUOUS
  5
2DF
 10
244.271234
 20
372.197992
 30
0.0
 11
244.271234
 21
363.102006
 31
0.0
  0
LINE
  8
LC-002-002-----0
  6
CONTINUOUS
  5
2E0
 10
745.596286
 20
175.697992
 30
0.0
 11
750.596286
 21
175.697992
 31
0.0
  0
LINE
  8
LC-002-002-----0
  6
CONTINUOUS
  5
2E1
 10
798.096286
 20
171.697992
 30
0.0
 11
798.096286
 21
125.197992
 31
0.0
  0
LINE
  8
LC-002-002-----0
  6
CONTINUOUS
  5
2E2
 10
753.096286
 20
228.697992
 30
0.0
 11
753.096286
 21
178.197992
 31
0.0
  0
LINE
  8
LC-002-002-----0
  6
CONTINUOUS
  5
2E3
 10
246.271234
 20
365.983955
 30
0.0
 11
246.271234
 21
340.697992
 31
0.0
  0
LINE
  8
LC-002-002-----0
  6
CONTINUOUS
  5
2E4
 10
794.596286
 20
231.197992
 30
0.0
 11
794.596286
 21
253.697992
 31
0.0
  0
LINE
  8
LC-002-002-----0
  6
DASHED
 62
     2
  5
2E5
 10
450.00376
 20
456.950042
 30
0.0
 11
423.00376
 21
456.950042
 31
0.0
  0
LINE
  8
LC-003-001-----0
  6
CONTINUOUS
  5
2E7
 10
798.096286
 20
125.197992
 30
0.0
 11
748.096286
 21
125.197992
 31
0.0
  0
LINE
  8
LC-002-002-----0
  6
CONTINUOUS
  5
2E8
 10
748.096286
 20
125.197992
 30
0.0
 11
750.117012
 21
121.697992
 31
0.0
  0
LINE
  8
LC-002-002-----0
  6
CONTINUOUS
  5
2E9
 10
798.096286
 20
125.197992
 30
0.0
 11
796.07556
 21
121.697992
 31
0.0
  0
LINE
  8
LC-002-002-----0
  6
DASHDOT
 62
     2
  5
2EA
 10
773.096286
 20
228.697992
 30
0.0
 11
773.096286
 21
121.697992
 31
0.0
  0
LINE
  8
LC-002-002-----0
  6
CONTINUOUS
  5
2EB
 10
754.096286
 20
228.697992
 30
0.0
 11
751.596286
 21
228.697992
 31
0.0
  0
ARC
  8
LC-001-002-RND-0
  6
CONTINUOUS
  5
2EC
 10
750.596286
 20
227.697992
 30
0.0
 40
1.0
 50
270.0
 51
0.0
  0
LINE
  8
LC-002-002-----0
  6
CONTINUOUS
  5
2ED
 10
749.596286
 20
226.697992
 30
0.0
 11
750.596286
 21
226.697992
 31
0.0
  0
ARC
  8
LC-001-002-RND-0
  6
CONTINUOUS
  5
2EE
 10
749.596286
 20
227.697992
 30
0.0
 40
1.0
 50
180.0
 51
270.0
  0
ARC
  8
LC-001-002-RND-0
  6
CONTINUOUS
  5
2EF
 10
749.596286
 20
355.697992
 30
0.0
 40
1.0
 50
90.0
 51
180.0
  0
ARC
  8
LC-001-002-RND-0
  6
CONTINUOUS
  5
2F0
 10
750.596286
 20
355.697992
 30
0.0
 40
1.0
 50
0.0
 51
90.0
  0
LINE
  8
LC-002-002-----0
  6
CONTINUOUS
  5
2F1
 10
750.596286
 20
356.697992
 30
0.0
 11
749.596286
 21
356.697992
 31
0.0
  0
LINE
  8
LC-002-002-----0
  6
CONTINUOUS
  5
2F2
 10
754.096286
 20
228.697992
 30
0.0
 11
792.096286
 21
228.697992
 31
0.0
  0
LINE
  8
LC-002-002-----0
  6
CONTINUOUS
  5
2F3
 10
751.596286
 20
354.697992
 30
0.0
 11
773.096286
 21
354.697992
 31
0.0
  0
LINE
  8
LC-002-002-----0
  6
DASHDOT
 62
     2
  5
2F4
 10
732.096286
 20
302.197992
 30
0.0
 11
746.596286
 21
302.197992
 31
0.0
  0
LINE
  8
LC-002-002-----0
  6
CONTINUOUS
  5
2F5
 10
236.271234
 20
173.197992
 30
0.0
 11
233.479334
 21
173.197992
 31
0.0
  0
LINE
  8
LC-002-002-----0
  6
CONTINUOUS
  5
2F6
 10
236.271234
 20
175.697992
 30
0.0
 11
236.271234
 21
173.197992
 31
0.0
  0
LINE
  8
LC-002-002-----0
  6
CONTINUOUS
  5
2F7
 10
184.063135
 20
173.197992
 30
0.0
 11
181.271234
 21
173.197992
 31
0.0
  0
LINE
  8
LC-002-002-----0
  6
CONTINUOUS
  5
2F8
 10
181.271234
 20
175.697992
 30
0.0
 11
181.271234
 21
173.197992
 31
0.0
  0
LINE
  8
LC-002-002-----0
  6
DASHDOT
 62
     2
  5
2F9
 10
732.096286
 20
327.197992
 30
0.0
 11
746.596286
 21
327.197992
 31
0.0
  0
LINE
  8
LC-002-002-----0
  6
CONTINUOUS
  5
2FA
 10
188.771234
 20
178.022548
 30
0.0
 11
188.771234
 21
228.697992
 31
0.0
  0
ARC
  8
LC-001-002-RND-0
  6
CONTINUOUS
  5
2FB
 10
189.771234
 20
231.197992
 30
0.0
 40
2.5
 50
180.0
 51
270.0
  0
LINE
  8
LC-002-002-----0
  6
CONTINUOUS
  5
2FC
 10
737.596286
 20
372.197992
 30
0.0
 11
745.596286
 21
372.197992
 31
0.0
  0
LINE
  8
LC-002-002-----0
  6
CONTINUOUS
  5
2FD
 10
185.79196
 20
121.697992
 30
0.0
 11
231.750509
 21
121.697992
 31
0.0
  0
ARC
  8
LC-001-002-RND-0
  6
CONTINUOUS
  5
2FE
 10
231.271234
 20
178.197992
 30
0.0
 40
2.5
 50
180.0
 51
270.0
  0
ARC
  8
LC-001-002-RND-0
  6
CONTINUOUS
  5
2FF
 10
186.271234
 20
178.022548
 30
0.0
 40
2.5
 50
283.342364
 51
0.0
  0
LINE
  8
LC-002-002-----0
  6
CONTINUOUS
  5
300
 10
233.771234
 20
125.197992
 30
0.0
 11
233.771234
 21
171.697992
 31
0.0
  0
LINE
  8
LC-002-002-----0
  6
CONTINUOUS
  5
301
 10
229.771234
 20
175.697992
 30
0.0
 11
181.271234
 21
175.697992
 31
0.0
  0
LINE
  8
LC-002-002-----0
  6
CONTINUOUS
  5
302
 10
227.271234
 20
309.697992
 30
0.0
 11
227.271234
 21
319.697992
 31
0.0
  0
LINE
  8
LC-002-002-----0
  6
CONTINUOUS
  5
303
 10
735.596286
 20
365.983955
 30
0.0
 11
737.596286
 21
365.983955
 31
0.0
  0
LINE
  8
LC-002-002-----0
  6
CONTINUOUS
  5
304
 10
202.174388
 20
331.197992
 30
0.0
 11
195.230226
 21
331.197992
 31
0.0
  0
ARC
  8
LC-001-002-RND-0
  6
CONTINUOUS
  5
305
 10
748.596286
 20
230.697992
 30
0.0
 40
2.0
 50
180.0
 51
270.0
  0
LINE
  8
LC-002-002-----0
  6
CONTINUOUS
  5
306
 10
214.271234
 20
309.697992
 30
0.0
 11
214.271234
 21
319.697992
 31
0.0
  0
ARC
  8
LC-001-002-RND-0
  6
CONTINUOUS
  5
307
 10
748.596286
 20
352.697992
 30
0.0
 40
2.0
 50
90.0
 51
180.0
  0
LINE
  8
LC-002-002-----0
  6
DASHED
 62
     2
  5
308
 10
423.00376
 20
456.950042
 30
0.0
 11
423.00376
 21
431.950042
 31
0.0
  0
LINE
  8
LC-002-002-----0
  6
CONTINUOUS
  5
309
 10
754.496286
 20
291.697992
 30
0.0
 11
767.596286
 21
291.697992
 31
0.0
  0
ARC
  8
LC-001-002-RND-0
  6
CONTINUOUS
  5
30A
 10
189.771234
 20
253.697992
 30
0.0
 40
2.5
 50
169.082115
 51
180.0
  0
LINE
  8
LC-002-002-----0
  6
CONTINUOUS
  5
30B
 10
187.316485
 20
254.171497
 30
0.0
 11
196.387586
 21
301.197992
 31
0.0
  0
ARC
  8
LC-001-002-RND-0
  6
CONTINUOUS
  5
30C
 10
208.771234
 20
352.197992
 30
0.0
 40
2.5
 50
90.0
 51
169.082115
  0
LINE
  8
LC-002-002-----0
  6
CONTINUOUS
  5
30D
 10
204.199769
 20
341.697992
 30
0.0
 11
206.316485
 21
352.671497
 31
0.0
  0
LINE
  8
LC-002-002-----0
  6
CONTINUOUS
  5
30E
 10
214.271234
 20
309.697992
 30
0.0
 11
227.271234
 21
309.697992
 31
0.0
  0
LINE
  8
LC-002-002-----0
  6
CONTINUOUS
  5
30F
 10
754.496286
 20
294.197992
 30
0.0
 11
767.596286
 21
294.197992
 31
0.0
  0
LINE
  8
LC-002-002-----0
  6
CONTINUOUS
  5
310
 10
214.271234
 20
319.697992
 30
0.0
 11
227.271234
 21
319.697992
 31
0.0
  0
LINE
  8
LC-002-002-----0
  6
CONTINUOUS
  5
311
 10
767.596286
 20
291.697992
 30
0.0
 11
767.596286
 21
294.197992
 31
0.0
  0
LINE
  8
LC-002-002-----0
  6
CONTINUOUS
  5
312
 10
-116.819391
 20
338.700211
 30
0.0
 11
-113.319391
 21
338.700211
 31
0.0
  0
LINE
  8
LC-002-002-----0
  6
CONTINUOUS
  5
313
 10
16.685508
 20
306.700211
 30
0.0
 11
16.185508
 21
306.700211
 31
0.0
  0
LINE
  8
LC-002-002-----0
  6
CONTINUOUS
  5
314
 10
214.271234
 20
334.697992
 30
0.0
 11
214.271234
 21
337.197992
 31
0.0
  0
LINE
  8
LC-002-002-----0
  6
CONTINUOUS
  5
315
 10
754.496286
 20
291.697992
 30
0.0
 11
754.496286
 21
294.197992
 31
0.0
  0
LINE
  8
LC-002-002-----0
  6
CONTINUOUS
  5
316
 10
754.496286
 20
270.195193
 30
0.0
 11
754.496286
 21
280.195193
 31
0.0
  0
LINE
  8
LC-002-002-----0
  6
CONTINUOUS
  5
317
 10
767.596286
 20
270.195193
 30
0.0
 11
754.496286
 21
270.195193
 31
0.0
  0
LINE
  8
LC-002-002-----0
  6
CONTINUOUS
  5
318
 10
767.596286
 20
270.195193
 30
0.0
 11
767.596286
 21
280.195193
 31
0.0
  0
ARC
  8
LC-002-002-----0
  6
DASHED
 62
     2
  5
319
 10
131.263301
 20
286.413831
 30
0.0
 40
8.451553
 50
8.690273
 51
78.599914
  0
ARC
  8
LC-002-002-----0
  6
CONTINUOUS
  5
31A
 10
139.61462
 20
335.01525
 30
0.0
 40
6.690726
 50
87.284886
 51
182.717845
  0
ARC
  8
LC-002-002-----0
  6
CONTINUOUS
  5
31B
 10
139.617032
 20
294.381528
 30
0.0
 40
6.690726
 50
177.288957
 51
272.721915
  0
ARC
  8
LC-002-002-----0
  6
DASHED
 62
     2
  5
31C
 10
131.259943
 20
342.981955
 30
0.0
 40
8.451553
 50
281.406888
 51
351.316528
  0
LINE
  8
LC-002-002-----0
  6
CONTINUOUS
  5
31D
 10
140.931429
 20
339.620577
 30
0.0
 11
139.931565
 21
338.238774
 31
0.0
  0
LINE
  8
LC-002-002-----0
  6
CONTINUOUS
  5
31E
 10
139.931559
 20
341.698465
 30
0.0
 11
140.931421
 21
341.402319
 31
0.0
  0
LINE
  8
LC-002-002-----0
  6
CONTINUOUS
  5
31F
 10
140.932113
 20
308.906683
 30
0.0
 11
140.931425
 21
314.698719
 31
0.0
  0
LINE
  8
LC-002-002-----0
  6
CONTINUOUS
  5
320
 10
139.932283
 20
308.610418
 30
0.0
 11
140.932113
 21
308.906683
 31
0.0
  0
LINE
  8
LC-002-002-----0
  6
CONTINUOUS
  5
321
 10
767.596286
 20
280.195193
 30
0.0
 11
754.496286
 21
280.195193
 31
0.0
  0
LINE
  8
LC-002-002-----0
  6
DASHDOT
 62
     2
  5
322
 10
770.10358
 20
275.195193
 30
0.0
 11
753.361107
 21
275.195193
 31
0.0
  0
LINE
  8
LC-002-002-----0
  6
CONTINUOUS
  5
323
 10
737.596286
 20
340.697992
 30
0.0
 11
737.596286
 21
288.697992
 31
0.0
  0
LINE
  8
LC-002-002-----0
  6
CONTINUOUS
  5
324
 10
735.596286
 20
340.697992
 30
0.0
 11
737.596286
 21
340.697992
 31
0.0
  0
LINE
  8
LC-002-002-----0
  6
CONTINUOUS
  5
325
 10
735.596286
 20
288.697992
 30
0.0
 11
737.596286
 21
288.697992
 31
0.0
  0
LINE
  8
LC-002-002-----0
  6
CONTINUOUS
  5
326
 10
227.271234
 20
319.697992
 30
0.0
 11
227.271234
 21
309.697992
 31
0.0
  0
LINE
  8
LC-002-002-----0
  6
CONTINUOUS
  5
327
 10
227.371234
 20
334.697992
 30
0.0
 11
214.271234
 21
334.697992
 31
0.0
  0
LINE
  8
LC-002-002-----0
  6
CONTINUOUS
  5
328
 10
735.596286
 20
266.231509
 30
0.0
 11
737.596286
 21
266.231509
 31
0.0
  0
LINE
  8
LC-002-002-----0
  6
CONTINUOUS
  5
329
 10
735.596286
 20
263.412029
 30
0.0
 11
737.596286
 21
263.412029
 31
0.0
  0
LINE
  8
LC-002-002-----0
  6
CONTINUOUS
  5
32A
 10
735.596286
 20
288.697992
 30
0.0
 11
735.596286
 21
263.412029
 31
0.0
  0
LINE
  8
LC-002-002-----0
  6
CONTINUOUS
  5
32B
 10
737.596286
 20
266.231509
 30
0.0
 11
737.596286
 21
257.197992
 31
0.0
  0
LINE
  8
LC-002-002-----0
  6
CONTINUOUS
  5
32C
 10
737.596286
 20
257.197992
 30
0.0
 11
745.596286
 21
257.197992
 31
0.0
  0
ARC
  8
LC-001-002-RND-0
  6
CONTINUOUS
  5
32D
 10
745.596286
 20
371.197992
 30
0.0
 40
1.0
 50
0.0
 51
90.0
  0
LINE
  8
LC-002-002-----0
  6
CONTINUOUS
  5
32E
 10
737.596286
 20
340.697992
 30
0.0
 11
737.596286
 21
363.102006
 31
0.0
  0
LINE
  8
LC-002-002-----0
  6
CONTINUOUS
  5
32F
 10
737.596286
 20
272.197992
 30
0.0
 11
737.596286
 21
266.197992
 31
0.0
  0
LINE
  8
LC-002-002-----0
  6
CONTINUOUS
  5
330
 10
737.596286
 20
272.197992
 30
0.0
 11
737.596286
 21
288.697992
 31
0.0
  0
ARC
  8
LC-001-002-RND-0
  6
CONTINUOUS
  5
331
 10
745.596286
 20
258.197992
 30
0.0
 40
1.0
 50
270.0
 51
0.0
  0
LINE
  8
LC-002-002-----0
  6
CONTINUOUS
  5
332
 10
737.596286
 20
339.697992
 30
0.0
 11
734.596286
 21
339.697992
 31
0.0
  0
LINE
  8
LC-002-002-----0
  6
CONTINUOUS
  5
333
 10
734.596286
 20
339.697992
 30
0.0
 11
734.596286
 21
289.697992
 31
0.0
  0
LINE
  8
LC-002-002-----0
  6
CONTINUOUS
  5
334
 10
734.596286
 20
289.697992
 30
0.0
 11
737.596286
 21
289.697992
 31
0.0
  0
LINE
  8
LC-002-002-----0
  6
DASHED
 62
     2
  5
335
 10
423.00376
 20
391.950042
 30
0.0
 11
450.00376
 21
391.950042
 31
0.0
  0
LINE
  8
LC-002-002-----0
  6
DASHED
 62
     2
  5
336
 10
450.00376
 20
391.950042
 30
0.0
 11
450.00376
 21
412.544161
 31
0.0
  0
LINE
  8
LC-002-002-----0
  6
CONTINUOUS
  5
337
 10
835.936096
 20
328.197992
 30
0.0
 11
774.096286
 21
328.197992
 31
0.0
  0
LINE
  8
LC-002-002-----0
  6
DASHED
 62
     2
  5
338
 10
450.00376
 20
443.950042
 30
0.0
 11
423.00376
 21
443.950042
 31
0.0
  0
LINE
  8
LC-002-002-----0
  6
DASHED
 62
     2
  5
339
 10
423.00376
 20
404.950042
 30
0.0
 11
450.00376
 21
404.950042
 31
0.0
  0
LINE
  8
LC-002-002-----0
  6
CONTINUOUS
  5
33A
 10
835.891703
 20
301.197992
 30
0.0
 11
755.096286
 21
301.197992
 31
0.0
  0
LINE
  8
LC-002-002-----0
  6
CONTINUOUS
  5
33B
 10
737.596286
 20
343.197992
 30
0.0
 11
746.596286
 21
343.197992
 31
0.0
  0
LINE
  8
LC-002-002-----0
  6
CONTINUOUS
  5
33C
 10
737.596286
 20
286.197992
 30
0.0
 11
746.596286
 21
286.197992
 31
0.0
  0
ARC
  8
LC-002-002-----0
  6
CONTINUOUS
  5
33D
 10
7.560508
 20
301.200211
 30
0.0
 40
10.625
 50
334.942385
 51
25.057615
  0
ARC
  8
LC-001-002-RND-0
  6
CONTINUOUS
  5
33E
 10
16.185508
 20
306.200211
 30
0.0
 40
0.5
 50
90.0
 51
180.0
  0
ARC
  8
LC-001-002-RND-0
  6
CONTINUOUS
  5
33F
 10
16.685508
 20
306.200211
 30
0.0
 40
0.5
 50
0.0
 51
90.0
  0
LINE
  8
LC-002-002-----0
  6
CONTINUOUS
  5
340
 10
17.185508
 20
296.200211
 30
0.0
 11
17.185508
 21
306.200211
 31
0.0
  0
LINE
  8
LC-002-002-----0
  6
CONTINUOUS
 62
     2
  5
341
 10
117.930226
 20
328.574665
 30
0.0
 11
117.930226
 21
322.574665
 31
0.0
  0
LINE
  8
LC-002-002-----0
  6
CONTINUOUS
  5
342
 10
139.931561
 20
340.786397
 30
0.0
 11
140.931425
 21
340.490251
 31
0.0
  0
ARC
  8
LC-002-002-----0
  6
DASHED
 62
     2
  5
343
 10
516.50376
 20
314.697992
 30
0.0
 40
57.5
 50
330.408154
 51
29.591846
  0
ARC
  8
LC-002-002-----0
  6
DASHED
 62
     2
  5
344
 10
516.50376
 20
314.697992
 30
0.0
 40
57.5
 50
29.591846
 51
60.408154
  0
LINE
  8
LC-002-002-----0
  6
DASHDOT
 62
     2
  5
345
 10
416.356646
 20
317.72306
 30
0.0
 11
416.356646
 21
311.697992
 31
0.0
  0
LINE
  8
LC-002-002-----0
  6
CONTINUOUS
  5
346
 10
139.931559
 20
341.698465
 30
0.0
 11
139.931643
 21
287.698466
 31
0.0
  0
LINE
  8
LC-002-002-----0
  6
DASHDOT
 62
     2
  5
347
 10
456.508032
 20
317.697992
 30
0.0
 11
456.508032
 21
311.607236
 31
0.0
  0
LINE
  8
LC-002-002-----0
  6
DASHDOT
 62
     2
  5
348
 10
469.50376
 20
319.697992
 30
0.0
 11
469.50376
 21
309.697992
 31
0.0
  0
LINE
  8
LC-002-002-----0
  6
DASHDOT
 62
     2
  5
349
 10
563.50376
 20
319.697992
 30
0.0
 11
563.50376
 21
309.697992
 31
0.0
  0
LINE
  8
LC-002-002-----0
  6
DASHDOT
 62
     2
  5
34A
 10
557.729838
 20
280.695193
 30
0.0
 11
557.729838
 21
270.695193
 31
0.0
  0
ARC
  8
LC-002-002-----0
  6
DASHED
 62
     2
  5
34B
 10
98.059509
 20
256.255831
 30
0.0
 40
4.5
 50
278.327207
 51
278.714603
  0
LINE
  8
LC-002-002-----0
  6
DASHDOT
 62
     2
  5
34C
 10
562.729838
 20
275.695193
 30
0.0
 11
555.129838
 21
275.695193
 31
0.0
  0
LINE
  8
LC-002-002-----0
  6
DASHDOT
 62
     2
  5
34D
 10
471.729838
 20
280.195193
 30
0.0
 11
471.729838
 21
270.195193
 31
0.0
  0
LINE
  8
LC-002-002-----0
  6
DASHDOT
 62
     2
  5
34E
 10
466.729838
 20
275.195193
 30
0.0
 11
476.900006
 21
275.195193
 31
0.0
  0
ARC
  8
LC-001-002-RND-0
  6
CONTINUOUS
  5
34F
 10
16.685508
 20
296.200211
 30
0.0
 40
0.5
 50
270.0
 51
0.0
  0
LINE
  8
LC-002-002-----0
  6
CONTINUOUS
  5
350
 10
16.685508
 20
295.700211
 30
0.0
 11
16.185508
 21
295.700211
 31
0.0
  0
ARC
  8
LC-001-002-RND-0
  6
CONTINUOUS
  5
351
 10
16.185508
 20
296.200211
 30
0.0
 40
0.5
 50
180.0
 51
270.0
  0
LINE
  8
LC-002-002-----0
  6
CONTINUOUS
  5
352
 10
12.685508
 20
371.200211
 30
0.0
 11
12.685508
 21
362.104225
 31
0.0
  0
LINE
  8
LC-002-002-----0
  6
CONTINUOUS
  5
353
 10
3.685508
 20
370.200211
 30
0.0
 11
3.685508
 21
350.700211
 31
0.0
  0
LINE
  8
LC-002-002-----0
  6
CONTINUOUS
  5
354
 10
14.685508
 20
364.986174
 30
0.0
 11
14.685508
 21
339.700211
 31
0.0
  0
LINE
  8
LC-002-002-----0
  6
CONTINUOUS
  5
355
 10
4.685508
 20
172.200211
 30
0.0
 11
1.893608
 21
172.200211
 31
0.0
  0
LINE
  8
LC-002-002-----0
  6
CONTINUOUS
  5
356
 10
4.685508
 20
174.700211
 30
0.0
 11
4.685508
 21
172.200211
 31
0.0
  0
LINE
  8
LC-002-002-----0
  6
CONTINUOUS
  5
357
 10
-47.522591
 20
172.200211
 30
0.0
 11
-50.314492
 21
172.200211
 31
0.0
  0
LINE
  8
LC-002-002-----0
  6
CONTINUOUS
  5
358
 10
-50.314492
 20
174.700211
 30
0.0
 11
-50.314492
 21
172.200211
 31
0.0
  0
LINE
  8
LC-002-002-----0
  6
CONTINUOUS
  5
359
 10
-42.814492
 20
177.024767
 30
0.0
 11
-42.814492
 21
227.700211
 31
0.0
  0
ARC
  8
LC-001-002-RND-0
  6
CONTINUOUS
  5
35A
 10
-41.814492
 20
230.200211
 30
0.0
 40
2.5
 50
180.0
 51
270.0
  0
LINE
  8
LC-002-002-----0
  6
CONTINUOUS
  5
35B
 10
-45.793766
 20
120.700211
 30
0.0
 11
0.164782
 21
120.700211
 31
0.0
  0
ARC
  8
LC-002-002-----0
  6
CONTINUOUS
  5
35C
 10
678.130553
 20
324.237992
 30
0.0
 40
1.5
 50
23.171101
 51
90.0
  0
LINE
  8
LC-002-002-----0
  6
CONTINUOUS
  5
35D
 10
139.931561
 20
336.286397
 30
0.0
 11
140.931425
 21
335.990251
 31
0.0
  0
ARC
  8
LC-001-002-RND-0
  6
CONTINUOUS
  5
35E
 10
-0.314492
 20
177.200211
 30
0.0
 40
2.5
 50
180.0
 51
270.0
  0
CIRCLE
  8
LC-002-002-----0
  6
CONTINUOUS
  5
35F
 10
615.380306
 20
140.129278
 30
0.0
 40
2525.0
  0
ARC
  8
LC-001-002-RND-0
  6
CONTINUOUS
  5
360
 10
-45.314492
 20
177.024767
 30
0.0
 40
2.5
 50
283.342364
 51
0.0
  0
LINE
  8
LC-002-002-----0
  6
DASHDOT
 62
     2
  5
361
 10
97.929273
 20
314.697102
 30
0.0
 11
97.929241
 21
264.700213
 31
0.0
  0
LINE
  8
LC-002-002-----0
  6
CONTINUOUS
  5
362
 10
2.185508
 20
124.200211
 30
0.0
 11
2.185508
 21
170.700211
 31
0.0
  0
LINE
  8
LC-002-002-----0
  6
CONTINUOUS
  5
363
 10
-1.814492
 20
174.700211
 30
0.0
 11
-50.314492
 21
174.700211
 31
0.0
  0
ARC
  8
LC-001-002-RND-0
  6
CONTINUOUS
  5
364
 10
-110.819391
 20
338.700211
 30
0.0
 40
2.5
 50
90.0
 51
180.0
  0
LINE
  8
LC-002-002-----0
  6
CONTINUOUS
  5
365
 10
132.929286
 20
334.45019
 30
0.0
 11
132.929286
 21
331.30019
 31
0.0
  0
LINE
  8
LC-002-002-----0
  6
CONTINUOUS
  5
366
 10
107.929265
 20
302.700207
 30
0.0
 11
97.929273
 21
314.697102
 31
0.0
  0
ARC
  8
LC-001-002-RND-0
  6
CONTINUOUS
  5
367
 10
-116.819391
 20
336.200211
 30
0.0
 40
2.5
 50
90.0
 51
180.0
  0
LINE
  8
LC-002-002-----0
  6
CONTINUOUS
  5
368
 10
-119.319391
 20
313.700211
 30
0.0
 11
-119.319391
 21
291.200211
 31
0.0
  0
ARC
  8
LC-002-002-----0
  6
CONTINUOUS
  5
369
 10
686.588425
 20
324.237992
 30
0.0
 40
1.5
 50
90.0
 51
156.828899
  0
ARC
  8
LC-001-002-RND-0
  6
CONTINUOUS
  5
36A
 10
-41.814492
 20
252.700211
 30
0.0
 40
2.5
 50
169.082115
 51
180.0
  0
LINE
  8
LC-002-002-----0
  6
CONTINUOUS
  5
36B
 10
-44.269241
 20
253.173716
 30
0.0
 11
-39.731135
 21
276.700211
 31
0.0
  0
ARC
  8
LC-001-002-RND-0
  6
CONTINUOUS
  5
36C
 10
-22.814492
 20
351.200211
 30
0.0
 40
2.5
 50
90.0
 51
169.082115
  0
LINE
  8
LC-002-002-----0
  6
CONTINUOUS
  5
36D
 10
733.096286
 20
332.197992
 30
0.0
 11
733.096286
 21
322.197992
 31
0.0
  0
LINE
  8
LC-002-002-----0
  6
CONTINUOUS
  5
36E
 10
733.596286
 20
332.697992
 30
0.0
 11
734.096286
 21
332.697992
 31
0.0
  0
ARC
  8
LC-002-002-----0
  6
DASHED
 62
     2
  5
36F
 10
516.50376
 20
314.697992
 30
0.0
 40
42.0
 50
359.831098
 51
26.765501
  0
LINE
  8
LC-002-002-----0
  6
CONTINUOUS
  5
370
 10
733.596286
 20
321.697992
 30
0.0
 11
734.096286
 21
321.697992
 31
0.0
  0
ARC
  8
LC-001-002-RND-0
  6
CONTINUOUS
  5
371
 10
733.596286
 20
322.197992
 30
0.0
 40
0.5
 50
180.0
 51
270.0
  0
ARC
  8
LC-001-002-RND-0
  6
CONTINUOUS
  5
372
 10
734.096286
 20
322.197992
 30
0.0
 40
0.5
 50
270.0
 51
0.0
  0
ARC
  8
LC-002-002-----0
  6
CONTINUOUS
  5
373
 10
742.721286
 20
327.197992
 30
0.0
 40
10.625
 50
154.942385
 51
205.057615
  0
ARC
  8
LC-001-002-RND-0
  6
CONTINUOUS
  5
374
 10
734.096286
 20
332.197992
 30
0.0
 40
0.5
 50
0.0
 51
90.0
  0
ARC
  8
LC-001-002-RND-0
  6
CONTINUOUS
  5
375
 10
733.596286
 20
332.197992
 30
0.0
 40
0.5
 50
90.0
 51
180.0
  0
LINE
  8
LC-002-002-----0
  6
CONTINUOUS
  5
376
 10
-25.457023
 20
350.700211
 30
0.0
 11
-25.269241
 21
351.673716
 31
0.0
  0
LINE
  8
LC-002-002-----0
  6
CONTINUOUS
  5
377
 10
-113.319391
 20
313.700211
 30
0.0
 11
-113.319391
 21
288.700211
 31
0.0
  0
ARC
  8
LC-001-002-RND-0
  6
CONTINUOUS
  5
378
 10
-116.819391
 20
291.200211
 30
0.0
 40
2.5
 50
180.0
 51
270.0
  0
LINE
  8
LC-002-002-----0
  6
CONTINUOUS
  5
379
 10
-116.819391
 20
288.700211
 30
0.0
 11
-113.319391
 21
288.700211
 31
0.0
  0
LINE
  8
LC-002-002-----0
  6
CONTINUOUS
  5
37A
 10
-110.819391
 20
286.200211
 30
0.0
 11
-109.319391
 21
286.200211
 31
0.0
  0
ARC
  8
LC-001-002-RND-0
  6
CONTINUOUS
  5
37B
 10
-110.819391
 20
288.700211
 30
0.0
 40
2.5
 50
180.0
 51
270.0
  0
LINE
  8
LC-002-002-----0
  6
CONTINUOUS
  5
37C
 10
648.999489
 20
354.697992
 30
0.0
 11
583.999489
 21
354.697992
 31
0.0
  0
ARC
  8
LC-001-002-RND-0
  6
CONTINUOUS
  5
37D
 10
-1.814492
 20
170.700211
 30
0.0
 40
4.0
 50
0.0
 51
90.0
  0
ARC
  8
LC-001-002-RND-0
  6
CONTINUOUS
  5
37E
 10
-43.814492
 20
170.700211
 30
0.0
 40
4.0
 50
103.342364
 51
180.0
  0
LINE
  8
LC-002-002-----0
  6
CONTINUOUS
  5
37F
 10
1.685508
 20
226.700211
 30
0.0
 11
1.685508
 21
276.700211
 31
0.0
  0
LINE
  8
LC-002-002-----0
  6
CONTINUOUS
  5
380
 10
1.685508
 20
347.52328
 30
0.0
 11
1.685508
 21
354.700211
 31
0.0
  0
LINE
  8
LC-002-002-----0
  6
CONTINUOUS
  5
381
 10
0.185508
 20
225.700211
 30
0.0
 11
0.185508
 21
276.700211
 31
0.0
  0
LINE
  8
LC-002-002-----0
  6
CONTINUOUS
  5
382
 10
0.185508
 20
350.700211
 30
0.0
 11
0.185508
 21
355.700211
 31
0.0
  0
LINE
  8
LC-002-002-----0
  6
CONTINUOUS
  5
383
 10
3.685508
 20
229.700211
 30
0.0
 11
3.685508
 21
276.700211
 31
0.0
  0
LINE
  8
LC-002-002-----0
  6
CONTINUOUS
  5
384
 10
548.130059
 20
231.088646
 30
0.0
 11
552.306198
 21
264.697992
 31
0.0
  0
LINE
  8
LC-002-002-----0
  6
CONTINUOUS
 62
     2
  5
385
 10
117.93022
 20
317.698289
 30
0.0
 11
131.929275
 21
317.69912
 31
0.0
  0
ARC
  8
LC-002-002-----0
  6
CONTINUOUS
  5
386
 10
543.167328
 20
231.697992
 30
0.0
 40
5.0
 50
270.0
 51
353.0
  0
ARC
  8
LC-002-002-----0
  6
CONTINUOUS
  5
387
 10
487.522239
 20
236.697992
 30
0.0
 40
10.0
 50
182.183915
 51
270.0
  0
LINE
  8
LC-002-002-----0
  6
CONTINUOUS
 62
     2
  5
388
 10
117.930577
 20
311.698289
 30
0.0
 11
131.929271
 21
311.69912
 31
0.0
  0
LINE
  8
LC-002-002-----0
  6
CONTINUOUS
  5
389
 10
541.50376
 20
125.197992
 30
0.0
 11
540.565938
 21
121.697992
 31
0.0
  0
LINE
  8
LC-002-002-----0
  6
CONTINUOUS
  5
38A
 10
491.50376
 20
125.197992
 30
0.0
 11
492.441583
 21
121.697992
 31
0.0
  0
LINE
  8
LC-002-002-----0
  6
CONTINUOUS
  5
38B
 10
-1.314492
 20
226.700211
 30
0.0
 11
-1.314492
 21
276.700211
 31
0.0
  0
LINE
  8
LC-002-002-----0
  6
CONTINUOUS
  5
38C
 10
-1.314492
 20
350.700211
 30
0.0
 11
-1.314492
 21
354.700211
 31
0.0
  0
LINE
  8
LC-002-002-----0
  6
CONTINUOUS
  5
38D
 10
-95.319391
 20
330.199708
 30
0.0
 11
-95.319391
 21
363.875299
 31
0.0
  0
LINE
  8
LC-002-002-----0
  6
CONTINUOUS
  5
38E
 10
4.685508
 20
174.700211
 30
0.0
 11
-0.314492
 21
174.700211
 31
0.0
  0
ARC
  8
LC-001-002-RND-0
  6
CONTINUOUS
  5
38F
 10
229.771234
 20
171.697992
 30
0.0
 40
4.0
 50
0.0
 51
90.0
  0
ARC
  8
LC-001-002-RND-0
  6
CONTINUOUS
  5
390
 10
187.771234
 20
171.697992
 30
0.0
 40
4.0
 50
103.342364
 51
180.0
  0
LINE
  8
LC-002-002-----0
  6
CONTINUOUS
  5
391
 10
233.271234
 20
227.697992
 30
0.0
 11
233.271234
 21
312.404716
 31
0.0
  0
LINE
  8
LC-002-002-----0
  6
CONTINUOUS
  5
392
 10
233.271234
 20
334.697992
 30
0.0
 11
233.271234
 21
355.697992
 31
0.0
  0
LINE
  8
LC-002-002-----0
  6
CONTINUOUS
  5
393
 10
231.771234
 20
226.697992
 30
0.0
 11
231.771234
 21
312.147027
 31
0.0
  0
LINE
  8
LC-002-002-----0
  6
CONTINUOUS
  5
394
 10
231.771234
 20
334.697992
 30
0.0
 11
231.771234
 21
356.697992
 31
0.0
  0
LINE
  8
LC-002-002-----0
  6
CONTINUOUS
  5
395
 10
235.271234
 20
230.697992
 30
0.0
 11
235.271234
 21
371.197992
 31
0.0
  0
LINE
  8
LC-002-002-----0
  6
CONTINUOUS
  5
396
 10
235.271234
 20
334.697992
 30
0.0
 11
235.271234
 21
352.697992
 31
0.0
  0
LINE
  8
LC-002-002-----0
  6
CONTINUOUS
  5
397
 10
204.199769
 20
341.697992
 30
0.0
 11
196.387586
 21
301.197992
 31
0.0
  0
LINE
  8
LC-002-002-----0
  6
CONTINUOUS
  5
398
 10
227.371234
 20
337.197992
 30
0.0
 11
214.271234
 21
337.197992
 31
0.0
  0
LINE
  8
LC-002-002-----0
  6
CONTINUOUS
  5
399
 10
230.271234
 20
227.697992
 30
0.0
 11
230.271234
 21
312.490613
 31
0.0
  0
LINE
  8
LC-002-002-----0
  6
CONTINUOUS
  5
39A
 10
140.931421
 20
341.402319
 30
0.0
 11
140.931421
 21
339.620577
 31
0.0
  0
LINE
  8
LC-002-002-----0
  6
CONTINUOUS
  5
39B
 10
230.271234
 20
334.697992
 30
0.0
 11
230.271234
 21
355.697992
 31
0.0
  0
LINE
  8
LC-002-002-----0
  6
CONTINUOUS
  5
39C
 10
541.50376
 20
171.697992
 30
0.0
 11
541.50376
 21
125.197992
 31
0.0
  0
LINE
  8
LC-002-002-----0
  6
CONTINUOUS
 62
     2
  5
39D
 10
117.930226
 20
328.574665
 30
0.0
 11
131.92928
 21
328.574656
 31
0.0
  0
LINE
  8
LC-002-002-----0
  6
CONTINUOUS
  5
39E
 10
-47.814492
 20
170.700211
 30
0.0
 11
-47.814492
 21
124.200211
 31
0.0
  0
LINE
  8
LC-002-002-----0
  6
CONTINUOUS
  5
39F
 10
491.50376
 20
171.697992
 30
0.0
 11
491.50376
 21
125.197992
 31
0.0
  0
LINE
  8
LC-002-002-----0
  6
CONTINUOUS
  5
3A0
 10
496.50376
 20
226.697992
 30
0.0
 11
496.50376
 21
175.697992
 31
0.0
  0
LINE
  8
LC-002-002-----0
  6
CONTINUOUS
  5
3A1
 10
131.929261
 20
295.948164
 30
0.0
 11
131.929286
 21
334.450191
 31
0.0
  0
LINE
  8
LC-002-002-----0
  6
CONTINUOUS
  5
3A2
 10
131.929286
 20
334.450191
 30
0.0
 11
132.929286
 21
334.45019
 31
0.0
  0
ARC
  8
LC-002-002-----0
  6
CONTINUOUS
  5
3A3
 10
117.929283
 20
330.4502
 30
0.0
 40
3.0
 50
89.999963
 51
179.999963
  0
LINE
  8
LC-002-002-----0
  6
CONTINUOUS
  5
3A4
 10
117.929285
 20
333.4502
 30
0.0
 11
131.929285
 21
333.450191
 31
0.0
  0
LINE
  8
LC-002-002-----0
  6
CONTINUOUS
  5
3A5
 10
117.931626
 20
295.948099
 30
0.0
 11
131.931626
 21
295.948164
 31
0.0
  0
LINE
  8
LC-002-002-----0
  6
CONTINUOUS
  5
3A6
 10
131.931626
 20
295.948164
 30
0.0
 11
131.931631
 21
294.948164
 31
0.0
  0
LINE
  8
LC-002-002-----0
  6
CONTINUOUS
  5
3A7
 10
131.931631
 20
294.948164
 30
0.0
 11
132.931631
 21
294.948168
 31
0.0
  0
LINE
  8
LC-002-002-----0
  6
CONTINUOUS
  5
3A8
 10
-2.814492
 20
227.700211
 30
0.0
 11
-2.814492
 21
177.200211
 31
0.0
  0
LINE
  8
LC-002-002-----0
  6
CONTINUOUS
  5
3A9
 10
-44.314492
 20
230.200211
 30
0.0
 11
-44.314492
 21
252.700211
 31
0.0
  0
LINE
  8
LC-003-001-----0
  6
CONTINUOUS
  5
3AA
 10
-47.814492
 20
124.200211
 30
0.0
 11
2.185508
 21
124.200211
 31
0.0
  0
LINE
  8
LC-002-002-----0
  6
CONTINUOUS
  5
3AB
 10
2.185508
 20
124.200211
 30
0.0
 11
0.164782
 21
120.700211
 31
0.0
  0
LINE
  8
LC-002-002-----0
  6
CONTINUOUS
  5
3AC
 10
-47.814492
 20
124.200211
 30
0.0
 11
-45.793766
 21
120.700211
 31
0.0
  0
LINE
  8
LC-002-002-----0
  6
DASHDOT
 62
     2
  5
3AD
 10
-22.814492
 20
227.700211
 30
0.0
 11
-22.814492
 21
120.700211
 31
0.0
  0
LINE
  8
LC-002-002-----0
  6
CONTINUOUS
  5
3AE
 10
-3.814492
 20
227.700211
 30
0.0
 11
-1.314492
 21
227.700211
 31
0.0
  0
ARC
  8
LC-001-002-RND-0
  6
CONTINUOUS
  5
3AF
 10
-0.314492
 20
226.700211
 30
0.0
 40
1.0
 50
180.0
 51
270.0
  0
LINE
  8
LC-002-002-----0
  6
CONTINUOUS
  5
3B0
 10
0.685508
 20
225.700211
 30
0.0
 11
-0.314492
 21
225.700211
 31
0.0
  0
ARC
  8
LC-001-002-RND-0
  6
CONTINUOUS
  5
3B1
 10
0.685508
 20
226.700211
 30
0.0
 40
1.0
 50
270.0
 51
0.0
  0
ARC
  8
LC-001-002-RND-0
  6
CONTINUOUS
  5
3B2
 10
0.685508
 20
354.700211
 30
0.0
 40
1.0
 50
0.0
 51
90.0
  0
ARC
  8
LC-001-002-RND-0
  6
CONTINUOUS
  5
3B3
 10
-0.314492
 20
354.700211
 30
0.0
 40
1.0
 50
90.0
 51
180.0
  0
LINE
  8
LC-002-002-----0
  6
CONTINUOUS
  5
3B4
 10
-0.314492
 20
355.700211
 30
0.0
 11
0.685508
 21
355.700211
 31
0.0
  0
LINE
  8
LC-002-002-----0
  6
CONTINUOUS
  5
3B5
 10
-3.814492
 20
227.700211
 30
0.0
 11
-41.814492
 21
227.700211
 31
0.0
  0
LINE
  8
LC-002-002-----0
  6
CONTINUOUS
  5
3B6
 10
-1.314492
 20
353.700211
 30
0.0
 11
-22.814492
 21
353.700211
 31
0.0
  0
LINE
  8
LC-002-002-----0
  6
CONTINUOUS
  5
3B7
 10
12.685508
 20
371.200211
 30
0.0
 11
4.685508
 21
371.200211
 31
0.0
  0
LINE
  8
LC-002-002-----0
  6
CONTINUOUS
  5
3B8
 10
14.685508
 20
364.986174
 30
0.0
 11
12.685508
 21
364.986174
 31
0.0
  0
ARC
  8
LC-001-002-RND-0
  6
CONTINUOUS
  5
3B9
 10
1.685508
 20
229.700211
 30
0.0
 40
2.0
 50
270.0
 51
0.0
  0
ARC
  8
LC-001-002-RND-0
  6
CONTINUOUS
  5
3BA
 10
1.685508
 20
351.700211
 30
0.0
 40
2.0
 50
0.0
 51
90.0
  0
LINE
  8
LC-002-002-----0
  6
CONTINUOUS
  5
3BB
 10
-95.319391
 20
263.699708
 30
0.0
 11
-95.319391
 21
297.199708
 31
0.0
  0
LINE
  8
LC-002-002-----0
  6
CONTINUOUS
  5
3BC
 10
-95.319391
 20
263.699708
 30
0.0
 11
-99.440712
 21
267.821028
 31
0.0
  0
ARC
  8
LC-002-002-----0
  6
CONTINUOUS
  5
3BD
 10
-97.319391
 20
269.942349
 30
0.0
 40
3.0
 50
180.0
 51
225.0
  0
LINE
  8
LC-002-002-----0
  6
CONTINUOUS
  5
3BE
 10
-95.319391
 20
363.699708
 30
0.0
 11
-99.440712
 21
359.578388
 31
0.0
  0
ARC
  8
LC-002-002-----0
  6
CONTINUOUS
  5
3BF
 10
-97.319391
 20
357.457067
 30
0.0
 40
3.0
 50
135.0
 51
180.0
  0
LINE
  8
LC-002-002-----0
  6
CONTINUOUS
  5
3C0
 10
12.685508
 20
339.700211
 30
0.0
 11
12.685508
 21
287.700211
 31
0.0
  0
LINE
  8
LC-002-002-----0
  6
CONTINUOUS
  5
3C1
 10
14.685508
 20
339.700211
 30
0.0
 11
12.685508
 21
339.700211
 31
0.0
  0
LINE
  8
LC-002-002-----0
  6
CONTINUOUS
  5
3C2
 10
14.685508
 20
287.700211
 30
0.0
 11
12.685508
 21
287.700211
 31
0.0
  0
LINE
  8
LC-002-002-----0
  6
CONTINUOUS
  5
3C3
 10
14.685508
 20
262.414248
 30
0.0
 11
12.685508
 21
262.414248
 31
0.0
  0
LINE
  8
LC-002-002-----0
  6
CONTINUOUS
  5
3C4
 10
14.685508
 20
287.700211
 30
0.0
 11
14.685508
 21
262.414248
 31
0.0
  0
LINE
  8
LC-002-002-----0
  6
CONTINUOUS
  5
3C5
 10
12.685508
 20
265.233728
 30
0.0
 11
12.685508
 21
256.200211
 31
0.0
  0
LINE
  8
LC-002-002-----0
  6
CONTINUOUS
  5
3C6
 10
12.685508
 20
256.200211
 30
0.0
 11
4.685508
 21
256.200211
 31
0.0
  0
ARC
  8
LC-001-002-RND-0
  6
CONTINUOUS
  5
3C7
 10
4.685508
 20
370.200211
 30
0.0
 40
1.0
 50
90.0
 51
180.0
  0
LINE
  8
LC-002-002-----0
  6
CONTINUOUS
  5
3C8
 10
12.685508
 20
339.700211
 30
0.0
 11
12.685508
 21
362.104225
 31
0.0
  0
LINE
  8
LC-002-002-----0
  6
CONTINUOUS
  5
3C9
 10
12.685508
 20
271.200211
 30
0.0
 11
12.685508
 21
265.200211
 31
0.0
  0
LINE
  8
LC-002-002-----0
  6
CONTINUOUS
  5
3CA
 10
12.685508
 20
271.200211
 30
0.0
 11
12.685508
 21
287.700211
 31
0.0
  0
ARC
  8
LC-001-002-RND-0
  6
CONTINUOUS
  5
3CB
 10
4.685508
 20
257.200211
 30
0.0
 40
1.0
 50
180.0
 51
270.0
  0
LINE
  8
LC-002-002-----0
  6
CONTINUOUS
  5
3CC
 10
12.685508
 20
338.700211
 30
0.0
 11
15.685508
 21
338.700211
 31
0.0
  0
LINE
  8
LC-002-002-----0
  6
CONTINUOUS
  5
3CD
 10
15.685508
 20
338.700211
 30
0.0
 11
15.685508
 21
288.700211
 31
0.0
  0
LINE
  8
LC-002-002-----0
  6
CONTINUOUS
  5
3CE
 10
15.685508
 20
288.700211
 30
0.0
 11
12.685508
 21
288.700211
 31
0.0
  0
LINE
  8
LC-002-002-----0
  6
CONTINUOUS
  5
3CF
 10
-100.319391
 20
353.700211
 30
0.0
 11
-103.319391
 21
353.700211
 31
0.0
  0
LINE
  8
LC-002-002-----0
  6
CONTINUOUS
  5
3D0
 10
-109.319391
 20
279.700211
 30
0.0
 11
-109.319391
 21
347.700211
 31
0.0
  0
LINE
  8
LC-002-002-----0
  6
CONTINUOUS
  5
3D1
 10
-100.319391
 20
273.700211
 30
0.0
 11
-103.319391
 21
273.700211
 31
0.0
  0
ARC
  8
LC-001-002-RND-0
  6
CONTINUOUS
  5
3D2
 10
-103.319391
 20
347.700211
 30
0.0
 40
6.0
 50
90.0
 51
180.0
  0
ARC
  8
LC-001-002-RND-0
  6
CONTINUOUS
  5
3D3
 10
-103.319391
 20
279.700211
 30
0.0
 40
6.0
 50
180.0
 51
270.0
  0
LINE
  8
LC-002-002-----0
  6
CONTINUOUS
  5
3D4
 10
132.931631
 20
294.948168
 30
0.0
 11
132.931462
 21
331.30019
 31
0.0
  0
ARC
  8
LC-002-002-----0
  6
CONTINUOUS
  5
3D5
 10
117.931612
 20
298.948099
 30
0.0
 40
3.0
 50
180.000267
 51
270.000229
  0
LINE
  8
LC-002-002-----0
  6
CONTINUOUS
 62
     2
  5
3D6
 10
117.930226
 20
322.574665
 30
0.0
 11
131.92928
 21
322.574656
 31
0.0
  0
LINE
  8
LC-002-002-----0
  6
CONTINUOUS
  5
3D7
 10
114.929264
 20
299.948085
 30
0.0
 11
114.929283
 21
330.450202
 31
0.0
  0
LINE
  8
LC-002-002-----0
  6
CONTINUOUS
 62
     2
  5
3D8
 10
117.931161
 20
306.821913
 30
0.0
 11
131.930215
 21
306.823584
 31
0.0
  0
LINE
  8
LC-002-002-----0
  6
CONTINUOUS
  5
3D9
 10
114.931607
 20
299.948085
 30
0.0
 11
114.931612
 21
298.948085
 31
0.0
  0
LINE
  8
LC-002-002-----0
  6
DASHDOT
 62
     2
  5
3DA
 10
516.50376
 20
226.697992
 30
0.0
 11
516.50376
 21
175.697992
 31
0.0
  0
LINE
  8
LC-002-002-----0
  6
CONTINUOUS
  5
3DB
 10
492.441583
 20
121.697992
 30
0.0
 11
540.565938
 21
121.697992
 31
0.0
  0
LINE
  8
LC-002-002-----0
  6
CONTINUOUS
  5
3DC
 10
491.50376
 20
125.197992
 30
0.0
 11
541.50376
 21
125.197992
 31
0.0
  0
LINE
  8
LC-002-002-----0
  6
CONTINUOUS
  5
3DD
 10
87.929273
 20
313.70022
 30
0.0
 11
87.929263
 21
299.70022
 31
0.0
  0
LINE
  8
LC-002-002-----0
  6
CONTINUOUS
  5
3DE
 10
495.50376
 20
175.697992
 30
0.0
 11
537.50376
 21
175.697992
 31
0.0
  0
LINE
  8
LC-002-002-----0
  6
CONTINUOUS
  5
3DF
 10
107.929265
 20
302.700207
 30
0.0
 11
107.929263
 21
299.700207
 31
0.0
  0
ARC
  8
LC-001-002-RND-0
  6
CONTINUOUS
  5
3E0
 10
100.929273
 20
313.700211
 30
0.0
 40
13.0
 50
89.999963
 51
179.999963
  0
LINE
  8
LC-002-002-----0
  6
CONTINUOUS
  5
3E1
 10
114.929281
 20
326.700202
 30
0.0
 11
100.929281
 21
326.700211
 31
0.0
  0
LINE
  8
LC-002-002-----0
  6
DASHED
 62
     2
  5
3E2
 10
474.503778
 20
314.659406
 30
0.0
 11
476.240267
 21
269.697992
 31
0.0
  0
LINE
  8
LC-002-002-----0
  6
CONTINUOUS
 62
     2
  5
3E3
 10
117.931873
 20
300.821914
 30
0.0
 11
131.930927
 21
300.823585
 31
0.0
  0
LINE
  8
LC-002-002-----0
  6
CONTINUOUS
  5
3E4
 10
140.933953
 20
293.406683
 30
0.0
 11
140.932766
 21
303.406683
 31
0.0
  0
LINE
  8
LC-002-002-----0
  6
CONTINUOUS
  5
3E5
 10
140.931425
 20
335.990251
 30
0.0
 11
140.931425
 21
325.990251
 31
0.0
  0
LINE
  8
LC-002-002-----0
  6
CONTINUOUS
  5
3E6
 10
139.931561
 20
320.786397
 30
0.0
 11
140.931425
 21
320.490251
 31
0.0
  0
LINE
  8
LC-002-002-----0
  6
CONTINUOUS
  5
3E7
 10
140.931425
 20
320.490251
 30
0.0
 11
140.931425
 21
314.698215
 31
0.0
  0
LINE
  8
LC-002-002-----0
  6
DASHED
 62
     2
  5
3E8
 10
-56.319391
 20
350.700211
 30
0.0
 11
-56.319391
 21
348.700211
 31
0.0
  0
LINE
  8
LC-002-002-----0
  6
CONTINUOUS
  5
3E9
 10
139.932866
 20
303.702711
 30
0.0
 11
140.932766
 21
303.406683
 31
0.0
  0
LINE
  8
LC-002-002-----0
  6
CONTINUOUS
  5
3EA
 10
139.931561
 20
325.694104
 30
0.0
 11
140.931425
 21
325.990251
 31
0.0
  0
LINE
  8
LC-002-002-----0
  6
CONTINUOUS
  5
3EB
 10
139.934123
 20
293.110418
 30
0.0
 11
140.933953
 21
293.406683
 31
0.0
  0
LINE
  8
LC-002-002-----0
  6
CONTINUOUS
  5
3EC
 10
140.934387
 20
289.776357
 30
0.0
 11
139.934359
 21
291.158042
 31
0.0
  0
LINE
  8
LC-002-002-----0
  6
CONTINUOUS
  5
3ED
 10
140.934591
 20
287.994615
 30
0.0
 11
140.93438
 21
289.776357
 31
0.0
  0
LINE
  8
LC-002-002-----0
  6
CONTINUOUS
  5
3EE
 10
139.934658
 20
288.610418
 30
0.0
 11
140.934487
 21
288.906683
 31
0.0
  0
LINE
  8
LC-002-002-----0
  6
CONTINUOUS
  5
3EF
 10
139.934764
 20
287.69835
 30
0.0
 11
140.934591
 21
287.994615
 31
0.0
  0
LINE
  8
LC-002-002-----0
  6
CONTINUOUS
  5
3F0
 10
-100.319391
 20
270.118588
 30
0.0
 11
-100.319391
 21
358.038521
 31
0.0
  0
LINE
  8
LC-002-002-----0
  6
CONTINUOUS
  5
3F1
 10
145.931425
 20
328.198719
 30
0.0
 11
145.931425
 21
364.698719
 31
0.0
  0
LINE
  8
LC-002-002-----0
  6
CONTINUOUS
  5
3F2
 10
236.271234
 20
175.697992
 30
0.0
 11
231.271234
 21
175.697992
 31
0.0
  0
LINE
  8
LC-002-002-----0
  6
CONTINUOUS
  5
3F3
 10
183.771234
 20
171.697992
 30
0.0
 11
183.771234
 21
125.197992
 31
0.0
  0
LINE
  8
LC-002-002-----0
  6
CONTINUOUS
  5
3F4
 10
228.771234
 20
228.697992
 30
0.0
 11
228.771234
 21
178.197992
 31
0.0
  0
LINE
  8
LC-002-002-----0
  6
CONTINUOUS
  5
3F5
 10
187.271234
 20
231.197992
 30
0.0
 11
187.271234
 21
253.697992
 31
0.0
  0
LINE
  8
LC-003-001-----0
  6
CONTINUOUS
  5
3F6
 10
183.771234
 20
125.197992
 30
0.0
 11
233.771234
 21
125.197992
 31
0.0
  0
LINE
  8
LC-002-002-----0
  6
CONTINUOUS
  5
3F7
 10
233.771234
 20
125.197992
 30
0.0
 11
231.750509
 21
121.697992
 31
0.0
  0
LINE
  8
LC-002-002-----0
  6
CONTINUOUS
  5
3F8
 10
183.771234
 20
125.197992
 30
0.0
 11
185.79196
 21
121.697992
 31
0.0
  0
LINE
  8
LC-002-002-----0
  6
DASHDOT
 62
     2
  5
3F9
 10
208.771234
 20
228.697992
 30
0.0
 11
208.771234
 21
121.697992
 31
0.0
  0
LINE
  8
LC-002-002-----0
  6
CONTINUOUS
  5
3FA
 10
227.771234
 20
228.697992
 30
0.0
 11
230.271234
 21
228.697992
 31
0.0
  0
ARC
  8
LC-001-002-RND-0
  6
CONTINUOUS
  5
3FB
 10
231.271234
 20
227.697992
 30
0.0
 40
1.0
 50
180.0
 51
270.0
  0
LINE
  8
LC-002-002-----0
  6
CONTINUOUS
  5
3FC
 10
232.271234
 20
226.697992
 30
0.0
 11
231.271234
 21
226.697992
 31
0.0
  0
ARC
  8
LC-001-002-RND-0
  6
CONTINUOUS
  5
3FD
 10
232.271234
 20
227.697992
 30
0.0
 40
1.0
 50
270.0
 51
0.0
  0
ARC
  8
LC-001-002-RND-0
  6
CONTINUOUS
  5
3FE
 10
232.271234
 20
355.697992
 30
0.0
 40
1.0
 50
0.0
 51
90.0
  0
ARC
  8
LC-001-002-RND-0
  6
CONTINUOUS
  5
3FF
 10
231.271234
 20
355.697992
 30
0.0
 40
1.0
 50
90.0
 51
180.0
  0
LINE
  8
LC-002-002-----0
  6
CONTINUOUS
  5
400
 10
231.271234
 20
356.697992
 30
0.0
 11
232.271234
 21
356.697992
 31
0.0
  0
LINE
  8
LC-002-002-----0
  6
CONTINUOUS
  5
401
 10
227.771234
 20
228.697992
 30
0.0
 11
189.771234
 21
228.697992
 31
0.0
  0
LINE
  8
LC-002-002-----0
  6
CONTINUOUS
  5
402
 10
230.271234
 20
354.697992
 30
0.0
 11
208.771234
 21
354.697992
 31
0.0
  0
LINE
  8
LC-002-002-----0
  6
CONTINUOUS
  5
403
 10
-49.179391
 20
338.700211
 30
0.0
 11
-49.179391
 21
288.700211
 31
0.0
  0
LINE
  8
LC-002-002-----0
  6
CONTINUOUS
  5
404
 10
8.697906
 20
360.196393
 30
0.0
 11
8.697906
 21
361.201176
 31
0.0
  0
LINE
  8
LC-002-002-----0
  6
CONTINUOUS
  5
405
 10
-58.179391
 20
347.700211
 30
0.0
 11
-58.179391
 21
279.700211
 31
0.0
  0
LINE
  8
LC-002-002-----0
  6
DASHED
 62
     2
  5
406
 10
-52.319391
 20
350.700211
 30
0.0
 11
-52.319391
 21
348.700211
 31
0.0
  0
LINE
  8
LC-002-002-----0
  6
CONTINUOUS
  5
407
 10
10.185508
 20
356.198464
 30
0.0
 11
4.685508
 21
356.198464
 31
0.0
  0
LINE
  8
LC-002-002-----0
  6
CONTINUOUS
  5
408
 10
-58.179391
 20
347.700211
 30
0.0
 11
-49.179391
 21
338.700211
 31
0.0
  0
LINE
  8
LC-002-002-----0
  6
CONTINUOUS
  5
409
 10
-49.179391
 20
288.700211
 30
0.0
 11
-58.179391
 21
279.700211
 31
0.0
  0
LINE
  8
LC-002-002-----0
  6
CONTINUOUS
  5
40A
 10
-60.319391
 20
350.700211
 30
0.0
 11
-60.319391
 21
348.700211
 31
0.0
  0
LINE
  8
LC-002-002-----0
  6
CONTINUOUS
  5
40B
 10
-60.319391
 20
278.700211
 30
0.0
 11
-60.319391
 21
276.700211
 31
0.0
  0
LINE
  8
LC-002-002-----0
  6
CONTINUOUS
  5
40C
 10
8.697906
 20
361.201176
 30
0.0
 11
10.185508
 21
364.198973
 31
0.0
  0
LINE
  8
LC-002-002-----0
  6
DASHED
 62
     2
  5
40D
 10
-56.319391
 20
282.415774
 30
0.0
 11
-56.319391
 21
280.087602
 31
0.0
  0
ARC
  8
LC-001-002-RND-0
  6
CONTINUOUS
  5
40E
 10
4.685508
 20
357.198464
 30
0.0
 40
1.0
 50
180.0
 51
270.0
  0
LINE
  8
LC-002-002-----0
  6
DASHED
 62
     2
  5
40F
 10
-52.319391
 20
282.415774
 30
0.0
 11
-52.319391
 21
280.087602
 31
0.0
  0
LINE
  8
LC-002-002-----0
  6
CONTINUOUS
  5
410
 10
12.685508
 20
276.700211
 30
0.0
 11
-52.319391
 21
276.700211
 31
0.0
  0
LINE
  8
LC-002-002-----0
  6
CONTINUOUS
  5
411
 10
10.185508
 20
361.201176
 30
0.0
 11
10.185508
 21
350.700211
 31
0.0
  0
LINE
  8
LC-002-002-----0
  6
CONTINUOUS
  5
412
 10
-54.179391
 20
355.700211
 30
0.0
 11
-54.179391
 21
343.700211
 31
0.0
  0
LINE
  8
LC-002-002-----0
  6
CONTINUOUS
  5
413
 10
10.185508
 20
364.198973
 30
0.0
 11
12.685508
 21
364.198973
 31
0.0
  0
LINE
  8
LC-002-002-----0
  6
CONTINUOUS
  5
414
 10
-58.179391
 20
279.700211
 30
0.0
 11
-95.319391
 21
279.700211
 31
0.0
  0
LINE
  8
LC-002-002-----0
  6
CONTINUOUS
  5
415
 10
-58.179391
 20
347.700211
 30
0.0
 11
-95.319391
 21
347.700211
 31
0.0
  0
LINE
  8
LC-002-002-----0
  6
CONTINUOUS
  5
416
 10
10.185508
 20
361.201176
 30
0.0
 11
8.697906
 21
361.201176
 31
0.0
  0
LINE
  8
LC-002-002-----0
  6
CONTINUOUS
  5
417
 10
-60.319391
 20
348.700211
 30
0.0
 11
-60.319391
 21
278.700211
 31
0.0
  0
LINE
  8
LC-002-002-----0
  6
CONTINUOUS
  5
418
 10
-54.179391
 20
283.700211
 30
0.0
 11
-54.179391
 21
271.700211
 31
0.0
  0
LINE
  8
LC-002-002-----0
  6
CONTINUOUS
  5
419
 10
-52.679391
 20
355.700211
 30
0.0
 11
-54.179391
 21
355.700211
 31
0.0
  0
LINE
  8
LC-002-002-----0
  6
CONTINUOUS
  5
41A
 10
-52.679391
 20
271.700211
 30
0.0
 11
-54.179391
 21
271.700211
 31
0.0
  0
LINE
  8
LC-002-002-----0
  6
CONTINUOUS
  5
41B
 10
-52.679391
 20
285.200211
 30
0.0
 11
-52.679391
 21
271.700211
 31
0.0
  0
LINE
  8
LC-002-002-----0
  6
CONTINUOUS
  5
41C
 10
-52.679391
 20
355.700211
 30
0.0
 11
-52.679391
 21
342.200211
 31
0.0
  0
LINE
  8
LC-002-002-----0
  6
CONTINUOUS
  5
41D
 10
-52.319391
 20
350.700211
 30
0.0
 11
-52.319391
 21
350.360817
 31
0.0
  0
LINE
  8
LC-002-002-----0
  6
CONTINUOUS
  5
41E
 10
-52.319391
 20
350.360817
 30
0.0
 11
-56.319391
 21
350.360817
 31
0.0
  0
ARC
  8
LC-002-002-----0
  6
CONTINUOUS
  5
41F
 10
688.219489
 20
300.557992
 30
0.0
 40
3.1
 50
270.0
 51
90.0
  0
LINE
  8
LC-002-002-----0
  6
CONTINUOUS
  5
420
 10
-56.319391
 20
350.360817
 30
0.0
 11
-56.319391
 21
350.700211
 31
0.0
  0
LINE
  8
LC-002-002-----0
  6
CONTINUOUS
  5
421
 10
1.185508
 20
350.700211
 30
0.0
 11
-52.319391
 21
350.700211
 31
0.0
  0
LINE
  8
LC-002-002-----0
  6
CONTINUOUS
  5
422
 10
-56.319391
 20
350.700211
 30
0.0
 11
-60.319391
 21
350.700211
 31
0.0
  0
LINE
  8
LC-002-002-----0
  6
DASHED
 62
     2
  5
423
 10
-56.319391
 20
348.700211
 30
0.0
 11
-60.319391
 21
348.700211
 31
0.0
  0
LINE
  8
LC-002-002-----0
  6
DASHED
 62
     2
  5
424
 10
-56.319391
 20
278.700211
 30
0.0
 11
-60.319391
 21
278.700211
 31
0.0
  0
LINE
  8
LC-002-002-----0
  6
CONTINUOUS
  5
425
 10
-56.319391
 20
276.700211
 30
0.0
 11
-60.319391
 21
276.700211
 31
0.0
  0
LINE
  8
LC-002-002-----0
  6
DASHED
 62
     2
  5
426
 10
-52.319391
 20
348.700211
 30
0.0
 11
-52.319391
 21
344.984649
 31
0.0
  0
LINE
  8
LC-002-002-----0
  6
CONTINUOUS
  5
427
 10
8.697906
 20
360.196393
 30
0.0
 11
10.185508
 21
360.196393
 31
0.0
  0
LINE
  8
LC-002-002-----0
  6
DASHED
 62
     2
  5
428
 10
8.697906
 20
360.196393
 30
0.0
 11
10.185508
 21
363.20419
 31
0.0
  0
LINE
  8
LC-002-002-----0
  6
DASHED
 62
     2
  5
429
 10
10.185508
 20
363.20419
 30
0.0
 11
12.685508
 21
363.20419
 31
0.0
  0
LINE
  8
LC-002-002-----0
  6
DASHED
 62
     2
  5
42A
 10
-52.319391
 20
344.984649
 30
0.0
 11
-56.319391
 21
344.984649
 31
0.0
  0
LINE
  8
LC-002-002-----0
  6
DASHED
 62
     2
  5
42B
 10
-56.319391
 20
344.984649
 30
0.0
 11
-56.319391
 21
348.700211
 31
0.0
  0
LINE
  8
LC-002-002-----0
  6
DASHED
 62
     2
  5
42C
 10
-56.319391
 20
348.032646
 30
0.0
 11
-52.319391
 21
348.032646
 31
0.0
  0
LINE
  8
LC-002-002-----0
  6
CONTINUOUS
  5
42D
 10
1.185508
 20
350.700211
 30
0.0
 11
1.185508
 21
347.52328
 31
0.0
  0
LINE
  8
LC-002-002-----0
  6
CONTINUOUS
  5
42E
 10
1.185508
 20
347.52328
 30
0.0
 11
3.685508
 21
347.52328
 31
0.0
  0
LINE
  8
LC-002-002-----0
  6
CONTINUOUS
  5
42F
 10
3.685508
 20
347.52328
 30
0.0
 11
3.685508
 21
350.700211
 31
0.0
  0
LINE
  8
LC-002-002-----0
  6
CONTINUOUS
  5
430
 10
10.185508
 20
350.700211
 30
0.0
 11
10.185508
 21
347.52328
 31
0.0
  0
LINE
  8
LC-002-002-----0
  6
CONTINUOUS
  5
431
 10
10.185508
 20
347.52328
 30
0.0
 11
12.685508
 21
347.52328
 31
0.0
  0
LINE
  8
LC-002-002-----0
  6
CONTINUOUS
  5
432
 10
10.185508
 20
350.700211
 30
0.0
 11
3.685508
 21
350.700211
 31
0.0
  0
LINE
  8
LC-002-002-----0
  6
DASHED
 62
     2
  5
433
 10
-56.319391
 20
347.52328
 30
0.0
 11
-52.319391
 21
347.52328
 31
0.0
  0
LINE
  8
LC-002-002-----0
  6
CONTINUOUS
  5
434
 10
-52.319391
 20
280.087602
 30
0.0
 11
-52.319391
 21
276.829146
 31
0.0
  0
LINE
  8
LC-002-002-----0
  6
CONTINUOUS
  5
435
 10
-52.319391
 20
276.829146
 30
0.0
 11
-56.319391
 21
276.829146
 31
0.0
  0
LINE
  8
LC-002-002-----0
  6
CONTINUOUS
  5
436
 10
-56.319391
 20
276.829146
 30
0.0
 11
-56.319391
 21
280.087602
 31
0.0
  0
LINE
  8
LC-002-002-----0
  6
CONTINUOUS
  5
437
 10
-56.319391
 20
280.087602
 30
0.0
 11
-52.319391
 21
280.087602
 31
0.0
  0
LINE
  8
LC-002-002-----0
  6
CONTINUOUS
  5
438
 10
-56.319391
 20
279.367777
 30
0.0
 11
-52.319391
 21
279.367777
 31
0.0
  0
LINE
  8
LC-002-002-----0
  6
DASHED
 62
     2
  5
439
 10
-52.319391
 20
282.415774
 30
0.0
 11
-56.319391
 21
282.415774
 31
0.0
  0
LINE
  8
LC-002-002-----0
  6
DASHDOT
 62
     2
  5
43A
 10
249.771234
 20
302.197992
 30
0.0
 11
233.75509
 21
302.197992
 31
0.0
  0
LINE
  8
LC-002-002-----0
  6
DASHDOT
 62
     2
  5
43B
 10
249.771234
 20
327.197992
 30
0.0
 11
234.31943
 21
327.197992
 31
0.0
  0
LINE
  8
LC-002-002-----0
  6
DASHDOT
 62
     2
  5
43C
 10
-119.319391
 20
313.700211
 30
0.0
 11
15.685508
 21
313.700211
 31
0.0
  0
LINE
  8
LC-002-002-----0
  6
CONTINUOUS
  5
43D
 10
-95.319391
 20
323.007229
 30
0.0
 11
-95.319391
 21
304.407229
 31
0.0
  0
LINE
  8
LC-002-002-----0
  6
CONTINUOUS
  5
43E
 10
-95.319391
 20
304.733107
 30
0.0
 11
-95.319391
 21
297.199708
 31
0.0
  0
LINE
  8
LC-002-002-----0
  6
CONTINUOUS
  5
43F
 10
244.271234
 20
372.197992
 30
0.0
 11
236.271234
 21
372.197992
 31
0.0
  0
LINE
  8
LC-002-002-----0
  6
CONTINUOUS
  5
440
 10
-95.319391
 20
323.007229
 30
0.0
 11
-95.319391
 21
330.199708
 31
0.0
  0
LINE
  8
LC-002-002-----0
  6
CONTINUOUS
  5
441
 10
17.185508
 20
331.200211
 30
0.0
 11
17.185508
 21
321.200211
 31
0.0
  0
LINE
  8
LC-002-002-----0
  6
CONTINUOUS
  5
442
 10
16.685508
 20
331.700211
 30
0.0
 11
16.185508
 21
331.700211
 31
0.0
  0
LINE
  8
LC-002-002-----0
  6
CONTINUOUS
  5
443
 10
16.685508
 20
320.700211
 30
0.0
 11
16.185508
 21
320.700211
 31
0.0
  0
ARC
  8
LC-001-002-RND-0
  6
CONTINUOUS
  5
444
 10
16.685508
 20
321.200211
 30
0.0
 40
0.5
 50
270.0
 51
0.0
  0
ARC
  8
LC-001-002-RND-0
  6
CONTINUOUS
  5
445
 10
16.185508
 20
321.200211
 30
0.0
 40
0.5
 50
180.0
 51
270.0
  0
ARC
  8
LC-002-002-----0
  6
CONTINUOUS
  5
446
 10
7.560508
 20
326.200211
 30
0.0
 40
10.625
 50
334.942385
 51
25.057615
  0
ARC
  8
LC-001-002-RND-0
  6
CONTINUOUS
  5
447
 10
16.185508
 20
331.200211
 30
0.0
 40
0.5
 50
90.0
 51
180.0
  0
LINE
  8
LC-002-002-----0
  6
CONTINUOUS
  5
448
 10
246.271234
 20
365.983955
 30
0.0
 11
244.271234
 21
365.983955
 31
0.0
  0
ARC
  8
LC-001-002-RND-0
  6
CONTINUOUS
  5
449
 10
16.685508
 20
331.200211
 30
0.0
 40
0.5
 50
0.0
 51
90.0
  0
ARC
  8
LC-002-002-----0
  6
CONTINUOUS
  5
44A
 10
676.499489
 20
300.557992
 30
0.0
 40
3.1
 50
90.0
 51
270.0
  0
LINE
  8
LC-002-002-----0
  6
CONTINUOUS
  5
44B
 10
688.219489
 20
297.457992
 30
0.0
 11
676.499489
 21
297.457992
 31
0.0
  0
LINE
  8
LC-002-002-----0
  6
CONTINUOUS
  5
44C
 10
590.749489
 20
343.447992
 30
0.0
 11
642.249489
 21
343.447992
 31
0.0
  0
LINE
  8
LC-002-002-----0
  6
CONTINUOUS
  5
44D
 10
645.249489
 20
340.447992
 30
0.0
 11
645.249489
 21
288.947992
 31
0.0
  0
LINE
  8
LC-002-002-----0
  6
CONTINUOUS
  5
44E
 10
688.219489
 20
303.657992
 30
0.0
 11
686.588425
 21
303.657992
 31
0.0
  0
LINE
  8
LC-002-002-----0
  6
CONTINUOUS
  5
44F
 10
676.499489
 20
303.657992
 30
0.0
 11
678.130553
 21
303.657992
 31
0.0
  0
ARC
  8
LC-002-002-----0
  6
CONTINUOUS
  5
450
 10
682.359489
 20
303.347992
 30
0.0
 40
3.1
 50
23.171101
 51
156.828899
  0
ARC
  8
LC-002-002-----0
  6
CONTINUOUS
  5
451
 10
678.130553
 20
305.157992
 30
0.0
 40
1.5
 50
270.0
 51
336.828899
  0
ARC
  8
LC-002-002-----0
  6
CONTINUOUS
  5
452
 10
686.588425
 20
305.157992
 30
0.0
 40
1.5
 50
203.171101
 51
270.0
  0
ARC
  8
LC-002-002-----0
  6
CONTINUOUS
  5
453
 10
676.609489
 20
314.697992
 30
0.0
 40
4.25
 50
270.0
 51
90.0
  0
LINE
  8
LC-002-002-----0
  6
CONTINUOUS
  5
454
 10
666.499489
 20
289.697992
 30
0.0
 11
697.359489
 21
289.697992
 31
0.0
  0
LINE
  8
LC-002-002-----0
  6
CONTINUOUS
  5
455
 10
666.499489
 20
339.697992
 30
0.0
 11
697.359489
 21
339.697992
 31
0.0
  0
LINE
  8
LC-002-002-----0
  6
CONTINUOUS
  5
456
 10
666.499489
 20
318.947992
 30
0.0
 11
676.609489
 21
318.947992
 31
0.0
  0
LINE
  8
LC-002-002-----0
  6
CONTINUOUS
  5
457
 10
666.499489
 20
310.447992
 30
0.0
 11
676.609489
 21
310.447992
 31
0.0
  0
LINE
  8
LC-002-002-----0
  6
CONTINUOUS
  5
458
 10
388.999489
 20
364.697992
 30
0.0
 11
450.552488
 21
364.697992
 31
0.0
  0
LINE
  8
LC-002-002-----0
  6
CONTINUOUS
  5
459
 10
697.359489
 20
339.697992
 30
0.0
 11
697.359489
 21
289.697992
 31
0.0
  0
CIRCLE
  8
LC-002-002-----0
  6
CONTINUOUS
  5
45A
 10
302.359489
 20
302.197992
 30
0.0
 40
4.25
  0
LINE
  8
LC-002-002-----0
  6
CONTINUOUS
  5
45B
 10
508.197352
 20
265.697992
 30
0.0
 11
448.455805
 21
265.697992
 31
0.0
  0
ARC
  8
LC-001-002-RND-0
  6
CONTINUOUS
  5
45C
 10
388.999489
 20
267.197992
 30
0.0
 40
2.5
 50
180.0
 51
270.0
  0
ARC
  8
LC-001-002-RND-0
  6
CONTINUOUS
  5
45D
 10
388.999489
 20
362.197992
 30
0.0
 40
2.5
 50
90.0
 51
180.0
  0
LINE
  8
LC-002-002-----0
  6
CONTINUOUS
  5
45E
 10
450.552488
 20
364.697992
 30
0.0
 11
663.999489
 21
364.697992
 31
0.0
  0
LINE
  8
LC-002-002-----0
  6
CONTINUOUS
  5
45F
 10
525.224779
 20
264.697992
 30
0.0
 11
423.999489
 21
264.697992
 31
0.0
  0
LINE
  8
LC-002-002-----0
  6
CONTINUOUS
  5
460
 10
423.999489
 20
264.697992
 30
0.0
 11
388.999489
 21
264.697992
 31
0.0
  0
LINE
  8
LC-009-006-MLN-0
  6
DASHDOT
  5
463
 10
616.499489
 20
359.940164
 30
0.0
 11
616.499489
 21
266.520535
 31
0.0
  0
LINE
  8
LC-002-002-----0
  6
CONTINUOUS
  5
464
 10
666.499489
 20
267.197992
 30
0.0
 11
666.499489
 21
362.197992
 31
0.0
  0
ARC
  8
LC-001-002-RND-0
  6
CONTINUOUS
  5
465
 10
663.999489
 20
267.197992
 30
0.0
 40
2.5
 50
270.0
 51
0.0
  0
ARC
  8
LC-001-002-RND-0
  6
CONTINUOUS
  5
466
 10
663.999489
 20
362.197992
 30
0.0
 40
2.5
 50
0.0
 51
90.0
  0
CIRCLE
  8
LC-002-002-----0
  6
CONTINUOUS
  5
467
 10
302.359489
 20
327.197992
 30
0.0
 40
4.25
  0
ARC
  8
LC-002-002-----0
  6
CONTINUOUS
  5
468
 10
316.499489
 20
328.837992
 30
0.0
 40
3.1
 50
90.0
 51
270.0
  0
LINE
  8
LC-002-002-----0
  6
CONTINUOUS
  5
469
 10
328.219489
 20
331.937992
 30
0.0
 11
316.499489
 21
331.937992
 31
0.0
  0
ARC
  8
LC-002-002-----0
  6
CONTINUOUS
  5
46A
 10
328.219489
 20
328.837992
 30
0.0
 40
3.1
 50
270.0
 51
90.0
  0
ARC
  8
LC-001-002-RND-0
  6
CONTINUOUS
  5
46B
 10
233.271234
 20
230.697992
 30
0.0
 40
2.0
 50
270.0
 51
0.0
  0
ARC
  8
LC-001-002-RND-0
  6
CONTINUOUS
  5
46C
 10
233.271234
 20
352.697992
 30
0.0
 40
2.0
 50
0.0
 51
90.0
  0
ARC
  8
LC-002-002-----0
  6
CONTINUOUS
  5
46D
 10
326.588425
 20
324.237992
 30
0.0
 40
1.5
 50
90.0
 51
156.828899
  0
ARC
  8
LC-002-002-----0
  6
CONTINUOUS
  5
46E
 10
328.219489
 20
328.837992
 30
0.0
 40
3.1
 50
270.0
 51
90.0
  0
ARC
  8
LC-002-002-----0
  6
CONTINUOUS
  5
46F
 10
322.359489
 20
326.047992
 30
0.0
 40
3.1
 50
203.171101
 51
336.828899
  0
ARC
  8
LC-002-002-----0
  6
CONTINUOUS
  5
470
 10
318.130553
 20
324.237992
 30
0.0
 40
1.5
 50
23.171101
 51
90.0
  0
ARC
  8
LC-002-002-----0
  6
CONTINUOUS
  5
471
 10
316.499489
 20
328.837992
 30
0.0
 40
3.1
 50
90.0
 51
270.0
  0
LINE
  8
LC-002-002-----0
  6
CONTINUOUS
  5
472
 10
587.749489
 20
340.447992
 30
0.0
 11
587.749489
 21
288.947992
 31
0.0
  0
LINE
  8
LC-002-002-----0
  6
CONTINUOUS
  5
473
 10
576.499489
 20
282.197992
 30
0.0
 11
576.499489
 21
347.197992
 31
0.0
  0
LINE
  8
LC-002-002-----0
  6
CONTINUOUS
  5
474
 10
656.499489
 20
347.197992
 30
0.0
 11
656.499489
 21
282.197992
 31
0.0
  0
LINE
  8
LC-002-002-----0
  6
CONTINUOUS
  5
475
 10
648.999489
 20
274.697992
 30
0.0
 11
583.999489
 21
274.697992
 31
0.0
  0
LINE
  8
LC-002-002-----0
  6
CONTINUOUS
  5
476
 10
590.749489
 20
285.947992
 30
0.0
 11
642.249489
 21
285.947992
 31
0.0
  0
ARC
  8
LC-001-002-RND-0
  6
CONTINUOUS
  5
477
 10
590.749489
 20
340.447992
 30
0.0
 40
3.0
 50
90.0
 51
180.0
  0
ARC
  8
LC-001-002-RND-0
  6
CONTINUOUS
  5
478
 10
642.249489
 20
340.447992
 30
0.0
 40
3.0
 50
0.0
 51
90.0
  0
ARC
  8
LC-001-002-RND-0
  6
CONTINUOUS
  5
479
 10
642.249489
 20
288.947992
 30
0.0
 40
3.0
 50
270.0
 51
0.0
  0
ARC
  8
LC-001-002-RND-0
  6
CONTINUOUS
  5
47A
 10
590.749489
 20
288.947992
 30
0.0
 40
3.0
 50
180.0
 51
270.0
  0
LINE
  8
LC-002-002-----0
  6
CONTINUOUS
  5
47B
 10
605.249489
 20
291.947992
 30
0.0
 11
627.749489
 21
291.947992
 31
0.0
  0
LINE
  8
LC-002-002-----0
  6
CONTINUOUS
  5
47C
 10
627.749489
 20
291.947992
 30
0.0
 11
627.749489
 21
285.947992
 31
0.0
  0
ARC
  8
LC-001-002-RND-0
  6
CONTINUOUS
  5
47D
 10
583.999489
 20
347.197992
 30
0.0
 40
7.5
 50
90.0
 51
180.0
  0
CIRCLE
  8
LC-002-002-----0
  6
CONTINUOUS
  5
47E
 10
332.359489
 20
314.697992
 30
0.0
 40
4.25
  0
ARC
  8
LC-001-002-RND-0
  6
CONTINUOUS
  5
47F
 10
648.999489
 20
347.197992
 30
0.0
 40
7.5
 50
0.0
 51
90.0
  0
ARC
  8
LC-001-002-RND-0
  6
CONTINUOUS
  5
480
 10
648.999489
 20
282.197992
 30
0.0
 40
7.5
 50
270.0
 51
0.0
  0
ARC
  8
LC-001-002-RND-0
  6
CONTINUOUS
  5
481
 10
583.999489
 20
282.197992
 30
0.0
 40
7.5
 50
180.0
 51
270.0
  0
LINE
  8
LC-002-002-----0
  6
CONTINUOUS
  5
482
 10
662.999489
 20
265.697992
 30
0.0
 11
523.922682
 21
265.697992
 31
0.0
  0
ARC
  8
LC-001-002-RND-0
  6
CONTINUOUS
  5
483
 10
389.999489
 20
268.197992
 30
0.0
 40
2.5
 50
180.0
 51
270.0
  0
LINE
  8
LC-002-002-----0
  6
CONTINUOUS
  5
484
 10
663.999489
 20
264.697992
 30
0.0
 11
525.224779
 21
264.697992
 31
0.0
  0
LINE
  8
LC-002-002-----0
  6
CONTINUOUS
  5
485
 10
386.499489
 20
267.197992
 30
0.0
 11
386.499489
 21
363.378707
 31
0.0
  0
LINE
  8
LC-002-002-----0
  6
CONTINUOUS
  5
486
 10
665.499489
 20
267.884147
 30
0.0
 11
665.499489
 21
362.197992
 31
0.0
  0
LINE
  8
LC-002-002-----0
  6
CONTINUOUS
  5
487
 10
387.499489
 20
268.197992
 30
0.0
 11
387.499489
 21
361.197992
 31
0.0
  0
LINE
  8
LC-002-002-----0
  6
CONTINUOUS
  5
488
 10
389.999489
 20
363.697992
 30
0.0
 11
450.989373
 21
363.697992
 31
0.0
  0
ARC
  8
LC-001-002-RND-0
  6
CONTINUOUS
  5
489
 10
389.999489
 20
361.197992
 30
0.0
 40
2.5
 50
90.0
 51
180.0
  0
ARC
  8
LC-001-002-RND-0
  6
CONTINUOUS
  5
48A
 10
662.999489
 20
268.197992
 30
0.0
 40
2.5
 50
270.0
 51
0.0
  0
ARC
  8
LC-001-002-RND-0
  6
CONTINUOUS
  5
48B
 10
662.999489
 20
361.197992
 30
0.0
 40
2.5
 50
0.0
 51
90.0
  0
LINE
  8
LC-002-002-----0
  6
CONTINUOUS
  5
48C
 10
450.989373
 20
363.697992
 30
0.0
 11
662.999489
 21
363.697992
 31
0.0
  0
LINE
  8
LC-002-002-----0
  6
DASHDOT
 62
     2
  5
48D
 10
760.596286
 20
475.907574
 30
0.0
 11
760.596286
 21
390.907883
 31
0.0
  0
LINE
  8
LC-002-002-----0
  6
CONTINUOUS
  5
48E
 10
772.096286
 20
390.907883
 30
0.0
 11
749.096286
 21
390.907883
 31
0.0
  0
LINE
  8
LC-002-002-----0
  6
CONTINUOUS
  5
48F
 10
745.096286
 20
392.907883
 30
0.0
 11
745.096286
 21
403.907883
 31
0.0
  0
LINE
  8
LC-002-002-----0
  6
CONTINUOUS
  5
490
 10
745.096286
 20
403.907883
 30
0.0
 11
776.096286
 21
403.907883
 31
0.0
  0
LINE
  8
LC-002-002-----0
  6
CONTINUOUS
  5
491
 10
776.096286
 20
403.907883
 30
0.0
 11
776.096286
 21
392.907891
 31
0.0
  0
LINE
  8
LC-002-002-----0
  6
CONTINUOUS
  5
492
 10
768.096286
 20
403.907883
 30
0.0
 11
768.096286
 21
392.907883
 31
0.0
  0
LINE
  8
LC-002-002-----0
  6
CONTINUOUS
  5
493
 10
753.096286
 20
392.907891
 30
0.0
 11
753.096286
 21
403.907883
 31
0.0
  0
LINE
  8
LC-002-002-----0
  6
CONTINUOUS
  5
494
 10
749.094699
 20
455.907883
 30
0.0
 11
772.094699
 21
455.907883
 31
0.0
  0
LINE
  8
LC-002-002-----0
  6
CONTINUOUS
  5
495
 10
745.096286
 20
442.907883
 30
0.0
 11
745.096286
 21
453.906903
 31
0.0
  0
LINE
  8
LC-002-002-----0
  6
CONTINUOUS
  5
496
 10
776.096286
 20
442.907883
 30
0.0
 11
745.096286
 21
442.907883
 31
0.0
  0
LINE
  8
LC-002-002-----0
  6
CONTINUOUS
  5
497
 10
776.096286
 20
453.904642
 30
0.0
 11
776.096286
 21
442.907883
 31
0.0
  0
LINE
  8
LC-002-002-----0
  6
CONTINUOUS
  5
498
 10
768.096286
 20
453.906781
 30
0.0
 11
768.096286
 21
442.907883
 31
0.0
  0
LINE
  8
LC-002-002-----0
  6
CONTINUOUS
  5
499
 10
753.096286
 20
442.907883
 30
0.0
 11
753.096286
 21
453.907763
 31
0.0
  0
LINE
  8
LC-002-002-----0
  6
CONTINUOUS
  5
49A
 10
781.130884
 20
436.907883
 30
0.0
 11
781.130884
 21
409.907883
 31
0.0
  0
LINE
  8
LC-002-002-----0
  6
CONTINUOUS
  5
49B
 10
781.130884
 20
436.907883
 30
0.0
 11
784.630884
 21
436.907883
 31
0.0
  0
LINE
  8
LC-002-002-----0
  6
CONTINUOUS
  5
49C
 10
786.630884
 20
436.407883
 30
0.0
 11
786.630884
 21
410.407883
 31
0.0
  0
LINE
  8
LC-002-002-----0
  6
CONTINUOUS
  5
49D
 10
784.630884
 20
409.907883
 30
0.0
 11
781.130884
 21
409.907883
 31
0.0
  0
LINE
  8
LC-002-002-----0
  6
CONTINUOUS
  5
49E
 10
784.630884
 20
436.907883
 30
0.0
 11
784.630884
 21
409.907883
 31
0.0
  0
LINE
  8
LC-002-002-----0
  6
CONTINUOUS
  5
49F
 10
784.630884
 20
436.907883
 30
0.0
 11
786.630884
 21
436.407883
 31
0.0
  0
LINE
  8
LC-002-002-----0
  6
CONTINUOUS
  5
4A0
 10
784.630884
 20
409.907883
 30
0.0
 11
786.630884
 21
410.407883
 31
0.0
  0
LINE
  8
LC-002-002-----0
  6
CONTINUOUS
  5
4A1
 10
776.096286
 20
403.907883
 30
0.0
 11
781.130884
 21
409.907883
 31
0.0
  0
LINE
  8
LC-002-002-----0
  6
CONTINUOUS
  5
4A2
 10
776.096286
 20
442.907883
 30
0.0
 11
781.130884
 21
436.907883
 31
0.0
  0
ARC
  8
LC-002-002-----0
  6
CONTINUOUS
  5
4A3
 10
787.096286
 20
423.407883
 30
0.0
 40
44.5
 50
154.010881
 51
205.98893
  0
ARC
  8
LC-002-002-----0
  6
CONTINUOUS
  5
4A4
 10
760.596286
 20
405.970383
 30
0.0
 40
15.0625
 50
240.137224
 51
299.862951
  0
ARC
  8
LC-002-002-----0
  6
CONTINUOUS
  5
4A5
 10
749.096286
 20
395.907883
 30
0.0
 40
5.0
 50
216.869956
 51
323.130219
  0
ARC
  8
LC-002-002-----0
  6
CONTINUOUS
  5
4A6
 10
772.096286
 20
395.907883
 30
0.0
 40
5.0
 50
216.869956
 51
323.130219
  0
ARC
  8
LC-002-002-----0
  6
CONTINUOUS
  5
4A7
 10
749.094699
 20
450.906882
 30
0.0
 40
5.0
 50
36.869477
 51
143.129798
  0
ARC
  8
LC-002-002-----0
  6
CONTINUOUS
  5
4A8
 10
760.594646
 20
440.844321
 30
0.0
 40
15.0625
 50
60.136745
 51
119.86253
  0
ARC
  8
LC-002-002-----0
  6
CONTINUOUS
  5
4A9
 10
772.094699
 20
450.90676
 30
0.0
 40
5.0
 50
36.869477
 51
143.129798
  0
LINE
  8
LC-002-002-----0
  6
CONTINUOUS
  5
4AA
 10
770.096286
 20
455.907883
 30
0.0
 11
770.096286
 21
475.907883
 31
0.0
  0
LINE
  8
LC-002-002-----0
  6
CONTINUOUS
  5
4AB
 10
751.096286
 20
455.907883
 30
0.0
 11
751.096286
 21
475.907883
 31
0.0
  0
ARC
  8
LC-002-002-----0
  6
CONTINUOUS
  5
4AC
 10
754.096286
 20
475.907883
 30
0.0
 40
3.0
 50
63.611304
 51
179.999829
  0
LINE
  8
LC-002-002-----0
  6
CONTINUOUS
  5
4AD
 10
308.109489
 20
318.947992
 30
0.0
 11
316.609489
 21
318.947992
 31
0.0
  0
LINE
  8
LC-002-002-----0
  6
CONTINUOUS
  5
4AE
 10
448.455805
 20
265.697992
 30
0.0
 11
389.999489
 21
265.697992
 31
0.0
  0
ARC
  8
LC-002-002-----0
  6
CONTINUOUS
  5
4AF
 10
308.109489
 20
314.697992
 30
0.0
 40
4.25
 50
90.0
 51
270.0
  0
ARC
  8
LC-002-002-----0
  6
CONTINUOUS
  5
4B0
 10
316.609489
 20
314.697992
 30
0.0
 40
4.25
 50
270.0
 51
90.0
  0
ARC
  8
LC-002-002-----0
  6
CONTINUOUS
  5
4B1
 10
767.096286
 20
475.907883
 30
0.0
 40
3.0
 50
242.515991
 51
117.488959
  0
LINE
  8
LC-002-002-----0
  6
CONTINUOUS
  5
4B2
 10
755.429662
 20
478.595282
 30
0.0
 11
765.711797
 21
473.246457
 31
0.0
  0
LINE
  8
LC-002-002-----0
  6
CONTINUOUS
  5
4B3
 10
760.596286
 20
475.907574
 30
0.0
 11
765.711545
 21
478.569178
 31
0.0
  0
LINE
  8
LC-002-002-----0
  6
CONTINUOUS
  5
4B4
 10
751.094381
 20
390.906862
 30
0.0
 11
751.094274
 21
370.906862
 31
0.0
  0
ARC
  8
LC-002-002-----0
  6
CONTINUOUS
  5
4B5
 10
754.094274
 20
370.906846
 30
0.0
 40
3.0
 50
179.999925
 51
296.388392
  0
LINE
  8
LC-002-002-----0
  6
CONTINUOUS
  5
4B6
 10
755.427636
 20
368.219441
 30
0.0
 11
765.7098
 21
373.568211
 31
0.0
  0
LINE
  8
LC-002-002-----0
  6
CONTINUOUS
  5
4B7
 10
760.594274
 20
370.907121
 30
0.0
 11
765.709519
 21
368.24549
 31
0.0
  0
ARC
  8
LC-002-002-----0
  6
CONTINUOUS
  5
4B8
 10
767.094274
 20
370.906777
 30
0.0
 40
3.0
 50
242.510567
 51
117.483704
  0
LINE
  8
LC-002-002-----0
  6
DASHDOT
 62
     2
  5
4B9
 10
436.50376
 20
443.950042
 30
0.0
 11
436.50376
 21
404.950042
 31
0.0
  0
LINE
  8
LC-002-002-----0
  6
CONTINUOUS
  5
4BA
 10
436.50376
 20
391.950042
 30
0.0
 11
436.50376
 21
404.950042
 31
0.0
  0
ARC
  8
LC-002-002-----0
  6
DASHED
 62
     2
  5
4BB
 10
429.75376
 20
404.340667
 30
0.0
 40
12.390625
 50
236.991336
 51
303.00884
  0
ARC
  8
LC-002-002-----0
  6
DASHED
 62
     2
  5
4BC
 10
443.25376
 20
404.340667
 30
0.0
 40
12.390625
 50
236.991336
 51
303.00884
  0
LINE
  8
LC-002-002-----0
  6
CONTINUOUS
  5
4BD
 10
770.094274
 20
370.906777
 30
0.0
 11
770.094274
 21
390.907883
 31
0.0
  0
ARC
  8
LC-002-002-----0
  6
CONTINUOUS
  5
4BE
 10
516.50376
 20
314.697992
 30
0.0
 40
27.0
 50
293.556464
 51
246.443536
  0
LINE
  8
LC-002-002-----0
  6
CONTINUOUS
  5
4BF
 10
227.371234
 20
334.697992
 30
0.0
 11
227.371234
 21
337.197992
 31
0.0
  0
LINE
  8
LC-002-002-----0
  6
CONTINUOUS
  5
4C0
 10
308.109489
 20
310.447992
 30
0.0
 11
316.609489
 21
310.447992
 31
0.0
  0
LINE
  8
LC-002-002-----0
  6
CONTINUOUS
  5
4C1
 10
328.219489
 20
297.457992
 30
0.0
 11
316.499489
 21
297.457992
 31
0.0
  0
ARC
  8
LC-002-002-----0
  6
CONTINUOUS
  5
4C2
 10
316.499489
 20
300.557992
 30
0.0
 40
3.1
 50
90.0
 51
270.0
  0
CIRCLE
  8
LC-002-002-----0
  6
DASHED
 62
     2
  5
4C3
 10
469.50376
 20
314.697992
 30
0.0
 40
2.6
  0
CIRCLE
  8
LC-002-002-----0
  6
DASHED
 62
     2
  5
4C4
 10
469.50376
 20
314.697992
 30
0.0
 40
5.0
  0
CIRCLE
  8
LC-002-002-----0
  6
DASHED
 62
     2
  5
4C5
 10
563.50376
 20
314.697992
 30
0.0
 40
2.6
  0
LINE
  8
LC-002-002-----0
  6
CONTINUOUS
  5
4C6
 10
227.371234
 20
291.697992
 30
0.0
 11
214.271234
 21
291.697992
 31
0.0
  0
CIRCLE
  8
LC-002-002-----0
  6
DASHED
 62
     2
  5
4C7
 10
563.50376
 20
314.697992
 30
0.0
 40
5.0
  0
ARC
  8
LC-002-002-----0
  6
CONTINUOUS
  5
4C8
 10
328.219489
 20
300.557992
 30
0.0
 40
3.1
 50
270.0
 51
90.0
  0
ARC
  8
LC-002-002-----0
  6
CONTINUOUS
  5
4C9
 10
429.752134
 20
444.556285
 30
0.0
 40
12.390625
 50
56.990856
 51
122.999754
  0
CIRCLE
  8
LC-002-002-----0
  6
DASHED
 62
     2
  5
4CA
 10
471.729838
 20
275.195193
 30
0.0
 40
2.6
  0
ARC
  8
LC-002-002-----0
  6
DASHED
 62
     2
  5
4CB
 10
443.252134
 20
444.556214
 30
0.0
 40
12.390625
 50
56.990856
 51
123.008419
  0
ARC
  8
LC-002-002-----0
  6
CONTINUOUS
  5
4CC
 10
430.008218
 20
476.950042
 30
0.0
 40
3.0
 50
63.611304
 51
179.999829
  0
ARC
  8
LC-002-002-----0
  6
CONTINUOUS
  5
4CD
 10
443.008218
 20
476.950042
 30
0.0
 40
3.0
 50
242.515991
 51
117.488959
  0
LINE
  8
LC-002-002-----0
  6
CONTINUOUS
  5
4CE
 10
431.341593
 20
479.637441
 30
0.0
 11
441.623729
 21
474.288616
 31
0.0
  0
LINE
  8
LC-002-002-----0
  6
CONTINUOUS
  5
4CF
 10
436.508218
 20
476.949733
 30
0.0
 11
441.623476
 21
479.611337
 31
0.0
  0
LINE
  8
LC-002-002-----0
  6
DASHDOT
 62
     2
  5
4D0
 10
436.50376
 20
454.946888
 30
0.0
 11
436.50376
 21
479.434778
 31
0.0
  0
LINE
  8
LC-002-002-----0
  6
CONTINUOUS
  5
4D1
 10
427.006206
 20
371.949009
 30
0.0
 11
427.006206
 21
374.950042
 31
0.0
  0
LINE
  8
LC-002-002-----0
  6
CONTINUOUS
  5
4D2
 10
446.006206
 20
374.950042
 30
0.0
 11
446.006206
 21
371.948936
 31
0.0
  0
LINE
  8
LC-002-002-----0
  6
CONTINUOUS
  5
4D3
 10
427.008218
 20
458.656543
 30
0.0
 11
427.008218
 21
476.950042
 31
0.0
  0
LINE
  8
LC-002-002-----0
  6
DASHDOT
 62
     2
  5
4D4
 10
862.596286
 20
314.697992
 30
0.0
 11
854.596286
 21
314.697992
 31
0.0
  0
ARC
  8
LC-002-002-----0
  6
DASHED
 62
     2
  5
4D5
 10
471.729838
 20
275.195193
 30
0.0
 40
5.0
 50
33.009186
 51
331.414343
  0
CIRCLE
  8
LC-002-002-----0
  6
DASHED
 62
     2
  5
4D6
 10
557.729838
 20
275.695193
 30
0.0
 40
2.6
  0
ARC
  8
LC-002-002-----0
  6
CONTINUOUS
  5
4D7
 10
328.219489
 20
300.557992
 30
0.0
 40
3.1
 50
270.0
 51
90.0
  0
ARC
  8
LC-002-002-----0
  6
CONTINUOUS
  5
4D8
 10
326.588425
 20
305.157992
 30
0.0
 40
1.5
 50
203.171101
 51
270.0
  0
ARC
  8
LC-002-002-----0
  6
CONTINUOUS
  5
4D9
 10
322.359489
 20
303.347992
 30
0.0
 40
3.1
 50
23.171101
 51
156.828899
  0
ARC
  8
LC-002-002-----0
  6
DASHED
 62
     2
  5
4DA
 10
557.729838
 20
275.695193
 30
0.0
 40
5.0
 50
209.283206
 51
221.822378
  0
ARC
  8
LC-002-002-----0
  6
CONTINUOUS
  5
4DB
 10
318.130553
 20
305.157992
 30
0.0
 40
1.5
 50
270.0
 51
336.828899
  0
LINE
  8
LC-002-002-----0
  6
CONTINUOUS
  5
4DC
 10
316.499489
 20
325.737992
 30
0.0
 11
318.130553
 21
325.737992
 31
0.0
  0
LINE
  8
LC-002-002-----0
  6
CONTINUOUS
  5
4DD
 10
328.219489
 20
325.737992
 30
0.0
 11
326.588425
 21
325.737992
 31
0.0
  0
LINE
  8
LC-002-002-----0
  6
DASHED
 62
     2
  5
4DE
 10
450.008032
 20
341.697992
 30
0.0
 11
423.008032
 21
341.697992
 31
0.0
  0
LINE
  8
LC-002-002-----0
  6
CONTINUOUS
  5
4DF
 10
446.008218
 20
458.654067
 30
0.0
 11
446.008218
 21
476.950042
 31
0.0
  0
LINE
  8
LC-002-002-----0
  6
CONTINUOUS
  5
4E0
 10
427.006303
 20
390.244073
 30
0.0
 11
427.006222
 21
374.950042
 31
0.0
  0
LINE
  8
LC-002-002-----0
  6
CONTINUOUS
  5
4E1
 10
227.371234
 20
294.197992
 30
0.0
 11
214.271234
 21
294.197992
 31
0.0
  0
LINE
  8
LC-002-002-----0
  6
CONTINUOUS
  5
4E2
 10
446.006206
 20
374.950042
 30
0.0
 11
446.006206
 21
390.245459
 31
0.0
  0
LINE
  8
LC-002-002-----0
  6
DASHED
 62
     2
  5
4E3
 10
423.008032
 20
318.406091
 30
0.0
 11
423.008032
 21
341.697992
 31
0.0
  0
LINE
  8
LC-002-002-----0
  6
CONTINUOUS
  5
4E4
 10
316.499489
 20
303.657992
 30
0.0
 11
318.130553
 21
303.657992
 31
0.0
  0
CIRCLE
  8
LC-002-002-----0
  6
DASHED
 62
     2
  5
4E5
 10
456.508032
 20
314.697992
 30
0.0
 40
3.0
  0
LINE
  8
LC-002-002-----0
  6
CONTINUOUS
  5
4E6
 10
328.219489
 20
303.657992
 30
0.0
 11
326.588425
 21
303.657992
 31
0.0
  0
LINE
  8
LC-002-002-----0
  6
DASHED
 62
     2
  5
4E7
 10
450.008032
 20
318.406091
 30
0.0
 11
450.008032
 21
341.697992
 31
0.0
  0
LINE
  8
LC-002-002-----0
  6
DASHED
 62
     2
  5
4E8
 10
427.006303
 20
389.207338
 30
0.0
 11
427.006303
 21
392.258487
 31
0.0
  0
LINE
  8
LC-002-002-----0
  6
DASHED
 62
     2
  5
4E9
 10
446.006206
 20
389.208681
 30
0.0
 11
446.006206
 21
392.259623
 31
0.0
  0
LINE
  8
LC-011-002-___-0
  5
4EB
 10
434.973532
 20
305.525462
 30
0.0
 11
425.321955
 21
307.140103
 31
0.0
  0
LINE
  8
LC-011-002-___-0
  5
4EC
 10
438.042532
 20
323.870522
 30
0.0
 11
450.008032
 21
321.868778
 31
0.0
  0
LINE
  8
LC-002-002-----0
  6
DASHED
 62
     2
  5
4ED
 10
457.549959
 20
320.607067
 30
0.0
 11
450.008032
 21
321.868778
 31
0.0
  0
ARC
  8
LC-002-002-----0
  6
DASHED
 62
     2
  5
4EE
 10
456.508032
 20
314.697992
 30
0.0
 40
6.0
 50
279.497234
 51
80.0
  0
LINE
  8
LC-002-002-----0
  6
DASHED
 62
     2
  5
4EF
 10
457.498032
 20
308.780231
 30
0.0
 11
447.694108
 21
307.140103
 31
0.0
  0
LINE
  8
LC-002-002-----0
  6
DASHED
 62
     2
  5
4F0
 10
415.466104
 20
320.607067
 30
0.0
 11
423.008032
 21
321.868778
 31
0.0
  0
ARC
  8
LC-002-002-----0
  6
DASHED
 62
     2
  5
4F1
 10
416.508032
 20
314.697992
 30
0.0
 40
6.0
 50
100.0
 51
260.502766
  0
LINE
  8
LC-002-002-----0
  6
DASHED
 62
     2
  5
4F2
 10
386.50376
 20
289.697992
 30
0.0
 11
666.499489
 21
289.697992
 31
0.0
  0
LINE
  8
LC-002-002-----0
  6
DASHED
 62
     2
  5
4F3
 10
415.518032
 20
308.780231
 30
0.0
 11
425.321955
 21
307.140103
 31
0.0
  0
LINE
  8
LC-011-002-___-0
  5
4F4
 10
438.042532
 20
305.525462
 30
0.0
 11
447.694108
 21
307.140103
 31
0.0
  0
CIRCLE
  8
LC-002-002-----0
  6
DASHED
 62
     2
  5
4F5
 10
416.508032
 20
314.697992
 30
0.0
 40
3.0
  0
LINE
  8
LC-011-002-___-0
  5
4F6
 10
434.973532
 20
323.870522
 30
0.0
 11
423.008032
 21
321.868778
 31
0.0
  0
LINE
  8
LC-002-002-----0
  6
CONTINUOUS
  5
4F7
 10
297.359489
 20
339.697992
 30
0.0
 11
297.359489
 21
289.697992
 31
0.0
  0
LINE
  8
LC-002-002-----0
  6
DASHDOT
 62
     2
  5
4F8
 10
297.359489
 20
314.697992
 30
0.0
 11
697.359489
 21
314.697992
 31
0.0
  0
LINE
  8
LC-002-002-----0
  6
CONTINUOUS
  5
4F9
 10
431.341593
 20
369.262644
 30
0.0
 11
441.623729
 21
374.611468
 31
0.0
  0
LINE
  8
LC-002-002-----0
  6
CONTINUOUS
  5
4FA
 10
605.249489
 20
291.947992
 30
0.0
 11
605.249489
 21
285.947992
 31
0.0
  0
LINE
  8
LC-002-002-----0
  6
DASHED
 62
     2
  5
4FB
 10
386.50376
 20
339.697992
 30
0.0
 11
666.499489
 21
339.697992
 31
0.0
  0
LINE
  8
LC-002-002-----0
  6
CONTINUOUS
  5
4FC
 10
605.249489
 20
286.947992
 30
0.0
 11
627.749489
 21
286.947992
 31
0.0
  0
LINE
  8
LC-002-002-----0
  6
CONTINUOUS
  5
4FD
 10
297.359489
 20
289.697992
 30
0.0
 11
386.50376
 21
289.697992
 31
0.0
  0
LINE
  8
LC-002-002-----0
  6
CONTINUOUS
  5
4FE
 10
297.359489
 20
339.697992
 30
0.0
 11
386.50376
 21
339.697992
 31
0.0
  0
ARC
  8
LC-002-002-----0
  6
DASHED
 62
     2
  5
4FF
 10
516.50376
 20
314.697992
 30
0.0
 40
57.5
 50
119.591846
 51
150.287235
  0
ARC
  8
LC-002-002-----0
  6
DASHED
 62
     2
  5
500
 10
516.50376
 20
314.697992
 30
0.0
 40
57.5
 50
311.627259
 51
330.408154
  0
LINE
  8
LC-002-002-----0
  6
DASHED
 62
     2
  5
501
 10
446.008218
 20
458.134835
 30
0.0
 11
446.008218
 21
456.950042
 31
0.0
  0
LINE
  8
LC-002-002-----0
  6
DASHED
 62
     2
  5
502
 10
427.008218
 20
458.137349
 30
0.0
 11
427.008218
 21
456.950042
 31
0.0
  0
LINE
  8
LC-002-002-----0
  6
CONTINUOUS
  5
503
 10
476.240267
 20
269.697992
 30
0.0
 11
477.529502
 21
236.316919
 31
0.0
  0
ARC
  8
LC-002-002-----0
  6
DASHED
 62
     2
  5
504
 10
516.50376
 20
314.697992
 30
0.0
 40
57.5
 50
209.712765
 51
311.627259
  0
LINE
  8
LC-002-002-----0
  6
DASHDOT
 62
     2
  5
505
 10
418.50376
 20
424.450042
 30
0.0
 11
454.50376
 21
424.450042
 31
0.0
  0
LINE
  8
LC-002-002-----0
  6
DASHED
 62
     2
  5
506
 10
552.306198
 20
264.697992
 30
0.0
 11
558.518731
 21
314.696132
 31
0.0
  0
ARC
  8
LC-002-002-----0
  6
DASHED
 62
     2
  5
507
 10
557.729838
 20
275.695193
 30
0.0
 40
5.0
 50
221.822378
 51
136.550794
  0
ARC
  8
LC-002-002-----0
  6
CONTINUOUS
  5
508
 10
516.50376
 20
314.697992
 30
0.0
 40
57.5
 50
60.408154
 51
119.591846
  0
ARC
  8
LC-002-002-----0
  6
DASHED
 62
     2
  5
509
 10
516.50376
 20
314.697992
 30
0.0
 40
42.0
 50
26.765501
 51
180.052638
  0
ARC
  8
LC-002-002-----0
  6
CONTINUOUS
  5
50A
 10
516.508032
 20
314.697992
 30
0.0
 40
19.0
 50
309.720187
 51
230.279778
  0
ARC
  8
LC-002-002-----0
  6
CONTINUOUS
  5
50B
 10
516.508032
 20
314.697992
 30
0.0
 40
14.0
 50
315.584808
 51
224.415063
  0
ARC
  8
LC-002-002-----0
  6
CONTINUOUS
  5
50C
 10
516.508032
 20
314.697992
 30
0.0
 40
13.0
 50
320.28498
 51
219.714892
  0
LINE
  8
LC-002-002-----0
  6
CONTINUOUS
  5
50D
 10
525.758032
 20
272.697992
 30
0.0
 11
507.258032
 21
272.697992
 31
0.0
  0
LINE
  8
LC-002-002-----0
  6
CONTINUOUS
  5
50E
 10
524.523743
 20
265.697992
 30
0.0
 11
508.470179
 21
265.697992
 31
0.0
  0
LINE
  8
LC-002-002-----0
  6
CONTINUOUS
  5
50F
 10
526.508032
 20
279.697992
 30
0.0
 11
506.508032
 21
279.697992
 31
0.0
  0
LINE
  8
LC-002-002-----0
  6
CONTINUOUS
  5
510
 10
527.258032
 20
286.697992
 30
0.0
 11
505.758032
 21
286.697992
 31
0.0
  0
LINE
  8
LC-002-002-----0
  6
CONTINUOUS
  5
511
 10
528.008032
 20
293.697992
 30
0.0
 11
505.008032
 21
293.697992
 31
0.0
  0
LINE
  8
LC-002-002-----0
  6
CONTINUOUS
  5
512
 10
526.508032
 20
300.697992
 30
0.0
 11
526.508032
 21
306.391368
 31
0.0
  0
LINE
  8
LC-002-002-----0
  6
CONTINUOUS
  5
513
 10
506.508032
 20
300.697992
 30
0.0
 11
506.508032
 21
306.391368
 31
0.0
  0
LINE
  8
LC-002-002-----0
  6
CONTINUOUS
  5
514
 10
505.008032
 20
293.697992
 30
0.0
 11
506.242321
 21
286.697992
 31
0.0
  0
LINE
  8
LC-002-002-----0
  6
CONTINUOUS
  5
515
 10
505.758032
 20
286.697992
 30
0.0
 11
506.992321
 21
279.697992
 31
0.0
  0
LINE
  8
LC-002-002-----0
  6
CONTINUOUS
  5
516
 10
506.508032
 20
279.697992
 30
0.0
 11
507.742321
 21
272.697992
 31
0.0
  0
LINE
  8
LC-002-002-----0
  6
CONTINUOUS
  5
517
 10
507.258032
 20
272.697992
 30
0.0
 11
508.470179
 21
265.823563
 31
0.0
  0
LINE
  8
LC-002-002-----0
  6
CONTINUOUS
  5
518
 10
528.008032
 20
293.697992
 30
0.0
 11
526.773743
 21
286.697992
 31
0.0
  0
LINE
  8
LC-002-002-----0
  6
CONTINUOUS
  5
519
 10
527.258032
 20
286.697992
 30
0.0
 11
526.023743
 21
279.697992
 31
0.0
  0
LINE
  8
LC-002-002-----0
  6
CONTINUOUS
  5
51A
 10
526.508032
 20
279.697992
 30
0.0
 11
525.273743
 21
272.697992
 31
0.0
  0
LINE
  8
LC-002-002-----0
  6
CONTINUOUS
  5
51B
 10
525.758032
 20
272.697992
 30
0.0
 11
524.523743
 21
265.697992
 31
0.0
  0
LINE
  8
LC-003-001-----0
  6
CONTINUOUS
  5
51C
 10
528.008032
 20
300.697992
 30
0.0
 11
505.008032
 21
300.697992
 31
0.0
  0
LINE
  8
LC-002-002-----0
  6
CONTINUOUS
  5
51D
 10
505.008032
 20
300.697992
 30
0.0
 11
504.258032
 21
300.697992
 31
0.0
  0
LINE
  8
LC-002-002-----0
  6
CONTINUOUS
  5
51E
 10
528.008032
 20
300.697992
 30
0.0
 11
528.758032
 21
300.697992
 31
0.0
  0
LINE
  8
LC-002-002-----0
  6
CONTINUOUS
  5
51F
 10
528.758032
 20
300.697992
 30
0.0
 11
527.523743
 21
293.697992
 31
0.0
  0
LINE
  8
LC-002-002-----0
  6
CONTINUOUS
  5
520
 10
504.258032
 20
300.697992
 30
0.0
 11
505.492321
 21
293.697992
 31
0.0
  0
ARC
  8
LC-002-002-----0
  6
CONTINUOUS
  5
521
 10
443.008218
 20
371.950042
 30
0.0
 40
3.0
 50
242.511041
 51
117.484009
  0
LINE
  8
LC-002-002-----0
  6
CONTINUOUS
  5
522
 10
436.508218
 20
371.950351
 30
0.0
 11
441.623476
 21
369.288747
 31
0.0
  0
CIRCLE
  8
LC-002-002-----0
  6
CONTINUOUS
  5
523
 10
436.50376
 20
424.450042
 30
0.0
 40
35.5
  0
LINE
  8
LC-002-002-----0
  6
DASHED
 62
     2
  5
524
 10
427.008218
 20
458.137349
 30
0.0
 11
427.008218
 21
456.950042
 31
0.0
  0
LINE
  8
LC-002-002-----0
  6
DASHED
 62
     2
  5
525
 10
446.008218
 20
458.654067
 30
0.0
 11
446.008218
 21
456.950042
 31
0.0
  0
ARC
  8
LC-001-002-RND-0
  6
CONTINUOUS
  5
526
 10
874.130884
 20
410.907883
 30
0.0
 40
2.5
 50
270.0
 51
360.0
  0
LINE
  8
LC-002-002-----0
  6
CONTINUOUS
  5
527
 10
800.854414
 20
458.407883
 30
0.0
 11
800.854414
 21
388.407883
 31
0.0
  0
ARC
  8
LC-001-002-RND-0
  6
CONTINUOUS
  5
528
 10
808.257957
 20
456.407883
 30
0.0
 40
2.0
 50
12.804266
 51
90.0
  0
ARC
  8
LC-002-002-----0
  6
CONTINUOUS
  5
529
 10
436.50376
 20
314.697992
 30
0.0
 40
14.004119
 50
307.370324
 51
232.629676
  0
LINE
  8
LC-002-002-----0
  6
CONTINUOUS
  5
52A
 10
814.854414
 20
436.407883
 30
0.0
 11
814.854414
 21
410.407883
 31
0.0
  0
LINE
  8
LC-002-002-----0
  6
CONTINUOUS
  5
52B
 10
808.257957
 20
458.407883
 30
0.0
 11
800.854414
 21
458.407883
 31
0.0
  0
LINE
  8
LC-002-002-----0
  6
CONTINUOUS
  5
52C
 10
808.257957
 20
388.407883
 30
0.0
 11
800.854414
 21
388.407883
 31
0.0
  0
LINE
  8
LC-002-002-----0
  6
CONTINUOUS
  5
52D
 10
810.208223
 20
456.851125
 30
0.0
 11
814.854414
 21
436.407883
 31
0.0
  0
LINE
  8
LC-002-002-----0
  6
CONTINUOUS
  5
52E
 10
814.854414
 20
410.407883
 30
0.0
 11
810.208223
 21
389.964641
 31
0.0
  0
ARC
  8
LC-001-002-RND-0
  6
CONTINUOUS
  5
52F
 10
808.257957
 20
390.407883
 30
0.0
 40
2.0
 50
270.0
 51
347.195734
  0
LINE
  8
LC-002-002-----0
  6
CONTINUOUS
  5
530
 10
808.257957
 20
458.407883
 30
0.0
 11
808.257957
 21
388.407883
 31
0.0
  0
LINE
  8
LC-002-002-----0
  6
CONTINUOUS
  5
531
 10
814.854414
 20
436.407883
 30
0.0
 11
837.630884
 21
436.407883
 31
0.0
  0
LINE
  8
LC-002-002-----0
  6
CONTINUOUS
  5
532
 10
800.854414
 20
410.407883
 30
0.0
 11
786.630884
 21
410.407883
 31
0.0
  0
LINE
  8
LC-002-002-----0
  6
DASHED
 62
     2
  5
533
 10
800.854414
 20
436.407883
 30
0.0
 11
814.854414
 21
436.407883
 31
0.0
  0
LINE
  8
LC-002-002-----0
  6
DASHED
 62
     2
  5
534
 10
800.854414
 20
410.407883
 30
0.0
 11
814.854414
 21
410.407883
 31
0.0
  0
LINE
  8
LC-002-002-----0
  6
DASHDOT
 62
     2
  5
535
 10
876.630884
 20
423.407883
 30
0.0
 11
760.596286
 21
423.407883
 31
0.0
  0
LINE
  8
LC-002-002-----0
  6
CONTINUOUS
  5
536
 10
857.630884
 20
438.407883
 30
0.0
 11
857.630884
 21
408.407883
 31
0.0
  0
LINE
  8
LC-002-002-----0
  6
CONTINUOUS
  5
537
 10
214.271234
 20
291.697992
 30
0.0
 11
214.271234
 21
294.197992
 31
0.0
  0
LINE
  8
LC-002-002-----0
  6
CONTINUOUS
  5
538
 10
227.371234
 20
291.697992
 30
0.0
 11
227.371234
 21
294.197992
 31
0.0
  0
LINE
  8
LC-002-002-----0
  6
CONTINUOUS
  5
539
 10
857.630884
 20
408.407883
 30
0.0
 11
837.630884
 21
408.407883
 31
0.0
  0
LINE
  8
LC-002-002-----0
  6
CONTINUOUS
  5
53A
 10
857.630884
 20
438.407883
 30
0.0
 11
837.630884
 21
438.407883
 31
0.0
  0
LINE
  8
LC-002-002-----0
  6
CONTINUOUS
  5
53B
 10
227.371234
 20
270.195193
 30
0.0
 11
227.371234
 21
280.195193
 31
0.0
  0
LINE
  8
LC-002-002-----0
  6
CONTINUOUS
  5
53C
 10
214.271234
 20
270.195193
 30
0.0
 11
227.371234
 21
270.195193
 31
0.0
  0
LINE
  8
LC-002-002-----0
  6
CONTINUOUS
  5
53D
 10
870.630884
 20
438.407883
 30
0.0
 11
870.630884
 21
408.407883
 31
0.0
  0
LINE
  8
LC-002-002-----0
  6
CONTINUOUS
  5
53E
 10
214.271234
 20
270.195193
 30
0.0
 11
214.271234
 21
280.195193
 31
0.0
  0
LINE
  8
LC-002-002-----0
  6
CONTINUOUS
  5
53F
 10
867.630884
 20
405.407883
 30
0.0
 11
860.630884
 21
405.407883
 31
0.0
  0
LINE
  8
LC-002-002-----0
  6
CONTINUOUS
  5
540
 10
867.630884
 20
441.407883
 30
0.0
 11
860.630884
 21
441.407883
 31
0.0
  0
ARC
  8
LC-001-002-RND-0
  6
CONTINUOUS
  5
541
 10
867.630884
 20
438.407883
 30
0.0
 40
3.0
 50
0.0
 51
90.0
  0
ARC
  8
LC-002-002-----0
  6
CONTINUOUS
  5
542
 10
436.50376
 20
314.697992
 30
0.0
 40
27.0
 50
305.034815
 51
234.962576
  0
LINE
  8
LC-002-002-----0
  6
CONTINUOUS
  5
543
 10
214.271234
 20
280.195193
 30
0.0
 11
227.371234
 21
280.195193
 31
0.0
  0
LINE
  8
LC-002-002-----0
  6
DASHDOT
 62
     2
  5
544
 10
211.763941
 20
275.195193
 30
0.0
 11
228.506414
 21
275.195193
 31
0.0
  0
ARC
  8
LC-002-002-----0
  6
DASHED
 62
     2
  5
545
 10
436.50376
 20
314.697992
 30
0.0
 40
27.0
 50
234.965185
 51
305.034815
  0
ARC
  8
LC-001-002-RND-0
  6
CONTINUOUS
  5
546
 10
860.630884
 20
438.407883
 30
0.0
 40
3.0
 50
90.0
 51
180.0
  0
LINE
  8
LC-002-002-----0
  6
CONTINUOUS
  5
547
 10
145.931425
 20
264.698719
 30
0.0
 11
145.931425
 21
328.198719
 31
0.0
  0
ARC
  8
LC-001-002-RND-0
  6
CONTINUOUS
  5
548
 10
860.630884
 20
408.407883
 30
0.0
 40
3.0
 50
180.0
 51
270.0
  0
ARC
  8
LC-001-002-RND-0
  6
CONTINUOUS
  5
549
 10
867.630884
 20
408.407883
 30
0.0
 40
3.0
 50
270.0
 51
0.0
  0
LINE
  8
LC-002-002-----0
  6
CONTINUOUS
  5
54A
 10
867.630884
 20
416.907883
 30
0.0
 11
860.630884
 21
416.907883
 31
0.0
  0
LINE
  8
LC-002-002-----0
  6
CONTINUOUS
  5
54B
 10
867.630884
 20
429.907883
 30
0.0
 11
860.630884
 21
429.907883
 31
0.0
  0
LINE
  8
LC-002-002-----0
  6
CONTINUOUS
  5
54C
 10
145.931425
 20
264.698719
 30
0.0
 11
141.810105
 21
268.820039
 31
0.0
  0
ARC
  8
LC-002-002-----0
  6
CONTINUOUS
  5
54D
 10
143.931425
 20
270.941359
 30
0.0
 40
3.0
 50
180.0
 51
225.0
  0
LINE
  8
LC-002-002-----0
  6
CONTINUOUS
  5
54E
 10
860.630884
 20
441.407883
 30
0.0
 11
860.630884
 21
429.907883
 31
0.0
  0
ARC
  8
LC-002-002-----0
  6
CONTINUOUS
  5
54F
 10
866.172551
 20
423.407883
 30
0.0
 40
8.541667
 50
130.449719
 51
229.550281
  0
LINE
  8
LC-002-002-----0
  6
CONTINUOUS
  5
550
 10
860.630884
 20
416.907883
 30
0.0
 11
860.630884
 21
405.407883
 31
0.0
  0
ARC
  8
LC-002-002-----0
  6
CONTINUOUS
  5
551
 10
862.089217
 20
423.407883
 30
0.0
 40
8.541667
 50
310.449719
 51
49.550281
  0
LINE
  8
LC-002-002-----0
  6
CONTINUOUS
  5
552
 10
867.630884
 20
441.407883
 30
0.0
 11
867.630884
 21
429.907883
 31
0.0
  0
LINE
  8
LC-002-002-----0
  6
CONTINUOUS
  5
553
 10
867.630884
 20
416.907883
 30
0.0
 11
867.630884
 21
405.407883
 31
0.0
  0
LINE
  8
LC-002-002-----0
  6
CONTINUOUS
  5
554
 10
876.630884
 20
435.907883
 30
0.0
 11
876.630884
 21
410.907883
 31
0.0
  0
LINE
  8
LC-002-002-----0
  6
CONTINUOUS
  5
555
 10
874.130884
 20
408.407883
 30
0.0
 11
870.630884
 21
408.407883
 31
0.0
  0
LINE
  8
LC-002-002-----0
  6
CONTINUOUS
  5
556
 10
874.130884
 20
438.407883
 30
0.0
 11
870.630884
 21
438.407883
 31
0.0
  0
ARC
  8
LC-001-002-RND-0
  6
CONTINUOUS
  5
557
 10
874.130884
 20
435.907883
 30
0.0
 40
2.5
 50
0.0
 51
90.0
  0
LINE
  8
LC-002-002-----0
  6
CONTINUOUS
  5
558
 10
786.630884
 20
436.407883
 30
0.0
 11
800.854414
 21
436.407883
 31
0.0
  0
LINE
  8
LC-002-002-----0
  6
CONTINUOUS
  5
559
 10
837.630884
 20
410.407883
 30
0.0
 11
814.854414
 21
410.407883
 31
0.0
  0
ARC
  8
LC-002-002-----0
  6
CONTINUOUS
  5
55A
 10
436.50376
 20
314.697992
 30
0.0
 40
8.5
 50
1.182587
 51
175.108091
  0
LINE
  8
LC-002-002-----0
  6
CONTINUOUS
  5
55B
 10
837.630884
 20
408.407883
 30
0.0
 11
837.630884
 21
438.407883
 31
0.0
  0
LINE
  8
LC-002-002-----0
  6
CONTINUOUS
  5
55C
 10
428.00376
 20
300.71876
 30
0.0
 11
445.00376
 21
300.71876
 31
0.0
  0
LINE
  8
LC-002-002-----0
  6
CONTINUOUS
  5
55D
 10
423.50376
 20
298.21876
 30
0.0
 11
449.50376
 21
298.21876
 31
0.0
  0
LINE
  8
LC-002-002-----0
  6
CONTINUOUS
 62
     2
  5
55E
 10
425.00376
 20
295.21876
 30
0.0
 11
425.00376
 21
299.052094
 31
0.0
  0
LINE
  8
LC-002-002-----0
  6
CONTINUOUS
  5
55F
 10
449.50376
 20
295.21876
 30
0.0
 11
423.50376
 21
295.21876
 31
0.0
  0
LINE
  8
LC-002-002-----0
  6
CONTINUOUS
  5
560
 10
421.00376
 20
270.21876
 30
0.0
 11
452.00376
 21
270.21876
 31
0.0
  0
LINE
  8
LC-002-002-----0
  6
CONTINUOUS
  5
561
 10
452.00376
 20
270.21876
 30
0.0
 11
452.00376
 21
292.71876
 31
0.0
  0
LINE
  8
LC-002-002-----0
  6
DASHED
 62
     2
  5
562
 10
413.00376
 20
343.197992
 30
0.0
 11
466.563796
 21
343.197992
 31
0.0
  0
LINE
  8
LC-002-002-----0
  6
DASHED
 62
     2
  5
563
 10
413.00376
 20
286.197992
 30
0.0
 11
466.563796
 21
286.197992
 31
0.0
  0
ARC
  8
LC-001-002-RND-0
  6
DASHED
 62
     2
  5
564
 10
413.00376
 20
338.197992
 30
0.0
 40
5.0
 50
90.0
 51
180.0
  0
ARC
  8
LC-001-002-RND-0
  6
DASHED
 62
     2
  5
565
 10
413.00376
 20
291.197992
 30
0.0
 40
5.0
 50
180.0
 51
270.0
  0
LINE
  8
LC-002-002-----0
  6
CONTINUOUS
  5
566
 10
421.00376
 20
292.71876
 30
0.0
 11
421.00376
 21
270.21876
 31
0.0
  0
LINE
  8
LC-002-002-----0
  6
CONTINUOUS
  5
567
 10
449.50376
 20
295.21876
 30
0.0
 11
452.00376
 21
292.71876
 31
0.0
  0
LINE
  8
LC-002-002-----0
  6
CONTINUOUS
  5
568
 10
423.50376
 20
295.21876
 30
0.0
 11
421.00376
 21
292.71876
 31
0.0
  0
LINE
  8
LC-002-002-----0
  6
CONTINUOUS
  5
569
 10
452.00376
 20
292.71876
 30
0.0
 11
421.00376
 21
292.71876
 31
0.0
  0
LINE
  8
LC-002-002-----0
  6
CONTINUOUS
  5
56A
 10
424.25376
 20
270.21876
 30
0.0
 11
424.25376
 21
267.71876
 31
0.0
  0
LINE
  8
LC-002-002-----0
  6
CONTINUOUS
  5
56B
 10
424.25376
 20
267.71876
 30
0.0
 11
448.75376
 21
267.71876
 31
0.0
  0
LINE
  8
LC-002-002-----0
  6
CONTINUOUS
  5
56C
 10
448.75376
 20
267.71876
 30
0.0
 11
448.75376
 21
270.21876
 31
0.0
  0
LINE
  8
LC-009-006-MLN-0
  6
DASHDOT
  5
56D
 10
516.50376
 20
379.697992
 30
0.0
 11
516.50376
 21
216.697992
 31
0.0
  0
LINE
  8
LC-002-002-----0
  6
CONTINUOUS
  5
56E
 10
423.00376
 20
267.71876
 30
0.0
 11
423.00376
 21
262.71876
 31
0.0
  0
LINE
  8
LC-002-002-----0
  6
CONTINUOUS
  5
56F
 10
423.00376
 20
262.71876
 30
0.0
 11
450.00376
 21
262.71876
 31
0.0
  0
LINE
  8
LC-002-002-----0
  6
CONTINUOUS
  5
570
 10
450.00376
 20
262.71876
 30
0.0
 11
450.00376
 21
267.71876
 31
0.0
  0
LINE
  8
LC-002-002-----0
  6
CONTINUOUS
  5
571
 10
450.00376
 20
267.71876
 30
0.0
 11
448.75376
 21
267.71876
 31
0.0
  0
LINE
  8
LC-002-002-----0
  6
CONTINUOUS
  5
572
 10
424.25376
 20
267.71876
 30
0.0
 11
423.00376
 21
267.71876
 31
0.0
  0
ARC
  8
LC-002-002-----0
  6
CONTINUOUS
  5
573
 10
447.831153
 20
265.21876
 30
0.0
 40
0.5
 50
316.081742
 51
43.91841
  0
ARC
  8
LC-002-002-----0
  6
CONTINUOUS
  5
574
 10
443.12876
 20
260.690635
 30
0.0
 40
7.028125
 50
43.918429
 51
136.08159
  0
ARC
  8
LC-002-002-----0
  6
CONTINUOUS
  5
575
 10
438.426367
 20
265.21876
 30
0.0
 40
0.5
 50
136.08159
 51
223.918352
  0
ARC
  8
LC-002-002-----0
  6
CONTINUOUS
  5
576
 10
443.12876
 20
269.746885
 30
0.0
 40
7.028125
 50
223.91841
 51
316.081742
  0
ARC
  8
LC-002-002-----0
  6
CONTINUOUS
  5
577
 10
434.581153
 20
265.21876
 30
0.0
 40
0.5
 50
316.081742
 51
43.91841
  0
ARC
  8
LC-002-002-----0
  6
CONTINUOUS
  5
578
 10
429.87876
 20
260.690635
 30
0.0
 40
7.028125
 50
43.918429
 51
136.08159
  0
ARC
  8
LC-002-002-----0
  6
CONTINUOUS
  5
579
 10
425.176367
 20
265.21876
 30
0.0
 40
0.5
 50
136.08159
 51
223.918352
  0
ARC
  8
LC-002-002-----0
  6
CONTINUOUS
  5
57A
 10
429.87876
 20
269.746885
 30
0.0
 40
7.028125
 50
223.91841
 51
316.081742
  0
LINE
  8
LC-003-001-----0
  6
DASHDOT
 62
     2
  5
57B
 10
423.00376
 20
265.21876
 30
0.0
 11
450.00376
 21
265.21876
 31
0.0
  0
ARC
  8
LC-002-002-----0
  6
CONTINUOUS
  5
57C
 10
451.337094
 20
265.21876
 30
0.0
 40
2.833333
 50
118.072429
 51
241.927396
  0
ARC
  8
LC-002-002-----0
  6
CONTINUOUS
  5
57D
 10
421.670427
 20
265.21876
 30
0.0
 40
2.833333
 50
298.07281
 51
61.927551
  0
LINE
  8
LC-002-002-----0
  6
CONTINUOUS
  5
57E
 10
424.00376
 20
262.71876
 30
0.0
 11
424.00376
 21
255.512445
 31
0.0
  0
LINE
  8
LC-002-002-----0
  6
CONTINUOUS
  5
57F
 10
449.00376
 20
260.21876
 30
0.0
 11
449.00376
 21
262.71876
 31
0.0
  0
LINE
  8
LC-002-002-----0
  6
CONTINUOUS
  5
580
 10
424.797445
 20
254.71876
 30
0.0
 11
448.210076
 21
254.71876
 31
0.0
  0
LINE
  8
LC-002-002-----0
  6
CONTINUOUS
 62
     2
  5
581
 10
424.00376
 20
262.71876
 30
0.0
 11
449.00376
 21
260.531544
 31
0.0
  0
LINE
  8
LC-002-002-----0
  6
CONTINUOUS
 62
     2
  5
582
 10
424.00376
 20
261.714941
 30
0.0
 11
449.00376
 21
259.527724
 31
0.0
  0
LINE
  8
LC-002-002-----0
  6
CONTINUOUS
 62
     2
  5
583
 10
424.00376
 20
260.711121
 30
0.0
 11
449.00376
 21
258.523904
 31
0.0
  0
CIRCLE
  8
LC-002-002-----0
  6
DASHED
 62
     2
  5
584
 10
456.50376
 20
314.697992
 30
0.0
 40
1.5
  0
CIRCLE
  8
LC-002-002-----0
  6
DASHED
 62
     2
  5
585
 10
416.499489
 20
314.697992
 30
0.0
 40
1.5
  0
LINE
  8
LC-002-002-----0
  6
CONTINUOUS
 62
     2
  5
586
 10
424.00376
 20
259.707301
 30
0.0
 11
449.00376
 21
257.520084
 31
0.0
  0
LINE
  8
LC-002-002-----0
  6
CONTINUOUS
 62
     2
  5
587
 10
424.00376
 20
258.703481
 30
0.0
 11
449.00376
 21
256.516264
 31
0.0
  0
LINE
  8
LC-002-002-----0
  6
CONTINUOUS
 62
     2
  5
588
 10
424.00376
 20
257.699661
 30
0.0
 11
449.00376
 21
255.512445
 31
0.0
  0
CIRCLE
  8
LC-002-002-----0
  6
DASHED
 62
     2
  5
589
 10
469.50376
 20
314.697992
 30
0.0
 40
1.5
  0
LINE
  8
LC-002-002-----0
  6
CONTINUOUS
 62
     2
  5
58A
 10
424.00376
 20
256.695841
 30
0.0
 11
446.601899
 21
254.71876
 31
0.0
  0
LINE
  8
LC-002-002-----0
  6
CONTINUOUS
 62
     2
  5
58B
 10
436.50376
 20
262.628972
 30
0.0
 11
449.00376
 21
261.535364
 31
0.0
  0
LINE
  8
LC-002-002-----0
  6
CONTINUOUS
  5
58C
 10
449.00376
 20
255.512445
 30
0.0
 11
448.210076
 21
254.71876
 31
0.0
  0
LINE
  8
LC-002-002-----0
  6
CONTINUOUS
  5
58D
 10
424.00376
 20
255.512445
 30
0.0
 11
424.797445
 21
254.71876
 31
0.0
  0
LINE
  8
LC-002-002-----0
  6
CONTINUOUS
  5
58E
 10
449.00376
 20
255.512445
 30
0.0
 11
449.00376
 21
260.21876
 31
0.0
  0
LINE
  8
LC-002-002-----0
  6
CONTINUOUS
  5
58F
 10
424.00376
 20
255.512445
 30
0.0
 11
449.00376
 21
255.512445
 31
0.0
  0
LINE
  8
LC-002-002-----0
  6
CONTINUOUS
 62
     2
  5
590
 10
424.00376
 20
255.695841
 30
0.0
 11
435.171847
 21
254.71876
 31
0.0
  0
LINE
  8
LC-002-002-----0
  6
CONTINUOUS
  5
591
 10
449.50376
 20
295.21876
 30
0.0
 11
449.50376
 21
298.21876
 31
0.0
  0
LINE
  8
LC-002-002-----0
  6
CONTINUOUS
  5
592
 10
423.50376
 20
295.21876
 30
0.0
 11
423.50376
 21
298.21876
 31
0.0
  0
LINE
  8
LC-002-002-----0
  6
CONTINUOUS
  5
593
 10
423.50376
 20
298.21876
 30
0.0
 11
428.00376
 21
300.71876
 31
0.0
  0
LINE
  8
LC-002-002-----0
  6
CONTINUOUS
  5
594
 10
445.00376
 20
300.71876
 30
0.0
 11
449.50376
 21
298.21876
 31
0.0
  0
LINE
  8
LC-002-002-----0
  6
CONTINUOUS
  5
595
 10
445.00376
 20
300.71876
 30
0.0
 11
445.00376
 21
314.87342
 31
0.0
  0
LINE
  8
LC-002-002-----0
  6
DASHED
 62
     2
  5
596
 10
408.00376
 20
338.197992
 30
0.0
 11
408.00376
 21
291.197992
 31
0.0
  0
LINE
  8
LC-002-002-----0
  6
CONTINUOUS
 62
     2
  5
597
 10
448.00376
 20
295.21876
 30
0.0
 11
448.00376
 21
299.052094
 31
0.0
  0
LINE
  8
LC-002-002-----0
  6
CONTINUOUS
  5
598
 10
428.00376
 20
300.71876
 30
0.0
 11
428.00376
 21
315.197992
 31
0.0
  0
LINE
  8
LC-002-002-----0
  6
CONTINUOUS
  5
599
 10
449.00376
 20
264.697992
 30
0.0
 11
451.337094
 21
264.697992
 31
0.0
  0
LINE
  8
LC-002-002-----0
  6
DASHDOT
 62
     2
  5
59A
 10
516.50376
 20
269.197992
 30
0.0
 11
516.50376
 21
266.197992
 31
0.0
  0
CIRCLE
  8
LC-002-002-----0
  6
DASHED
 62
     2
  5
59B
 10
563.50376
 20
314.697992
 30
0.0
 40
1.5
  0
LINE
  8
LC-002-002-----0
  6
DASHDOT
 62
     2
  5
59C
 10
856.398185
 20
314.697992
 30
0.0
 11
761.296286
 21
314.697992
 31
0.0
  0
LINE
  8
LC-002-002-----0
  6
CONTINUOUS
  5
59D
 10
831.096286
 20
264.698719
 30
0.0
 11
831.096286
 21
364.698719
 31
0.0
  0
LINE
  8
LC-002-002-----0
  6
CONTINUOUS
  5
59E
 10
831.096286
 20
364.698719
 30
0.0
 11
835.217607
 21
360.577398
 31
0.0
  0
ARC
  8
LC-002-002-----0
  6
CONTINUOUS
  5
59F
 10
833.096286
 20
358.456078
 30
0.0
 40
3.0
 50
0.0
 51
45.0
  0
LINE
  8
LC-002-002-----0
  6
CONTINUOUS
  5
5A0
 10
836.096286
 20
358.456078
 30
0.0
 11
836.096286
 21
328.198719
 31
0.0
  0
LINE
  8
LC-002-002-----0
  6
CONTINUOUS
  5
5A1
 10
831.096286
 20
264.698719
 30
0.0
 11
835.217607
 21
268.820039
 31
0.0
  0
ARC
  8
LC-002-002-----0
  6
CONTINUOUS
  5
5A2
 10
833.096286
 20
270.941359
 30
0.0
 40
3.0
 50
315.0
 51
0.0
  0
LINE
  8
LC-002-002-----0
  6
CONTINUOUS
  5
5A3
 10
836.096286
 20
328.198719
 30
0.0
 11
836.096286
 21
270.941359
 31
0.0
  0
LINE
  8
LC-002-002-----0
  6
CONTINUOUS
  5
5A4
 10
842.096286
 20
341.697992
 30
0.0
 11
836.096286
 21
341.697992
 31
0.0
  0
LINE
  8
LC-002-002-----0
  6
CONTINUOUS
  5
5A5
 10
842.096286
 20
287.697992
 30
0.0
 11
836.096286
 21
287.697992
 31
0.0
  0
LINE
  8
LC-002-002-----0
  6
CONTINUOUS
  5
5A6
 10
859.096286
 20
300.71876
 30
0.0
 11
876.096286
 21
300.71876
 31
0.0
  0
LINE
  8
LC-002-002-----0
  6
CONTINUOUS
  5
5A7
 10
851.096286
 20
306.197992
 30
0.0
 11
851.096286
 21
323.180192
 31
0.0
  0
LINE
  8
LC-002-002-----0
  6
CONTINUOUS
  5
5A8
 10
858.217607
 20
305.319313
 30
0.0
 11
866.13182
 21
313.233526
 31
0.0
  0
LINE
  8
LC-002-002-----0
  6
CONTINUOUS
  5
5A9
 10
842.096286
 20
341.697992
 30
0.0
 11
842.096286
 21
287.697992
 31
0.0
  0
LINE
  8
LC-002-002-----0
  6
CONTINUOUS
  5
5AA
 10
880.596286
 20
298.21876
 30
0.0
 11
854.596286
 21
298.21876
 31
0.0
  0
LINE
  8
LC-002-002-----0
  6
CONTINUOUS
  5
5AB
 10
849.096286
 20
326.697992
 30
0.0
 11
842.096286
 21
341.697992
 31
0.0
  0
LINE
  8
LC-002-002-----0
  6
CONTINUOUS
  5
5AC
 10
849.096286
 20
302.697992
 30
0.0
 11
842.096286
 21
287.697992
 31
0.0
  0
LINE
  8
LC-002-002-----0
  6
CONTINUOUS
 62
     2
  5
5AD
 10
879.096286
 20
295.21876
 30
0.0
 11
879.096286
 21
299.052094
 31
0.0
  0
LINE
  8
LC-002-002-----0
  6
CONTINUOUS
  5
5AE
 10
854.596286
 20
295.21876
 30
0.0
 11
880.596286
 21
295.21876
 31
0.0
  0
LINE
  8
LC-002-002-----0
  6
CONTINUOUS
  5
5AF
 10
883.096286
 20
270.21876
 30
0.0
 11
852.096286
 21
270.21876
 31
0.0
  0
LINE
  8
LC-002-002-----0
  6
CONTINUOUS
  5
5B0
 10
852.096286
 20
270.21876
 30
0.0
 11
852.096286
 21
292.71876
 31
0.0
  0
LINE
  8
LC-002-002-----0
  6
CONTINUOUS
  5
5B1
 10
883.096286
 20
292.71876
 30
0.0
 11
883.096286
 21
270.21876
 31
0.0
  0
LINE
  8
LC-002-002-----0
  6
CONTINUOUS
  5
5B2
 10
854.596286
 20
295.21876
 30
0.0
 11
852.096286
 21
292.71876
 31
0.0
  0
LINE
  8
LC-002-002-----0
  6
CONTINUOUS
  5
5B3
 10
880.596286
 20
295.21876
 30
0.0
 11
883.096286
 21
292.71876
 31
0.0
  0
LINE
  8
LC-002-002-----0
  6
CONTINUOUS
  5
5B4
 10
852.096286
 20
292.71876
 30
0.0
 11
883.096286
 21
292.71876
 31
0.0
  0
LINE
  8
LC-002-002-----0
  6
CONTINUOUS
  5
5B5
 10
879.846286
 20
270.21876
 30
0.0
 11
879.846286
 21
267.71876
 31
0.0
  0
LINE
  8
LC-002-002-----0
  6
CONTINUOUS
  5
5B6
 10
879.846286
 20
267.71876
 30
0.0
 11
855.346286
 21
267.71876
 31
0.0
  0
LINE
  8
LC-002-002-----0
  6
CONTINUOUS
  5
5B7
 10
855.346286
 20
267.71876
 30
0.0
 11
855.346286
 21
270.21876
 31
0.0
  0
LINE
  8
LC-002-002-----0
  6
CONTINUOUS
  5
5B8
 10
881.096286
 20
267.71876
 30
0.0
 11
881.096286
 21
262.71876
 31
0.0
  0
LINE
  8
LC-002-002-----0
  6
CONTINUOUS
  5
5B9
 10
881.096286
 20
262.71876
 30
0.0
 11
854.096286
 21
262.71876
 31
0.0
  0
LINE
  8
LC-002-002-----0
  6
CONTINUOUS
  5
5BA
 10
854.096286
 20
262.71876
 30
0.0
 11
854.096286
 21
267.71876
 31
0.0
  0
LINE
  8
LC-002-002-----0
  6
CONTINUOUS
  5
5BB
 10
854.096286
 20
267.71876
 30
0.0
 11
855.346286
 21
267.71876
 31
0.0
  0
LINE
  8
LC-002-002-----0
  6
CONTINUOUS
  5
5BC
 10
879.846286
 20
267.71876
 30
0.0
 11
881.096286
 21
267.71876
 31
0.0
  0
ARC
  8
LC-002-002-----0
  6
CONTINUOUS
  5
5BD
 10
856.268893
 20
265.21876
 30
0.0
 40
0.5
 50
136.08159
 51
223.918258
  0
ARC
  8
LC-002-002-----0
  6
CONTINUOUS
  5
5BE
 10
860.971286
 20
260.690635
 30
0.0
 40
7.028125
 50
43.91841
 51
136.081571
  0
ARC
  8
LC-002-002-----0
  6
CONTINUOUS
  5
5BF
 10
865.673679
 20
265.21876
 30
0.0
 40
0.5
 50
316.081648
 51
43.91841
  0
ARC
  8
LC-002-002-----0
  6
CONTINUOUS
  5
5C0
 10
860.971286
 20
269.746885
 30
0.0
 40
7.028125
 50
223.918258
 51
316.08159
  0
ARC
  8
LC-002-002-----0
  6
CONTINUOUS
  5
5C1
 10
869.518893
 20
265.21876
 30
0.0
 40
0.5
 50
136.08159
 51
223.918258
  0
ARC
  8
LC-002-002-----0
  6
CONTINUOUS
  5
5C2
 10
874.221286
 20
260.690635
 30
0.0
 40
7.028125
 50
43.91841
 51
136.081571
  0
ARC
  8
LC-002-002-----0
  6
CONTINUOUS
  5
5C3
 10
878.923679
 20
265.21876
 30
0.0
 40
0.5
 50
316.081648
 51
43.91841
  0
ARC
  8
LC-002-002-----0
  6
CONTINUOUS
  5
5C4
 10
874.221286
 20
269.746885
 30
0.0
 40
7.028125
 50
223.918258
 51
316.08159
  0
LINE
  8
LC-003-001-----0
  6
DASHDOT
 62
     2
  5
5C5
 10
881.096286
 20
265.21876
 30
0.0
 11
854.096286
 21
265.21876
 31
0.0
  0
ARC
  8
LC-002-002-----0
  6
CONTINUOUS
  5
5C6
 10
852.762953
 20
265.21876
 30
0.0
 40
2.833333
 50
298.072604
 51
61.927571
  0
ARC
  8
LC-002-002-----0
  6
CONTINUOUS
  5
5C7
 10
882.42962
 20
265.21876
 30
0.0
 40
2.833333
 50
118.072449
 51
241.92719
  0
LINE
  8
LC-002-002-----0
  6
CONTINUOUS
  5
5C8
 10
880.096286
 20
262.71876
 30
0.0
 11
880.096286
 21
255.512445
 31
0.0
  0
LINE
  8
LC-002-002-----0
  6
CONTINUOUS
  5
5C9
 10
855.096286
 20
260.21876
 30
0.0
 11
855.096286
 21
262.71876
 31
0.0
  0
LINE
  8
LC-002-002-----0
  6
CONTINUOUS
  5
5CA
 10
879.302602
 20
254.71876
 30
0.0
 11
855.889971
 21
254.71876
 31
0.0
  0
LINE
  8
LC-002-002-----0
  6
CONTINUOUS
 62
     2
  5
5CB
 10
880.096286
 20
262.71876
 30
0.0
 11
855.096286
 21
260.531544
 31
0.0
  0
LINE
  8
LC-002-002-----0
  6
CONTINUOUS
 62
     2
  5
5CC
 10
880.096286
 20
261.714941
 30
0.0
 11
855.096286
 21
259.527724
 31
0.0
  0
LINE
  8
LC-002-002-----0
  6
CONTINUOUS
 62
     2
  5
5CD
 10
880.096286
 20
260.711121
 30
0.0
 11
855.096286
 21
258.523904
 31
0.0
  0
LINE
  8
LC-002-002-----0
  6
CONTINUOUS
 62
     2
  5
5CE
 10
880.096286
 20
259.707301
 30
0.0
 11
855.096286
 21
257.520084
 31
0.0
  0
LINE
  8
LC-002-002-----0
  6
CONTINUOUS
 62
     2
  5
5CF
 10
880.096286
 20
258.703481
 30
0.0
 11
855.096286
 21
256.516264
 31
0.0
  0
LINE
  8
LC-002-002-----0
  6
CONTINUOUS
 62
     2
  5
5D0
 10
880.096286
 20
257.699661
 30
0.0
 11
855.096286
 21
255.512445
 31
0.0
  0
LINE
  8
LC-002-002-----0
  6
CONTINUOUS
 62
     2
  5
5D1
 10
880.096286
 20
256.695841
 30
0.0
 11
857.498147
 21
254.71876
 31
0.0
  0
LINE
  8
LC-002-002-----0
  6
CONTINUOUS
 62
     2
  5
5D2
 10
867.596286
 20
262.628972
 30
0.0
 11
855.096286
 21
261.535364
 31
0.0
  0
LINE
  8
LC-002-002-----0
  6
CONTINUOUS
  5
5D3
 10
855.096286
 20
255.512445
 30
0.0
 11
855.889971
 21
254.71876
 31
0.0
  0
LINE
  8
LC-002-002-----0
  6
CONTINUOUS
  5
5D4
 10
880.096286
 20
255.512445
 30
0.0
 11
879.302602
 21
254.71876
 31
0.0
  0
LINE
  8
LC-002-002-----0
  6
CONTINUOUS
  5
5D5
 10
855.096286
 20
255.512445
 30
0.0
 11
855.096286
 21
260.21876
 31
0.0
  0
LINE
  8
LC-002-002-----0
  6
CONTINUOUS
  5
5D6
 10
880.096286
 20
255.512445
 30
0.0
 11
855.096286
 21
255.512445
 31
0.0
  0
LINE
  8
LC-002-002-----0
  6
CONTINUOUS
 62
     2
  5
5D7
 10
880.096286
 20
255.695841
 30
0.0
 11
868.9282
 21
254.71876
 31
0.0
  0
LINE
  8
LC-002-002-----0
  6
CONTINUOUS
  5
5D8
 10
854.596286
 20
295.21876
 30
0.0
 11
854.596286
 21
298.21876
 31
0.0
  0
LINE
  8
LC-002-002-----0
  6
CONTINUOUS
  5
5D9
 10
880.596286
 20
295.21876
 30
0.0
 11
880.596286
 21
298.21876
 31
0.0
  0
LINE
  8
LC-002-002-----0
  6
CONTINUOUS
  5
5DA
 10
880.596286
 20
298.21876
 30
0.0
 11
876.096286
 21
300.71876
 31
0.0
  0
LINE
  8
LC-002-002-----0
  6
CONTINUOUS
  5
5DB
 10
859.096286
 20
300.71876
 30
0.0
 11
854.596286
 21
298.21876
 31
0.0
  0
LINE
  8
LC-002-002-----0
  6
DASHDOT
 62
     2
  5
5DC
 10
867.596286
 20
252.012371
 30
0.0
 11
867.596286
 21
309.697992
 31
0.0
  0
LINE
  8
LC-002-002-----0
  6
DASHED
 62
     2
  5
5DD
 10
859.596286
 20
295.21876
 30
0.0
 11
875.596286
 21
295.21876
 31
0.0
  0
LINE
  8
LC-002-002-----0
  6
CONTINUOUS
 62
     2
  5
5DE
 10
856.096286
 20
295.21876
 30
0.0
 11
856.096286
 21
299.052094
 31
0.0
  0
LINE
  8
LC-002-002-----0
  6
CONTINUOUS
  5
5DF
 10
849.096286
 20
325.197992
 30
0.0
 11
851.096286
 21
323.197992
 31
0.0
  0
LINE
  8
LC-002-002-----0
  6
CONTINUOUS
  5
5E0
 10
849.096286
 20
304.197992
 30
0.0
 11
851.096286
 21
306.197992
 31
0.0
  0
ARC
  8
LC-001-002-RND-0
  6
CONTINUOUS
  5
5E1
 10
868.096286
 20
315.197992
 30
0.0
 40
8.0
 50
0.0
 51
90.0
  0
LINE
  8
LC-002-002-----0
  6
CONTINUOUS
  5
5E2
 10
851.096286
 20
306.197992
 30
0.0
 11
856.096286
 21
306.197992
 31
0.0
  0
ARC
  8
LC-001-002-RND-0
  6
CONTINUOUS
  5
5E3
 10
856.096286
 20
303.197992
 30
0.0
 40
3.0
 50
0.0
 51
90.0
  0
LINE
  8
LC-002-002-----0
  6
CONTINUOUS
  5
5E4
 10
859.096286
 20
300.71876
 30
0.0
 11
859.096286
 21
303.197992
 31
0.0
  0
ARC
  8
LC-001-002-RND-0
  6
DASHDOT
 62
     2
  5
5E5
 10
862.596286
 20
309.697992
 30
0.0
 40
5.0
 50
0.0
 51
90.0
  0
LINE
  8
LC-002-002-----0
  6
DASHDOT
 62
     2
  5
5E6
 10
862.596286
 20
314.697992
 30
0.0
 11
854.596286
 21
314.697992
 31
0.0
  0
LINE
  8
LC-002-002-----0
  6
CONTINUOUS
  5
5E7
 10
851.096286
 20
323.197992
 30
0.0
 11
868.096286
 21
323.197992
 31
0.0
  0
LINE
  8
LC-002-002-----0
  6
CONTINUOUS
  5
5E8
 10
876.096286
 20
300.71876
 30
0.0
 11
876.096286
 21
315.197992
 31
0.0
  0
LINE
  8
LC-002-002-----0
  6
DASHED
 62
     2
  5
5E9
 10
849.096286
 20
327.197992
 30
0.0
 11
848.096286
 21
328.197992
 31
0.0
  0
LINE
  8
LC-002-002-----0
  6
DASHED
 62
     2
  5
5EA
 10
849.096286
 20
302.197992
 30
0.0
 11
848.096286
 21
301.197992
 31
0.0
  0
LINE
  8
LC-002-002-----0
  6
CONTINUOUS
  5
5EB
 10
849.096286
 20
327.197992
 30
0.0
 11
849.096286
 21
302.197992
 31
0.0
  0
LINE
  8
LC-002-002-----0
  6
DASHED
 62
     2
  5
5EC
 10
809.596286
 20
325.185513
 30
0.0
 11
849.096286
 21
325.185513
 31
0.0
  0
LINE
  8
LC-002-002-----0
  6
DASHED
 62
     2
  5
5ED
 10
809.596286
 20
304.225513
 30
0.0
 11
849.096286
 21
304.225513
 31
0.0
  0
LINE
  8
LC-002-002-----0
  6
DASHED
 62
     2
  5
5EE
 10
849.096286
 20
325.185513
 30
0.0
 11
847.916286
 21
324.005513
 31
0.0
  0
LINE
  8
LC-002-002-----0
  6
DASHED
 62
     2
  5
5EF
 10
849.096286
 20
304.225513
 30
0.0
 11
847.916286
 21
305.405513
 31
0.0
  0
LINE
  8
LC-002-002-----0
  6
CONTINUOUS
  5
5F0
 10
140.931425
 20
328.198719
 30
0.0
 11
140.931425
 21
270.941359
 31
0.0
  0
LINE
  8
LC-002-002-----0
  6
CONTINUOUS
  5
5F1
 10
145.931425
 20
364.698719
 30
0.0
 11
141.810105
 21
360.577398
 31
0.0
  0
ARC
  8
LC-002-002-----0
  6
CONTINUOUS
  5
5F2
 10
143.931425
 20
358.456078
 30
0.0
 40
3.0
 50
135.0
 51
180.0
  0
LINE
  8
LC-002-002-----0
  6
CONTINUOUS
  5
5F3
 10
140.931425
 20
358.456078
 30
0.0
 11
140.931425
 21
328.198719
 31
0.0
  0
LINE
  8
LC-002-002-----0
  6
DASHED
 62
     2
  5
5F4
 10
809.596286
 20
325.185513
 30
0.0
 11
809.596286
 21
304.225513
 31
0.0
  0
LINE
  8
LC-002-002-----0
  6
CONTINUOUS
  5
5F5
 10
849.096286
 20
327.197992
 30
0.0
 11
848.096286
 21
328.197992
 31
0.0
  0
LINE
  8
LC-002-002-----0
  6
CONTINUOUS
  5
5F6
 10
849.096286
 20
302.197992
 30
0.0
 11
848.096286
 21
301.197992
 31
0.0
  0
LINE
  8
LC-002-002-----0
  6
CONTINUOUS
  5
5F7
 10
107.929264
 20
299.700207
 30
0.0
 11
109.429264
 21
299.700206
 31
0.0
  0
LINE
  8
LC-002-002-----0
  6
CONTINUOUS
  5
5F8
 10
746.596286
 20
323.997992
 30
0.0
 11
746.596286
 21
305.397992
 31
0.0
  0
LINE
  8
LC-002-002-----0
  6
CONTINUOUS
  5
5F9
 10
750.096286
 20
320.691741
 30
0.0
 11
750.096286
 21
306.197992
 31
0.0
  0
LINE
  8
LC-002-002-----0
  6
CONTINUOUS
  5
5FA
 10
746.596286
 20
305.397992
 30
0.0
 11
750.160701
 21
305.397992
 31
0.0
  0
LINE
  8
LC-002-002-----0
  6
CONTINUOUS
  5
5FB
 10
746.596286
 20
323.997992
 30
0.0
 11
747.096286
 21
323.997992
 31
0.0
  0
LINE
  8
LC-002-002-----0
  6
CONTINUOUS
  5
5FC
 10
848.096286
 20
301.197992
 30
0.0
 11
840.936096
 21
301.197992
 31
0.0
  0
LINE
  8
LC-002-002-----0
  6
CONTINUOUS
  5
5FD
 10
747.096286
 20
341.697992
 30
0.0
 11
747.096286
 21
323.997992
 31
0.0
  0
LINE
  8
LC-002-002-----0
  6
CONTINUOUS
  5
5FE
 10
774.096286
 20
341.697992
 30
0.0
 11
774.096286
 21
328.197992
 31
0.0
  0
ARC
  8
LC-002-002-----0
  6
CONTINUOUS
  5
5FF
 10
746.774404
 20
320.691741
 30
0.0
 40
3.321883
 50
0.0
 51
84.439446
  0
ARC
  8
LC-001-002-RND-0
  6
CONTINUOUS
  5
600
 10
755.096286
 20
306.197992
 30
0.0
 40
5.0
 50
180.0
 51
270.0
  0
LINE
  8
LC-002-002-----0
  6
CONTINUOUS
  5
601
 10
848.096286
 20
328.197992
 30
0.0
 11
840.936096
 21
328.197992
 31
0.0
  0
ARC
  8
LC-001-002-RND-0
  6
DASHED
 62
     2
  5
602
 10
761.296286
 20
315.405513
 30
0.0
 40
10.0
 50
180.0
 51
270.0
  0
LINE
  8
LC-002-002-----0
  6
CONTINUOUS
  5
603
 10
774.096286
 20
328.197992
 30
0.0
 11
760.596286
 21
314.697992
 31
0.0
  0
LINE
  8
LC-002-002-----0
  6
DASHED
 62
     2
  5
604
 10
809.596286
 20
325.185513
 30
0.0
 11
849.096286
 21
325.185513
 31
0.0
  0
LINE
  8
LC-002-002-----0
  6
DASHED
 62
     2
  5
605
 10
769.903807
 20
324.005513
 30
0.0
 11
847.916286
 21
324.005513
 31
0.0
  0
LINE
  8
LC-002-002-----0
  6
DASHED
 62
     2
  5
606
 10
761.296286
 20
305.405513
 30
0.0
 11
847.916286
 21
305.405513
 31
0.0
  0
LINE
  8
LC-002-002-----0
  6
DASHED
 62
     2
  5
607
 10
809.596286
 20
304.225513
 30
0.0
 11
849.096286
 21
304.225513
 31
0.0
  0
LINE
  8
LC-002-002-----0
  6
DASHED
 62
     2
  5
608
 10
849.096286
 20
325.185513
 30
0.0
 11
847.916286
 21
324.005513
 31
0.0
  0
LINE
  8
LC-002-002-----0
  6
DASHED
 62
     2
  5
609
 10
849.096286
 20
304.225513
 30
0.0
 11
847.916286
 21
305.405513
 31
0.0
  0
LINE
  8
LC-002-002-----0
  6
CONTINUOUS
  5
60A
 10
747.096286
 20
341.697992
 30
0.0
 11
774.096286
 21
341.697992
 31
0.0
  0
LINE
  8
LC-002-002-----0
  6
DASHED
 62
     2
  5
60B
 10
751.296286
 20
341.697992
 30
0.0
 11
751.296286
 21
315.405513
 31
0.0
  0
LINE
  8
LC-002-002-----0
  6
DASHED
 62
     2
  5
60C
 10
769.896286
 20
341.697992
 30
0.0
 11
769.896286
 21
324.005513
 31
0.0
  0
LINE
  8
LC-002-002-----0
  6
CONTINUOUS
  5
60D
 10
244.271234
 20
340.697992
 30
0.0
 11
244.271234
 21
288.697992
 31
0.0
  0
LINE
  8
LC-002-002-----0
  6
CONTINUOUS
  5
60E
 10
246.271234
 20
340.697992
 30
0.0
 11
244.271234
 21
340.697992
 31
0.0
  0
LINE
  8
LC-002-002-----0
  6
CONTINUOUS
  5
60F
 10
246.271234
 20
288.697992
 30
0.0
 11
244.271234
 21
288.697992
 31
0.0
  0
LINE
  8
LC-002-002-----0
  6
CONTINUOUS
  5
610
 10
246.271234
 20
266.231509
 30
0.0
 11
244.271234
 21
266.231509
 31
0.0
  0
LINE
  8
LC-002-002-----0
  6
CONTINUOUS
  5
611
 10
246.271234
 20
263.412029
 30
0.0
 11
244.271234
 21
263.412029
 31
0.0
  0
LINE
  8
LC-002-002-----0
  6
CONTINUOUS
  5
612
 10
246.271234
 20
288.697992
 30
0.0
 11
246.271234
 21
263.412029
 31
0.0
  0
LINE
  8
LC-002-002-----0
  6
CONTINUOUS
  5
613
 10
244.271234
 20
266.231509
 30
0.0
 11
244.271234
 21
257.197992
 31
0.0
  0
LINE
  8
LC-002-002-----0
  6
CONTINUOUS
  5
614
 10
244.271234
 20
257.197992
 30
0.0
 11
236.271234
 21
257.197992
 31
0.0
  0
ARC
  8
LC-001-002-RND-0
  6
CONTINUOUS
  5
615
 10
236.271234
 20
371.197992
 30
0.0
 40
1.0
 50
90.0
 51
180.0
  0
LINE
  8
LC-002-002-----0
  6
CONTINUOUS
  5
616
 10
244.271234
 20
340.697992
 30
0.0
 11
244.271234
 21
363.102006
 31
0.0
  0
LINE
  8
LC-002-002-----0
  6
CONTINUOUS
  5
617
 10
244.271234
 20
272.197992
 30
0.0
 11
244.271234
 21
266.197992
 31
0.0
  0
LINE
  8
LC-002-002-----0
  6
CONTINUOUS
  5
618
 10
244.271234
 20
272.197992
 30
0.0
 11
244.271234
 21
288.697992
 31
0.0
  0
ARC
  8
LC-001-002-RND-0
  6
CONTINUOUS
  5
619
 10
236.271234
 20
258.197992
 30
0.0
 40
1.0
 50
180.0
 51
270.0
  0
LINE
  8
LC-002-002-----0
  6
CONTINUOUS
  5
61A
 10
244.271234
 20
339.697992
 30
0.0
 11
247.271234
 21
339.697992
 31
0.0
  0
LINE
  8
LC-002-002-----0
  6
CONTINUOUS
  5
61B
 10
247.271234
 20
339.697992
 30
0.0
 11
247.271234
 21
289.697992
 31
0.0
  0
LINE
  8
LC-002-002-----0
  6
CONTINUOUS
  5
61C
 10
247.271234
 20
289.697992
 30
0.0
 11
244.271234
 21
289.697992
 31
0.0
  0
LINE
  8
LC-002-002-----0
  6
CONTINUOUS
  5
61D
 10
107.929263
 20
299.700207
 30
0.0
 11
86.429264
 21
299.700221
 31
0.0
  0
LINE
  8
LC-002-002-----0
  6
CONTINUOUS
  5
61E
 10
86.929259
 20
292.700221
 30
0.0
 11
107.929259
 21
292.700207
 31
0.0
  0
LINE
  8
LC-002-002-----0
  6
CONTINUOUS
  5
61F
 10
87.429255
 20
285.70022
 30
0.0
 11
107.789507
 21
285.700207
 31
0.0
  0
LINE
  8
LC-002-002-----0
  6
CONTINUOUS
  5
620
 10
87.92925
 20
278.70022
 30
0.0
 11
107.058956
 21
278.700207
 31
0.0
  0
LINE
  8
LC-002-002-----0
  6
CONTINUOUS
  5
621
 10
88.429246
 20
271.70022
 30
0.0
 11
107.025703
 21
271.700207
 31
0.0
  0
LINE
  8
LC-002-002-----0
  6
CONTINUOUS
  5
622
 10
89.429241
 20
264.700219
 30
0.0
 11
106.429241
 21
264.700208
 31
0.0
  0
LINE
  8
LC-002-002-----0
  6
CONTINUOUS
  5
623
 10
109.429264
 20
299.700206
 30
0.0
 11
107.929259
 21
292.700207
 31
0.0
  0
LINE
  8
LC-002-002-----0
  6
CONTINUOUS
  5
624
 10
108.929259
 20
292.700206
 30
0.0
 11
107.789507
 21
285.700207
 31
0.0
  0
LINE
  8
LC-002-002-----0
  6
CONTINUOUS
  5
625
 10
108.429255
 20
285.700206
 30
0.0
 11
107.058956
 21
278.700207
 31
0.0
  0
LINE
  8
LC-002-002-----0
  6
CONTINUOUS
  5
626
 10
107.92925
 20
278.700207
 30
0.0
 11
107.025703
 21
271.700207
 31
0.0
  0
LINE
  8
LC-002-002-----0
  6
CONTINUOUS
  5
627
 10
107.429246
 20
271.700207
 30
0.0
 11
106.429241
 21
264.700208
 31
0.0
  0
LINE
  8
LC-002-002-----0
  6
CONTINUOUS
  5
628
 10
86.428994
 20
299.700485
 30
0.0
 11
87.928994
 21
292.700485
 31
0.0
  0
LINE
  8
LC-002-002-----0
  6
CONTINUOUS
  5
629
 10
86.928994
 20
292.700485
 30
0.0
 11
88.068741
 21
285.700485
 31
0.0
  0
LINE
  8
LC-002-002-----0
  6
CONTINUOUS
  5
62A
 10
87.428994
 20
285.700485
 30
0.0
 11
88.799289
 21
278.700485
 31
0.0
  0
LINE
  8
LC-002-002-----0
  6
CONTINUOUS
  5
62B
 10
87.928994
 20
278.700485
 30
0.0
 11
88.832537
 21
271.700485
 31
0.0
  0
LINE
  8
LC-002-002-----0
  6
CONTINUOUS
  5
62C
 10
88.428994
 20
271.700485
 30
0.0
 11
89.428994
 21
264.700485
 31
0.0
  0
LINE
  8
LC-002-002-----0
  6
CONTINUOUS
  5
62D
 10
107.929259
 20
292.700207
 30
0.0
 11
108.929259
 21
292.700206
 31
0.0
  0
LINE
  8
LC-002-002-----0
  6
CONTINUOUS
  5
62E
 10
107.789507
 20
285.700207
 30
0.0
 11
108.429255
 21
285.700206
 31
0.0
  0
LINE
  8
LC-002-002-----0
  6
CONTINUOUS
  5
62F
 10
107.058956
 20
278.700207
 30
0.0
 11
107.92925
 21
278.700207
 31
0.0
  0
LINE
  8
LC-002-002-----0
  6
CONTINUOUS
  5
630
 10
107.025703
 20
271.700207
 30
0.0
 11
107.429246
 21
271.700207
 31
0.0
  0
LINE
  8
LC-002-002-----0
  6
CONTINUOUS
  5
631
 10
114.929265
 20
302.700202
 30
0.0
 11
107.929265
 21
302.700207
 31
0.0
  0
LINE
  8
LC-002-002-----0
  6
CONTINUOUS
 62
     2
  5
632
 10
170.930226
 20
329.697992
 30
0.0
 11
145.931425
 21
329.697992
 31
0.0
  0
LINE
  8
LC-002-002-----0
  6
CONTINUOUS
 62
     2
  5
633
 10
170.930226
 20
299.697992
 30
0.0
 11
145.931425
 21
299.697992
 31
0.0
  0
LINE
  8
LC-002-002-----0
  6
CONTINUOUS
  5
634
 10
174.430226
 20
326.197992
 30
0.0
 11
177.430226
 21
326.197992
 31
0.0
  0
LINE
  8
LC-002-002-----0
  6
CONTINUOUS
  5
635
 10
169.430226
 20
331.197992
 30
0.0
 11
145.931425
 21
331.197992
 31
0.0
  0
LINE
  8
LC-002-002-----0
  6
CONTINUOUS
  5
636
 10
169.430226
 20
298.197992
 30
0.0
 11
145.931425
 21
298.197992
 31
0.0
  0
LINE
  8
LC-002-002-----0
  6
CONTINUOUS
  5
637
 10
169.430226
 20
331.197992
 30
0.0
 11
169.430226
 21
328.197992
 31
0.0
  0
LINE
  8
LC-002-002-----0
  6
CONTINUOUS
  5
638
 10
172.430226
 20
328.197992
 30
0.0
 11
169.430226
 21
331.197992
 31
0.0
  0
LINE
  8
LC-002-002-----0
  6
CONTINUOUS
  5
639
 10
172.430226
 20
301.197992
 30
0.0
 11
169.430226
 21
298.197992
 31
0.0
  0
LINE
  8
LC-002-002-----0
  6
CONTINUOUS
  5
63A
 10
174.430226
 20
326.197992
 30
0.0
 11
174.430226
 21
303.197992
 31
0.0
  0
LINE
  8
LC-002-002-----0
  6
CONTINUOUS
  5
63B
 10
174.521658
 20
303.362757
 30
0.0
 11
177.430226
 21
303.362757
 31
0.0
  0
LINE
  8
LC-002-002-----0
  6
CONTINUOUS
  5
63C
 10
195.230226
 20
334.197992
 30
0.0
 11
195.230226
 21
328.197992
 31
0.0
  0
LINE
  8
LC-002-002-----0
  6
CONTINUOUS
  5
63D
 10
195.230226
 20
301.197992
 30
0.0
 11
195.230226
 21
295.197992
 31
0.0
  0
LINE
  8
LC-002-002-----0
  6
CONTINUOUS
  5
63E
 10
193.730226
 20
334.197992
 30
0.0
 11
193.730226
 21
328.197992
 31
0.0
  0
LINE
  8
LC-002-002-----0
  6
CONTINUOUS
  5
63F
 10
193.730226
 20
301.197992
 30
0.0
 11
193.730226
 21
295.197992
 31
0.0
  0
LINE
  8
LC-002-002-----0
  6
CONTINUOUS
  5
640
 10
193.730226
 20
325.62583
 30
0.0
 11
193.730226
 21
303.770154
 31
0.0
  0
LINE
  8
LC-002-002-----0
  6
CONTINUOUS
  5
641
 10
195.230226
 20
324.005513
 30
0.0
 11
195.230226
 21
305.405513
 31
0.0
  0
LINE
  8
LC-002-002-----0
  6
CONTINUOUS
  5
642
 10
177.430226
 20
332.197992
 30
0.0
 11
177.430226
 21
328.197992
 31
0.0
  0
LINE
  8
LC-002-002-----0
  6
DASHDOT
 62
     2
  5
643
 10
97.929273
 20
314.697992
 30
0.0
 11
174.920296
 21
314.697992
 31
0.0
  0
LINE
  8
LC-002-002-----0
  6
CONTINUOUS
  5
644
 10
177.430226
 20
326.197992
 30
0.0
 11
177.430226
 21
303.362757
 31
0.0
  0
LINE
  8
LC-002-002-----0
  6
CONTINUOUS
  5
645
 10
177.430226
 20
301.197992
 30
0.0
 11
177.430226
 21
297.197992
 31
0.0
  0
LINE
  8
LC-002-002-----0
  6
CONTINUOUS
  5
646
 10
169.430226
 20
324.005513
 30
0.0
 11
169.430226
 21
305.405513
 31
0.0
  0
LINE
  8
LC-002-002-----0
  6
CONTINUOUS
  5
647
 10
169.430226
 20
305.731391
 30
0.0
 11
169.430226
 21
298.197992
 31
0.0
  0
LINE
  8
LC-002-002-----0
  6
CONTINUOUS
  5
648
 10
195.230226
 20
298.197992
 30
0.0
 11
195.230226
 21
298.197992
 31
0.0
  0
LINE
  8
LC-002-002-----0
  6
CONTINUOUS
  5
649
 10
177.930226
 20
329.189926
 30
0.0
 11
177.930226
 21
331.625563
 31
0.0
  0
LINE
  8
LC-002-002-----0
  6
CONTINUOUS
  5
64A
 10
156.407758
 20
331.197992
 30
0.0
 11
156.407758
 21
331.197992
 31
0.0
  0
LINE
  8
LC-002-002-----0
  6
CONTINUOUS
  5
64B
 10
193.730226
 20
307.234256
 30
0.0
 11
177.930226
 21
307.234256
 31
0.0
  0
LINE
  8
LC-002-002-----0
  6
CONTINUOUS
  5
64C
 10
177.930226
 20
316.697992
 30
0.0
 11
177.930226
 21
312.697992
 31
0.0
  0
LINE
  8
LC-002-002-----0
  6
CONTINUOUS
  5
64D
 10
193.730226
 20
303.770154
 30
0.0
 11
177.930226
 21
303.770154
 31
0.0
  0
LINE
  8
LC-002-002-----0
  6
CONTINUOUS
  5
64E
 10
177.930226
 20
307.234256
 30
0.0
 11
177.930226
 21
303.770154
 31
0.0
  0
LINE
  8
LC-002-002-----0
  6
CONTINUOUS
  5
64F
 10
193.730226
 20
300.206059
 30
0.0
 11
177.930226
 21
300.206059
 31
0.0
  0
LINE
  8
LC-002-002-----0
  6
CONTINUOUS
  5
650
 10
177.930226
 20
300.206059
 30
0.0
 11
177.930226
 21
297.770422
 31
0.0
  0
LINE
  8
LC-002-002-----0
  6
CONTINUOUS
  5
651
 10
177.930226
 20
322.161728
 30
0.0
 11
177.930226
 21
325.62583
 31
0.0
  0
LINE
  8
LC-002-002-----0
  6
CONTINUOUS
  5
652
 10
193.730226
 20
297.770422
 30
0.0
 11
177.930226
 21
297.770422
 31
0.0
  0
LINE
  8
LC-002-002-----0
  6
CONTINUOUS
  5
653
 10
193.730226
 20
322.161728
 30
0.0
 11
177.930226
 21
322.161728
 31
0.0
  0
LINE
  8
LC-002-002-----0
  6
CONTINUOUS
  5
654
 10
193.730226
 20
325.62583
 30
0.0
 11
177.930226
 21
325.62583
 31
0.0
  0
LINE
  8
LC-002-002-----0
  6
CONTINUOUS
  5
655
 10
193.730226
 20
316.697992
 30
0.0
 11
177.930226
 21
316.697992
 31
0.0
  0
LINE
  8
LC-002-002-----0
  6
CONTINUOUS
  5
656
 10
193.730226
 20
312.697992
 30
0.0
 11
177.930226
 21
312.697992
 31
0.0
  0
LINE
  8
LC-002-002-----0
  6
CONTINUOUS
  5
657
 10
193.730226
 20
329.189926
 30
0.0
 11
177.930226
 21
329.189926
 31
0.0
  0
LINE
  8
LC-002-002-----0
  6
CONTINUOUS
  5
658
 10
193.730226
 20
331.625563
 30
0.0
 11
177.930226
 21
331.625563
 31
0.0
  0
ARC
  8
LC-001-002-RND-0
  6
CONTINUOUS
  5
659
 10
178.430226
 20
332.197992
 30
0.0
 40
1.0
 50
90.0
 51
180.0
  0
LINE
  8
LC-002-002-----0
  6
CONTINUOUS
  5
65A
 10
178.430226
 20
333.197992
 30
0.0
 11
193.730226
 21
333.197992
 31
0.0
  0
LINE
  8
LC-002-002-----0
  6
CONTINUOUS
  5
65B
 10
193.730226
 20
334.197992
 30
0.0
 11
195.230226
 21
334.197992
 31
0.0
  0
LINE
  8
LC-002-002-----0
  6
CONTINUOUS
  5
65C
 10
193.730226
 20
295.197992
 30
0.0
 11
195.230226
 21
295.197992
 31
0.0
  0
LINE
  8
LC-002-002-----0
  6
CONTINUOUS
  5
65D
 10
178.430226
 20
296.197992
 30
0.0
 11
193.730226
 21
296.197992
 31
0.0
  0
ARC
  8
LC-001-002-RND-0
  6
CONTINUOUS
  5
65E
 10
178.430226
 20
297.197992
 30
0.0
 40
1.0
 50
180.0
 51
270.0
  0
LINE
  8
LC-002-002-----0
  6
CONTINUOUS
  5
65F
 10
195.230226
 20
305.405513
 30
0.0
 11
195.230226
 21
301.197992
 31
0.0
  0
LINE
  8
LC-002-002-----0
  6
CONTINUOUS
  5
660
 10
193.704481
 20
301.215382
 30
0.0
 11
193.704481
 21
303.770154
 31
0.0
  0
LINE
  8
LC-002-002-----0
  6
CONTINUOUS
  5
661
 10
177.430226
 20
301.197992
 30
0.0
 11
177.430226
 21
303.362757
 31
0.0
  0
LINE
  8
LC-002-002-----0
  6
CONTINUOUS
  5
662
 10
174.430226
 20
303.197992
 30
0.0
 11
172.430226
 21
301.197992
 31
0.0
  0
LINE
  8
LC-002-002-----0
  6
CONTINUOUS
  5
663
 10
195.230226
 20
324.005513
 30
0.0
 11
195.230226
 21
328.197992
 31
0.0
  0
LINE
  8
LC-002-002-----0
  6
CONTINUOUS
  5
664
 10
193.730226
 20
328.197992
 30
0.0
 11
193.730226
 21
325.62583
 31
0.0
  0
LINE
  8
LC-002-002-----0
  6
CONTINUOUS
  5
665
 10
177.430226
 20
326.197992
 30
0.0
 11
177.430226
 21
328.197992
 31
0.0
  0
LINE
  8
LC-002-002-----0
  6
CONTINUOUS
  5
666
 10
174.430226
 20
326.197992
 30
0.0
 11
172.430226
 21
328.197992
 31
0.0
  0
LINE
  8
LC-002-002-----0
  6
CONTINUOUS
  5
667
 10
169.430226
 20
324.005513
 30
0.0
 11
169.430226
 21
328.197992
 31
0.0
  0
LINE
  8
LC-002-002-----0
  6
CONTINUOUS
  5
668
 10
212.771234
 20
319.697992
 30
0.0
 11
212.771234
 21
309.697992
 31
0.0
  0
LINE
  8
LC-002-002-----0
  6
CONTINUOUS
  5
669
 10
213.271234
 20
320.197992
 30
0.0
 11
213.771234
 21
320.197992
 31
0.0
  0
LINE
  8
LC-002-002-----0
  6
CONTINUOUS
  5
66A
 10
213.271234
 20
309.197992
 30
0.0
 11
213.771234
 21
309.197992
 31
0.0
  0
ARC
  8
LC-001-002-RND-0
  6
CONTINUOUS
  5
66B
 10
213.271234
 20
309.697992
 30
0.0
 40
0.5
 50
180.0
 51
270.0
  0
LINE
  8
LC-002-002-----0
  6
CONTINUOUS
  5
66C
 10
227.271234
 20
316.797992
 30
0.0
 11
235.271234
 21
316.797992
 31
0.0
  0
LINE
  8
LC-002-002-----0
  6
CONTINUOUS
  5
66D
 10
227.271234
 20
312.597992
 30
0.0
 11
235.271234
 21
312.597992
 31
0.0
  0
ARC
  8
LC-001-002-RND-0
  6
CONTINUOUS
  5
66E
 10
213.771234
 20
309.697992
 30
0.0
 40
0.5
 50
270.0
 51
0.0
  0
ARC
  8
LC-002-002-----0
  6
CONTINUOUS
  5
66F
 10
222.396234
 20
314.697992
 30
0.0
 40
10.625
 50
154.942385
 51
205.057615
  0
ARC
  8
LC-001-002-RND-0
  6
CONTINUOUS
  5
670
 10
213.771234
 20
319.697992
 30
0.0
 40
0.5
 50
0.0
 51
90.0
  0
ARC
  8
LC-001-002-RND-0
  6
CONTINUOUS
  5
671
 10
213.271234
 20
319.697992
 30
0.0
 40
0.5
 50
90.0
 51
180.0
  0
LINE
  8
LC-002-002-----0
  6
CONTINUOUS
 62
     2
  5
672
 10
117.930226
 20
317.698289
 30
0.0
 11
117.930226
 21
311.698289
 31
0.0
  0
LINE
  8
LC-002-002-----0
  6
CONTINUOUS
  5
673
 10
132.931627
 20
294.697993
 30
0.0
 11
132.931451
 21
334.697342
 31
0.0
  0
LINE
  8
LC-002-002-----0
  6
CONTINUOUS
 62
     2
  5
674
 10
117.930226
 20
306.821913
 30
0.0
 11
117.930226
 21
300.821914
 31
0.0
  0
LINE
  8
LC-002-002-----0
  6
CONTINUOUS
  5
675
 10
248.771234
 20
332.197992
 30
0.0
 11
248.771234
 21
322.197992
 31
0.0
  0
LINE
  8
LC-002-002-----0
  6
CONTINUOUS
  5
676
 10
248.271234
 20
332.697992
 30
0.0
 11
247.771234
 21
332.697992
 31
0.0
  0
LINE
  8
LC-002-002-----0
  6
CONTINUOUS
  5
677
 10
248.271234
 20
321.697992
 30
0.0
 11
247.771234
 21
321.697992
 31
0.0
  0
ARC
  8
LC-001-002-RND-0
  6
CONTINUOUS
  5
678
 10
248.271234
 20
322.197992
 30
0.0
 40
0.5
 50
270.0
 51
0.0
  0
ARC
  8
LC-001-002-RND-0
  6
CONTINUOUS
  5
679
 10
247.771234
 20
322.197992
 30
0.0
 40
0.5
 50
180.0
 51
270.0
  0
ARC
  8
LC-002-002-----0
  6
CONTINUOUS
  5
67A
 10
239.146234
 20
327.197992
 30
0.0
 40
10.625
 50
334.942385
 51
25.057615
  0
CIRCLE
  8
LC-002-002-----0
  6
CONTINUOUS
  5
67B
 10
382.36376
 20
327.197992
 30
0.0
 40
4.25
  0
CIRCLE
  8
LC-002-002-----0
  6
CONTINUOUS
  5
67C
 10
372.36376
 20
314.697992
 30
0.0
 40
4.25
  0
CIRCLE
  8
LC-002-002-----0
  6
CONTINUOUS
  5
67D
 10
382.36376
 20
302.197992
 30
0.0
 40
4.25
  0
CIRCLE
  8
LC-002-002-----0
  6
CONTINUOUS
  5
67E
 10
342.36376
 20
327.197992
 30
0.0
 40
4.25
  0
ARC
  8
LC-001-002-RND-0
  6
CONTINUOUS
  5
67F
 10
247.771234
 20
332.197992
 30
0.0
 40
0.5
 50
90.0
 51
180.0
  0
ARC
  8
LC-001-002-RND-0
  6
CONTINUOUS
  5
680
 10
248.271234
 20
332.197992
 30
0.0
 40
0.5
 50
0.0
 51
90.0
  0
CIRCLE
  8
LC-002-002-----0
  6
CONTINUOUS
  5
681
 10
342.36376
 20
302.197992
 30
0.0
 40
4.25
  0
ARC
  8
LC-002-002-----0
  6
CONTINUOUS
  5
682
 10
388.11376
 20
314.697992
 30
0.0
 40
4.25
 50
112.260828
 51
247.739172
  0
LINE
  8
LC-002-002-----0
  6
CONTINUOUS
  5
683
 10
348.11376
 20
310.447992
 30
0.0
 11
356.61376
 21
310.447992
 31
0.0
  0
LINE
  8
LC-002-002-----0
  6
CONTINUOUS
  5
684
 10
348.11376
 20
318.947992
 30
0.0
 11
356.61376
 21
318.947992
 31
0.0
  0
ARC
  8
LC-002-002-----0
  6
CONTINUOUS
  5
685
 10
348.11376
 20
314.697992
 30
0.0
 40
4.25
 50
90.0
 51
270.0
  0
ARC
  8
LC-002-002-----0
  6
CONTINUOUS
  5
686
 10
356.61376
 20
314.697992
 30
0.0
 40
4.25
 50
270.0
 51
90.0
  0
ARC
  8
LC-002-002-----0
  6
CONTINUOUS
  5
687
 10
368.22376
 20
300.557992
 30
0.0
 40
3.1
 50
270.0
 51
90.0
  0
ARC
  8
LC-002-002-----0
  6
CONTINUOUS
  5
688
 10
356.50376
 20
300.557992
 30
0.0
 40
3.1
 50
90.0
 51
270.0
  0
LINE
  8
LC-002-002-----0
  6
CONTINUOUS
  5
689
 10
368.22376
 20
297.457992
 30
0.0
 11
356.50376
 21
297.457992
 31
0.0
  0
LINE
  8
LC-002-002-----0
  6
CONTINUOUS
  5
68A
 10
368.22376
 20
303.657992
 30
0.0
 11
366.592696
 21
303.657992
 31
0.0
  0
LINE
  8
LC-002-002-----0
  6
CONTINUOUS
  5
68B
 10
356.50376
 20
303.657992
 30
0.0
 11
358.134824
 21
303.657992
 31
0.0
  0
ARC
  8
LC-002-002-----0
  6
CONTINUOUS
  5
68C
 10
362.36376
 20
303.347992
 30
0.0
 40
3.1
 50
23.171101
 51
156.828899
  0
ARC
  8
LC-002-002-----0
  6
CONTINUOUS
  5
68D
 10
358.134824
 20
305.157992
 30
0.0
 40
1.5
 50
270.0
 51
336.828899
  0
ARC
  8
LC-002-002-----0
  6
CONTINUOUS
  5
68E
 10
366.592696
 20
305.157992
 30
0.0
 40
1.5
 50
203.171101
 51
270.0
  0
ARC
  8
LC-002-002-----0
  6
CONTINUOUS
  5
68F
 10
368.22376
 20
328.837992
 30
0.0
 40
3.1
 50
270.0
 51
90.0
  0
ARC
  8
LC-002-002-----0
  6
CONTINUOUS
  5
690
 10
356.50376
 20
328.837992
 30
0.0
 40
3.1
 50
90.0
 51
270.0
  0
LINE
  8
LC-002-002-----0
  6
CONTINUOUS
  5
691
 10
368.22376
 20
331.937992
 30
0.0
 11
356.50376
 21
331.937992
 31
0.0
  0
LINE
  8
LC-002-002-----0
  6
CONTINUOUS
  5
692
 10
368.22376
 20
325.737992
 30
0.0
 11
366.592696
 21
325.737992
 31
0.0
  0
LINE
  8
LC-002-002-----0
  6
CONTINUOUS
  5
693
 10
356.50376
 20
325.737992
 30
0.0
 11
358.134824
 21
325.737992
 31
0.0
  0
ARC
  8
LC-002-002-----0
  6
CONTINUOUS
  5
694
 10
362.36376
 20
326.047992
 30
0.0
 40
3.1
 50
203.171101
 51
336.828899
  0
ARC
  8
LC-002-002-----0
  6
CONTINUOUS
  5
695
 10
358.134824
 20
324.237992
 30
0.0
 40
1.5
 50
23.171101
 51
90.0
  0
ARC
  8
LC-002-002-----0
  6
CONTINUOUS
  5
696
 10
366.592696
 20
324.237992
 30
0.0
 40
1.5
 50
90.0
 51
156.828899
  0
ENDSEC
  0
EOF
