  0
SECTION
  2
HEADER
  9
$ACADVER
  1
AC1009
  9
$INSBASE
 10
0.0
 20
0.0
 30
0.0
  9
$EXTMIN
 10
0.0
 20
0.0
 30
0.0
  9
$EXTMAX
 10
840.0
 20
594.0
 30
0.0
  9
$LIMMIN
 10
0.0
 20
0.0
  9
$LIMMAX
 10
840.0
 20
594.0
  9
$ORTHOMODE
 70
     0
  9
$REGENMODE
 70
     1
  9
$FILLMODE
 70
     1
  9
$QTEXTMODE
 70
     0
  9
$MIRRTEXT
 70
     1
  9
$DRAGMODE
 70
     2
  9
$LTSCALE
 40
2.0
  9
$OSMODE
 70
     0
  9
$ATTMODE
 70
     1
  9
$TEXTSIZE
 40
0.2
  9
$TRACEWID
 40
0.05
  9
$TEXTSTYLE
  7
STANDARD
  9
$CLAYER
  8
0
  9
$CELTYPE
  6
BYLAYER
  9
$CECOLOR
 62
     7
  9
$DIMSCALE
 40
2.0
  9
$DIMASZ
 40
3.5
  9
$DIMEXO
 40
0.0625
  9
$DIMDLI
 40
0.38
  9
$DIMRND
 40
0.0
  9
$DIMDLE
 40
0.0
  9
$DIMEXE
 40
0.18
  9
$DIMTP
 40
0.0
  9
$DIMTM
 40
0.0
  9
$DIMTXT
 40
3.5
  9
$DIMCEN
 40
0.09
  9
$DIMTSZ
 40
0.0
  9
$DIMTOL
 70
     0
  9
$DIMLIM
 70
     0
  9
$DIMTIH
 70
     1
  9
$DIMTOH
 70
     1
  9
$DIMSE1
 70
     0
  9
$DIMSE2
 70
     0
  9
$DIMTAD
 70
     1
  9
$DIMZIN
 70
     0
  9
$DIMBLK
  1

  9
$DIMASO
 70
     1
  9
$DIMSHO
 70
     1
  9
$DIMPOST
  1

  9
$DIMAPOST
  1

  9
$DIMALT
 70
     0
  9
$DIMALTD
 70
     2
  9
$DIMALTF
 40
25.4
  9
$DIMLFAC
 40
1.0
  9
$DIMTOFL
 70
     0
  9
$DIMTVP
 40
0.0
  9
$DIMTIX
 70
     0
  9
$DIMSOXD
 70
     0
  9
$DIMSAH
 70
     0
  9
$DIMBLK1
  1

  9
$DIMBLK2
  1

  9
$DIMSTYLE
  2
STANDARD
  9
$DIMCLRD
 70
     0
  9
$DIMCLRE
 70
     0
  9
$DIMCLRT
 70
     0
  9
$DIMTFAC
 40
1.0
  9
$DIMGAP
 40
0.09
  9
$LUNITS
 70
     2
  9
$LUPREC
 70
     2
  9
$AXISMODE
 70
     0
  9
$AXISUNIT
 10
0.0
 20
0.0
  9
$SKETCHINC
 40
0.1
  9
$FILLETRAD
 40
0.0
  9
$AUNITS
 70
     0
  9
$AUPREC
 70
     0
  9
$MENU
  1
acad
  9
$ELEVATION
 40
0.0
  9
$PELEVATION
 40
0.0
  9
$THICKNESS
 40
0.0
  9
$LIMCHECK
 70
     0
  9
$BLIPMODE
 70
     1
  9
$CHAMFERA
 40
0.0
  9
$CHAMFERB
 40
0.0
  9
$SKPOLY
 70
     0
  9
$TDCREATE
 40
0.000000000
  9
$TDUPDATE
 40
0.000000000
  9
$TDINDWG
 40
0.0000000000
  9
$TDUSRTIMER
 40
0.0000000000
  9
$USRTIMER
 70
     1
  9
$ANGBASE
 50
0.0
  9
$ANGDIR
 70
     0
  9
$PDMODE
 70
     0
  9
$PDSIZE
 40
0.0
  9
$PLINEWID
 40
0.0
  9
$COORDS
 70
     0
  9
$SPLFRAME
 70
     0
  9
$SPLINETYPE
 70
     6
  9
$SPLINESEGS
 70
     8
  9
$ATTDIA
 70
     0
  9
$ATTREQ
 70
     1
  9
$HANDLING
 70
     1
  9
$HANDSEED
  5
7E2
  9
$SURFTAB1
 70
     6
  9
$SURFTAB2
 70
     6
  9
$SURFTYPE
 70
     6
  9
$SURFU
 70
     6
  9
$SURFV
 70
     6
  9
$UCSNAME
  2

  9
$UCSORG
 10
0.0
 20
0.0
 30
0.0
  9
$UCSXDIR
 10
1.0
 20
0.0
 30
0.0
  9
$UCSYDIR
 10
0.0
 20
1.0
 30
0.0
  9
$PUCSNAME
  2

  9
$PUCSORG
 10
0.0
 20
0.0
 30
0.0
  9
$PUCSXDIR
 10
1.0
 20
0.0
 30
0.0
  9
$PUCSYDIR
 10
0.0
 20
1.0
 30
0.0
  9
$USERI1
 70
     0
  9
$USERI2
 70
     0
  9
$USERI3
 70
     0
  9
$USERI4
 70
     0
  9
$USERI5
 70
     0
  9
$USERR1
 40
0.0
  9
$USERR2
 40
0.0
  9
$USERR3
 40
0.0
  9
$USERR4
 40
0.0
  9
$USERR5
 40
0.0
  9
$WORLDVIEW
 70
     1
  9
$SHADEDGE
 70
     3
  9
$SHADEDIF
 70
    70
  9
$TILEMODE
 70
     1
  9
$MAXACTVP
 70
    16
  9
$PINSBASE
 10
0.0
 20
0.0
 30
0.0
  9
$PLIMCHECK
 70
     0
  9
$PEXTMIN
 10
1.000000E+20
 20
1.000000E+20
 30
1.000000E+20
  9
$PEXTMAX
 10
-1.000000E+20
 20
-1.000000E+20
 30
-1.000000E+20
  9
$PLIMMIN
 10
0.0
 20
0.0
  9
$PLIMMAX
 10
840.0
 20
594.0
  9
$UNITMODE
 70
     0
  9
$VISRETAIN
 70
     0
  9
$PLINEGEN
 70
     1
  9
$PSLTSCALE
 70
     0
  9
$TREEDEPTH
 70
  3020
  9
$DWGCODEPAGE
  3
dos850
  0
ENDSEC
  0
SECTION
  2
TABLES
  0
TABLE
  2
VPORT
 70
     1
  0
VPORT
  2
*ACTIVE
 70
     0
 10
0.0
 20
0.0
 11
1.0
 21
1.0
 12
420.0
 22
297.0
 13
0.0
 23
0.0
 14
1.0
 24
1.0
 15
0.0
 25
0.0
 16
0.0
 26
0.0
 36
1.0
 17
0.0
 27
0.0
 37
0.0
 40
594.0
 41
1.604229
 42
50.0
 43
0.0
 44
0.0
 50
0.0
 51
0.0
 71
     0
 72
   100
 73
     1
 74
     1
 75
     0
 76
     0
 77
     0
 78
     0
  0
ENDTAB
  0
TABLE
  2
LTYPE
 70
     4
  0
LTYPE
  2
CONTINUOUS
 70
    64
  3
Solid line
 72
    65
 73
     0
 40
0.0
  0
LTYPE
  2
DASHED
 70
    64
  3
__ __ __ __ __
 72
    65
 73
     2
 40
6.25
 49
5.0
 49
-1.25
  0
LTYPE
  2
DASHDOT
 70
    64
  3
__ . __ . __ . __ . __
 72
    65
 73
     4
 40
7.5
 49
5.0
 49
-1.25
 49
0.0
 49
-1.25
  0
LTYPE
  2
CENTER
 70
    64
  3
__ . __ . __ . __ . __
 72
    65
 73
     4
 40
7.5
 49
5.0
 49
-1.25
 49
0.0
 49
-1.25
  0
ENDTAB
  0
TABLE
  2
LAYER
 70
    12
  0
LAYER
  2
0
 70
     0
 62
     7
  6
CONTINUOUS
  0
LAYER
  2
LC-INFO-1-2-MM-A3-0
 70
     1
 62
    -1
  6
CONTINUOUS
  0
LAYER
  2
LC-003-003-MTH-0
 70
     0
 62
     2
  6
CONTINUOUS
  0
LAYER
  2
LC-002-003-----0
 70
     0
 62
     2
  6
CONTINUOUS
  0
LAYER
  2
LC-004-003-MTG-0
 70
     0
 62
     2
  6
CONTINUOUS
  0
LAYER
  2
LC-005-005-----0
 70
     0
 62
     2
  6
CONTINUOUS
  0
LAYER
  2
LC-007-000-----0
 70
     0
 62
     7
  6
CONTINUOUS
  0
LAYER
  2
LC-001-002-----0
 70
     0
 62
     1
  6
CONTINUOUS
  0
LAYER
  2
LC-006-002-RND-0
 70
     0
 62
     2
  6
DASHED
  0
LAYER
  2
LC-008-002-___-0
 70
     0
 62
     2
  6
DASHED
  0
LAYER
  2
LC-009-006-MLN-0
 70
     0
 62
     2
  6
CENTER
  0
LAYER
  2
LC-000
 70
     0
 62
     7
  6
CONTINUOUS
  0
ENDTAB
  0
TABLE
  2
STYLE
 70
     4
  0
STYLE
  2
STANDARD
 70
     0
 40
0.0
 41
1.0
 50
0.0
 71
     0
 42
0.0
  3
txt
  4

  0
STYLE
  2
LC-STANDARD
 70
    64
 40
0.0
 41
1.0
 50
0.0
 71
     0
 42
3.5
  3
MONOTXT
  4

  0
STYLE
  2
LC-TXTSTYLE-150-400-0-0-D2
 70
    64
 40
0.0
 41
1.0
 50
15.0
 71
     0
 42
3.5
  3
MONOTXT
  4

  0
STYLE
  2
LC-TXTSTYLE-150-400-0-0-D3
 70
    64
 40
0.0
 41
1.0
 50
15.0
 71
     0
 42
3.5
  3
LC-STANDARD
  4

  0
ENDTAB
  0
TABLE
  2
VIEW
 70
     0
  0
ENDTAB
  0
TABLE
  2
UCS
 70
     0
  0
ENDTAB
  0
TABLE
  2
APPID
 70
     1
  0
APPID
  2
ACAD
 70
     0
  0
ENDTAB
  0
TABLE
  2
DIMSTYLE
 70
     3
  0
DIMSTYLE
  2
STANDARD
 70
     0
  3

  4

  5

  6

  7

 40
1.0
 41
0.18
 42
0.0625
 43
0.38
 44
0.18
 45
0.0
 46
0.0
 47
0.0
 48
0.0
 71
     0
 72
     0
 73
     1
 74
     1
 75
     0
 76
     0
 77
     0
 78
     0
140
0.18
141
0.09
142
0.0
143
25.4
144
1.0
145
0.0
146
1.0
147
0.09
170
     0
171
     2
172
     0
173
     0
174
     0
175
     0
176
     0
177
     0
178
     0
  0
DIMSTYLE
  2
LC-STANDARD
 70
     0
  3

  4

  5

  6

  7

 40
1.0
 41
3.5
 42
0.0
 43
7.5
 44
1.8
 45
0.0
 46
0.0
 47
0.0
 48
0.0
 71
     0
 72
     0
 73
     0
 74
     0
 75
     0
 76
     0
 77
     1
 78
     8
140
3.5
141
0.0
142
0.0
143
25.4
144
1.0
145
0.0
146
0.71
147
1.5
170
     0
171
     2
172
     1
173
     0
174
     0
175
     0
176
     0
177
     0
178
     3
  0
DIMSTYLE
  2
LC-DIM-L-0090-02-02
 70
     0
  3

  4

  5

  6

  7

 40
2.0
 41
3.5
 42
0.0
 43
7.5
 44
1.8
 45
0.0
 46
0.0
 47
0.0
 48
0.0
 71
     0
 72
     0
 73
     0
 74
     0
 75
     0
 76
     0
 77
     1
 78
     8
140
9.0
141
0.0
142
0.0
143
25.4
144
1.0
145
0.0
146
0.71
147
1.5
170
     0
171
     2
172
     0
173
     0
174
     0
175
     0
176
     2
177
     2
178
     6
  0
ENDTAB
  0
ENDSEC
  0
SECTION
  2
BLOCKS
  0
BLOCK
  8
0
  5
23
  2
*D0
 70
    65
 10
0.0
 20
0.0
 30
0.0
  3
*D0
  0
LINE
  8
LC-003-003-MTH-0
  6
CONTINUOUS
  5
25
 10
269.808396
 20
176.254748
 30
0.0
 11
269.808396
 21
133.2
 31
0.0
  0
LINE
  8
LC-003-003-MTH-0
  6
CONTINUOUS
  5
26
 10
320.008396
 20
176.254748
 30
0.0
 11
320.008396
 21
133.2
 31
0.0
  0
LINE
  8
LC-002-003-----0
  6
CONTINUOUS
  5
28
 10
251.962389
 20
141.650529
 30
0.0
 11
269.808396
 21
144.0
 31
0.0
  0
LINE
  8
LC-002-003-----0
  6
CONTINUOUS
  5
29
 10
269.808396
 20
144.0
 30
0.0
 11
251.962389
 21
146.349471
 31
0.0
  0
LINE
  8
LC-002-003-----0
  6
CONTINUOUS
  5
2A
 10
251.962389
 20
146.349471
 30
0.0
 11
251.962389
 21
141.650529
 31
0.0
  0
LINE
  8
LC-002-003-----0
  6
CONTINUOUS
  5
2B
 10
251.922351
 20
142.261391
 30
0.0
 11
265.128396
 21
144.0
 31
0.0
  0
LINE
  8
LC-002-003-----0
  6
CONTINUOUS
  5
2C
 10
265.128396
 20
144.0
 30
0.0
 11
251.922351
 21
145.738609
 31
0.0
  0
LINE
  8
LC-002-003-----0
  6
CONTINUOUS
  5
2D
 10
251.882313
 20
142.872254
 30
0.0
 11
260.448396
 21
144.0
 31
0.0
  0
LINE
  8
LC-002-003-----0
  6
CONTINUOUS
  5
2E
 10
260.448396
 20
144.0
 30
0.0
 11
251.882313
 21
145.127746
 31
0.0
  0
LINE
  8
LC-002-003-----0
  6
CONTINUOUS
  5
2F
 10
251.842275
 20
143.483116
 30
0.0
 11
255.768396
 21
144.0
 31
0.0
  0
LINE
  8
LC-002-003-----0
  6
CONTINUOUS
  5
30
 10
255.768396
 20
144.0
 30
0.0
 11
251.842275
 21
144.516884
 31
0.0
  0
LINE
  8
LC-002-003-----0
  6
CONTINUOUS
  5
31
 10
337.854404
 20
146.349471
 30
0.0
 11
320.008396
 21
144.0
 31
0.0
  0
LINE
  8
LC-002-003-----0
  6
CONTINUOUS
  5
32
 10
320.008396
 20
144.0
 30
0.0
 11
337.854404
 21
141.650529
 31
0.0
  0
LINE
  8
LC-002-003-----0
  6
CONTINUOUS
  5
33
 10
337.854404
 20
141.650529
 30
0.0
 11
337.854404
 21
146.349471
 31
0.0
  0
LINE
  8
LC-002-003-----0
  6
CONTINUOUS
  5
34
 10
337.894442
 20
145.738609
 30
0.0
 11
324.688396
 21
144.0
 31
0.0
  0
LINE
  8
LC-002-003-----0
  6
CONTINUOUS
  5
35
 10
324.688396
 20
144.0
 30
0.0
 11
337.894442
 21
142.261391
 31
0.0
  0
LINE
  8
LC-002-003-----0
  6
CONTINUOUS
  5
36
 10
337.93448
 20
145.127746
 30
0.0
 11
329.368396
 21
144.0
 31
0.0
  0
LINE
  8
LC-002-003-----0
  6
CONTINUOUS
  5
37
 10
329.368396
 20
144.0
 30
0.0
 11
337.93448
 21
142.872254
 31
0.0
  0
LINE
  8
LC-002-003-----0
  6
CONTINUOUS
  5
38
 10
337.974518
 20
144.516884
 30
0.0
 11
334.048396
 21
144.0
 31
0.0
  0
LINE
  8
LC-002-003-----0
  6
CONTINUOUS
  5
39
 10
334.048396
 20
144.0
 30
0.0
 11
337.974518
 21
143.483116
 31
0.0
  0
LINE
  8
LC-004-003-MTG-0
  6
CONTINUOUS
  5
3B
 10
244.608396
 20
144.0
 30
0.0
 11
410.410916
 21
144.0
 31
0.0
  0
TEXT
  8
LC-002-003-----0
  6
CONTINUOUS
 62
     6
  5
3D
 10
347.283642
 20
154.431999
 30
0.0
 40
18.0
  1
DN50
 41
0.9
 51
15.0
  7
LC-TXTSTYLE-150-400-0-0-D0
  0
ENDBLK
  8
0
  5
3E
  0
BLOCK
  8
0
  5
40
  2
*D1
 70
    65
 10
0.0
 20
0.0
 30
0.0
  3
*D1
  0
LINE
  8
LC-003-003-MTH-0
  6
CONTINUOUS
  5
41
 10
458.645651
 20
378.335468
 30
0.0
 11
458.645651
 21
514.8
 31
0.0
  0
LINE
  8
LC-003-003-MTH-0
  6
CONTINUOUS
  5
42
 10
618.637108
 20
378.335468
 30
0.0
 11
618.637108
 21
514.8
 31
0.0
  0
LINE
  8
LC-004-003-MTG-0
  6
CONTINUOUS
  5
43
 10
458.645651
 20
504.0
 30
0.0
 11
618.637108
 21
504.0
 31
0.0
  0
LINE
  8
LC-002-003-----0
  6
CONTINUOUS
  5
44
 10
476.491658
 20
506.349471
 30
0.0
 11
458.645651
 21
504.0
 31
0.0
  0
LINE
  8
LC-002-003-----0
  6
CONTINUOUS
  5
45
 10
458.645651
 20
504.0
 30
0.0
 11
476.491658
 21
501.650529
 31
0.0
  0
LINE
  8
LC-002-003-----0
  6
CONTINUOUS
  5
46
 10
476.491658
 20
501.650529
 30
0.0
 11
476.491658
 21
506.349471
 31
0.0
  0
LINE
  8
LC-002-003-----0
  6
CONTINUOUS
  5
47
 10
476.531696
 20
505.738609
 30
0.0
 11
463.325651
 21
504.0
 31
0.0
  0
LINE
  8
LC-002-003-----0
  6
CONTINUOUS
  5
48
 10
463.325651
 20
504.0
 30
0.0
 11
476.531696
 21
502.261391
 31
0.0
  0
LINE
  8
LC-002-003-----0
  6
CONTINUOUS
  5
49
 10
476.571734
 20
505.127746
 30
0.0
 11
468.005651
 21
504.0
 31
0.0
  0
LINE
  8
LC-002-003-----0
  6
CONTINUOUS
  5
4A
 10
468.005651
 20
504.0
 30
0.0
 11
476.571734
 21
502.872254
 31
0.0
  0
LINE
  8
LC-002-003-----0
  6
CONTINUOUS
  5
4B
 10
476.611772
 20
504.516884
 30
0.0
 11
472.685651
 21
504.0
 31
0.0
  0
LINE
  8
LC-002-003-----0
  6
CONTINUOUS
  5
4C
 10
472.685651
 20
504.0
 30
0.0
 11
476.611772
 21
503.483116
 31
0.0
  0
LINE
  8
LC-002-003-----0
  6
CONTINUOUS
  5
4D
 10
600.791101
 20
501.650529
 30
0.0
 11
618.637108
 21
504.0
 31
0.0
  0
LINE
  8
LC-002-003-----0
  6
CONTINUOUS
  5
4E
 10
618.637108
 20
504.0
 30
0.0
 11
600.791101
 21
506.349471
 31
0.0
  0
LINE
  8
LC-002-003-----0
  6
CONTINUOUS
  5
4F
 10
600.791101
 20
506.349471
 30
0.0
 11
600.791101
 21
501.650529
 31
0.0
  0
LINE
  8
LC-002-003-----0
  6
CONTINUOUS
  5
50
 10
600.751062
 20
502.261391
 30
0.0
 11
613.957108
 21
504.0
 31
0.0
  0
LINE
  8
LC-002-003-----0
  6
CONTINUOUS
  5
51
 10
613.957108
 20
504.0
 30
0.0
 11
600.751062
 21
505.738609
 31
0.0
  0
LINE
  8
LC-002-003-----0
  6
CONTINUOUS
  5
52
 10
600.711024
 20
502.872254
 30
0.0
 11
609.277108
 21
504.0
 31
0.0
  0
LINE
  8
LC-002-003-----0
  6
CONTINUOUS
  5
53
 10
609.277108
 20
504.0
 30
0.0
 11
600.711024
 21
505.127746
 31
0.0
  0
LINE
  8
LC-002-003-----0
  6
CONTINUOUS
  5
54
 10
600.670986
 20
503.483116
 30
0.0
 11
604.597108
 21
504.0
 31
0.0
  0
LINE
  8
LC-002-003-----0
  6
CONTINUOUS
  5
55
 10
604.597108
 20
504.0
 30
0.0
 11
600.670986
 21
504.516884
 31
0.0
  0
TEXT
  8
LC-002-003-----0
  6
CONTINUOUS
 62
     6
  5
56
 10
492.390168
 20
514.431999
 30
0.0
 40
18.0
  1
120/160
 51
15.0
  7
LC-TXTSTYLE-150-400-0-0-D0
 72
     1
 11
541.436625
 21
514.431999
 31
0.0
  0
ENDBLK
  8
0
  5
57
  0
BLOCK
  8
0
  5
59
  2
*X2
 70
    65
 10
246.035659
 20
367.834011
 30
0.0
  3
*X2
  0
LINE
  8
LC-005-005-----0
  6
CONTINUOUS
  5
5B
 10
249.035659
 20
378.875163
 30
0.0
 11
248.076811
 21
379.834011
 31
0.0
  0
LINE
  8
LC-005-005-----0
  6
CONTINUOUS
  5
5C
 10
249.035659
 20
376.046736
 30
0.0
 11
246.035659
 21
379.046736
 31
0.0
  0
LINE
  8
LC-005-005-----0
  6
CONTINUOUS
  5
5D
 10
249.035659
 20
373.218309
 30
0.0
 11
246.035659
 21
376.218309
 31
0.0
  0
LINE
  8
LC-005-005-----0
  6
CONTINUOUS
  5
5E
 10
249.035659
 20
370.389882
 30
0.0
 11
246.035659
 21
373.389882
 31
0.0
  0
LINE
  8
LC-005-005-----0
  6
CONTINUOUS
  5
5F
 10
248.390783
 20
368.20633
 30
0.0
 11
246.035659
 21
370.561455
 31
0.0
  0
ENDBLK
  8
0
  5
60
  0
BLOCK
  8
0
  5
62
  2
*D3
 70
    65
 10
0.0
 20
0.0
 30
0.0
  3
*D3
  0
LINE
  8
LC-003-003-MTH-0
  6
CONTINUOUS
  5
63
 10
252.035659
 20
388.834011
 30
0.0
 11
252.035659
 21
418.8
 31
0.0
  0
LINE
  8
LC-003-003-MTH-0
  6
CONTINUOUS
  5
64
 10
315.968396
 20
383.084017
 30
0.0
 11
315.968396
 21
418.8
 31
0.0
  0
LINE
  8
LC-004-003-MTG-0
  6
CONTINUOUS
  5
65
 10
252.035659
 20
408.0
 30
0.0
 11
315.968396
 21
408.0
 31
0.0
  0
LINE
  8
LC-002-003-----0
  6
CONTINUOUS
  5
66
 10
269.881666
 20
410.349471
 30
0.0
 11
252.035659
 21
408.0
 31
0.0
  0
LINE
  8
LC-002-003-----0
  6
CONTINUOUS
  5
67
 10
252.035659
 20
408.0
 30
0.0
 11
269.881666
 21
405.650529
 31
0.0
  0
LINE
  8
LC-002-003-----0
  6
CONTINUOUS
  5
68
 10
269.881666
 20
405.650529
 30
0.0
 11
269.881666
 21
410.349471
 31
0.0
  0
LINE
  8
LC-002-003-----0
  6
CONTINUOUS
  5
69
 10
269.921704
 20
409.738609
 30
0.0
 11
256.715659
 21
408.0
 31
0.0
  0
LINE
  8
LC-002-003-----0
  6
CONTINUOUS
  5
6A
 10
256.715659
 20
408.0
 30
0.0
 11
269.921704
 21
406.261391
 31
0.0
  0
LINE
  8
LC-002-003-----0
  6
CONTINUOUS
  5
6B
 10
269.961742
 20
409.127746
 30
0.0
 11
261.395659
 21
408.0
 31
0.0
  0
LINE
  8
LC-002-003-----0
  6
CONTINUOUS
  5
6C
 10
261.395659
 20
408.0
 30
0.0
 11
269.961742
 21
406.872254
 31
0.0
  0
LINE
  8
LC-002-003-----0
  6
CONTINUOUS
  5
6D
 10
270.00178
 20
408.516884
 30
0.0
 11
266.075659
 21
408.0
 31
0.0
  0
LINE
  8
LC-002-003-----0
  6
CONTINUOUS
  5
6E
 10
266.075659
 20
408.0
 30
0.0
 11
270.00178
 21
407.483116
 31
0.0
  0
LINE
  8
LC-002-003-----0
  6
CONTINUOUS
  5
6F
 10
298.122389
 20
405.650529
 30
0.0
 11
315.968396
 21
408.0
 31
0.0
  0
LINE
  8
LC-002-003-----0
  6
CONTINUOUS
  5
70
 10
315.968396
 20
408.0
 30
0.0
 11
298.122389
 21
410.349471
 31
0.0
  0
LINE
  8
LC-002-003-----0
  6
CONTINUOUS
  5
71
 10
298.122389
 20
410.349471
 30
0.0
 11
298.122389
 21
405.650529
 31
0.0
  0
LINE
  8
LC-002-003-----0
  6
CONTINUOUS
  5
72
 10
298.082351
 20
406.261391
 30
0.0
 11
311.288396
 21
408.0
 31
0.0
  0
LINE
  8
LC-002-003-----0
  6
CONTINUOUS
  5
73
 10
311.288396
 20
408.0
 30
0.0
 11
298.082351
 21
409.738609
 31
0.0
  0
LINE
  8
LC-002-003-----0
  6
CONTINUOUS
  5
74
 10
298.042313
 20
406.872254
 30
0.0
 11
306.608396
 21
408.0
 31
0.0
  0
LINE
  8
LC-002-003-----0
  6
CONTINUOUS
  5
75
 10
306.608396
 20
408.0
 30
0.0
 11
298.042313
 21
409.127746
 31
0.0
  0
LINE
  8
LC-002-003-----0
  6
CONTINUOUS
  5
76
 10
298.002275
 20
407.483116
 30
0.0
 11
301.928396
 21
408.0
 31
0.0
  0
LINE
  8
LC-002-003-----0
  6
CONTINUOUS
  5
77
 10
301.928396
 20
408.0
 30
0.0
 11
298.002275
 21
408.516884
 31
0.0
  0
TEXT
  8
LC-002-003-----0
  6
CONTINUOUS
 62
     6
  5
78
 10
272.616828
 20
418.431999
 30
0.0
 40
18.0
  1
64
 51
15.0
  7
LC-TXTSTYLE-150-400-0-0-D0
 72
     1
 11
284.47982
 21
418.431999
 31
0.0
  0
ENDBLK
  8
0
  5
79
  0
BLOCK
  8
0
  5
7B
  2
*X4
 70
    65
 10
206.934585
 20
234.971476
 30
0.0
  3
*X4
  0
LINE
  8
LC-005-005-----0
  6
CONTINUOUS
  5
7C
 10
213.794334
 20
304.304002
 30
0.0
 11
214.942855
 21
305.452523
 31
0.0
  0
LINE
  8
LC-005-005-----0
  6
CONTINUOUS
  5
7D
 10
212.140068
 20
305.478163
 30
0.0
 11
213.20073
 21
306.538825
 31
0.0
  0
LINE
  8
LC-005-005-----0
  6
CONTINUOUS
  5
7E
 10
210.971085
 20
307.137607
 30
0.0
 11
212.121695
 21
308.288217
 31
0.0
  0
LINE
  8
LC-005-005-----0
  6
CONTINUOUS
  5
7F
 10
210.289891
 20
309.284841
 30
0.0
 11
211.519227
 21
310.514176
 31
0.0
  0
LINE
  8
LC-005-005-----0
  6
CONTINUOUS
  5
80
 10
209.718141
 20
311.541517
 30
0.0
 11
210.965005
 21
312.788381
 31
0.0
  0
LINE
  8
LC-005-005-----0
  6
CONTINUOUS
  5
81
 10
209.191964
 20
313.843767
 30
0.0
 11
210.45786
 21
315.109664
 31
0.0
  0
LINE
  8
LC-005-005-----0
  6
CONTINUOUS
  5
82
 10
208.713437
 20
316.193668
 30
0.0
 11
210.000032
 21
317.480263
 31
0.0
  0
LINE
  8
LC-005-005-----0
  6
CONTINUOUS
  5
83
 10
208.284885
 20
318.593543
 30
0.0
 11
209.594039
 21
319.902697
 31
0.0
  0
LINE
  8
LC-005-005-----0
  6
CONTINUOUS
  5
84
 10
207.908924
 20
321.046009
 30
0.0
 11
209.242723
 21
322.379808
 31
0.0
  0
LINE
  8
LC-005-005-----0
  6
CONTINUOUS
  5
85
 10
207.588514
 20
323.554026
 30
0.0
 11
208.949312
 21
324.914824
 31
0.0
  0
LINE
  8
LC-005-005-----0
  6
CONTINUOUS
  5
86
 10
207.327014
 20
326.120953
 30
0.0
 11
208.71749
 21
327.511429
 31
0.0
  0
LINE
  8
LC-005-005-----0
  6
CONTINUOUS
  5
87
 10
207.128267
 20
328.750633
 30
0.0
 11
208.551492
 21
330.173859
 31
0.0
  0
LINE
  8
LC-005-005-----0
  6
CONTINUOUS
  5
88
 10
206.996696
 20
331.44749
 30
0.0
 11
208.456222
 21
332.907015
 31
0.0
  0
LINE
  8
LC-005-005-----0
  6
CONTINUOUS
  5
89
 10
209.383218
 20
333.834011
 30
0.0
 11
210.883218
 21
335.334011
 31
0.0
  0
LINE
  8
LC-005-005-----0
  6
CONTINUOUS
  5
8A
 10
206.937433
 20
334.216654
 30
0.0
 11
208.05479
 21
335.334011
 31
0.0
  0
ENDBLK
  8
0
  5
8B
  0
BLOCK
  8
0
  5
8D
  2
*D5
 70
    65
 10
0.0
 20
0.0
 30
0.0
  3
*D5
  0
LINE
  8
LC-003-003-MTH-0
  6
CONTINUOUS
  5
8E
 10
86.180905
 20
476.404095
 30
0.0
 11
86.180905
 21
530.8
 31
0.0
  0
LINE
  8
LC-003-003-MTH-0
  6
CONTINUOUS
  5
8F
 10
206.892187
 20
367.874018
 30
0.0
 11
206.892187
 21
530.8
 31
0.0
  0
LINE
  8
LC-002-003-----0
  6
CONTINUOUS
  5
90
 10
68.334897
 20
517.650529
 30
0.0
 11
86.180905
 21
520.0
 31
0.0
  0
LINE
  8
LC-002-003-----0
  6
CONTINUOUS
  5
91
 10
86.180905
 20
520.0
 30
0.0
 11
68.334897
 21
522.349471
 31
0.0
  0
LINE
  8
LC-002-003-----0
  6
CONTINUOUS
  5
92
 10
68.334897
 20
522.349471
 30
0.0
 11
68.334897
 21
517.650529
 31
0.0
  0
LINE
  8
LC-002-003-----0
  6
CONTINUOUS
  5
93
 10
68.294859
 20
518.261391
 30
0.0
 11
81.500905
 21
520.0
 31
0.0
  0
LINE
  8
LC-002-003-----0
  6
CONTINUOUS
  5
94
 10
81.500905
 20
520.0
 30
0.0
 11
68.294859
 21
521.738609
 31
0.0
  0
LINE
  8
LC-002-003-----0
  6
CONTINUOUS
  5
95
 10
68.254821
 20
518.872254
 30
0.0
 11
76.820905
 21
520.0
 31
0.0
  0
LINE
  8
LC-002-003-----0
  6
CONTINUOUS
  5
96
 10
76.820905
 20
520.0
 30
0.0
 11
68.254821
 21
521.127746
 31
0.0
  0
LINE
  8
LC-002-003-----0
  6
CONTINUOUS
  5
97
 10
68.214783
 20
519.483116
 30
0.0
 11
72.140905
 21
520.0
 31
0.0
  0
LINE
  8
LC-002-003-----0
  6
CONTINUOUS
  5
98
 10
72.140905
 20
520.0
 30
0.0
 11
68.214783
 21
520.516884
 31
0.0
  0
LINE
  8
LC-002-003-----0
  6
CONTINUOUS
  5
99
 10
224.738195
 20
522.349471
 30
0.0
 11
206.892187
 21
520.0
 31
0.0
  0
LINE
  8
LC-002-003-----0
  6
CONTINUOUS
  5
9A
 10
206.892187
 20
520.0
 30
0.0
 11
224.738195
 21
517.650529
 31
0.0
  0
LINE
  8
LC-002-003-----0
  6
CONTINUOUS
  5
9B
 10
224.738195
 20
517.650529
 30
0.0
 11
224.738195
 21
522.349471
 31
0.0
  0
LINE
  8
LC-002-003-----0
  6
CONTINUOUS
  5
9C
 10
224.778233
 20
521.738609
 30
0.0
 11
211.572187
 21
520.0
 31
0.0
  0
LINE
  8
LC-002-003-----0
  6
CONTINUOUS
  5
9D
 10
211.572187
 20
520.0
 30
0.0
 11
224.778233
 21
518.261391
 31
0.0
  0
LINE
  8
LC-002-003-----0
  6
CONTINUOUS
  5
9E
 10
224.818271
 20
521.127746
 30
0.0
 11
216.252187
 21
520.0
 31
0.0
  0
LINE
  8
LC-002-003-----0
  6
CONTINUOUS
  5
9F
 10
216.252187
 20
520.0
 30
0.0
 11
224.818271
 21
518.872254
 31
0.0
  0
LINE
  8
LC-002-003-----0
  6
CONTINUOUS
  5
A0
 10
224.858309
 20
520.516884
 30
0.0
 11
220.932187
 21
520.0
 31
0.0
  0
LINE
  8
LC-002-003-----0
  6
CONTINUOUS
  5
A1
 10
220.932187
 20
520.0
 30
0.0
 11
224.858309
 21
519.483116
 31
0.0
  0
LINE
  8
LC-004-003-MTG-0
  6
CONTINUOUS
  5
A2
 10
60.980905
 20
520.0
 30
0.0
 11
345.894707
 21
520.0
 31
0.0
  0
TEXT
  8
LC-002-003-----0
  6
CONTINUOUS
 62
     6
  5
A3
 10
234.167433
 20
530.431999
 30
0.0
 40
18.0
  1
MAX.225
 51
15.0
  7
LC-TXTSTYLE-150-400-0-0-D0
  0
ENDBLK
  8
0
  5
A4
  0
BLOCK
  8
0
  5
A6
  2
*D6
 70
    65
 10
0.0
 20
0.0
 30
0.0
  3
*D6
  0
LINE
  8
LC-003-003-MTH-0
  6
CONTINUOUS
  5
A7
 10
67.716864
 20
473.892638
 30
0.0
 11
67.716864
 21
490.8
 31
0.0
  0
LINE
  8
LC-003-003-MTH-0
  6
CONTINUOUS
  5
A8
 10
104.693951
 20
473.892638
 30
0.0
 11
104.693951
 21
490.8
 31
0.0
  0
LINE
  8
LC-002-003-----0
  6
CONTINUOUS
  5
A9
 10
49.870857
 20
477.650529
 30
0.0
 11
67.716864
 21
480.0
 31
0.0
  0
LINE
  8
LC-002-003-----0
  6
CONTINUOUS
  5
AA
 10
67.716864
 20
480.0
 30
0.0
 11
49.870857
 21
482.349471
 31
0.0
  0
LINE
  8
LC-002-003-----0
  6
CONTINUOUS
  5
AB
 10
49.870857
 20
482.349471
 30
0.0
 11
49.870857
 21
477.650529
 31
0.0
  0
LINE
  8
LC-002-003-----0
  6
CONTINUOUS
  5
AC
 10
49.830819
 20
478.261391
 30
0.0
 11
63.036864
 21
480.0
 31
0.0
  0
LINE
  8
LC-002-003-----0
  6
CONTINUOUS
  5
AD
 10
63.036864
 20
480.0
 30
0.0
 11
49.830819
 21
481.738609
 31
0.0
  0
LINE
  8
LC-002-003-----0
  6
CONTINUOUS
  5
AE
 10
49.790781
 20
478.872254
 30
0.0
 11
58.356864
 21
480.0
 31
0.0
  0
LINE
  8
LC-002-003-----0
  6
CONTINUOUS
  5
AF
 10
58.356864
 20
480.0
 30
0.0
 11
49.790781
 21
481.127746
 31
0.0
  0
LINE
  8
LC-002-003-----0
  6
CONTINUOUS
  5
B0
 10
49.750743
 20
479.483116
 30
0.0
 11
53.676864
 21
480.0
 31
0.0
  0
LINE
  8
LC-002-003-----0
  6
CONTINUOUS
  5
B1
 10
53.676864
 20
480.0
 30
0.0
 11
49.750743
 21
480.516884
 31
0.0
  0
LINE
  8
LC-002-003-----0
  6
CONTINUOUS
  5
B2
 10
122.539958
 20
482.349471
 30
0.0
 11
104.693951
 21
480.0
 31
0.0
  0
LINE
  8
LC-002-003-----0
  6
CONTINUOUS
  5
B3
 10
104.693951
 20
480.0
 30
0.0
 11
122.539958
 21
477.650529
 31
0.0
  0
LINE
  8
LC-002-003-----0
  6
CONTINUOUS
  5
B4
 10
122.539958
 20
477.650529
 30
0.0
 11
122.539958
 21
482.349471
 31
0.0
  0
LINE
  8
LC-002-003-----0
  6
CONTINUOUS
  5
B5
 10
122.579996
 20
481.738609
 30
0.0
 11
109.373951
 21
480.0
 31
0.0
  0
LINE
  8
LC-002-003-----0
  6
CONTINUOUS
  5
B6
 10
109.373951
 20
480.0
 30
0.0
 11
122.579996
 21
478.261391
 31
0.0
  0
LINE
  8
LC-002-003-----0
  6
CONTINUOUS
  5
B7
 10
122.620034
 20
481.127746
 30
0.0
 11
114.053951
 21
480.0
 31
0.0
  0
LINE
  8
LC-002-003-----0
  6
CONTINUOUS
  5
B8
 10
114.053951
 20
480.0
 30
0.0
 11
122.620034
 21
478.872254
 31
0.0
  0
LINE
  8
LC-002-003-----0
  6
CONTINUOUS
  5
B9
 10
122.660072
 20
480.516884
 30
0.0
 11
118.733951
 21
480.0
 31
0.0
  0
LINE
  8
LC-002-003-----0
  6
CONTINUOUS
  5
BA
 10
118.733951
 20
480.0
 30
0.0
 11
122.660072
 21
479.483116
 31
0.0
  0
LINE
  8
LC-004-003-MTG-0
  6
CONTINUOUS
  5
BB
 10
42.516864
 20
480.0
 30
0.0
 11
204.207021
 21
480.0
 31
0.0
  0
TEXT
  8
LC-002-003-----0
  6
CONTINUOUS
 62
     6
  5
BC
 10
130.529196
 20
490.431999
 30
0.0
 40
18.0
  1
1 1/4"
 51
15.0
  7
LC-TXTSTYLE-150-400-0-0-D0
  0
ENDBLK
  8
0
  5
BD
  0
BLOCK
  8
0
  5
BF
  2
*D7
 70
    65
 10
0.0
 20
0.0
 30
0.0
  3
*D7
  0
LINE
  8
LC-003-003-MTH-0
  6
CONTINUOUS
  5
C0
 10
101.930905
 20
351.278183
 30
0.0
 11
29.2
 21
351.278183
 31
0.0
  0
LINE
  8
LC-003-003-MTH-0
  6
CONTINUOUS
  5
C1
 10
61.205407
 20
476.404095
 30
0.0
 11
29.2
 21
476.404095
 31
0.0
  0
LINE
  8
LC-004-003-MTG-0
  6
CONTINUOUS
  5
C2
 10
40.0
 20
351.278183
 30
0.0
 11
40.0
 21
476.404095
 31
0.0
  0
LINE
  8
LC-002-003-----0
  6
CONTINUOUS
  5
C3
 10
37.650529
 20
369.124191
 30
0.0
 11
40.0
 21
351.278183
 31
0.0
  0
LINE
  8
LC-002-003-----0
  6
CONTINUOUS
  5
C4
 10
40.0
 20
351.278183
 30
0.0
 11
42.349471
 21
369.124191
 31
0.0
  0
LINE
  8
LC-002-003-----0
  6
CONTINUOUS
  5
C5
 10
42.349471
 20
369.124191
 30
0.0
 11
37.650529
 21
369.124191
 31
0.0
  0
LINE
  8
LC-002-003-----0
  6
CONTINUOUS
  5
C6
 10
38.261391
 20
369.164229
 30
0.0
 11
40.0
 21
355.958183
 31
0.0
  0
LINE
  8
LC-002-003-----0
  6
CONTINUOUS
  5
C7
 10
40.0
 20
355.958183
 30
0.0
 11
41.738609
 21
369.164229
 31
0.0
  0
LINE
  8
LC-002-003-----0
  6
CONTINUOUS
  5
C8
 10
38.872254
 20
369.204267
 30
0.0
 11
40.0
 21
360.638183
 31
0.0
  0
LINE
  8
LC-002-003-----0
  6
CONTINUOUS
  5
C9
 10
40.0
 20
360.638183
 30
0.0
 11
41.127746
 21
369.204267
 31
0.0
  0
LINE
  8
LC-002-003-----0
  6
CONTINUOUS
  5
CA
 10
39.483116
 20
369.244305
 30
0.0
 11
40.0
 21
365.318183
 31
0.0
  0
LINE
  8
LC-002-003-----0
  6
CONTINUOUS
  5
CB
 10
40.0
 20
365.318183
 30
0.0
 11
40.516884
 21
369.244305
 31
0.0
  0
LINE
  8
LC-002-003-----0
  6
CONTINUOUS
  5
CC
 10
42.349471
 20
458.558087
 30
0.0
 11
40.0
 21
476.404095
 31
0.0
  0
LINE
  8
LC-002-003-----0
  6
CONTINUOUS
  5
CD
 10
40.0
 20
476.404095
 30
0.0
 11
37.650529
 21
458.558087
 31
0.0
  0
LINE
  8
LC-002-003-----0
  6
CONTINUOUS
  5
CE
 10
37.650529
 20
458.558087
 30
0.0
 11
42.349471
 21
458.558087
 31
0.0
  0
LINE
  8
LC-002-003-----0
  6
CONTINUOUS
  5
CF
 10
41.738609
 20
458.518049
 30
0.0
 11
40.0
 21
471.724095
 31
0.0
  0
LINE
  8
LC-002-003-----0
  6
CONTINUOUS
  5
D0
 10
40.0
 20
471.724095
 30
0.0
 11
38.261391
 21
458.518049
 31
0.0
  0
LINE
  8
LC-002-003-----0
  6
CONTINUOUS
  5
D1
 10
41.127746
 20
458.478011
 30
0.0
 11
40.0
 21
467.044095
 31
0.0
  0
LINE
  8
LC-002-003-----0
  6
CONTINUOUS
  5
D2
 10
40.0
 20
467.044095
 30
0.0
 11
38.872254
 21
458.478011
 31
0.0
  0
LINE
  8
LC-002-003-----0
  6
CONTINUOUS
  5
D3
 10
40.516884
 20
458.437973
 30
0.0
 11
40.0
 21
462.364095
 31
0.0
  0
LINE
  8
LC-002-003-----0
  6
CONTINUOUS
  5
D4
 10
40.0
 20
462.364095
 30
0.0
 11
39.483116
 21
458.437973
 31
0.0
  0
TEXT
  8
LC-002-003-----0
  6
CONTINUOUS
 62
     6
  5
D5
 10
29.568001
 20
374.860794
 30
0.0
 40
18.0
  1
70-275
 50
90.0
 51
15.0
  7
LC-TXTSTYLE-150-400-0-0-D0
 72
     1
 11
29.568001
 21
416.636385
 31
0.0
  0
ENDBLK
  8
0
  5
D6
  0
BLOCK
  8
0
  5
D8
  2
*D8
 70
    65
 10
0.0
 20
0.0
 30
0.0
  3
*D8
  0
LINE
  8
LC-003-003-MTH-0
  6
CONTINUOUS
  5
D9
 10
315.968396
 20
235.391092
 30
0.0
 11
370.8
 21
235.391092
 31
0.0
  0
LINE
  8
LC-003-003-MTH-0
  6
CONTINUOUS
  5
DA
 10
315.968396
 20
381.383501
 30
0.0
 11
370.8
 21
381.383501
 31
0.0
  0
LINE
  8
LC-004-003-MTG-0
  6
CONTINUOUS
  5
DB
 10
360.0
 20
235.391092
 30
0.0
 11
360.0
 21
381.383501
 31
0.0
  0
LINE
  8
LC-002-003-----0
  6
CONTINUOUS
  5
DC
 10
357.650529
 20
253.2371
 30
0.0
 11
360.0
 21
235.391092
 31
0.0
  0
LINE
  8
LC-002-003-----0
  6
CONTINUOUS
  5
DD
 10
360.0
 20
235.391092
 30
0.0
 11
362.349471
 21
253.2371
 31
0.0
  0
LINE
  8
LC-002-003-----0
  6
CONTINUOUS
  5
DE
 10
362.349471
 20
253.2371
 30
0.0
 11
357.650529
 21
253.2371
 31
0.0
  0
LINE
  8
LC-002-003-----0
  6
CONTINUOUS
  5
DF
 10
358.261391
 20
253.277138
 30
0.0
 11
360.0
 21
240.071092
 31
0.0
  0
LINE
  8
LC-002-003-----0
  6
CONTINUOUS
  5
E0
 10
360.0
 20
240.071092
 30
0.0
 11
361.738609
 21
253.277138
 31
0.0
  0
LINE
  8
LC-002-003-----0
  6
CONTINUOUS
  5
E1
 10
358.872254
 20
253.317176
 30
0.0
 11
360.0
 21
244.751092
 31
0.0
  0
LINE
  8
LC-002-003-----0
  6
CONTINUOUS
  5
E2
 10
360.0
 20
244.751092
 30
0.0
 11
361.127746
 21
253.317176
 31
0.0
  0
LINE
  8
LC-002-003-----0
  6
CONTINUOUS
  5
E3
 10
359.483116
 20
253.357214
 30
0.0
 11
360.0
 21
249.431092
 31
0.0
  0
LINE
  8
LC-002-003-----0
  6
CONTINUOUS
  5
E4
 10
360.0
 20
249.431092
 30
0.0
 11
360.516884
 21
253.357214
 31
0.0
  0
LINE
  8
LC-002-003-----0
  6
CONTINUOUS
  5
E5
 10
362.349471
 20
363.537494
 30
0.0
 11
360.0
 21
381.383501
 31
0.0
  0
LINE
  8
LC-002-003-----0
  6
CONTINUOUS
  5
E6
 10
360.0
 20
381.383501
 30
0.0
 11
357.650529
 21
363.537494
 31
0.0
  0
LINE
  8
LC-002-003-----0
  6
CONTINUOUS
  5
E7
 10
357.650529
 20
363.537494
 30
0.0
 11
362.349471
 21
363.537494
 31
0.0
  0
LINE
  8
LC-002-003-----0
  6
CONTINUOUS
  5
E8
 10
361.738609
 20
363.497456
 30
0.0
 11
360.0
 21
376.703501
 31
0.0
  0
LINE
  8
LC-002-003-----0
  6
CONTINUOUS
  5
E9
 10
360.0
 20
376.703501
 30
0.0
 11
358.261391
 21
363.497456
 31
0.0
  0
LINE
  8
LC-002-003-----0
  6
CONTINUOUS
  5
EA
 10
361.127746
 20
363.457417
 30
0.0
 11
360.0
 21
372.023501
 31
0.0
  0
LINE
  8
LC-002-003-----0
  6
CONTINUOUS
  5
EB
 10
360.0
 20
372.023501
 30
0.0
 11
358.872254
 21
363.457417
 31
0.0
  0
LINE
  8
LC-002-003-----0
  6
CONTINUOUS
  5
EC
 10
360.516884
 20
363.417379
 30
0.0
 11
360.0
 21
367.343501
 31
0.0
  0
LINE
  8
LC-002-003-----0
  6
CONTINUOUS
  5
ED
 10
360.0
 20
367.343501
 30
0.0
 11
359.483116
 21
363.417379
 31
0.0
  0
TEXT
  8
LC-002-003-----0
  6
CONTINUOUS
 62
     6
  5
EE
 10
354.968001
 20
294.174668
 30
0.0
 40
18.0
  1
146
 50
90.0
 51
15.0
  7
LC-TXTSTYLE-150-400-0-0-D0
 72
     1
 11
354.968001
 21
311.182542
 31
0.0
  0
ENDBLK
  8
0
  5
EF
  0
BLOCK
  8
0
  5
F1
  2
*X9
 70
    65
 10
217.035659
 20
374.38591
 30
0.0
  3
*X9
  0
LINE
  8
LC-005-005-----0
  6
CONTINUOUS
  5
F2
 10
268.603551
 20
376.083782
 30
0.0
 11
272.405679
 21
379.88591
 31
0.0
  0
LINE
  8
LC-005-005-----0
  6
CONTINUOUS
  5
F3
 10
265.77513
 20
376.083788
 30
0.0
 11
271.052857
 21
381.361514
 31
0.0
  0
LINE
  8
LC-005-005-----0
  6
CONTINUOUS
  5
F4
 10
262.946708
 20
376.083793
 30
0.0
 11
265.446703
 21
378.583788
 31
0.0
  0
LINE
  8
LC-005-005-----0
  6
CONTINUOUS
  5
F5
 10
260.118286
 20
376.083798
 30
0.0
 11
262.618282
 21
378.583794
 31
0.0
  0
LINE
  8
LC-005-005-----0
  6
CONTINUOUS
  5
F6
 10
257.289865
 20
376.083804
 30
0.0
 11
259.78986
 21
378.583799
 31
0.0
  0
LINE
  8
LC-005-005-----0
  6
CONTINUOUS
  5
F7
 10
254.461443
 20
376.083809
 30
0.0
 11
256.961438
 21
378.583805
 31
0.0
  0
LINE
  8
LC-005-005-----0
  6
CONTINUOUS
  5
F8
 10
251.633021
 20
376.083815
 30
0.0
 11
254.133016
 21
378.58381
 31
0.0
  0
LINE
  8
LC-005-005-----0
  6
CONTINUOUS
  5
F9
 10
249.035659
 20
376.314879
 30
0.0
 11
252.035659
 21
379.314879
 31
0.0
  0
LINE
  8
LC-005-005-----0
  6
CONTINUOUS
  5
FA
 10
249.035659
 20
379.143306
 30
0.0
 11
252.035659
 21
382.143306
 31
0.0
  0
LINE
  8
LC-005-005-----0
  6
CONTINUOUS
  5
FB
 10
249.035659
 20
381.971733
 30
0.0
 11
252.035659
 21
384.971733
 31
0.0
  0
LINE
  8
LC-005-005-----0
  6
CONTINUOUS
  5
FC
 10
249.035659
 20
384.800161
 30
0.0
 11
252.035659
 21
387.800161
 31
0.0
  0
LINE
  8
LC-005-005-----0
  6
CONTINUOUS
  5
FD
 10
249.035659
 20
387.628588
 30
0.0
 11
250.241082
 21
388.834011
 31
0.0
  0
LINE
  8
LC-005-005-----0
  6
CONTINUOUS
  5
FE
 10
246.412655
 20
387.834011
 30
0.0
 11
247.412655
 21
388.834011
 31
0.0
  0
LINE
  8
LC-005-005-----0
  6
CONTINUOUS
  5
FF
 10
243.584228
 20
387.834011
 30
0.0
 11
244.584228
 21
388.834011
 31
0.0
  0
LINE
  8
LC-005-005-----0
  6
CONTINUOUS
  5
100
 10
240.755801
 20
387.834011
 30
0.0
 11
241.755801
 21
388.834011
 31
0.0
  0
LINE
  8
LC-005-005-----0
  6
CONTINUOUS
  5
101
 10
237.927373
 20
387.834011
 30
0.0
 11
238.927373
 21
388.834011
 31
0.0
  0
LINE
  8
LC-005-005-----0
  6
CONTINUOUS
  5
102
 10
235.098946
 20
387.834011
 30
0.0
 11
236.098946
 21
388.834011
 31
0.0
  0
LINE
  8
LC-005-005-----0
  6
CONTINUOUS
  5
103
 10
232.270519
 20
387.834011
 30
0.0
 11
233.270519
 21
388.834011
 31
0.0
  0
LINE
  8
LC-005-005-----0
  6
CONTINUOUS
  5
104
 10
229.442092
 20
387.834011
 30
0.0
 11
230.442092
 21
388.834011
 31
0.0
  0
LINE
  8
LC-005-005-----0
  6
CONTINUOUS
  5
105
 10
226.613665
 20
387.834011
 30
0.0
 11
227.613665
 21
388.834011
 31
0.0
  0
LINE
  8
LC-005-005-----0
  6
CONTINUOUS
  5
106
 10
223.785238
 20
387.834011
 30
0.0
 11
224.785238
 21
388.834011
 31
0.0
  0
LINE
  8
LC-005-005-----0
  6
CONTINUOUS
  5
107
 10
220.956811
 20
387.834011
 30
0.0
 11
221.956811
 21
388.834011
 31
0.0
  0
LINE
  8
LC-005-005-----0
  6
CONTINUOUS
  5
108
 10
218.128384
 20
387.834011
 30
0.0
 11
219.128384
 21
388.834011
 31
0.0
  0
ENDBLK
  8
0
  5
109
  0
BLOCK
  8
0
  5
10B
  2
*X10
 70
    65
 10
217.035659
 20
235.391092
 30
0.0
  3
*X10
  0
LINE
  8
LC-005-005-----0
  6
CONTINUOUS
  5
10C
 10
269.770156
 20
235.82903
 30
0.0
 11
272.332218
 21
238.391092
 31
0.0
  0
LINE
  8
LC-005-005-----0
  6
CONTINUOUS
  5
10D
 10
268.370067
 20
237.257369
 30
0.0
 11
270.965378
 21
239.852679
 31
0.0
  0
LINE
  8
LC-005-005-----0
  6
CONTINUOUS
  5
10E
 10
267.965428
 20
239.681157
 30
0.0
 11
270.965378
 21
242.681106
 31
0.0
  0
LINE
  8
LC-005-005-----0
  6
CONTINUOUS
  5
10F
 10
267.965609
 20
242.509765
 30
0.0
 11
270.965378
 21
245.509534
 31
0.0
  0
LINE
  8
LC-005-005-----0
  6
CONTINUOUS
  5
110
 10
267.96579
 20
245.338373
 30
0.0
 11
270.965378
 21
248.337961
 31
0.0
  0
LINE
  8
LC-005-005-----0
  6
CONTINUOUS
  5
111
 10
267.965971
 20
248.166981
 30
0.0
 11
270.965378
 21
251.166388
 31
0.0
  0
LINE
  8
LC-005-005-----0
  6
CONTINUOUS
  5
112
 10
267.966152
 20
250.995589
 30
0.0
 11
270.965378
 21
253.994815
 31
0.0
  0
LINE
  8
LC-005-005-----0
  6
CONTINUOUS
  5
113
 10
267.966332
 20
253.824197
 30
0.0
 11
270.965378
 21
256.823242
 31
0.0
  0
LINE
  8
LC-005-005-----0
  6
CONTINUOUS
  5
114
 10
272.64083
 20
258.498695
 30
0.0
 11
272.965378
 21
258.823242
 31
0.0
  0
LINE
  8
LC-005-005-----0
  6
CONTINUOUS
  5
115
 10
267.966513
 20
256.652805
 30
0.0
 11
271.38496
 21
260.071251
 31
0.0
  0
LINE
  8
LC-005-005-----0
  6
CONTINUOUS
  5
116
 10
267.966694
 20
259.481413
 30
0.0
 11
270.965378
 21
262.480096
 31
0.0
  0
LINE
  8
LC-005-005-----0
  6
CONTINUOUS
  5
117
 10
267.966875
 20
262.310021
 30
0.0
 11
270.965378
 21
265.308523
 31
0.0
  0
LINE
  8
LC-005-005-----0
  6
CONTINUOUS
  5
118
 10
267.967056
 20
265.138629
 30
0.0
 11
270.965378
 21
268.136951
 31
0.0
  0
LINE
  8
LC-005-005-----0
  6
CONTINUOUS
  5
119
 10
267.967237
 20
267.967237
 30
0.0
 11
270.965378
 21
270.965378
 31
0.0
  0
LINE
  8
LC-005-005-----0
  6
CONTINUOUS
  5
11A
 10
267.967418
 20
270.795845
 30
0.0
 11
270.965378
 21
273.793805
 31
0.0
  0
LINE
  8
LC-005-005-----0
  6
CONTINUOUS
  5
11B
 10
267.967598
 20
273.624453
 30
0.0
 11
270.965378
 21
276.622232
 31
0.0
  0
LINE
  8
LC-005-005-----0
  6
CONTINUOUS
  5
11C
 10
267.967779
 20
276.453061
 30
0.0
 11
270.965378
 21
279.450659
 31
0.0
  0
LINE
  8
LC-005-005-----0
  6
CONTINUOUS
  5
11D
 10
267.96796
 20
279.281669
 30
0.0
 11
270.965378
 21
282.279086
 31
0.0
  0
LINE
  8
LC-005-005-----0
  6
CONTINUOUS
  5
11E
 10
267.968141
 20
282.110277
 30
0.0
 11
270.965378
 21
285.107513
 31
0.0
  0
LINE
  8
LC-005-005-----0
  6
CONTINUOUS
  5
11F
 10
267.968322
 20
284.938885
 30
0.0
 11
270.965378
 21
287.93594
 31
0.0
  0
LINE
  8
LC-005-005-----0
  6
CONTINUOUS
  5
120
 10
267.968503
 20
287.767493
 30
0.0
 11
270.965378
 21
290.764368
 31
0.0
  0
LINE
  8
LC-005-005-----0
  6
CONTINUOUS
  5
121
 10
267.968684
 20
290.596101
 30
0.0
 11
270.965378
 21
293.592795
 31
0.0
  0
LINE
  8
LC-005-005-----0
  6
CONTINUOUS
  5
122
 10
267.968864
 20
293.424709
 30
0.0
 11
270.965378
 21
296.421222
 31
0.0
  0
LINE
  8
LC-005-005-----0
  6
CONTINUOUS
  5
123
 10
267.969045
 20
296.253317
 30
0.0
 11
270.965378
 21
299.249649
 31
0.0
  0
LINE
  8
LC-005-005-----0
  6
CONTINUOUS
  5
124
 10
267.969226
 20
299.081925
 30
0.0
 11
270.965378
 21
302.078076
 31
0.0
  0
LINE
  8
LC-005-005-----0
  6
CONTINUOUS
  5
125
 10
267.969407
 20
301.910533
 30
0.0
 11
270.965378
 21
304.906503
 31
0.0
  0
LINE
  8
LC-005-005-----0
  6
CONTINUOUS
  5
126
 10
267.969588
 20
304.739141
 30
0.0
 11
270.965378
 21
307.73493
 31
0.0
  0
LINE
  8
LC-005-005-----0
  6
CONTINUOUS
  5
127
 10
267.969769
 20
307.567749
 30
0.0
 11
270.965378
 21
310.563357
 31
0.0
  0
LINE
  8
LC-005-005-----0
  6
CONTINUOUS
  5
128
 10
267.96995
 20
310.396357
 30
0.0
 11
270.965378
 21
313.391785
 31
0.0
  0
LINE
  8
LC-005-005-----0
  6
CONTINUOUS
  5
129
 10
267.970131
 20
313.224965
 30
0.0
 11
270.965378
 21
316.220212
 31
0.0
  0
LINE
  8
LC-005-005-----0
  6
CONTINUOUS
  5
12A
 10
267.970311
 20
316.053572
 30
0.0
 11
270.965378
 21
319.048639
 31
0.0
  0
LINE
  8
LC-005-005-----0
  6
CONTINUOUS
  5
12B
 10
267.970492
 20
318.88218
 30
0.0
 11
270.965378
 21
321.877066
 31
0.0
  0
LINE
  8
LC-005-005-----0
  6
CONTINUOUS
  5
12C
 10
267.970673
 20
321.710788
 30
0.0
 11
270.965378
 21
324.705493
 31
0.0
  0
LINE
  8
LC-005-005-----0
  6
CONTINUOUS
  5
12D
 10
267.970854
 20
324.539396
 30
0.0
 11
270.51562
 21
327.084163
 31
0.0
  0
LINE
  8
LC-005-005-----0
  6
CONTINUOUS
  5
12E
 10
265.187203
 20
324.584173
 30
0.0
 11
267.687198
 21
327.084168
 31
0.0
  0
LINE
  8
LC-005-005-----0
  6
CONTINUOUS
  5
12F
 10
251.608614
 20
313.834011
 30
0.0
 11
252.035659
 21
314.261055
 31
0.0
  0
LINE
  8
LC-005-005-----0
  6
CONTINUOUS
  5
130
 10
262.358781
 20
324.584178
 30
0.0
 11
264.858777
 21
327.084173
 31
0.0
  0
LINE
  8
LC-005-005-----0
  6
CONTINUOUS
  5
131
 10
248.780187
 20
313.834011
 30
0.0
 11
252.035659
 21
317.089482
 31
0.0
  0
LINE
  8
LC-005-005-----0
  6
CONTINUOUS
  5
132
 10
259.53036
 20
324.584184
 30
0.0
 11
262.030355
 21
327.084179
 31
0.0
  0
LINE
  8
LC-005-005-----0
  6
CONTINUOUS
  5
133
 10
245.95176
 20
313.834011
 30
0.0
 11
246.95176
 21
314.834011
 31
0.0
  0
LINE
  8
LC-005-005-----0
  6
CONTINUOUS
  5
134
 10
249.035635
 20
316.917886
 30
0.0
 11
252.035659
 21
319.91791
 31
0.0
  0
LINE
  8
LC-005-005-----0
  6
CONTINUOUS
  5
135
 10
256.701938
 20
324.584189
 30
0.0
 11
259.201933
 21
327.084184
 31
0.0
  0
LINE
  8
LC-005-005-----0
  6
CONTINUOUS
  5
136
 10
243.123333
 20
313.834011
 30
0.0
 11
244.123333
 21
314.834011
 31
0.0
  0
LINE
  8
LC-005-005-----0
  6
CONTINUOUS
  5
137
 10
249.035603
 20
319.746281
 30
0.0
 11
252.035659
 21
322.746337
 31
0.0
  0
LINE
  8
LC-005-005-----0
  6
CONTINUOUS
  5
138
 10
253.873516
 20
324.584195
 30
0.0
 11
256.373512
 21
327.08419
 31
0.0
  0
LINE
  8
LC-005-005-----0
  6
CONTINUOUS
  5
139
 10
240.294906
 20
313.834011
 30
0.0
 11
241.294906
 21
314.834011
 31
0.0
  0
LINE
  8
LC-005-005-----0
  6
CONTINUOUS
  5
13A
 10
249.03557
 20
322.574676
 30
0.0
 11
253.54509
 21
327.084195
 31
0.0
  0
LINE
  8
LC-005-005-----0
  6
CONTINUOUS
  5
13B
 10
237.466479
 20
313.834011
 30
0.0
 11
238.466479
 21
314.834011
 31
0.0
  0
LINE
  8
LC-005-005-----0
  6
CONTINUOUS
  5
13C
 10
249.035564
 20
325.403097
 30
0.0
 11
250.716668
 21
327.084201
 31
0.0
  0
LINE
  8
LC-005-005-----0
  6
CONTINUOUS
  5
13D
 10
234.638052
 20
313.834011
 30
0.0
 11
235.638052
 21
314.834011
 31
0.0
  0
LINE
  8
LC-005-005-----0
  6
CONTINUOUS
  5
13E
 10
231.809624
 20
313.834011
 30
0.0
 11
232.809624
 21
314.834011
 31
0.0
  0
LINE
  8
LC-005-005-----0
  6
CONTINUOUS
  5
13F
 10
228.981197
 20
313.834011
 30
0.0
 11
229.981197
 21
314.834011
 31
0.0
  0
LINE
  8
LC-005-005-----0
  6
CONTINUOUS
  5
140
 10
226.15277
 20
313.834011
 30
0.0
 11
227.15277
 21
314.834011
 31
0.0
  0
LINE
  8
LC-005-005-----0
  6
CONTINUOUS
  5
141
 10
223.324343
 20
313.834011
 30
0.0
 11
224.324343
 21
314.834011
 31
0.0
  0
LINE
  8
LC-005-005-----0
  6
CONTINUOUS
  5
142
 10
220.495916
 20
313.834011
 30
0.0
 11
221.495916
 21
314.834011
 31
0.0
  0
LINE
  8
LC-005-005-----0
  6
CONTINUOUS
  5
143
 10
217.667489
 20
313.834011
 30
0.0
 11
218.667489
 21
314.834011
 31
0.0
  0
ENDBLK
  8
0
  5
144
  0
BLOCK
  8
0
  5
146
  2
*D11
 70
    65
 10
0.0
 20
0.0
 30
0.0
  3
*D11
  0
LINE
  8
LC-003-003-MTH-0
  6
CONTINUOUS
  5
147
 10
252.035659
 20
388.834011
 30
0.0
 11
252.035659
 21
460.8
 31
0.0
  0
LINE
  8
LC-003-003-MTH-0
  6
CONTINUOUS
  5
148
 10
327.034396
 20
378.585474
 30
0.0
 11
327.034396
 21
460.8
 31
0.0
  0
LINE
  8
LC-004-003-MTG-0
  6
CONTINUOUS
  5
149
 10
252.035659
 20
450.0
 30
0.0
 11
327.034396
 21
450.0
 31
0.0
  0
LINE
  8
LC-002-003-----0
  6
CONTINUOUS
  5
14A
 10
269.881666
 20
452.349471
 30
0.0
 11
252.035659
 21
450.0
 31
0.0
  0
LINE
  8
LC-002-003-----0
  6
CONTINUOUS
  5
14B
 10
252.035659
 20
450.0
 30
0.0
 11
269.881666
 21
447.650529
 31
0.0
  0
LINE
  8
LC-002-003-----0
  6
CONTINUOUS
  5
14C
 10
269.881666
 20
447.650529
 30
0.0
 11
269.881666
 21
452.349471
 31
0.0
  0
LINE
  8
LC-002-003-----0
  6
CONTINUOUS
  5
14D
 10
269.921704
 20
451.738609
 30
0.0
 11
256.715659
 21
450.0
 31
0.0
  0
LINE
  8
LC-002-003-----0
  6
CONTINUOUS
  5
14E
 10
256.715659
 20
450.0
 30
0.0
 11
269.921704
 21
448.261391
 31
0.0
  0
LINE
  8
LC-002-003-----0
  6
CONTINUOUS
  5
14F
 10
269.961742
 20
451.127746
 30
0.0
 11
261.395659
 21
450.0
 31
0.0
  0
LINE
  8
LC-002-003-----0
  6
CONTINUOUS
  5
150
 10
261.395659
 20
450.0
 30
0.0
 11
269.961742
 21
448.872254
 31
0.0
  0
LINE
  8
LC-002-003-----0
  6
CONTINUOUS
  5
151
 10
270.00178
 20
450.516884
 30
0.0
 11
266.075659
 21
450.0
 31
0.0
  0
LINE
  8
LC-002-003-----0
  6
CONTINUOUS
  5
152
 10
266.075659
 20
450.0
 30
0.0
 11
270.00178
 21
449.483116
 31
0.0
  0
LINE
  8
LC-002-003-----0
  6
CONTINUOUS
  5
153
 10
309.188389
 20
447.650529
 30
0.0
 11
327.034396
 21
450.0
 31
0.0
  0
LINE
  8
LC-002-003-----0
  6
CONTINUOUS
  5
154
 10
327.034396
 20
450.0
 30
0.0
 11
309.188389
 21
452.349471
 31
0.0
  0
LINE
  8
LC-002-003-----0
  6
CONTINUOUS
  5
155
 10
309.188389
 20
452.349471
 30
0.0
 11
309.188389
 21
447.650529
 31
0.0
  0
LINE
  8
LC-002-003-----0
  6
CONTINUOUS
  5
156
 10
309.148351
 20
448.261391
 30
0.0
 11
322.354396
 21
450.0
 31
0.0
  0
LINE
  8
LC-002-003-----0
  6
CONTINUOUS
  5
157
 10
322.354396
 20
450.0
 30
0.0
 11
309.148351
 21
451.738609
 31
0.0
  0
LINE
  8
LC-002-003-----0
  6
CONTINUOUS
  5
158
 10
309.108313
 20
448.872254
 30
0.0
 11
317.674396
 21
450.0
 31
0.0
  0
LINE
  8
LC-002-003-----0
  6
CONTINUOUS
  5
159
 10
317.674396
 20
450.0
 30
0.0
 11
309.108313
 21
451.127746
 31
0.0
  0
LINE
  8
LC-002-003-----0
  6
CONTINUOUS
  5
15A
 10
309.068275
 20
449.483116
 30
0.0
 11
312.994396
 21
450.0
 31
0.0
  0
LINE
  8
LC-002-003-----0
  6
CONTINUOUS
  5
15B
 10
312.994396
 20
450.0
 30
0.0
 11
309.068275
 21
450.516884
 31
0.0
  0
TEXT
  8
LC-002-003-----0
  6
CONTINUOUS
 62
     6
  5
15C
 10
275.990375
 20
460.431999
 30
0.0
 40
18.0
  1
75
 51
15.0
  7
LC-TXTSTYLE-150-400-0-0-D0
 72
     1
 11
287.853367
 21
460.431999
 31
0.0
  0
ENDBLK
  8
0
  5
15D
  0
BLOCK
  8
0
  5
15F
  2
BLK1
 70
    64
 10
0.0
 20
0.0
 30
0.0
  3
BLK1
  0
ENDBLK
  8
0
  5
160
  0
BLOCK
  8
0
  5
162
  2
*X13
 70
    65
 10
206.934585
 20
267.696546
 30
0.0
  3
*X13
  0
LINE
  8
LC-005-005-----0
  6
CONTINUOUS
  5
163
 10
208.942092
 20
367.334011
 30
0.0
 11
210.442092
 21
368.834011
 31
0.0
  0
LINE
  8
LC-005-005-----0
  6
CONTINUOUS
  5
164
 10
206.93564
 20
368.155986
 30
0.0
 11
208.454452
 21
369.674798
 31
0.0
  0
LINE
  8
LC-005-005-----0
  6
CONTINUOUS
  5
165
 10
206.990468
 20
371.039242
 30
0.0
 11
208.556998
 21
372.605772
 31
0.0
  0
LINE
  8
LC-005-005-----0
  6
CONTINUOUS
  5
166
 10
207.134169
 20
374.011369
 30
0.0
 11
208.754753
 21
375.631954
 31
0.0
  0
LINE
  8
LC-005-005-----0
  6
CONTINUOUS
  5
167
 10
207.375953
 20
377.081581
 30
0.0
 11
209.058323
 21
378.763951
 31
0.0
  0
LINE
  8
LC-005-005-----0
  6
CONTINUOUS
  5
168
 10
207.727068
 20
380.261122
 30
0.0
 11
209.480825
 21
382.014879
 31
0.0
  0
LINE
  8
LC-005-005-----0
  6
CONTINUOUS
  5
169
 10
208.201485
 20
383.563967
 30
0.0
 11
210.038805
 21
385.401287
 31
0.0
  0
LINE
  8
LC-005-005-----0
  6
CONTINUOUS
  5
16A
 10
208.816931
 20
387.00784
 30
0.0
 11
210.753652
 21
388.944561
 31
0.0
  0
LINE
  8
LC-005-005-----0
  6
CONTINUOUS
  5
16B
 10
209.596477
 20
390.615813
 30
0.0
 11
211.653857
 21
392.673193
 31
0.0
  0
LINE
  8
LC-005-005-----0
  6
CONTINUOUS
  5
16C
 10
210.571125
 20
394.418888
 30
0.0
 11
214.925238
 21
398.773001
 31
0.0
  0
ENDBLK
  8
0
  5
16D
  0
BLOCK
  8
0
  5
16F
  2
*X14
 70
    65
 10
272.965378
 20
258.034973
 30
0.0
  3
*X14
  0
LINE
  8
LC-005-005-----0
  6
CONTINUOUS
  5
170
 10
311.775088
 20
258.034973
 30
0.0
 11
312.968396
 21
259.228281
 31
0.0
  0
LINE
  8
LC-005-005-----0
  6
CONTINUOUS
  5
171
 10
308.946661
 20
258.034973
 30
0.0
 11
311.446661
 21
260.534973
 31
0.0
  0
LINE
  8
LC-005-005-----0
  6
CONTINUOUS
  5
172
 10
306.118234
 20
258.034973
 30
0.0
 11
308.618234
 21
260.534973
 31
0.0
  0
LINE
  8
LC-005-005-----0
  6
CONTINUOUS
  5
173
 10
303.289807
 20
258.034973
 30
0.0
 11
305.789807
 21
260.534973
 31
0.0
  0
LINE
  8
LC-005-005-----0
  6
CONTINUOUS
  5
174
 10
300.46138
 20
258.034973
 30
0.0
 11
302.96138
 21
260.534973
 31
0.0
  0
LINE
  8
LC-005-005-----0
  6
CONTINUOUS
  5
175
 10
297.632953
 20
258.034973
 30
0.0
 11
300.132953
 21
260.534973
 31
0.0
  0
LINE
  8
LC-005-005-----0
  6
CONTINUOUS
  5
176
 10
294.804526
 20
258.034973
 30
0.0
 11
297.304526
 21
260.534973
 31
0.0
  0
LINE
  8
LC-005-005-----0
  6
CONTINUOUS
  5
177
 10
291.976099
 20
258.034973
 30
0.0
 11
294.476099
 21
260.534973
 31
0.0
  0
LINE
  8
LC-005-005-----0
  6
CONTINUOUS
  5
178
 10
289.147671
 20
258.034973
 30
0.0
 11
291.647671
 21
260.534973
 31
0.0
  0
LINE
  8
LC-005-005-----0
  6
CONTINUOUS
  5
179
 10
286.319244
 20
258.034973
 30
0.0
 11
288.819244
 21
260.534973
 31
0.0
  0
LINE
  8
LC-005-005-----0
  6
CONTINUOUS
  5
17A
 10
283.490817
 20
258.034973
 30
0.0
 11
285.990817
 21
260.534973
 31
0.0
  0
LINE
  8
LC-005-005-----0
  6
CONTINUOUS
  5
17B
 10
280.66239
 20
258.034973
 30
0.0
 11
283.16239
 21
260.534973
 31
0.0
  0
LINE
  8
LC-005-005-----0
  6
CONTINUOUS
  5
17C
 10
277.833963
 20
258.034973
 30
0.0
 11
280.333963
 21
260.534973
 31
0.0
  0
LINE
  8
LC-005-005-----0
  6
CONTINUOUS
  5
17D
 10
275.005536
 20
258.034973
 30
0.0
 11
277.505536
 21
260.534973
 31
0.0
  0
LINE
  8
LC-005-005-----0
  6
CONTINUOUS
  5
17E
 10
272.965378
 20
258.823242
 30
0.0
 11
274.677109
 21
260.534973
 31
0.0
  0
ENDBLK
  8
0
  5
17F
  0
BLOCK
  8
0
  5
181
  2
BLK2
 70
    64
 10
0.0
 20
0.0
 30
0.0
  3
BLK2
  0
ENDBLK
  8
0
  5
182
  0
BLOCK
  8
0
  5
184
  2
*D16
 70
    65
 10
0.0
 20
0.0
 30
0.0
  3
*D16
  0
LINE
  8
LC-003-003-MTH-0
  6
CONTINUOUS
  5
185
 10
215.193399
 20
303.834011
 30
0.0
 11
169.2
 21
303.834011
 31
0.0
  0
LINE
  8
LC-003-003-MTH-0
  6
CONTINUOUS
  5
186
 10
215.193399
 20
398.834011
 30
0.0
 11
169.2
 21
398.834011
 31
0.0
  0
LINE
  8
LC-002-003-----0
  6
CONTINUOUS
  5
187
 10
182.349471
 20
285.988004
 30
0.0
 11
180.0
 21
303.834011
 31
0.0
  0
LINE
  8
LC-002-003-----0
  6
CONTINUOUS
  5
188
 10
180.0
 20
303.834011
 30
0.0
 11
177.650529
 21
285.988004
 31
0.0
  0
LINE
  8
LC-002-003-----0
  6
CONTINUOUS
  5
189
 10
177.650529
 20
285.988004
 30
0.0
 11
182.349471
 21
285.988004
 31
0.0
  0
LINE
  8
LC-002-003-----0
  6
CONTINUOUS
  5
18A
 10
181.738609
 20
285.947965
 30
0.0
 11
180.0
 21
299.154011
 31
0.0
  0
LINE
  8
LC-002-003-----0
  6
CONTINUOUS
  5
18B
 10
180.0
 20
299.154011
 30
0.0
 11
178.261391
 21
285.947965
 31
0.0
  0
LINE
  8
LC-002-003-----0
  6
CONTINUOUS
  5
18C
 10
181.127746
 20
285.907927
 30
0.0
 11
180.0
 21
294.474011
 31
0.0
  0
LINE
  8
LC-002-003-----0
  6
CONTINUOUS
  5
18D
 10
180.0
 20
294.474011
 30
0.0
 11
178.872254
 21
285.907927
 31
0.0
  0
LINE
  8
LC-002-003-----0
  6
CONTINUOUS
  5
18E
 10
180.516884
 20
285.867889
 30
0.0
 11
180.0
 21
289.794011
 31
0.0
  0
LINE
  8
LC-002-003-----0
  6
CONTINUOUS
  5
18F
 10
180.0
 20
289.794011
 30
0.0
 11
179.483116
 21
285.867889
 31
0.0
  0
LINE
  8
LC-002-003-----0
  6
CONTINUOUS
  5
190
 10
177.650529
 20
416.680019
 30
0.0
 11
180.0
 21
398.834011
 31
0.0
  0
LINE
  8
LC-002-003-----0
  6
CONTINUOUS
  5
191
 10
180.0
 20
398.834011
 30
0.0
 11
182.349471
 21
416.680019
 31
0.0
  0
LINE
  8
LC-002-003-----0
  6
CONTINUOUS
  5
192
 10
182.349471
 20
416.680019
 30
0.0
 11
177.650529
 21
416.680019
 31
0.0
  0
LINE
  8
LC-002-003-----0
  6
CONTINUOUS
  5
193
 10
178.261391
 20
416.720057
 30
0.0
 11
180.0
 21
403.514011
 31
0.0
  0
LINE
  8
LC-002-003-----0
  6
CONTINUOUS
  5
194
 10
180.0
 20
403.514011
 30
0.0
 11
181.738609
 21
416.720057
 31
0.0
  0
LINE
  8
LC-002-003-----0
  6
CONTINUOUS
  5
195
 10
178.872254
 20
416.760095
 30
0.0
 11
180.0
 21
408.194011
 31
0.0
  0
LINE
  8
LC-002-003-----0
  6
CONTINUOUS
  5
196
 10
180.0
 20
408.194011
 30
0.0
 11
181.127746
 21
416.760095
 31
0.0
  0
LINE
  8
LC-002-003-----0
  6
CONTINUOUS
  5
197
 10
179.483116
 20
416.800133
 30
0.0
 11
180.0
 21
412.874011
 31
0.0
  0
LINE
  8
LC-002-003-----0
  6
CONTINUOUS
  5
198
 10
180.0
 20
412.874011
 30
0.0
 11
180.516884
 21
416.800133
 31
0.0
  0
LINE
  8
LC-004-003-MTG-0
  6
CONTINUOUS
  5
199
 10
180.0
 20
229.631491
 30
0.0
 11
180.0
 21
424.034011
 31
0.0
  0
TEXT
  8
LC-002-003-----0
  6
CONTINUOUS
 62
     6
  5
19A
 10
169.568001
 20
247.708312
 30
0.0
 40
18.0
  1
Ø95
 50
90.0
 51
15.0
  7
LC-TXTSTYLE-150-400-0-0-D0
 72
     2
 11
169.568001
 21
282.149257
 31
0.0
  0
ENDBLK
  8
0
  5
19B
  0
BLOCK
  8
0
  5
19D
  2
*X17
 70
    65
 10
272.968396
 20
173.583175
 30
0.0
  3
*X17
  0
LINE
  8
LC-005-005-----0
  6
CONTINUOUS
  5
19E
 10
318.018396
 20
173.768613
 30
0.0
 11
319.537233
 21
175.28745
 31
0.0
  0
LINE
  8
LC-005-005-----0
  6
CONTINUOUS
  5
19F
 10
318.018396
 20
176.59704
 30
0.0
 11
320.018396
 21
178.59704
 31
0.0
  0
LINE
  8
LC-005-005-----0
  6
CONTINUOUS
  5
1A0
 10
318.018396
 20
179.425467
 30
0.0
 11
320.018396
 21
181.425467
 31
0.0
  0
LINE
  8
LC-005-005-----0
  6
CONTINUOUS
  5
1A1
 10
318.018396
 20
182.253894
 30
0.0
 11
320.018396
 21
184.253894
 31
0.0
  0
LINE
  8
LC-005-005-----0
  6
CONTINUOUS
  5
1A2
 10
318.018396
 20
185.082322
 30
0.0
 11
320.018396
 21
187.082322
 31
0.0
  0
LINE
  8
LC-005-005-----0
  6
CONTINUOUS
  5
1A3
 10
318.018396
 20
187.910749
 30
0.0
 11
320.018396
 21
189.910749
 31
0.0
  0
LINE
  8
LC-005-005-----0
  6
CONTINUOUS
  5
1A4
 10
318.018396
 20
190.739176
 30
0.0
 11
320.018396
 21
192.739176
 31
0.0
  0
LINE
  8
LC-005-005-----0
  6
CONTINUOUS
  5
1A5
 10
318.018396
 20
193.567603
 30
0.0
 11
320.018396
 21
195.567603
 31
0.0
  0
LINE
  8
LC-005-005-----0
  6
CONTINUOUS
  5
1A6
 10
318.018396
 20
196.39603
 30
0.0
 11
320.018396
 21
198.39603
 31
0.0
  0
LINE
  8
LC-005-005-----0
  6
CONTINUOUS
  5
1A7
 10
318.018396
 20
199.224457
 30
0.0
 11
320.018396
 21
201.224457
 31
0.0
  0
LINE
  8
LC-005-005-----0
  6
CONTINUOUS
  5
1A8
 10
318.018396
 20
202.052884
 30
0.0
 11
320.018396
 21
204.052884
 31
0.0
  0
LINE
  8
LC-005-005-----0
  6
CONTINUOUS
  5
1A9
 10
318.018396
 20
204.881311
 30
0.0
 11
320.018396
 21
206.881311
 31
0.0
  0
LINE
  8
LC-005-005-----0
  6
CONTINUOUS
  5
1AA
 10
318.018396
 20
207.709739
 30
0.0
 11
320.018396
 21
209.709739
 31
0.0
  0
LINE
  8
LC-005-005-----0
  6
CONTINUOUS
  5
1AB
 10
318.018396
 20
210.538166
 30
0.0
 11
320.018396
 21
212.538166
 31
0.0
  0
LINE
  8
LC-005-005-----0
  6
CONTINUOUS
  5
1AC
 10
318.018396
 20
213.366593
 30
0.0
 11
320.018396
 21
215.366593
 31
0.0
  0
LINE
  8
LC-005-005-----0
  6
CONTINUOUS
  5
1AD
 10
318.018396
 20
216.19502
 30
0.0
 11
320.018396
 21
218.19502
 31
0.0
  0
LINE
  8
LC-005-005-----0
  6
CONTINUOUS
  5
1AE
 10
318.018396
 20
219.023447
 30
0.0
 11
320.018396
 21
221.023447
 31
0.0
  0
LINE
  8
LC-005-005-----0
  6
CONTINUOUS
  5
1AF
 10
318.018396
 20
221.851874
 30
0.0
 11
320.018396
 21
223.851874
 31
0.0
  0
LINE
  8
LC-005-005-----0
  6
CONTINUOUS
  5
1B0
 10
318.018396
 20
224.680301
 30
0.0
 11
319.469833
 21
226.131738
 31
0.0
  0
LINE
  8
LC-005-005-----0
  6
CONTINUOUS
  5
1B1
 10
316.641406
 20
226.131738
 30
0.0
 11
318.05562
 21
227.545952
 31
0.0
  0
LINE
  8
LC-005-005-----0
  6
CONTINUOUS
  5
1B2
 10
315.227193
 20
227.545952
 30
0.0
 11
316.641406
 21
228.960165
 31
0.0
  0
LINE
  8
LC-005-005-----0
  6
CONTINUOUS
  5
1B3
 10
313.812979
 20
228.960165
 30
0.0
 11
315.227193
 21
230.374379
 31
0.0
  0
LINE
  8
LC-005-005-----0
  6
CONTINUOUS
  5
1B4
 10
312.968396
 20
230.94401
 30
0.0
 11
314.968396
 21
232.94401
 31
0.0
  0
LINE
  8
LC-005-005-----0
  6
CONTINUOUS
  5
1B5
 10
312.968396
 20
233.772437
 30
0.0
 11
315.968396
 21
236.772437
 31
0.0
  0
LINE
  8
LC-005-005-----0
  6
CONTINUOUS
  5
1B6
 10
312.968396
 20
236.600864
 30
0.0
 11
315.968396
 21
239.600864
 31
0.0
  0
LINE
  8
LC-005-005-----0
  6
CONTINUOUS
  5
1B7
 10
312.968396
 20
239.429291
 30
0.0
 11
315.968396
 21
242.429291
 31
0.0
  0
LINE
  8
LC-005-005-----0
  6
CONTINUOUS
  5
1B8
 10
312.968396
 20
242.257718
 30
0.0
 11
315.968396
 21
245.257718
 31
0.0
  0
LINE
  8
LC-005-005-----0
  6
CONTINUOUS
  5
1B9
 10
312.968396
 20
245.086145
 30
0.0
 11
315.968396
 21
248.086145
 31
0.0
  0
LINE
  8
LC-005-005-----0
  6
CONTINUOUS
  5
1BA
 10
312.968396
 20
247.914573
 30
0.0
 11
315.968396
 21
250.914573
 31
0.0
  0
LINE
  8
LC-005-005-----0
  6
CONTINUOUS
  5
1BB
 10
312.968396
 20
250.743
 30
0.0
 11
315.968396
 21
253.743
 31
0.0
  0
LINE
  8
LC-005-005-----0
  6
CONTINUOUS
  5
1BC
 10
312.968396
 20
253.571427
 30
0.0
 11
315.968396
 21
256.571427
 31
0.0
  0
LINE
  8
LC-005-005-----0
  6
CONTINUOUS
  5
1BD
 10
312.968396
 20
256.399854
 30
0.0
 11
315.968396
 21
259.399854
 31
0.0
  0
LINE
  8
LC-005-005-----0
  6
CONTINUOUS
  5
1BE
 10
312.968396
 20
259.228281
 30
0.0
 11
315.968396
 21
262.228281
 31
0.0
  0
LINE
  8
LC-005-005-----0
  6
CONTINUOUS
  5
1BF
 10
312.968396
 20
262.056708
 30
0.0
 11
315.968396
 21
265.056708
 31
0.0
  0
LINE
  8
LC-005-005-----0
  6
CONTINUOUS
  5
1C0
 10
312.968396
 20
264.885135
 30
0.0
 11
315.968396
 21
267.885135
 31
0.0
  0
LINE
  8
LC-005-005-----0
  6
CONTINUOUS
  5
1C1
 10
312.968396
 20
267.713562
 30
0.0
 11
315.968396
 21
270.713562
 31
0.0
  0
LINE
  8
LC-005-005-----0
  6
CONTINUOUS
  5
1C2
 10
312.968396
 20
270.54199
 30
0.0
 11
315.968396
 21
273.54199
 31
0.0
  0
LINE
  8
LC-005-005-----0
  6
CONTINUOUS
  5
1C3
 10
312.968396
 20
273.370417
 30
0.0
 11
315.968396
 21
276.370417
 31
0.0
  0
LINE
  8
LC-005-005-----0
  6
CONTINUOUS
  5
1C4
 10
312.968396
 20
276.198844
 30
0.0
 11
315.968396
 21
279.198844
 31
0.0
  0
LINE
  8
LC-005-005-----0
  6
CONTINUOUS
  5
1C5
 10
312.968396
 20
279.027271
 30
0.0
 11
315.968396
 21
282.027271
 31
0.0
  0
LINE
  8
LC-005-005-----0
  6
CONTINUOUS
  5
1C6
 10
312.968396
 20
281.855698
 30
0.0
 11
315.968396
 21
284.855698
 31
0.0
  0
LINE
  8
LC-005-005-----0
  6
CONTINUOUS
  5
1C7
 10
312.968396
 20
284.684125
 30
0.0
 11
315.968396
 21
287.684125
 31
0.0
  0
LINE
  8
LC-005-005-----0
  6
CONTINUOUS
  5
1C8
 10
312.968396
 20
287.512552
 30
0.0
 11
315.968396
 21
290.512552
 31
0.0
  0
LINE
  8
LC-005-005-----0
  6
CONTINUOUS
  5
1C9
 10
312.968396
 20
290.340979
 30
0.0
 11
315.968396
 21
293.340979
 31
0.0
  0
LINE
  8
LC-005-005-----0
  6
CONTINUOUS
  5
1CA
 10
312.968396
 20
293.169407
 30
0.0
 11
315.968396
 21
296.169407
 31
0.0
  0
LINE
  8
LC-005-005-----0
  6
CONTINUOUS
  5
1CB
 10
312.968396
 20
295.997834
 30
0.0
 11
315.968396
 21
298.997834
 31
0.0
  0
LINE
  8
LC-005-005-----0
  6
CONTINUOUS
  5
1CC
 10
312.968396
 20
298.826261
 30
0.0
 11
315.968396
 21
301.826261
 31
0.0
  0
LINE
  8
LC-005-005-----0
  6
CONTINUOUS
  5
1CD
 10
312.968396
 20
301.654688
 30
0.0
 11
315.968396
 21
304.654688
 31
0.0
  0
LINE
  8
LC-005-005-----0
  6
CONTINUOUS
  5
1CE
 10
312.968396
 20
304.483115
 30
0.0
 11
315.968396
 21
307.483115
 31
0.0
  0
LINE
  8
LC-005-005-----0
  6
CONTINUOUS
  5
1CF
 10
312.968396
 20
307.311542
 30
0.0
 11
315.968396
 21
310.311542
 31
0.0
  0
LINE
  8
LC-005-005-----0
  6
CONTINUOUS
  5
1D0
 10
312.968396
 20
310.139969
 30
0.0
 11
315.968396
 21
313.139969
 31
0.0
  0
LINE
  8
LC-005-005-----0
  6
CONTINUOUS
  5
1D1
 10
312.968396
 20
312.968396
 30
0.0
 11
315.968396
 21
315.968396
 31
0.0
  0
LINE
  8
LC-005-005-----0
  6
CONTINUOUS
  5
1D2
 10
312.968396
 20
315.796824
 30
0.0
 11
315.968396
 21
318.796824
 31
0.0
  0
LINE
  8
LC-005-005-----0
  6
CONTINUOUS
  5
1D3
 10
312.968396
 20
318.625251
 30
0.0
 11
315.968396
 21
321.625251
 31
0.0
  0
LINE
  8
LC-005-005-----0
  6
CONTINUOUS
  5
1D4
 10
312.968396
 20
321.453678
 30
0.0
 11
315.968396
 21
324.453678
 31
0.0
  0
LINE
  8
LC-005-005-----0
  6
CONTINUOUS
  5
1D5
 10
312.968396
 20
324.282105
 30
0.0
 11
315.968396
 21
327.282105
 31
0.0
  0
LINE
  8
LC-005-005-----0
  6
CONTINUOUS
  5
1D6
 10
312.968396
 20
327.110532
 30
0.0
 11
315.968396
 21
330.110532
 31
0.0
  0
LINE
  8
LC-005-005-----0
  6
CONTINUOUS
  5
1D7
 10
312.968396
 20
329.938959
 30
0.0
 11
315.968396
 21
332.938959
 31
0.0
  0
LINE
  8
LC-005-005-----0
  6
CONTINUOUS
  5
1D8
 10
312.968396
 20
332.767386
 30
0.0
 11
315.968396
 21
335.767386
 31
0.0
  0
LINE
  8
LC-005-005-----0
  6
CONTINUOUS
  5
1D9
 10
312.968396
 20
335.595813
 30
0.0
 11
315.968396
 21
338.595813
 31
0.0
  0
LINE
  8
LC-005-005-----0
  6
CONTINUOUS
  5
1DA
 10
312.968396
 20
338.424241
 30
0.0
 11
315.968396
 21
341.424241
 31
0.0
  0
LINE
  8
LC-005-005-----0
  6
CONTINUOUS
  5
1DB
 10
312.968396
 20
341.252668
 30
0.0
 11
315.968396
 21
344.252668
 31
0.0
  0
LINE
  8
LC-005-005-----0
  6
CONTINUOUS
  5
1DC
 10
312.968396
 20
344.081095
 30
0.0
 11
315.968396
 21
347.081095
 31
0.0
  0
LINE
  8
LC-005-005-----0
  6
CONTINUOUS
  5
1DD
 10
312.968396
 20
346.909522
 30
0.0
 11
315.968396
 21
349.909522
 31
0.0
  0
LINE
  8
LC-005-005-----0
  6
CONTINUOUS
  5
1DE
 10
312.968396
 20
349.737949
 30
0.0
 11
315.968396
 21
352.737949
 31
0.0
  0
LINE
  8
LC-005-005-----0
  6
CONTINUOUS
  5
1DF
 10
312.968396
 20
352.566376
 30
0.0
 11
315.968396
 21
355.566376
 31
0.0
  0
LINE
  8
LC-005-005-----0
  6
CONTINUOUS
  5
1E0
 10
312.968396
 20
355.394803
 30
0.0
 11
315.968396
 21
358.394803
 31
0.0
  0
LINE
  8
LC-005-005-----0
  6
CONTINUOUS
  5
1E1
 10
312.968396
 20
358.22323
 30
0.0
 11
315.968396
 21
361.22323
 31
0.0
  0
LINE
  8
LC-005-005-----0
  6
CONTINUOUS
  5
1E2
 10
312.968396
 20
361.051658
 30
0.0
 11
315.968396
 21
364.051658
 31
0.0
  0
LINE
  8
LC-005-005-----0
  6
CONTINUOUS
  5
1E3
 10
312.968396
 20
363.880085
 30
0.0
 11
315.968396
 21
366.880085
 31
0.0
  0
LINE
  8
LC-005-005-----0
  6
CONTINUOUS
  5
1E4
 10
312.968396
 20
366.708512
 30
0.0
 11
315.968396
 21
369.708512
 31
0.0
  0
LINE
  8
LC-005-005-----0
  6
CONTINUOUS
  5
1E5
 10
312.968396
 20
369.536939
 30
0.0
 11
315.968396
 21
372.536939
 31
0.0
  0
LINE
  8
LC-005-005-----0
  6
CONTINUOUS
  5
1E6
 10
312.968396
 20
372.365366
 30
0.0
 11
315.968396
 21
375.365366
 31
0.0
  0
LINE
  8
LC-005-005-----0
  6
CONTINUOUS
  5
1E7
 10
312.968396
 20
375.193793
 30
0.0
 11
315.968396
 21
378.193793
 31
0.0
  0
LINE
  8
LC-005-005-----0
  6
CONTINUOUS
  5
1E8
 10
312.968396
 20
378.02222
 30
0.0
 11
315.968396
 21
381.02222
 31
0.0
  0
LINE
  8
LC-005-005-----0
  6
CONTINUOUS
  5
1E9
 10
310.50125
 20
378.383501
 30
0.0
 11
313.50125
 21
381.383501
 31
0.0
  0
LINE
  8
LC-005-005-----0
  6
CONTINUOUS
  5
1EA
 10
307.672823
 20
378.383501
 30
0.0
 11
310.672823
 21
381.383501
 31
0.0
  0
LINE
  8
LC-005-005-----0
  6
CONTINUOUS
  5
1EB
 10
304.844396
 20
378.383501
 30
0.0
 11
307.844396
 21
381.383501
 31
0.0
  0
LINE
  8
LC-005-005-----0
  6
CONTINUOUS
  5
1EC
 10
302.015969
 20
378.383501
 30
0.0
 11
305.015969
 21
381.383501
 31
0.0
  0
LINE
  8
LC-005-005-----0
  6
CONTINUOUS
  5
1ED
 10
299.187542
 20
378.383501
 30
0.0
 11
302.187542
 21
381.383501
 31
0.0
  0
LINE
  8
LC-005-005-----0
  6
CONTINUOUS
  5
1EE
 10
296.359114
 20
378.383501
 30
0.0
 11
299.359114
 21
381.383501
 31
0.0
  0
LINE
  8
LC-005-005-----0
  6
CONTINUOUS
  5
1EF
 10
293.530687
 20
378.383501
 30
0.0
 11
296.530687
 21
381.383501
 31
0.0
  0
LINE
  8
LC-005-005-----0
  6
CONTINUOUS
  5
1F0
 10
290.70226
 20
378.383501
 30
0.0
 11
293.70226
 21
381.383501
 31
0.0
  0
LINE
  8
LC-005-005-----0
  6
CONTINUOUS
  5
1F1
 10
287.873833
 20
378.383501
 30
0.0
 11
290.873833
 21
381.383501
 31
0.0
  0
LINE
  8
LC-005-005-----0
  6
CONTINUOUS
  5
1F2
 10
285.045406
 20
378.383501
 30
0.0
 11
288.045406
 21
381.383501
 31
0.0
  0
LINE
  8
LC-005-005-----0
  6
CONTINUOUS
  5
1F3
 10
282.216979
 20
378.383501
 30
0.0
 11
285.216979
 21
381.383501
 31
0.0
  0
LINE
  8
LC-005-005-----0
  6
CONTINUOUS
  5
1F4
 10
279.388552
 20
378.383501
 30
0.0
 11
282.388552
 21
381.383501
 31
0.0
  0
LINE
  8
LC-005-005-----0
  6
CONTINUOUS
  5
1F5
 10
276.560125
 20
378.383501
 30
0.0
 11
279.560125
 21
381.383501
 31
0.0
  0
LINE
  8
LC-005-005-----0
  6
CONTINUOUS
  5
1F6
 10
273.731697
 20
378.383501
 30
0.0
 11
276.731697
 21
381.383501
 31
0.0
  0
ENDBLK
  8
0
  5
1F7
  0
BLOCK
  8
0
  5
1F9
  2
*X18
 70
    65
 10
269.818396
 20
173.583175
 30
0.0
  3
*X18
  0
LINE
  8
LC-005-005-----0
  6
CONTINUOUS
  5
1FA
 10
270.543516
 20
174.376993
 30
0.0
 11
271.818396
 21
175.651874
 31
0.0
  0
LINE
  8
LC-005-005-----0
  6
CONTINUOUS
  5
1FB
 10
269.945799
 20
176.607704
 30
0.0
 11
271.818396
 21
178.480301
 31
0.0
  0
LINE
  8
LC-005-005-----0
  6
CONTINUOUS
  5
1FC
 10
269.818396
 20
179.308728
 30
0.0
 11
271.818396
 21
181.308728
 31
0.0
  0
LINE
  8
LC-005-005-----0
  6
CONTINUOUS
  5
1FD
 10
269.818396
 20
182.137156
 30
0.0
 11
271.818396
 21
184.137156
 31
0.0
  0
LINE
  8
LC-005-005-----0
  6
CONTINUOUS
  5
1FE
 10
269.818396
 20
184.965583
 30
0.0
 11
271.818396
 21
186.965583
 31
0.0
  0
LINE
  8
LC-005-005-----0
  6
CONTINUOUS
  5
1FF
 10
269.818396
 20
187.79401
 30
0.0
 11
271.818396
 21
189.79401
 31
0.0
  0
LINE
  8
LC-005-005-----0
  6
CONTINUOUS
  5
200
 10
269.818396
 20
190.622437
 30
0.0
 11
271.818396
 21
192.622437
 31
0.0
  0
LINE
  8
LC-005-005-----0
  6
CONTINUOUS
  5
201
 10
269.818396
 20
193.450864
 30
0.0
 11
271.818396
 21
195.450864
 31
0.0
  0
LINE
  8
LC-005-005-----0
  6
CONTINUOUS
  5
202
 10
269.818396
 20
196.279291
 30
0.0
 11
271.818396
 21
198.279291
 31
0.0
  0
LINE
  8
LC-005-005-----0
  6
CONTINUOUS
  5
203
 10
269.818396
 20
199.107718
 30
0.0
 11
271.818396
 21
201.107718
 31
0.0
  0
LINE
  8
LC-005-005-----0
  6
CONTINUOUS
  5
204
 10
269.818396
 20
201.936145
 30
0.0
 11
271.818396
 21
203.936145
 31
0.0
  0
LINE
  8
LC-005-005-----0
  6
CONTINUOUS
  5
205
 10
269.818396
 20
204.764573
 30
0.0
 11
271.818396
 21
206.764573
 31
0.0
  0
LINE
  8
LC-005-005-----0
  6
CONTINUOUS
  5
206
 10
269.818396
 20
207.593
 30
0.0
 11
271.818396
 21
209.593
 31
0.0
  0
LINE
  8
LC-005-005-----0
  6
CONTINUOUS
  5
207
 10
269.818396
 20
210.421427
 30
0.0
 11
271.818396
 21
212.421427
 31
0.0
  0
LINE
  8
LC-005-005-----0
  6
CONTINUOUS
  5
208
 10
269.818396
 20
213.249854
 30
0.0
 11
271.818396
 21
215.249854
 31
0.0
  0
LINE
  8
LC-005-005-----0
  6
CONTINUOUS
  5
209
 10
269.818396
 20
216.078281
 30
0.0
 11
271.818396
 21
218.078281
 31
0.0
  0
LINE
  8
LC-005-005-----0
  6
CONTINUOUS
  5
20A
 10
269.818396
 20
218.906708
 30
0.0
 11
271.818396
 21
220.906708
 31
0.0
  0
LINE
  8
LC-005-005-----0
  6
CONTINUOUS
  5
20B
 10
269.818396
 20
221.735135
 30
0.0
 11
271.818396
 21
223.735135
 31
0.0
  0
LINE
  8
LC-005-005-----0
  6
CONTINUOUS
  5
20C
 10
269.818396
 20
224.563562
 30
0.0
 11
276.868396
 21
231.613562
 31
0.0
  0
LINE
  8
LC-005-005-----0
  6
CONTINUOUS
  5
20D
 10
274.868396
 20
232.44199
 30
0.0
 11
276.868396
 21
234.44199
 31
0.0
  0
LINE
  8
LC-005-005-----0
  6
CONTINUOUS
  5
20E
 10
274.868396
 20
235.270417
 30
0.0
 11
276.868396
 21
237.270417
 31
0.0
  0
LINE
  8
LC-005-005-----0
  6
CONTINUOUS
  5
20F
 10
273.660645
 20
236.891092
 30
0.0
 11
275.160645
 21
238.391092
 31
0.0
  0
ENDBLK
  8
0
  5
210
  0
BLOCK
  8
0
  5
212
  2
*X19
 70
    65
 10
68.505798
 20
398.278183
 30
0.0
  3
*X19
  0
LINE
  8
LC-005-005-----0
  6
CONTINUOUS
  5
213
 10
70.180637
 20
398.278183
 30
0.0
 11
70.180905
 21
398.278451
 31
0.0
  0
LINE
  8
LC-005-005-----0
  6
CONTINUOUS
  5
214
 10
69.897794
 20
398.278183
 30
0.0
 11
70.180905
 21
398.561294
 31
0.0
  0
LINE
  8
LC-005-005-----0
  6
CONTINUOUS
  5
215
 10
69.614952
 20
398.278183
 30
0.0
 11
70.114952
 21
398.778183
 31
0.0
  0
LINE
  8
LC-005-005-----0
  6
CONTINUOUS
  5
216
 10
69.332109
 20
398.278183
 30
0.0
 11
69.832109
 21
398.778183
 31
0.0
  0
LINE
  8
LC-005-005-----0
  6
CONTINUOUS
  5
217
 10
69.049266
 20
398.278183
 30
0.0
 11
69.549266
 21
398.778183
 31
0.0
  0
LINE
  8
LC-005-005-----0
  6
CONTINUOUS
  5
218
 10
68.766423
 20
398.278183
 30
0.0
 11
69.266423
 21
398.778183
 31
0.0
  0
LINE
  8
LC-005-005-----0
  6
CONTINUOUS
  5
219
 10
68.505798
 20
398.300401
 30
0.0
 11
68.983581
 21
398.778183
 31
0.0
  0
LINE
  8
LC-005-005-----0
  6
CONTINUOUS
  5
21A
 10
68.505798
 20
398.583244
 30
0.0
 11
68.700738
 21
398.778183
 31
0.0
  0
ENDBLK
  8
0
  5
21B
  0
BLOCK
  8
0
  5
21D
  2
*X20
 70
    65
 10
102.180905
 20
398.278183
 30
0.0
  3
*X20
  0
LINE
  8
LC-005-005-----0
  6
CONTINUOUS
  5
21E
 10
103.83892
 20
398.278183
 30
0.0
 11
103.856011
 21
398.295275
 31
0.0
  0
LINE
  8
LC-005-005-----0
  6
CONTINUOUS
  5
21F
 10
103.556077
 20
398.278183
 30
0.0
 11
103.856011
 21
398.578118
 31
0.0
  0
LINE
  8
LC-005-005-----0
  6
CONTINUOUS
  5
220
 10
103.273234
 20
398.278183
 30
0.0
 11
103.773234
 21
398.778183
 31
0.0
  0
LINE
  8
LC-005-005-----0
  6
CONTINUOUS
  5
221
 10
102.990392
 20
398.278183
 30
0.0
 11
103.490392
 21
398.778183
 31
0.0
  0
LINE
  8
LC-005-005-----0
  6
CONTINUOUS
  5
222
 10
102.707549
 20
398.278183
 30
0.0
 11
103.207549
 21
398.778183
 31
0.0
  0
LINE
  8
LC-005-005-----0
  6
CONTINUOUS
  5
223
 10
102.424706
 20
398.278183
 30
0.0
 11
102.924706
 21
398.778183
 31
0.0
  0
LINE
  8
LC-005-005-----0
  6
CONTINUOUS
  5
224
 10
102.180905
 20
398.317225
 30
0.0
 11
102.641863
 21
398.778183
 31
0.0
  0
LINE
  8
LC-005-005-----0
  6
CONTINUOUS
  5
225
 10
102.180905
 20
398.600067
 30
0.0
 11
102.359021
 21
398.778183
 31
0.0
  0
ENDBLK
  8
0
  5
226
  0
BLOCK
  8
0
  5
228
  2
*X21
 70
    65
 10
102.180905
 20
388.278183
 30
0.0
  3
*X21
  0
LINE
  8
LC-005-005-----0
  6
CONTINUOUS
  5
229
 10
103.832917
 20
397.647212
 30
0.0
 11
103.701946
 21
397.778183
 31
0.0
  0
LINE
  8
LC-005-005-----0
  6
CONTINUOUS
  5
22A
 10
103.79052
 20
397.406766
 30
0.0
 11
103.419103
 21
397.778183
 31
0.0
  0
LINE
  8
LC-005-005-----0
  6
CONTINUOUS
  5
22B
 10
103.748123
 20
397.166321
 30
0.0
 11
103.13626
 21
397.778183
 31
0.0
  0
LINE
  8
LC-005-005-----0
  6
CONTINUOUS
  5
22C
 10
103.705726
 20
396.925875
 30
0.0
 11
102.853418
 21
397.778183
 31
0.0
  0
LINE
  8
LC-005-005-----0
  6
CONTINUOUS
  5
22D
 10
103.663329
 20
396.685429
 30
0.0
 11
102.570575
 21
397.778183
 31
0.0
  0
LINE
  8
LC-005-005-----0
  6
CONTINUOUS
  5
22E
 10
103.620932
 20
396.444984
 30
0.0
 11
102.287732
 21
397.778183
 31
0.0
  0
LINE
  8
LC-005-005-----0
  6
CONTINUOUS
  5
22F
 10
103.578535
 20
396.204538
 30
0.0
 11
102.180905
 21
397.602168
 31
0.0
  0
LINE
  8
LC-005-005-----0
  6
CONTINUOUS
  5
230
 10
103.536138
 20
395.964092
 30
0.0
 11
102.180905
 21
397.319325
 31
0.0
  0
LINE
  8
LC-005-005-----0
  6
CONTINUOUS
  5
231
 10
103.493741
 20
395.723647
 30
0.0
 11
102.180905
 21
397.036483
 31
0.0
  0
LINE
  8
LC-005-005-----0
  6
CONTINUOUS
  5
232
 10
103.451344
 20
395.483201
 30
0.0
 11
102.180905
 21
396.75364
 31
0.0
  0
LINE
  8
LC-005-005-----0
  6
CONTINUOUS
  5
233
 10
103.408947
 20
395.242755
 30
0.0
 11
102.180905
 21
396.470797
 31
0.0
  0
LINE
  8
LC-005-005-----0
  6
CONTINUOUS
  5
234
 10
103.36655
 20
395.00231
 30
0.0
 11
102.180905
 21
396.187955
 31
0.0
  0
LINE
  8
LC-005-005-----0
  6
CONTINUOUS
  5
235
 10
103.324153
 20
394.761864
 30
0.0
 11
102.180905
 21
395.905112
 31
0.0
  0
LINE
  8
LC-005-005-----0
  6
CONTINUOUS
  5
236
 10
103.281756
 20
394.521418
 30
0.0
 11
102.180905
 21
395.622269
 31
0.0
  0
LINE
  8
LC-005-005-----0
  6
CONTINUOUS
  5
237
 10
103.239359
 20
394.280973
 30
0.0
 11
102.180905
 21
395.339426
 31
0.0
  0
LINE
  8
LC-005-005-----0
  6
CONTINUOUS
  5
238
 10
103.196961
 20
394.040527
 30
0.0
 11
102.180905
 21
395.056584
 31
0.0
  0
LINE
  8
LC-005-005-----0
  6
CONTINUOUS
  5
239
 10
103.154564
 20
393.800081
 30
0.0
 11
102.180905
 21
394.773741
 31
0.0
  0
LINE
  8
LC-005-005-----0
  6
CONTINUOUS
  5
23A
 10
103.112167
 20
393.559636
 30
0.0
 11
102.180905
 21
394.490898
 31
0.0
  0
LINE
  8
LC-005-005-----0
  6
CONTINUOUS
  5
23B
 10
103.06977
 20
393.31919
 30
0.0
 11
102.180905
 21
394.208056
 31
0.0
  0
LINE
  8
LC-005-005-----0
  6
CONTINUOUS
  5
23C
 10
103.027373
 20
393.078744
 30
0.0
 11
102.180905
 21
393.925213
 31
0.0
  0
LINE
  8
LC-005-005-----0
  6
CONTINUOUS
  5
23D
 10
102.984976
 20
392.838299
 30
0.0
 11
102.180905
 21
393.64237
 31
0.0
  0
LINE
  8
LC-005-005-----0
  6
CONTINUOUS
  5
23E
 10
102.942579
 20
392.597853
 30
0.0
 11
102.180905
 21
393.359527
 31
0.0
  0
LINE
  8
LC-005-005-----0
  6
CONTINUOUS
  5
23F
 10
102.900182
 20
392.357407
 30
0.0
 11
102.180905
 21
393.076685
 31
0.0
  0
LINE
  8
LC-005-005-----0
  6
CONTINUOUS
  5
240
 10
102.857785
 20
392.116962
 30
0.0
 11
102.180905
 21
392.793842
 31
0.0
  0
LINE
  8
LC-005-005-----0
  6
CONTINUOUS
  5
241
 10
102.815388
 20
391.876516
 30
0.0
 11
102.180905
 21
392.510999
 31
0.0
  0
LINE
  8
LC-005-005-----0
  6
CONTINUOUS
  5
242
 10
102.772991
 20
391.636071
 30
0.0
 11
102.180905
 21
392.228157
 31
0.0
  0
LINE
  8
LC-005-005-----0
  6
CONTINUOUS
  5
243
 10
102.730594
 20
391.395625
 30
0.0
 11
102.180905
 21
391.945314
 31
0.0
  0
LINE
  8
LC-005-005-----0
  6
CONTINUOUS
  5
244
 10
102.688197
 20
391.155179
 30
0.0
 11
102.180905
 21
391.662471
 31
0.0
  0
LINE
  8
LC-005-005-----0
  6
CONTINUOUS
  5
245
 10
102.6458
 20
390.914734
 30
0.0
 11
102.180905
 21
391.379628
 31
0.0
  0
LINE
  8
LC-005-005-----0
  6
CONTINUOUS
  5
246
 10
102.603403
 20
390.674288
 30
0.0
 11
102.180905
 21
391.096786
 31
0.0
  0
LINE
  8
LC-005-005-----0
  6
CONTINUOUS
  5
247
 10
102.561006
 20
390.433842
 30
0.0
 11
102.180905
 21
390.813943
 31
0.0
  0
LINE
  8
LC-005-005-----0
  6
CONTINUOUS
  5
248
 10
102.518609
 20
390.193397
 30
0.0
 11
102.180905
 21
390.5311
 31
0.0
  0
LINE
  8
LC-005-005-----0
  6
CONTINUOUS
  5
249
 10
102.476211
 20
389.952951
 30
0.0
 11
102.180905
 21
390.248258
 31
0.0
  0
LINE
  8
LC-005-005-----0
  6
CONTINUOUS
  5
24A
 10
102.433814
 20
389.712505
 30
0.0
 11
102.180905
 21
389.965415
 31
0.0
  0
LINE
  8
LC-005-005-----0
  6
CONTINUOUS
  5
24B
 10
102.391417
 20
389.47206
 30
0.0
 11
102.180905
 21
389.682572
 31
0.0
  0
LINE
  8
LC-005-005-----0
  6
CONTINUOUS
  5
24C
 10
102.34902
 20
389.231614
 30
0.0
 11
102.180905
 21
389.399729
 31
0.0
  0
LINE
  8
LC-005-005-----0
  6
CONTINUOUS
  5
24D
 10
102.306623
 20
388.991168
 30
0.0
 11
102.180905
 21
389.116887
 31
0.0
  0
LINE
  8
LC-005-005-----0
  6
CONTINUOUS
  5
24E
 10
102.264226
 20
388.750723
 30
0.0
 11
102.180905
 21
388.834044
 31
0.0
  0
LINE
  8
LC-005-005-----0
  6
CONTINUOUS
  5
24F
 10
102.221829
 20
388.510277
 30
0.0
 11
102.180905
 21
388.551201
 31
0.0
  0
ENDBLK
  8
0
  5
250
  0
BLOCK
  8
0
  5
252
  2
*X22
 70
    65
 10
68.505798
 20
388.278183
 30
0.0
  3
*X22
  0
LINE
  8
LC-005-005-----0
  6
CONTINUOUS
  5
253
 10
70.180905
 20
397.640942
 30
0.0
 11
70.043663
 21
397.778183
 31
0.0
  0
LINE
  8
LC-005-005-----0
  6
CONTINUOUS
  5
254
 10
70.180905
 20
397.358099
 30
0.0
 11
69.76082
 21
397.778183
 31
0.0
  0
LINE
  8
LC-005-005-----0
  6
CONTINUOUS
  5
255
 10
70.180905
 20
397.075256
 30
0.0
 11
69.477978
 21
397.778183
 31
0.0
  0
LINE
  8
LC-005-005-----0
  6
CONTINUOUS
  5
256
 10
70.180905
 20
396.792414
 30
0.0
 11
69.195135
 21
397.778183
 31
0.0
  0
LINE
  8
LC-005-005-----0
  6
CONTINUOUS
  5
257
 10
70.180905
 20
396.509571
 30
0.0
 11
68.912292
 21
397.778183
 31
0.0
  0
LINE
  8
LC-005-005-----0
  6
CONTINUOUS
  5
258
 10
70.180905
 20
396.226728
 30
0.0
 11
68.629449
 21
397.778183
 31
0.0
  0
LINE
  8
LC-005-005-----0
  6
CONTINUOUS
  5
259
 10
70.180905
 20
395.943885
 30
0.0
 11
68.539877
 21
397.584913
 31
0.0
  0
LINE
  8
LC-005-005-----0
  6
CONTINUOUS
  5
25A
 10
70.180905
 20
395.661043
 30
0.0
 11
68.600427
 21
397.241521
 31
0.0
  0
LINE
  8
LC-005-005-----0
  6
CONTINUOUS
  5
25B
 10
70.180905
 20
395.3782
 30
0.0
 11
68.660976
 21
396.898129
 31
0.0
  0
LINE
  8
LC-005-005-----0
  6
CONTINUOUS
  5
25C
 10
70.180905
 20
395.095357
 30
0.0
 11
68.721525
 21
396.554737
 31
0.0
  0
LINE
  8
LC-005-005-----0
  6
CONTINUOUS
  5
25D
 10
70.180905
 20
394.812515
 30
0.0
 11
68.782074
 21
396.211345
 31
0.0
  0
LINE
  8
LC-005-005-----0
  6
CONTINUOUS
  5
25E
 10
70.180905
 20
394.529672
 30
0.0
 11
68.842624
 21
395.867953
 31
0.0
  0
LINE
  8
LC-005-005-----0
  6
CONTINUOUS
  5
25F
 10
70.180905
 20
394.246829
 30
0.0
 11
68.903173
 21
395.524561
 31
0.0
  0
LINE
  8
LC-005-005-----0
  6
CONTINUOUS
  5
260
 10
70.180905
 20
393.963986
 30
0.0
 11
68.963722
 21
395.181169
 31
0.0
  0
LINE
  8
LC-005-005-----0
  6
CONTINUOUS
  5
261
 10
70.180905
 20
393.681144
 30
0.0
 11
69.024271
 21
394.837777
 31
0.0
  0
LINE
  8
LC-005-005-----0
  6
CONTINUOUS
  5
262
 10
70.180905
 20
393.398301
 30
0.0
 11
69.084821
 21
394.494385
 31
0.0
  0
LINE
  8
LC-005-005-----0
  6
CONTINUOUS
  5
263
 10
70.180905
 20
393.115458
 30
0.0
 11
69.14537
 21
394.150993
 31
0.0
  0
LINE
  8
LC-005-005-----0
  6
CONTINUOUS
  5
264
 10
70.180905
 20
392.832616
 30
0.0
 11
69.205919
 21
393.807601
 31
0.0
  0
LINE
  8
LC-005-005-----0
  6
CONTINUOUS
  5
265
 10
70.180905
 20
392.549773
 30
0.0
 11
69.266469
 21
393.464209
 31
0.0
  0
LINE
  8
LC-005-005-----0
  6
CONTINUOUS
  5
266
 10
70.180905
 20
392.26693
 30
0.0
 11
69.327018
 21
393.120817
 31
0.0
  0
LINE
  8
LC-005-005-----0
  6
CONTINUOUS
  5
267
 10
70.180905
 20
391.984087
 30
0.0
 11
69.387567
 21
392.777425
 31
0.0
  0
LINE
  8
LC-005-005-----0
  6
CONTINUOUS
  5
268
 10
70.180905
 20
391.701245
 30
0.0
 11
69.448116
 21
392.434033
 31
0.0
  0
LINE
  8
LC-005-005-----0
  6
CONTINUOUS
  5
269
 10
70.180905
 20
391.418402
 30
0.0
 11
69.508666
 21
392.090641
 31
0.0
  0
LINE
  8
LC-005-005-----0
  6
CONTINUOUS
  5
26A
 10
70.180905
 20
391.135559
 30
0.0
 11
69.569215
 21
391.747249
 31
0.0
  0
LINE
  8
LC-005-005-----0
  6
CONTINUOUS
  5
26B
 10
70.180905
 20
390.852717
 30
0.0
 11
69.629764
 21
391.403857
 31
0.0
  0
LINE
  8
LC-005-005-----0
  6
CONTINUOUS
  5
26C
 10
70.180905
 20
390.569874
 30
0.0
 11
69.690313
 21
391.060465
 31
0.0
  0
LINE
  8
LC-005-005-----0
  6
CONTINUOUS
  5
26D
 10
70.180905
 20
390.287031
 30
0.0
 11
69.750863
 21
390.717073
 31
0.0
  0
LINE
  8
LC-005-005-----0
  6
CONTINUOUS
  5
26E
 10
70.180905
 20
390.004188
 30
0.0
 11
69.811412
 21
390.373681
 31
0.0
  0
LINE
  8
LC-005-005-----0
  6
CONTINUOUS
  5
26F
 10
70.180905
 20
389.721346
 30
0.0
 11
69.871961
 21
390.030289
 31
0.0
  0
LINE
  8
LC-005-005-----0
  6
CONTINUOUS
  5
270
 10
70.180905
 20
389.438503
 30
0.0
 11
69.932511
 21
389.686897
 31
0.0
  0
LINE
  8
LC-005-005-----0
  6
CONTINUOUS
  5
271
 10
70.180905
 20
389.15566
 30
0.0
 11
69.99306
 21
389.343505
 31
0.0
  0
LINE
  8
LC-005-005-----0
  6
CONTINUOUS
  5
272
 10
70.180905
 20
388.872818
 30
0.0
 11
70.053609
 21
389.000113
 31
0.0
  0
LINE
  8
LC-005-005-----0
  6
CONTINUOUS
  5
273
 10
70.180905
 20
388.589975
 30
0.0
 11
70.114158
 21
388.656721
 31
0.0
  0
LINE
  8
LC-005-005-----0
  6
CONTINUOUS
  5
274
 10
70.180905
 20
388.307132
 30
0.0
 11
70.174708
 21
388.313329
 31
0.0
  0
ENDBLK
  8
0
  5
275
  0
BLOCK
  8
0
  5
277
  2
*X23
 70
    65
 10
61.180905
 20
387.278183
 30
0.0
  3
*X23
  0
LINE
  8
LC-005-005-----0
  6
CONTINUOUS
  5
278
 10
64.837491
 20
387.278183
 30
0.0
 11
65.180905
 21
387.621597
 31
0.0
  0
LINE
  8
LC-005-005-----0
  6
CONTINUOUS
  5
279
 10
62.009064
 20
387.278183
 30
0.0
 11
65.180905
 21
390.450024
 31
0.0
  0
LINE
  8
LC-005-005-----0
  6
CONTINUOUS
  5
27A
 10
61.180905
 20
389.278451
 30
0.0
 11
61.680637
 21
389.778183
 31
0.0
  0
LINE
  8
LC-005-005-----0
  6
CONTINUOUS
  5
27B
 10
63.180905
 20
391.278451
 30
0.0
 11
65.180905
 21
393.278451
 31
0.0
  0
LINE
  8
LC-005-005-----0
  6
CONTINUOUS
  5
27C
 10
63.180905
 20
394.106878
 30
0.0
 11
65.180905
 21
396.106878
 31
0.0
  0
LINE
  8
LC-005-005-----0
  6
CONTINUOUS
  5
27D
 10
68.35221
 20
399.278183
 30
0.0
 11
70.011317
 21
400.937291
 31
0.0
  0
LINE
  8
LC-005-005-----0
  6
CONTINUOUS
  5
27E
 10
63.180905
 20
396.935306
 30
0.0
 11
65.180905
 21
398.935306
 31
0.0
  0
LINE
  8
LC-005-005-----0
  6
CONTINUOUS
  5
27F
 10
65.523783
 20
399.278183
 30
0.0
 11
69.140977
 21
402.895378
 31
0.0
  0
LINE
  8
LC-005-005-----0
  6
CONTINUOUS
  5
280
 10
63.180905
 20
399.763733
 30
0.0
 11
67.190263
 21
403.773091
 31
0.0
  0
ENDBLK
  8
0
  5
281
  0
BLOCK
  8
0
  5
283
  2
*X24
 70
    65
 10
212.035659
 20
387.834011
 30
0.0
  3
*X24
  0
LINE
  8
LC-005-005-----0
  6
CONTINUOUS
  5
284
 10
215.299956
 20
387.834011
 30
0.0
 11
216.299956
 21
388.834011
 31
0.0
  0
LINE
  8
LC-005-005-----0
  6
CONTINUOUS
  5
285
 10
212.471529
 20
387.834011
 30
0.0
 11
213.471529
 21
388.834011
 31
0.0
  0
ENDBLK
  8
0
  5
286
  0
BLOCK
  8
0
  5
288
  2
*X25
 70
    65
 10
212.035659
 20
313.834011
 30
0.0
  3
*X25
  0
LINE
  8
LC-005-005-----0
  6
CONTINUOUS
  5
289
 10
214.839062
 20
313.834011
 30
0.0
 11
215.839062
 21
314.834011
 31
0.0
  0
LINE
  8
LC-005-005-----0
  6
CONTINUOUS
  5
28A
 10
212.035659
 20
313.859035
 30
0.0
 11
213.010635
 21
314.834011
 31
0.0
  0
ENDBLK
  8
0
  5
28B
  0
BLOCK
  8
0
  5
28D
  2
*X26
 70
    65
 10
102.370773
 20
459.904095
 30
0.0
  3
*X26
  0
LINE
  8
LC-005-005-----0
  6
CONTINUOUS
  5
28E
 10
106.354407
 20
459.907797
 30
0.0
 11
109.201705
 21
462.755096
 31
0.0
  0
LINE
  8
LC-005-005-----0
  6
CONTINUOUS
  5
28F
 10
103.904832
 20
460.28665
 30
0.0
 11
109.205407
 21
465.587225
 31
0.0
  0
LINE
  8
LC-005-005-----0
  6
CONTINUOUS
  5
290
 10
102.583727
 20
461.793971
 30
0.0
 11
105.19385
 21
464.404095
 31
0.0
  0
LINE
  8
LC-005-005-----0
  6
CONTINUOUS
  5
291
 10
107.205407
 20
466.415652
 30
0.0
 11
109.205407
 21
468.415652
 31
0.0
  0
LINE
  8
LC-005-005-----0
  6
CONTINUOUS
  5
292
 10
107.205407
 20
469.244079
 30
0.0
 11
109.205407
 21
471.244079
 31
0.0
  0
LINE
  8
LC-005-005-----0
  6
CONTINUOUS
  5
293
 10
107.205407
 20
472.072506
 30
0.0
 11
111.205407
 21
476.072506
 31
0.0
  0
LINE
  8
LC-005-005-----0
  6
CONTINUOUS
  5
294
 10
107.205407
 20
474.900934
 30
0.0
 11
108.708569
 21
476.404095
 31
0.0
  0
ENDBLK
  8
0
  5
295
  0
BLOCK
  8
0
  5
297
  2
BLK3
 70
    64
 10
0.0
 20
0.0
 30
0.0
  3
BLK3
  0
ENDBLK
  8
0
  5
298
  0
BLOCK
  8
0
  5
29A
  2
BLK4
 70
    64
 10
0.0
 20
0.0
 30
0.0
  3
BLK4
  0
ENDBLK
  8
0
  5
29B
  0
BLOCK
  8
0
  5
29D
  2
BLK5
 70
    64
 10
0.0
 20
0.0
 30
0.0
  3
BLK5
  0
ENDBLK
  8
0
  5
29E
  0
BLOCK
  8
0
  5
2A0
  2
BLK6
 70
    64
 10
0.0
 20
0.0
 30
0.0
  3
BLK6
  0
ENDBLK
  8
0
  5
2A1
  0
BLOCK
  8
0
  5
2A3
  2
BLK7
 70
    64
 10
0.0
 20
0.0
 30
0.0
  3
BLK7
  0
ENDBLK
  8
0
  5
2A4
  0
BLOCK
  8
0
  5
2A6
  2
*X32
 70
    65
 10
68.505798
 20
467.539598
 30
0.0
  3
*X32
  0
LINE
  8
LC-005-005-----0
  6
CONTINUOUS
  5
2A7
 10
71.5598
 20
467.539598
 30
0.0
 11
72.0598
 21
468.039598
 31
0.0
  0
LINE
  8
LC-005-005-----0
  6
CONTINUOUS
  5
2A8
 10
70.145587
 20
467.539598
 30
0.0
 11
70.645587
 21
468.039598
 31
0.0
  0
LINE
  8
LC-005-005-----0
  6
CONTINUOUS
  5
2A9
 10
68.731373
 20
467.539598
 30
0.0
 11
69.231373
 21
468.039598
 31
0.0
  0
ENDBLK
  8
0
  5
2AA
  0
BLOCK
  8
0
  5
2AC
  2
*X33
 70
    65
 10
99.930905
 20
467.539598
 30
0.0
  3
*X33
  0
LINE
  8
LC-005-005-----0
  6
CONTINUOUS
  5
2AD
 10
102.672499
 20
467.539598
 30
0.0
 11
103.172499
 21
468.039598
 31
0.0
  0
LINE
  8
LC-005-005-----0
  6
CONTINUOUS
  5
2AE
 10
101.258285
 20
467.539598
 30
0.0
 11
101.758285
 21
468.039598
 31
0.0
  0
LINE
  8
LC-005-005-----0
  6
CONTINUOUS
  5
2AF
 10
99.936947
 20
467.632473
 30
0.0
 11
100.344072
 21
468.039598
 31
0.0
  0
ENDBLK
  8
0
  5
2B0
  0
BLOCK
  8
0
  5
2B2
  2
BLK8
 70
    64
 10
0.0
 20
0.0
 30
0.0
  3
BLK8
  0
ENDBLK
  8
0
  5
2B3
  0
BLOCK
  8
0
  5
2B5
  2
BLK9
 70
    64
 10
0.0
 20
0.0
 30
0.0
  3
BLK9
  0
ENDBLK
  8
0
  5
2B6
  0
BLOCK
  8
0
  5
2B8
  2
*X36
 70
    65
 10
61.205407
 20
459.904095
 30
0.0
  3
*X36
  0
LINE
  8
LC-005-005-----0
  6
CONTINUOUS
  5
2B9
 10
66.752725
 20
459.904095
 30
0.0
 11
70.040042
 21
463.191412
 31
0.0
  0
LINE
  8
LC-005-005-----0
  6
CONTINUOUS
  5
2BA
 10
64.474207
 20
460.454004
 30
0.0
 11
68.424297
 21
464.404095
 31
0.0
  0
LINE
  8
LC-005-005-----0
  6
CONTINUOUS
  5
2BB
 10
63.310133
 20
462.118357
 30
0.0
 11
65.59587
 21
464.404095
 31
0.0
  0
LINE
  8
LC-005-005-----0
  6
CONTINUOUS
  5
2BC
 10
63.205407
 20
464.842059
 30
0.0
 11
65.205407
 21
466.842059
 31
0.0
  0
LINE
  8
LC-005-005-----0
  6
CONTINUOUS
  5
2BD
 10
63.205407
 20
467.670486
 30
0.0
 11
65.205407
 21
469.670486
 31
0.0
  0
LINE
  8
LC-005-005-----0
  6
CONTINUOUS
  5
2BE
 10
63.205407
 20
470.498913
 30
0.0
 11
65.205407
 21
472.498913
 31
0.0
  0
LINE
  8
LC-005-005-----0
  6
CONTINUOUS
  5
2BF
 10
63.205407
 20
473.32734
 30
0.0
 11
65.205407
 21
475.32734
 31
0.0
  0
LINE
  8
LC-005-005-----0
  6
CONTINUOUS
  5
2C0
 10
61.205407
 20
474.155768
 30
0.0
 11
63.453735
 21
476.404095
 31
0.0
  0
ENDBLK
  8
0
  5
2C1
  0
BLOCK
  8
0
  5
2C3
  2
*X37
 70
    65
 10
102.34627
 20
387.278183
 30
0.0
  3
*X37
  0
LINE
  8
LC-005-005-----0
  6
CONTINUOUS
  5
2C4
 10
110.092325
 20
387.278183
 30
0.0
 11
111.180905
 21
388.366763
 31
0.0
  0
LINE
  8
LC-005-005-----0
  6
CONTINUOUS
  5
2C5
 10
107.263898
 20
387.278183
 30
0.0
 11
109.763898
 21
389.778183
 31
0.0
  0
LINE
  8
LC-005-005-----0
  6
CONTINUOUS
  5
2C6
 10
107.180905
 20
390.023617
 30
0.0
 11
109.180905
 21
392.023617
 31
0.0
  0
LINE
  8
LC-005-005-----0
  6
CONTINUOUS
  5
2C7
 10
107.180905
 20
392.852044
 30
0.0
 11
109.180905
 21
394.852044
 31
0.0
  0
LINE
  8
LC-005-005-----0
  6
CONTINUOUS
  5
2C8
 10
107.180905
 20
395.680472
 30
0.0
 11
109.180905
 21
397.680472
 31
0.0
  0
LINE
  8
LC-005-005-----0
  6
CONTINUOUS
  5
2C9
 10
107.180905
 20
398.508899
 30
0.0
 11
109.180905
 21
400.508899
 31
0.0
  0
LINE
  8
LC-005-005-----0
  6
CONTINUOUS
  5
2CA
 10
105.121762
 20
399.278183
 30
0.0
 11
108.51117
 21
402.667591
 31
0.0
  0
LINE
  8
LC-005-005-----0
  6
CONTINUOUS
  5
2CB
 10
102.34627
 20
399.331118
 30
0.0
 11
106.740653
 21
403.725501
 31
0.0
  0
ENDBLK
  8
0
  5
2CC
  0
BLOCK
  8
0
  5
2CE
  2
*X38
 70
    65
 10
99.930905
 20
435.676875
 30
0.0
  3
*X38
  0
LINE
  8
LC-005-005-----0
  6
CONTINUOUS
  5
2CF
 10
101.922474
 20
435.676875
 30
0.0
 11
101.930905
 21
435.685306
 31
0.0
  0
LINE
  8
LC-005-005-----0
  6
CONTINUOUS
  5
2D0
 10
99.930905
 20
436.513733
 30
0.0
 11
101.930905
 21
438.513733
 31
0.0
  0
LINE
  8
LC-005-005-----0
  6
CONTINUOUS
  5
2D1
 10
99.930905
 20
439.34216
 30
0.0
 11
101.930905
 21
441.34216
 31
0.0
  0
LINE
  8
LC-005-005-----0
  6
CONTINUOUS
  5
2D2
 10
99.930905
 20
442.170587
 30
0.0
 11
101.930905
 21
444.170587
 31
0.0
  0
LINE
  8
LC-005-005-----0
  6
CONTINUOUS
  5
2D3
 10
99.930905
 20
444.999014
 30
0.0
 11
101.930905
 21
446.999014
 31
0.0
  0
LINE
  8
LC-005-005-----0
  6
CONTINUOUS
  5
2D4
 10
99.930905
 20
447.827441
 30
0.0
 11
101.930905
 21
449.827441
 31
0.0
  0
LINE
  8
LC-005-005-----0
  6
CONTINUOUS
  5
2D5
 10
99.930905
 20
450.655868
 30
0.0
 11
101.930905
 21
452.655868
 31
0.0
  0
LINE
  8
LC-005-005-----0
  6
CONTINUOUS
  5
2D6
 10
99.930905
 20
453.484295
 30
0.0
 11
101.930905
 21
455.484295
 31
0.0
  0
LINE
  8
LC-005-005-----0
  6
CONTINUOUS
  5
2D7
 10
99.930905
 20
456.312723
 30
0.0
 11
101.930905
 21
458.312723
 31
0.0
  0
LINE
  8
LC-005-005-----0
  6
CONTINUOUS
  5
2D8
 10
99.930905
 20
459.14115
 30
0.0
 11
101.930905
 21
461.14115
 31
0.0
  0
LINE
  8
LC-005-005-----0
  6
CONTINUOUS
  5
2D9
 10
99.930905
 20
461.969577
 30
0.0
 11
101.930905
 21
463.969577
 31
0.0
  0
LINE
  8
LC-005-005-----0
  6
CONTINUOUS
  5
2DA
 10
102.851427
 20
464.890099
 30
0.0
 11
105.351427
 21
467.390099
 31
0.0
  0
LINE
  8
LC-005-005-----0
  6
CONTINUOUS
  5
2DB
 10
99.930905
 20
464.798004
 30
0.0
 11
102.523
 21
467.390099
 31
0.0
  0
ENDBLK
  8
0
  5
2DC
  0
BLOCK
  8
0
  5
2DE
  2
*X39
 70
    65
 10
66.930905
 20
435.676875
 30
0.0
  3
*X39
  0
LINE
  8
LC-005-005-----0
  6
CONTINUOUS
  5
2DF
 10
70.809776
 20
435.676875
 30
0.0
 11
72.430905
 21
437.298004
 31
0.0
  0
LINE
  8
LC-005-005-----0
  6
CONTINUOUS
  5
2E0
 10
70.430905
 20
438.126431
 30
0.0
 11
72.430905
 21
440.126431
 31
0.0
  0
LINE
  8
LC-005-005-----0
  6
CONTINUOUS
  5
2E1
 10
70.430905
 20
440.954858
 30
0.0
 11
72.430905
 21
442.954858
 31
0.0
  0
LINE
  8
LC-005-005-----0
  6
CONTINUOUS
  5
2E2
 10
70.430905
 20
443.783285
 30
0.0
 11
72.430905
 21
445.783285
 31
0.0
  0
LINE
  8
LC-005-005-----0
  6
CONTINUOUS
  5
2E3
 10
70.430905
 20
446.611712
 30
0.0
 11
72.430905
 21
448.611712
 31
0.0
  0
LINE
  8
LC-005-005-----0
  6
CONTINUOUS
  5
2E4
 10
70.430905
 20
449.44014
 30
0.0
 11
72.430905
 21
451.44014
 31
0.0
  0
LINE
  8
LC-005-005-----0
  6
CONTINUOUS
  5
2E5
 10
70.430905
 20
452.268567
 30
0.0
 11
72.430905
 21
454.268567
 31
0.0
  0
LINE
  8
LC-005-005-----0
  6
CONTINUOUS
  5
2E6
 10
70.430905
 20
455.096994
 30
0.0
 11
72.430905
 21
457.096994
 31
0.0
  0
LINE
  8
LC-005-005-----0
  6
CONTINUOUS
  5
2E7
 10
70.430905
 20
457.925421
 30
0.0
 11
72.430905
 21
459.925421
 31
0.0
  0
LINE
  8
LC-005-005-----0
  6
CONTINUOUS
  5
2E8
 10
70.430905
 20
460.753848
 30
0.0
 11
72.430905
 21
462.753848
 31
0.0
  0
LINE
  8
LC-005-005-----0
  6
CONTINUOUS
  5
2E9
 10
70.430905
 20
463.582275
 30
0.0
 11
72.430905
 21
465.582275
 31
0.0
  0
LINE
  8
LC-005-005-----0
  6
CONTINUOUS
  5
2EA
 10
68.910301
 20
464.890099
 30
0.0
 11
71.410301
 21
467.390099
 31
0.0
  0
LINE
  8
LC-005-005-----0
  6
CONTINUOUS
  5
2EB
 10
66.930905
 20
465.739129
 30
0.0
 11
68.581874
 21
467.390099
 31
0.0
  0
ENDBLK
  8
0
  5
2EC
  0
BLOCK
  8
0
  5
2EE
  2
*X40
 70
    65
 10
99.930905
 20
370.904817
 30
0.0
  3
*X40
  0
LINE
  8
LC-005-005-----0
  6
CONTINUOUS
  5
2EF
 10
99.930905
 20
371.459909
 30
0.0
 11
101.930905
 21
373.459909
 31
0.0
  0
LINE
  8
LC-005-005-----0
  6
CONTINUOUS
  5
2F0
 10
99.930905
 20
374.288336
 30
0.0
 11
101.930905
 21
376.288336
 31
0.0
  0
LINE
  8
LC-005-005-----0
  6
CONTINUOUS
  5
2F1
 10
99.930905
 20
377.116763
 30
0.0
 11
101.930905
 21
379.116763
 31
0.0
  0
LINE
  8
LC-005-005-----0
  6
CONTINUOUS
  5
2F2
 10
99.930905
 20
379.94519
 30
0.0
 11
101.930905
 21
381.94519
 31
0.0
  0
LINE
  8
LC-005-005-----0
  6
CONTINUOUS
  5
2F3
 10
99.930905
 20
382.773617
 30
0.0
 11
101.930905
 21
384.773617
 31
0.0
  0
LINE
  8
LC-005-005-----0
  6
CONTINUOUS
  5
2F4
 10
99.930905
 20
385.602044
 30
0.0
 11
101.930905
 21
387.602044
 31
0.0
  0
LINE
  8
LC-005-005-----0
  6
CONTINUOUS
  5
2F5
 10
99.930905
 20
388.430472
 30
0.0
 11
101.930905
 21
390.430472
 31
0.0
  0
LINE
  8
LC-005-005-----0
  6
CONTINUOUS
  5
2F6
 10
99.930905
 20
391.258899
 30
0.0
 11
101.930905
 21
393.258899
 31
0.0
  0
LINE
  8
LC-005-005-----0
  6
CONTINUOUS
  5
2F7
 10
99.930905
 20
394.087326
 30
0.0
 11
101.930905
 21
396.087326
 31
0.0
  0
LINE
  8
LC-005-005-----0
  6
CONTINUOUS
  5
2F8
 10
99.930905
 20
396.915753
 30
0.0
 11
101.930905
 21
398.915753
 31
0.0
  0
LINE
  8
LC-005-005-----0
  6
CONTINUOUS
  5
2F9
 10
99.930905
 20
399.74418
 30
0.0
 11
101.930905
 21
401.74418
 31
0.0
  0
LINE
  8
LC-005-005-----0
  6
CONTINUOUS
  5
2FA
 10
99.930905
 20
402.572607
 30
0.0
 11
101.930905
 21
404.572607
 31
0.0
  0
LINE
  8
LC-005-005-----0
  6
CONTINUOUS
  5
2FB
 10
99.930905
 20
405.401034
 30
0.0
 11
101.930905
 21
407.401034
 31
0.0
  0
LINE
  8
LC-005-005-----0
  6
CONTINUOUS
  5
2FC
 10
99.930905
 20
408.229461
 30
0.0
 11
101.930905
 21
410.229461
 31
0.0
  0
LINE
  8
LC-005-005-----0
  6
CONTINUOUS
  5
2FD
 10
99.930905
 20
411.057889
 30
0.0
 11
101.930905
 21
413.057889
 31
0.0
  0
LINE
  8
LC-005-005-----0
  6
CONTINUOUS
  5
2FE
 10
99.930905
 20
413.886316
 30
0.0
 11
101.930905
 21
415.886316
 31
0.0
  0
LINE
  8
LC-005-005-----0
  6
CONTINUOUS
  5
2FF
 10
99.930905
 20
416.714743
 30
0.0
 11
101.930905
 21
418.714743
 31
0.0
  0
LINE
  8
LC-005-005-----0
  6
CONTINUOUS
  5
300
 10
99.930905
 20
419.54317
 30
0.0
 11
101.930905
 21
421.54317
 31
0.0
  0
LINE
  8
LC-005-005-----0
  6
CONTINUOUS
  5
301
 10
99.930905
 20
422.371597
 30
0.0
 11
101.930905
 21
424.371597
 31
0.0
  0
LINE
  8
LC-005-005-----0
  6
CONTINUOUS
  5
302
 10
99.930905
 20
425.200024
 30
0.0
 11
101.930905
 21
427.200024
 31
0.0
  0
LINE
  8
LC-005-005-----0
  6
CONTINUOUS
  5
303
 10
99.930905
 20
428.028451
 30
0.0
 11
101.930905
 21
430.028451
 31
0.0
  0
LINE
  8
LC-005-005-----0
  6
CONTINUOUS
  5
304
 10
99.930905
 20
430.856878
 30
0.0
 11
101.930905
 21
432.856878
 31
0.0
  0
LINE
  8
LC-005-005-----0
  6
CONTINUOUS
  5
305
 10
99.930905
 20
433.685306
 30
0.0
 11
100.922474
 21
434.676875
 31
0.0
  0
ENDBLK
  8
0
  5
306
  0
BLOCK
  8
0
  5
308
  2
*X41
 70
    65
 10
70.430905
 20
370.904817
 30
0.0
  3
*X41
  0
LINE
  8
LC-005-005-----0
  6
CONTINUOUS
  5
309
 10
71.091542
 20
370.904817
 30
0.0
 11
72.430905
 21
372.24418
 31
0.0
  0
LINE
  8
LC-005-005-----0
  6
CONTINUOUS
  5
30A
 10
70.430905
 20
373.072607
 30
0.0
 11
72.430905
 21
375.072607
 31
0.0
  0
LINE
  8
LC-005-005-----0
  6
CONTINUOUS
  5
30B
 10
70.430905
 20
375.901034
 30
0.0
 11
72.430905
 21
377.901034
 31
0.0
  0
LINE
  8
LC-005-005-----0
  6
CONTINUOUS
  5
30C
 10
70.430905
 20
378.729461
 30
0.0
 11
72.430905
 21
380.729461
 31
0.0
  0
LINE
  8
LC-005-005-----0
  6
CONTINUOUS
  5
30D
 10
70.430905
 20
381.557889
 30
0.0
 11
72.430905
 21
383.557889
 31
0.0
  0
LINE
  8
LC-005-005-----0
  6
CONTINUOUS
  5
30E
 10
70.430905
 20
384.386316
 30
0.0
 11
72.430905
 21
386.386316
 31
0.0
  0
LINE
  8
LC-005-005-----0
  6
CONTINUOUS
  5
30F
 10
70.430905
 20
387.214743
 30
0.0
 11
72.430905
 21
389.214743
 31
0.0
  0
LINE
  8
LC-005-005-----0
  6
CONTINUOUS
  5
310
 10
70.430905
 20
390.04317
 30
0.0
 11
72.430905
 21
392.04317
 31
0.0
  0
LINE
  8
LC-005-005-----0
  6
CONTINUOUS
  5
311
 10
70.430905
 20
392.871597
 30
0.0
 11
72.430905
 21
394.871597
 31
0.0
  0
LINE
  8
LC-005-005-----0
  6
CONTINUOUS
  5
312
 10
70.430905
 20
395.700024
 30
0.0
 11
72.430905
 21
397.700024
 31
0.0
  0
LINE
  8
LC-005-005-----0
  6
CONTINUOUS
  5
313
 10
70.430905
 20
398.528451
 30
0.0
 11
72.430905
 21
400.528451
 31
0.0
  0
LINE
  8
LC-005-005-----0
  6
CONTINUOUS
  5
314
 10
70.430905
 20
401.356878
 30
0.0
 11
72.430905
 21
403.356878
 31
0.0
  0
LINE
  8
LC-005-005-----0
  6
CONTINUOUS
  5
315
 10
70.430905
 20
404.185306
 30
0.0
 11
72.430905
 21
406.185306
 31
0.0
  0
LINE
  8
LC-005-005-----0
  6
CONTINUOUS
  5
316
 10
70.430905
 20
407.013733
 30
0.0
 11
72.430905
 21
409.013733
 31
0.0
  0
LINE
  8
LC-005-005-----0
  6
CONTINUOUS
  5
317
 10
70.430905
 20
409.84216
 30
0.0
 11
72.430905
 21
411.84216
 31
0.0
  0
LINE
  8
LC-005-005-----0
  6
CONTINUOUS
  5
318
 10
70.430905
 20
412.670587
 30
0.0
 11
72.430905
 21
414.670587
 31
0.0
  0
LINE
  8
LC-005-005-----0
  6
CONTINUOUS
  5
319
 10
70.430905
 20
415.499014
 30
0.0
 11
72.430905
 21
417.499014
 31
0.0
  0
LINE
  8
LC-005-005-----0
  6
CONTINUOUS
  5
31A
 10
70.430905
 20
418.327441
 30
0.0
 11
72.430905
 21
420.327441
 31
0.0
  0
LINE
  8
LC-005-005-----0
  6
CONTINUOUS
  5
31B
 10
70.430905
 20
421.155868
 30
0.0
 11
72.430905
 21
423.155868
 31
0.0
  0
LINE
  8
LC-005-005-----0
  6
CONTINUOUS
  5
31C
 10
70.430905
 20
423.984295
 30
0.0
 11
72.430905
 21
425.984295
 31
0.0
  0
LINE
  8
LC-005-005-----0
  6
CONTINUOUS
  5
31D
 10
70.430905
 20
426.812723
 30
0.0
 11
72.430905
 21
428.812723
 31
0.0
  0
LINE
  8
LC-005-005-----0
  6
CONTINUOUS
  5
31E
 10
70.430905
 20
429.64115
 30
0.0
 11
72.430905
 21
431.64115
 31
0.0
  0
LINE
  8
LC-005-005-----0
  6
CONTINUOUS
  5
31F
 10
70.430905
 20
432.469577
 30
0.0
 11
72.430905
 21
434.469577
 31
0.0
  0
ENDBLK
  8
0
  5
320
  0
BLOCK
  8
0
  5
322
  2
*X42
 70
    65
 10
68.180905
 20
335.278183
 30
0.0
  3
*X42
  0
LINE
  8
LC-005-005-----0
  6
CONTINUOUS
  5
323
 10
150.428861
 20
336.060604
 30
0.0
 11
149.211282
 21
337.278183
 31
0.0
  0
LINE
  8
LC-005-005-----0
  6
CONTINUOUS
  5
324
 10
148.382855
 20
335.278183
 30
0.0
 11
146.382855
 21
337.278183
 31
0.0
  0
LINE
  8
LC-005-005-----0
  6
CONTINUOUS
  5
325
 10
145.554428
 20
335.278183
 30
0.0
 11
143.554428
 21
337.278183
 31
0.0
  0
LINE
  8
LC-005-005-----0
  6
CONTINUOUS
  5
326
 10
142.726001
 20
335.278183
 30
0.0
 11
140.726001
 21
337.278183
 31
0.0
  0
LINE
  8
LC-005-005-----0
  6
CONTINUOUS
  5
327
 10
139.897574
 20
335.278183
 30
0.0
 11
137.897574
 21
337.278183
 31
0.0
  0
LINE
  8
LC-005-005-----0
  6
CONTINUOUS
  5
328
 10
137.069146
 20
335.278183
 30
0.0
 11
135.069146
 21
337.278183
 31
0.0
  0
LINE
  8
LC-005-005-----0
  6
CONTINUOUS
  5
329
 10
134.240719
 20
335.278183
 30
0.0
 11
132.240719
 21
337.278183
 31
0.0
  0
LINE
  8
LC-005-005-----0
  6
CONTINUOUS
  5
32A
 10
131.412292
 20
335.278183
 30
0.0
 11
129.412292
 21
337.278183
 31
0.0
  0
LINE
  8
LC-005-005-----0
  6
CONTINUOUS
  5
32B
 10
128.583865
 20
335.278183
 30
0.0
 11
126.583865
 21
337.278183
 31
0.0
  0
LINE
  8
LC-005-005-----0
  6
CONTINUOUS
  5
32C
 10
125.755438
 20
335.278183
 30
0.0
 11
123.755438
 21
337.278183
 31
0.0
  0
LINE
  8
LC-005-005-----0
  6
CONTINUOUS
  5
32D
 10
69.629764
 20
391.403857
 30
0.0
 11
68.180905
 21
392.852717
 31
0.0
  0
LINE
  8
LC-005-005-----0
  6
CONTINUOUS
  5
32E
 10
122.927011
 20
335.278183
 30
0.0
 11
120.927011
 21
337.278183
 31
0.0
  0
LINE
  8
LC-005-005-----0
  6
CONTINUOUS
  5
32F
 10
70.180905
 20
388.024289
 30
0.0
 11
68.180905
 21
390.024289
 31
0.0
  0
LINE
  8
LC-005-005-----0
  6
CONTINUOUS
  5
330
 10
120.098584
 20
335.278183
 30
0.0
 11
118.098584
 21
337.278183
 31
0.0
  0
LINE
  8
LC-005-005-----0
  6
CONTINUOUS
  5
331
 10
70.180905
 20
385.195862
 30
0.0
 11
68.180905
 21
387.195862
 31
0.0
  0
LINE
  8
LC-005-005-----0
  6
CONTINUOUS
  5
332
 10
117.270157
 20
335.278183
 30
0.0
 11
115.270157
 21
337.278183
 31
0.0
  0
LINE
  8
LC-005-005-----0
  6
CONTINUOUS
  5
333
 10
70.180905
 20
382.367435
 30
0.0
 11
68.180905
 21
384.367435
 31
0.0
  0
LINE
  8
LC-005-005-----0
  6
CONTINUOUS
  5
334
 10
114.441729
 20
335.278183
 30
0.0
 11
112.441729
 21
337.278183
 31
0.0
  0
LINE
  8
LC-005-005-----0
  6
CONTINUOUS
  5
335
 10
70.180905
 20
379.539008
 30
0.0
 11
68.180905
 21
381.539008
 31
0.0
  0
LINE
  8
LC-005-005-----0
  6
CONTINUOUS
  5
336
 10
111.613302
 20
335.278183
 30
0.0
 11
109.613302
 21
337.278183
 31
0.0
  0
LINE
  8
LC-005-005-----0
  6
CONTINUOUS
  5
337
 10
70.180905
 20
376.710581
 30
0.0
 11
68.180905
 21
378.710581
 31
0.0
  0
LINE
  8
LC-005-005-----0
  6
CONTINUOUS
  5
338
 10
108.784875
 20
335.278183
 30
0.0
 11
106.784875
 21
337.278183
 31
0.0
  0
LINE
  8
LC-005-005-----0
  6
CONTINUOUS
  5
339
 10
70.180905
 20
373.882154
 30
0.0
 11
68.180905
 21
375.882154
 31
0.0
  0
LINE
  8
LC-005-005-----0
  6
CONTINUOUS
  5
33A
 10
105.956448
 20
335.278183
 30
0.0
 11
103.956448
 21
337.278183
 31
0.0
  0
LINE
  8
LC-005-005-----0
  6
CONTINUOUS
  5
33B
 10
70.180905
 20
371.053727
 30
0.0
 11
68.180905
 21
373.053727
 31
0.0
  0
LINE
  8
LC-005-005-----0
  6
CONTINUOUS
  5
33C
 10
103.128021
 20
335.278183
 30
0.0
 11
101.128021
 21
337.278183
 31
0.0
  0
LINE
  8
LC-005-005-----0
  6
CONTINUOUS
  5
33D
 10
70.180905
 20
368.2253
 30
0.0
 11
68.180905
 21
370.2253
 31
0.0
  0
LINE
  8
LC-005-005-----0
  6
CONTINUOUS
  5
33E
 10
100.299594
 20
335.278183
 30
0.0
 11
98.236517
 21
337.341261
 31
0.0
  0
LINE
  8
LC-005-005-----0
  6
CONTINUOUS
  5
33F
 10
70.243982
 20
365.333795
 30
0.0
 11
68.180905
 21
367.396872
 31
0.0
  0
LINE
  8
LC-005-005-----0
  6
CONTINUOUS
  5
340
 10
97.345282
 20
335.404068
 30
0.0
 11
95.024745
 21
337.724605
 31
0.0
  0
LINE
  8
LC-005-005-----0
  6
CONTINUOUS
  5
341
 10
70.627326
 20
362.122024
 30
0.0
 11
68.306789
 21
364.442561
 31
0.0
  0
LINE
  8
LC-005-005-----0
  6
CONTINUOUS
  5
342
 10
94.049921
 20
335.871002
 30
0.0
 11
91.297243
 21
338.62368
 31
0.0
  0
LINE
  8
LC-005-005-----0
  6
CONTINUOUS
  5
343
 10
71.526402
 20
358.394521
 30
0.0
 11
68.773724
 21
361.147199
 31
0.0
  0
LINE
  8
LC-005-005-----0
  6
CONTINUOUS
  5
344
 10
90.226712
 20
336.865784
 30
0.0
 11
86.527123
 21
340.565373
 31
0.0
  0
LINE
  8
LC-005-005-----0
  6
CONTINUOUS
  5
345
 10
73.468094
 20
353.624401
 30
0.0
 11
69.768505
 21
357.323991
 31
0.0
  0
LINE
  8
LC-005-005-----0
  6
CONTINUOUS
  5
346
 10
85.332289
 20
338.93178
 30
0.0
 11
71.834501
 21
352.429568
 31
0.0
  0
ENDBLK
  8
0
  5
347
  0
BLOCK
  8
0
  5
349
  2
*X43
 70
    65
 10
102.180905
 20
365.278183
 30
0.0
  3
*X43
  0
LINE
  8
LC-005-005-----0
  6
CONTINUOUS
  5
34A
 10
150.428861
 20
367.173302
 30
0.0
 11
150.32398
 21
367.278183
 31
0.0
  0
LINE
  8
LC-005-005-----0
  6
CONTINUOUS
  5
34B
 10
149.495553
 20
365.278183
 30
0.0
 11
147.495553
 21
367.278183
 31
0.0
  0
LINE
  8
LC-005-005-----0
  6
CONTINUOUS
  5
34C
 10
146.667126
 20
365.278183
 30
0.0
 11
144.667126
 21
367.278183
 31
0.0
  0
LINE
  8
LC-005-005-----0
  6
CONTINUOUS
  5
34D
 10
143.838699
 20
365.278183
 30
0.0
 11
141.838699
 21
367.278183
 31
0.0
  0
LINE
  8
LC-005-005-----0
  6
CONTINUOUS
  5
34E
 10
141.010272
 20
365.278183
 30
0.0
 11
139.010272
 21
367.278183
 31
0.0
  0
LINE
  8
LC-005-005-----0
  6
CONTINUOUS
  5
34F
 10
138.181845
 20
365.278183
 30
0.0
 11
136.181845
 21
367.278183
 31
0.0
  0
LINE
  8
LC-005-005-----0
  6
CONTINUOUS
  5
350
 10
135.353418
 20
365.278183
 30
0.0
 11
133.353418
 21
367.278183
 31
0.0
  0
LINE
  8
LC-005-005-----0
  6
CONTINUOUS
  5
351
 10
132.524991
 20
365.278183
 30
0.0
 11
130.524991
 21
367.278183
 31
0.0
  0
LINE
  8
LC-005-005-----0
  6
CONTINUOUS
  5
352
 10
104.180905
 20
393.622269
 30
0.0
 11
103.524991
 21
394.278183
 31
0.0
  0
LINE
  8
LC-005-005-----0
  6
CONTINUOUS
  5
353
 10
129.696563
 20
365.278183
 30
0.0
 11
127.696563
 21
367.278183
 31
0.0
  0
LINE
  8
LC-005-005-----0
  6
CONTINUOUS
  5
354
 10
104.180905
 20
390.793842
 30
0.0
 11
102.857785
 21
392.116962
 31
0.0
  0
LINE
  8
LC-005-005-----0
  6
CONTINUOUS
  5
355
 10
126.868136
 20
365.278183
 30
0.0
 11
124.868136
 21
367.278183
 31
0.0
  0
LINE
  8
LC-005-005-----0
  6
CONTINUOUS
  5
356
 10
104.180905
 20
387.965415
 30
0.0
 11
102.433814
 21
389.712505
 31
0.0
  0
LINE
  8
LC-005-005-----0
  6
CONTINUOUS
  5
357
 10
124.039709
 20
365.278183
 30
0.0
 11
122.039709
 21
367.278183
 31
0.0
  0
LINE
  8
LC-005-005-----0
  6
CONTINUOUS
  5
358
 10
104.180905
 20
385.136988
 30
0.0
 11
102.180905
 21
387.136988
 31
0.0
  0
LINE
  8
LC-005-005-----0
  6
CONTINUOUS
  5
359
 10
121.211282
 20
365.278183
 30
0.0
 11
119.211282
 21
367.278183
 31
0.0
  0
LINE
  8
LC-005-005-----0
  6
CONTINUOUS
  5
35A
 10
104.180905
 20
382.308561
 30
0.0
 11
102.180905
 21
384.308561
 31
0.0
  0
LINE
  8
LC-005-005-----0
  6
CONTINUOUS
  5
35B
 10
118.382855
 20
365.278183
 30
0.0
 11
116.382855
 21
367.278183
 31
0.0
  0
LINE
  8
LC-005-005-----0
  6
CONTINUOUS
  5
35C
 10
104.180905
 20
379.480134
 30
0.0
 11
102.180905
 21
381.480134
 31
0.0
  0
LINE
  8
LC-005-005-----0
  6
CONTINUOUS
  5
35D
 10
115.554428
 20
365.278183
 30
0.0
 11
113.554428
 21
367.278183
 31
0.0
  0
LINE
  8
LC-005-005-----0
  6
CONTINUOUS
  5
35E
 10
104.180905
 20
376.651706
 30
0.0
 11
102.180905
 21
378.651706
 31
0.0
  0
LINE
  8
LC-005-005-----0
  6
CONTINUOUS
  5
35F
 10
112.726001
 20
365.278183
 30
0.0
 11
110.726001
 21
367.278183
 31
0.0
  0
LINE
  8
LC-005-005-----0
  6
CONTINUOUS
  5
360
 10
104.180905
 20
373.823279
 30
0.0
 11
102.180905
 21
375.823279
 31
0.0
  0
LINE
  8
LC-005-005-----0
  6
CONTINUOUS
  5
361
 10
109.897574
 20
365.278183
 30
0.0
 11
107.897574
 21
367.278183
 31
0.0
  0
LINE
  8
LC-005-005-----0
  6
CONTINUOUS
  5
362
 10
104.180905
 20
370.994852
 30
0.0
 11
102.180905
 21
372.994852
 31
0.0
  0
LINE
  8
LC-005-005-----0
  6
CONTINUOUS
  5
363
 10
107.069146
 20
365.278183
 30
0.0
 11
105.069146
 21
367.278183
 31
0.0
  0
LINE
  8
LC-005-005-----0
  6
CONTINUOUS
  5
364
 10
104.180905
 20
368.166425
 30
0.0
 11
102.180905
 21
370.166425
 31
0.0
  0
LINE
  8
LC-005-005-----0
  6
CONTINUOUS
  5
365
 10
104.240719
 20
365.278183
 30
0.0
 11
102.180905
 21
367.337998
 31
0.0
  0
ENDBLK
  8
0
  5
366
  0
BLOCK
  8
0
  5
368
  2
*X44
 70
    65
 10
151.428861
 20
365.334011
 30
0.0
  3
*X44
  0
LINE
  8
LC-005-005-----0
  6
CONTINUOUS
  5
369
 10
276.718946
 20
365.334011
 30
0.0
 11
274.969047
 21
367.08391
 31
0.0
  0
LINE
  8
LC-005-005-----0
  6
CONTINUOUS
  5
36A
 10
273.890519
 20
365.334011
 30
0.0
 11
271.890519
 21
367.334011
 31
0.0
  0
LINE
  8
LC-005-005-----0
  6
CONTINUOUS
  5
36B
 10
271.062092
 20
365.334011
 30
0.0
 11
269.062092
 21
367.334011
 31
0.0
  0
LINE
  8
LC-005-005-----0
  6
CONTINUOUS
  5
36C
 10
268.233665
 20
365.334011
 30
0.0
 11
266.233665
 21
367.334011
 31
0.0
  0
LINE
  8
LC-005-005-----0
  6
CONTINUOUS
  5
36D
 10
265.405238
 20
365.334011
 30
0.0
 11
263.405238
 21
367.334011
 31
0.0
  0
LINE
  8
LC-005-005-----0
  6
CONTINUOUS
  5
36E
 10
262.576811
 20
365.334011
 30
0.0
 11
260.576811
 21
367.334011
 31
0.0
  0
LINE
  8
LC-005-005-----0
  6
CONTINUOUS
  5
36F
 10
259.748384
 20
365.334011
 30
0.0
 11
257.748384
 21
367.334011
 31
0.0
  0
LINE
  8
LC-005-005-----0
  6
CONTINUOUS
  5
370
 10
256.919956
 20
365.334011
 30
0.0
 11
254.919956
 21
367.334011
 31
0.0
  0
LINE
  8
LC-005-005-----0
  6
CONTINUOUS
  5
371
 10
254.091529
 20
365.334011
 30
0.0
 11
252.091529
 21
367.334011
 31
0.0
  0
LINE
  8
LC-005-005-----0
  6
CONTINUOUS
  5
372
 10
251.263102
 20
365.334011
 30
0.0
 11
249.263102
 21
367.334011
 31
0.0
  0
LINE
  8
LC-005-005-----0
  6
CONTINUOUS
  5
373
 10
248.434675
 20
365.334011
 30
0.0
 11
246.434675
 21
367.334011
 31
0.0
  0
LINE
  8
LC-005-005-----0
  6
CONTINUOUS
  5
374
 10
245.606248
 20
365.334011
 30
0.0
 11
243.606248
 21
367.334011
 31
0.0
  0
LINE
  8
LC-005-005-----0
  6
CONTINUOUS
  5
375
 10
242.777821
 20
365.334011
 30
0.0
 11
240.777821
 21
367.334011
 31
0.0
  0
LINE
  8
LC-005-005-----0
  6
CONTINUOUS
  5
376
 10
239.949394
 20
365.334011
 30
0.0
 11
237.949394
 21
367.334011
 31
0.0
  0
LINE
  8
LC-005-005-----0
  6
CONTINUOUS
  5
377
 10
237.120967
 20
365.334011
 30
0.0
 11
235.120967
 21
367.334011
 31
0.0
  0
LINE
  8
LC-005-005-----0
  6
CONTINUOUS
  5
378
 10
234.292539
 20
365.334011
 30
0.0
 11
232.292539
 21
367.334011
 31
0.0
  0
LINE
  8
LC-005-005-----0
  6
CONTINUOUS
  5
379
 10
231.464112
 20
365.334011
 30
0.0
 11
229.464112
 21
367.334011
 31
0.0
  0
LINE
  8
LC-005-005-----0
  6
CONTINUOUS
  5
37A
 10
228.635685
 20
365.334011
 30
0.0
 11
226.635685
 21
367.334011
 31
0.0
  0
LINE
  8
LC-005-005-----0
  6
CONTINUOUS
  5
37B
 10
225.807258
 20
365.334011
 30
0.0
 11
223.807258
 21
367.334011
 31
0.0
  0
LINE
  8
LC-005-005-----0
  6
CONTINUOUS
  5
37C
 10
222.978831
 20
365.334011
 30
0.0
 11
220.978831
 21
367.334011
 31
0.0
  0
LINE
  8
LC-005-005-----0
  6
CONTINUOUS
  5
37D
 10
220.150404
 20
365.334011
 30
0.0
 11
218.150404
 21
367.334011
 31
0.0
  0
LINE
  8
LC-005-005-----0
  6
CONTINUOUS
  5
37E
 10
217.321977
 20
365.334011
 30
0.0
 11
215.321977
 21
367.334011
 31
0.0
  0
LINE
  8
LC-005-005-----0
  6
CONTINUOUS
  5
37F
 10
214.49355
 20
365.334011
 30
0.0
 11
212.49355
 21
367.334011
 31
0.0
  0
LINE
  8
LC-005-005-----0
  6
CONTINUOUS
  5
380
 10
211.665122
 20
365.334011
 30
0.0
 11
209.665122
 21
367.334011
 31
0.0
  0
LINE
  8
LC-005-005-----0
  6
CONTINUOUS
  5
381
 10
208.836695
 20
365.334011
 30
0.0
 11
206.836695
 21
367.334011
 31
0.0
  0
LINE
  8
LC-005-005-----0
  6
CONTINUOUS
  5
382
 10
206.008268
 20
365.334011
 30
0.0
 11
204.008268
 21
367.334011
 31
0.0
  0
LINE
  8
LC-005-005-----0
  6
CONTINUOUS
  5
383
 10
203.179841
 20
365.334011
 30
0.0
 11
201.179841
 21
367.334011
 31
0.0
  0
LINE
  8
LC-005-005-----0
  6
CONTINUOUS
  5
384
 10
200.351414
 20
365.334011
 30
0.0
 11
198.351414
 21
367.334011
 31
0.0
  0
LINE
  8
LC-005-005-----0
  6
CONTINUOUS
  5
385
 10
197.522987
 20
365.334011
 30
0.0
 11
195.522987
 21
367.334011
 31
0.0
  0
LINE
  8
LC-005-005-----0
  6
CONTINUOUS
  5
386
 10
194.69456
 20
365.334011
 30
0.0
 11
192.69456
 21
367.334011
 31
0.0
  0
LINE
  8
LC-005-005-----0
  6
CONTINUOUS
  5
387
 10
191.866133
 20
365.334011
 30
0.0
 11
189.866133
 21
367.334011
 31
0.0
  0
LINE
  8
LC-005-005-----0
  6
CONTINUOUS
  5
388
 10
189.037705
 20
365.334011
 30
0.0
 11
187.037705
 21
367.334011
 31
0.0
  0
LINE
  8
LC-005-005-----0
  6
CONTINUOUS
  5
389
 10
186.209278
 20
365.334011
 30
0.0
 11
184.209278
 21
367.334011
 31
0.0
  0
LINE
  8
LC-005-005-----0
  6
CONTINUOUS
  5
38A
 10
183.380851
 20
365.334011
 30
0.0
 11
181.380851
 21
367.334011
 31
0.0
  0
LINE
  8
LC-005-005-----0
  6
CONTINUOUS
  5
38B
 10
180.552424
 20
365.334011
 30
0.0
 11
178.552424
 21
367.334011
 31
0.0
  0
LINE
  8
LC-005-005-----0
  6
CONTINUOUS
  5
38C
 10
177.723997
 20
365.334011
 30
0.0
 11
175.723997
 21
367.334011
 31
0.0
  0
LINE
  8
LC-005-005-----0
  6
CONTINUOUS
  5
38D
 10
174.89557
 20
365.334011
 30
0.0
 11
172.89557
 21
367.334011
 31
0.0
  0
LINE
  8
LC-005-005-----0
  6
CONTINUOUS
  5
38E
 10
172.067143
 20
365.334011
 30
0.0
 11
170.067143
 21
367.334011
 31
0.0
  0
LINE
  8
LC-005-005-----0
  6
CONTINUOUS
  5
38F
 10
169.238716
 20
365.334011
 30
0.0
 11
167.238716
 21
367.334011
 31
0.0
  0
LINE
  8
LC-005-005-----0
  6
CONTINUOUS
  5
390
 10
166.410288
 20
365.334011
 30
0.0
 11
164.410288
 21
367.334011
 31
0.0
  0
LINE
  8
LC-005-005-----0
  6
CONTINUOUS
  5
391
 10
163.581861
 20
365.334011
 30
0.0
 11
161.581861
 21
367.334011
 31
0.0
  0
LINE
  8
LC-005-005-----0
  6
CONTINUOUS
  5
392
 10
160.753434
 20
365.334011
 30
0.0
 11
158.753434
 21
367.334011
 31
0.0
  0
LINE
  8
LC-005-005-----0
  6
CONTINUOUS
  5
393
 10
157.925007
 20
365.334011
 30
0.0
 11
155.925007
 21
367.334011
 31
0.0
  0
LINE
  8
LC-005-005-----0
  6
CONTINUOUS
  5
394
 10
155.09658
 20
365.334011
 30
0.0
 11
153.09658
 21
367.334011
 31
0.0
  0
LINE
  8
LC-005-005-----0
  6
CONTINUOUS
  5
395
 10
152.268153
 20
365.334011
 30
0.0
 11
151.428861
 21
366.173302
 31
0.0
  0
ENDBLK
  8
0
  5
396
  0
BLOCK
  8
0
  5
398
  2
*X45
 70
    65
 10
151.428861
 20
335.334011
 30
0.0
  3
*X45
  0
LINE
  8
LC-005-005-----0
  6
CONTINUOUS
  5
399
 10
277.505053
 20
336.263633
 30
0.0
 11
276.434675
 21
337.334011
 31
0.0
  0
LINE
  8
LC-005-005-----0
  6
CONTINUOUS
  5
39A
 10
275.274343
 20
335.665916
 30
0.0
 11
273.606248
 21
337.334011
 31
0.0
  0
LINE
  8
LC-005-005-----0
  6
CONTINUOUS
  5
39B
 10
272.777821
 20
335.334011
 30
0.0
 11
270.777821
 21
337.334011
 31
0.0
  0
LINE
  8
LC-005-005-----0
  6
CONTINUOUS
  5
39C
 10
269.949394
 20
335.334011
 30
0.0
 11
267.949394
 21
337.334011
 31
0.0
  0
LINE
  8
LC-005-005-----0
  6
CONTINUOUS
  5
39D
 10
267.120967
 20
335.334011
 30
0.0
 11
265.120967
 21
337.334011
 31
0.0
  0
LINE
  8
LC-005-005-----0
  6
CONTINUOUS
  5
39E
 10
264.292539
 20
335.334011
 30
0.0
 11
262.292539
 21
337.334011
 31
0.0
  0
LINE
  8
LC-005-005-----0
  6
CONTINUOUS
  5
39F
 10
261.464112
 20
335.334011
 30
0.0
 11
259.464112
 21
337.334011
 31
0.0
  0
LINE
  8
LC-005-005-----0
  6
CONTINUOUS
  5
3A0
 10
258.635685
 20
335.334011
 30
0.0
 11
256.635685
 21
337.334011
 31
0.0
  0
LINE
  8
LC-005-005-----0
  6
CONTINUOUS
  5
3A1
 10
255.807258
 20
335.334011
 30
0.0
 11
253.807258
 21
337.334011
 31
0.0
  0
LINE
  8
LC-005-005-----0
  6
CONTINUOUS
  5
3A2
 10
252.978831
 20
335.334011
 30
0.0
 11
250.978831
 21
337.334011
 31
0.0
  0
LINE
  8
LC-005-005-----0
  6
CONTINUOUS
  5
3A3
 10
250.150404
 20
335.334011
 30
0.0
 11
248.150404
 21
337.334011
 31
0.0
  0
LINE
  8
LC-005-005-----0
  6
CONTINUOUS
  5
3A4
 10
247.321977
 20
335.334011
 30
0.0
 11
245.321977
 21
337.334011
 31
0.0
  0
LINE
  8
LC-005-005-----0
  6
CONTINUOUS
  5
3A5
 10
244.49355
 20
335.334011
 30
0.0
 11
242.49355
 21
337.334011
 31
0.0
  0
LINE
  8
LC-005-005-----0
  6
CONTINUOUS
  5
3A6
 10
241.665122
 20
335.334011
 30
0.0
 11
239.665122
 21
337.334011
 31
0.0
  0
LINE
  8
LC-005-005-----0
  6
CONTINUOUS
  5
3A7
 10
238.836695
 20
335.334011
 30
0.0
 11
236.836695
 21
337.334011
 31
0.0
  0
LINE
  8
LC-005-005-----0
  6
CONTINUOUS
  5
3A8
 10
236.008268
 20
335.334011
 30
0.0
 11
234.008268
 21
337.334011
 31
0.0
  0
LINE
  8
LC-005-005-----0
  6
CONTINUOUS
  5
3A9
 10
233.179841
 20
335.334011
 30
0.0
 11
231.179841
 21
337.334011
 31
0.0
  0
LINE
  8
LC-005-005-----0
  6
CONTINUOUS
  5
3AA
 10
230.351414
 20
335.334011
 30
0.0
 11
228.351414
 21
337.334011
 31
0.0
  0
LINE
  8
LC-005-005-----0
  6
CONTINUOUS
  5
3AB
 10
227.522987
 20
335.334011
 30
0.0
 11
225.522987
 21
337.334011
 31
0.0
  0
LINE
  8
LC-005-005-----0
  6
CONTINUOUS
  5
3AC
 10
224.69456
 20
335.334011
 30
0.0
 11
222.69456
 21
337.334011
 31
0.0
  0
LINE
  8
LC-005-005-----0
  6
CONTINUOUS
  5
3AD
 10
221.866133
 20
335.334011
 30
0.0
 11
219.866133
 21
337.334011
 31
0.0
  0
LINE
  8
LC-005-005-----0
  6
CONTINUOUS
  5
3AE
 10
219.037705
 20
335.334011
 30
0.0
 11
217.037705
 21
337.334011
 31
0.0
  0
LINE
  8
LC-005-005-----0
  6
CONTINUOUS
  5
3AF
 10
216.209278
 20
335.334011
 30
0.0
 11
214.209278
 21
337.334011
 31
0.0
  0
LINE
  8
LC-005-005-----0
  6
CONTINUOUS
  5
3B0
 10
213.380851
 20
335.334011
 30
0.0
 11
211.380851
 21
337.334011
 31
0.0
  0
LINE
  8
LC-005-005-----0
  6
CONTINUOUS
  5
3B1
 10
210.552424
 20
335.334011
 30
0.0
 11
208.552424
 21
337.334011
 31
0.0
  0
LINE
  8
LC-005-005-----0
  6
CONTINUOUS
  5
3B2
 10
207.723997
 20
335.334011
 30
0.0
 11
205.723997
 21
337.334011
 31
0.0
  0
LINE
  8
LC-005-005-----0
  6
CONTINUOUS
  5
3B3
 10
204.89557
 20
335.334011
 30
0.0
 11
202.89557
 21
337.334011
 31
0.0
  0
LINE
  8
LC-005-005-----0
  6
CONTINUOUS
  5
3B4
 10
202.067143
 20
335.334011
 30
0.0
 11
200.067143
 21
337.334011
 31
0.0
  0
LINE
  8
LC-005-005-----0
  6
CONTINUOUS
  5
3B5
 10
199.238716
 20
335.334011
 30
0.0
 11
197.238716
 21
337.334011
 31
0.0
  0
LINE
  8
LC-005-005-----0
  6
CONTINUOUS
  5
3B6
 10
196.410288
 20
335.334011
 30
0.0
 11
194.410288
 21
337.334011
 31
0.0
  0
LINE
  8
LC-005-005-----0
  6
CONTINUOUS
  5
3B7
 10
193.581861
 20
335.334011
 30
0.0
 11
191.581861
 21
337.334011
 31
0.0
  0
LINE
  8
LC-005-005-----0
  6
CONTINUOUS
  5
3B8
 10
190.753434
 20
335.334011
 30
0.0
 11
188.753434
 21
337.334011
 31
0.0
  0
LINE
  8
LC-005-005-----0
  6
CONTINUOUS
  5
3B9
 10
187.925007
 20
335.334011
 30
0.0
 11
185.925007
 21
337.334011
 31
0.0
  0
LINE
  8
LC-005-005-----0
  6
CONTINUOUS
  5
3BA
 10
185.09658
 20
335.334011
 30
0.0
 11
183.09658
 21
337.334011
 31
0.0
  0
LINE
  8
LC-005-005-----0
  6
CONTINUOUS
  5
3BB
 10
182.268153
 20
335.334011
 30
0.0
 11
180.268153
 21
337.334011
 31
0.0
  0
LINE
  8
LC-005-005-----0
  6
CONTINUOUS
  5
3BC
 10
179.439726
 20
335.334011
 30
0.0
 11
177.439726
 21
337.334011
 31
0.0
  0
LINE
  8
LC-005-005-----0
  6
CONTINUOUS
  5
3BD
 10
176.611299
 20
335.334011
 30
0.0
 11
174.611299
 21
337.334011
 31
0.0
  0
LINE
  8
LC-005-005-----0
  6
CONTINUOUS
  5
3BE
 10
173.782871
 20
335.334011
 30
0.0
 11
171.782871
 21
337.334011
 31
0.0
  0
LINE
  8
LC-005-005-----0
  6
CONTINUOUS
  5
3BF
 10
170.954444
 20
335.334011
 30
0.0
 11
168.954444
 21
337.334011
 31
0.0
  0
LINE
  8
LC-005-005-----0
  6
CONTINUOUS
  5
3C0
 10
168.126017
 20
335.334011
 30
0.0
 11
166.126017
 21
337.334011
 31
0.0
  0
LINE
  8
LC-005-005-----0
  6
CONTINUOUS
  5
3C1
 10
165.29759
 20
335.334011
 30
0.0
 11
163.29759
 21
337.334011
 31
0.0
  0
LINE
  8
LC-005-005-----0
  6
CONTINUOUS
  5
3C2
 10
162.469163
 20
335.334011
 30
0.0
 11
160.469163
 21
337.334011
 31
0.0
  0
LINE
  8
LC-005-005-----0
  6
CONTINUOUS
  5
3C3
 10
159.640736
 20
335.334011
 30
0.0
 11
157.640736
 21
337.334011
 31
0.0
  0
LINE
  8
LC-005-005-----0
  6
CONTINUOUS
  5
3C4
 10
156.812309
 20
335.334011
 30
0.0
 11
154.812309
 21
337.334011
 31
0.0
  0
LINE
  8
LC-005-005-----0
  6
CONTINUOUS
  5
3C5
 10
153.983882
 20
335.334011
 30
0.0
 11
151.983882
 21
337.334011
 31
0.0
  0
ENDBLK
  8
0
  5
3C6
  0
BLOCK
  8
0
  5
3C8
  2
BLK10
 70
    64
 10
0.0
 20
0.0
 30
0.0
  3
BLK10
  0
ENDBLK
  8
0
  5
3C9
  0
BLOCK
  8
0
  5
3CB
  2
BLK11
 70
    64
 10
0.0
 20
0.0
 30
0.0
  3
BLK11
  0
ENDBLK
  8
0
  5
3CC
  0
BLOCK
  8
0
  5
3CE
  2
BLK12
 70
    64
 10
0.0
 20
0.0
 30
0.0
  3
BLK12
  0
ENDBLK
  8
0
  5
3CF
  0
BLOCK
  8
0
  5
3D1
  2
BLK13
 70
    64
 10
0.0
 20
0.0
 30
0.0
  3
BLK13
  0
ENDBLK
  8
0
  5
3D2
  0
BLOCK
  8
0
  5
3D4
  2
BLK14
 70
    64
 10
0.0
 20
0.0
 30
0.0
  3
BLK14
  0
ENDBLK
  8
0
  5
3D5
  0
BLOCK
  8
0
  5
3D7
  2
*X51
 70
    65
 10
315.968396
 20
303.460183
 30
0.0
  3
*X51
  0
LINE
  8
LC-005-005-----0
  6
CONTINUOUS
  5
3D8
 10
326.0876
 20
303.460183
 30
0.0
 11
327.034396
 21
304.406979
 31
0.0
  0
LINE
  8
LC-005-005-----0
  6
CONTINUOUS
  5
3D9
 10
323.259173
 20
303.460183
 30
0.0
 11
325.560541
 21
305.761551
 31
0.0
  0
LINE
  8
LC-005-005-----0
  6
CONTINUOUS
  5
3DA
 10
320.430746
 20
303.460183
 30
0.0
 11
322.732114
 21
305.761551
 31
0.0
  0
LINE
  8
LC-005-005-----0
  6
CONTINUOUS
  5
3DB
 10
317.827661
 20
303.685526
 30
0.0
 11
319.903687
 21
305.761551
 31
0.0
  0
LINE
  8
LC-005-005-----0
  6
CONTINUOUS
  5
3DC
 10
316.335637
 20
305.021928
 30
0.0
 11
318.468396
 21
307.154688
 31
0.0
  0
LINE
  8
LC-005-005-----0
  6
CONTINUOUS
  5
3DD
 10
315.968396
 20
307.483115
 30
0.0
 11
318.468396
 21
309.983115
 31
0.0
  0
LINE
  8
LC-005-005-----0
  6
CONTINUOUS
  5
3DE
 10
315.968396
 20
310.311542
 30
0.0
 11
318.468396
 21
312.811542
 31
0.0
  0
LINE
  8
LC-005-005-----0
  6
CONTINUOUS
  5
3DF
 10
315.968396
 20
313.139969
 30
0.0
 11
318.468396
 21
315.639969
 31
0.0
  0
LINE
  8
LC-005-005-----0
  6
CONTINUOUS
  5
3E0
 10
315.968396
 20
315.968396
 30
0.0
 11
318.468396
 21
318.468396
 31
0.0
  0
LINE
  8
LC-005-005-----0
  6
CONTINUOUS
  5
3E1
 10
315.968396
 20
318.796824
 30
0.0
 11
318.468396
 21
321.296824
 31
0.0
  0
LINE
  8
LC-005-005-----0
  6
CONTINUOUS
  5
3E2
 10
315.968396
 20
321.625251
 30
0.0
 11
318.468396
 21
324.125251
 31
0.0
  0
LINE
  8
LC-005-005-----0
  6
CONTINUOUS
  5
3E3
 10
315.968396
 20
324.453678
 30
0.0
 11
318.468396
 21
326.953678
 31
0.0
  0
LINE
  8
LC-005-005-----0
  6
CONTINUOUS
  5
3E4
 10
315.968396
 20
327.282105
 30
0.0
 11
318.468396
 21
329.782105
 31
0.0
  0
LINE
  8
LC-005-005-----0
  6
CONTINUOUS
  5
3E5
 10
322.695308
 20
334.009017
 30
0.0
 11
325.022396
 21
336.336105
 31
0.0
  0
LINE
  8
LC-005-005-----0
  6
CONTINUOUS
  5
3E6
 10
315.968396
 20
330.110532
 30
0.0
 11
318.468396
 21
332.610532
 31
0.0
  0
LINE
  8
LC-005-005-----0
  6
CONTINUOUS
  5
3E7
 10
319.866881
 20
334.009017
 30
0.0
 11
322.766881
 21
336.909017
 31
0.0
  0
LINE
  8
LC-005-005-----0
  6
CONTINUOUS
  5
3E8
 10
315.968396
 20
332.938959
 30
0.0
 11
320.305768
 21
337.276331
 31
0.0
  0
LINE
  8
LC-005-005-----0
  6
CONTINUOUS
  5
3E9
 10
324.138454
 20
341.109017
 30
0.0
 11
325.022396
 21
341.992959
 31
0.0
  0
LINE
  8
LC-005-005-----0
  6
CONTINUOUS
  5
3EA
 10
315.968396
 20
335.767386
 30
0.0
 11
318.582165
 21
338.381154
 31
0.0
  0
LINE
  8
LC-005-005-----0
  6
CONTINUOUS
  5
3EB
 10
321.210437
 20
341.009427
 30
0.0
 11
324.210027
 21
344.009017
 31
0.0
  0
LINE
  8
LC-005-005-----0
  6
CONTINUOUS
  5
3EC
 10
315.968396
 20
338.595813
 30
0.0
 11
321.3816
 21
344.009017
 31
0.0
  0
LINE
  8
LC-005-005-----0
  6
CONTINUOUS
  5
3ED
 10
315.968396
 20
341.424241
 30
0.0
 11
318.553172
 21
344.009017
 31
0.0
  0
LINE
  8
LC-005-005-----0
  6
CONTINUOUS
  5
3EE
 10
315.968396
 20
344.252668
 30
0.0
 11
318.468396
 21
346.752668
 31
0.0
  0
LINE
  8
LC-005-005-----0
  6
CONTINUOUS
  5
3EF
 10
315.968396
 20
347.081095
 30
0.0
 11
318.468396
 21
349.581095
 31
0.0
  0
LINE
  8
LC-005-005-----0
  6
CONTINUOUS
  5
3F0
 10
315.968396
 20
349.909522
 30
0.0
 11
318.468396
 21
352.409522
 31
0.0
  0
LINE
  8
LC-005-005-----0
  6
CONTINUOUS
  5
3F1
 10
315.968396
 20
352.737949
 30
0.0
 11
318.468396
 21
355.237949
 31
0.0
  0
LINE
  8
LC-005-005-----0
  6
CONTINUOUS
  5
3F2
 10
322.389464
 20
359.159017
 30
0.0
 11
325.022396
 21
361.791949
 31
0.0
  0
LINE
  8
LC-005-005-----0
  6
CONTINUOUS
  5
3F3
 10
315.968396
 20
355.566376
 30
0.0
 11
318.468396
 21
358.066376
 31
0.0
  0
LINE
  8
LC-005-005-----0
  6
CONTINUOUS
  5
3F4
 10
319.561037
 20
359.159017
 30
0.0
 11
322.461037
 21
362.059017
 31
0.0
  0
LINE
  8
LC-005-005-----0
  6
CONTINUOUS
  5
3F5
 10
315.968396
 20
358.394803
 30
0.0
 11
320.090526
 21
362.516932
 31
0.0
  0
LINE
  8
LC-005-005-----0
  6
CONTINUOUS
  5
3F6
 10
323.83261
 20
366.259017
 30
0.0
 11
325.022396
 21
367.448803
 31
0.0
  0
LINE
  8
LC-005-005-----0
  6
CONTINUOUS
  5
3F7
 10
315.968396
 20
361.22323
 30
0.0
 11
318.429011
 21
363.683845
 31
0.0
  0
LINE
  8
LC-005-005-----0
  6
CONTINUOUS
  5
3F8
 10
320.806618
 20
366.061452
 30
0.0
 11
323.904183
 21
369.159017
 31
0.0
  0
LINE
  8
LC-005-005-----0
  6
CONTINUOUS
  5
3F9
 10
315.968396
 20
364.051658
 30
0.0
 11
321.075755
 21
369.159017
 31
0.0
  0
LINE
  8
LC-005-005-----0
  6
CONTINUOUS
  5
3FA
 10
315.968396
 20
366.880085
 30
0.0
 11
318.468396
 21
369.380085
 31
0.0
  0
LINE
  8
LC-005-005-----0
  6
CONTINUOUS
  5
3FB
 10
325.923785
 20
376.835474
 30
0.0
 11
327.034396
 21
377.946085
 31
0.0
  0
LINE
  8
LC-005-005-----0
  6
CONTINUOUS
  5
3FC
 10
315.968396
 20
369.708512
 30
0.0
 11
318.468396
 21
372.208512
 31
0.0
  0
LINE
  8
LC-005-005-----0
  6
CONTINUOUS
  5
3FD
 10
323.095358
 20
376.835474
 30
0.0
 11
324.845358
 21
378.585474
 31
0.0
  0
LINE
  8
LC-005-005-----0
  6
CONTINUOUS
  5
3FE
 10
315.968396
 20
372.536939
 30
0.0
 11
318.468396
 21
375.036939
 31
0.0
  0
LINE
  8
LC-005-005-----0
  6
CONTINUOUS
  5
3FF
 10
320.266931
 20
376.835474
 30
0.0
 11
322.016931
 21
378.585474
 31
0.0
  0
LINE
  8
LC-005-005-----0
  6
CONTINUOUS
  5
400
 10
315.968396
 20
375.365366
 30
0.0
 11
319.188504
 21
378.585474
 31
0.0
  0
ENDBLK
  8
0
  5
401
  0
BLOCK
  8
0
  5
403
  2
*X52
 70
    65
 10
325.022396
 20
366.259017
 30
0.0
  3
*X52
  0
LINE
  8
LC-005-005-----0
  6
CONTINUOUS
  5
404
 10
328.022396
 20
376.255958
 30
0.0
 11
327.694337
 21
376.584017
 31
0.0
  0
LINE
  8
LC-005-005-----0
  6
CONTINUOUS
  5
405
 10
328.022396
 20
373.427531
 30
0.0
 11
325.022396
 21
376.427531
 31
0.0
  0
LINE
  8
LC-005-005-----0
  6
CONTINUOUS
  5
406
 10
328.022396
 20
370.599103
 30
0.0
 11
325.022396
 21
373.599103
 31
0.0
  0
LINE
  8
LC-005-005-----0
  6
CONTINUOUS
  5
407
 10
328.022396
 20
367.770676
 30
0.0
 11
325.022396
 21
370.770676
 31
0.0
  0
LINE
  8
LC-005-005-----0
  6
CONTINUOUS
  5
408
 10
326.705629
 20
366.259017
 30
0.0
 11
325.022396
 21
367.942249
 31
0.0
  0
ENDBLK
  8
0
  5
409
  0
BLOCK
  8
0
  5
40B
  2
*X53
 70
    65
 10
325.022396
 20
341.109017
 30
0.0
  3
*X53
  0
LINE
  8
LC-005-005-----0
  6
CONTINUOUS
  5
40C
 10
328.022396
 20
359.285395
 30
0.0
 11
325.248775
 21
362.059017
 31
0.0
  0
LINE
  8
LC-005-005-----0
  6
CONTINUOUS
  5
40D
 10
328.022396
 20
356.456968
 30
0.0
 11
325.022396
 21
359.456968
 31
0.0
  0
LINE
  8
LC-005-005-----0
  6
CONTINUOUS
  5
40E
 10
328.022396
 20
353.628541
 30
0.0
 11
325.022396
 21
356.628541
 31
0.0
  0
LINE
  8
LC-005-005-----0
  6
CONTINUOUS
  5
40F
 10
328.022396
 20
350.800114
 30
0.0
 11
325.022396
 21
353.800114
 31
0.0
  0
LINE
  8
LC-005-005-----0
  6
CONTINUOUS
  5
410
 10
328.022396
 20
347.971686
 30
0.0
 11
325.022396
 21
350.971686
 31
0.0
  0
LINE
  8
LC-005-005-----0
  6
CONTINUOUS
  5
411
 10
328.022396
 20
345.143259
 30
0.0
 11
325.022396
 21
348.143259
 31
0.0
  0
LINE
  8
LC-005-005-----0
  6
CONTINUOUS
  5
412
 10
328.022396
 20
342.314832
 30
0.0
 11
325.022396
 21
345.314832
 31
0.0
  0
LINE
  8
LC-005-005-----0
  6
CONTINUOUS
  5
413
 10
326.399785
 20
341.109017
 30
0.0
 11
325.022396
 21
342.486405
 31
0.0
  0
ENDBLK
  8
0
  5
414
  0
BLOCK
  8
0
  5
416
  2
*X54
 70
    65
 10
325.022396
 20
326.584017
 30
0.0
  3
*X54
  0
LINE
  8
LC-005-005-----0
  6
CONTINUOUS
  5
417
 10
328.022396
 20
336.657978
 30
0.0
 11
327.771358
 21
336.909017
 31
0.0
  0
LINE
  8
LC-005-005-----0
  6
CONTINUOUS
  5
418
 10
328.022396
 20
333.829551
 30
0.0
 11
325.022396
 21
336.829551
 31
0.0
  0
LINE
  8
LC-005-005-----0
  6
CONTINUOUS
  5
419
 10
328.022396
 20
331.001124
 30
0.0
 11
325.022396
 21
334.001124
 31
0.0
  0
LINE
  8
LC-005-005-----0
  6
CONTINUOUS
  5
41A
 10
328.022396
 20
328.172697
 30
0.0
 11
325.022396
 21
331.172697
 31
0.0
  0
LINE
  8
LC-005-005-----0
  6
CONTINUOUS
  5
41B
 10
326.782649
 20
326.584017
 30
0.0
 11
325.022396
 21
328.344269
 31
0.0
  0
ENDBLK
  8
0
  5
41C
  0
BLOCK
  8
0
  5
41E
  2
BLK15
 70
    64
 10
0.0
 20
0.0
 30
0.0
  3
BLK15
  0
ENDBLK
  8
0
  5
41F
  0
BLOCK
  8
0
  5
421
  2
BLK16
 70
    64
 10
0.0
 20
0.0
 30
0.0
  3
BLK16
  0
ENDBLK
  8
0
  5
422
  0
BLOCK
  8
0
  5
424
  2
BLK17
 70
    64
 10
0.0
 20
0.0
 30
0.0
  3
BLK17
  0
ENDBLK
  8
0
  5
425
  0
BLOCK
  8
0
  5
427
  2
BLK18
 70
    64
 10
0.0
 20
0.0
 30
0.0
  3
BLK18
  0
ENDBLK
  8
0
  5
428
  0
ENDSEC
  0
SECTION
  2
ENTITIES
  0
VIEWPORT
  8
LC-000
  5
7CC
 67
     1
 68
     1
 10
420.0
 20
297.0
 30
0.0
 40
840.0
 41
594.0
 69
     1
1001
ACAD
1000
MVIEW
1002
{
1070
    16
1010
0.0
1020
0.0
1030
0.0
1010
0.0
1020
0.0
1030
1.0
1040
0.0
1040
594.0
1040
420.0
1040
297.0
1040
50.0
1040
0.0
1040
0.0
1070
     0
1070
   100
1070
     1
1070
     1
1070
     0
1070
     0
1070
     0
1070
     0
1040
0.0
1040
0.0
1040
0.0
1040
1.0
1040
1.0
1040
0.0
1040
0.0
1070
     0
1002
{
1002
}
1002
}
  0
VIEWPORT
  8
0
  5
7CD
 67
     1
 68
     1
 10
0.0
 20
0.0
 30
0.0
 40
0.0
 41
0.0
 69
     1
1001
ACAD
1000
MVIEW
1002
{
1070
    16
1010
0.0
1020
0.0
1030
0.0
1010
0.0
1020
0.0
1030
1.0
1040
0.0
1040
594.0
1040
0.0
1040
0.0
1040
50.0
1040
0.0
1040
0.0
1070
     0
1070
   100
1070
     0
1070
     1
1070
     0
1070
     0
1070
     0
1070
     0
1040
0.0
1040
0.0
1040
0.0
1040
0.5
1040
0.5
1040
0.5
1040
0.5
1070
     0
1002
{
1002
}
1002
}
  0
DIMENSION
  8
0
  5
429
  2
*D0
 10
356.327875
 20
144.0
 30
0.0
 11
356.327875
 21
144.0
 31
0.0
  1
DN50
 13
269.808396
 23
176.254748
 33
0.0
 14
320.008396
 24
176.254748
 34
0.0
  3
LC-DIM-L-0090-02-02
  0
DIMENSION
  8
0
  5
42A
  2
*D1
 10
538.641379
 20
504.0
 30
0.0
 11
538.641379
 21
504.0
 31
0.0
  1
120/160
 13
458.645651
 23
378.335468
 33
0.0
 14
618.637108
 24
378.335468
 34
0.0
  3
LC-DIM-L-0090-02-02
  0
INSERT
  8
0
  5
42B
  2
*X2
 10
246.035659
 20
367.834011
 30
0.0
  0
DIMENSION
  8
0
  5
42C
  2
*D3
 10
281.684575
 20
408.0
 30
0.0
 11
281.684575
 21
408.0
 31
0.0
  1
64
 13
252.035659
 23
388.834011
 33
0.0
 14
315.968396
 24
383.084017
 34
0.0
  3
LC-DIM-L-0090-02-02
  0
INSERT
  8
0
  5
42D
  2
*X4
 10
206.934585
 20
234.971476
 30
0.0
  0
DIMENSION
  8
0
  5
42E
  2
*D5
 10
251.779467
 20
520.0
 30
0.0
 11
251.779467
 21
520.0
 31
0.0
  1
MAX.225
 13
86.180905
 23
476.404095
 33
0.0
 14
206.892187
 24
367.874018
 34
0.0
  3
LC-DIM-L-0090-02-02
  0
DIMENSION
  8
0
  5
42F
  2
*D6
 10
86.205407
 20
480.0
 30
0.0
 11
86.205407
 21
480.0
 31
0.0
  1
1 1/4"
 13
67.716864
 23
473.892638
 33
0.0
 14
104.693951
 24
473.892638
 34
0.0
  3
LC-DIM-L-0090-02-02
  0
DIMENSION
  8
0
  5
430
  2
*D7
 10
40.0
 20
413.841139
 30
0.0
 11
40.0
 21
413.841139
 31
0.0
  1
70-275
 13
61.205407
 23
476.404095
 33
0.0
 14
101.930905
 24
351.278183
 34
0.0
 50
90.0
  3
LC-DIM-L-0090-02-02
  0
DIMENSION
  8
0
  5
431
  2
*D8
 10
360.0
 20
308.387297
 30
0.0
 11
360.0
 21
308.387297
 31
0.0
  1
146
 13
315.968396
 23
381.383501
 33
0.0
 14
315.968396
 24
235.391092
 34
0.0
 50
90.0
  3
LC-DIM-L-0090-02-02
  0
INSERT
  8
0
  5
432
  2
*X9
 10
217.035659
 20
374.38591
 30
0.0
  0
INSERT
  8
0
  5
433
  2
*X10
 10
217.035659
 20
235.391092
 30
0.0
  0
DIMENSION
  8
0
  5
434
  2
*D11
 10
285.058122
 20
450.0
 30
0.0
 11
285.058122
 21
450.0
 31
0.0
 13
252.035659
 23
388.834011
 33
0.0
 14
327.034396
 24
378.585474
 34
0.0
  3
LC-DIM-L-0090-02-02
  0
INSERT
  8
0
  5
436
  2
BLK1
 10
0.0
 20
0.0
 30
0.0
  0
INSERT
  8
0
  5
437
  2
*X13
 10
206.934585
 20
267.696546
 30
0.0
  0
INSERT
  8
0
  5
438
  2
*X14
 10
272.965378
 20
258.034973
 30
0.0
  0
INSERT
  8
0
  5
439
  2
BLK2
 10
0.0
 20
0.0
 30
0.0
  0
DIMENSION
  8
0
  5
43A
  2
*D16
 10
180.0
 20
263.142
 30
0.0
 11
180.0
 21
263.142
 31
0.0
  1
%%c<>
 13
215.193399
 23
398.834011
 33
0.0
 14
215.193399
 24
303.834011
 34
0.0
 50
90.0
  3
LC-DIM-L-0090-02-02
  0
INSERT
  8
0
  5
43B
  2
*X17
 10
272.968396
 20
173.583175
 30
0.0
  0
INSERT
  8
0
  5
43C
  2
*X18
 10
269.818396
 20
173.583175
 30
0.0
  0
INSERT
  8
0
  5
43D
  2
*X19
 10
68.505798
 20
398.278183
 30
0.0
  0
INSERT
  8
0
  5
43E
  2
*X20
 10
102.180905
 20
398.278183
 30
0.0
  0
INSERT
  8
0
  5
43F
  2
*X21
 10
102.180905
 20
388.278183
 30
0.0
  0
INSERT
  8
0
  5
440
  2
*X22
 10
68.505798
 20
388.278183
 30
0.0
  0
INSERT
  8
0
  5
441
  2
*X23
 10
61.180905
 20
387.278183
 30
0.0
  0
INSERT
  8
0
  5
442
  2
*X24
 10
212.035659
 20
387.834011
 30
0.0
  0
INSERT
  8
0
  5
443
  2
*X25
 10
212.035659
 20
313.834011
 30
0.0
  0
INSERT
  8
0
  5
444
  2
*X26
 10
102.370773
 20
459.904095
 30
0.0
  0
INSERT
  8
0
  5
445
  2
BLK3
 10
0.0
 20
0.0
 30
0.0
  0
INSERT
  8
0
  5
446
  2
BLK4
 10
0.0
 20
0.0
 30
0.0
  0
INSERT
  8
0
  5
447
  2
BLK5
 10
0.0
 20
0.0
 30
0.0
  0
INSERT
  8
0
  5
448
  2
BLK6
 10
0.0
 20
0.0
 30
0.0
  0
INSERT
  8
0
  5
449
  2
BLK7
 10
0.0
 20
0.0
 30
0.0
  0
INSERT
  8
0
  5
44A
  2
*X32
 10
68.505798
 20
467.539598
 30
0.0
  0
INSERT
  8
0
  5
44B
  2
*X33
 10
99.930905
 20
467.539598
 30
0.0
  0
INSERT
  8
0
  5
44C
  2
BLK8
 10
0.0
 20
0.0
 30
0.0
  0
INSERT
  8
0
  5
44D
  2
BLK9
 10
0.0
 20
0.0
 30
0.0
  0
INSERT
  8
0
  5
44E
  2
*X36
 10
61.205407
 20
459.904095
 30
0.0
  0
INSERT
  8
0
  5
44F
  2
*X37
 10
102.34627
 20
387.278183
 30
0.0
  0
INSERT
  8
0
  5
450
  2
*X38
 10
99.930905
 20
435.676875
 30
0.0
  0
INSERT
  8
0
  5
451
  2
*X39
 10
66.930905
 20
435.676875
 30
0.0
  0
INSERT
  8
0
  5
452
  2
*X40
 10
99.930905
 20
370.904817
 30
0.0
  0
INSERT
  8
0
  5
453
  2
*X41
 10
70.430905
 20
370.904817
 30
0.0
  0
INSERT
  8
0
  5
454
  2
*X42
 10
68.180905
 20
335.278183
 30
0.0
  0
INSERT
  8
0
  5
455
  2
*X43
 10
102.180905
 20
365.278183
 30
0.0
  0
INSERT
  8
0
  5
456
  2
*X44
 10
151.428861
 20
365.334011
 30
0.0
  0
INSERT
  8
0
  5
457
  2
*X45
 10
151.428861
 20
335.334011
 30
0.0
  0
INSERT
  8
0
  5
458
  2
BLK10
 10
0.0
 20
0.0
 30
0.0
  0
INSERT
  8
0
  5
459
  2
BLK11
 10
0.0
 20
0.0
 30
0.0
  0
INSERT
  8
0
  5
45A
  2
BLK12
 10
0.0
 20
0.0
 30
0.0
  0
INSERT
  8
0
  5
45B
  2
BLK13
 10
0.0
 20
0.0
 30
0.0
  0
INSERT
  8
0
  5
45C
  2
BLK14
 10
0.0
 20
0.0
 30
0.0
  0
INSERT
  8
0
  5
45D
  2
*X51
 10
315.968396
 20
303.460183
 30
0.0
  0
INSERT
  8
0
  5
45E
  2
*X52
 10
325.022396
 20
366.259017
 30
0.0
  0
INSERT
  8
0
  5
45F
  2
*X53
 10
325.022396
 20
341.109017
 30
0.0
  0
INSERT
  8
0
  5
460
  2
*X54
 10
325.022396
 20
326.584017
 30
0.0
  0
INSERT
  8
0
  5
461
  2
BLK15
 10
0.0
 20
0.0
 30
0.0
  0
INSERT
  8
0
  5
462
  2
BLK16
 10
0.0
 20
0.0
 30
0.0
  0
INSERT
  8
0
  5
463
  2
BLK17
 10
0.0
 20
0.0
 30
0.0
  0
INSERT
  8
0
  5
464
  2
BLK18
 10
0.0
 20
0.0
 30
0.0
  0
LINE
  8
LC-001-002-----0
  6
CONTINUOUS
  5
466
 10
252.035659
 20
388.834011
 30
0.0
 11
252.035659
 21
378.583814
 31
0.0
  0
LINE
  8
LC-001-002-----0
  6
CONTINUOUS
  5
467
 10
273.968396
 20
235.391092
 30
0.0
 11
273.968396
 21
236.891092
 31
0.0
  0
LINE
  8
LC-001-002-----0
  6
CONTINUOUS
  5
468
 10
273.968396
 20
235.391092
 30
0.0
 11
274.868396
 21
235.391092
 31
0.0
  0
LINE
  8
LC-001-002-----0
  6
CONTINUOUS
  5
469
 10
212.035659
 20
388.834011
 30
0.0
 11
252.035659
 21
388.834011
 31
0.0
  0
LINE
  8
LC-001-002-----0
  6
CONTINUOUS
  5
46A
 10
212.035659
 20
388.834011
 30
0.0
 11
212.035659
 21
367.397989
 31
0.0
  0
ARC
  8
LC-001-002-----0
  6
DASHED
 62
     2
  5
46C
 10
547.23163
 20
321.217703
 30
0.0
 40
58.0
 50
106.862811
 51
191.676341
  0
LINE
  8
LC-001-002-----0
  6
DASHED
 62
     2
  5
46D
 10
490.403337
 20
309.473599
 30
0.0
 11
499.796777
 21
256.200752
 31
0.0
  0
LINE
  8
LC-001-002-----0
  6
CONTINUOUS
  5
46E
 10
276.868396
 20
229.804748
 30
0.0
 11
312.968396
 21
229.804748
 31
0.0
  0
LINE
  8
LC-001-002-----0
  6
CONTINUOUS
  5
46F
 10
271.818396
 20
224.754748
 30
0.0
 11
318.018396
 21
224.754748
 31
0.0
  0
LINE
  8
LC-001-002-----0
  6
CONTINUOUS
  5
470
 10
246.035659
 20
333.10196
 30
0.0
 11
246.035659
 21
322.834011
 31
0.0
  0
LINE
  8
LC-001-002-----0
  6
CONTINUOUS
  5
471
 10
212.035659
 20
335.397989
 30
0.0
 11
212.035659
 21
313.834011
 31
0.0
  0
LINE
  8
LC-005-005-----0
  6
CONTINUOUS
  5
472
 10
275.560851
 20
273.154011
 30
0.0
 11
275.035659
 21
273.679204
 31
0.0
  0
LINE
  8
LC-005-005-----0
  6
CONTINUOUS
  5
473
 10
306.67355
 20
273.154011
 30
0.0
 11
304.535659
 21
275.291902
 31
0.0
  0
LINE
  8
LC-001-002-----0
  6
CONTINUOUS
  5
474
 10
631.137108
 20
378.334011
 30
0.0
 11
606.137108
 21
378.334011
 31
0.0
  0
ARC
  8
LC-001-002-----0
  6
CONTINUOUS
  5
475
 10
654.486379
 20
365.474011
 30
0.0
 40
3.1
 50
270.0
 51
90.0
  0
LINE
  8
LC-001-002-----0
  6
CONTINUOUS
  5
476
 10
654.486379
 20
368.574011
 30
0.0
 11
643.631379
 21
368.574011
 31
0.0
  0
ARC
  8
LC-006-002-RND-0
  5
478
 10
521.462548
 20
260.021012
 30
0.0
 40
22.0
 50
190.0
 51
270.0
  0
ARC
  8
LC-001-002-----0
  6
CONTINUOUS
  5
479
 10
306.934585
 20
334.971476
 30
0.0
 40
98.5
 50
180.661659
 51
195.65621
  0
LINE
  8
LC-001-002-----0
  6
CONTINUOUS
  5
47A
 10
654.486379
 20
362.374011
 30
0.0
 11
652.855315
 21
362.374011
 31
0.0
  0
ARC
  8
LC-001-002-----0
  6
DASHED
 62
     2
  5
47B
 10
538.631379
 20
351.334011
 30
0.0
 40
32.436123
 50
119.556212
 51
60.443788
  0
LINE
  8
LC-001-002-----0
  6
DASHDOT
 62
     2
  5
47D
 10
615.352478
 20
330.840523
 30
0.0
 11
621.758875
 21
330.840523
 31
0.0
  0
ARC
  8
LC-006-002-RND-0
  6
CONTINUOUS
 62
     1
  5
47E
 10
207.434594
 20
334.834011
 30
0.0
 40
0.5
 50
90.0
 51
180.003985
  0
LINE
  8
LC-001-002-----0
  6
CONTINUOUS
  5
47F
 10
210.9339
 20
335.334011
 30
0.0
 11
210.9339
 21
333.834011
 31
0.0
  0
ARC
  8
LC-006-002-RND-0
  6
CONTINUOUS
 62
     1
  5
480
 10
587.636379
 20
318.335468
 30
0.0
 40
6.0
 50
90.0
 51
180.0
  0
ARC
  8
LC-001-002-----0
  6
CONTINUOUS
  5
481
 10
216.390025
 20
309.713474
 30
0.0
 40
4.5
 50
197.106393
 51
254.578552
  0
LINE
  8
LC-001-002-----0
  6
CONTINUOUS
  5
482
 10
210.9339
 20
335.334011
 30
0.0
 11
207.434594
 21
335.334011
 31
0.0
  0
LINE
  8
LC-001-002-----0
  6
CONTINUOUS
  5
483
 10
210.9339
 20
333.834011
 30
0.0
 11
208.436266
 21
333.834011
 31
0.0
  0
LINE
  8
LC-001-002-----0
  6
CONTINUOUS
  5
484
 10
212.035659
 20
387.834011
 30
0.0
 11
249.035659
 21
387.834011
 31
0.0
  0
LINE
  8
LC-001-002-----0
  6
DASHDOT
 62
     2
  5
485
 10
100.180905
 20
351.334011
 30
0.0
 11
291.035659
 21
351.334011
 31
0.0
  0
LINE
  8
LC-001-002-----0
  6
DASHDOT
 62
     2
  5
486
 10
86.180905
 20
476.404095
 30
0.0
 11
86.180905
 21
365.278183
 31
0.0
  0
LINE
  8
LC-001-002-----0
  6
CONTINUOUS
  5
487
 10
104.180905
 20
367.278183
 30
0.0
 11
150.428861
 21
367.278183
 31
0.0
  0
LINE
  8
LC-001-002-----0
  6
CONTINUOUS
  5
488
 10
100.180905
 20
335.278183
 30
0.0
 11
150.428861
 21
335.278183
 31
0.0
  0
LINE
  8
LC-001-002-----0
  6
CONTINUOUS
  5
489
 10
104.180905
 20
384.278183
 30
0.0
 11
104.180905
 21
367.278183
 31
0.0
  0
LINE
  8
LC-001-002-----0
  6
CONTINUOUS
  5
48A
 10
68.180905
 20
384.278183
 30
0.0
 11
68.180905
 21
367.278183
 31
0.0
  0
LINE
  8
LC-001-002-----0
  6
CONTINUOUS
  5
48B
 10
100.180905
 20
337.278183
 30
0.0
 11
150.428861
 21
337.278183
 31
0.0
  0
LINE
  8
LC-001-002-----0
  6
CONTINUOUS
  5
48C
 10
102.180905
 20
365.278183
 30
0.0
 11
150.428861
 21
365.278183
 31
0.0
  0
LINE
  8
LC-001-002-----0
  6
CONTINUOUS
  5
48D
 10
68.505798
 20
397.778183
 30
0.0
 11
70.180905
 21
397.778183
 31
0.0
  0
LINE
  8
LC-001-002-----0
  6
CONTINUOUS
  5
48E
 10
68.180905
 20
394.278183
 30
0.0
 11
69.122943
 21
394.278183
 31
0.0
  0
LINE
  8
LC-001-002-----0
  6
CONTINUOUS
  5
48F
 10
106.680905
 20
391.778183
 30
0.0
 11
106.680905
 21
386.778183
 31
0.0
  0
LINE
  8
LC-001-002-----0
  6
CONTINUOUS
  5
490
 10
65.680905
 20
391.778183
 30
0.0
 11
65.680905
 21
386.778183
 31
0.0
  0
LINE
  8
LC-001-002-----0
  6
CONTINUOUS
  5
491
 10
70.180905
 20
394.278183
 30
0.0
 11
70.180905
 21
394.278183
 31
0.0
  0
LINE
  8
LC-001-002-----0
  6
CONTINUOUS
  5
492
 10
102.180905
 20
394.278183
 30
0.0
 11
102.180905
 21
394.278183
 31
0.0
  0
ARC
  8
LC-006-002-RND-0
  6
CONTINUOUS
 62
     1
  5
493
 10
100.180905
 20
367.278183
 30
0.0
 40
32.0
 50
180.0
 51
270.0
  0
LINE
  8
LC-001-002-----0
  6
CONTINUOUS
  5
494
 10
272.965378
 20
258.034973
 30
0.0
 11
312.968396
 21
258.034973
 31
0.0
  0
ARC
  8
LC-006-002-RND-0
  6
CONTINUOUS
 62
     1
  5
495
 10
100.180905
 20
367.278183
 30
0.0
 40
30.0
 50
180.0
 51
270.0
  0
LINE
  8
LC-001-002-----0
  6
CONTINUOUS
  5
496
 10
272.965378
 20
260.534973
 30
0.0
 11
312.968396
 21
260.534973
 31
0.0
  0
LINE
  8
LC-001-002-----0
  6
CONTINUOUS
  5
497
 10
212.035659
 20
314.834011
 30
0.0
 11
249.035659
 21
314.834011
 31
0.0
  0
LINE
  8
LC-001-002-----0
  6
CONTINUOUS
  5
498
 10
212.035659
 20
313.834011
 30
0.0
 11
252.035659
 21
313.834011
 31
0.0
  0
ARC
  8
LC-001-002-----0
  6
CONTINUOUS
  5
499
 10
216.390025
 20
309.713474
 30
0.0
 40
6.0
 50
196.512636
 51
258.495918
  0
LINE
  8
LC-001-002-----0
  6
CONTINUOUS
  5
49A
 10
252.035659
 20
313.834011
 30
0.0
 11
252.035659
 21
324.084208
 31
0.0
  0
LINE
  8
LC-001-002-----0
  6
CONTINUOUS
  5
49B
 10
249.035659
 20
314.834011
 30
0.0
 11
249.035659
 21
327.084204
 31
0.0
  0
LINE
  8
LC-001-002-----0
  6
CONTINUOUS
  5
49C
 10
312.968396
 20
258.034973
 30
0.0
 11
312.968396
 21
229.804748
 31
0.0
  0
LINE
  8
LC-001-002-----0
  6
CONTINUOUS
  5
49D
 10
249.035659
 20
326.834011
 30
0.0
 11
251.035659
 21
327.369909
 31
0.0
  0
LINE
  8
LC-001-002-----0
  6
CONTINUOUS
  5
49E
 10
68.180905
 20
384.278183
 30
0.0
 11
65.680905
 21
386.778183
 31
0.0
  0
ARC
  8
LC-006-002-RND-0
  6
CONTINUOUS
 62
     1
  5
49F
 10
256.132159
 20
326.834011
 30
0.0
 40
0.5
 50
200.556045
 51
270.0
  0
LINE
  8
LC-001-002-----0
  6
CONTINUOUS
  5
4A0
 10
253.535659
 20
332.334011
 30
0.0
 11
255.663994
 21
326.658449
 31
0.0
  0
LINE
  8
LC-001-002-----0
  6
CONTINUOUS
  5
4A1
 10
256.907323
 20
326.658449
 30
0.0
 11
259.035659
 21
332.334011
 31
0.0
  0
ARC
  8
LC-006-002-RND-0
  6
CONTINUOUS
 62
     1
  5
4A2
 10
256.439158
 20
326.834011
 30
0.0
 40
0.5
 50
270.0
 51
339.443955
  0
LINE
  8
LC-001-002-----0
  6
CONTINUOUS
  5
4A3
 10
256.132159
 20
326.334011
 30
0.0
 11
256.439158
 21
326.334011
 31
0.0
  0
LINE
  8
LC-001-002-----0
  6
CONTINUOUS
  5
4A4
 10
104.180905
 20
384.278183
 30
0.0
 11
106.680905
 21
386.778183
 31
0.0
  0
LINE
  8
LC-001-002-----0
  6
CONTINUOUS
  5
4A5
 10
104.180905
 20
394.278183
 30
0.0
 11
106.680905
 21
391.778183
 31
0.0
  0
LINE
  8
LC-001-002-----0
  6
CONTINUOUS
  5
4A6
 10
70.180905
 20
370.278183
 30
0.0
 11
71.680905
 21
370.278183
 31
0.0
  0
ARC
  8
LC-001-002-----0
  6
DASHED
 62
     2
  5
4A7
 10
538.631379
 20
351.270134
 30
0.0
 40
32.43606
 50
60.499352
 51
119.500648
  0
ARC
  8
LC-001-002-----0
  6
CONTINUOUS
  5
4A8
 10
652.855315
 20
360.874011
 30
0.0
 40
1.5
 50
90.0
 51
156.828899
  0
ARC
  8
LC-001-002-----0
  6
CONTINUOUS
  5
4A9
 10
306.934585
 20
334.971476
 30
0.0
 40
100.0
 50
180.079158
 51
195.642467
  0
LINE
  8
LC-001-002-----0
  6
CONTINUOUS
  5
4AA
 10
263.535659
 20
332.334011
 30
0.0
 11
265.663994
 21
326.658449
 31
0.0
  0
LINE
  8
LC-001-002-----0
  6
CONTINUOUS
  5
4AB
 10
215.193399
 20
313.834011
 30
0.0
 11
215.193399
 21
303.834011
 31
0.0
  0
LINE
  8
LC-001-002-----0
  6
CONTINUOUS
  5
4AC
 10
68.505798
 20
398.778183
 30
0.0
 11
70.180905
 21
398.778183
 31
0.0
  0
ARC
  8
LC-001-002-----0
  6
CONTINUOUS
  5
4AD
 10
648.626379
 20
362.684011
 30
0.0
 40
3.1
 50
203.171101
 51
336.828899
  0
LINE
  8
LC-001-002-----0
  6
CONTINUOUS
  5
4AE
 10
70.180905
 20
388.278183
 30
0.0
 11
68.505798
 21
397.778183
 31
0.0
  0
LINE
  8
LC-001-002-----0
  6
CONTINUOUS
  5
4AF
 10
102.180905
 20
388.278183
 30
0.0
 11
103.856011
 21
397.778183
 31
0.0
  0
LINE
  8
LC-001-002-----0
  6
CONTINUOUS
  5
4B0
 10
471.145651
 20
378.334011
 30
0.0
 11
446.145651
 21
378.334011
 31
0.0
  0
LINE
  8
LC-001-002-----0
  6
CONTINUOUS
  5
4B1
 10
70.180905
 20
388.278183
 30
0.0
 11
70.180905
 21
367.278183
 31
0.0
  0
LINE
  8
LC-001-002-----0
  6
DASHDOT
 62
     2
  5
4B2
 10
458.645651
 20
325.334011
 30
0.0
 11
458.645651
 21
378.334011
 31
0.0
  0
ARC
  8
LC-001-002-----0
  6
CONTINUOUS
  5
4B3
 10
458.645651
 20
351.334011
 30
0.0
 40
13.5
 50
0.0
 51
180.0
  0
LINE
  8
LC-001-002-----0
  6
CONTINUOUS
  5
4B4
 10
102.180905
 20
388.278183
 30
0.0
 11
102.180905
 21
365.278183
 31
0.0
  0
LINE
  8
LC-001-002-----0
  6
CONTINUOUS
  5
4B5
 10
103.238867
 20
394.278183
 30
0.0
 11
104.180905
 21
394.278183
 31
0.0
  0
ARC
  8
LC-006-002-RND-0
  6
CONTINUOUS
 62
     1
  5
4B6
 10
458.645651
 20
351.334011
 30
0.0
 40
13.5
 50
270.0
 51
325.955015
  0
LINE
  8
LC-001-002-----0
  6
CONTINUOUS
  5
4B7
 10
499.730086
 20
378.335468
 30
0.0
 11
438.636379
 21
378.335468
 31
0.0
  0
ARC
  8
LC-001-002-----0
  6
CONTINUOUS
 62
     2
  5
4B8
 10
444.501379
 20
365.478282
 30
0.0
 40
1.5
 50
64.743803
 51
295.256197
  0
ARC
  8
LC-001-002-----0
  6
CONTINUOUS
  5
4B9
 10
644.397443
 20
360.874011
 30
0.0
 40
1.5
 50
23.171101
 51
90.0
  0
LINE
  8
LC-001-002-----0
  6
CONTINUOUS
  5
4BA
 10
643.631379
 20
362.374011
 30
0.0
 11
644.397443
 21
362.374011
 31
0.0
  0
ARC
  8
LC-001-002-----0
  6
CONTINUOUS
  5
4BB
 10
654.486379
 20
337.194011
 30
0.0
 40
3.1
 50
270.0
 51
90.0
  0
LINE
  8
LC-001-002-----0
  6
CONTINUOUS
  5
4BC
 10
654.486379
 20
340.294011
 30
0.0
 11
652.855315
 21
340.294011
 31
0.0
  0
ARC
  8
LC-001-002-----0
  6
CONTINUOUS
  5
4BD
 10
547.23163
 20
321.338292
 30
0.0
 40
61.0
 50
155.802857
 51
191.593947
  0
LINE
  8
LC-001-002-----0
  6
CONTINUOUS
  5
4BE
 10
581.636379
 20
284.335468
 30
0.0
 11
580.704743
 21
284.335468
 31
0.0
  0
LINE
  8
LC-001-002-----0
  6
CONTINUOUS
  5
4BF
 10
70.180905
 20
388.278183
 30
0.0
 11
70.180905
 21
397.778183
 31
0.0
  0
ARC
  8
LC-001-002-----0
  6
CONTINUOUS
  5
4C0
 10
652.855315
 20
341.794011
 30
0.0
 40
1.5
 50
203.171101
 51
270.0
  0
ARC
  8
LC-001-002-----0
  6
CONTINUOUS
  5
4C1
 10
648.626379
 20
339.984011
 30
0.0
 40
3.1
 50
23.171101
 51
156.828899
  0
ARC
  8
LC-001-002-----0
  6
CONTINUOUS
  5
4C2
 10
644.397443
 20
341.794011
 30
0.0
 40
1.5
 50
270.0
 51
336.828899
  0
LINE
  8
LC-001-002-----0
  6
CONTINUOUS
  5
4C3
 10
643.631379
 20
340.294011
 30
0.0
 11
644.397443
 21
340.294011
 31
0.0
  0
LINE
  8
LC-001-002-----0
  6
CONTINUOUS
  5
4C4
 10
654.486379
 20
334.094011
 30
0.0
 11
643.631379
 21
334.094011
 31
0.0
  0
LINE
  8
LC-001-002-----0
  6
CONTINUOUS
  5
4C5
 10
266.907323
 20
326.658449
 30
0.0
 11
269.035659
 21
332.334011
 31
0.0
  0
LINE
  8
LC-001-002-----0
  6
CONTINUOUS
  5
4C6
 10
433.636379
 20
348.024936
 30
0.0
 11
433.636379
 21
329.335468
 31
0.0
  0
ARC
  8
LC-006-002-RND-0
  6
CONTINUOUS
 62
     1
  5
4C7
 10
266.439158
 20
326.834011
 30
0.0
 40
0.5
 50
270.0
 51
339.443955
  0
ARC
  8
LC-006-002-RND-0
  6
CONTINUOUS
 62
     1
  5
4C8
 10
266.132159
 20
326.834011
 30
0.0
 40
0.5
 50
200.556045
 51
270.0
  0
ARC
  8
LC-001-002-----0
  6
CONTINUOUS
  5
4C9
 10
306.934585
 20
367.696546
 30
0.0
 40
98.5
 50
164.34379
 51
179.338341
  0
LINE
  8
LC-001-002-----0
  6
DASHED
 62
     2
  5
4CA
 10
521.462548
 20
238.021012
 30
0.0
 11
556.681379
 21
238.021012
 31
0.0
  0
LINE
  8
LC-001-002-----0
  6
CONTINUOUS
  5
4CB
 10
102.180905
 20
388.278183
 30
0.0
 11
102.180905
 21
397.778183
 31
0.0
  0
LINE
  8
LC-001-002-----0
  6
DASHED
 62
     2
  5
4CC
 10
556.681379
 20
255.476806
 30
0.0
 11
556.681379
 21
238.021012
 31
0.0
  0
LINE
  8
LC-001-002-----0
  6
DASHED
 62
     2
  5
4CD
 10
556.681379
 20
255.476806
 30
0.0
 11
546.457622
 21
255.476806
 31
0.0
  0
ARC
  8
LC-006-002-RND-0
  5
4CE
 10
546.457622
 20
283.476806
 30
0.0
 40
28.0
 50
190.0
 51
270.0
  0
LINE
  8
LC-001-002-----0
  6
CONTINUOUS
  5
4CF
 10
68.505798
 20
398.278183
 30
0.0
 11
70.180905
 21
398.278183
 31
0.0
  0
ARC
  8
LC-006-002-RND-0
  6
CONTINUOUS
 62
     1
  5
4D0
 10
207.434594
 20
367.834011
 30
0.0
 40
0.5
 50
179.996015
 51
270.0
  0
LINE
  8
LC-001-002-----0
  6
CONTINUOUS
  5
4D1
 10
210.9339
 20
367.334011
 30
0.0
 11
210.9339
 21
368.834011
 31
0.0
  0
ARC
  8
LC-001-002-----0
  6
CONTINUOUS
  5
4D2
 10
216.390025
 20
392.954548
 30
0.0
 40
4.5
 50
105.421448
 51
162.893607
  0
LINE
  8
LC-001-002-----0
  6
DASHED
 62
     2
  5
4D3
 10
511.051472
 20
323.029487
 30
0.0
 11
518.883005
 21
278.614657
 31
0.0
  0
LINE
  8
LC-001-002-----0
  6
CONTINUOUS
  5
4D4
 10
102.180905
 20
398.778183
 30
0.0
 11
103.856011
 21
398.778183
 31
0.0
  0
LINE
  8
LC-001-002-----0
  6
DASHED
 62
     2
  5
4D5
 10
514.005895
 20
323.550431
 30
0.0
 11
511.051472
 21
323.029487
 31
0.0
  0
LINE
  8
LC-001-002-----0
  6
DASHED
 62
     2
  5
4D6
 10
514.005895
 20
323.550431
 30
0.0
 11
521.837428
 21
279.135602
 31
0.0
  0
LINE
  8
LC-001-002-----0
  6
DASHED
 62
     2
  5
4D7
 10
564.320476
 20
258.476806
 30
0.0
 11
546.457622
 21
258.476806
 31
0.0
  0
ARC
  8
LC-006-002-RND-0
  5
4D8
 10
564.320476
 20
273.476806
 30
0.0
 40
15.0
 50
270.0
 51
10.0
  0
LINE
  8
LC-001-002-----0
  6
DASHED
 62
     2
  5
4D9
 10
565.02533
 20
355.860935
 30
0.0
 11
579.092592
 21
276.081529
 31
0.0
  0
ARC
  8
LC-001-002-----0
  6
DASHED
 62
     2
  5
4DA
 10
538.631379
 20
351.149544
 30
0.0
 40
26.8
 50
10.120905
 51
107.829622
  0
LINE
  8
LC-001-002-----0
  6
DASHED
 62
     2
  5
4DB
 10
520.581379
 20
235.021012
 30
0.0
 11
520.581379
 21
229.684158
 31
0.0
  0
LINE
  8
LC-001-002-----0
  6
DASHED
 62
     2
  5
4DC
 10
520.581379
 20
229.684158
 30
0.0
 11
515.817156
 21
224.919935
 31
0.0
  0
LINE
  8
LC-001-002-----0
  6
DASHED
 62
     2
  5
4DD
 10
515.531379
 20
224.634158
 30
0.0
 11
515.531379
 21
173.462585
 31
0.0
  0
LINE
  8
LC-001-002-----0
  6
DASHED
 62
     2
  5
4DE
 10
561.731379
 20
224.634158
 30
0.0
 11
561.731379
 21
173.462585
 31
0.0
  0
LINE
  8
LC-001-002-----0
  6
CONTINUOUS
  5
4DF
 10
210.9339
 20
367.334011
 30
0.0
 11
207.434594
 21
367.334011
 31
0.0
  0
LINE
  8
LC-001-002-----0
  6
CONTINUOUS
  5
4E0
 10
210.9339
 20
368.834011
 30
0.0
 11
208.436266
 21
368.834011
 31
0.0
  0
ARC
  8
LC-001-002-----0
  6
CONTINUOUS
  5
4E1
 10
216.390025
 20
392.954548
 30
0.0
 40
6.0
 50
101.504082
 51
163.487364
  0
ARC
  8
LC-001-002-----0
  6
CONTINUOUS
  5
4E2
 10
306.934585
 20
367.696546
 30
0.0
 40
100.0
 50
164.357533
 51
179.920842
  0
LINE
  8
LC-001-002-----0
  6
CONTINUOUS
  5
4E3
 10
215.193399
 20
388.834011
 30
0.0
 11
215.193399
 21
398.834011
 31
0.0
  0
LINE
  8
LC-001-002-----0
  6
DASHED
 62
     2
  5
4E4
 10
556.681379
 20
229.684158
 30
0.0
 11
561.731379
 21
224.634158
 31
0.0
  0
LINE
  8
LC-001-002-----0
  6
DASHED
 62
     2
  5
4E5
 10
556.681379
 20
235.021012
 30
0.0
 11
556.681379
 21
229.684158
 31
0.0
  0
LINE
  8
LC-001-002-----0
  6
CONTINUOUS
  5
4E6
 10
643.636379
 20
348.00986
 30
0.0
 11
643.636379
 21
329.335468
 31
0.0
  0
LINE
  8
LC-001-002-----0
  6
CONTINUOUS
  5
4E7
 10
266.132159
 20
326.334011
 30
0.0
 11
266.785659
 21
326.334011
 31
0.0
  0
LINE
  8
LC-001-002-----0
  6
DASHDOT
 62
     2
  5
4E8
 10
618.637108
 20
325.334011
 30
0.0
 11
618.637108
 21
378.335468
 31
0.0
  0
LINE
  8
LC-001-002-----0
  6
CONTINUOUS
  5
4E9
 10
272.965378
 20
258.498695
 30
0.0
 11
272.965378
 21
258.034973
 31
0.0
  0
ARC
  8
LC-006-002-RND-0
  6
CONTINUOUS
 62
     1
  5
4EA
 10
458.645651
 20
351.334011
 30
0.0
 40
13.5
 50
180.0
 51
214.044985
  0
LINE
  8
LC-001-002-----0
  6
CONTINUOUS
  5
4EB
 10
445.145651
 20
377.334011
 30
0.0
 11
445.145651
 21
351.334011
 31
0.0
  0
LINE
  8
LC-001-002-----0
  6
CONTINUOUS
  5
4EC
 10
562.793557
 20
173.583175
 30
0.0
 11
514.469201
 21
173.583175
 31
0.0
  0
LINE
  8
LC-001-002-----0
  6
CONTINUOUS
  5
4ED
 10
68.505798
 20
398.778183
 30
0.0
 11
68.505798
 21
398.278183
 31
0.0
  0
LINE
  8
LC-001-002-----0
  6
DASHDOT
 62
     2
  5
4EE
 10
598.641379
 20
354.334011
 30
0.0
 11
598.641379
 21
348.334011
 31
0.0
  0
LINE
  8
LC-001-002-----0
  6
CONTINUOUS
  5
4EF
 10
103.856011
 20
398.778183
 30
0.0
 11
103.856011
 21
398.278183
 31
0.0
  0
LINE
  8
LC-001-002-----0
  6
DASHDOT
 62
     2
  5
4F0
 10
638.641379
 20
354.334011
 30
0.0
 11
638.641379
 21
348.334011
 31
0.0
  0
LINE
  8
LC-001-002-----0
  6
DASHDOT
 62
     2
  5
4F1
 10
294.918396
 20
238.391092
 30
0.0
 11
294.918396
 21
173.583175
 31
0.0
  0
LINE
  8
LC-001-002-----0
  6
CONTINUOUS
  5
4F2
 10
269.818396
 20
225.583175
 30
0.0
 11
269.818396
 21
177.083175
 31
0.0
  0
LINE
  8
LC-001-002-----0
  6
CONTINUOUS
  5
4F3
 10
320.018396
 20
225.583175
 30
0.0
 11
320.018396
 21
177.083175
 31
0.0
  0
LINE
  8
LC-001-002-----0
  6
CONTINUOUS
  5
4F4
 10
319.080574
 20
173.583175
 30
0.0
 11
270.756219
 21
173.583175
 31
0.0
  0
LINE
  8
LC-001-002-----0
  6
CONTINUOUS
  5
4F5
 10
269.818396
 20
177.083175
 30
0.0
 11
270.756219
 21
173.583175
 31
0.0
  0
LINE
  8
LC-001-002-----0
  6
CONTINUOUS
  5
4F6
 10
320.018396
 20
177.083175
 30
0.0
 11
319.080574
 21
173.583175
 31
0.0
  0
LINE
  8
LC-001-002-----0
  6
CONTINUOUS
  5
4F7
 10
274.868396
 20
230.633175
 30
0.0
 11
269.818396
 21
225.583175
 31
0.0
  0
LINE
  8
LC-001-002-----0
  6
CONTINUOUS
  5
4F8
 10
314.968396
 20
230.633175
 30
0.0
 11
320.018396
 21
225.583175
 31
0.0
  0
LINE
  8
LC-001-002-----0
  6
CONTINUOUS
  5
4F9
 10
271.818396
 20
224.754748
 30
0.0
 11
271.818396
 21
173.583175
 31
0.0
  0
LINE
  8
LC-001-002-----0
  6
CONTINUOUS
  5
4FA
 10
318.018396
 20
224.754748
 30
0.0
 11
318.018396
 21
173.583175
 31
0.0
  0
LINE
  8
LC-001-002-----0
  6
CONTINUOUS
  5
4FB
 10
513.531379
 20
177.083175
 30
0.0
 11
563.731379
 21
177.083175
 31
0.0
  0
LINE
  8
LC-001-002-----0
  6
CONTINUOUS
  5
4FC
 10
513.531379
 20
177.083175
 30
0.0
 11
514.469201
 21
173.583175
 31
0.0
  0
LINE
  8
LC-001-002-----0
  6
CONTINUOUS
  5
4FD
 10
563.731379
 20
177.083175
 30
0.0
 11
562.793557
 21
173.583175
 31
0.0
  0
LINE
  8
LC-001-002-----0
  6
CONTINUOUS
  5
4FE
 10
513.531379
 20
225.583175
 30
0.0
 11
513.531379
 21
177.083175
 31
0.0
  0
LINE
  8
LC-001-002-----0
  6
CONTINUOUS
  5
4FF
 10
276.868396
 20
229.804748
 30
0.0
 11
271.818396
 21
224.754748
 31
0.0
  0
LINE
  8
LC-001-002-----0
  6
CONTINUOUS
  5
500
 10
312.968396
 20
229.804748
 30
0.0
 11
318.018396
 21
224.754748
 31
0.0
  0
LINE
  8
LC-001-002-----0
  6
CONTINUOUS
  5
501
 10
563.731379
 20
225.583175
 30
0.0
 11
563.731379
 21
177.083175
 31
0.0
  0
LINE
  8
LC-001-002-----0
  6
CONTINUOUS
  5
502
 10
513.531379
 20
225.583175
 30
0.0
 11
563.731379
 21
225.583175
 31
0.0
  0
LINE
  8
LC-001-002-----0
  6
CONTINUOUS
  5
503
 10
518.581379
 20
230.633175
 30
0.0
 11
513.531379
 21
225.583175
 31
0.0
  0
LINE
  8
LC-001-002-----0
  6
CONTINUOUS
  5
504
 10
312.968396
 20
323.150076
 30
0.0
 11
307.035659
 21
323.150076
 31
0.0
  0
LINE
  8
LC-001-002-----0
  6
CONTINUOUS
  5
505
 10
275.035659
 20
323.150076
 30
0.0
 11
270.965378
 21
323.150076
 31
0.0
  0
LINE
  8
LC-001-002-----0
  6
CONTINUOUS
  5
506
 10
275.035659
 20
273.154011
 30
0.0
 11
307.035659
 21
273.154011
 31
0.0
  0
LINE
  8
LC-005-005-----0
  6
CONTINUOUS
  5
507
 10
277.535659
 20
333.4046
 30
0.0
 11
276.106248
 21
334.834011
 31
0.0
  0
LINE
  8
LC-005-005-----0
  6
CONTINUOUS
  5
508
 10
277.535659
 20
330.576173
 30
0.0
 11
273.277821
 21
334.834011
 31
0.0
  0
LINE
  8
LC-005-005-----0
  6
CONTINUOUS
  5
509
 10
277.535659
 20
327.747746
 30
0.0
 11
274.035659
 21
331.247746
 31
0.0
  0
LINE
  8
LC-005-005-----0
  6
CONTINUOUS
  5
50A
 10
272.949394
 20
332.334011
 30
0.0
 11
270.449394
 21
334.834011
 31
0.0
  0
LINE
  8
LC-005-005-----0
  6
CONTINUOUS
  5
50B
 10
277.535659
 20
324.919319
 30
0.0
 11
275.035659
 21
327.419319
 31
0.0
  0
LINE
  8
LC-005-005-----0
  6
CONTINUOUS
  5
50C
 10
270.120967
 20
332.334011
 30
0.0
 11
267.620967
 21
334.834011
 31
0.0
  0
LINE
  8
LC-005-005-----0
  6
CONTINUOUS
  5
50D
 10
277.535659
 20
322.090892
 30
0.0
 11
275.035659
 21
324.590892
 31
0.0
  0
LINE
  8
LC-005-005-----0
  6
CONTINUOUS
  5
50E
 10
268.560262
 20
331.066288
 30
0.0
 11
264.792539
 21
334.834011
 31
0.0
  0
LINE
  8
LC-005-005-----0
  6
CONTINUOUS
  5
50F
 10
277.535659
 20
319.262465
 30
0.0
 11
275.035659
 21
321.762465
 31
0.0
  0
LINE
  8
LC-005-005-----0
  6
CONTINUOUS
  5
510
 10
267.788873
 20
329.00925
 30
0.0
 11
261.964112
 21
334.834011
 31
0.0
  0
LINE
  8
LC-005-005-----0
  6
CONTINUOUS
  5
511
 10
277.535659
 20
316.434038
 30
0.0
 11
275.035659
 21
318.934038
 31
0.0
  0
LINE
  8
LC-005-005-----0
  6
CONTINUOUS
  5
512
 10
267.017484
 20
326.952212
 30
0.0
 11
264.675643
 21
329.294054
 31
0.0
  0
LINE
  8
LC-005-005-----0
  6
CONTINUOUS
  5
513
 10
261.635685
 20
332.334011
 30
0.0
 11
259.135685
 21
334.834011
 31
0.0
  0
LINE
  8
LC-005-005-----0
  6
CONTINUOUS
  5
514
 10
277.535659
 20
313.605611
 30
0.0
 11
275.035659
 21
316.105611
 31
0.0
  0
LINE
  8
LC-005-005-----0
  6
CONTINUOUS
  5
515
 10
258.973368
 20
332.167902
 30
0.0
 11
256.307258
 21
334.834011
 31
0.0
  0
LINE
  8
LC-005-005-----0
  6
CONTINUOUS
  5
516
 10
277.535659
 20
310.777183
 30
0.0
 11
275.035659
 21
313.277183
 31
0.0
  0
LINE
  8
LC-005-005-----0
  6
CONTINUOUS
  5
517
 10
258.201978
 20
330.110864
 30
0.0
 11
253.478831
 21
334.834011
 31
0.0
  0
LINE
  8
LC-005-005-----0
  6
CONTINUOUS
  5
518
 10
277.535659
 20
307.948756
 30
0.0
 11
275.035659
 21
310.448756
 31
0.0
  0
LINE
  8
LC-005-005-----0
  6
CONTINUOUS
  5
519
 10
257.430589
 20
328.053826
 30
0.0
 11
253.766811
 21
331.717603
 31
0.0
  0
LINE
  8
LC-005-005-----0
  6
CONTINUOUS
  5
51A
 10
253.150404
 20
332.334011
 30
0.0
 11
250.650404
 21
334.834011
 31
0.0
  0
LINE
  8
LC-005-005-----0
  6
CONTINUOUS
  5
51B
 10
277.535659
 20
305.120329
 30
0.0
 11
275.035659
 21
307.620329
 31
0.0
  0
LINE
  8
LC-005-005-----0
  6
CONTINUOUS
  5
51C
 10
256.321977
 20
326.334011
 30
0.0
 11
255.463868
 21
327.19212
 31
0.0
  0
LINE
  8
LC-005-005-----0
  6
CONTINUOUS
  5
51D
 10
251.035659
 20
331.620329
 30
0.0
 11
248.266215
 21
334.389773
 31
0.0
  0
LINE
  8
LC-005-005-----0
  6
CONTINUOUS
  5
51E
 10
277.535659
 20
302.291902
 30
0.0
 11
275.035659
 21
304.791902
 31
0.0
  0
LINE
  8
LC-001-002-----0
  6
CONTINUOUS
  5
51F
 10
102.180905
 20
398.278183
 30
0.0
 11
102.180905
 21
398.778183
 31
0.0
  0
LINE
  8
LC-001-002-----0
  6
CONTINUOUS
  5
520
 10
70.180905
 20
398.278183
 30
0.0
 11
70.180905
 21
398.778183
 31
0.0
  0
LINE
  8
LC-005-005-----0
  6
CONTINUOUS
  5
521
 10
251.035659
 20
328.791902
 30
0.0
 11
246.473064
 21
333.354496
 31
0.0
  0
LINE
  8
LC-001-002-----0
  6
CONTINUOUS
  5
522
 10
70.180905
 20
367.278183
 30
0.0
 11
71.680905
 21
367.278183
 31
0.0
  0
LINE
  8
LC-001-002-----0
  6
CONTINUOUS
  5
523
 10
71.680905
 20
370.278183
 30
0.0
 11
71.680905
 21
367.278183
 31
0.0
  0
LINE
  8
LC-001-002-----0
  6
CONTINUOUS
  5
524
 10
102.180905
 20
397.778183
 30
0.0
 11
103.856011
 21
397.778183
 31
0.0
  0
LINE
  8
LC-001-002-----0
  6
CONTINUOUS
  5
525
 10
102.180905
 20
388.278183
 30
0.0
 11
102.180905
 21
388.278183
 31
0.0
  0
LINE
  8
LC-001-002-----0
  6
CONTINUOUS
  5
526
 10
102.180905
 20
398.278183
 30
0.0
 11
103.856011
 21
398.278183
 31
0.0
  0
LINE
  8
LC-001-002-----0
  6
CONTINUOUS
  5
527
 10
101.930905
 20
464.890099
 30
0.0
 11
101.930905
 21
435.676875
 31
0.0
  0
LINE
  8
LC-001-002-----0
  6
CONTINUOUS
  5
528
 10
518.581379
 20
230.633175
 30
0.0
 11
558.681379
 21
230.633175
 31
0.0
  0
LINE
  8
LC-001-002-----0
  6
CONTINUOUS
  5
529
 10
70.430905
 20
464.890099
 30
0.0
 11
70.430905
 21
435.676875
 31
0.0
  0
LINE
  8
LC-001-002-----0
  6
CONTINUOUS
  5
52A
 10
558.681379
 20
230.633175
 30
0.0
 11
563.731379
 21
225.583175
 31
0.0
  0
LINE
  8
LC-001-002-----0
  6
CONTINUOUS
  5
52B
 10
70.430905
 20
370.904817
 30
0.0
 11
101.930905
 21
370.904817
 31
0.0
  0
LINE
  8
LC-001-002-----0
  6
CONTINUOUS
  5
52C
 10
101.930905
 20
351.278183
 30
0.0
 11
101.930905
 21
351.278183
 31
0.0
  0
LINE
  8
LC-001-002-----0
  6
CONTINUOUS
  5
52D
 10
642.635286
 20
326.334011
 30
0.0
 11
703.626379
 21
326.334011
 31
0.0
  0
ARC
  8
LC-006-002-RND-0
  6
CONTINUOUS
 62
     1
  5
52E
 10
100.180905
 20
367.278183
 30
0.0
 40
30.0
 50
180.0
 51
270.0
  0
LINE
  8
LC-001-002-----0
  6
CONTINUOUS
  5
52F
 10
66.930905
 20
467.390099
 30
0.0
 11
105.430905
 21
467.390099
 31
0.0
  0
LINE
  8
LC-001-002-----0
  6
CONTINUOUS
  5
530
 10
66.930905
 20
464.890099
 30
0.0
 11
70.430905
 21
464.890099
 31
0.0
  0
CIRCLE
  8
LC-001-002-----0
  6
CONTINUOUS
  5
531
 10
478.645651
 20
351.334011
 30
0.0
 40
3.0
  0
CIRCLE
  8
LC-001-002-----0
  6
CONTINUOUS
  5
532
 10
428.626379
 20
363.834011
 30
0.0
 40
4.25
  0
CIRCLE
  8
LC-001-002-----0
  6
CONTINUOUS
  5
533
 10
418.626379
 20
351.334011
 30
0.0
 40
4.25
  0
LINE
  8
LC-001-002-----0
  6
CONTINUOUS
  5
534
 10
105.430905
 20
467.390099
 30
0.0
 11
105.430905
 21
464.890099
 31
0.0
  0
CIRCLE
  8
LC-001-002-----0
  6
CONTINUOUS
  5
535
 10
428.626379
 20
338.834011
 30
0.0
 40
4.25
  0
CIRCLE
  8
LC-001-002-----0
  6
CONTINUOUS
  5
536
 10
658.626379
 20
351.334011
 30
0.0
 40
4.25
  0
CIRCLE
  8
LC-001-002-----0
  6
CONTINUOUS
  5
537
 10
388.626379
 20
363.834011
 30
0.0
 40
4.25
  0
LINE
  8
LC-001-002-----0
  6
CONTINUOUS
  5
538
 10
472.145651
 20
351.334011
 30
0.0
 11
472.145651
 21
377.334011
 31
0.0
  0
LINE
  8
LC-001-002-----0
  6
CONTINUOUS
  5
539
 10
66.930905
 20
467.390099
 30
0.0
 11
66.930905
 21
464.890099
 31
0.0
  0
LINE
  8
LC-001-002-----0
  6
CONTINUOUS
  5
53A
 10
101.930905
 20
464.890099
 30
0.0
 11
105.430905
 21
464.890099
 31
0.0
  0
CIRCLE
  8
LC-001-002-----0
  6
CONTINUOUS
  5
53B
 10
388.626379
 20
338.834011
 30
0.0
 40
4.25
  0
ARC
  8
LC-001-002-----0
  6
CONTINUOUS
  5
53C
 10
434.376379
 20
351.334011
 30
0.0
 40
4.25
 50
100.095774
 51
259.904226
  0
LINE
  8
LC-001-002-----0
  6
DASHED
 62
     2
  5
53D
 10
449.345651
 20
351.334011
 30
0.0
 11
449.345651
 21
376.834011
 31
0.0
  0
ARC
  8
LC-006-002-RND-0
  5
53E
 10
546.457622
 20
283.356216
 30
0.0
 40
25.0
 50
190.0
 51
270.0
  0
LINE
  8
LC-001-002-----0
  6
CONTINUOUS
  5
53F
 10
72.430905
 20
467.390099
 30
0.0
 11
72.430905
 21
435.676875
 31
0.0
  0
LINE
  8
LC-001-002-----0
  6
CONTINUOUS
  5
540
 10
383.626379
 20
376.334011
 30
0.0
 11
434.635287
 21
376.334011
 31
0.0
  0
LINE
  8
LC-001-002-----0
  6
CONTINUOUS
  5
541
 10
383.626379
 20
326.334011
 30
0.0
 11
434.637473
 21
326.334011
 31
0.0
  0
LINE
  8
LC-001-002-----0
  6
DASHED
 62
     2
  5
542
 10
522.873211
 20
348.315226
 30
0.0
 11
536.116655
 21
273.207923
 31
0.0
  0
LINE
  8
LC-001-002-----0
  6
DASHED
 62
     2
  5
543
 10
554.779143
 20
351.64835
 30
0.0
 11
568.672392
 21
272.855818
 31
0.0
  0
ARC
  8
LC-001-002-----0
  6
CONTINUOUS
 62
     2
  5
544
 10
458.645651
 20
351.334011
 30
0.0
 40
10.475
 50
180.0
 51
97.876189
  0
LINE
  8
LC-001-002-----0
  6
CONTINUOUS
  5
545
 10
99.930905
 20
467.390099
 30
0.0
 11
99.930905
 21
435.676875
 31
0.0
  0
LINE
  8
LC-001-002-----0
  6
CONTINUOUS
  5
546
 10
68.180905
 20
394.278183
 30
0.0
 11
65.680905
 21
391.778183
 31
0.0
  0
ARC
  8
LC-006-002-RND-0
  6
DASHDOT
  5
547
 10
100.180905
 20
365.278183
 30
0.0
 40
14.0
 50
180.0
 51
270.0
  0
LINE
  8
LC-001-002-----0
  6
CONTINUOUS
 62
     2
  5
548
 10
68.180905
 20
384.278183
 30
0.0
 11
68.180905
 21
394.278183
 31
0.0
  0
LINE
  8
LC-001-002-----0
  6
CONTINUOUS
  5
549
 10
574.438839
 20
319.871174
 30
0.0
 11
576.208662
 21
309.834011
 31
0.0
  0
LINE
  8
LC-001-002-----0
  6
CONTINUOUS
 62
     2
  5
54A
 10
104.180905
 20
384.278183
 30
0.0
 11
104.180905
 21
394.278183
 31
0.0
  0
LINE
  8
LC-001-002-----0
  6
DASHDOT
 62
     2
  5
54B
 10
538.672455
 20
351.101059
 30
0.0
 11
552.438243
 21
273.031398
 31
0.0
  0
LINE
  8
LC-001-002-----0
  6
DASHDOT
 62
     2
  5
54C
 10
703.626379
 20
351.334011
 30
0.0
 11
383.626379
 21
351.334011
 31
0.0
  0
LINE
  8
LC-001-002-----0
  6
DASHED
 62
     2
  5
54D
 10
569.187987
 20
272.850242
 30
0.0
 11
536.63225
 21
273.202346
 31
0.0
  0
LINE
  8
LC-001-002-----0
  6
CONTINUOUS
  5
54E
 10
70.015539
 20
399.278183
 30
0.0
 11
70.015539
 21
400.778183
 31
0.0
  0
LINE
  8
LC-001-002-----0
  6
CONTINUOUS
  5
54F
 10
63.180905
 20
400.778183
 30
0.0
 11
63.180905
 21
389.778183
 31
0.0
  0
ARC
  8
LC-006-002-RND-0
  6
CONTINUOUS
 62
     1
  5
550
 10
67.015539
 20
400.778183
 30
0.0
 40
3.0
 50
0.0
 51
90.0
  0
LINE
  8
LC-001-002-----0
  6
CONTINUOUS
  5
551
 10
61.180905
 20
389.778183
 30
0.0
 11
61.180905
 21
387.278183
 31
0.0
  0
LINE
  8
LC-001-002-----0
  6
CONTINUOUS
  5
552
 10
576.208662
 20
309.834011
 30
0.0
 11
582.047015
 21
276.723063
 31
0.0
  0
LINE
  8
LC-001-002-----0
  6
CONTINUOUS
  5
553
 10
65.180905
 20
387.278183
 30
0.0
 11
61.180905
 21
387.278183
 31
0.0
  0
LINE
  8
LC-001-002-----0
  6
CONTINUOUS
  5
554
 10
67.015539
 20
403.778183
 30
0.0
 11
66.180905
 21
403.778183
 31
0.0
  0
LINE
  8
LC-001-002-----0
  6
CONTINUOUS
  5
555
 10
63.180905
 20
389.778183
 30
0.0
 11
61.180905
 21
389.778183
 31
0.0
  0
LINE
  8
LC-001-002-----0
  6
CONTINUOUS
  5
556
 10
65.180905
 20
399.278183
 30
0.0
 11
65.180905
 21
387.278183
 31
0.0
  0
ARC
  8
LC-006-002-RND-0
  6
CONTINUOUS
 62
     1
  5
557
 10
66.180905
 20
400.778183
 30
0.0
 40
3.0
 50
90.0
 51
180.0
  0
LINE
  8
LC-001-002-----0
  6
CONTINUOUS
  5
558
 10
70.015539
 20
399.278183
 30
0.0
 11
65.180905
 21
399.278183
 31
0.0
  0
LINE
  8
LC-001-002-----0
  6
CONTINUOUS
  5
559
 10
65.180905
 20
399.278183
 30
0.0
 11
67.692362
 21
396.766727
 31
0.0
  0
LINE
  8
LC-001-002-----0
  6
CONTINUOUS
  5
55A
 10
67.692362
 20
396.766727
 30
0.0
 11
67.692362
 21
393.78964
 31
0.0
  0
LINE
  8
LC-001-002-----0
  6
CONTINUOUS
  5
55B
 10
65.180905
 20
387.278183
 30
0.0
 11
65.680905
 21
387.778183
 31
0.0
  0
LINE
  8
LC-001-002-----0
  6
CONTINUOUS
  5
55C
 10
61.180905
 20
389.778183
 30
0.0
 11
61.180905
 21
398.778183
 31
0.0
  0
LINE
  8
LC-001-002-----0
  6
CONTINUOUS
  5
55D
 10
63.180905
 20
400.778183
 30
0.0
 11
63.180905
 21
400.778183
 31
0.0
  0
LINE
  8
LC-001-002-----0
  6
CONTINUOUS
  5
55E
 10
63.180905
 20
400.778183
 30
0.0
 11
61.180905
 21
398.778183
 31
0.0
  0
CIRCLE
  8
LC-001-002-----0
  6
CONTINUOUS
  5
55F
 10
668.626379
 20
363.834011
 30
0.0
 40
4.25
  0
LINE
  8
LC-001-002-----0
  6
CONTINUOUS
  5
560
 10
394.376379
 20
347.084011
 30
0.0
 11
402.876379
 21
347.084011
 31
0.0
  0
LINE
  8
LC-001-002-----0
  6
CONTINUOUS
  5
561
 10
394.376379
 20
355.584011
 30
0.0
 11
402.876379
 21
355.584011
 31
0.0
  0
ARC
  8
LC-001-002-----0
  6
CONTINUOUS
  5
562
 10
394.376379
 20
351.334011
 30
0.0
 40
4.25
 50
90.0
 51
270.0
  0
ARC
  8
LC-001-002-----0
  6
CONTINUOUS
  5
563
 10
402.876379
 20
351.334011
 30
0.0
 40
4.25
 50
270.0
 51
90.0
  0
CIRCLE
  8
LC-001-002-----0
  6
CONTINUOUS
  5
564
 10
668.626379
 20
338.834011
 30
0.0
 40
4.25
  0
ARC
  8
LC-001-002-----0
  6
CONTINUOUS
  5
565
 10
414.486379
 20
337.194011
 30
0.0
 40
3.1
 50
270.0
 51
90.0
  0
ARC
  8
LC-001-002-----0
  6
CONTINUOUS
  5
566
 10
402.766379
 20
337.194011
 30
0.0
 40
3.1
 50
90.0
 51
270.0
  0
LINE
  8
LC-001-002-----0
  6
CONTINUOUS
  5
567
 10
414.486379
 20
334.094011
 30
0.0
 11
402.766379
 21
334.094011
 31
0.0
  0
LINE
  8
LC-001-002-----0
  6
CONTINUOUS
  5
568
 10
414.486379
 20
340.294011
 30
0.0
 11
412.855315
 21
340.294011
 31
0.0
  0
LINE
  8
LC-001-002-----0
  6
CONTINUOUS
  5
569
 10
402.766379
 20
340.294011
 30
0.0
 11
404.397443
 21
340.294011
 31
0.0
  0
ARC
  8
LC-001-002-----0
  6
CONTINUOUS
  5
56A
 10
408.626379
 20
339.984011
 30
0.0
 40
3.1
 50
23.171101
 51
156.828899
  0
ARC
  8
LC-001-002-----0
  6
CONTINUOUS
  5
56B
 10
404.397443
 20
341.794011
 30
0.0
 40
1.5
 50
270.0
 51
336.828899
  0
ARC
  8
LC-001-002-----0
  6
CONTINUOUS
  5
56C
 10
412.855315
 20
341.794011
 30
0.0
 40
1.5
 50
203.171101
 51
270.0
  0
ARC
  8
LC-001-002-----0
  6
CONTINUOUS
  5
56D
 10
414.486379
 20
365.474011
 30
0.0
 40
3.1
 50
270.0
 51
90.0
  0
ARC
  8
LC-001-002-----0
  6
CONTINUOUS
  5
56E
 10
402.766379
 20
365.474011
 30
0.0
 40
3.1
 50
90.0
 51
270.0
  0
LINE
  8
LC-001-002-----0
  6
CONTINUOUS
  5
56F
 10
414.486379
 20
368.574011
 30
0.0
 11
402.766379
 21
368.574011
 31
0.0
  0
LINE
  8
LC-001-002-----0
  6
CONTINUOUS
  5
570
 10
414.486379
 20
362.374011
 30
0.0
 11
412.855315
 21
362.374011
 31
0.0
  0
LINE
  8
LC-001-002-----0
  6
CONTINUOUS
  5
571
 10
402.766379
 20
362.374011
 30
0.0
 11
404.397443
 21
362.374011
 31
0.0
  0
ARC
  8
LC-001-002-----0
  6
CONTINUOUS
  5
572
 10
408.626379
 20
362.684011
 30
0.0
 40
3.1
 50
203.171101
 51
336.828899
  0
ARC
  8
LC-001-002-----0
  6
CONTINUOUS
  5
573
 10
404.397443
 20
360.874011
 30
0.0
 40
1.5
 50
23.171101
 51
90.0
  0
ARC
  8
LC-001-002-----0
  6
CONTINUOUS
  5
574
 10
412.855315
 20
360.874011
 30
0.0
 40
1.5
 50
90.0
 51
156.828899
  0
ARC
  8
LC-001-002-----0
  6
CONTINUOUS
  5
575
 10
674.376379
 20
351.334011
 30
0.0
 40
4.25
 50
90.0
 51
270.0
  0
LINE
  8
LC-001-002-----0
  6
CONTINUOUS
  5
576
 10
674.376379
 20
355.584011
 30
0.0
 11
675.626379
 21
355.584011
 31
0.0
  0
LINE
  8
LC-001-002-----0
  6
CONTINUOUS
  5
577
 10
674.376379
 20
347.084011
 30
0.0
 11
675.626379
 21
347.084011
 31
0.0
  0
CIRCLE
  8
LC-001-002-----0
  6
CONTINUOUS
  5
578
 10
698.626379
 20
351.334011
 30
0.0
 40
4.25
  0
ARC
  8
LC-001-002-----0
  6
CONTINUOUS
  5
579
 10
694.486379
 20
365.474011
 30
0.0
 40
3.1
 50
270.0
 51
90.0
  0
ARC
  8
LC-001-002-----0
  6
CONTINUOUS
  5
57A
 10
682.766379
 20
365.474011
 30
0.0
 40
3.1
 50
90.0
 51
270.0
  0
LINE
  8
LC-001-002-----0
  6
CONTINUOUS
  5
57B
 10
694.486379
 20
368.574011
 30
0.0
 11
682.766379
 21
368.574011
 31
0.0
  0
LINE
  8
LC-001-002-----0
  6
CONTINUOUS
  5
57C
 10
694.486379
 20
362.374011
 30
0.0
 11
692.855315
 21
362.374011
 31
0.0
  0
LINE
  8
LC-001-002-----0
  6
CONTINUOUS
  5
57D
 10
682.766379
 20
362.374011
 30
0.0
 11
684.397443
 21
362.374011
 31
0.0
  0
ARC
  8
LC-001-002-----0
  6
CONTINUOUS
  5
57E
 10
688.626379
 20
362.684011
 30
0.0
 40
3.1
 50
203.171101
 51
336.828899
  0
ARC
  8
LC-001-002-----0
  6
CONTINUOUS
  5
57F
 10
684.397443
 20
360.874011
 30
0.0
 40
1.5
 50
23.171101
 51
90.0
  0
ARC
  8
LC-001-002-----0
  6
CONTINUOUS
  5
580
 10
692.855315
 20
360.874011
 30
0.0
 40
1.5
 50
90.0
 51
156.828899
  0
ARC
  8
LC-001-002-----0
  6
CONTINUOUS
  5
581
 10
694.486379
 20
337.194011
 30
0.0
 40
3.1
 50
270.0
 51
90.0
  0
ARC
  8
LC-001-002-----0
  6
CONTINUOUS
  5
582
 10
682.766379
 20
337.194011
 30
0.0
 40
3.1
 50
90.0
 51
270.0
  0
LINE
  8
LC-001-002-----0
  6
CONTINUOUS
  5
583
 10
694.486379
 20
334.094011
 30
0.0
 11
682.766379
 21
334.094011
 31
0.0
  0
LINE
  8
LC-001-002-----0
  6
CONTINUOUS
  5
584
 10
694.486379
 20
340.294011
 30
0.0
 11
692.855315
 21
340.294011
 31
0.0
  0
LINE
  8
LC-001-002-----0
  6
CONTINUOUS
  5
585
 10
682.766379
 20
340.294011
 30
0.0
 11
684.397443
 21
340.294011
 31
0.0
  0
ARC
  8
LC-001-002-----0
  6
CONTINUOUS
  5
586
 10
688.626379
 20
339.984011
 30
0.0
 40
3.1
 50
23.171101
 51
156.828899
  0
ARC
  8
LC-001-002-----0
  6
CONTINUOUS
  5
587
 10
684.397443
 20
341.794011
 30
0.0
 40
1.5
 50
270.0
 51
336.828899
  0
ARC
  8
LC-001-002-----0
  6
CONTINUOUS
  5
588
 10
692.855315
 20
341.794011
 30
0.0
 40
1.5
 50
203.171101
 51
270.0
  0
ARC
  8
LC-001-002-----0
  6
CONTINUOUS
  5
589
 10
682.876379
 20
351.334011
 30
0.0
 40
4.25
 50
270.0
 51
90.0
  0
LINE
  8
LC-001-002-----0
  6
CONTINUOUS
  5
58A
 10
674.376379
 20
347.084011
 30
0.0
 11
682.876379
 21
347.084011
 31
0.0
  0
LINE
  8
LC-001-002-----0
  6
CONTINUOUS
  5
58B
 10
674.376379
 20
355.584011
 30
0.0
 11
682.876379
 21
355.584011
 31
0.0
  0
LINE
  8
LC-001-002-----0
  6
CONTINUOUS
  5
58C
 10
383.626379
 20
376.334011
 30
0.0
 11
383.626379
 21
326.334011
 31
0.0
  0
LINE
  8
LC-001-002-----0
  6
CONTINUOUS
  5
58D
 10
703.626379
 20
376.334011
 30
0.0
 11
703.626379
 21
326.334011
 31
0.0
  0
LINE
  8
LC-001-002-----0
  6
CONTINUOUS
  5
58E
 10
107.180905
 20
387.278183
 30
0.0
 11
111.180905
 21
387.278183
 31
0.0
  0
LINE
  8
LC-001-002-----0
  6
CONTINUOUS
  5
58F
 10
111.180905
 20
389.778183
 30
0.0
 11
111.180905
 21
387.278183
 31
0.0
  0
LINE
  8
LC-001-002-----0
  6
CONTINUOUS
  5
590
 10
111.180905
 20
389.778183
 30
0.0
 11
111.180905
 21
398.778183
 31
0.0
  0
LINE
  8
LC-005-005-----0
  6
CONTINUOUS
  5
591
 10
277.535659
 20
299.463475
 30
0.0
 11
275.035659
 21
301.963475
 31
0.0
  0
LINE
  8
LC-005-005-----0
  6
CONTINUOUS
  5
592
 10
249.926439
 20
327.072695
 30
0.0
 11
246.035659
 21
330.963475
 31
0.0
  0
LINE
  8
LC-005-005-----0
  6
CONTINUOUS
  5
593
 10
277.535659
 20
296.635048
 30
0.0
 11
275.035659
 21
299.135048
 31
0.0
  0
LINE
  8
LC-005-005-----0
  6
CONTINUOUS
  5
594
 10
249.035659
 20
325.135048
 30
0.0
 11
246.035659
 21
328.135048
 31
0.0
  0
LINE
  8
LC-005-005-----0
  6
CONTINUOUS
  5
595
 10
277.535659
 20
293.806621
 30
0.0
 11
275.035659
 21
296.306621
 31
0.0
  0
CIRCLE
  8
LC-001-002-----0
  6
CONTINUOUS
  5
596
 10
458.645651
 20
351.334011
 30
0.0
 40
9.3
  0
LINE
  8
LC-005-005-----0
  6
CONTINUOUS
  5
597
 10
248.508268
 20
322.834011
 30
0.0
 11
246.035659
 21
325.306621
 31
0.0
  0
LINE
  8
LC-005-005-----0
  6
CONTINUOUS
  5
598
 10
277.535659
 20
290.978194
 30
0.0
 11
275.035659
 21
293.478194
 31
0.0
  0
LINE
  8
LC-005-005-----0
  6
CONTINUOUS
  5
599
 10
277.535659
 20
288.149766
 30
0.0
 11
275.035659
 21
290.649766
 31
0.0
  0
LINE
  8
LC-005-005-----0
  6
CONTINUOUS
  5
59A
 10
277.535659
 20
285.321339
 30
0.0
 11
275.035659
 21
287.821339
 31
0.0
  0
LINE
  8
LC-005-005-----0
  6
CONTINUOUS
  5
59B
 10
277.535659
 20
282.492912
 30
0.0
 11
275.035659
 21
284.992912
 31
0.0
  0
LINE
  8
LC-005-005-----0
  6
CONTINUOUS
  5
59C
 10
277.535659
 20
279.664485
 30
0.0
 11
275.035659
 21
282.164485
 31
0.0
  0
LINE
  8
LC-005-005-----0
  6
CONTINUOUS
  5
59D
 10
277.535659
 20
276.836058
 30
0.0
 11
275.035659
 21
279.336058
 31
0.0
  0
LINE
  8
LC-005-005-----0
  6
CONTINUOUS
  5
59E
 10
277.535659
 20
274.007631
 30
0.0
 11
275.035659
 21
276.507631
 31
0.0
  0
LINE
  8
LC-005-005-----0
  6
CONTINUOUS
  5
59F
 10
306.166356
 20
358.514019
 30
0.0
 11
297.067894
 21
367.61248
 31
0.0
  0
LINE
  8
LC-005-005-----0
  6
CONTINUOUS
  5
5A0
 10
306.970184
 20
354.881763
 30
0.0
 11
293.135805
 21
368.716142
 31
0.0
  0
LINE
  8
LC-005-005-----0
  6
CONTINUOUS
  5
5A1
 10
307.035659
 20
351.987862
 30
0.0
 11
303.969193
 21
355.054327
 31
0.0
  0
LINE
  8
LC-005-005-----0
  6
CONTINUOUS
  5
5A2
 10
295.755974
 20
363.267546
 30
0.0
 11
289.272102
 21
369.751418
 31
0.0
  0
LINE
  8
LC-005-005-----0
  6
CONTINUOUS
  5
5A3
 10
307.035659
 20
349.159434
 30
0.0
 11
304.531308
 21
351.663785
 31
0.0
  0
LINE
  8
LC-005-005-----0
  6
CONTINUOUS
  5
5A4
 10
292.365433
 20
363.82966
 30
0.0
 11
285.408398
 21
370.786695
 31
0.0
  0
LINE
  8
LC-005-005-----0
  6
CONTINUOUS
  5
5A5
 10
307.035659
 20
346.331007
 30
0.0
 11
304.535659
 21
348.831007
 31
0.0
  0
LINE
  8
LC-005-005-----0
  6
CONTINUOUS
  5
5A6
 10
289.532655
 20
363.834011
 30
0.0
 11
281.544695
 21
371.821971
 31
0.0
  0
LINE
  8
LC-005-005-----0
  6
CONTINUOUS
  5
5A7
 10
307.035659
 20
343.50258
 30
0.0
 11
304.535659
 21
346.00258
 31
0.0
  0
LINE
  8
LC-005-005-----0
  6
CONTINUOUS
  5
5A8
 10
286.704228
 20
363.834011
 30
0.0
 11
277.680992
 21
372.857247
 31
0.0
  0
LINE
  8
LC-005-005-----0
  6
CONTINUOUS
  5
5A9
 10
307.035659
 20
340.674153
 30
0.0
 11
304.535659
 21
343.174153
 31
0.0
  0
LINE
  8
LC-005-005-----0
  6
CONTINUOUS
  5
5AA
 10
283.875801
 20
363.834011
 30
0.0
 11
274.035659
 21
373.674153
 31
0.0
  0
LINE
  8
LC-005-005-----0
  6
CONTINUOUS
  5
5AB
 10
307.035659
 20
337.845726
 30
0.0
 11
304.535659
 21
340.345726
 31
0.0
  0
LINE
  8
LC-005-005-----0
  6
CONTINUOUS
  5
5AC
 10
281.047373
 20
363.834011
 30
0.0
 11
277.535659
 21
367.345726
 31
0.0
  0
LINE
  8
LC-005-005-----0
  6
CONTINUOUS
  5
5AD
 10
277.047373
 20
367.834011
 30
0.0
 11
274.035659
 21
370.845726
 31
0.0
  0
LINE
  8
LC-005-005-----0
  6
CONTINUOUS
  5
5AE
 10
307.035659
 20
335.017299
 30
0.0
 11
304.535659
 21
337.517299
 31
0.0
  0
LINE
  8
LC-005-005-----0
  6
CONTINUOUS
  5
5AF
 10
278.218946
 20
363.834011
 30
0.0
 11
277.535659
 21
364.517299
 31
0.0
  0
LINE
  8
LC-005-005-----0
  6
CONTINUOUS
  5
5B0
 10
274.218946
 20
367.834011
 30
0.0
 11
271.718946
 21
370.334011
 31
0.0
  0
LINE
  8
LC-005-005-----0
  6
CONTINUOUS
  5
5B1
 10
267.425686
 20
374.627271
 30
0.0
 11
265.824672
 21
376.228285
 31
0.0
  0
LINE
  8
LC-005-005-----0
  6
CONTINUOUS
  5
5B2
 10
307.035659
 20
332.188872
 30
0.0
 11
304.535659
 21
334.688872
 31
0.0
  0
LINE
  8
LC-005-005-----0
  6
CONTINUOUS
  5
5B3
 10
271.390519
 20
367.834011
 30
0.0
 11
264.996075
 21
374.228455
 31
0.0
  0
LINE
  8
LC-005-005-----0
  6
CONTINUOUS
  5
5B4
 10
307.035659
 20
329.360445
 30
0.0
 11
304.535659
 21
331.860445
 31
0.0
  0
LINE
  8
LC-005-005-----0
  6
CONTINUOUS
  5
5B5
 10
268.562092
 20
367.834011
 30
0.0
 11
264.224686
 21
372.171417
 31
0.0
  0
LINE
  8
LC-005-005-----0
  6
CONTINUOUS
  5
5B6
 10
307.035659
 20
326.532017
 30
0.0
 11
304.535659
 21
329.032017
 31
0.0
  0
LINE
  8
LC-005-005-----0
  6
CONTINUOUS
  5
5B7
 10
265.733665
 20
367.834011
 30
0.0
 11
263.233665
 21
370.334011
 31
0.0
  0
LINE
  8
LC-005-005-----0
  6
CONTINUOUS
  5
5B8
 10
307.035659
 20
323.70359
 30
0.0
 11
304.535659
 21
326.20359
 31
0.0
  0
LINE
  8
LC-005-005-----0
  6
CONTINUOUS
  5
5B9
 10
262.905238
 20
367.834011
 30
0.0
 11
260.405238
 21
370.334011
 31
0.0
  0
LINE
  8
LC-005-005-----0
  6
CONTINUOUS
  5
5BA
 10
258.213911
 20
372.525338
 30
0.0
 11
255.40918
 21
375.330069
 31
0.0
  0
LINE
  8
LC-005-005-----0
  6
CONTINUOUS
  5
5BB
 10
307.035659
 20
320.875163
 30
0.0
 11
304.535659
 21
323.375163
 31
0.0
  0
LINE
  8
LC-005-005-----0
  6
CONTINUOUS
  5
5BC
 10
260.076811
 20
367.834011
 30
0.0
 11
254.637791
 21
373.273031
 31
0.0
  0
LINE
  8
LC-005-005-----0
  6
CONTINUOUS
  5
5BD
 10
307.035659
 20
318.046736
 30
0.0
 11
304.535659
 21
320.546736
 31
0.0
  0
LINE
  8
LC-001-002-----0
  6
CONTINUOUS
  5
5BE
 10
559.681379
 20
253.597396
 30
0.0
 11
559.681379
 21
235.141602
 31
0.0
  0
ARC
  8
LC-006-002-RND-0
  6
CONTINUOUS
 62
     1
  5
5BF
 10
561.681379
 20
253.597396
 30
0.0
 40
2.0
 50
90.0
 51
180.0
  0
LINE
  8
LC-001-002-----0
  6
CONTINUOUS
  5
5C0
 10
521.084953
 20
235.141602
 30
0.0
 11
559.681379
 21
235.141602
 31
0.0
  0
LINE
  8
LC-001-002-----0
  6
CONTINUOUS
  5
5C1
 10
109.180905
 20
400.778183
 30
0.0
 11
109.180905
 21
389.778183
 31
0.0
  0
LINE
  8
LC-005-005-----0
  6
CONTINUOUS
  5
5C2
 10
257.248384
 20
367.834011
 30
0.0
 11
253.866402
 21
371.215993
 31
0.0
  0
LINE
  8
LC-001-002-----0
  6
CONTINUOUS
  5
5C3
 10
487.448914
 20
309.073244
 30
0.0
 11
496.907923
 21
255.428539
 31
0.0
  0
LINE
  8
LC-001-002-----0
  6
CONTINUOUS
  5
5C4
 10
564.320476
 20
255.597396
 30
0.0
 11
561.681379
 21
255.597396
 31
0.0
  0
ARC
  8
LC-006-002-RND-0
  6
CONTINUOUS
 62
     1
  5
5C5
 10
564.320476
 20
273.597396
 30
0.0
 40
18.0
 50
270.0
 51
10.0
  0
ARC
  8
LC-001-002-----0
  6
CONTINUOUS
  5
5C6
 10
521.084953
 20
259.691602
 30
0.0
 40
24.55
 50
190.0
 51
270.0
  0
LINE
  8
LC-005-005-----0
  6
CONTINUOUS
  5
5C7
 10
251.035659
 20
374.046736
 30
0.0
 11
249.326246
 21
375.756148
 31
0.0
  0
LINE
  8
LC-001-002-----0
  6
CONTINUOUS
  5
5C8
 10
109.180905
 20
389.778183
 30
0.0
 11
111.180905
 21
389.778183
 31
0.0
  0
LINE
  8
LC-001-002-----0
  6
CONTINUOUS
  5
5C9
 10
109.180905
 20
400.778183
 30
0.0
 11
111.180905
 21
398.778183
 31
0.0
  0
ARC
  8
LC-006-002-RND-0
  6
CONTINUOUS
 62
     1
  5
5CA
 10
106.180905
 20
400.778183
 30
0.0
 40
3.0
 50
0.0
 51
90.0
  0
LINE
  8
LC-001-002-----0
  6
CONTINUOUS
  5
5CB
 10
105.34627
 20
403.778183
 30
0.0
 11
106.180905
 21
403.778183
 31
0.0
  0
ARC
  8
LC-006-002-RND-0
  6
CONTINUOUS
 62
     1
  5
5CC
 10
105.34627
 20
400.778183
 30
0.0
 40
3.0
 50
90.0
 51
180.0
  0
LINE
  8
LC-001-002-----0
  6
CONTINUOUS
  5
5CD
 10
107.180905
 20
399.278183
 30
0.0
 11
107.180905
 21
387.278183
 31
0.0
  0
LINE
  8
LC-001-002-----0
  6
CONTINUOUS
  5
5CE
 10
518.581379
 20
235.141602
 30
0.0
 11
518.581379
 21
230.633175
 31
0.0
  0
LINE
  8
LC-001-002-----0
  6
CONTINUOUS
  5
5CF
 10
558.681379
 20
235.141602
 30
0.0
 11
558.681379
 21
230.633175
 31
0.0
  0
LINE
  8
LC-001-002-----0
  6
CONTINUOUS
  5
5D0
 10
107.180905
 20
399.278183
 30
0.0
 11
104.669448
 21
396.766727
 31
0.0
  0
LINE
  8
LC-001-002-----0
  6
CONTINUOUS
  5
5D1
 10
487.448779
 20
309.074009
 30
0.0
 11
496.907923
 21
255.428539
 31
0.0
  0
LINE
  8
LC-005-005-----0
  6
CONTINUOUS
  5
5D2
 10
307.035659
 20
315.218309
 30
0.0
 11
304.535659
 21
317.718309
 31
0.0
  0
LINE
  8
LC-005-005-----0
  6
CONTINUOUS
  5
5D3
 10
254.419956
 20
367.834011
 30
0.0
 11
251.919956
 21
370.334011
 31
0.0
  0
LINE
  8
LC-005-005-----0
  6
CONTINUOUS
  5
5D4
 10
251.035659
 20
371.218309
 30
0.0
 11
249.035659
 21
373.218309
 31
0.0
  0
LINE
  8
LC-005-005-----0
  6
CONTINUOUS
  5
5D5
 10
307.035659
 20
312.389882
 30
0.0
 11
304.535659
 21
314.889882
 31
0.0
  0
LINE
  8
LC-005-005-----0
  6
CONTINUOUS
  5
5D6
 10
251.591529
 20
367.834011
 30
0.0
 11
249.035659
 21
370.389882
 31
0.0
  0
LINE
  8
LC-005-005-----0
  6
CONTINUOUS
  5
5D7
 10
307.035659
 20
309.561455
 30
0.0
 11
304.535659
 21
312.061455
 31
0.0
  0
LINE
  8
LC-005-005-----0
  6
CONTINUOUS
  5
5D8
 10
307.035659
 20
306.733028
 30
0.0
 11
304.535659
 21
309.233028
 31
0.0
  0
LINE
  8
LC-005-005-----0
  6
CONTINUOUS
  5
5D9
 10
307.035659
 20
303.9046
 30
0.0
 11
304.535659
 21
306.4046
 31
0.0
  0
LINE
  8
LC-005-005-----0
  6
CONTINUOUS
  5
5DA
 10
307.035659
 20
301.076173
 30
0.0
 11
304.535659
 21
303.576173
 31
0.0
  0
LINE
  8
LC-005-005-----0
  6
CONTINUOUS
  5
5DB
 10
307.035659
 20
298.247746
 30
0.0
 11
304.535659
 21
300.747746
 31
0.0
  0
LINE
  8
LC-005-005-----0
  6
CONTINUOUS
  5
5DC
 10
307.035659
 20
295.419319
 30
0.0
 11
304.535659
 21
297.919319
 31
0.0
  0
LINE
  8
LC-005-005-----0
  6
CONTINUOUS
  5
5DD
 10
307.035659
 20
292.590892
 30
0.0
 11
304.535659
 21
295.090892
 31
0.0
  0
LINE
  8
LC-005-005-----0
  6
CONTINUOUS
  5
5DE
 10
307.035659
 20
289.762465
 30
0.0
 11
304.535659
 21
292.262465
 31
0.0
  0
LINE
  8
LC-008-002-___-0
  5
5E0
 10
460.180151
 20
360.506541
 30
0.0
 11
472.145651
 21
358.504796
 31
0.0
  0
LINE
  8
LC-001-002-----0
  6
CONTINUOUS
  5
5E1
 10
479.687578
 20
357.243085
 30
0.0
 11
472.145651
 21
358.504796
 31
0.0
  0
LINE
  8
LC-005-005-----0
  6
CONTINUOUS
  5
5E2
 10
307.035659
 20
286.934038
 30
0.0
 11
304.535659
 21
289.434038
 31
0.0
  0
LINE
  8
LC-005-005-----0
  6
CONTINUOUS
  5
5E3
 10
307.035659
 20
284.105611
 30
0.0
 11
304.535659
 21
286.605611
 31
0.0
  0
LINE
  8
LC-005-005-----0
  6
CONTINUOUS
  5
5E4
 10
307.035659
 20
281.277183
 30
0.0
 11
304.535659
 21
283.777183
 31
0.0
  0
LINE
  8
LC-005-005-----0
  6
CONTINUOUS
  5
5E5
 10
307.035659
 20
278.448756
 30
0.0
 11
304.535659
 21
280.948756
 31
0.0
  0
LINE
  8
LC-005-005-----0
  6
CONTINUOUS
  5
5E6
 10
307.035659
 20
275.620329
 30
0.0
 11
304.535659
 21
278.120329
 31
0.0
  0
LINE
  8
LC-001-002-----0
  6
CONTINUOUS
  5
5E7
 10
104.669448
 20
396.766727
 30
0.0
 11
104.669448
 21
393.78964
 31
0.0
  0
LINE
  8
LC-001-002-----0
  6
CONTINUOUS
  5
5E8
 10
102.34627
 20
399.278183
 30
0.0
 11
107.180905
 21
399.278183
 31
0.0
  0
LINE
  8
LC-001-002-----0
  6
CONTINUOUS
  5
5E9
 10
102.34627
 20
399.278183
 30
0.0
 11
102.34627
 21
400.778183
 31
0.0
  0
LINE
  8
LC-001-002-----0
  6
CONTINUOUS
  5
5EA
 10
642.637472
 20
376.334011
 30
0.0
 11
703.626379
 21
376.334011
 31
0.0
  0
LINE
  8
LC-001-002-----0
  6
CONTINUOUS
  5
5EB
 10
72.430905
 20
468.039598
 30
0.0
 11
72.430905
 21
467.539598
 31
0.0
  0
ARC
  8
LC-001-002-----0
  6
CONTINUOUS
  5
5EC
 10
618.637108
 20
351.334011
 30
0.0
 40
13.5
 50
0.0
 51
180.0
  0
LINE
  8
LC-001-002-----0
  6
CONTINUOUS
  5
5ED
 10
252.035659
 20
378.583814
 30
0.0
 11
267.970961
 21
378.583783
 31
0.0
  0
LINE
  8
LC-001-002-----0
  6
CONTINUOUS
  5
5EE
 10
249.035564
 20
327.084204
 30
0.0
 11
270.965378
 21
327.084162
 31
0.0
  0
LINE
  8
LC-001-002-----0
  6
CONTINUOUS
  5
5EF
 10
249.035659
 20
376.08382
 30
0.0
 11
270.965472
 21
376.083778
 31
0.0
  0
LINE
  8
LC-001-002-----0
  6
CONTINUOUS
  5
5F0
 10
249.035564
 20
327.084204
 30
0.0
 11
249.035564
 21
323.084207
 31
0.0
  0
LINE
  8
LC-001-002-----0
  6
CONTINUOUS
  5
5F1
 10
252.035555
 20
324.584198
 30
0.0
 11
267.970857
 21
324.584167
 31
0.0
  0
LINE
  8
LC-001-002-----0
  6
CONTINUOUS
  5
5F2
 10
252.035549
 20
323.084195
 30
0.0
 11
252.035555
 21
324.584198
 31
0.0
  0
LINE
  8
LC-001-002-----0
  6
CONTINUOUS
  5
5F3
 10
293.968396
 20
383.084017
 30
0.0
 11
315.968396
 21
383.084017
 31
0.0
  0
LINE
  8
LC-001-002-----0
  6
CONTINUOUS
  5
5F4
 10
249.035659
 20
387.834011
 30
0.0
 11
249.035659
 21
375.583818
 31
0.0
  0
LINE
  8
LC-001-002-----0
  6
DASHDOT
 62
     2
  5
5F5
 10
291.035659
 20
351.334011
 30
0.0
 11
291.035659
 21
273.154011
 31
0.0
  0
LINE
  8
LC-001-002-----0
  6
CONTINUOUS
  5
5F6
 10
312.968396
 20
260.534973
 30
0.0
 11
312.968396
 21
378.383501
 31
0.0
  0
LINE
  8
LC-001-002-----0
  6
CONTINUOUS
  5
5F7
 10
307.035659
 20
353.481783
 30
0.0
 11
307.035659
 21
273.154011
 31
0.0
  0
LINE
  8
LC-001-002-----0
  6
CONTINUOUS
  5
5F8
 10
270.965381
 20
378.383501
 30
0.0
 11
312.968396
 21
378.383501
 31
0.0
  0
LINE
  8
LC-001-002-----0
  6
CONTINUOUS
  5
5F9
 10
275.035659
 20
328.834011
 30
0.0
 11
275.035659
 21
273.154011
 31
0.0
  0
ARC
  8
LC-006-002-RND-0
  6
CONTINUOUS
 62
     1
  5
5FA
 10
271.465378
 20
377.88591
 30
0.0
 40
3.5
 50
90.0
 51
168.498572
  0
LINE
  8
LC-001-002-----0
  6
CONTINUOUS
  5
5FB
 10
246.035659
 20
379.834011
 30
0.0
 11
246.035659
 21
369.566062
 31
0.0
  0
LINE
  8
LC-001-002-----0
  6
CONTINUOUS
  5
5FC
 10
246.035659
 20
379.834011
 30
0.0
 11
249.035659
 21
379.834011
 31
0.0
  0
LINE
  8
LC-001-002-----0
  6
CONTINUOUS
  5
5FD
 10
246.035659
 20
322.834011
 30
0.0
 11
249.035659
 21
322.834011
 31
0.0
  0
LINE
  8
LC-001-002-----0
  6
CONTINUOUS
  5
5FE
 10
249.035659
 20
379.834011
 30
0.0
 11
249.035659
 21
375.834011
 31
0.0
  0
LINE
  8
LC-001-002-----0
  6
CONTINUOUS
  5
5FF
 10
249.035659
 20
367.834011
 30
0.0
 11
277.535659
 21
367.834011
 31
0.0
  0
LINE
  8
LC-001-002-----0
  6
CONTINUOUS
  5
600
 10
249.035659
 20
334.834011
 30
0.0
 11
277.535659
 21
334.834011
 31
0.0
  0
LINE
  8
LC-001-002-----0
  6
CONTINUOUS
  5
601
 10
249.035659
 20
334.834011
 30
0.0
 11
246.035659
 21
333.10196
 31
0.0
  0
LINE
  8
LC-001-002-----0
  6
CONTINUOUS
  5
602
 10
274.035659
 20
373.834011
 30
0.0
 11
274.035659
 21
370.334011
 31
0.0
  0
LINE
  8
LC-001-002-----0
  6
CONTINUOUS
  5
603
 10
251.035659
 20
375.298113
 30
0.0
 11
251.035659
 21
370.334011
 31
0.0
  0
LINE
  8
LC-001-002-----0
  6
CONTINUOUS
  5
604
 10
249.035659
 20
367.834011
 30
0.0
 11
246.035659
 21
369.566062
 31
0.0
  0
LINE
  8
LC-001-002-----0
  6
CONTINUOUS
  5
605
 10
251.035659
 20
370.334011
 30
0.0
 11
253.535659
 21
370.334011
 31
0.0
  0
LINE
  8
LC-001-002-----0
  6
CONTINUOUS
  5
606
 10
249.035659
 20
326.834011
 30
0.0
 11
249.035659
 21
322.834011
 31
0.0
  0
LINE
  8
LC-001-002-----0
  6
CONTINUOUS
  5
607
 10
251.035659
 20
332.334011
 30
0.0
 11
253.535659
 21
332.334011
 31
0.0
  0
LINE
  8
LC-001-002-----0
  6
CONTINUOUS
  5
608
 10
251.035659
 20
332.334011
 30
0.0
 11
251.035659
 21
327.369909
 31
0.0
  0
LINE
  8
LC-001-002-----0
  6
CONTINUOUS
  5
609
 10
249.035659
 20
375.834011
 30
0.0
 11
251.035659
 21
375.298113
 31
0.0
  0
LINE
  8
LC-001-002-----0
  6
CONTINUOUS
  5
60A
 10
274.035659
 20
332.334011
 30
0.0
 11
274.035659
 21
328.834011
 31
0.0
  0
LINE
  8
LC-001-002-----0
  6
CONTINUOUS
  5
60B
 10
259.035659
 20
370.334011
 30
0.0
 11
263.535659
 21
370.334011
 31
0.0
  0
LINE
  8
LC-001-002-----0
  6
CONTINUOUS
  5
60C
 10
270.965378
 20
327.084162
 30
0.0
 11
270.965378
 21
260.071251
 31
0.0
  0
LINE
  8
LC-001-002-----0
  6
CONTINUOUS
  5
60D
 10
274.035659
 20
328.834011
 30
0.0
 11
275.035659
 21
328.834011
 31
0.0
  0
ARC
  8
LC-006-002-RND-0
  6
CONTINUOUS
 62
     1
  5
60E
 10
292.035659
 20
353.481783
 30
0.0
 40
15.0
 50
0.0
 51
75.0
  0
ARC
  8
LC-006-002-RND-0
  6
CONTINUOUS
 62
     1
  5
60F
 10
256.132159
 20
375.834011
 30
0.0
 40
0.5
 50
90.0
 51
159.443955
  0
LINE
  8
LC-001-002-----0
  6
CONTINUOUS
  5
610
 10
256.132159
 20
376.334011
 30
0.0
 11
256.439158
 21
376.334011
 31
0.0
  0
LINE
  8
LC-001-002-----0
  6
CONTINUOUS
  5
611
 10
253.535659
 20
370.334011
 30
0.0
 11
255.663994
 21
376.009573
 31
0.0
  0
LINE
  8
LC-001-002-----0
  6
CONTINUOUS
  5
612
 10
256.132159
 20
376.334011
 30
0.0
 11
256.785659
 21
376.334011
 31
0.0
  0
ARC
  8
LC-006-002-RND-0
  6
CONTINUOUS
 62
     1
  5
613
 10
256.439158
 20
375.834011
 30
0.0
 40
0.5
 50
20.556045
 51
90.0
  0
LINE
  8
LC-001-002-----0
  6
CONTINUOUS
  5
614
 10
256.907323
 20
376.009573
 30
0.0
 11
259.035659
 21
370.334011
 31
0.0
  0
ARC
  8
LC-006-002-RND-0
  6
CONTINUOUS
 62
     1
  5
615
 10
266.132159
 20
375.834011
 30
0.0
 40
0.5
 50
90.0
 51
159.443955
  0
LINE
  8
LC-001-002-----0
  6
CONTINUOUS
  5
616
 10
266.132159
 20
376.334011
 30
0.0
 11
266.439158
 21
376.334011
 31
0.0
  0
LINE
  8
LC-001-002-----0
  6
CONTINUOUS
  5
617
 10
263.535659
 20
370.334011
 30
0.0
 11
265.663994
 21
376.009573
 31
0.0
  0
LINE
  8
LC-001-002-----0
  6
CONTINUOUS
  5
618
 10
266.132159
 20
376.334011
 30
0.0
 11
266.785659
 21
376.334011
 31
0.0
  0
ARC
  8
LC-006-002-RND-0
  6
CONTINUOUS
 62
     1
  5
619
 10
266.439158
 20
375.834011
 30
0.0
 40
0.5
 50
20.556045
 51
90.0
  0
LINE
  8
LC-001-002-----0
  6
CONTINUOUS
  5
61A
 10
266.907323
 20
376.009573
 30
0.0
 11
269.035659
 21
370.334011
 31
0.0
  0
LINE
  8
LC-001-002-----0
  6
CONTINUOUS
  5
61B
 10
272.965378
 20
238.391092
 30
0.0
 11
272.965378
 21
236.891092
 31
0.0
  0
LINE
  8
LC-001-002-----0
  6
CONTINUOUS
  5
61C
 10
271.965378
 20
236.846842
 30
0.0
 11
271.965378
 21
235.391092
 31
0.0
  0
ARC
  8
LC-006-002-RND-0
  6
CONTINUOUS
 62
     1
  5
61D
 10
271.465378
 20
238.891092
 30
0.0
 40
3.5
 50
180.0
 51
270.0
  0
LINE
  8
LC-001-002-----0
  6
CONTINUOUS
  5
61E
 10
272.965378
 20
260.071251
 30
0.0
 11
270.965378
 21
260.071251
 31
0.0
  0
LINE
  8
LC-001-002-----0
  6
CONTINUOUS
  5
61F
 10
272.965378
 20
260.534973
 30
0.0
 11
272.965378
 21
258.498695
 31
0.0
  0
LINE
  8
LC-001-002-----0
  6
CONTINUOUS
  5
620
 10
271.465378
 20
235.391092
 30
0.0
 11
271.965378
 21
235.391092
 31
0.0
  0
ARC
  8
LC-001-002-----0
  6
CONTINUOUS
  5
621
 10
588.641379
 20
361.940612
 30
0.0
 40
4.0
 50
134.61297
 51
144.421977
  0
ARC
  8
LC-001-002-----0
  6
CONTINUOUS
  5
622
 10
588.641379
 20
361.940612
 30
0.0
 40
4.0
 50
134.61297
 51
144.421977
  0
LINE
  8
LC-001-002-----0
  6
CONTINUOUS
  5
623
 10
272.965378
 20
258.498695
 30
0.0
 11
270.965378
 21
258.498695
 31
0.0
  0
LINE
  8
LC-001-002-----0
  6
CONTINUOUS
  5
624
 10
267.965378
 20
324.584167
 30
0.0
 11
267.965378
 21
238.891092
 31
0.0
  0
LINE
  8
LC-001-002-----0
  6
CONTINUOUS
  5
625
 10
271.965378
 20
236.891092
 30
0.0
 11
272.965378
 21
236.891092
 31
0.0
  0
LINE
  8
LC-001-002-----0
  6
CONTINUOUS
  5
626
 10
270.965378
 20
258.498695
 30
0.0
 11
270.965378
 21
238.391092
 31
0.0
  0
LINE
  8
LC-001-002-----0
  6
CONTINUOUS
  5
627
 10
266.132159
 20
326.334011
 30
0.0
 11
266.439158
 21
326.334011
 31
0.0
  0
LINE
  8
LC-001-002-----0
  6
CONTINUOUS
  5
628
 10
269.035659
 20
370.334011
 30
0.0
 11
274.035659
 21
370.334011
 31
0.0
  0
LINE
  8
LC-001-002-----0
  6
CONTINUOUS
  5
629
 10
259.035659
 20
332.334011
 30
0.0
 11
263.535659
 21
332.334011
 31
0.0
  0
LINE
  8
LC-001-002-----0
  6
CONTINUOUS
  5
62A
 10
269.035659
 20
332.334011
 30
0.0
 11
274.035659
 21
332.334011
 31
0.0
  0
LINE
  8
LC-001-002-----0
  6
CONTINUOUS
  5
62B
 10
304.535659
 20
351.334011
 30
0.0
 11
304.535659
 21
273.154011
 31
0.0
  0
LINE
  8
LC-001-002-----0
  6
CONTINUOUS
  5
62C
 10
277.535659
 20
367.834011
 30
0.0
 11
277.535659
 21
273.154011
 31
0.0
  0
LINE
  8
LC-001-002-----0
  6
CONTINUOUS
  5
62D
 10
277.535659
 20
363.834011
 30
0.0
 11
292.035659
 21
363.834011
 31
0.0
  0
LINE
  8
LC-001-002-----0
  6
CONTINUOUS
  5
62E
 10
274.035659
 20
373.834011
 30
0.0
 11
295.917944
 21
367.97067
 31
0.0
  0
ARC
  8
LC-006-002-RND-0
  6
CONTINUOUS
 62
     1
  5
62F
 10
292.035659
 20
351.334011
 30
0.0
 40
12.5
 50
0.0
 51
90.0
  0
LINE
  8
LC-001-002-----0
  6
CONTINUOUS
  5
630
 10
273.968396
 20
381.383501
 30
0.0
 11
315.968396
 21
381.383501
 31
0.0
  0
LINE
  8
LC-001-002-----0
  6
CONTINUOUS
  5
631
 10
272.968396
 20
379.883501
 30
0.0
 11
273.968396
 21
379.883501
 31
0.0
  0
LINE
  8
LC-001-002-----0
  6
CONTINUOUS
  5
632
 10
273.968396
 20
381.383501
 30
0.0
 11
273.968396
 21
379.883501
 31
0.0
  0
LINE
  8
LC-001-002-----0
  6
CONTINUOUS
  5
633
 10
272.968396
 20
379.883501
 30
0.0
 11
272.968396
 21
378.38591
 31
0.0
  0
LINE
  8
LC-001-002-----0
  6
CONTINUOUS
  5
634
 10
272.965378
 20
378.383501
 30
0.0
 11
272.965378
 21
379.88591
 31
0.0
  0
LINE
  8
LC-001-002-----0
  6
CONTINUOUS
  5
635
 10
270.965381
 20
376.083778
 30
0.0
 11
270.965381
 21
378.383501
 31
0.0
  0
LINE
  8
LC-001-002-----0
  6
CONTINUOUS
  5
636
 10
272.968396
 20
379.883501
 30
0.0
 11
273.968396
 21
379.883501
 31
0.0
  0
LINE
  8
LC-001-002-----0
  6
CONTINUOUS
  5
637
 10
271.965378
 20
379.88591
 30
0.0
 11
272.965378
 21
379.88591
 31
0.0
  0
LINE
  8
LC-001-002-----0
  6
CONTINUOUS
  5
638
 10
271.965378
 20
379.93016
 30
0.0
 11
271.965378
 21
381.38591
 31
0.0
  0
LINE
  8
LC-001-002-----0
  6
CONTINUOUS
  5
639
 10
271.965378
 20
379.93016
 30
0.0
 11
271.965378
 21
381.38591
 31
0.0
  0
LINE
  8
LC-001-002-----0
  6
CONTINUOUS
  5
63A
 10
271.465378
 20
381.38591
 30
0.0
 11
271.965378
 21
381.38591
 31
0.0
  0
LINE
  8
LC-001-002-----0
  6
CONTINUOUS
  5
63B
 10
276.868396
 20
238.391092
 30
0.0
 11
276.868396
 21
229.804748
 31
0.0
  0
LINE
  8
LC-001-002-----0
  6
CONTINUOUS
  5
63C
 10
274.868396
 20
235.391092
 30
0.0
 11
274.868396
 21
230.633175
 31
0.0
  0
LINE
  8
LC-001-002-----0
  6
CONTINUOUS
  5
63D
 10
314.968396
 20
235.391092
 30
0.0
 11
314.968396
 21
230.633175
 31
0.0
  0
LINE
  8
LC-001-002-----0
  6
CONTINUOUS
  5
63E
 10
315.968396
 20
235.391092
 30
0.0
 11
314.968396
 21
235.391092
 31
0.0
  0
LINE
  8
LC-001-002-----0
  6
CONTINUOUS
  5
63F
 10
315.968396
 20
336.79284
 30
0.0
 11
315.968396
 21
337.083501
 31
0.0
  0
LINE
  8
LC-001-002-----0
  6
CONTINUOUS
  5
640
 10
312.968396
 20
238.391092
 30
0.0
 11
270.965378
 21
238.391092
 31
0.0
  0
LINE
  8
LC-001-002-----0
  6
CONTINUOUS
  5
641
 10
272.968396
 20
236.891092
 30
0.0
 11
273.968396
 21
236.891092
 31
0.0
  0
LINE
  8
LC-001-002-----0
  6
CONTINUOUS
  5
642
 10
315.968396
 20
235.391092
 30
0.0
 11
315.968396
 21
383.084017
 31
0.0
  0
LINE
  8
LC-001-002-----0
  6
CONTINUOUS
  5
643
 10
293.968396
 20
381.383501
 30
0.0
 11
293.968396
 21
383.084017
 31
0.0
  0
LINE
  8
LC-001-002-----0
  6
CONTINUOUS
  5
644
 10
107.205407
 20
476.404095
 30
0.0
 11
104.693951
 21
473.892638
 31
0.0
  0
ARC
  8
LC-001-002-----0
  6
CONTINUOUS
  5
645
 10
490.641379
 20
382.848829
 30
0.0
 40
3.0
 50
180.0
 51
0.0
  0
LINE
  8
LC-001-002-----0
  6
CONTINUOUS
  5
646
 10
487.641379
 20
386.848829
 30
0.0
 11
487.641379
 21
382.848829
 31
0.0
  0
ARC
  8
LC-001-002-----0
  6
CONTINUOUS
  5
647
 10
490.641379
 20
386.848829
 30
0.0
 40
3.0
 50
0.0
 51
180.0
  0
LINE
  8
LC-001-002-----0
  6
CONTINUOUS
  5
648
 10
493.641379
 20
386.848829
 30
0.0
 11
493.641379
 21
382.848829
 31
0.0
  0
ARC
  8
LC-001-002-----0
  6
CONTINUOUS
  5
649
 10
490.641379
 20
386.848829
 30
0.0
 40
5.0
 50
0.0
 51
180.0
  0
LINE
  8
LC-001-002-----0
  6
CONTINUOUS
  5
64A
 10
495.641379
 20
386.848829
 30
0.0
 11
495.641379
 21
378.334011
 31
0.0
  0
LINE
  8
LC-001-002-----0
  6
CONTINUOUS
  5
64B
 10
485.641379
 20
386.848829
 30
0.0
 11
485.641379
 21
378.334011
 31
0.0
  0
LINE
  8
LC-001-002-----0
  6
CONTINUOUS
  5
64C
 10
588.641379
 20
321.819192
 30
0.0
 11
592.641379
 21
321.819192
 31
0.0
  0
CIRCLE
  8
LC-001-002-----0
  6
DASHED
 62
     2
  5
64D
 10
539.518816
 20
352.396745
 30
0.0
 40
24.75
  0
LINE
  8
LC-001-002-----0
  6
DASHED
 62
     2
  5
64E
 10
516.913781
 20
342.318308
 30
0.0
 11
511.637026
 21
341.387874
 31
0.0
  0
ARC
  8
LC-001-002-----0
  6
DASHED
 62
     2
  5
64F
 10
539.518816
 20
352.460623
 30
0.0
 40
30.0
 50
178.585635
 51
201.659607
  0
LINE
  8
LC-001-002-----0
  6
DASHED
 62
     2
  5
650
 10
514.830003
 20
354.136001
 30
0.0
 11
509.527956
 21
353.201107
 31
0.0
  0
LINE
  8
LC-001-002-----0
  6
CONTINUOUS
  5
651
 10
585.641379
 20
386.848829
 30
0.0
 11
585.641379
 21
378.334011
 31
0.0
  0
ARC
  8
LC-001-002-----0
  6
CONTINUOUS
  5
652
 10
590.641379
 20
386.848829
 30
0.0
 40
5.0
 50
360.0
 51
180.0
  0
ARC
  8
LC-001-002-----0
  6
CONTINUOUS
  5
653
 10
590.641379
 20
382.848829
 30
0.0
 40
3.0
 50
180.0
 51
360.0
  0
LINE
  8
LC-001-002-----0
  6
CONTINUOUS
  5
654
 10
587.641379
 20
386.848829
 30
0.0
 11
587.641379
 21
382.848829
 31
0.0
  0
ARC
  8
LC-001-002-----0
  6
CONTINUOUS
  5
655
 10
590.641379
 20
386.848829
 30
0.0
 40
3.0
 50
360.0
 51
180.0
  0
LINE
  8
LC-001-002-----0
  6
CONTINUOUS
  5
656
 10
593.641379
 20
386.848829
 30
0.0
 11
593.641379
 21
382.848829
 31
0.0
  0
LINE
  8
LC-001-002-----0
  6
CONTINUOUS
  5
657
 10
595.641379
 20
386.848829
 30
0.0
 11
595.641379
 21
378.334011
 31
0.0
  0
LINE
  8
LC-001-002-----0
  6
CONTINUOUS
  5
658
 10
99.963434
 20
468.039598
 30
0.0
 11
99.930905
 21
467.539598
 31
0.0
  0
ARC
  8
LC-006-002-RND-0
  6
CONTINUOUS
 62
     1
  5
659
 10
488.641379
 20
318.819192
 30
0.0
 40
5.0
 50
180.0
 51
246.488386
  0
LINE
  8
LC-001-002-----0
  6
CONTINUOUS
  5
65A
 10
483.641379
 20
318.819192
 30
0.0
 11
483.641379
 21
324.334011
 31
0.0
  0
LINE
  8
LC-001-002-----0
  6
CONTINUOUS
  5
65B
 10
67.716864
 20
473.892638
 30
0.0
 11
104.693951
 21
473.892638
 31
0.0
  0
LINE
  8
LC-001-002-----0
  6
CONTINUOUS
  5
65C
 10
68.505798
 20
467.539598
 30
0.0
 11
72.430905
 21
467.539598
 31
0.0
  0
LINE
  8
LC-001-002-----0
  6
CONTINUOUS
  5
65D
 10
68.505798
 20
468.039598
 30
0.0
 11
72.430905
 21
468.039598
 31
0.0
  0
LINE
  8
LC-001-002-----0
  6
CONTINUOUS
  5
65E
 10
99.930905
 20
467.539598
 30
0.0
 11
103.856011
 21
467.539598
 31
0.0
  0
LINE
  8
LC-001-002-----0
  6
CONTINUOUS
  5
65F
 10
68.505798
 20
467.539598
 30
0.0
 11
68.505798
 21
468.039598
 31
0.0
  0
ARC
  8
LC-001-002-----0
  6
CONTINUOUS
 62
     2
  5
660
 10
585.708176
 20
358.405078
 30
0.0
 40
1.5
 50
272.905082
 51
104.756548
  0
CIRCLE
  8
LC-001-002-----0
  6
CONTINUOUS
 62
     2
  5
661
 10
592.781379
 20
365.478282
 30
0.0
 40
1.5
  0
CIRCLE
  8
LC-001-002-----0
  6
CONTINUOUS
 62
     2
  5
662
 10
588.641379
 20
351.334011
 30
0.0
 40
1.5
  0
CIRCLE
  8
LC-001-002-----0
  6
CONTINUOUS
 62
     2
  5
663
 10
588.641379
 20
371.334011
 30
0.0
 40
1.5
  0
LINE
  8
LC-001-002-----0
  6
CONTINUOUS
  5
664
 10
103.856011
 20
467.539598
 30
0.0
 11
103.856011
 21
468.039598
 31
0.0
  0
CIRCLE
  8
LC-001-002-----0
  6
CONTINUOUS
 62
     2
  5
665
 10
588.641379
 20
331.334011
 30
0.0
 40
1.5
  0
LINE
  8
LC-001-002-----0
  6
CONTINUOUS
  5
666
 10
99.963434
 20
468.039598
 30
0.0
 11
103.856011
 21
468.039598
 31
0.0
  0
LINE
  8
LC-001-002-----0
  6
DASHDOT
 62
     2
  5
667
 10
67.449341
 20
435.676875
 30
0.0
 11
105.411034
 21
435.676875
 31
0.0
  0
ARC
  8
LC-001-002-----0
  6
CONTINUOUS
 62
     2
  5
668
 10
585.710311
 20
344.265079
 30
0.0
 40
1.5
 50
258.490954
 51
85.001697
  0
LINE
  8
LC-001-002-----0
  6
CONTINUOUS
  5
669
 10
70.040042
 20
464.404095
 30
0.0
 11
70.040042
 21
462.904095
 31
0.0
  0
LINE
  8
LC-001-002-----0
  6
CONTINUOUS
  5
66A
 10
63.205407
 20
462.904095
 30
0.0
 11
63.205407
 21
473.904095
 31
0.0
  0
CIRCLE
  8
LC-001-002-----0
  6
CONTINUOUS
 62
     2
  5
66B
 10
592.783515
 20
337.191875
 30
0.0
 40
1.5
  0
CIRCLE
  8
LC-001-002-----0
  6
CONTINUOUS
 62
     2
  5
66C
 10
588.641379
 20
340.727409
 30
0.0
 40
1.5
  0
ARC
  8
LC-001-002-----0
  6
CONTINUOUS
 62
     2
  5
66D
 10
608.641379
 20
340.727409
 30
0.0
 40
1.5
 50
90.0
 51
0.0
  0
CIRCLE
  8
LC-001-002-----0
  6
CONTINUOUS
 62
     2
  5
66E
 10
588.641379
 20
361.940612
 30
0.0
 40
1.5
  0
ARC
  8
LC-006-002-RND-0
  6
CONTINUOUS
 62
     1
  5
66F
 10
67.040042
 20
462.904095
 30
0.0
 40
3.0
 50
270.0
 51
0.0
  0
LINE
  8
LC-001-002-----0
  6
CONTINUOUS
  5
670
 10
61.205407
 20
473.904095
 30
0.0
 11
61.205407
 21
476.404095
 31
0.0
  0
LINE
  8
LC-001-002-----0
  6
CONTINUOUS
  5
671
 10
107.205407
 20
476.404095
 30
0.0
 11
61.205407
 21
476.404095
 31
0.0
  0
CIRCLE
  8
LC-001-002-----0
  6
CONTINUOUS
 62
     2
  5
672
 10
598.637108
 20
331.334011
 30
0.0
 40
1.5
  0
LINE
  8
LC-001-002-----0
  6
CONTINUOUS
  5
673
 10
67.040042
 20
459.904095
 30
0.0
 11
66.205407
 21
459.904095
 31
0.0
  0
LINE
  8
LC-001-002-----0
  6
CONTINUOUS
  5
674
 10
63.205407
 20
473.904095
 30
0.0
 11
61.205407
 21
473.904095
 31
0.0
  0
CIRCLE
  8
LC-001-002-----0
  6
CONTINUOUS
 62
     2
  5
675
 10
608.641379
 20
331.334011
 30
0.0
 40
1.5
  0
ARC
  8
LC-001-002-----0
  6
CONTINUOUS
 62
     2
  5
676
 10
612.783515
 20
337.191875
 30
0.0
 40
1.5
 50
152.195731
 51
226.798737
  0
ARC
  8
LC-001-002-----0
  6
CONTINUOUS
 62
     2
  5
677
 10
584.497108
 20
337.194011
 30
0.0
 40
1.5
 50
236.180762
 51
90.095242
  0
ARC
  8
LC-001-002-----0
  6
CONTINUOUS
 62
     2
  5
678
 10
605.710311
 20
344.265079
 30
0.0
 40
1.5
 50
180.0
 51
346.15164
  0
CIRCLE
  8
LC-001-002-----0
  6
CONTINUOUS
 62
     2
  5
679
 10
591.56604
 20
344.262943
 30
0.0
 40
1.5
  0
CIRCLE
  8
LC-001-002-----0
  6
CONTINUOUS
 62
     2
  5
67A
 10
598.637108
 20
341.334011
 30
0.0
 40
1.5
  0
LINE
  8
LC-001-002-----0
  6
CONTINUOUS
  5
67B
 10
65.205407
 20
464.404095
 30
0.0
 11
65.205407
 21
476.404095
 31
0.0
  0
LINE
  8
LC-001-002-----0
  6
CONTINUOUS
  5
67C
 10
592.641379
 20
315.819192
 30
0.0
 11
588.641379
 21
315.819192
 31
0.0
  0
CIRCLE
  8
LC-001-002-----0
  6
CONTINUOUS
 62
     2
  5
67D
 10
591.568176
 20
358.407214
 30
0.0
 40
1.5
  0
CIRCLE
  8
LC-001-002-----0
  6
CONTINUOUS
 62
     2
  5
67E
 10
598.637108
 20
336.334011
 30
0.0
 40
1.5
  0
ARC
  8
LC-001-002-----0
  6
CONTINUOUS
 62
     2
  5
67F
 10
584.499244
 20
365.476146
 30
0.0
 40
1.5
 50
264.635253
 51
130.192804
  0
CIRCLE
  8
LC-001-002-----0
  6
CONTINUOUS
 62
     2
  5
680
 10
598.637108
 20
371.33401
 30
0.0
 40
1.5
  0
CIRCLE
  8
LC-001-002-----0
  6
CONTINUOUS
 62
     2
  5
681
 10
598.637108
 20
366.334011
 30
0.0
 40
1.5
  0
CIRCLE
  8
LC-001-002-----0
  6
CONTINUOUS
 62
     2
  5
682
 10
598.637108
 20
361.334011
 30
0.0
 40
1.5
  0
ARC
  8
LC-001-002-----0
  6
CONTINUOUS
 62
     2
  5
683
 10
605.708176
 20
358.405078
 30
0.0
 40
1.5
 50
112.20146
 51
182.148101
  0
ARC
  8
LC-001-002-----0
  6
CONTINUOUS
  5
684
 10
592.641379
 20
318.819192
 30
0.0
 40
3.0
 50
270.0
 51
90.0
  0
ARC
  8
LC-001-002-----0
  6
CONTINUOUS
 62
     2
  5
685
 10
632.781379
 20
365.478282
 30
0.0
 40
1.5
 50
244.743803
 51
115.256197
  0
ARC
  8
LC-006-002-RND-0
  6
CONTINUOUS
 62
     1
  5
686
 10
592.641379
 20
318.819192
 30
0.0
 40
5.0
 50
270.0
 51
360.0
  0
CIRCLE
  8
LC-001-002-----0
  6
CONTINUOUS
 62
     2
  5
687
 10
628.641379
 20
331.334011
 30
0.0
 40
1.5
  0
CIRCLE
  8
LC-001-002-----0
  6
CONTINUOUS
 62
     2
  5
688
 10
632.783515
 20
337.191875
 30
0.0
 40
1.5
  0
CIRCLE
  8
LC-001-002-----0
  6
CONTINUOUS
 62
     2
  5
689
 10
604.497108
 20
337.194011
 30
0.0
 40
1.5
  0
LINE
  8
LC-001-002-----0
  6
CONTINUOUS
  5
68A
 10
597.641379
 20
318.819192
 30
0.0
 11
597.641379
 21
324.334011
 31
0.0
  0
LINE
  8
LC-001-002-----0
  6
CONTINUOUS
  5
68B
 10
472.141379
 20
378.334011
 30
0.0
 11
445.141379
 21
378.334011
 31
0.0
  0
ARC
  8
LC-001-002-----0
  6
CONTINUOUS
  5
68C
 10
588.641379
 20
318.819192
 30
0.0
 40
3.0
 50
90.0
 51
270.0
  0
CIRCLE
  8
LC-001-002-----0
  6
CONTINUOUS
 62
     2
  5
68D
 10
638.641379
 20
365.476146
 30
0.0
 40
1.5
  0
CIRCLE
  8
LC-001-002-----0
  6
CONTINUOUS
 62
     2
  5
68E
 10
638.641379
 20
337.191875
 30
0.0
 40
1.5
  0
ARC
  8
LC-001-002-----0
  6
CONTINUOUS
  5
68F
 10
478.645651
 20
351.334011
 30
0.0
 40
6.0
 50
279.497234
 51
80.0
  0
LINE
  8
LC-001-002-----0
  6
CONTINUOUS
  5
690
 10
592.641379
 20
313.819192
 30
0.0
 11
581.636379
 21
313.819192
 31
0.0
  0
ARC
  8
LC-006-002-RND-0
  6
CONTINUOUS
 62
     1
  5
691
 10
66.205407
 20
462.904095
 30
0.0
 40
3.0
 50
180.0
 51
270.0
  0
LINE
  8
LC-001-002-----0
  6
CONTINUOUS
  5
692
 10
70.040042
 20
464.404095
 30
0.0
 11
65.205407
 21
464.404095
 31
0.0
  0
CIRCLE
  8
LC-001-002-----0
  6
CONTINUOUS
 62
     2
  5
693
 10
629.250116
 20
340.725273
 30
0.0
 40
1.5
  0
LINE
  8
LC-001-002-----0
  6
CONTINUOUS
  5
694
 10
65.205407
 20
464.404095
 30
0.0
 11
66.930905
 21
466.129592
 31
0.0
  0
LINE
  8
LC-001-002-----0
  6
CONTINUOUS
  5
695
 10
67.716864
 20
467.390099
 30
0.0
 11
67.716864
 21
473.892638
 31
0.0
  0
LINE
  8
LC-001-002-----0
  6
CONTINUOUS
  5
696
 10
65.205407
 20
476.404095
 30
0.0
 11
67.716864
 21
473.892638
 31
0.0
  0
ARC
  8
LC-001-002-----0
  6
CONTINUOUS
 62
     2
  5
697
 10
604.499244
 20
365.476146
 30
0.0
 40
1.5
 50
64.653566
 51
295.346434
  0
LINE
  8
LC-001-002-----0
  6
CONTINUOUS
  5
698
 10
61.205407
 20
473.904095
 30
0.0
 11
61.205407
 21
464.904095
 31
0.0
  0
LINE
  8
LC-001-002-----0
  6
CONTINUOUS
  5
699
 10
63.205407
 20
462.904095
 30
0.0
 11
61.205407
 21
464.904095
 31
0.0
  0
LINE
  8
LC-001-002-----0
  6
CONTINUOUS
  5
69A
 10
107.205407
 20
476.404095
 30
0.0
 11
111.205407
 21
476.404095
 31
0.0
  0
LINE
  8
LC-001-002-----0
  6
CONTINUOUS
  5
69B
 10
111.205407
 20
473.904095
 30
0.0
 11
111.205407
 21
476.404095
 31
0.0
  0
LINE
  8
LC-001-002-----0
  6
CONTINUOUS
  5
69C
 10
111.205407
 20
473.904095
 30
0.0
 11
111.205407
 21
464.904095
 31
0.0
  0
LINE
  8
LC-001-002-----0
  6
CONTINUOUS
  5
69D
 10
109.205407
 20
462.904095
 30
0.0
 11
109.205407
 21
473.904095
 31
0.0
  0
LINE
  8
LC-001-002-----0
  6
CONTINUOUS
  5
69E
 10
109.205407
 20
473.904095
 30
0.0
 11
111.205407
 21
473.904095
 31
0.0
  0
LINE
  8
LC-001-002-----0
  6
CONTINUOUS
  5
69F
 10
109.205407
 20
462.904095
 30
0.0
 11
111.205407
 21
464.904095
 31
0.0
  0
LINE
  8
LC-001-002-----0
  6
CONTINUOUS
  5
6A0
 10
479.635651
 20
345.416249
 30
0.0
 11
470.241462
 21
343.844667
 31
0.0
  0
ARC
  8
LC-006-002-RND-0
  6
CONTINUOUS
 62
     1
  5
6A1
 10
106.205407
 20
462.904095
 30
0.0
 40
3.0
 50
270.0
 51
0.0
  0
LINE
  8
LC-001-002-----0
  6
CONTINUOUS
  5
6A2
 10
105.370773
 20
459.904095
 30
0.0
 11
106.205407
 21
459.904095
 31
0.0
  0
ARC
  8
LC-006-002-RND-0
  6
CONTINUOUS
 62
     1
  5
6A3
 10
105.370773
 20
462.904095
 30
0.0
 40
3.0
 50
180.0
 51
270.0
  0
LINE
  8
LC-001-002-----0
  6
CONTINUOUS
  5
6A4
 10
107.205407
 20
464.404095
 30
0.0
 11
107.205407
 21
476.404095
 31
0.0
  0
LINE
  8
LC-001-002-----0
  6
CONTINUOUS
  5
6A5
 10
107.205407
 20
464.404095
 30
0.0
 11
105.430905
 21
466.178597
 31
0.0
  0
LINE
  8
LC-001-002-----0
  6
CONTINUOUS
  5
6A6
 10
104.693951
 20
467.390099
 30
0.0
 11
104.693951
 21
473.892638
 31
0.0
  0
LINE
  8
LC-001-002-----0
  6
CONTINUOUS
  5
6A7
 10
102.370773
 20
464.404095
 30
0.0
 11
107.205407
 21
464.404095
 31
0.0
  0
LINE
  8
LC-001-002-----0
  6
CONTINUOUS
  5
6A8
 10
581.636379
 20
318.335468
 30
0.0
 11
581.636379
 21
284.335468
 31
0.0
  0
LINE
  8
LC-001-002-----0
  6
CONTINUOUS
  5
6A9
 10
486.305306
 20
324.335468
 30
0.0
 11
438.636379
 21
324.335468
 31
0.0
  0
LINE
  8
LC-001-002-----0
  6
CONTINUOUS
  5
6AA
 10
102.370773
 20
464.404095
 30
0.0
 11
102.370773
 21
462.904095
 31
0.0
  0
LINE
  8
LC-001-002-----0
  6
DASHDOT
 62
     2
  5
6AB
 10
67.449341
 20
434.676875
 30
0.0
 11
105.411034
 21
434.676875
 31
0.0
  0
ARC
  8
LC-001-002-----0
  6
CONTINUOUS
 62
     2
  5
6AC
 10
491.574583
 20
358.405078
 30
0.0
 40
1.5
 50
75.243452
 51
267.094918
  0
CIRCLE
  8
LC-001-002-----0
  6
CONTINUOUS
 62
     2
  5
6AD
 10
484.501379
 20
365.478282
 30
0.0
 40
1.5
  0
CIRCLE
  8
LC-001-002-----0
  6
CONTINUOUS
 62
     2
  5
6AE
 10
488.641379
 20
351.334011
 30
0.0
 40
1.5
  0
CIRCLE
  8
LC-001-002-----0
  6
CONTINUOUS
 62
     2
  5
6AF
 10
488.641379
 20
371.334011
 30
0.0
 40
1.5
  0
LINE
  8
LC-001-002-----0
  6
DASHDOT
 62
     2
  5
6B0
 10
150.428861
 20
369.924638
 30
0.0
 11
150.428861
 21
332.646171
 31
0.0
  0
LINE
  8
LC-001-002-----0
  6
DASHDOT
 62
     2
  5
6B1
 10
151.428861
 20
369.924638
 30
0.0
 11
151.428861
 21
332.646171
 31
0.0
  0
ARC
  8
LC-001-002-----0
  6
CONTINUOUS
 62
     2
  5
6B2
 10
483.645651
 20
351.334011
 30
0.0
 40
1.5
 50
312.689813
 51
58.966264
  0
ARC
  8
LC-001-002-----0
  6
CONTINUOUS
 62
     2
  5
6B3
 10
491.572447
 20
344.265079
 30
0.0
 40
1.5
 50
99.414662
 51
215.810459
  0
ARC
  8
LC-001-002-----0
  6
CONTINUOUS
 62
     2
  5
6B4
 10
468.641379
 20
340.727409
 30
0.0
 40
1.5
 50
177.762774
 51
90.0
  0
CIRCLE
  8
LC-001-002-----0
  6
CONTINUOUS
 62
     2
  5
6B5
 10
488.641379
 20
361.940612
 30
0.0
 40
1.5
  0
LINE
  8
LC-001-002-----0
  6
CONTINUOUS
  5
6B6
 10
638.636379
 20
378.335468
 30
0.0
 11
577.552672
 21
378.335468
 31
0.0
  0
LINE
  8
LC-001-002-----0
  6
CONTINUOUS
  5
6B7
 10
70.430905
 20
434.676875
 30
0.0
 11
70.430905
 21
370.904817
 31
0.0
  0
LINE
  8
LC-001-002-----0
  6
CONTINUOUS
  5
6B8
 10
72.430905
 20
434.676875
 30
0.0
 11
72.430905
 21
370.904817
 31
0.0
  0
CIRCLE
  8
LC-001-002-----0
  6
CONTINUOUS
 62
     2
  5
6B9
 10
478.645651
 20
331.334011
 30
0.0
 40
1.5
  0
LINE
  8
LC-001-002-----0
  6
CONTINUOUS
  5
6BA
 10
99.930905
 20
434.676875
 30
0.0
 11
99.930905
 21
370.904817
 31
0.0
  0
LINE
  8
LC-001-002-----0
  6
CONTINUOUS
  5
6BB
 10
101.930905
 20
434.676875
 30
0.0
 11
101.930905
 21
370.904817
 31
0.0
  0
CIRCLE
  8
LC-001-002-----0
  6
DASHED
 62
     2
  5
6BC
 10
488.641379
 20
371.334011
 30
0.0
 40
1.5
  0
CIRCLE
  8
LC-001-002-----0
  6
CONTINUOUS
 62
     2
  5
6BD
 10
468.641379
 20
331.334011
 30
0.0
 40
1.5
  0
LINE
  8
LC-001-002-----0
  6
DASHDOT
 62
     2
  5
6BE
 10
438.645651
 20
354.334011
 30
0.0
 11
438.645651
 21
348.334011
 31
0.0
  0
ARC
  8
LC-001-002-----0
  6
CONTINUOUS
 62
     2
  5
6BF
 10
471.572447
 20
344.265079
 30
0.0
 40
1.5
 50
196.941083
 51
2.053386
  0
LINE
  8
LC-001-002-----0
  6
CONTINUOUS
  5
6C0
 10
151.428861
 20
367.334011
 30
0.0
 11
274.035659
 21
367.334011
 31
0.0
  0
LINE
  8
LC-001-002-----0
  6
CONTINUOUS
  5
6C1
 10
151.428861
 20
365.334011
 30
0.0
 11
277.535659
 21
365.334011
 31
0.0
  0
LINE
  8
LC-001-002-----0
  6
CONTINUOUS
  5
6C2
 10
151.428861
 20
337.334011
 30
0.0
 11
277.535659
 21
337.334011
 31
0.0
  0
CIRCLE
  8
LC-001-002-----0
  6
CONTINUOUS
 62
     2
  5
6C3
 10
485.714582
 20
358.407214
 30
0.0
 40
1.5
  0
CIRCLE
  8
LC-001-002-----0
  6
CONTINUOUS
 62
     2
  5
6C4
 10
478.645651
 20
336.334011
 30
0.0
 40
1.5
  0
ARC
  8
LC-001-002-----0
  6
CONTINUOUS
 62
     2
  5
6C5
 10
492.783515
 20
365.476146
 30
0.0
 40
1.5
 50
49.807196
 51
275.364747
  0
CIRCLE
  8
LC-001-002-----0
  6
CONTINUOUS
 62
     2
  5
6C6
 10
478.645651
 20
371.33401
 30
0.0
 40
1.5
  0
CIRCLE
  8
LC-001-002-----0
  6
CONTINUOUS
 62
     2
  5
6C7
 10
478.645651
 20
366.334011
 30
0.0
 40
1.5
  0
CIRCLE
  8
LC-001-002-----0
  6
CONTINUOUS
 62
     2
  5
6C8
 10
478.645651
 20
361.334011
 30
0.0
 40
1.5
  0
LINE
  8
LC-001-002-----0
  6
CONTINUOUS
  5
6C9
 10
151.428861
 20
335.334011
 30
0.0
 11
274.035659
 21
335.334011
 31
0.0
  0
LINE
  8
LC-001-002-----0
  6
DASHDOT
 62
     2
  5
6CA
 10
478.645651
 20
354.334011
 30
0.0
 11
478.645651
 21
348.334011
 31
0.0
  0
CIRCLE
  8
LC-001-002-----0
  6
CONTINUOUS
 62
     2
  5
6CB
 10
448.641379
 20
331.334011
 30
0.0
 40
1.5
  0
LINE
  8
LC-001-002-----0
  6
CONTINUOUS
  5
6CC
 10
638.636379
 20
324.335468
 30
0.0
 11
587.636379
 21
324.335468
 31
0.0
  0
CIRCLE
  8
LC-001-002-----0
  6
DASHED
 62
     2
  5
6CD
 10
468.641379
 20
331.334011
 30
0.0
 40
1.5
  0
CIRCLE
  8
LC-001-002-----0
  6
CONTINUOUS
 62
     2
  5
6CE
 10
444.499244
 20
337.191875
 30
0.0
 40
1.5
  0
CIRCLE
  8
LC-001-002-----0
  6
CONTINUOUS
 62
     2
  5
6CF
 10
472.78565
 20
337.194011
 30
0.0
 40
1.5
  0
CIRCLE
  8
LC-001-002-----0
  6
CONTINUOUS
 62
     2
  5
6D0
 10
438.641379
 20
365.476146
 30
0.0
 40
1.5
  0
CIRCLE
  8
LC-001-002-----0
  6
CONTINUOUS
 62
     2
  5
6D1
 10
438.641379
 20
337.191875
 30
0.0
 40
1.5
  0
CIRCLE
  8
LC-001-002-----0
  6
CONTINUOUS
 62
     2
  5
6D2
 10
448.032642
 20
340.725273
 30
0.0
 40
1.5
  0
LINE
  8
LC-001-002-----0
  6
CONTINUOUS
  5
6D3
 10
274.035659
 20
367.334011
 30
0.0
 11
277.535659
 21
366.396189
 31
0.0
  0
LINE
  8
LC-001-002-----0
  6
CONTINUOUS
  5
6D4
 10
274.035659
 20
335.334011
 30
0.0
 11
277.535659
 21
336.271833
 31
0.0
  0
ARC
  8
LC-006-002-RND-0
  6
CONTINUOUS
 62
     1
  5
6D5
 10
618.637108
 20
351.334011
 30
0.0
 40
13.5
 50
270.0
 51
325.955015
  0
LINE
  8
LC-001-002-----0
  6
DASHDOT
 62
     2
  5
6D6
 10
455.645651
 20
331.334011
 30
0.0
 11
461.645651
 21
331.334011
 31
0.0
  0
ARC
  8
LC-001-002-----0
  6
CONTINUOUS
 62
     2
  5
6D7
 10
472.783515
 20
365.476146
 30
0.0
 40
1.5
 50
244.653566
 51
115.346434
  0
LINE
  8
LC-001-002-----0
  6
CONTINUOUS
  5
6D8
 10
519.466014
 20
404.896746
 30
0.0
 11
558.631379
 21
404.896746
 31
0.0
  0
LINE
  8
LC-001-002-----0
  6
CONTINUOUS
  5
6D9
 10
521.631379
 20
461.022657
 30
0.0
 11
521.631379
 21
436.795437
 31
0.0
  0
LINE
  8
LC-001-002-----0
  6
CONTINUOUS
  5
6DA
 10
540.131379
 20
401.896746
 30
0.0
 11
540.131379
 21
390.896746
 31
0.0
  0
LINE
  8
LC-001-002-----0
  6
CONTINUOUS
  5
6DB
 10
537.131379
 20
401.896746
 30
0.0
 11
537.131379
 21
390.896746
 31
0.0
  0
LINE
  8
LC-009-006-MLN-0
  6
DASHDOT
  5
6DE
 10
538.641379
 20
487.522657
 30
0.0
 11
538.641379
 21
167.083175
 31
0.0
  0
LINE
  8
LC-001-002-----0
  6
CONTINUOUS
  5
6DF
 10
643.636379
 20
373.335468
 30
0.0
 11
643.636379
 21
354.658161
 31
0.0
  0
LINE
  8
LC-001-002-----0
  6
CONTINUOUS
  5
6E0
 10
433.636379
 20
373.335468
 30
0.0
 11
433.636379
 21
354.643085
 31
0.0
  0
ARC
  8
LC-006-002-RND-0
  6
CONTINUOUS
 62
     1
  5
6E1
 10
638.636379
 20
329.335468
 30
0.0
 40
5.0
 50
270.0
 51
360.0
  0
ARC
  8
LC-006-002-RND-0
  6
CONTINUOUS
 62
     1
  5
6E2
 10
638.636379
 20
373.335468
 30
0.0
 40
5.0
 50
360.0
 51
90.0
  0
LINE
  8
LC-001-002-----0
  6
CONTINUOUS
  5
6E3
 10
513.631379
 20
399.896746
 30
0.0
 11
513.631379
 21
388.396746
 31
0.0
  0
LINE
  8
LC-001-002-----0
  6
CONTINUOUS
  5
6E4
 10
515.631379
 20
401.896746
 30
0.0
 11
513.631379
 21
399.896746
 31
0.0
  0
ARC
  8
LC-006-002-RND-0
  6
CONTINUOUS
 62
     1
  5
6E5
 10
438.636379
 20
373.335468
 30
0.0
 40
5.0
 50
90.0
 51
180.0
  0
ARC
  8
LC-006-002-RND-0
  6
CONTINUOUS
 62
     1
  5
6E6
 10
438.636379
 20
329.335468
 30
0.0
 40
5.0
 50
180.0
 51
270.0
  0
LINE
  8
LC-001-002-----0
  6
CONTINUOUS
  5
6E7
 10
515.631379
 20
401.896746
 30
0.0
 11
515.631379
 21
390.896746
 31
0.0
  0
ARC
  8
LC-006-002-RND-0
  6
CONTINUOUS
 62
     1
  5
6E8
 10
518.631379
 20
401.896746
 30
0.0
 40
3.0
 50
90.0
 51
180.0
  0
LINE
  8
LC-001-002-----0
  6
CONTINUOUS
  5
6E9
 10
519.466014
 20
404.896746
 30
0.0
 11
518.631379
 21
404.896746
 31
0.0
  0
ARC
  8
LC-006-002-RND-0
  6
CONTINUOUS
 62
     1
  5
6EA
 10
558.631379
 20
401.896746
 30
0.0
 40
3.0
 50
0.0
 51
90.0
  0
LINE
  8
LC-001-002-----0
  6
CONTINUOUS
  5
6EB
 10
561.631379
 20
401.896746
 30
0.0
 11
563.631379
 21
399.896746
 31
0.0
  0
LINE
  8
LC-001-002-----0
  6
CONTINUOUS
  5
6EC
 10
437.603723
 20
357.243085
 30
0.0
 11
445.145651
 21
358.504796
 31
0.0
  0
ARC
  8
LC-001-002-----0
  6
CONTINUOUS
  5
6ED
 10
438.645651
 20
351.334011
 30
0.0
 40
6.0
 50
100.0
 51
260.502766
  0
LINE
  8
LC-001-002-----0
  6
CONTINUOUS
  5
6EE
 10
437.655651
 20
345.416249
 30
0.0
 11
447.049839
 21
343.844667
 31
0.0
  0
LINE
  8
LC-001-002-----0
  6
CONTINUOUS
  5
6EF
 10
561.631379
 20
401.896746
 30
0.0
 11
561.631379
 21
390.896746
 31
0.0
  0
LINE
  8
LC-001-002-----0
  6
CONTINUOUS
  5
6F0
 10
563.631379
 20
388.396746
 30
0.0
 11
563.631379
 21
399.896746
 31
0.0
  0
LINE
  8
LC-001-002-----0
  6
CONTINUOUS
  5
6F1
 10
325.022396
 20
341.109017
 30
0.0
 11
325.022396
 21
362.059017
 31
0.0
  0
LINE
  8
LC-001-002-----0
  6
CONTINUOUS
  5
6F2
 10
318.468396
 20
376.835474
 30
0.0
 11
318.468396
 21
369.159017
 31
0.0
  0
ARC
  8
LC-006-002-RND-0
  6
CONTINUOUS
 62
     1
  5
6F3
 10
318.968396
 20
375.585474
 30
0.0
 40
3.0
 50
90.0
 51
180.0
  0
LINE
  8
LC-001-002-----0
  6
CONTINUOUS
  5
6F4
 10
327.034396
 20
378.585474
 30
0.0
 11
318.968396
 21
378.585474
 31
0.0
  0
LINE
  8
LC-001-002-----0
  6
CONTINUOUS
  5
6F5
 10
327.034396
 20
376.835474
 30
0.0
 11
318.468396
 21
376.835474
 31
0.0
  0
ARC
  8
LC-006-002-RND-0
  6
CONTINUOUS
 62
     1
  5
6F6
 10
318.968396
 20
306.460183
 30
0.0
 40
3.0
 50
180.0
 51
270.0
  0
LINE
  8
LC-001-002-----0
  6
CONTINUOUS
  5
6F7
 10
327.034396
 20
282.584016
 30
0.0
 11
315.968396
 21
282.584016
 31
0.0
  0
LINE
  8
LC-001-002-----0
  6
CONTINUOUS
  5
6F8
 10
327.034396
 20
305.761551
 30
0.0
 11
318.468396
 21
305.761551
 31
0.0
  0
LINE
  8
LC-001-002-----0
  6
CONTINUOUS
  5
6F9
 10
327.034396
 20
303.460183
 30
0.0
 11
318.968396
 21
303.460183
 31
0.0
  0
LINE
  8
LC-001-002-----0
  6
CONTINUOUS
  5
6FA
 10
537.131379
 20
401.896746
 30
0.0
 11
540.131379
 21
401.896746
 31
0.0
  0
LINE
  8
LC-001-002-----0
  6
CONTINUOUS
  5
6FB
 10
327.034396
 20
326.33256
 30
0.0
 11
325.022396
 21
326.33256
 31
0.0
  0
LINE
  8
LC-001-002-----0
  6
CONTINUOUS
  5
6FC
 10
325.022396
 20
369.159017
 30
0.0
 11
318.468396
 21
369.159017
 31
0.0
  0
LINE
  8
LC-001-002-----0
  6
CONTINUOUS
  5
6FD
 10
325.022396
 20
359.159017
 30
0.0
 11
318.468396
 21
359.159017
 31
0.0
  0
LINE
  8
LC-001-002-----0
  6
CONTINUOUS
  5
6FE
 10
325.022396
 20
344.009017
 30
0.0
 11
318.468396
 21
344.009017
 31
0.0
  0
LINE
  8
LC-001-002-----0
  6
CONTINUOUS
  5
6FF
 10
325.022396
 20
334.009017
 30
0.0
 11
318.468396
 21
334.009017
 31
0.0
  0
LINE
  8
LC-001-002-----0
  6
CONTINUOUS
  5
700
 10
318.468396
 20
334.009017
 30
0.0
 11
318.468396
 21
305.761551
 31
0.0
  0
LINE
  8
LC-001-002-----0
  6
CONTINUOUS
  5
701
 10
318.468396
 20
359.159017
 30
0.0
 11
318.468396
 21
344.009017
 31
0.0
  0
LINE
  8
LC-001-002-----0
  6
CONTINUOUS
  5
702
 10
537.131379
 20
399.896746
 30
0.0
 11
540.131379
 21
399.896746
 31
0.0
  0
LINE
  8
LC-001-002-----0
  6
CONTINUOUS
  5
703
 10
327.034396
 20
282.584016
 30
0.0
 11
327.034396
 21
326.33256
 31
0.0
  0
LINE
  8
LC-001-002-----0
  6
CONTINUOUS
  5
704
 10
325.022396
 20
326.33256
 30
0.0
 11
325.022396
 21
336.909017
 31
0.0
  0
LINE
  8
LC-001-002-----0
  6
CONTINUOUS
  5
705
 10
327.034396
 20
376.881829
 30
0.0
 11
327.034396
 21
378.585474
 31
0.0
  0
LINE
  8
LC-001-002-----0
  6
DASHDOT
 62
     2
  5
706
 10
329.689906
 20
339.009017
 30
0.0
 11
319.022396
 21
339.009017
 31
0.0
  0
LINE
  8
LC-001-002-----0
  6
DASHDOT
 62
     2
  5
707
 10
329.689906
 20
364.159017
 30
0.0
 11
318.022396
 21
364.159017
 31
0.0
  0
LINE
  8
LC-001-002-----0
  6
CONTINUOUS
  5
708
 10
325.022396
 20
366.259017
 30
0.0
 11
325.022396
 21
376.835474
 31
0.0
  0
LINE
  8
LC-001-002-----0
  6
CONTINUOUS
  5
709
 10
329.522396
 20
369.159017
 30
0.0
 11
329.522396
 21
359.159017
 31
0.0
  0
LINE
  8
LC-001-002-----0
  6
CONTINUOUS
  5
70A
 10
329.022396
 20
369.659017
 30
0.0
 11
328.522396
 21
369.659017
 31
0.0
  0
LINE
  8
LC-001-002-----0
  6
CONTINUOUS
  5
70B
 10
329.022396
 20
358.659017
 30
0.0
 11
328.522396
 21
358.659017
 31
0.0
  0
LINE
  8
LC-001-002-----0
  6
CONTINUOUS
  5
70C
 10
328.022396
 20
369.159017
 30
0.0
 11
328.022396
 21
359.159017
 31
0.0
  0
ARC
  8
LC-006-002-RND-0
  6
CONTINUOUS
 62
     1
  5
70D
 10
329.022396
 20
359.159017
 30
0.0
 40
0.5
 50
270.0
 51
0.0
  0
LINE
  8
LC-001-002-----0
  6
CONTINUOUS
  5
70E
 10
328.022396
 20
366.259017
 30
0.0
 11
322.022396
 21
366.259017
 31
0.0
  0
LINE
  8
LC-001-002-----0
  6
CONTINUOUS
  5
70F
 10
328.022396
 20
362.059017
 30
0.0
 11
322.022396
 21
362.059017
 31
0.0
  0
ARC
  8
LC-006-002-RND-0
  6
CONTINUOUS
 62
     1
  5
710
 10
328.522396
 20
359.159017
 30
0.0
 40
0.5
 50
180.0
 51
270.0
  0
ARC
  8
LC-001-002-----0
  6
CONTINUOUS
  5
711
 10
319.897396
 20
364.159017
 30
0.0
 40
10.625
 50
334.942385
 51
25.057615
  0
ARC
  8
LC-006-002-RND-0
  6
CONTINUOUS
 62
     1
  5
712
 10
328.522396
 20
369.159017
 30
0.0
 40
0.5
 50
90.0
 51
180.0
  0
ARC
  8
LC-006-002-RND-0
  6
CONTINUOUS
 62
     1
  5
713
 10
329.022396
 20
369.159017
 30
0.0
 40
0.5
 50
0.0
 51
90.0
  0
LINE
  8
LC-001-002-----0
  6
CONTINUOUS
  5
714
 10
325.022396
 20
376.584017
 30
0.0
 11
328.022396
 21
376.584017
 31
0.0
  0
LINE
  8
LC-001-002-----0
  6
CONTINUOUS
  5
715
 10
328.022396
 20
376.584017
 30
0.0
 11
328.022396
 21
326.584017
 31
0.0
  0
LINE
  8
LC-001-002-----0
  6
CONTINUOUS
  5
716
 10
328.022396
 20
326.584017
 30
0.0
 11
325.022396
 21
326.584017
 31
0.0
  0
LINE
  8
LC-001-002-----0
  6
CONTINUOUS
  5
717
 10
326.022396
 20
366.259017
 30
0.0
 11
324.022396
 21
362.059017
 31
0.0
  0
LINE
  8
LC-001-002-----0
  6
CONTINUOUS
  5
718
 10
328.022396
 20
366.259017
 30
0.0
 11
326.022396
 21
362.059017
 31
0.0
  0
LINE
  8
LC-001-002-----0
  6
CONTINUOUS
  5
719
 10
324.022396
 20
366.259017
 30
0.0
 11
322.022396
 21
362.059017
 31
0.0
  0
LINE
  8
LC-001-002-----0
  6
CONTINUOUS
  5
71A
 10
322.022396
 20
366.259017
 30
0.0
 11
320.214881
 21
362.463233
 31
0.0
  0
LINE
  8
LC-001-002-----0
  6
CONTINUOUS
  5
71B
 10
319.716085
 20
365.615762
 30
0.0
 11
318.679949
 21
363.439877
 31
0.0
  0
ARC
  8
LC-001-002-----0
  6
CONTINUOUS
  5
71C
 10
322.262425
 20
360.942295
 30
0.0
 40
5.322137
 50
92.584922
 51
142.814024
  0
ARC
  8
LC-001-002-----0
  6
CONTINUOUS
  5
71D
 10
322.262425
 20
367.375738
 30
0.0
 40
5.322137
 50
217.185976
 51
267.415078
  0
LINE
  8
LC-001-002-----0
  6
CONTINUOUS
  5
71E
 10
329.522396
 20
344.009017
 30
0.0
 11
329.522396
 21
334.009017
 31
0.0
  0
LINE
  8
LC-001-002-----0
  6
CONTINUOUS
  5
71F
 10
329.022396
 20
344.509017
 30
0.0
 11
328.522396
 21
344.509017
 31
0.0
  0
LINE
  8
LC-001-002-----0
  6
CONTINUOUS
  5
720
 10
329.022396
 20
333.509017
 30
0.0
 11
328.522396
 21
333.509017
 31
0.0
  0
LINE
  8
LC-001-002-----0
  6
CONTINUOUS
  5
721
 10
328.022396
 20
344.009017
 30
0.0
 11
328.022396
 21
334.009017
 31
0.0
  0
ARC
  8
LC-006-002-RND-0
  6
CONTINUOUS
 62
     1
  5
722
 10
329.022396
 20
334.009017
 30
0.0
 40
0.5
 50
270.0
 51
0.0
  0
LINE
  8
LC-001-002-----0
  6
CONTINUOUS
  5
723
 10
328.022396
 20
341.109017
 30
0.0
 11
322.022396
 21
341.109017
 31
0.0
  0
LINE
  8
LC-001-002-----0
  6
CONTINUOUS
  5
724
 10
328.022396
 20
336.909017
 30
0.0
 11
322.022396
 21
336.909017
 31
0.0
  0
ARC
  8
LC-006-002-RND-0
  6
CONTINUOUS
 62
     1
  5
725
 10
328.522396
 20
334.009017
 30
0.0
 40
0.5
 50
180.0
 51
270.0
  0
ARC
  8
LC-001-002-----0
  6
CONTINUOUS
  5
726
 10
319.897396
 20
339.009017
 30
0.0
 40
10.625
 50
334.942385
 51
25.057615
  0
ARC
  8
LC-006-002-RND-0
  6
CONTINUOUS
 62
     1
  5
727
 10
328.522396
 20
344.009017
 30
0.0
 40
0.5
 50
90.0
 51
180.0
  0
ARC
  8
LC-006-002-RND-0
  6
CONTINUOUS
 62
     1
  5
728
 10
329.022396
 20
344.009017
 30
0.0
 40
0.5
 50
0.0
 51
90.0
  0
LINE
  8
LC-001-002-----0
  6
CONTINUOUS
  5
729
 10
326.022396
 20
341.109017
 30
0.0
 11
324.022396
 21
336.909017
 31
0.0
  0
LINE
  8
LC-001-002-----0
  6
CONTINUOUS
  5
72A
 10
328.022396
 20
341.109017
 30
0.0
 11
326.022396
 21
336.909017
 31
0.0
  0
LINE
  8
LC-001-002-----0
  6
CONTINUOUS
  5
72B
 10
324.022396
 20
341.109017
 30
0.0
 11
322.022396
 21
336.909017
 31
0.0
  0
LINE
  8
LC-001-002-----0
  6
CONTINUOUS
  5
72C
 10
322.022396
 20
341.109017
 30
0.0
 11
320.214881
 21
337.313233
 31
0.0
  0
LINE
  8
LC-001-002-----0
  6
CONTINUOUS
  5
72D
 10
319.716085
 20
340.465762
 30
0.0
 11
318.679949
 21
338.289877
 31
0.0
  0
ARC
  8
LC-001-002-----0
  6
CONTINUOUS
  5
72E
 10
322.262425
 20
335.792295
 30
0.0
 40
5.322137
 50
92.584922
 51
142.814024
  0
ARC
  8
LC-001-002-----0
  6
CONTINUOUS
  5
72F
 10
322.262425
 20
342.225738
 30
0.0
 40
5.322137
 50
217.185976
 51
267.415078
  0
LINE
  8
LC-001-002-----0
  6
CONTINUOUS
  5
730
 10
555.631379
 20
404.896746
 30
0.0
 11
555.631379
 21
435.795437
 31
0.0
  0
LINE
  8
LC-001-002-----0
  6
CONTINUOUS
  5
731
 10
547.619654
 20
401.896746
 30
0.0
 11
549.619654
 21
401.896746
 31
0.0
  0
LINE
  8
LC-001-002-----0
  6
CONTINUOUS
  5
732
 10
549.619654
 20
401.896746
 30
0.0
 11
549.619654
 21
390.896746
 31
0.0
  0
LINE
  8
LC-001-002-----0
  6
CONTINUOUS
  5
733
 10
547.619654
 20
401.896746
 30
0.0
 11
547.619654
 21
390.896746
 31
0.0
  0
LINE
  8
LC-001-002-----0
  6
CONTINUOUS
  5
734
 10
547.619654
 20
399.896746
 30
0.0
 11
549.619654
 21
399.896746
 31
0.0
  0
LINE
  8
LC-001-002-----0
  6
CONTINUOUS
  5
735
 10
556.294352
 20
401.896746
 30
0.0
 11
556.294352
 21
390.896746
 31
0.0
  0
LINE
  8
LC-001-002-----0
  6
CONTINUOUS
  5
736
 10
554.588864
 20
401.896746
 30
0.0
 11
554.588864
 21
390.896746
 31
0.0
  0
LINE
  8
LC-001-002-----0
  6
CONTINUOUS
  5
737
 10
554.588864
 20
401.896746
 30
0.0
 11
556.294352
 21
401.896746
 31
0.0
  0
LINE
  8
LC-001-002-----0
  6
CONTINUOUS
  5
738
 10
554.588864
 20
399.896746
 30
0.0
 11
556.294352
 21
399.896746
 31
0.0
  0
LINE
  8
LC-001-002-----0
  6
CONTINUOUS
  5
739
 10
529.643104
 20
401.896746
 30
0.0
 11
527.643104
 21
401.896746
 31
0.0
  0
LINE
  8
LC-001-002-----0
  6
CONTINUOUS
  5
73A
 10
527.643104
 20
401.896746
 30
0.0
 11
527.643104
 21
390.896746
 31
0.0
  0
LINE
  8
LC-001-002-----0
  6
CONTINUOUS
  5
73B
 10
529.643104
 20
401.896746
 30
0.0
 11
529.643104
 21
390.896746
 31
0.0
  0
LINE
  8
LC-001-002-----0
  6
CONTINUOUS
  5
73C
 10
529.643104
 20
399.896746
 30
0.0
 11
527.643104
 21
399.896746
 31
0.0
  0
LINE
  8
LC-001-002-----0
  6
CONTINUOUS
  5
73D
 10
520.968406
 20
401.896746
 30
0.0
 11
520.968406
 21
390.896746
 31
0.0
  0
LINE
  8
LC-001-002-----0
  6
CONTINUOUS
  5
73E
 10
522.673894
 20
401.896746
 30
0.0
 11
522.673894
 21
390.896746
 31
0.0
  0
LINE
  8
LC-001-002-----0
  6
CONTINUOUS
  5
73F
 10
522.673894
 20
401.896746
 30
0.0
 11
520.968406
 21
401.896746
 31
0.0
  0
LINE
  8
LC-001-002-----0
  6
CONTINUOUS
  5
740
 10
522.673894
 20
399.896746
 30
0.0
 11
520.968406
 21
399.896746
 31
0.0
  0
LINE
  8
LC-001-002-----0
  6
DASHDOT
 62
     2
  5
741
 10
520.366649
 20
436.795437
 30
0.0
 11
556.723758
 21
436.795437
 31
0.0
  0
LINE
  8
LC-001-002-----0
  6
DASHDOT
 62
     2
  5
742
 10
520.661038
 20
435.795437
 30
0.0
 11
557.165343
 21
435.795437
 31
0.0
  0
LINE
  8
LC-001-002-----0
  6
CONTINUOUS
  5
743
 10
521.631379
 20
435.795437
 30
0.0
 11
521.631379
 21
404.896746
 31
0.0
  0
LINE
  8
LC-001-002-----0
  6
CONTINUOUS
  5
744
 10
555.631379
 20
436.795437
 30
0.0
 11
555.631379
 21
461.022657
 31
0.0
  0
LINE
  8
LC-001-002-----0
  6
CONTINUOUS
  5
745
 10
519.466014
 20
461.022657
 30
0.0
 11
558.631379
 21
461.022657
 31
0.0
  0
LINE
  8
LC-001-002-----0
  6
CONTINUOUS
  5
746
 10
513.631379
 20
475.022657
 30
0.0
 11
520.968406
 21
475.022657
 31
0.0
  0
LINE
  8
LC-001-002-----0
  6
CONTINUOUS
  5
747
 10
540.131379
 20
464.022657
 30
0.0
 11
540.131379
 21
475.022657
 31
0.0
  0
LINE
  8
LC-001-002-----0
  6
CONTINUOUS
  5
748
 10
537.131379
 20
464.022657
 30
0.0
 11
537.131379
 21
475.022657
 31
0.0
  0
LINE
  8
LC-001-002-----0
  6
CONTINUOUS
  5
749
 10
563.631379
 20
477.522657
 30
0.0
 11
513.631379
 21
477.522657
 31
0.0
  0
LINE
  8
LC-001-002-----0
  6
CONTINUOUS
  5
74A
 10
513.631379
 20
466.022657
 30
0.0
 11
513.631379
 21
477.522657
 31
0.0
  0
LINE
  8
LC-001-002-----0
  6
CONTINUOUS
  5
74B
 10
515.631379
 20
464.022657
 30
0.0
 11
513.631379
 21
466.022657
 31
0.0
  0
LINE
  8
LC-001-002-----0
  6
CONTINUOUS
  5
74C
 10
515.631379
 20
464.022657
 30
0.0
 11
515.631379
 21
475.022657
 31
0.0
  0
ARC
  8
LC-006-002-RND-0
  6
CONTINUOUS
 62
     1
  5
74D
 10
518.631379
 20
464.022657
 30
0.0
 40
3.0
 50
180.0
 51
270.0
  0
LINE
  8
LC-001-002-----0
  6
CONTINUOUS
  5
74E
 10
519.466014
 20
461.022657
 30
0.0
 11
518.631379
 21
461.022657
 31
0.0
  0
ARC
  8
LC-006-002-RND-0
  6
CONTINUOUS
 62
     1
  5
74F
 10
558.631379
 20
464.022657
 30
0.0
 40
3.0
 50
270.0
 51
0.0
  0
LINE
  8
LC-001-002-----0
  6
CONTINUOUS
  5
750
 10
561.631379
 20
464.022657
 30
0.0
 11
563.631379
 21
466.022657
 31
0.0
  0
LINE
  8
LC-001-002-----0
  6
CONTINUOUS
  5
751
 10
561.631379
 20
464.022657
 30
0.0
 11
561.631379
 21
475.022657
 31
0.0
  0
LINE
  8
LC-001-002-----0
  6
CONTINUOUS
  5
752
 10
563.631379
 20
475.022657
 30
0.0
 11
563.631379
 21
466.022657
 31
0.0
  0
LINE
  8
LC-001-002-----0
  6
CONTINUOUS
  5
753
 10
563.631379
 20
475.022657
 30
0.0
 11
563.631379
 21
477.522657
 31
0.0
  0
LINE
  8
LC-001-002-----0
  6
CONTINUOUS
  5
754
 10
540.131379
 20
475.022657
 30
0.0
 11
547.619654
 21
475.022657
 31
0.0
  0
LINE
  8
LC-001-002-----0
  6
CONTINUOUS
  5
755
 10
537.131379
 20
464.022657
 30
0.0
 11
540.131379
 21
464.022657
 31
0.0
  0
LINE
  8
LC-001-002-----0
  6
CONTINUOUS
  5
756
 10
537.131379
 20
466.022657
 30
0.0
 11
540.131379
 21
466.022657
 31
0.0
  0
LINE
  8
LC-001-002-----0
  6
CONTINUOUS
  5
757
 10
547.619654
 20
464.022657
 30
0.0
 11
549.619654
 21
464.022657
 31
0.0
  0
LINE
  8
LC-001-002-----0
  6
CONTINUOUS
  5
758
 10
549.619654
 20
464.022657
 30
0.0
 11
549.619654
 21
475.022657
 31
0.0
  0
LINE
  8
LC-001-002-----0
  6
CONTINUOUS
  5
759
 10
547.619654
 20
464.022657
 30
0.0
 11
547.619654
 21
475.022657
 31
0.0
  0
LINE
  8
LC-001-002-----0
  6
CONTINUOUS
  5
75A
 10
547.619654
 20
466.022657
 30
0.0
 11
549.619654
 21
466.022657
 31
0.0
  0
LINE
  8
LC-001-002-----0
  6
CONTINUOUS
  5
75B
 10
549.619654
 20
475.022657
 30
0.0
 11
554.588864
 21
475.022657
 31
0.0
  0
LINE
  8
LC-001-002-----0
  6
CONTINUOUS
  5
75C
 10
556.294352
 20
464.022657
 30
0.0
 11
556.294352
 21
475.022657
 31
0.0
  0
LINE
  8
LC-001-002-----0
  6
CONTINUOUS
  5
75D
 10
554.588864
 20
464.022657
 30
0.0
 11
554.588864
 21
475.022657
 31
0.0
  0
LINE
  8
LC-001-002-----0
  6
CONTINUOUS
  5
75E
 10
554.588864
 20
464.022657
 30
0.0
 11
556.294352
 21
464.022657
 31
0.0
  0
LINE
  8
LC-001-002-----0
  6
CONTINUOUS
  5
75F
 10
554.588864
 20
466.022657
 30
0.0
 11
556.294352
 21
466.022657
 31
0.0
  0
LINE
  8
LC-001-002-----0
  6
CONTINUOUS
  5
760
 10
529.643104
 20
464.022657
 30
0.0
 11
527.643104
 21
464.022657
 31
0.0
  0
LINE
  8
LC-001-002-----0
  6
CONTINUOUS
  5
761
 10
527.643104
 20
464.022657
 30
0.0
 11
527.643104
 21
475.022657
 31
0.0
  0
LINE
  8
LC-001-002-----0
  6
CONTINUOUS
  5
762
 10
529.643104
 20
464.022657
 30
0.0
 11
529.643104
 21
475.022657
 31
0.0
  0
LINE
  8
LC-001-002-----0
  6
CONTINUOUS
  5
763
 10
529.643104
 20
466.022657
 30
0.0
 11
527.643104
 21
466.022657
 31
0.0
  0
LINE
  8
LC-001-002-----0
  6
CONTINUOUS
  5
764
 10
520.968406
 20
464.022657
 30
0.0
 11
520.968406
 21
475.022657
 31
0.0
  0
LINE
  8
LC-001-002-----0
  6
CONTINUOUS
  5
765
 10
522.673894
 20
464.022657
 30
0.0
 11
522.673894
 21
475.022657
 31
0.0
  0
LINE
  8
LC-001-002-----0
  6
CONTINUOUS
  5
766
 10
522.673894
 20
464.022657
 30
0.0
 11
520.968406
 21
464.022657
 31
0.0
  0
LINE
  8
LC-001-002-----0
  6
CONTINUOUS
  5
767
 10
522.673894
 20
466.022657
 30
0.0
 11
520.968406
 21
466.022657
 31
0.0
  0
LINE
  8
LC-001-002-----0
  6
CONTINUOUS
  5
768
 10
522.673894
 20
475.022657
 30
0.0
 11
527.643104
 21
475.022657
 31
0.0
  0
LINE
  8
LC-001-002-----0
  6
CONTINUOUS
  5
769
 10
529.643104
 20
475.022657
 30
0.0
 11
537.131379
 21
475.022657
 31
0.0
  0
LINE
  8
LC-001-002-----0
  6
CONTINUOUS
  5
76A
 10
556.294352
 20
475.022657
 30
0.0
 11
563.631379
 21
475.022657
 31
0.0
  0
LINE
  8
LC-001-002-----0
  6
CONTINUOUS
  5
76B
 10
522.631379
 20
388.396746
 30
0.0
 11
522.631379
 21
352.396746
 31
0.0
  0
ARC
  8
LC-001-002-----0
  6
CONTINUOUS
  5
76C
 10
538.631379
 20
352.396746
 30
0.0
 40
16.0
 50
180.0
 51
0.0
  0
LINE
  8
LC-001-002-----0
  6
CONTINUOUS
  5
76D
 10
554.631379
 20
352.396746
 30
0.0
 11
554.631379
 21
388.396746
 31
0.0
  0
LINE
  8
LC-001-002-----0
  6
CONTINUOUS
  5
76E
 10
563.631379
 20
388.396746
 30
0.0
 11
513.631379
 21
388.396746
 31
0.0
  0
LINE
  8
LC-001-002-----0
  6
CONTINUOUS
  5
76F
 10
513.631379
 20
390.896746
 30
0.0
 11
520.968406
 21
390.896746
 31
0.0
  0
LINE
  8
LC-001-002-----0
  6
CONTINUOUS
  5
770
 10
522.673894
 20
390.896746
 30
0.0
 11
527.643104
 21
390.896746
 31
0.0
  0
LINE
  8
LC-001-002-----0
  6
CONTINUOUS
  5
771
 10
529.643104
 20
390.896746
 30
0.0
 11
537.131379
 21
390.896746
 31
0.0
  0
LINE
  8
LC-001-002-----0
  6
CONTINUOUS
  5
772
 10
540.131379
 20
390.896746
 30
0.0
 11
547.619654
 21
390.896746
 31
0.0
  0
LINE
  8
LC-001-002-----0
  6
CONTINUOUS
  5
773
 10
549.619654
 20
390.896746
 30
0.0
 11
554.588864
 21
390.896746
 31
0.0
  0
LINE
  8
LC-001-002-----0
  6
CONTINUOUS
  5
774
 10
556.294352
 20
390.896746
 30
0.0
 11
563.631379
 21
390.896746
 31
0.0
  0
ARC
  8
LC-006-002-RND-0
  6
CONTINUOUS
 62
     1
  5
775
 10
618.637108
 20
351.334011
 30
0.0
 40
13.5
 50
180.0
 51
214.044985
  0
LINE
  8
LC-001-002-----0
  6
CONTINUOUS
  5
776
 10
605.137108
 20
377.334011
 30
0.0
 11
605.137108
 21
351.334011
 31
0.0
  0
CIRCLE
  8
LC-001-002-----0
  6
CONTINUOUS
  5
777
 10
638.637108
 20
351.334011
 30
0.0
 40
3.0
  0
LINE
  8
LC-001-002-----0
  6
CONTINUOUS
  5
778
 10
632.137108
 20
351.334011
 30
0.0
 11
632.137108
 21
377.334011
 31
0.0
  0
LINE
  8
LC-001-002-----0
  6
DASHED
 62
     2
  5
779
 10
609.337108
 20
351.334011
 30
0.0
 11
609.337108
 21
376.834011
 31
0.0
  0
ARC
  8
LC-001-002-----0
  6
CONTINUOUS
 62
     2
  5
77A
 10
618.637108
 20
351.334011
 30
0.0
 40
10.475
 50
180.0
 51
97.876189
  0
CIRCLE
  8
LC-001-002-----0
  6
CONTINUOUS
  5
77B
 10
618.637108
 20
351.334011
 30
0.0
 40
9.3
  0
LINE
  8
LC-008-002-___-0
  5
77C
 10
620.171608
 20
360.506541
 30
0.0
 11
632.137108
 21
358.504796
 31
0.0
  0
LINE
  8
LC-001-002-----0
  6
CONTINUOUS
  5
77D
 10
639.679035
 20
357.243085
 30
0.0
 11
632.137108
 21
358.504796
 31
0.0
  0
ARC
  8
LC-001-002-----0
  6
CONTINUOUS
  5
77E
 10
638.637108
 20
351.334011
 30
0.0
 40
6.0
 50
279.497234
 51
80.0
  0
LINE
  8
LC-001-002-----0
  6
CONTINUOUS
  5
77F
 10
639.627108
 20
345.416249
 30
0.0
 11
630.232919
 21
343.844667
 31
0.0
  0
LINE
  8
LC-001-002-----0
  6
CONTINUOUS
  5
780
 10
597.595181
 20
357.243085
 30
0.0
 11
605.137108
 21
358.504796
 31
0.0
  0
ARC
  8
LC-001-002-----0
  6
CONTINUOUS
  5
781
 10
598.637108
 20
351.334011
 30
0.0
 40
6.0
 50
100.0
 51
260.502766
  0
LINE
  8
LC-001-002-----0
  6
CONTINUOUS
  5
782
 10
597.647108
 20
345.416249
 30
0.0
 11
607.041297
 21
343.844667
 31
0.0
  0
CIRCLE
  8
LC-001-002-----0
  6
CONTINUOUS
  5
783
 10
598.637108
 20
351.334011
 30
0.0
 40
3.0
  0
LINE
  8
LC-008-002-___-0
  5
784
 10
617.102608
 20
360.506541
 30
0.0
 11
605.137108
 21
358.504796
 31
0.0
  0
ARC
  8
LC-006-002-RND-0
  6
CONTINUOUS
 62
     1
  5
785
 10
618.637108
 20
351.334011
 30
0.0
 40
13.5
 50
214.044985
 51
270.0
  0
LINE
  8
LC-001-002-----0
  6
CONTINUOUS
  5
786
 10
624.554869
 20
330.344011
 30
0.0
 11
626.126451
 21
339.738199
 31
0.0
  0
LINE
  8
LC-001-002-----0
  6
DASHED
 62
     2
  5
787
 10
608.162108
 20
362.334011
 30
0.0
 11
608.162108
 21
378.009011
 31
0.0
  0
CIRCLE
  8
LC-001-002-----0
  6
CONTINUOUS
  5
788
 10
438.645651
 20
351.334011
 30
0.0
 40
3.0
  0
LINE
  8
LC-001-002-----0
  6
DASHED
 62
     2
  5
789
 10
627.937108
 20
351.334011
 30
0.0
 11
627.937108
 21
376.834011
 31
0.0
  0
LINE
  8
LC-008-002-___-0
  5
78A
 10
457.111151
 20
360.506541
 30
0.0
 11
445.145651
 21
358.504796
 31
0.0
  0
LINE
  8
LC-001-002-----0
  6
DASHED
 62
     2
  5
78B
 10
629.112108
 20
351.334011
 30
0.0
 11
627.937108
 21
351.334011
 31
0.0
  0
LINE
  8
LC-001-002-----0
  6
DASHED
 62
     2
  5
78C
 10
629.112108
 20
362.334011
 30
0.0
 11
629.112108
 21
378.009011
 31
0.0
  0
LINE
  8
LC-001-002-----0
  6
DASHED
 62
     2
  5
78D
 10
629.112108
 20
362.334011
 30
0.0
 11
608.162108
 21
362.334011
 31
0.0
  0
ARC
  8
LC-001-002-----0
  6
CONTINUOUS
  5
78E
 10
618.637108
 20
331.334011
 30
0.0
 40
6.0
 50
190.0
 51
350.502766
  0
CIRCLE
  8
LC-001-002-----0
  6
CONTINUOUS
  5
78F
 10
618.637108
 20
331.334011
 30
0.0
 40
3.0
  0
LINE
  8
LC-001-002-----0
  6
CONTINUOUS
  5
790
 10
612.719347
 20
330.344011
 30
0.0
 11
611.147765
 21
339.738199
 31
0.0
  0
ARC
  8
LC-006-002-RND-0
  6
CONTINUOUS
 62
     1
  5
791
 10
458.645651
 20
351.334011
 30
0.0
 40
13.5
 50
214.044985
 51
270.0
  0
ARC
  8
LC-006-002-RND-0
  6
CONTINUOUS
 62
     1
  5
792
 10
618.637108
 20
351.334011
 30
0.0
 40
13.5
 50
325.844758
 51
0.0
  0
LINE
  8
LC-001-002-----0
  6
DASHED
 62
     2
  5
793
 10
609.337108
 20
376.834011
 30
0.0
 11
607.837108
 21
378.334011
 31
0.0
  0
LINE
  8
LC-001-002-----0
  6
DASHED
 62
     2
  5
794
 10
627.937108
 20
376.834011
 30
0.0
 11
629.437108
 21
378.334011
 31
0.0
  0
LINE
  8
LC-001-002-----0
  6
DASHED
 62
     2
  5
795
 10
609.337108
 20
376.834011
 30
0.0
 11
627.937108
 21
376.834011
 31
0.0
  0
LINE
  8
LC-001-002-----0
  6
CONTINUOUS
  5
796
 10
464.563412
 20
330.344011
 30
0.0
 11
466.134994
 21
339.738199
 31
0.0
  0
LINE
  8
LC-001-002-----0
  6
CONTINUOUS
  5
797
 10
606.137108
 20
378.334011
 30
0.0
 11
605.137108
 21
377.334011
 31
0.0
  0
LINE
  8
LC-001-002-----0
  6
CONTINUOUS
  5
798
 10
632.137108
 20
377.334011
 30
0.0
 11
631.137108
 21
378.334011
 31
0.0
  0
LINE
  8
LC-001-002-----0
  6
CONTINUOUS
  5
799
 10
605.137108
 20
377.334011
 30
0.0
 11
632.137108
 21
377.334011
 31
0.0
  0
CIRCLE
  8
LC-001-002-----0
  6
CONTINUOUS
  5
79A
 10
618.637108
 20
351.334011
 30
0.0
 40
12.5
  0
ARC
  8
LC-006-002-RND-0
  6
CONTINUOUS
 62
     1
  5
79B
 10
606.216297
 20
338.913199
 30
0.0
 40
5.0
 50
9.497234
 51
14.469219
  0
ARC
  8
LC-006-002-RND-0
  6
CONTINUOUS
 62
     1
  5
79C
 10
606.216297
 20
338.913199
 30
0.0
 40
5.0
 50
75.753215
 51
80.502766
  0
ARC
  8
LC-001-002-----0
  6
DASHED
 62
     2
  5
79D
 10
606.216297
 20
338.913199
 30
0.0
 40
5.0
 50
14.469219
 51
75.753215
  0
ARC
  8
LC-006-002-RND-0
  6
CONTINUOUS
 62
     1
  5
79E
 10
631.057919
 20
338.913199
 30
0.0
 40
5.0
 50
99.497234
 51
104.469219
  0
ARC
  8
LC-006-002-RND-0
  6
CONTINUOUS
 62
     1
  5
79F
 10
631.057919
 20
338.913199
 30
0.0
 40
5.0
 50
165.530781
 51
170.502766
  0
ARC
  8
LC-001-002-----0
  6
DASHED
 62
     2
  5
7A0
 10
631.057919
 20
338.913199
 30
0.0
 40
5.0
 50
104.469219
 51
165.530781
  0
LINE
  8
LC-001-002-----0
  6
DASHED
 62
     2
  5
7A1
 10
448.170651
 20
362.334011
 30
0.0
 11
448.170651
 21
378.009011
 31
0.0
  0
LINE
  8
LC-001-002-----0
  6
DASHED
 62
     2
  5
7A2
 10
467.945651
 20
351.334011
 30
0.0
 11
467.945651
 21
376.834011
 31
0.0
  0
LINE
  8
LC-001-002-----0
  6
DASHED
 62
     2
  5
7A3
 10
469.120651
 20
351.334011
 30
0.0
 11
467.945651
 21
351.334011
 31
0.0
  0
LINE
  8
LC-001-002-----0
  6
DASHED
 62
     2
  5
7A4
 10
469.120651
 20
362.334011
 30
0.0
 11
469.120651
 21
378.009011
 31
0.0
  0
LINE
  8
LC-001-002-----0
  6
DASHED
 62
     2
  5
7A5
 10
469.120651
 20
362.334011
 30
0.0
 11
448.170651
 21
362.334011
 31
0.0
  0
ARC
  8
LC-001-002-----0
  6
CONTINUOUS
  5
7A6
 10
458.645651
 20
331.334011
 30
0.0
 40
6.0
 50
190.0
 51
350.502766
  0
CIRCLE
  8
LC-001-002-----0
  6
CONTINUOUS
  5
7A7
 10
458.645651
 20
331.334011
 30
0.0
 40
3.0
  0
LINE
  8
LC-001-002-----0
  6
CONTINUOUS
  5
7A8
 10
452.727889
 20
330.344011
 30
0.0
 11
451.156307
 21
339.738199
 31
0.0
  0
ARC
  8
LC-006-002-RND-0
  6
CONTINUOUS
 62
     1
  5
7A9
 10
458.645651
 20
351.334011
 30
0.0
 40
13.5
 50
325.844758
 51
0.0
  0
LINE
  8
LC-001-002-----0
  6
DASHED
 62
     2
  5
7AA
 10
449.345651
 20
376.834011
 30
0.0
 11
447.845651
 21
378.334011
 31
0.0
  0
LINE
  8
LC-001-002-----0
  6
DASHED
 62
     2
  5
7AB
 10
467.945651
 20
376.834011
 30
0.0
 11
469.445651
 21
378.334011
 31
0.0
  0
LINE
  8
LC-001-002-----0
  6
DASHED
 62
     2
  5
7AC
 10
449.345651
 20
376.834011
 30
0.0
 11
467.945651
 21
376.834011
 31
0.0
  0
LINE
  8
LC-001-002-----0
  6
CONTINUOUS
  5
7AD
 10
446.145651
 20
378.334011
 30
0.0
 11
445.145651
 21
377.334011
 31
0.0
  0
LINE
  8
LC-001-002-----0
  6
CONTINUOUS
  5
7AE
 10
472.145651
 20
377.334011
 30
0.0
 11
471.145651
 21
378.334011
 31
0.0
  0
LINE
  8
LC-001-002-----0
  6
CONTINUOUS
  5
7AF
 10
445.145651
 20
377.334011
 30
0.0
 11
472.145651
 21
377.334011
 31
0.0
  0
CIRCLE
  8
LC-001-002-----0
  6
CONTINUOUS
  5
7B0
 10
458.645651
 20
351.334011
 30
0.0
 40
12.5
  0
ARC
  8
LC-006-002-RND-0
  6
CONTINUOUS
 62
     1
  5
7B1
 10
446.224839
 20
338.913199
 30
0.0
 40
5.0
 50
9.497234
 51
14.469219
  0
ARC
  8
LC-006-002-RND-0
  6
CONTINUOUS
 62
     1
  5
7B2
 10
446.224839
 20
338.913199
 30
0.0
 40
5.0
 50
75.753215
 51
80.502766
  0
ARC
  8
LC-001-002-----0
  6
DASHED
 62
     2
  5
7B3
 10
446.224839
 20
338.913199
 30
0.0
 40
5.0
 50
14.469219
 51
75.753215
  0
ARC
  8
LC-006-002-RND-0
  6
CONTINUOUS
 62
     1
  5
7B4
 10
471.066462
 20
338.913199
 30
0.0
 40
5.0
 50
99.497234
 51
104.469219
  0
ARC
  8
LC-006-002-RND-0
  6
CONTINUOUS
 62
     1
  5
7B5
 10
471.066462
 20
338.913199
 30
0.0
 40
5.0
 50
165.530781
 51
170.502766
  0
ARC
  8
LC-001-002-----0
  6
DASHED
 62
     2
  5
7B6
 10
471.066462
 20
338.913199
 30
0.0
 40
5.0
 50
104.469219
 51
165.530781
  0
ARC
  8
LC-001-002-----0
  6
CONTINUOUS
  5
7B7
 10
538.641379
 20
351.092831
 30
0.0
 40
47.5
 50
121.771051
 51
58.257321
  0
LINE
  8
LC-001-002-----0
  6
DASHDOT
 62
     2
  5
7B8
 10
291.035659
 20
351.334011
 30
0.0
 11
291.035659
 21
273.029487
 31
0.0
  0
LINE
  8
LC-001-002-----0
  6
CONTINUOUS
  5
7B9
 10
315.968396
 20
336.79284
 30
0.0
 11
315.968396
 21
337.083501
 31
0.0
  0
LINE
  8
LC-001-002-----0
  6
CONTINUOUS
  5
7BA
 10
315.968396
 20
235.391092
 30
0.0
 11
315.968396
 21
383.084017
 31
0.0
  0
CIRCLE
  8
LC-001-002-----0
  6
CONTINUOUS
  5
7BB
 10
483.672455
 20
341.157772
 30
0.0
 40
3.0
  0
CIRCLE
  8
LC-001-002-----0
  6
DASHED
 62
     2
  5
7BC
 10
483.672455
 20
341.157772
 30
0.0
 40
4.5
  0
CIRCLE
  8
LC-001-002-----0
  6
CONTINUOUS
  5
7BD
 10
483.672455
 20
341.157772
 30
0.0
 40
5.0
  0
LINE
  8
LC-001-002-----0
  6
CONTINUOUS
  5
7BE
 10
488.571434
 20
342.157772
 30
0.0
 11
489.999852
 21
342.157772
 31
0.0
  0
LINE
  8
LC-001-002-----0
  6
CONTINUOUS
  5
7BF
 10
488.526319
 20
340.157772
 30
0.0
 11
489.305796
 21
340.157772
 31
0.0
  0
CIRCLE
  8
LC-001-002-----0
  6
DASHED
 62
     2
  5
7C0
 10
511.672455
 20
378.157772
 30
0.0
 40
5.0
  0
CIRCLE
  8
LC-001-002-----0
  6
DASHED
 62
     2
  5
7C1
 10
511.672455
 20
378.157772
 30
0.0
 40
4.5
  0
CIRCLE
  8
LC-001-002-----0
  6
DASHED
 62
     2
  5
7C2
 10
511.672455
 20
378.157772
 30
0.0
 40
3.0
  0
LINE
  8
LC-001-002-----0
  6
DASHED
 62
     2
  5
7C3
 10
514.067346
 20
372.435933
 30
0.0
 11
513.148634
 21
373.906784
 31
0.0
  0
LINE
  8
LC-001-002-----0
  6
DASHED
 62
     2
  5
7C4
 10
515.545726
 20
373.844332
 30
0.0
 11
514.844925
 21
374.966309
 31
0.0
  0
CIRCLE
  8
LC-001-002-----0
  6
DASHED
 62
     2
  5
7C5
 10
576.672455
 20
341.157772
 30
0.0
 40
5.0
  0
CIRCLE
  8
LC-001-002-----0
  6
DASHED
 62
     2
  5
7C6
 10
576.672455
 20
341.157772
 30
0.0
 40
4.5
  0
CIRCLE
  8
LC-001-002-----0
  6
DASHED
 62
     2
  5
7C7
 10
576.672455
 20
341.157772
 30
0.0
 40
3.0
  0
LINE
  8
LC-001-002-----0
  6
DASHED
 62
     2
  5
7C8
 10
572.284973
 20
342.157772
 30
0.0
 11
570.509111
 21
342.157772
 31
0.0
  0
LINE
  8
LC-001-002-----0
  6
DASHED
 62
     2
  5
7C9
 10
572.284973
 20
340.157772
 30
0.0
 11
570.861765
 21
340.157772
 31
0.0
  0
LINE
  8
LC-001-002-----0
  6
DASHED
 62
     3
  5
7CA
 10
574.438839
 20
319.871174
 30
0.0
 11
570.270689
 21
343.509931
 31
0.0
  0
ENDSEC
  0
EOF
