  0
SECTION
  2
HEADER
  9
$ACADVER
  1
AC1009
  9
$DWGCODEPAGE
  3
dos850
  9
$INSBASE
 10
0.0
 20
0.0
 30
0.0
  9
$EXTMIN
 10
0.0
 20
0.0
 30
0.0
  9
$EXTMAX
 10
840.0
 20
594.0
 30
0.0
  9
$LIMMIN
 10
0.0
 20
0.0
  9
$LIMMAX
 10
840.0
 20
594.0
  9
$ORTHOMODE
 70
     0
  9
$REGENMODE
 70
     1
  9
$FILLMODE
 70
     1
  9
$QTEXTMODE
 70
     0
  9
$MIRRTEXT
 70
     1
  9
$DRAGMODE
 70
     2
  9
$LTSCALE
 40
2.0
  9
$OSMODE
 70
     0
  9
$ATTMODE
 70
     1
  9
$TEXTSIZE
 40
0.2
  9
$TRACEWID
 40
0.05
  9
$TEXTSTYLE
  7
STANDARD
  9
$CLAYER
  8
0
  9
$CELTYPE
  6
BYBLOCK
  9
$CECOLOR
 62
     7
  9
$DIMSCALE
 40
2.0
  9
$DIMASZ
 40
3.5
  9
$DIMEXO
 40
0.0625
  9
$DIMDLI
 40
0.38
  9
$DIMRND
 40
0.0
  9
$DIMDLE
 40
0.0
  9
$DIMEXE
 40
0.18
  9
$DIMTP
 40
0.0
  9
$DIMTM
 40
0.0
  9
$DIMTXT
 40
3.5
  9
$DIMCEN
 40
0.09
  9
$DIMTSZ
 40
0.0
  9
$DIMTOL
 70
     0
  9
$DIMLIM
 70
     0
  9
$DIMTIH
 70
     1
  9
$DIMTOH
 70
     1
  9
$DIMSE1
 70
     0
  9
$DIMSE2
 70
     0
  9
$DIMTAD
 70
     1
  9
$DIMZIN
 70
     0
  9
$DIMBLK
  1

  9
$DIMASO
 70
     1
  9
$DIMSHO
 70
     1
  9
$DIMPOST
  1

  9
$DIMAPOST
  1

  9
$DIMALT
 70
     0
  9
$DIMALTD
 70
     2
  9
$DIMALTF
 40
25.4
  9
$DIMLFAC
 40
1.0
  9
$DIMTOFL
 70
     0
  9
$DIMTVP
 40
0.0
  9
$DIMTIX
 70
     0
  9
$DIMSOXD
 70
     0
  9
$DIMSAH
 70
     0
  9
$DIMBLK1
  1

  9
$DIMBLK2
  1

  9
$DIMSTYLE
  2
STANDARD
  9
$DIMCLRD
 70
     0
  9
$DIMCLRE
 70
     0
  9
$DIMCLRT
 70
     0
  9
$DIMTFAC
 40
1.0
  9
$DIMGAP
 40
0.09
  9
$LUNITS
 70
     2
  9
$LUPREC
 70
     6
  9
$AXISMODE
 70
     0
  9
$AXISUNIT
 10
0.0
 20
0.0
  9
$SKETCHINC
 40
0.1
  9
$FILLETRAD
 40
0.0
  9
$AUNITS
 70
     0
  9
$AUPREC
 70
     0
  9
$MENU
  1
acad
  9
$ELEVATION
 40
0.0
  9
$PELEVATION
 40
0.0
  9
$THICKNESS
 40
0.0
  9
$LIMCHECK
 70
     0
  9
$BLIPMODE
 70
     1
  9
$CHAMFERA
 40
0.0
  9
$CHAMFERB
 40
0.0
  9
$SKPOLY
 70
     0
  9
$TDCREATE
 40
0.000000000
  9
$TDUPDATE
 40
0.000000000
  9
$TDINDWG
 40
0.0000000000
  9
$TDUSRTIMER
 40
0.0000000000
  9
$USRTIMER
 70
     1
  9
$ANGBASE
 50
0.0
  9
$ANGDIR
 70
     0
  9
$PDMODE
 70
     0
  9
$PDSIZE
 40
0.0
  9
$PLINEWID
 40
0.0
  9
$COORDS
 70
     0
  9
$SPLFRAME
 70
     0
  9
$SPLINETYPE
 70
     6
  9
$SPLINESEGS
 70
     8
  9
$ATTDIA
 70
     0
  9
$ATTREQ
 70
     1
  9
$HANDLING
 70
     1
  9
$HANDSEED
  5
16B
  9
$SURFTAB1
 70
     6
  9
$SURFTAB2
 70
     6
  9
$SURFTYPE
 70
     6
  9
$SURFU
 70
     6
  9
$SURFV
 70
     6
  9
$UCSNAME
  2

  9
$UCSORG
 10
0.0
 20
0.0
 30
0.0
  9
$UCSXDIR
 10
1.0
 20
0.0
 30
0.0
  9
$UCSYDIR
 10
0.0
 20
1.0
 30
0.0
  9
$PUCSNAME
  2

  9
$PUCSORG
 10
0.0
 20
0.0
 30
0.0
  9
$PUCSXDIR
 10
1.0
 20
0.0
 30
0.0
  9
$PUCSYDIR
 10
0.0
 20
1.0
 30
0.0
  9
$USERI1
 70
     0
  9
$USERI2
 70
     0
  9
$USERI3
 70
     0
  9
$USERI4
 70
     0
  9
$USERI5
 70
     0
  9
$USERR1
 40
0.0
  9
$USERR2
 40
0.0
  9
$USERR3
 40
0.0
  9
$USERR4
 40
0.0
  9
$USERR5
 40
0.0
  9
$WORLDVIEW
 70
     1
  9
$SHADEDGE
 70
     3
  9
$SHADEDIF
 70
    70
  9
$TILEMODE
 70
     1
  9
$MAXACTVP
 70
    16
  9
$PINSBASE
 10
0.0
 20
0.0
 30
0.0
  9
$PLIMCHECK
 70
     0
  9
$PEXTMIN
 10
0.0
 20
0.0
 30
0.0
  9
$PEXTMAX
 10
840.0
 20
594.0
 30
0.0
  9
$PLIMMIN
 10
0.0
 20
0.0
  9
$PLIMMAX
 10
840.0
 20
594.0
  9
$UNITMODE
 70
     0
  9
$VISRETAIN
 70
     0
  9
$PLINEGEN
 70
     1
  9
$PSLTSCALE
 70
     0
  9
$TREEDEPTH
 70
  3020
  0
ENDSEC
  0
SECTION
  2
TABLES
  0
TABLE
  2
VPORT
 70
     1
  0
VPORT
  2
*ACTIVE
 70
     0
 10
0.0
 20
0.0
 11
1.0
 21
1.0
 12
420.0
 22
297.0
 13
0.0
 23
0.0
 14
1.0
 24
1.0
 15
0.0
 25
0.0
 16
0.0
 26
0.0
 36
1.0
 17
0.0
 27
0.0
 37
0.0
 40
594.0
 41
1.604229
 42
50.0
 43
0.0
 44
0.0
 50
0.0
 51
0.0
 71
     0
 72
   100
 73
     1
 74
     1
 75
     0
 76
     0
 77
     0
 78
     0
  0
ENDTAB
  0
TABLE
  2
LTYPE
 70
     3
  0
LTYPE
  2
CONTINUOUS
 70
    64
  3
Solid line
 72
    65
 73
     0
 40
0.0
  0
LTYPE
  2
DASHED
 70
    64
  3
__ __ __ __ __
 72
    65
 73
     2
 40
6.25
 49
5.0
 49
-1.25
  0
LTYPE
  2
DASHDOT
 70
    64
  3
__ . __ . __ . __ . __
 72
    65
 73
     4
 40
7.5
 49
5.0
 49
-1.25
 49
0.0
 49
-1.25
  0
ENDTAB
  0
TABLE
  2
LAYER
 70
    12
  0
LAYER
  2
0
 70
     0
 62
     7
  6
CONTINUOUS
  0
LAYER
  2
LC-INFO-1-2-MM-A3-0
 70
     1
 62
   255
  6
BYBLOCK
  0
LAYER
  2
LC-3D-HIDDEN
 70
     0
 62
     9
  6
DASHED
  0
LAYER
  2
LC-CUT-HIDDEN
 70
     0
 62
     9
  6
DASHED
  0
LAYER
  2
LC-VIEWPORT
 70
     0
 62
     7
  6
BYBLOCK
  0
LAYER
  2
LC-001-002-----0
 70
     0
 62
     1
  6
BYBLOCK
  0
LAYER
  2
LC-002-003-MTH-0
 70
     0
 62
     2
  6
BYBLOCK
  0
LAYER
  2
LC-003-003-----0
 70
     0
 62
     2
  6
BYBLOCK
  0
LAYER
  2
LC-004-003-MTG-0
 70
     0
 62
     2
  6
BYBLOCK
  0
LAYER
  2
LC-005-002-RND-0
 70
     0
 62
     1
  6
BYBLOCK
  0
LAYER
  2
LC-006-005-----0
 70
     0
 62
     2
  6
BYBLOCK
  0
LAYER
  2
LC-007-001-----0
 70
     0
 62
     2
  6
DASHDOT
  0
ENDTAB
  0
TABLE
  2
STYLE
 70
     3
  0
STYLE
  2
STANDARD
 70
     0
 40
0.0
 41
1.0
 50
0.0
 71
     0
 42
0.0
  3
txt
  4

  0
STYLE
  2
LCTX15-400-0-0-ARIAL
 70
    64
 40
3.5
 41
1.0
 50
0.0
 71
     0
 42
0.0
  3
Arial
  4

  0
STYLE
  2
LCTX15-400-0-0-DIN-SCHRIFT__P_
 70
    64
 40
0.0
 41
1.0
 50
1.5
 71
     0
 42
3.5
  3
STANDARD
  4

  0
ENDTAB
  0
TABLE
  2
VIEW
 70
     0
  0
ENDTAB
  0
TABLE
  2
UCS
 70
     0
  0
ENDTAB
  0
TABLE
  2
APPID
 70
     1
  0
APPID
  2
ACAD
 70
     0
  0
ENDTAB
  0
TABLE
  2
DIMSTYLE
 70
     2
  0
DIMSTYLE
  2
STANDARD
 70
     0
  3

  4

  5

  6

  7

 40
1.0
 41
0.18
 42
0.0625
 43
0.38
 44
0.18
 45
0.0
 46
0.0
 47
0.0
 48
0.0
 71
     0
 72
     0
 73
     1
 74
     1
 75
     0
 76
     0
 77
     0
 78
     0
140
0.18
141
0.09
142
0.0
143
25.4
144
1.0
145
0.0
146
1.0
147
0.09
170
     0
171
     2
172
     0
173
     0
174
     0
175
     0
176
     0
177
     0
178
     0
  0
DIMSTYLE
  2
LC-DIM-L-0140-02-02
 70
     0
  3

  4

  5

  6

  7

 40
2.0
 41
3.5
 42
0.0
 43
7.5
 44
1.8
 45
0.0
 46
0.0
 47
0.0
 48
0.0
 71
     0
 72
     0
 73
     0
 74
     0
 75
     0
 76
     0
 77
     1
 78
     8
140
14.0
141
0.0
142
0.0
143
25.4
144
1.0
145
0.0
146
0.71
147
1.5
170
     0
171
     2
172
     0
173
     0
174
     0
175
     0
176
     2
177
     2
178
     2
  0
ENDTAB
  0
ENDSEC
  0
SECTION
  2
BLOCKS
  0
BLOCK
  8
0
  5
29
  2
*D0
 70
    65
 10
0.0
 20
0.0
 30
0.0
  3
*D0
  0
LINE
  8
LC-002-003-MTH-0
 62
     2
  5
2B
 10
250.549822
 20
357.217327
 30
0.0
 11
250.549822
 21
412.998
 31
0.0
  0
LINE
  8
LC-002-003-MTH-0
 62
     2
  5
2C
 10
289.050044
 20
334.717696
 30
0.0
 11
289.050044
 21
412.998
 31
0.0
  0
LINE
  8
LC-003-003-----0
 62
     2
  5
2E
 10
222.789365
 20
392.543267
 30
0.0
 11
250.549822
 21
396.198
 31
0.0
  0
LINE
  8
LC-003-003-----0
 62
     2
  5
2F
 10
250.549822
 20
396.198
 30
0.0
 11
222.789365
 21
399.852733
 31
0.0
  0
LINE
  8
LC-003-003-----0
 62
     2
  5
30
 10
222.789365
 20
399.852733
 30
0.0
 11
222.789365
 21
392.543267
 31
0.0
  0
LINE
  8
LC-003-003-----0
 62
     2
  5
31
 10
222.727084
 20
393.493497
 30
0.0
 11
243.269822
 21
396.198
 31
0.0
  0
LINE
  8
LC-003-003-----0
 62
     2
  5
32
 10
243.269822
 20
396.198
 30
0.0
 11
222.727084
 21
398.902503
 31
0.0
  0
LINE
  8
LC-003-003-----0
 62
     2
  5
33
 10
222.664803
 20
394.443728
 30
0.0
 11
235.989822
 21
396.198
 31
0.0
  0
LINE
  8
LC-003-003-----0
 62
     2
  5
34
 10
235.989822
 20
396.198
 30
0.0
 11
222.664803
 21
397.952272
 31
0.0
  0
LINE
  8
LC-003-003-----0
 62
     2
  5
35
 10
222.602521
 20
395.393959
 30
0.0
 11
228.709822
 21
396.198
 31
0.0
  0
LINE
  8
LC-003-003-----0
 62
     2
  5
36
 10
228.709822
 20
396.198
 30
0.0
 11
222.602521
 21
397.002041
 31
0.0
  0
LINE
  8
LC-003-003-----0
 62
     2
  5
37
 10
316.8105
 20
399.852733
 30
0.0
 11
289.050044
 21
396.198
 31
0.0
  0
LINE
  8
LC-003-003-----0
 62
     2
  5
38
 10
289.050044
 20
396.198
 30
0.0
 11
316.8105
 21
392.543267
 31
0.0
  0
LINE
  8
LC-003-003-----0
 62
     2
  5
39
 10
316.8105
 20
392.543267
 30
0.0
 11
316.8105
 21
399.852733
 31
0.0
  0
LINE
  8
LC-003-003-----0
 62
     2
  5
3A
 10
316.872781
 20
398.902503
 30
0.0
 11
296.330044
 21
396.198
 31
0.0
  0
LINE
  8
LC-003-003-----0
 62
     2
  5
3B
 10
296.330044
 20
396.198
 30
0.0
 11
316.872781
 21
393.493497
 31
0.0
  0
LINE
  8
LC-003-003-----0
 62
     2
  5
3C
 10
316.935063
 20
397.952272
 30
0.0
 11
303.610044
 21
396.198
 31
0.0
  0
LINE
  8
LC-003-003-----0
 62
     2
  5
3D
 10
303.610044
 20
396.198
 30
0.0
 11
316.935063
 21
394.443728
 31
0.0
  0
LINE
  8
LC-003-003-----0
 62
     2
  5
3E
 10
316.997344
 20
397.002041
 30
0.0
 11
310.890044
 21
396.198
 31
0.0
  0
LINE
  8
LC-003-003-----0
 62
     2
  5
3F
 10
310.890044
 20
396.198
 30
0.0
 11
316.997344
 21
395.393959
 31
0.0
  0
LINE
  8
LC-004-003-MTG-0
 62
     2
  5
41
 10
211.349822
 20
396.198
 30
0.0
 11
371.450044
 21
396.198
 31
0.0
  0
TEXT
  8
LC-003-003-----0
 62
     8
  5
42
 10
331.148817
 20
398.616369
 30
0.0
 40
28.0
  1
36
 41
0.9
 51
15.0
  7
LCTX15-400-0-0-ARIAL
  0
ENDBLK
  8
0
  5
43
  0
BLOCK
  8
0
  5
46
  2
*D1
 70
    65
 10
0.0
 20
0.0
 30
0.0
  3
*D1
  0
LINE
  8
LC-002-003-MTH-0
 62
     2
  5
47
 10
250.550185
 20
320.717327
 30
0.0
 11
188.907422
 21
320.717327
 31
0.0
  0
LINE
  8
LC-002-003-MTH-0
 62
     2
  5
48
 10
250.547675
 20
354.217327
 30
0.0
 11
188.907422
 21
354.217327
 31
0.0
  0
LINE
  8
LC-003-003-----0
 62
     2
  5
49
 10
209.362155
 20
292.956871
 30
0.0
 11
205.707422
 21
320.717327
 31
0.0
  0
LINE
  8
LC-003-003-----0
 62
     2
  5
4A
 10
205.707422
 20
320.717327
 30
0.0
 11
202.052688
 21
292.956871
 31
0.0
  0
LINE
  8
LC-003-003-----0
 62
     2
  5
4B
 10
202.052688
 20
292.956871
 30
0.0
 11
209.362155
 21
292.956871
 31
0.0
  0
LINE
  8
LC-003-003-----0
 62
     2
  5
4C
 10
208.411924
 20
292.89459
 30
0.0
 11
205.707422
 21
313.437327
 31
0.0
  0
LINE
  8
LC-003-003-----0
 62
     2
  5
4D
 10
205.707422
 20
313.437327
 30
0.0
 11
203.002919
 21
292.89459
 31
0.0
  0
LINE
  8
LC-003-003-----0
 62
     2
  5
4E
 10
207.461694
 20
292.832308
 30
0.0
 11
205.707422
 21
306.157327
 31
0.0
  0
LINE
  8
LC-003-003-----0
 62
     2
  5
4F
 10
205.707422
 20
306.157327
 30
0.0
 11
203.95315
 21
292.832308
 31
0.0
  0
LINE
  8
LC-003-003-----0
 62
     2
  5
50
 10
206.511463
 20
292.770027
 30
0.0
 11
205.707422
 21
298.877327
 31
0.0
  0
LINE
  8
LC-003-003-----0
 62
     2
  5
51
 10
205.707422
 20
298.877327
 30
0.0
 11
204.90338
 21
292.770027
 31
0.0
  0
LINE
  8
LC-003-003-----0
 62
     2
  5
52
 10
202.052688
 20
381.977783
 30
0.0
 11
205.707422
 21
354.217327
 31
0.0
  0
LINE
  8
LC-003-003-----0
 62
     2
  5
53
 10
205.707422
 20
354.217327
 30
0.0
 11
209.362155
 21
381.977783
 31
0.0
  0
LINE
  8
LC-003-003-----0
 62
     2
  5
54
 10
209.362155
 20
381.977783
 30
0.0
 11
202.052688
 21
381.977783
 31
0.0
  0
LINE
  8
LC-003-003-----0
 62
     2
  5
55
 10
203.002919
 20
382.040065
 30
0.0
 11
205.707422
 21
361.497327
 31
0.0
  0
LINE
  8
LC-003-003-----0
 62
     2
  5
56
 10
205.707422
 20
361.497327
 30
0.0
 11
208.411924
 21
382.040065
 31
0.0
  0
LINE
  8
LC-003-003-----0
 62
     2
  5
57
 10
203.95315
 20
382.102346
 30
0.0
 11
205.707422
 21
368.777327
 31
0.0
  0
LINE
  8
LC-003-003-----0
 62
     2
  5
58
 10
205.707422
 20
368.777327
 30
0.0
 11
207.461694
 21
382.102346
 31
0.0
  0
LINE
  8
LC-003-003-----0
 62
     2
  5
59
 10
204.90338
 20
382.164627
 30
0.0
 11
205.707422
 21
376.057327
 31
0.0
  0
LINE
  8
LC-003-003-----0
 62
     2
  5
5A
 10
205.707422
 20
376.057327
 30
0.0
 11
206.511463
 21
382.164627
 31
0.0
  0
LINE
  8
LC-004-003-MTG-0
 62
     2
  5
5B
 10
205.707422
 20
281.517327
 30
0.0
 11
205.707422
 21
430.617327
 31
0.0
  0
TEXT
  8
LC-003-003-----0
 62
     8
  5
5C
 10
197.879868
 20
397.765487
 30
0.0
 40
28.0
  1
1"
 50
90.0
 41
0.9
 51
15.0
  7
LCTX15-400-0-0-ARIAL
  0
ENDBLK
  8
0
  5
5D
  0
BLOCK
  8
0
  5
9E
  2
*X2
 70
    65
 10
0.0
 20
0.0
 30
0.0
  3
*X2
  0
LINE
  8
LC-006-005-----0
 62
     2
  5
A0
 10
292.550489
 20
286.893635
 30
0.0
 11
293.725953
 21
288.069098
 31
0.0
  0
LINE
  8
LC-006-005-----0
 62
     2
  5
A1
 10
292.550463
 20
289.722036
 30
0.0
 11
293.954021
 21
291.125593
 31
0.0
  0
LINE
  8
LC-006-005-----0
 62
     2
  5
A2
 10
292.550436
 20
292.550436
 30
0.0
 11
294.045144
 21
294.045144
 31
0.0
  0
LINE
  8
LC-006-005-----0
 62
     2
  5
A3
 10
292.55041
 20
295.378837
 30
0.0
 11
294.545714
 21
297.374141
 31
0.0
  0
LINE
  8
LC-006-005-----0
 62
     2
  5
A4
 10
292.550384
 20
298.207238
 30
0.0
 11
294.163551
 21
299.820405
 31
0.0
  0
LINE
  8
LC-006-005-----0
 62
     2
  5
A5
 10
292.550357
 20
301.035639
 30
0.0
 11
294.66412
 21
303.149401
 31
0.0
  0
LINE
  8
LC-006-005-----0
 62
     2
  5
A6
 10
292.550331
 20
303.86404
 30
0.0
 11
294.585139
 21
305.898847
 31
0.0
  0
LINE
  8
LC-006-005-----0
 62
     2
  5
A7
 10
292.550305
 20
306.69244
 30
0.0
 11
295.258532
 21
309.400668
 31
0.0
  0
LINE
  8
LC-006-005-----0
 62
     2
  5
A8
 10
292.550278
 20
309.520841
 30
0.0
 11
295.247191
 21
312.217754
 31
0.0
  0
LINE
  8
LC-006-005-----0
 62
     2
  5
A9
 10
292.550252
 20
312.349242
 30
0.0
 11
295.708086
 21
315.507076
 31
0.0
  0
LINE
  8
LC-006-005-----0
 62
     2
  5
AA
 10
292.550226
 20
315.177643
 30
0.0
 11
296.41515
 21
319.042567
 31
0.0
  0
LINE
  8
LC-006-005-----0
 62
     2
  5
AB
 10
297.090354
 20
319.717771
 30
0.0
 11
298.050175
 21
320.677592
 31
0.0
  0
LINE
  8
LC-006-005-----0
 62
     2
  5
AC
 10
292.550199
 20
318.006044
 30
0.0
 11
298.050148
 21
323.505992
 31
0.0
  0
LINE
  8
LC-006-005-----0
 62
     2
  5
AD
 10
292.550173
 20
320.834444
 30
0.0
 11
298.050122
 21
326.334393
 31
0.0
  0
LINE
  8
LC-006-005-----0
 62
     2
  5
AE
 10
292.550147
 20
323.662845
 30
0.0
 11
298.050096
 21
329.162794
 31
0.0
  0
LINE
  8
LC-006-005-----0
 62
     2
  5
AF
 10
292.55012
 20
326.491246
 30
0.0
 11
294.526622
 21
328.467747
 31
0.0
  0
LINE
  8
LC-006-005-----0
 62
     2
  5
B0
 10
295.300095
 20
329.24122
 30
0.0
 11
298.050069
 21
331.991195
 31
0.0
  0
LINE
  8
LC-006-005-----0
 62
     2
  5
B1
 10
295.300068
 20
332.069621
 30
0.0
 11
298.050043
 21
334.819596
 31
0.0
  0
LINE
  8
LC-006-005-----0
 62
     2
  5
B2
 10
295.300042
 20
334.898022
 30
0.0
 11
298.048655
 21
337.646635
 31
0.0
  0
LINE
  8
LC-006-005-----0
 62
     2
  5
B3
 10
295.296401
 20
337.722808
 30
0.0
 11
297.73668
 21
340.163087
 31
0.0
  0
LINE
  8
LC-006-005-----0
 62
     2
  5
B4
 10
294.891997
 20
340.146831
 30
0.0
 11
297.021149
 21
342.275983
 31
0.0
  0
LINE
  8
LC-006-005-----0
 62
     2
  5
B5
 10
294.016486
 20
342.099747
 30
0.0
 11
296.006336
 21
344.089597
 31
0.0
  0
LINE
  8
LC-006-005-----0
 62
     2
  5
B6
 10
292.790674
 20
343.702363
 30
0.0
 11
294.735519
 21
345.647207
 31
0.0
  0
LINE
  8
LC-006-005-----0
 62
     2
  5
B7
 10
291.246411
 20
344.986527
 30
0.0
 11
293.222128
 21
346.962243
 31
0.0
  0
LINE
  8
LC-006-005-----0
 62
     2
  5
B8
 10
289.362176
 20
345.930719
 30
0.0
 11
291.45698
 21
348.025523
 31
0.0
  0
LINE
  8
LC-006-005-----0
 62
     2
  5
B9
 10
287.040211
 20
346.437181
 30
0.0
 11
289.40345
 21
348.80042
 31
0.0
  0
LINE
  8
LC-006-005-----0
 62
     2
  5
BA
 10
284.242255
 20
346.467652
 30
0.0
 11
286.972986
 21
349.198383
 31
0.0
  0
LINE
  8
LC-006-005-----0
 62
     2
  5
BB
 10
281.413801
 20
346.467625
 30
0.0
 11
284.163827
 21
349.217651
 31
0.0
  0
LINE
  8
LC-006-005-----0
 62
     2
  5
BC
 10
278.585348
 20
346.467599
 30
0.0
 11
281.335373
 21
349.217624
 31
0.0
  0
LINE
  8
LC-006-005-----0
 62
     2
  5
BD
 10
275.756894
 20
346.467573
 30
0.0
 11
278.50692
 21
349.217598
 31
0.0
  0
LINE
  8
LC-006-005-----0
 62
     2
  5
BE
 10
272.928441
 20
346.467546
 30
0.0
 11
275.678467
 21
349.217572
 31
0.0
  0
LINE
  8
LC-006-005-----0
 62
     2
  5
BF
 10
270.099988
 20
346.46752
 30
0.0
 11
272.350008
 21
348.717541
 31
0.0
  0
LINE
  8
LC-006-005-----0
 62
     2
  5
C0
 10
267.271534
 20
346.467494
 30
0.0
 11
269.521555
 21
348.717514
 31
0.0
  0
LINE
  8
LC-006-005-----0
 62
     2
  5
C1
 10
264.443081
 20
346.467467
 30
0.0
 11
267.04991
 21
349.074297
 31
0.0
  0
LINE
  8
LC-006-005-----0
 62
     2
  5
C2
 10
261.614627
 20
346.467441
 30
0.0
 11
267.049884
 21
351.902698
 31
0.0
  0
LINE
  8
LC-006-005-----0
 62
     2
  5
C3
 10
258.786174
 20
346.467415
 30
0.0
 11
262.286206
 21
349.967447
 31
0.0
  0
LINE
  8
LC-006-005-----0
 62
     2
  5
C4
 10
255.95772
 20
346.467388
 30
0.0
 11
257.457734
 21
347.967402
 31
0.0
  0
LINE
  8
LC-006-005-----0
 62
     2
  5
C5
 10
259.049906
 20
349.559574
 30
0.0
 11
259.457753
 21
349.967421
 31
0.0
  0
LINE
  8
LC-006-005-----0
 62
     2
  5
C6
 10
253.129267
 20
346.467362
 30
0.0
 11
256.049907
 21
349.388002
 31
0.0
  0
ENDBLK
  8
0
  5
C7
  0
BLOCK
  8
0
  5
CE
  2
*X3
 70
    65
 10
0.0
 20
0.0
 30
0.0
  3
*X3
  0
LINE
  8
LC-006-005-----0
 62
     2
  5
CF
 10
284.43512
 20
287.263547
 30
0.0
 11
285.550475
 21
288.378902
 31
0.0
  0
LINE
  8
LC-006-005-----0
 62
     2
  5
D0
 10
284.238679
 20
289.895533
 30
0.0
 11
285.550449
 21
291.207303
 31
0.0
  0
LINE
  8
LC-006-005-----0
 62
     2
  5
D1
 10
284.252322
 20
292.737603
 30
0.0
 11
285.550422
 21
294.035704
 31
0.0
  0
LINE
  8
LC-006-005-----0
 62
     2
  5
D2
 10
283.882572
 20
295.196281
 30
0.0
 11
285.550396
 21
296.864105
 31
0.0
  0
LINE
  8
LC-006-005-----0
 62
     2
  5
D3
 10
283.512823
 20
297.654958
 30
0.0
 11
285.55037
 21
299.692505
 31
0.0
  0
LINE
  8
LC-006-005-----0
 62
     2
  5
D4
 10
283.79503
 20
300.765592
 30
0.0
 11
285.550344
 21
302.520906
 31
0.0
  0
LINE
  8
LC-006-005-----0
 62
     2
  5
D5
 10
283.42528
 20
303.22427
 30
0.0
 11
285.550317
 21
305.349307
 31
0.0
  0
LINE
  8
LC-006-005-----0
 62
     2
  5
D6
 10
283.055531
 20
305.682948
 30
0.0
 11
283.090224
 21
305.717641
 31
0.0
  0
LINE
  8
LC-006-005-----0
 62
     2
  5
D7
 10
283.476103
 20
306.10352
 30
0.0
 11
285.550291
 21
308.177708
 31
0.0
  0
LINE
  8
LC-006-005-----0
 62
     2
  5
D8
 10
283.019886
 20
308.47573
 30
0.0
 11
285.550265
 21
311.006109
 31
0.0
  0
LINE
  8
LC-006-005-----0
 62
     2
  5
D9
 10
282.563669
 20
310.84794
 30
0.0
 11
285.550238
 21
313.834509
 31
0.0
  0
LINE
  8
LC-006-005-----0
 62
     2
  5
DA
 10
282.726022
 20
313.83872
 30
0.0
 11
285.550212
 21
316.66291
 31
0.0
  0
LINE
  8
LC-006-005-----0
 62
     2
  5
DB
 10
282.254598
 20
316.195724
 30
0.0
 11
285.550186
 21
319.491311
 31
0.0
  0
LINE
  8
LC-006-005-----0
 62
     2
  5
DC
 10
281.783175
 20
318.552727
 30
0.0
 11
285.550159
 21
322.319712
 31
0.0
  0
LINE
  8
LC-006-005-----0
 62
     2
  5
DD
 10
280.119633
 20
319.717613
 30
0.0
 11
285.550133
 21
325.148113
 31
0.0
  0
LINE
  8
LC-006-005-----0
 62
     2
  5
DE
 10
280.050158
 20
322.476565
 30
0.0
 11
285.550107
 21
327.976513
 31
0.0
  0
LINE
  8
LC-006-005-----0
 62
     2
  5
DF
 10
280.050131
 20
325.304965
 30
0.0
 11
283.212808
 21
328.467642
 31
0.0
  0
LINE
  8
LC-006-005-----0
 62
     2
  5
E0
 10
277.634329
 20
325.71759
 30
0.0
 11
280.384354
 21
328.467616
 31
0.0
  0
LINE
  8
LC-006-005-----0
 62
     2
  5
E1
 10
274.805875
 20
325.717564
 30
0.0
 11
277.555901
 21
328.467589
 31
0.0
  0
LINE
  8
LC-006-005-----0
 62
     2
  5
E2
 10
272.477427
 20
326.217542
 30
0.0
 11
274.727448
 21
328.467563
 31
0.0
  0
LINE
  8
LC-006-005-----0
 62
     2
  5
E3
 10
266.481491
 20
323.050034
 30
0.0
 11
267.050147
 21
323.61869
 31
0.0
  0
LINE
  8
LC-006-005-----0
 62
     2
  5
E4
 10
269.648973
 20
326.217516
 30
0.0
 11
271.898994
 21
328.467537
 31
0.0
  0
LINE
  8
LC-006-005-----0
 62
     2
  5
E5
 10
265.105054
 20
324.502023
 30
0.0
 11
269.070541
 21
328.46751
 31
0.0
  0
LINE
  8
LC-006-005-----0
 62
     2
  5
E6
 10
262.742055
 20
324.967451
 30
0.0
 11
266.242087
 21
328.467484
 31
0.0
  0
LINE
  8
LC-006-005-----0
 62
     2
  5
E7
 10
259.913601
 20
324.967425
 30
0.0
 11
263.413634
 21
328.467458
 31
0.0
  0
LINE
  8
LC-006-005-----0
 62
     2
  5
E8
 10
259.050116
 20
326.932367
 30
0.0
 11
260.58518
 21
328.467431
 31
0.0
  0
LINE
  8
LC-006-005-----0
 62
     2
  5
E9
 10
254.256694
 20
324.967372
 30
0.0
 11
256.050118
 21
326.760796
 31
0.0
  0
LINE
  8
LC-006-005-----0
 62
     2
  5
EA
 10
256.256713
 20
326.967391
 30
0.0
 11
257.756727
 21
328.467405
 31
0.0
  0
LINE
  8
LC-006-005-----0
 62
     2
  5
EB
 10
253.050119
 20
326.589225
 30
0.0
 11
254.928273
 21
328.467379
 31
0.0
  0
ENDBLK
  8
0
  5
EC
  0
BLOCK
  8
0
  5
EF
  2
*X4
 70
    65
 10
0.0
 20
0.0
 30
0.0
  3
*X4
  0
LINE
  8
LC-006-005-----0
 62
     2
  5
F0
 10
258.549483
 20
348.996663
 30
0.0
 11
257.579171
 21
349.966975
 31
0.0
  0
LINE
  8
LC-006-005-----0
  6
DASHED
 62
     2
  5
F1
 10
258.203888
 20
348.210888
 30
0.0
 11
256.793396
 21
349.621379
 31
0.0
  0
LINE
  8
LC-006-005-----0
  6
DASHED
 62
     2
  5
F2
 10
257.838992
 20
348.010098
 30
0.0
 11
256.592606
 21
349.256484
 31
0.0
  0
ENDBLK
  8
0
  5
F3
  0
BLOCK
  8
0
  5
F8
  2
*X5
 70
    65
 10
0.0
 20
0.0
 30
0.0
  3
*X5
  0
LINE
  8
LC-006-005-----0
 62
     2
  5
F9
 10
258.346428
 20
326.572301
 30
0.0
 11
258.155024
 21
326.763706
 31
0.0
  0
LINE
  8
LC-006-005-----0
  6
DASHED
 62
     2
  5
FA
 10
258.379157
 20
325.408202
 30
0.0
 11
256.990924
 21
326.796435
 31
0.0
  0
LINE
  8
LC-006-005-----0
  6
DASHED
 62
     2
  5
FB
 10
258.093658
 20
325.128015
 30
0.0
 11
256.710737
 21
326.510936
 31
0.0
  0
ENDBLK
  8
0
  5
FC
  0
BLOCK
  8
0
  5
119
  2
*X6
 70
    65
 10
0.0
 20
0.0
 30
0.0
  3
*X6
  0
LINE
  8
LC-006-005-----0
 62
     2
  5
11A
 10
250.549832
 20
356.147716
 30
0.0
 11
252.480204
 21
354.217346
 31
0.0
  0
LINE
  8
LC-006-005-----0
 62
     2
  5
11B
 10
254.722823
 20
356.217369
 30
0.0
 11
256.722806
 21
354.217389
 31
0.0
  0
LINE
  8
LC-006-005-----0
 62
     2
  5
11C
 10
258.965424
 20
356.217411
 30
0.0
 11
260.965407
 21
354.217431
 31
0.0
  0
LINE
  8
LC-006-005-----0
 62
     2
  5
11D
 10
263.208025
 20
356.217453
 30
0.0
 11
265.208008
 21
354.217473
 31
0.0
  0
LINE
  8
LC-006-005-----0
 62
     2
  5
11E
 10
267.04987
 20
352.375614
 30
0.0
 11
268.549885
 21
350.875601
 31
0.0
  0
ENDBLK
  8
0
  5
11F
  0
BLOCK
  8
0
  5
122
  2
*X7
 70
    65
 10
0.0
 20
0.0
 30
0.0
  3
*X7
  0
LINE
  8
LC-006-005-----0
 62
     2
  5
123
 10
250.547843
 20
317.965964
 30
0.0
 11
250.798502
 21
317.715306
 31
0.0
  0
LINE
  8
LC-006-005-----0
 62
     2
  5
124
 10
252.041135
 20
320.715312
 30
0.0
 11
254.041129
 21
318.715321
 31
0.0
  0
LINE
  8
LC-006-005-----0
 62
     2
  5
125
 10
256.283759
 20
320.715332
 30
0.0
 11
258.283752
 21
318.715341
 31
0.0
  0
LINE
  8
LC-006-005-----0
 62
     2
  5
126
 10
260.526383
 20
320.715351
 30
0.0
 11
262.526376
 21
318.715361
 31
0.0
  0
LINE
  8
LC-006-005-----0
 62
     2
  5
127
 10
264.769007
 20
320.715371
 30
0.0
 11
266.584279
 21
318.900101
 31
0.0
  0
LINE
  8
LC-006-005-----0
 62
     2
  5
128
 10
267.047821
 20
322.679197
 30
0.0
 11
268.506698
 21
321.220323
 31
0.0
  0
ENDBLK
  8
0
  5
129
  0
BLOCK
  8
0
  5
134
  2
*D8
 70
    65
 10
0.0
 20
0.0
 30
0.0
  3
*D8
  0
LINE
  8
LC-002-003-MTH-0
 62
     2
  5
135
 10
293.5505
 20
285.717738
 30
0.0
 11
359.978132
 21
285.717738
 31
0.0
  0
LINE
  8
LC-002-003-MTH-0
 62
     2
  5
136
 10
286.300018
 20
337.467671
 30
0.0
 11
359.978132
 21
337.467671
 31
0.0
  0
LINE
  8
LC-003-003-----0
 62
     2
  5
137
 10
346.832866
 20
257.957282
 30
0.0
 11
343.178132
 21
285.717738
 31
0.0
  0
LINE
  8
LC-003-003-----0
 62
     2
  5
138
 10
343.178132
 20
285.717738
 30
0.0
 11
339.523399
 21
257.957282
 31
0.0
  0
LINE
  8
LC-003-003-----0
 62
     2
  5
139
 10
339.523399
 20
257.957282
 30
0.0
 11
346.832866
 21
257.957282
 31
0.0
  0
LINE
  8
LC-003-003-----0
 62
     2
  5
13A
 10
345.882635
 20
257.895001
 30
0.0
 11
343.178132
 21
278.437738
 31
0.0
  0
LINE
  8
LC-003-003-----0
 62
     2
  5
13B
 10
343.178132
 20
278.437738
 30
0.0
 11
340.47363
 21
257.895001
 31
0.0
  0
LINE
  8
LC-003-003-----0
 62
     2
  5
13C
 10
344.932404
 20
257.832719
 30
0.0
 11
343.178132
 21
271.157738
 31
0.0
  0
LINE
  8
LC-003-003-----0
 62
     2
  5
13D
 10
343.178132
 20
271.157738
 30
0.0
 11
341.42386
 21
257.832719
 31
0.0
  0
LINE
  8
LC-003-003-----0
 62
     2
  5
13E
 10
343.982174
 20
257.770438
 30
0.0
 11
343.178132
 21
263.877738
 31
0.0
  0
LINE
  8
LC-003-003-----0
 62
     2
  5
13F
 10
343.178132
 20
263.877738
 30
0.0
 11
342.374091
 21
257.770438
 31
0.0
  0
LINE
  8
LC-003-003-----0
 62
     2
  5
140
 10
339.523399
 20
365.228127
 30
0.0
 11
343.178132
 21
337.467671
 31
0.0
  0
LINE
  8
LC-003-003-----0
 62
     2
  5
141
 10
343.178132
 20
337.467671
 30
0.0
 11
346.832866
 21
365.228127
 31
0.0
  0
LINE
  8
LC-003-003-----0
 62
     2
  5
142
 10
346.832866
 20
365.228127
 30
0.0
 11
339.523399
 21
365.228127
 31
0.0
  0
LINE
  8
LC-003-003-----0
 62
     2
  5
143
 10
340.47363
 20
365.290408
 30
0.0
 11
343.178132
 21
344.747671
 31
0.0
  0
LINE
  8
LC-003-003-----0
 62
     2
  5
144
 10
343.178132
 20
344.747671
 30
0.0
 11
345.882635
 21
365.290408
 31
0.0
  0
LINE
  8
LC-003-003-----0
 62
     2
  5
145
 10
341.42386
 20
365.35269
 30
0.0
 11
343.178132
 21
352.027671
 31
0.0
  0
LINE
  8
LC-003-003-----0
 62
     2
  5
146
 10
343.178132
 20
352.027671
 30
0.0
 11
344.932404
 21
365.35269
 31
0.0
  0
LINE
  8
LC-003-003-----0
 62
     2
  5
147
 10
342.374091
 20
365.414971
 30
0.0
 11
343.178132
 21
359.307671
 31
0.0
  0
LINE
  8
LC-003-003-----0
 62
     2
  5
148
 10
343.178132
 20
359.307671
 30
0.0
 11
343.982174
 21
365.414971
 31
0.0
  0
LINE
  8
LC-004-003-MTG-0
 62
     2
  5
149
 10
343.178132
 20
246.517738
 30
0.0
 11
343.178132
 21
376.667671
 31
0.0
  0
TEXT
  8
LC-003-003-----0
 62
     8
  5
14A
 10
335.350578
 20
292.740864
 30
0.0
 40
28.0
  1
52
 50
90.0
 41
0.7
 51
15.0
  7
LCTX15-400-0-0-ARIAL
 72
     1
 11
335.350578
 21
315.940864
 31
0.0
  0
ENDBLK
  8
0
  5
14B
  0
BLOCK
  8
0
  5
14E
  2
*D9
 70
    65
 10
0.0
 20
0.0
 30
0.0
  3
*D9
  0
LINE
  8
LC-002-003-MTH-0
 62
     2
  5
14F
 10
284.5505
 20
285.717654
 30
0.0
 11
284.5505
 21
189.318
 31
0.0
  0
LINE
  8
LC-002-003-MTH-0
 62
     2
  5
150
 10
293.5505
 20
285.717738
 30
0.0
 11
293.5505
 21
189.318
 31
0.0
  0
LINE
  8
LC-003-003-----0
 62
     2
  5
151
 10
256.790044
 20
202.463267
 30
0.0
 11
284.5505
 21
206.118
 31
0.0
  0
LINE
  8
LC-003-003-----0
 62
     2
  5
152
 10
284.5505
 20
206.118
 30
0.0
 11
256.790044
 21
209.772733
 31
0.0
  0
LINE
  8
LC-003-003-----0
 62
     2
  5
153
 10
256.790044
 20
209.772733
 30
0.0
 11
256.790044
 21
202.463267
 31
0.0
  0
LINE
  8
LC-003-003-----0
 62
     2
  5
154
 10
256.727762
 20
203.413497
 30
0.0
 11
277.2705
 21
206.118
 31
0.0
  0
LINE
  8
LC-003-003-----0
 62
     2
  5
155
 10
277.2705
 20
206.118
 30
0.0
 11
256.727762
 21
208.822503
 31
0.0
  0
LINE
  8
LC-003-003-----0
 62
     2
  5
156
 10
256.665481
 20
204.363728
 30
0.0
 11
269.9905
 21
206.118
 31
0.0
  0
LINE
  8
LC-003-003-----0
 62
     2
  5
157
 10
269.9905
 20
206.118
 30
0.0
 11
256.665481
 21
207.872272
 31
0.0
  0
LINE
  8
LC-003-003-----0
 62
     2
  5
158
 10
256.6032
 20
205.313959
 30
0.0
 11
262.7105
 21
206.118
 31
0.0
  0
LINE
  8
LC-003-003-----0
 62
     2
  5
159
 10
262.7105
 20
206.118
 30
0.0
 11
256.6032
 21
206.922041
 31
0.0
  0
LINE
  8
LC-003-003-----0
 62
     2
  5
15A
 10
321.310956
 20
209.772733
 30
0.0
 11
293.5505
 21
206.118
 31
0.0
  0
LINE
  8
LC-003-003-----0
 62
     2
  5
15B
 10
293.5505
 20
206.118
 30
0.0
 11
321.310956
 21
202.463267
 31
0.0
  0
LINE
  8
LC-003-003-----0
 62
     2
  5
15C
 10
321.310956
 20
202.463267
 30
0.0
 11
321.310956
 21
209.772733
 31
0.0
  0
LINE
  8
LC-003-003-----0
 62
     2
  5
15D
 10
321.373237
 20
208.822503
 30
0.0
 11
300.8305
 21
206.118
 31
0.0
  0
LINE
  8
LC-003-003-----0
 62
     2
  5
15E
 10
300.8305
 20
206.118
 30
0.0
 11
321.373237
 21
203.413497
 31
0.0
  0
LINE
  8
LC-003-003-----0
 62
     2
  5
15F
 10
321.435519
 20
207.872272
 30
0.0
 11
308.1105
 21
206.118
 31
0.0
  0
LINE
  8
LC-003-003-----0
 62
     2
  5
160
 10
308.1105
 20
206.118
 30
0.0
 11
321.435519
 21
204.363728
 31
0.0
  0
LINE
  8
LC-003-003-----0
 62
     2
  5
161
 10
321.4978
 20
206.922041
 30
0.0
 11
315.3905
 21
206.118
 31
0.0
  0
LINE
  8
LC-003-003-----0
 62
     2
  5
162
 10
315.3905
 20
206.118
 30
0.0
 11
321.4978
 21
205.313959
 31
0.0
  0
LINE
  8
LC-004-003-MTG-0
 62
     2
  5
163
 10
245.3505
 20
206.118
 30
0.0
 11
425.9505
 21
206.118
 31
0.0
  0
TEXT
  8
LC-003-003-----0
 62
     8
  5
164
 10
335.649273
 20
208.536369
 30
0.0
 40
28.0
  1
%%c9-14
 41
0.9
 51
15.0
  7
LCTX15-400-0-0-ARIAL
  0
ENDBLK
  8
0
  5
165
  0
ENDSEC
  0
SECTION
  2
ENTITIES
  0
VIEWPORT
  8
LC-VIEWPORT
  5
167
 67
     1
 68
     1
 10
420.0
 20
297.0
 30
0.0
 40
840.0
 41
594.0
 69
     1
1001
ACAD
1000
MVIEW
1002
{
1070
    16
1010
0.0
1020
0.0
1030
0.0
1010
0.0
1020
0.0
1030
1.0
1040
0.0
1040
594.0
1040
420.0
1040
297.0
1040
50.0
1040
0.0
1040
0.0
1070
     0
1070
   100
1070
     1
1070
     1
1070
     0
1070
     0
1070
     0
1070
     0
1040
0.0
1040
0.0
1040
0.0
1040
1.0
1040
1.0
1040
0.0
1040
0.0
1070
     0
1002
{
1002
}
1002
}
  0
LINE
  8
LC-001-002-----0
 62
     1
  5
25
 10
252.049864
 20
352.717342
 30
0.0
 11
252.050168
 21
322.217342
 31
0.0
  0
DIMENSION
  8
LC-003-003-----0
 62
     2
  5
44
  2
*D0
 10
269.799933
 20
396.198
 30
0.0
 11
269.799933
 21
396.198
 31
0.0
  1
36
 13
289.050044
 23
334.717696
 33
0.0
 14
250.549822
 24
357.217327
 34
0.0
  3
LC-DIM-L-0140-02-02
  0
DIMENSION
  8
LC-003-003-----0
 62
     2
  5
5E
  2
*D1
 10
205.707422
 20
337.467327
 30
0.0
 11
205.707422
 21
337.467327
 31
0.0
  1
1"
 13
250.547675
 23
354.217327
 33
0.0
 14
250.550185
 24
320.717327
 34
0.0
 50
90.0
  3
LC-DIM-L-0140-02-02
  0
LINE
  8
LC-001-002-----0
  6
DASHDOT
 62
     2
  5
60
 10
289.050044
 20
334.717696
 30
0.0
 11
289.0505
 21
285.717696
 31
0.0
  0
LINE
  8
LC-001-002-----0
  6
DASHDOT
 62
     2
  5
61
 10
265.050018
 20
337.467473
 30
0.0
 11
286.300018
 21
337.467671
 31
0.0
  0
LINE
  8
LC-001-002-----0
 62
     1
  5
62
 10
273.049909
 20
349.217547
 30
0.0
 11
286.299909
 21
349.217671
 31
0.0
  0
LINE
  8
LC-001-002-----0
 62
     1
  5
63
 10
273.050128
 20
325.717547
 30
0.0
 11
280.050128
 21
325.717612
 31
0.0
  0
LINE
  8
LC-001-002-----0
 62
     1
  5
64
 10
280.050128
 20
325.717612
 30
0.0
 11
280.050183
 21
319.717612
 31
0.0
  0
LINE
  8
LC-001-002-----0
 62
     1
  5
65
 10
298.050018
 20
337.46778
 30
0.0
 11
298.050183
 21
319.71778
 31
0.0
  0
ARC
  8
LC-005-002-RND-0
 62
     1
  5
67
 10
286.300018
 20
337.467671
 30
0.0
 40
11.75
 50
0.000533
 51
90.000533
  0
LINE
  8
LC-001-002-----0
 62
     1
  5
68
 10
280.050183
 20
319.717612
 30
0.0
 11
281.550183
 21
319.717626
 31
0.0
  0
LINE
  8
LC-001-002-----0
 62
     1
  5
69
 10
295.050253
 20
312.217752
 30
0.0
 11
295.800253
 21
312.217759
 31
0.0
  0
LINE
  8
LC-001-002-----0
 62
     1
  5
6A
 10
284.5505
 20
285.717654
 30
0.0
 11
293.5505
 21
285.717738
 31
0.0
  0
LINE
  8
LC-001-002-----0
 62
     1
  5
6B
 10
296.550183
 20
319.717766
 30
0.0
 11
298.050183
 21
319.71778
 31
0.0
  0
LINE
  8
LC-001-002-----0
 62
     1
  5
6C
 10
282.300253
 20
312.217633
 30
0.0
 11
283.050253
 21
312.21764
 31
0.0
  0
LINE
  8
LC-001-002-----0
 62
     1
  5
6D
 10
283.300376
 20
299.067643
 30
0.0
 11
284.050376
 21
299.06765
 31
0.0
  0
LINE
  8
LC-001-002-----0
 62
     1
  5
6E
 10
284.050438
 20
292.41765
 30
0.0
 11
284.300438
 21
292.417652
 31
0.0
  0
LINE
  8
LC-001-002-----0
 62
     1
  5
6F
 10
296.550183
 20
319.717766
 30
0.0
 11
295.050253
 21
312.217752
 31
0.0
  0
LINE
  8
LC-001-002-----0
 62
     1
  5
70
 10
281.550183
 20
319.717626
 30
0.0
 11
283.050253
 21
312.21764
 31
0.0
  0
LINE
  8
LC-001-002-----0
 62
     1
  5
71
 10
283.050314
 20
305.71764
 30
0.0
 11
283.550314
 21
305.717645
 31
0.0
  0
LINE
  8
LC-001-002-----0
 62
     1
  5
72
 10
295.800253
 20
312.217759
 30
0.0
 11
294.550314
 21
305.717747
 31
0.0
  0
LINE
  8
LC-001-002-----0
 62
     1
  5
73
 10
282.300253
 20
312.217633
 30
0.0
 11
283.550314
 21
305.717645
 31
0.0
  0
LINE
  8
LC-001-002-----0
 62
     1
  5
74
 10
294.550314
 20
305.717747
 30
0.0
 11
295.050314
 21
305.717752
 31
0.0
  0
LINE
  8
LC-001-002-----0
 62
     1
  5
75
 10
294.050376
 20
299.067743
 30
0.0
 11
294.800376
 21
299.06775
 31
0.0
  0
LINE
  8
LC-001-002-----0
 62
     1
  5
76
 10
293.800438
 20
292.41774
 30
0.0
 11
294.050438
 21
292.417743
 31
0.0
  0
LINE
  8
LC-001-002-----0
 62
     1
  5
77
 10
285.550102
 20
328.467664
 30
0.0
 11
285.5505
 21
285.717664
 31
0.0
  0
LINE
  8
LC-001-002-----0
 62
     1
  5
78
 10
295.050314
 20
305.717752
 30
0.0
 11
294.050376
 21
299.067743
 31
0.0
  0
LINE
  8
LC-001-002-----0
 62
     1
  5
79
 10
283.050314
 20
305.71764
 30
0.0
 11
284.050376
 21
299.06765
 31
0.0
  0
LINE
  8
LC-001-002-----0
 62
     1
  5
7A
 10
294.800376
 20
299.06775
 30
0.0
 11
293.800438
 21
292.41774
 31
0.0
  0
LINE
  8
LC-001-002-----0
 62
     1
  5
7B
 10
283.300376
 20
299.067643
 30
0.0
 11
284.300438
 21
292.417652
 31
0.0
  0
LINE
  8
LC-001-002-----0
 62
     1
  5
7C
 10
294.050438
 20
292.417743
 30
0.0
 11
293.5505
 21
285.717738
 31
0.0
  0
LINE
  8
LC-001-002-----0
 62
     1
  5
7D
 10
284.050438
 20
292.41765
 30
0.0
 11
284.5505
 21
285.717654
 31
0.0
  0
LINE
  8
LC-001-002-----0
 62
     1
  5
7E
 10
292.550102
 20
328.467729
 30
0.0
 11
292.5505
 21
285.717729
 31
0.0
  0
LINE
  8
LC-001-002-----0
 62
     1
  5
7F
 10
253.049934
 20
346.467361
 30
0.0
 11
286.299934
 21
346.467671
 31
0.0
  0
LINE
  8
LC-001-002-----0
 62
     1
  5
80
 10
253.050102
 20
328.467361
 30
0.0
 11
285.550102
 21
328.467664
 31
0.0
  0
LINE
  8
LC-001-002-----0
 62
     1
  5
81
 10
295.300018
 20
337.467754
 30
0.0
 11
295.300102
 21
328.467754
 31
0.0
  0
ARC
  8
LC-005-002-RND-0
 62
     1
  5
82
 10
286.300018
 20
337.467671
 30
0.0
 40
9.0
 50
0.000533
 51
90.000533
  0
ARC
  8
LC-005-002-RND-0
  6
DASHDOT
 62
     2
  5
83
 10
286.300044
 20
334.717671
 30
0.0
 40
2.75
 50
0.000533
 51
90.000533
  0
LINE
  8
LC-001-002-----0
 62
     1
  5
84
 10
253.049911
 20
348.967361
 30
0.0
 11
253.050125
 21
325.967361
 31
0.0
  0
LINE
  8
LC-001-002-----0
 62
     1
  5
85
 10
267.049883
 20
351.967491
 30
0.0
 11
267.049883
 21
351.967491
 31
0.0
  0
LINE
  8
LC-001-002-----0
 62
     1
  5
86
 10
273.049909
 20
349.217547
 30
0.0
 11
272.549914
 21
348.717543
 31
0.0
  0
LINE
  8
LC-001-002-----0
 62
     1
  5
87
 10
273.050128
 20
325.717547
 30
0.0
 11
272.550123
 21
326.217543
 31
0.0
  0
LINE
  8
LC-001-002-----0
 62
     1
  5
88
 10
267.049914
 20
348.717491
 30
0.0
 11
272.549914
 21
348.717543
 31
0.0
  0
LINE
  8
LC-001-002-----0
 62
     1
  5
89
 10
267.050123
 20
326.217491
 30
0.0
 11
272.550123
 21
326.217543
 31
0.0
  0
LINE
  8
LC-001-002-----0
 62
     1
  5
8A
 10
267.050153
 20
322.967491
 30
0.0
 11
267.050153
 21
322.967491
 31
0.0
  0
LINE
  8
LC-001-002-----0
 62
     1
  5
8B
 10
254.049902
 20
349.967371
 30
0.0
 11
256.049902
 21
349.967389
 31
0.0
  0
LINE
  8
LC-001-002-----0
 62
     1
  5
8C
 10
254.050135
 20
324.967371
 30
0.0
 11
256.050135
 21
324.967389
 31
0.0
  0
LINE
  8
LC-001-002-----0
 62
     1
  5
8D
 10
265.049902
 20
349.967473
 30
0.0
 11
265.049902
 21
349.967473
 31
0.0
  0
LINE
  8
LC-001-002-----0
 62
     1
  5
8E
 10
264.549864
 20
352.717467
 30
0.0
 11
252.049864
 21
352.717342
 31
0.0
  0
LINE
  8
LC-001-002-----0
 62
     1
  5
8F
 10
264.550168
 20
322.217467
 30
0.0
 11
252.050168
 21
322.217342
 31
0.0
  0
LINE
  8
LC-001-002-----0
 62
     1
  5
90
 10
267.049883
 20
351.967491
 30
0.0
 11
267.049914
 21
348.717491
 31
0.0
  0
LINE
  8
LC-001-002-----0
 62
     1
  5
91
 10
267.050123
 20
326.217491
 30
0.0
 11
267.050153
 21
322.967491
 31
0.0
  0
LINE
  8
LC-001-002-----0
 62
     1
  5
92
 10
265.050135
 20
324.967473
 30
0.0
 11
265.050135
 21
324.967473
 31
0.0
  0
ARC
  8
LC-005-002-RND-0
 62
     1
  5
93
 10
267.049902
 20
349.967491
 30
0.0
 40
2.0
 50
90.000533
 51
180.000533
  0
ARC
  8
LC-005-002-RND-0
 62
     1
  5
94
 10
267.050135
 20
324.967491
 30
0.0
 40
2.0
 50
180.000533
 51
270.000533
  0
LINE
  8
LC-001-002-----0
 62
     1
  5
95
 10
256.049902
 20
349.967389
 30
0.0
 11
256.049921
 21
347.967389
 31
0.0
  0
LINE
  8
LC-001-002-----0
 62
     1
  5
96
 10
259.049902
 20
349.967417
 30
0.0
 11
259.049921
 21
347.967417
 31
0.0
  0
LINE
  8
LC-001-002-----0
 62
     1
  5
97
 10
256.049921
 20
347.967389
 30
0.0
 11
259.049921
 21
347.967417
 31
0.0
  0
LINE
  8
LC-001-002-----0
 62
     1
  5
98
 10
256.050116
 20
326.967389
 30
0.0
 11
259.050116
 21
326.967417
 31
0.0
  0
LINE
  8
LC-001-002-----0
 62
     1
  5
99
 10
259.049902
 20
349.967417
 30
0.0
 11
265.049902
 21
349.967473
 31
0.0
  0
LINE
  8
LC-001-002-----0
 62
     1
  5
9A
 10
259.050135
 20
324.967417
 30
0.0
 11
265.050135
 21
324.967473
 31
0.0
  0
LINE
  8
LC-001-002-----0
 62
     1
  5
9B
 10
259.050116
 20
326.967417
 30
0.0
 11
259.050135
 21
324.967417
 31
0.0
  0
LINE
  8
LC-001-002-----0
 62
     1
  5
9C
 10
256.050116
 20
326.967389
 30
0.0
 11
256.050135
 21
324.967389
 31
0.0
  0
INSERT
  8
LC-006-005-----0
 62
     2
  5
C8
  2
*X2
 10
0.0
 20
0.0
 30
0.0
  0
LINE
  8
LC-001-002-----0
 62
     1
  5
C9
 10
254.049902
 20
349.967371
 30
0.0
 11
253.049911
 21
348.967361
 31
0.0
  0
LINE
  8
LC-001-002-----0
 62
     1
  5
CA
 10
254.050135
 20
324.967371
 30
0.0
 11
253.050125
 21
325.967361
 31
0.0
  0
ARC
  8
LC-001-002-----0
 62
     1
  5
CB
 10
289.050133
 20
325.134363
 30
0.0
 40
4.833333
 50
43.603352
 51
136.397714
  0
LINE
  8
LC-001-002-----0
 62
     1
  5
CC
 10
292.550102
 20
328.467729
 30
0.0
 11
295.300102
 21
328.467754
 31
0.0
  0
INSERT
  8
LC-006-005-----0
 62
     2
  5
ED
  2
*X3
 10
0.0
 20
0.0
 30
0.0
  0
INSERT
  8
LC-006-005-----0
 62
     2
  5
F4
  2
*X4
 10
0.0
 20
0.0
 30
0.0
  0
CIRCLE
  8
LC-001-002-----0
 62
     1
  5
F5
 10
257.550125
 20
325.967403
 30
0.0
 40
1.0
  0
CIRCLE
  8
LC-001-002-----0
 62
     1
  5
F6
 10
257.549911
 20
348.967403
 30
0.0
 40
1.0
  0
INSERT
  8
LC-006-005-----0
 62
     2
  5
FD
  2
*X5
 10
0.0
 20
0.0
 30
0.0
  0
LINE
  8
LC-001-002-----0
 62
     1
  5
FE
 10
250.549851
 20
354.217327
 30
0.0
 11
252.049864
 21
352.717342
 31
0.0
  0
LINE
  8
LC-001-002-----0
 62
     1
  5
FF
 10
266.049851
 20
354.217482
 30
0.0
 11
264.549864
 21
352.717467
 31
0.0
  0
LINE
  8
LC-001-002-----0
 62
     1
  5
100
 10
250.550185
 20
320.717327
 30
0.0
 11
252.050168
 21
322.217342
 31
0.0
  0
LINE
  8
LC-001-002-----0
 62
     1
  5
101
 10
266.050185
 20
320.717482
 30
0.0
 11
264.550168
 21
322.217467
 31
0.0
  0
LINE
  8
LC-001-002-----0
 62
     1
  5
102
 10
263.047586
 20
356.217452
 30
0.0
 11
263.047582
 21
356.717452
 31
0.0
  0
LINE
  8
LC-001-002-----0
 62
     1
  5
103
 10
263.047582
 20
356.717452
 30
0.0
 11
251.549827
 21
356.717337
 31
0.0
  0
LINE
  8
LC-001-002-----0
 62
     1
  5
104
 10
263.04796
 20
318.717452
 30
0.0
 11
263.047965
 21
318.217452
 31
0.0
  0
LINE
  8
LC-001-002-----0
 62
     1
  5
105
 10
263.047965
 20
318.217452
 30
0.0
 11
251.55021
 21
318.217337
 31
0.0
  0
LINE
  8
LC-001-002-----0
 62
     1
  5
106
 10
251.549831
 20
356.217337
 30
0.0
 11
251.549822
 21
357.217337
 31
0.0
  0
LINE
  8
LC-001-002-----0
 62
     1
  5
107
 10
251.549822
 20
357.217337
 30
0.0
 11
250.549822
 21
357.217327
 31
0.0
  0
LINE
  8
LC-001-002-----0
 62
     1
  5
108
 10
250.549822
 20
357.217327
 30
0.0
 11
250.549851
 21
354.217327
 31
0.0
  0
LINE
  8
LC-001-002-----0
 62
     1
  5
109
 10
250.549851
 20
354.217327
 30
0.0
 11
251.549851
 21
354.217337
 31
0.0
  0
ARC
  8
LC-001-002-----0
 62
     1
  5
10A
 10
265.549861
 20
353.217477
 30
0.0
 40
3.0
 50
0.000571
 51
90.000571
  0
LINE
  8
LC-001-002-----0
 62
     1
  5
10B
 10
265.549831
 20
356.217477
 30
0.0
 11
251.549831
 21
356.217337
 31
0.0
  0
LINE
  8
LC-001-002-----0
 62
     1
  5
10C
 10
267.049886
 20
350.717491
 30
0.0
 11
267.049861
 21
353.217491
 31
0.0
  0
ARC
  8
LC-001-002-----0
 62
     1
  5
10D
 10
266.049861
 20
353.217482
 30
0.0
 40
1.0
 50
0.000571
 51
90.000571
  0
LINE
  8
LC-001-002-----0
 62
     1
  5
10E
 10
266.049851
 20
354.217482
 30
0.0
 11
251.549851
 21
354.217337
 31
0.0
  0
LINE
  8
LC-001-002-----0
 62
     1
  5
10F
 10
265.54784
 20
318.715375
 30
0.0
 11
251.54784
 21
318.71531
 31
0.0
  0
LINE
  8
LC-001-002-----0
 62
     1
  5
110
 10
251.54784
 20
318.71531
 30
0.0
 11
251.547845
 21
317.71531
 31
0.0
  0
LINE
  8
LC-001-002-----0
 62
     1
  5
111
 10
251.547845
 20
317.71531
 30
0.0
 11
250.547845
 21
317.715305
 31
0.0
  0
LINE
  8
LC-001-002-----0
 62
     1
  5
112
 10
250.547845
 20
317.715305
 30
0.0
 11
250.547675
 21
354.217327
 31
0.0
  0
LINE
  8
LC-001-002-----0
 62
     1
  5
113
 10
266.047831
 20
320.715377
 30
0.0
 11
251.547831
 21
320.71531
 31
0.0
  0
LINE
  8
LC-001-002-----0
 62
     1
  5
114
 10
250.547831
 20
320.715305
 30
0.0
 11
251.547831
 21
320.71531
 31
0.0
  0
ARC
  8
LC-001-002-----0
 62
     1
  5
115
 10
265.547826
 20
321.715375
 30
0.0
 40
3.0
 50
270.000304
 51
0.000267
  0
LINE
  8
LC-001-002-----0
 62
     1
  5
116
 10
267.047814
 20
324.215382
 30
0.0
 11
267.047826
 21
321.715382
 31
0.0
  0
ARC
  8
LC-001-002-----0
 62
     1
  5
117
 10
266.047826
 20
321.715377
 30
0.0
 40
1.0
 50
270.000304
 51
0.000267
  0
INSERT
  8
LC-006-005-----0
 62
     2
  5
120
  2
*X6
 10
0.0
 20
0.0
 30
0.0
  0
INSERT
  8
LC-006-005-----0
 62
     2
  5
12A
  2
*X7
 10
0.0
 20
0.0
 30
0.0
  0
LINE
  8
LC-001-002-----0
 62
     1
  5
12B
 10
268.549871
 20
352.217506
 30
0.0
 11
268.549861
 21
353.217506
 31
0.0
  0
ARC
  8
LC-001-002-----0
 62
     1
  5
12C
 10
267.049871
 20
352.217491
 30
0.0
 40
1.5
 50
270.000723
 51
0.000571
  0
LINE
  8
LC-001-002-----0
 62
     1
  5
12D
 10
267.049886
 20
350.717491
 30
0.0
 11
267.049886
 21
350.717491
 31
0.0
  0
LINE
  8
LC-001-002-----0
 62
     1
  5
12E
 10
268.547821
 20
322.715389
 30
0.0
 11
268.547826
 21
321.715389
 31
0.0
  0
ARC
  8
LC-001-002-----0
 62
     1
  5
12F
 10
267.047821
 20
322.715382
 30
0.0
 40
1.5
 50
0.000267
 51
90.000267
  0
LINE
  8
LC-001-002-----0
 62
     1
  5
130
 10
267.047814
 20
324.215382
 30
0.0
 11
267.047814
 21
324.215382
 31
0.0
  0
LINE
  8
LC-007-001-----0
 62
     2
  5
132
 10
250.547753
 20
337.467328
 30
0.0
 11
265.050018
 21
337.467473
 31
0.0
  0
DIMENSION
  8
LC-003-003-----0
 62
     2
  5
14C
  2
*D8
 10
343.178132
 20
311.592704
 30
0.0
 11
343.178132
 21
311.592704
 31
0.0
  1
52
 13
286.300018
 23
337.467671
 33
0.0
 14
293.5505
 24
285.717738
 34
0.0
 50
90.0
  3
LC-DIM-L-0140-02-02
  0
DIMENSION
  8
LC-003-003-----0
 62
     2
  5
166
  2
*D9
 10
289.0505
 20
206.118
 30
0.0
 11
289.0505
 21
206.118
 31
0.0
  1
%%c9-14
 13
284.5505
 23
285.717654
 33
0.0
 14
293.5505
 24
285.717738
 34
0.0
  3
LC-DIM-L-0140-02-02
  0
ENDSEC
  0
EOF
