  0
SECTION
  2
HEADER
  9
$ACADVER
  1
AC1009
  9
$INSBASE
 10
0.0
 20
0.0
 30
0.0
  9
$EXTMIN
 10
0.0
 20
0.0
 30
0.0
  9
$EXTMAX
 10
840.0
 20
594.0
 30
0.0
  9
$LIMMIN
 10
0.0
 20
0.0
  9
$LIMMAX
 10
840.0
 20
594.0
  9
$ORTHOMODE
 70
     0
  9
$REGENMODE
 70
     1
  9
$FILLMODE
 70
     1
  9
$QTEXTMODE
 70
     0
  9
$MIRRTEXT
 70
     1
  9
$DRAGMODE
 70
     2
  9
$LTSCALE
 40
2.0
  9
$OSMODE
 70
     0
  9
$ATTMODE
 70
     1
  9
$TEXTSIZE
 40
0.2
  9
$TRACEWID
 40
0.05
  9
$TEXTSTYLE
  7
STANDARD
  9
$CLAYER
  8
0
  9
$CELTYPE
  6
BYLAYER
  9
$CECOLOR
 62
     7
  9
$DIMSCALE
 40
2.0
  9
$DIMASZ
 40
3.5
  9
$DIMEXO
 40
0.0625
  9
$DIMDLI
 40
0.38
  9
$DIMRND
 40
0.0
  9
$DIMDLE
 40
0.0
  9
$DIMEXE
 40
0.18
  9
$DIMTP
 40
0.0
  9
$DIMTM
 40
0.0
  9
$DIMTXT
 40
3.5
  9
$DIMCEN
 40
0.09
  9
$DIMTSZ
 40
0.0
  9
$DIMTOL
 70
     0
  9
$DIMLIM
 70
     0
  9
$DIMTIH
 70
     1
  9
$DIMTOH
 70
     1
  9
$DIMSE1
 70
     0
  9
$DIMSE2
 70
     0
  9
$DIMTAD
 70
     1
  9
$DIMZIN
 70
     0
  9
$DIMBLK
  1

  9
$DIMASO
 70
     1
  9
$DIMSHO
 70
     1
  9
$DIMPOST
  1

  9
$DIMAPOST
  1

  9
$DIMALT
 70
     0
  9
$DIMALTD
 70
     2
  9
$DIMALTF
 40
25.4
  9
$DIMLFAC
 40
1.0
  9
$DIMTOFL
 70
     0
  9
$DIMTVP
 40
0.0
  9
$DIMTIX
 70
     0
  9
$DIMSOXD
 70
     0
  9
$DIMSAH
 70
     0
  9
$DIMBLK1
  1

  9
$DIMBLK2
  1

  9
$DIMSTYLE
  2
STANDARD
  9
$DIMCLRD
 70
     0
  9
$DIMCLRE
 70
     0
  9
$DIMCLRT
 70
     0
  9
$DIMTFAC
 40
1.0
  9
$DIMGAP
 40
0.09
  9
$LUNITS
 70
     2
  9
$LUPREC
 70
     2
  9
$AXISMODE
 70
     0
  9
$AXISUNIT
 10
0.0
 20
0.0
  9
$SKETCHINC
 40
0.1
  9
$FILLETRAD
 40
0.0
  9
$AUNITS
 70
     0
  9
$AUPREC
 70
     0
  9
$MENU
  1
acad
  9
$ELEVATION
 40
0.0
  9
$PELEVATION
 40
0.0
  9
$THICKNESS
 40
0.0
  9
$LIMCHECK
 70
     0
  9
$BLIPMODE
 70
     1
  9
$CHAMFERA
 40
0.0
  9
$CHAMFERB
 40
0.0
  9
$SKPOLY
 70
     0
  9
$TDCREATE
 40
0.000000000
  9
$TDUPDATE
 40
0.000000000
  9
$TDINDWG
 40
0.0000000000
  9
$TDUSRTIMER
 40
0.0000000000
  9
$USRTIMER
 70
     1
  9
$ANGBASE
 50
0.0
  9
$ANGDIR
 70
     0
  9
$PDMODE
 70
     0
  9
$PDSIZE
 40
0.0
  9
$PLINEWID
 40
0.0
  9
$COORDS
 70
     0
  9
$SPLFRAME
 70
     0
  9
$SPLINETYPE
 70
     6
  9
$SPLINESEGS
 70
     8
  9
$ATTDIA
 70
     0
  9
$ATTREQ
 70
     1
  9
$HANDLING
 70
     1
  9
$HANDSEED
  5
1C2
  9
$SURFTAB1
 70
     6
  9
$SURFTAB2
 70
     6
  9
$SURFTYPE
 70
     6
  9
$SURFU
 70
     6
  9
$SURFV
 70
     6
  9
$UCSNAME
  2

  9
$UCSORG
 10
0.0
 20
0.0
 30
0.0
  9
$UCSXDIR
 10
1.0
 20
0.0
 30
0.0
  9
$UCSYDIR
 10
0.0
 20
1.0
 30
0.0
  9
$PUCSNAME
  2

  9
$PUCSORG
 10
0.0
 20
0.0
 30
0.0
  9
$PUCSXDIR
 10
1.0
 20
0.0
 30
0.0
  9
$PUCSYDIR
 10
0.0
 20
1.0
 30
0.0
  9
$USERI1
 70
     0
  9
$USERI2
 70
     0
  9
$USERI3
 70
     0
  9
$USERI4
 70
     0
  9
$USERI5
 70
     0
  9
$USERR1
 40
0.0
  9
$USERR2
 40
0.0
  9
$USERR3
 40
0.0
  9
$USERR4
 40
0.0
  9
$USERR5
 40
0.0
  9
$WORLDVIEW
 70
     1
  9
$SHADEDGE
 70
     3
  9
$SHADEDIF
 70
    70
  9
$TILEMODE
 70
     1
  9
$MAXACTVP
 70
    16
  9
$PINSBASE
 10
0.0
 20
0.0
 30
0.0
  9
$PLIMCHECK
 70
     0
  9
$PEXTMIN
 10
1.000000E+20
 20
1.000000E+20
 30
1.000000E+20
  9
$PEXTMAX
 10
-1.000000E+20
 20
-1.000000E+20
 30
-1.000000E+20
  9
$PLIMMIN
 10
0.0
 20
0.0
  9
$PLIMMAX
 10
840.0
 20
594.0
  9
$UNITMODE
 70
     0
  9
$VISRETAIN
 70
     0
  9
$PLINEGEN
 70
     1
  9
$PSLTSCALE
 70
     0
  9
$TREEDEPTH
 70
  3020
  9
$DWGCODEPAGE
  3
dos850
  0
ENDSEC
  0
SECTION
  2
TABLES
  0
TABLE
  2
VPORT
 70
     1
  0
VPORT
  2
*ACTIVE
 70
     0
 10
0.0
 20
0.0
 11
1.0
 21
1.0
 12
420.0
 22
297.0
 13
0.0
 23
0.0
 14
1.0
 24
1.0
 15
0.0
 25
0.0
 16
0.0
 26
0.0
 36
1.0
 17
0.0
 27
0.0
 37
0.0
 40
594.0
 41
1.604229
 42
50.0
 43
0.0
 44
0.0
 50
0.0
 51
0.0
 71
     0
 72
   100
 73
     1
 74
     1
 75
     0
 76
     0
 77
     0
 78
     0
  0
ENDTAB
  0
TABLE
  2
LTYPE
 70
     2
  0
LTYPE
  2
CONTINUOUS
 70
    64
  3
Solid line
 72
    65
 73
     0
 40
0.0
  0
LTYPE
  2
DASHDOT
 70
    64
  3
__ . __ . __ . __ . __
 72
    65
 73
     4
 40
7.5
 49
5.0
 49
-1.25
 49
0.0
 49
-1.25
  0
ENDTAB
  0
TABLE
  2
LAYER
 70
    11
  0
LAYER
  2
0
 70
     0
 62
     7
  6
CONTINUOUS
  0
LAYER
  2
LC-INFO-1-2-MM-A3-0
 70
     1
 62
    -1
  6
CONTINUOUS
  0
LAYER
  2
LC-002-005-----0
 70
     0
 62
     2
  6
CONTINUOUS
  0
LAYER
  2
LC-005-003-MTH-0
 70
     0
 62
     2
  6
CONTINUOUS
  0
LAYER
  2
LC-004-003-----0
 70
     0
 62
     2
  6
CONTINUOUS
  0
LAYER
  2
LC-006-003-MTG-0
 70
     0
 62
     2
  6
CONTINUOUS
  0
LAYER
  2
LC-008-000-----0
 70
     0
 62
     7
  6
CONTINUOUS
  0
LAYER
  2
LC-001-002-----0
 70
     0
 62
     2
  6
DASHDOT
  0
LAYER
  2
LC-003-002-RND-0
 70
     0
 62
     1
  6
CONTINUOUS
  0
LAYER
  2
LC-007-001-----0
 70
     0
 62
     1
  6
CONTINUOUS
  0
LAYER
  2
LC-000
 70
     0
 62
     7
  6
CONTINUOUS
  0
ENDTAB
  0
TABLE
  2
STYLE
 70
     4
  0
STYLE
  2
STANDARD
 70
     0
 40
0.0
 41
1.0
 50
0.0
 71
     0
 42
0.0
  3
txt
  4

  0
STYLE
  2
LC-STANDARD
 70
    64
 40
0.0
 41
1.0
 50
0.0
 71
     0
 42
3.5
  3
MONOTXT
  4

  0
STYLE
  2
LC-TXTSTYLE-150-400-0-0-D2
 70
    64
 40
0.0
 41
1.0
 50
15.0
 71
     0
 42
3.5
  3
MONOTXT
  4

  0
STYLE
  2
LC-TXTSTYLE-150-400-0-0-D3
 70
    64
 40
0.0
 41
1.0
 50
15.0
 71
     0
 42
3.5
  3
LC-STANDARD
  4

  0
ENDTAB
  0
TABLE
  2
VIEW
 70
     0
  0
ENDTAB
  0
TABLE
  2
UCS
 70
     0
  0
ENDTAB
  0
TABLE
  2
APPID
 70
     1
  0
APPID
  2
ACAD
 70
     0
  0
ENDTAB
  0
TABLE
  2
DIMSTYLE
 70
     3
  0
DIMSTYLE
  2
STANDARD
 70
     0
  3

  4

  5

  6

  7

 40
1.0
 41
0.18
 42
0.0625
 43
0.38
 44
0.18
 45
0.0
 46
0.0
 47
0.0
 48
0.0
 71
     0
 72
     0
 73
     1
 74
     1
 75
     0
 76
     0
 77
     0
 78
     0
140
0.18
141
0.09
142
0.0
143
25.4
144
1.0
145
0.0
146
1.0
147
0.09
170
     0
171
     2
172
     0
173
     0
174
     0
175
     0
176
     0
177
     0
178
     0
  0
DIMSTYLE
  2
LC-STANDARD
 70
     0
  3

  4

  5

  6

  7

 40
1.0
 41
3.5
 42
0.0
 43
7.5
 44
1.8
 45
0.0
 46
0.0
 47
0.0
 48
0.0
 71
     0
 72
     0
 73
     0
 74
     0
 75
     0
 76
     0
 77
     1
 78
     8
140
3.5
141
0.0
142
0.0
143
25.4
144
1.0
145
0.0
146
0.71
147
1.5
170
     0
171
     2
172
     1
173
     0
174
     0
175
     0
176
     0
177
     0
178
     3
  0
DIMSTYLE
  2
LC-DIM-L-0090-02-02
 70
     0
  3

  4

  5

  6

  7

 40
2.0
 41
3.5
 42
0.0
 43
7.5
 44
1.8
 45
0.0
 46
0.0
 47
0.0
 48
0.0
 71
     0
 72
     0
 73
     0
 74
     0
 75
     0
 76
     0
 77
     1
 78
     8
140
9.0
141
0.0
142
0.0
143
25.4
144
1.0
145
0.0
146
0.71
147
1.5
170
     0
171
     2
172
     0
173
     0
174
     0
175
     0
176
     2
177
     2
178
     6
  0
ENDTAB
  0
ENDSEC
  0
SECTION
  2
BLOCKS
  0
BLOCK
  8
0
  5
23
  2
*X0
 70
    65
 10
317.136546
 20
293.589285
 30
0.0
  3
*X0
  0
LINE
  8
LC-002-005-----0
  6
CONTINUOUS
  5
25
 10
321.136546
 20
295.460567
 30
0.0
 11
321.007828
 21
295.589285
 31
0.0
  0
LINE
  8
LC-002-005-----0
  6
CONTINUOUS
  5
26
 10
321.136546
 20
294.046353
 30
0.0
 11
319.593615
 21
295.589285
 31
0.0
  0
LINE
  8
LC-002-005-----0
  6
CONTINUOUS
  5
27
 10
320.179401
 20
293.589285
 30
0.0
 11
318.179401
 21
295.589285
 31
0.0
  0
LINE
  8
LC-002-005-----0
  6
CONTINUOUS
  5
28
 10
318.765188
 20
293.589285
 30
0.0
 11
317.136546
 21
295.217926
 31
0.0
  0
LINE
  8
LC-002-005-----0
  6
CONTINUOUS
  5
29
 10
317.350974
 20
293.589285
 30
0.0
 11
317.136546
 21
293.803713
 31
0.0
  0
ENDBLK
  8
0
  5
2A
  0
BLOCK
  8
0
  5
2C
  2
*D1
 70
    65
 10
0.0
 20
0.0
 30
0.0
  3
*D1
  0
LINE
  8
LC-005-003-MTH-0
  6
CONTINUOUS
  5
2E
 10
317.636546
 20
156.089285
 30
0.0
 11
317.636546
 21
101.2
 31
0.0
  0
LINE
  8
LC-005-003-MTH-0
  6
CONTINUOUS
  5
2F
 10
367.636546
 20
156.089285
 30
0.0
 11
367.636546
 21
101.2
 31
0.0
  0
LINE
  8
LC-004-003-----0
  6
CONTINUOUS
  5
31
 10
299.790539
 20
109.650529
 30
0.0
 11
317.636546
 21
112.0
 31
0.0
  0
LINE
  8
LC-004-003-----0
  6
CONTINUOUS
  5
32
 10
317.636546
 20
112.0
 30
0.0
 11
299.790539
 21
114.349471
 31
0.0
  0
LINE
  8
LC-004-003-----0
  6
CONTINUOUS
  5
33
 10
299.790539
 20
114.349471
 30
0.0
 11
299.790539
 21
109.650529
 31
0.0
  0
LINE
  8
LC-004-003-----0
  6
CONTINUOUS
  5
34
 10
299.750501
 20
110.261391
 30
0.0
 11
312.956546
 21
112.0
 31
0.0
  0
LINE
  8
LC-004-003-----0
  6
CONTINUOUS
  5
35
 10
312.956546
 20
112.0
 30
0.0
 11
299.750501
 21
113.738609
 31
0.0
  0
LINE
  8
LC-004-003-----0
  6
CONTINUOUS
  5
36
 10
299.710463
 20
110.872254
 30
0.0
 11
308.276546
 21
112.0
 31
0.0
  0
LINE
  8
LC-004-003-----0
  6
CONTINUOUS
  5
37
 10
308.276546
 20
112.0
 30
0.0
 11
299.710463
 21
113.127746
 31
0.0
  0
LINE
  8
LC-004-003-----0
  6
CONTINUOUS
  5
38
 10
299.670425
 20
111.483116
 30
0.0
 11
303.596546
 21
112.0
 31
0.0
  0
LINE
  8
LC-004-003-----0
  6
CONTINUOUS
  5
39
 10
303.596546
 20
112.0
 30
0.0
 11
299.670425
 21
112.516884
 31
0.0
  0
LINE
  8
LC-004-003-----0
  6
CONTINUOUS
  5
3A
 10
385.482554
 20
114.349471
 30
0.0
 11
367.636546
 21
112.0
 31
0.0
  0
LINE
  8
LC-004-003-----0
  6
CONTINUOUS
  5
3B
 10
367.636546
 20
112.0
 30
0.0
 11
385.482554
 21
109.650529
 31
0.0
  0
LINE
  8
LC-004-003-----0
  6
CONTINUOUS
  5
3C
 10
385.482554
 20
109.650529
 30
0.0
 11
385.482554
 21
114.349471
 31
0.0
  0
LINE
  8
LC-004-003-----0
  6
CONTINUOUS
  5
3D
 10
385.522592
 20
113.738609
 30
0.0
 11
372.316546
 21
112.0
 31
0.0
  0
LINE
  8
LC-004-003-----0
  6
CONTINUOUS
  5
3E
 10
372.316546
 20
112.0
 30
0.0
 11
385.522592
 21
110.261391
 31
0.0
  0
LINE
  8
LC-004-003-----0
  6
CONTINUOUS
  5
3F
 10
385.56263
 20
113.127746
 30
0.0
 11
376.996546
 21
112.0
 31
0.0
  0
LINE
  8
LC-004-003-----0
  6
CONTINUOUS
  5
40
 10
376.996546
 20
112.0
 30
0.0
 11
385.56263
 21
110.872254
 31
0.0
  0
LINE
  8
LC-004-003-----0
  6
CONTINUOUS
  5
41
 10
385.602668
 20
112.516884
 30
0.0
 11
381.676546
 21
112.0
 31
0.0
  0
LINE
  8
LC-004-003-----0
  6
CONTINUOUS
  5
42
 10
381.676546
 20
112.0
 30
0.0
 11
385.602668
 21
111.483116
 31
0.0
  0
LINE
  8
LC-006-003-MTG-0
  6
CONTINUOUS
  5
44
 10
292.436546
 20
112.0
 30
0.0
 11
458.039066
 21
112.0
 31
0.0
  0
TEXT
  8
LC-004-003-----0
  6
CONTINUOUS
 62
     6
  5
46
 10
394.911792
 20
122.431999
 30
0.0
 40
18.0
  1
DN50
 41
0.9
 51
15.0
  7
LC-TXTSTYLE-150-400-0-0-D0
  0
ENDBLK
  8
0
  5
47
  0
BLOCK
  8
0
  5
49
  2
*X2
 70
    65
 10
312.136546
 20
287.877532
 30
0.0
  3
*X2
  0
LINE
  8
LC-002-005-----0
  6
CONTINUOUS
  5
4A
 10
315.386546
 20
304.038994
 30
0.0
 11
314.048008
 21
305.377532
 31
0.0
  0
LINE
  8
LC-002-005-----0
  6
CONTINUOUS
  5
4B
 10
315.386546
 20
301.210567
 30
0.0
 11
313.636546
 21
302.960567
 31
0.0
  0
LINE
  8
LC-002-005-----0
  6
CONTINUOUS
  5
4C
 10
312.719581
 20
303.877532
 30
0.0
 11
312.136546
 21
304.460567
 31
0.0
  0
LINE
  8
LC-002-005-----0
  6
CONTINUOUS
  5
4D
 10
315.386546
 20
298.38214
 30
0.0
 11
313.636546
 21
300.13214
 31
0.0
  0
LINE
  8
LC-002-005-----0
  6
CONTINUOUS
  5
4E
 10
315.386546
 20
295.553713
 30
0.0
 11
313.636546
 21
297.303713
 31
0.0
  0
LINE
  8
LC-002-005-----0
  6
CONTINUOUS
  5
4F
 10
315.386546
 20
292.725285
 30
0.0
 11
313.636546
 21
294.475285
 31
0.0
  0
LINE
  8
LC-002-005-----0
  6
CONTINUOUS
  5
50
 10
316.939372
 20
288.344032
 30
0.0
 11
315.655873
 21
289.627532
 31
0.0
  0
LINE
  8
LC-002-005-----0
  6
CONTINUOUS
  5
51
 10
315.386546
 20
289.896858
 30
0.0
 11
313.636546
 21
291.646858
 31
0.0
  0
ENDBLK
  8
0
  5
52
  0
BLOCK
  8
0
  5
54
  2
*X3
 70
    65
 10
295.471883
 20
273.407772
 30
0.0
  3
*X3
  0
LINE
  8
LC-002-005-----0
  6
CONTINUOUS
  5
55
 10
318.974087
 20
273.719253
 30
0.0
 11
320.136546
 21
274.881712
 31
0.0
  0
LINE
  8
LC-002-005-----0
  6
CONTINUOUS
  5
56
 10
316.743378
 20
274.316971
 30
0.0
 11
320.136546
 21
277.71014
 31
0.0
  0
LINE
  8
LC-002-005-----0
  6
CONTINUOUS
  5
57
 10
314.512669
 20
274.914689
 30
0.0
 11
316.962158
 21
277.364178
 31
0.0
  0
LINE
  8
LC-002-005-----0
  6
CONTINUOUS
  5
58
 10
317.636546
 20
278.038567
 30
0.0
 11
320.136546
 21
280.538567
 31
0.0
  0
LINE
  8
LC-002-005-----0
  6
CONTINUOUS
  5
59
 10
312.28196
 20
275.512407
 30
0.0
 11
314.731449
 21
277.961896
 31
0.0
  0
LINE
  8
LC-002-005-----0
  6
CONTINUOUS
  5
5A
 10
317.636546
 20
280.866994
 30
0.0
 11
320.136546
 21
283.366994
 31
0.0
  0
LINE
  8
LC-002-005-----0
  6
CONTINUOUS
  5
5B
 10
310.051251
 20
276.110126
 30
0.0
 11
312.50074
 21
278.559614
 31
0.0
  0
LINE
  8
LC-002-005-----0
  6
CONTINUOUS
  5
5C
 10
317.636546
 20
283.695421
 30
0.0
 11
320.136546
 21
286.195421
 31
0.0
  0
LINE
  8
LC-002-005-----0
  6
CONTINUOUS
  5
5D
 10
307.820542
 20
276.707844
 30
0.0
 11
311.494775
 21
280.382077
 31
0.0
  0
LINE
  8
LC-002-005-----0
  6
CONTINUOUS
  5
5E
 10
317.636546
 20
286.523848
 30
0.0
 11
320.136546
 21
289.023848
 31
0.0
  0
LINE
  8
LC-002-005-----0
  6
CONTINUOUS
  5
5F
 10
305.589833
 20
277.305562
 30
0.0
 11
309.264066
 21
280.979795
 31
0.0
  0
LINE
  8
LC-002-005-----0
  6
CONTINUOUS
  5
60
 10
317.636546
 20
289.352275
 30
0.0
 11
320.136546
 21
291.852275
 31
0.0
  0
LINE
  8
LC-002-005-----0
  6
CONTINUOUS
  5
61
 10
303.359124
 20
277.90328
 30
0.0
 11
307.033358
 21
281.577513
 31
0.0
  0
LINE
  8
LC-002-005-----0
  6
CONTINUOUS
  5
62
 10
316.636546
 20
291.180702
 30
0.0
 11
318.545129
 21
293.089285
 31
0.0
  0
LINE
  8
LC-002-005-----0
  6
CONTINUOUS
  5
63
 10
301.128415
 20
278.500998
 30
0.0
 11
304.802649
 21
282.175232
 31
0.0
  0
LINE
  8
LC-002-005-----0
  6
CONTINUOUS
  5
64
 10
298.897706
 20
279.098717
 30
0.0
 11
302.57194
 21
282.77295
 31
0.0
  0
LINE
  8
LC-002-005-----0
  6
CONTINUOUS
  5
65
 10
296.666998
 20
279.696435
 30
0.0
 11
300.341231
 21
283.370668
 31
0.0
  0
LINE
  8
LC-002-005-----0
  6
CONTINUOUS
  5
66
 10
295.952506
 20
281.810371
 30
0.0
 11
298.110522
 21
283.968386
 31
0.0
  0
ENDBLK
  8
0
  5
67
  0
BLOCK
  8
0
  5
69
  2
*X4
 70
    65
 10
365.136546
 20
153.589285
 30
0.0
  3
*X4
  0
LINE
  8
LC-002-005-----0
  6
CONTINUOUS
  5
6A
 10
365.136546
 20
155.832939
 30
0.0
 11
367.636546
 21
158.332939
 31
0.0
  0
LINE
  8
LC-002-005-----0
  6
CONTINUOUS
  5
6B
 10
365.136546
 20
158.661366
 30
0.0
 11
367.636546
 21
161.161366
 31
0.0
  0
LINE
  8
LC-002-005-----0
  6
CONTINUOUS
  5
6C
 10
365.136546
 20
161.489793
 30
0.0
 11
367.636546
 21
163.989793
 31
0.0
  0
LINE
  8
LC-002-005-----0
  6
CONTINUOUS
  5
6D
 10
365.136546
 20
164.318221
 30
0.0
 11
367.636546
 21
166.818221
 31
0.0
  0
LINE
  8
LC-002-005-----0
  6
CONTINUOUS
  5
6E
 10
365.136546
 20
167.146648
 30
0.0
 11
367.636546
 21
169.646648
 31
0.0
  0
LINE
  8
LC-002-005-----0
  6
CONTINUOUS
  5
6F
 10
365.136546
 20
169.975075
 30
0.0
 11
367.636546
 21
172.475075
 31
0.0
  0
LINE
  8
LC-002-005-----0
  6
CONTINUOUS
  5
70
 10
365.136546
 20
172.803502
 30
0.0
 11
367.636546
 21
175.303502
 31
0.0
  0
LINE
  8
LC-002-005-----0
  6
CONTINUOUS
  5
71
 10
365.136546
 20
175.631929
 30
0.0
 11
367.636546
 21
178.131929
 31
0.0
  0
LINE
  8
LC-002-005-----0
  6
CONTINUOUS
  5
72
 10
365.136546
 20
178.460356
 30
0.0
 11
367.636546
 21
180.960356
 31
0.0
  0
LINE
  8
LC-002-005-----0
  6
CONTINUOUS
  5
73
 10
365.136546
 20
181.288783
 30
0.0
 11
367.636546
 21
183.788783
 31
0.0
  0
LINE
  8
LC-002-005-----0
  6
CONTINUOUS
  5
74
 10
365.136546
 20
184.11721
 30
0.0
 11
367.636546
 21
186.61721
 31
0.0
  0
LINE
  8
LC-002-005-----0
  6
CONTINUOUS
  5
75
 10
365.136546
 20
186.945638
 30
0.0
 11
367.636546
 21
189.445638
 31
0.0
  0
LINE
  8
LC-002-005-----0
  6
CONTINUOUS
  5
76
 10
365.136546
 20
189.774065
 30
0.0
 11
367.636546
 21
192.274065
 31
0.0
  0
LINE
  8
LC-002-005-----0
  6
CONTINUOUS
  5
77
 10
365.136546
 20
192.602492
 30
0.0
 11
367.636546
 21
195.102492
 31
0.0
  0
LINE
  8
LC-002-005-----0
  6
CONTINUOUS
  5
78
 10
365.136546
 20
195.430919
 30
0.0
 11
367.636546
 21
197.930919
 31
0.0
  0
LINE
  8
LC-002-005-----0
  6
CONTINUOUS
  5
79
 10
365.136546
 20
198.259346
 30
0.0
 11
367.636546
 21
200.759346
 31
0.0
  0
LINE
  8
LC-002-005-----0
  6
CONTINUOUS
  5
7A
 10
365.136546
 20
201.087773
 30
0.0
 11
367.636546
 21
203.587773
 31
0.0
  0
LINE
  8
LC-002-005-----0
  6
CONTINUOUS
  5
7B
 10
365.136546
 20
203.9162
 30
0.0
 11
367.636546
 21
206.4162
 31
0.0
  0
LINE
  8
LC-002-005-----0
  6
CONTINUOUS
  5
7C
 10
365.136546
 20
206.744627
 30
0.0
 11
367.636546
 21
209.244627
 31
0.0
  0
LINE
  8
LC-002-005-----0
  6
CONTINUOUS
  5
7D
 10
365.136546
 20
209.573055
 30
0.0
 11
367.636546
 21
212.073055
 31
0.0
  0
LINE
  8
LC-002-005-----0
  6
CONTINUOUS
  5
7E
 10
365.136546
 20
212.401482
 30
0.0
 11
367.636546
 21
214.901482
 31
0.0
  0
LINE
  8
LC-002-005-----0
  6
CONTINUOUS
  5
7F
 10
365.136546
 20
215.229909
 30
0.0
 11
367.636546
 21
217.729909
 31
0.0
  0
LINE
  8
LC-002-005-----0
  6
CONTINUOUS
  5
80
 10
365.136546
 20
218.058336
 30
0.0
 11
367.636546
 21
220.558336
 31
0.0
  0
LINE
  8
LC-002-005-----0
  6
CONTINUOUS
  5
81
 10
365.136546
 20
220.886763
 30
0.0
 11
367.636546
 21
223.386763
 31
0.0
  0
LINE
  8
LC-002-005-----0
  6
CONTINUOUS
  5
82
 10
365.136546
 20
223.71519
 30
0.0
 11
367.636546
 21
226.21519
 31
0.0
  0
LINE
  8
LC-002-005-----0
  6
CONTINUOUS
  5
83
 10
365.136546
 20
226.543617
 30
0.0
 11
367.636546
 21
229.043617
 31
0.0
  0
LINE
  8
LC-002-005-----0
  6
CONTINUOUS
  5
84
 10
365.136546
 20
229.372044
 30
0.0
 11
367.636546
 21
231.872044
 31
0.0
  0
LINE
  8
LC-002-005-----0
  6
CONTINUOUS
  5
85
 10
365.136546
 20
232.200472
 30
0.0
 11
367.636546
 21
234.700472
 31
0.0
  0
LINE
  8
LC-002-005-----0
  6
CONTINUOUS
  5
86
 10
365.136546
 20
235.028899
 30
0.0
 11
367.636546
 21
237.528899
 31
0.0
  0
LINE
  8
LC-002-005-----0
  6
CONTINUOUS
  5
87
 10
365.136546
 20
237.857326
 30
0.0
 11
367.636546
 21
240.357326
 31
0.0
  0
LINE
  8
LC-002-005-----0
  6
CONTINUOUS
  5
88
 10
365.136546
 20
240.685753
 30
0.0
 11
367.636546
 21
243.185753
 31
0.0
  0
LINE
  8
LC-002-005-----0
  6
CONTINUOUS
  5
89
 10
365.136546
 20
243.51418
 30
0.0
 11
367.636546
 21
246.01418
 31
0.0
  0
LINE
  8
LC-002-005-----0
  6
CONTINUOUS
  5
8A
 10
365.136546
 20
246.342607
 30
0.0
 11
367.636546
 21
248.842607
 31
0.0
  0
LINE
  8
LC-002-005-----0
  6
CONTINUOUS
  5
8B
 10
365.136546
 20
249.171034
 30
0.0
 11
367.636546
 21
251.671034
 31
0.0
  0
LINE
  8
LC-002-005-----0
  6
CONTINUOUS
  5
8C
 10
365.136546
 20
251.999461
 30
0.0
 11
367.636546
 21
254.499461
 31
0.0
  0
LINE
  8
LC-002-005-----0
  6
CONTINUOUS
  5
8D
 10
365.136546
 20
254.827889
 30
0.0
 11
367.636546
 21
257.327889
 31
0.0
  0
LINE
  8
LC-002-005-----0
  6
CONTINUOUS
  5
8E
 10
365.136546
 20
257.656316
 30
0.0
 11
367.636546
 21
260.156316
 31
0.0
  0
LINE
  8
LC-002-005-----0
  6
CONTINUOUS
  5
8F
 10
365.136546
 20
260.484743
 30
0.0
 11
367.636546
 21
262.984743
 31
0.0
  0
LINE
  8
LC-002-005-----0
  6
CONTINUOUS
  5
90
 10
365.136546
 20
263.31317
 30
0.0
 11
367.636546
 21
265.81317
 31
0.0
  0
LINE
  8
LC-002-005-----0
  6
CONTINUOUS
  5
91
 10
365.136546
 20
266.141597
 30
0.0
 11
367.636546
 21
268.641597
 31
0.0
  0
LINE
  8
LC-002-005-----0
  6
CONTINUOUS
  5
92
 10
365.136546
 20
268.970024
 30
0.0
 11
367.636546
 21
271.470024
 31
0.0
  0
LINE
  8
LC-002-005-----0
  6
CONTINUOUS
  5
93
 10
365.136546
 20
271.798451
 30
0.0
 11
367.636546
 21
274.298451
 31
0.0
  0
LINE
  8
LC-002-005-----0
  6
CONTINUOUS
  5
94
 10
365.136546
 20
274.626878
 30
0.0
 11
367.636546
 21
277.126878
 31
0.0
  0
LINE
  8
LC-002-005-----0
  6
CONTINUOUS
  5
95
 10
365.136546
 20
277.455306
 30
0.0
 11
367.636546
 21
279.955306
 31
0.0
  0
LINE
  8
LC-002-005-----0
  6
CONTINUOUS
  5
96
 10
365.136546
 20
280.283733
 30
0.0
 11
367.636546
 21
282.783733
 31
0.0
  0
LINE
  8
LC-002-005-----0
  6
CONTINUOUS
  5
97
 10
365.136546
 20
283.11216
 30
0.0
 11
367.636546
 21
285.61216
 31
0.0
  0
LINE
  8
LC-002-005-----0
  6
CONTINUOUS
  5
98
 10
365.136546
 20
285.940587
 30
0.0
 11
367.636546
 21
288.440587
 31
0.0
  0
LINE
  8
LC-002-005-----0
  6
CONTINUOUS
  5
99
 10
365.136546
 20
288.769014
 30
0.0
 11
368.524838
 21
292.157305
 31
0.0
  0
LINE
  8
LC-002-005-----0
  6
CONTINUOUS
  5
9A
 10
365.136546
 20
291.597441
 30
0.0
 11
366.62839
 21
293.089285
 31
0.0
  0
ENDBLK
  8
0
  5
9B
  0
BLOCK
  8
0
  5
9D
  2
*X5
 70
    65
 10
288.095522
 20
153.589285
 30
0.0
  3
*X5
  0
LINE
  8
LC-002-005-----0
  6
CONTINUOUS
  5
9E
 10
318.887302
 20
154.838529
 30
0.0
 11
320.136546
 21
156.087773
 31
0.0
  0
LINE
  8
LC-002-005-----0
  6
CONTINUOUS
  5
9F
 10
317.636546
 20
156.4162
 30
0.0
 11
320.136546
 21
158.9162
 31
0.0
  0
LINE
  8
LC-002-005-----0
  6
CONTINUOUS
  5
A0
 10
317.636546
 20
159.244627
 30
0.0
 11
320.136546
 21
161.744627
 31
0.0
  0
LINE
  8
LC-002-005-----0
  6
CONTINUOUS
  5
A1
 10
317.636546
 20
162.073055
 30
0.0
 11
320.136546
 21
164.573055
 31
0.0
  0
LINE
  8
LC-002-005-----0
  6
CONTINUOUS
  5
A2
 10
317.636546
 20
164.901482
 30
0.0
 11
320.136546
 21
167.401482
 31
0.0
  0
LINE
  8
LC-002-005-----0
  6
CONTINUOUS
  5
A3
 10
317.636546
 20
167.729909
 30
0.0
 11
320.136546
 21
170.229909
 31
0.0
  0
LINE
  8
LC-002-005-----0
  6
CONTINUOUS
  5
A4
 10
317.636546
 20
170.558336
 30
0.0
 11
320.136546
 21
173.058336
 31
0.0
  0
LINE
  8
LC-002-005-----0
  6
CONTINUOUS
  5
A5
 10
317.636546
 20
173.386763
 30
0.0
 11
320.136546
 21
175.886763
 31
0.0
  0
LINE
  8
LC-002-005-----0
  6
CONTINUOUS
  5
A6
 10
317.636546
 20
176.21519
 30
0.0
 11
320.136546
 21
178.71519
 31
0.0
  0
LINE
  8
LC-002-005-----0
  6
CONTINUOUS
  5
A7
 10
317.636546
 20
179.043617
 30
0.0
 11
320.136546
 21
181.543617
 31
0.0
  0
LINE
  8
LC-002-005-----0
  6
CONTINUOUS
  5
A8
 10
317.636546
 20
181.872044
 30
0.0
 11
320.136546
 21
184.372044
 31
0.0
  0
LINE
  8
LC-002-005-----0
  6
CONTINUOUS
  5
A9
 10
317.636546
 20
184.700472
 30
0.0
 11
320.136546
 21
187.200472
 31
0.0
  0
LINE
  8
LC-002-005-----0
  6
CONTINUOUS
  5
AA
 10
317.636546
 20
187.528899
 30
0.0
 11
320.136546
 21
190.028899
 31
0.0
  0
LINE
  8
LC-002-005-----0
  6
CONTINUOUS
  5
AB
 10
317.636546
 20
190.357326
 30
0.0
 11
320.136546
 21
192.857326
 31
0.0
  0
LINE
  8
LC-002-005-----0
  6
CONTINUOUS
  5
AC
 10
317.636546
 20
193.185753
 30
0.0
 11
320.136546
 21
195.685753
 31
0.0
  0
LINE
  8
LC-002-005-----0
  6
CONTINUOUS
  5
AD
 10
317.636546
 20
196.01418
 30
0.0
 11
320.136546
 21
198.51418
 31
0.0
  0
LINE
  8
LC-002-005-----0
  6
CONTINUOUS
  5
AE
 10
317.636546
 20
198.842607
 30
0.0
 11
320.136546
 21
201.342607
 31
0.0
  0
LINE
  8
LC-002-005-----0
  6
CONTINUOUS
  5
AF
 10
317.636546
 20
201.671034
 30
0.0
 11
320.136546
 21
204.171034
 31
0.0
  0
LINE
  8
LC-002-005-----0
  6
CONTINUOUS
  5
B0
 10
317.636546
 20
204.499461
 30
0.0
 11
320.136546
 21
206.999461
 31
0.0
  0
LINE
  8
LC-002-005-----0
  6
CONTINUOUS
  5
B1
 10
317.636546
 20
207.327889
 30
0.0
 11
320.136546
 21
209.827889
 31
0.0
  0
LINE
  8
LC-002-005-----0
  6
CONTINUOUS
  5
B2
 10
317.636546
 20
210.156316
 30
0.0
 11
320.136546
 21
212.656316
 31
0.0
  0
LINE
  8
LC-002-005-----0
  6
CONTINUOUS
  5
B3
 10
317.636546
 20
212.984743
 30
0.0
 11
320.136546
 21
215.484743
 31
0.0
  0
LINE
  8
LC-002-005-----0
  6
CONTINUOUS
  5
B4
 10
317.636546
 20
215.81317
 30
0.0
 11
320.136546
 21
218.31317
 31
0.0
  0
LINE
  8
LC-002-005-----0
  6
CONTINUOUS
  5
B5
 10
317.636546
 20
218.641597
 30
0.0
 11
320.136546
 21
221.141597
 31
0.0
  0
LINE
  8
LC-002-005-----0
  6
CONTINUOUS
  5
B6
 10
317.636546
 20
221.470024
 30
0.0
 11
320.136546
 21
223.970024
 31
0.0
  0
LINE
  8
LC-002-005-----0
  6
CONTINUOUS
  5
B7
 10
317.636546
 20
224.298451
 30
0.0
 11
320.136546
 21
226.798451
 31
0.0
  0
LINE
  8
LC-002-005-----0
  6
CONTINUOUS
  5
B8
 10
317.636546
 20
227.126878
 30
0.0
 11
320.136546
 21
229.626878
 31
0.0
  0
LINE
  8
LC-002-005-----0
  6
CONTINUOUS
  5
B9
 10
317.636546
 20
229.955306
 30
0.0
 11
320.136546
 21
232.455306
 31
0.0
  0
LINE
  8
LC-002-005-----0
  6
CONTINUOUS
  5
BA
 10
317.636546
 20
232.783733
 30
0.0
 11
320.136546
 21
235.283733
 31
0.0
  0
LINE
  8
LC-002-005-----0
  6
CONTINUOUS
  5
BB
 10
317.636546
 20
235.61216
 30
0.0
 11
320.136546
 21
238.11216
 31
0.0
  0
LINE
  8
LC-002-005-----0
  6
CONTINUOUS
  5
BC
 10
317.636546
 20
238.440587
 30
0.0
 11
320.136546
 21
240.940587
 31
0.0
  0
LINE
  8
LC-002-005-----0
  6
CONTINUOUS
  5
BD
 10
317.636546
 20
241.269014
 30
0.0
 11
320.136546
 21
243.769014
 31
0.0
  0
LINE
  8
LC-002-005-----0
  6
CONTINUOUS
  5
BE
 10
317.636546
 20
244.097441
 30
0.0
 11
320.136546
 21
246.597441
 31
0.0
  0
LINE
  8
LC-002-005-----0
  6
CONTINUOUS
  5
BF
 10
317.005068
 20
246.294389
 30
0.0
 11
318.63806
 21
247.927382
 31
0.0
  0
LINE
  8
LC-002-005-----0
  6
CONTINUOUS
  5
C0
 10
314.774359
 20
246.892108
 30
0.0
 11
316.407351
 21
248.5251
 31
0.0
  0
LINE
  8
LC-002-005-----0
  6
CONTINUOUS
  5
C1
 10
312.54365
 20
247.489826
 30
0.0
 11
314.176642
 21
249.122818
 31
0.0
  0
LINE
  8
LC-002-005-----0
  6
CONTINUOUS
  5
C2
 10
310.312941
 20
248.087544
 30
0.0
 11
311.945933
 21
249.720537
 31
0.0
  0
LINE
  8
LC-002-005-----0
  6
CONTINUOUS
  5
C3
 10
308.082232
 20
248.685262
 30
0.0
 11
309.715224
 21
250.318255
 31
0.0
  0
LINE
  8
LC-002-005-----0
  6
CONTINUOUS
  5
C4
 10
305.851523
 20
249.28298
 30
0.0
 11
307.484516
 21
250.915973
 31
0.0
  0
LINE
  8
LC-002-005-----0
  6
CONTINUOUS
  5
C5
 10
302.39607
 20
248.655954
 30
0.0
 11
305.253807
 21
251.513691
 31
0.0
  0
LINE
  8
LC-002-005-----0
  6
CONTINUOUS
  5
C6
 10
300.165361
 20
249.253672
 30
0.0
 11
303.023098
 21
252.111409
 31
0.0
  0
LINE
  8
LC-002-005-----0
  6
CONTINUOUS
  5
C7
 10
297.934652
 20
249.851391
 30
0.0
 11
300.792389
 21
252.709128
 31
0.0
  0
LINE
  8
LC-002-005-----0
  6
CONTINUOUS
  5
C8
 10
295.703943
 20
250.449109
 30
0.0
 11
298.56168
 21
253.306846
 31
0.0
  0
LINE
  8
LC-002-005-----0
  6
CONTINUOUS
  5
C9
 10
293.473234
 20
251.046827
 30
0.0
 11
296.330971
 21
253.904564
 31
0.0
  0
LINE
  8
LC-002-005-----0
  6
CONTINUOUS
  5
CA
 10
291.242525
 20
251.644545
 30
0.0
 11
294.100262
 21
254.502282
 31
0.0
  0
LINE
  8
LC-002-005-----0
  6
CONTINUOUS
  5
CB
 10
289.011816
 20
252.242264
 30
0.0
 11
291.869553
 21
255.100001
 31
0.0
  0
LINE
  8
LC-002-005-----0
  6
CONTINUOUS
  5
CC
 10
288.705547
 20
254.764422
 30
0.0
 11
289.638844
 21
255.697719
 31
0.0
  0
ENDBLK
  8
0
  5
CD
  0
BLOCK
  8
0
  5
CF
  2
*D6
 70
    65
 10
0.0
 20
0.0
 30
0.0
  3
*D6
  0
LINE
  8
LC-005-003-MTH-0
  6
CONTINUOUS
  5
D0
 10
365.136546
 20
153.589285
 30
0.0
 11
430.8
 21
153.589285
 31
0.0
  0
LINE
  8
LC-005-003-MTH-0
  6
CONTINUOUS
  5
D1
 10
373.136546
 20
305.377532
 30
0.0
 11
430.8
 21
305.377532
 31
0.0
  0
LINE
  8
LC-006-003-MTG-0
  6
CONTINUOUS
  5
D2
 10
420.0
 20
153.589285
 30
0.0
 11
420.0
 21
305.377532
 31
0.0
  0
LINE
  8
LC-004-003-----0
  6
CONTINUOUS
  5
D3
 10
417.650529
 20
171.435292
 30
0.0
 11
420.0
 21
153.589285
 31
0.0
  0
LINE
  8
LC-004-003-----0
  6
CONTINUOUS
  5
D4
 10
420.0
 20
153.589285
 30
0.0
 11
422.349471
 21
171.435292
 31
0.0
  0
LINE
  8
LC-004-003-----0
  6
CONTINUOUS
  5
D5
 10
422.349471
 20
171.435292
 30
0.0
 11
417.650529
 21
171.435292
 31
0.0
  0
LINE
  8
LC-004-003-----0
  6
CONTINUOUS
  5
D6
 10
418.261391
 20
171.47533
 30
0.0
 11
420.0
 21
158.269285
 31
0.0
  0
LINE
  8
LC-004-003-----0
  6
CONTINUOUS
  5
D7
 10
420.0
 20
158.269285
 30
0.0
 11
421.738609
 21
171.47533
 31
0.0
  0
LINE
  8
LC-004-003-----0
  6
CONTINUOUS
  5
D8
 10
418.872254
 20
171.515369
 30
0.0
 11
420.0
 21
162.949285
 31
0.0
  0
LINE
  8
LC-004-003-----0
  6
CONTINUOUS
  5
D9
 10
420.0
 20
162.949285
 30
0.0
 11
421.127746
 21
171.515369
 31
0.0
  0
LINE
  8
LC-004-003-----0
  6
CONTINUOUS
  5
DA
 10
419.483116
 20
171.555407
 30
0.0
 11
420.0
 21
167.629285
 31
0.0
  0
LINE
  8
LC-004-003-----0
  6
CONTINUOUS
  5
DB
 10
420.0
 20
167.629285
 30
0.0
 11
420.516884
 21
171.555407
 31
0.0
  0
LINE
  8
LC-004-003-----0
  6
CONTINUOUS
  5
DC
 10
422.349471
 20
287.531524
 30
0.0
 11
420.0
 21
305.377532
 31
0.0
  0
LINE
  8
LC-004-003-----0
  6
CONTINUOUS
  5
DD
 10
420.0
 20
305.377532
 30
0.0
 11
417.650529
 21
287.531524
 31
0.0
  0
LINE
  8
LC-004-003-----0
  6
CONTINUOUS
  5
DE
 10
417.650529
 20
287.531524
 30
0.0
 11
422.349471
 21
287.531524
 31
0.0
  0
LINE
  8
LC-004-003-----0
  6
CONTINUOUS
  5
DF
 10
421.738609
 20
287.491486
 30
0.0
 11
420.0
 21
300.697532
 31
0.0
  0
LINE
  8
LC-004-003-----0
  6
CONTINUOUS
  5
E0
 10
420.0
 20
300.697532
 30
0.0
 11
418.261391
 21
287.491486
 31
0.0
  0
LINE
  8
LC-004-003-----0
  6
CONTINUOUS
  5
E1
 10
421.127746
 20
287.451448
 30
0.0
 11
420.0
 21
296.017532
 31
0.0
  0
LINE
  8
LC-004-003-----0
  6
CONTINUOUS
  5
E2
 10
420.0
 20
296.017532
 30
0.0
 11
418.872254
 21
287.451448
 31
0.0
  0
LINE
  8
LC-004-003-----0
  6
CONTINUOUS
  5
E3
 10
420.516884
 20
287.41141
 30
0.0
 11
420.0
 21
291.337532
 31
0.0
  0
LINE
  8
LC-004-003-----0
  6
CONTINUOUS
  5
E4
 10
420.0
 20
291.337532
 30
0.0
 11
419.483116
 21
287.41141
 31
0.0
  0
TEXT
  8
LC-004-003-----0
  6
CONTINUOUS
 62
     6
  5
E5
 10
409.568001
 20
213.144796
 30
0.0
 40
18.0
  1
150
 50
90.0
 51
15.0
  7
LC-TXTSTYLE-150-400-0-0-D0
 72
     1
 11
409.568001
 21
232.278654
 31
0.0
  0
ENDBLK
  8
0
  5
E6
  0
BLOCK
  8
0
  5
E8
  2
*X7
 70
    65
 10
364.136546
 20
293.589285
 30
0.0
  3
*X7
  0
LINE
  8
LC-002-005-----0
  6
CONTINUOUS
  5
E9
 10
368.136546
 20
295.129614
 30
0.0
 11
367.676876
 21
295.589285
 31
0.0
  0
LINE
  8
LC-002-005-----0
  6
CONTINUOUS
  5
EA
 10
368.136546
 20
293.715401
 30
0.0
 11
366.262662
 21
295.589285
 31
0.0
  0
LINE
  8
LC-002-005-----0
  6
CONTINUOUS
  5
EB
 10
366.848449
 20
293.589285
 30
0.0
 11
364.848449
 21
295.589285
 31
0.0
  0
LINE
  8
LC-002-005-----0
  6
CONTINUOUS
  5
EC
 10
365.434235
 20
293.589285
 30
0.0
 11
364.136546
 21
294.886974
 31
0.0
  0
ENDBLK
  8
0
  5
ED
  0
BLOCK
  8
0
  5
EF
  2
*X8
 70
    65
 10
367.636546
 20
287.877532
 30
0.0
  3
*X8
  0
LINE
  8
LC-002-005-----0
  6
CONTINUOUS
  5
F0
 10
372.116551
 20
303.877532
 30
0.0
 11
370.616551
 21
305.377532
 31
0.0
  0
LINE
  8
LC-002-005-----0
  6
CONTINUOUS
  5
F1
 10
371.636546
 20
301.529109
 30
0.0
 11
369.886546
 21
303.279109
 31
0.0
  0
LINE
  8
LC-002-005-----0
  6
CONTINUOUS
  5
F2
 10
371.636546
 20
298.700682
 30
0.0
 11
369.886546
 21
300.450682
 31
0.0
  0
LINE
  8
LC-002-005-----0
  6
CONTINUOUS
  5
F3
 10
371.636546
 20
295.872255
 30
0.0
 11
369.886546
 21
297.622255
 31
0.0
  0
LINE
  8
LC-002-005-----0
  6
CONTINUOUS
  5
F4
 10
371.636546
 20
293.043828
 30
0.0
 11
369.886546
 21
294.793828
 31
0.0
  0
LINE
  8
LC-002-005-----0
  6
CONTINUOUS
  5
F5
 10
371.636546
 20
290.215401
 30
0.0
 11
369.886546
 21
291.965401
 31
0.0
  0
LINE
  8
LC-002-005-----0
  6
CONTINUOUS
  5
F6
 10
370.784048
 20
288.239472
 30
0.0
 11
369.395988
 21
289.627532
 31
0.0
  0
ENDBLK
  8
0
  5
F7
  0
BLOCK
  8
0
  5
F9
  2
*X9
 70
    65
 10
250.158244
 20
228.4889
 30
0.0
  3
*X9
  0
LINE
  8
LC-002-005-----0
  6
CONTINUOUS
  5
FA
 10
250.185223
 20
228.971701
 30
0.0
 11
251.644842
 21
230.431319
 31
0.0
  0
LINE
  8
LC-002-005-----0
  6
CONTINUOUS
  5
FB
 10
250.766397
 20
233.795512
 30
0.0
 11
253.19776
 21
236.226873
 31
0.0
  0
LINE
  8
LC-002-005-----0
  6
CONTINUOUS
  5
FC
 10
251.859265
 20
239.131017
 30
0.0
 11
254.750678
 21
242.022427
 31
0.0
  0
LINE
  8
LC-002-005-----0
  6
CONTINUOUS
  5
FD
 10
292.300613
 20
279.572312
 30
0.0
 11
293.641576
 21
280.913273
 31
0.0
  0
LINE
  8
LC-002-005-----0
  6
CONTINUOUS
  5
FE
 10
253.339486
 20
244.853874
 30
0.0
 11
256.303596
 21
247.81798
 31
0.0
  0
LINE
  8
LC-002-005-----0
  6
CONTINUOUS
  5
FF
 10
288.954548
 20
280.468889
 30
0.0
 11
290.587543
 21
282.101881
 31
0.0
  0
LINE
  8
LC-002-005-----0
  6
CONTINUOUS
  5
100
 10
253.651942
 20
249.408967
 30
0.0
 11
253.765096
 21
249.522121
 31
0.0
  0
LINE
  8
LC-002-005-----0
  6
CONTINUOUS
  5
101
 10
254.352614
 20
250.109639
 30
0.0
 11
257.856514
 21
253.613534
 31
0.0
  0
LINE
  8
LC-002-005-----0
  6
CONTINUOUS
  5
102
 10
285.608484
 20
281.365467
 30
0.0
 11
287.241478
 21
282.998459
 31
0.0
  0
LINE
  8
LC-002-005-----0
  6
CONTINUOUS
  5
103
 10
254.827863
 20
254.827525
 30
0.0
 11
259.409432
 21
259.409088
 31
0.0
  0
LINE
  8
LC-002-005-----0
  6
CONTINUOUS
  5
104
 10
282.262419
 20
282.262045
 30
0.0
 11
283.895413
 21
283.895037
 31
0.0
  0
LINE
  8
LC-002-005-----0
  6
CONTINUOUS
  5
105
 10
256.17105
 20
260.413348
 30
0.0
 11
260.96235
 21
265.204642
 31
0.0
  0
LINE
  8
LC-002-005-----0
  6
CONTINUOUS
  5
106
 10
278.916354
 20
283.158622
 30
0.0
 11
280.549349
 21
284.791614
 31
0.0
  0
LINE
  8
LC-002-005-----0
  6
CONTINUOUS
  5
107
 10
258.979732
 20
267.464664
 30
0.0
 11
262.515268
 21
271.000196
 31
0.0
  0
LINE
  8
LC-002-005-----0
  6
CONTINUOUS
  5
108
 10
275.145395
 20
283.630306
 30
0.0
 11
277.069823
 21
285.554731
 31
0.0
  0
LINE
  8
LC-002-005-----0
  6
CONTINUOUS
  5
109
 10
260.53265
 20
273.260218
 30
0.0
 11
264.680109
 21
277.407671
 31
0.0
  0
LINE
  8
LC-002-005-----0
  6
CONTINUOUS
  5
10A
 10
269.219842
 20
281.947398
 30
0.0
 11
272.683316
 21
285.410868
 31
0.0
  0
ENDBLK
  8
0
  5
10B
  0
BLOCK
  8
0
  5
10D
  2
*X10
 70
    65
 10
265.613256
 20
224.347785
 30
0.0
  3
*X10
  0
LINE
  8
LC-002-005-----0
  6
CONTINUOUS
  5
10E
 10
266.646387
 20
228.462293
 30
0.0
 11
269.102653
 21
230.918555
 31
0.0
  0
LINE
  8
LC-002-005-----0
  6
CONTINUOUS
  5
10F
 10
268.199305
 20
234.257846
 30
0.0
 11
271.472068
 21
237.530605
 31
0.0
  0
LINE
  8
LC-002-005-----0
  6
CONTINUOUS
  5
110
 10
269.752223
 20
240.0534
 30
0.0
 11
273.841484
 21
244.142655
 31
0.0
  0
LINE
  8
LC-002-005-----0
  6
CONTINUOUS
  5
111
 10
285.308582
 20
255.609739
 30
0.0
 11
287.429904
 21
257.731058
 31
0.0
  0
LINE
  8
LC-002-005-----0
  6
CONTINUOUS
  5
112
 10
271.305141
 20
245.848954
 30
0.0
 11
276.210899
 21
250.754705
 31
0.0
  0
LINE
  8
LC-002-005-----0
  6
CONTINUOUS
  5
113
 10
283.151125
 20
257.694922
 30
0.0
 11
284.784119
 21
259.327914
 31
0.0
  0
LINE
  8
LC-002-005-----0
  6
CONTINUOUS
  5
114
 10
272.858059
 20
251.644508
 30
0.0
 11
278.476319
 21
257.26276
 31
0.0
  0
LINE
  8
LC-002-005-----0
  6
CONTINUOUS
  5
115
 10
279.80506
 20
258.591499
 30
0.0
 11
281.438054
 21
260.224491
 31
0.0
  0
LINE
  8
LC-002-005-----0
  6
CONTINUOUS
  5
116
 10
274.410977
 20
257.440062
 30
0.0
 11
278.091989
 21
261.121069
 31
0.0
  0
ENDBLK
  8
0
  5
117
  0
BLOCK
  8
0
  5
119
  2
*X11
 70
    65
 10
290.482817
 20
281.285936
 30
0.0
  3
*X11
  0
LINE
  8
LC-002-005-----0
  6
CONTINUOUS
  5
11A
 10
291.353479
 20
285.645659
 30
0.0
 11
292.525124
 21
284.474015
 31
0.0
  0
LINE
  8
LC-002-005-----0
  6
CONTINUOUS
  5
11B
 10
293.956682
 20
287.285097
 30
0.0
 11
296.613432
 21
284.628351
 31
0.0
  0
LINE
  8
LC-002-005-----0
  6
CONTINUOUS
  5
11C
 10
299.580563
 20
285.903861
 30
0.0
 11
302.408999
 21
283.075429
 31
0.0
  0
LINE
  8
LC-002-005-----0
  6
CONTINUOUS
  5
11D
 10
305.37613
 20
284.350939
 30
0.0
 11
308.204566
 21
281.522507
 31
0.0
  0
ENDBLK
  8
0
  5
11E
  0
BLOCK
  8
0
  5
120
  2
*X12
 70
    65
 10
282.876548
 20
246.110713
 30
0.0
  3
*X12
  0
LINE
  8
LC-002-005-----0
  6
CONTINUOUS
  5
121
 10
283.2331
 20
255.582285
 30
0.0
 11
284.457849
 21
254.357538
 31
0.0
  0
LINE
  8
LC-002-005-----0
  6
CONTINUOUS
  5
122
 10
286.037023
 20
252.778367
 30
0.0
 11
288.865432
 21
249.949961
 31
0.0
  0
LINE
  8
LC-002-005-----0
  6
CONTINUOUS
  5
123
 10
291.832545
 20
251.22549
 30
0.0
 11
294.660954
 21
248.397084
 31
0.0
  0
LINE
  8
LC-002-005-----0
  6
CONTINUOUS
  5
124
 10
297.628067
 20
249.672613
 30
0.0
 11
299.723206
 21
247.577477
 31
0.0
  0
ENDBLK
  8
0
  5
125
  0
BLOCK
  8
0
  5
127
  2
BLK1
 70
    64
 10
0.0
 20
0.0
 30
0.0
  3
BLK1
  0
ENDBLK
  8
0
  5
128
  0
ENDSEC
  0
SECTION
  2
ENTITIES
  0
VIEWPORT
  8
LC-000
  5
1BD
 67
     1
 68
     1
 10
420.0
 20
297.0
 30
0.0
 40
840.0
 41
594.0
 69
     1
1001
ACAD
1000
MVIEW
1002
{
1070
    16
1010
0.0
1020
0.0
1030
0.0
1010
0.0
1020
0.0
1030
1.0
1040
0.0
1040
594.0
1040
420.0
1040
297.0
1040
50.0
1040
0.0
1040
0.0
1070
     0
1070
   100
1070
     1
1070
     1
1070
     0
1070
     0
1070
     0
1070
     0
1040
0.0
1040
0.0
1040
0.0
1040
1.0
1040
1.0
1040
0.0
1040
0.0
1070
     0
1002
{
1002
}
1002
}
  0
VIEWPORT
  8
0
  5
1BE
 67
     1
 68
     1
 10
0.0
 20
0.0
 30
0.0
 40
0.0
 41
0.0
 69
     1
1001
ACAD
1000
MVIEW
1002
{
1070
    16
1010
0.0
1020
0.0
1030
0.0
1010
0.0
1020
0.0
1030
1.0
1040
0.0
1040
594.0
1040
0.0
1040
0.0
1040
50.0
1040
0.0
1040
0.0
1070
     0
1070
   100
1070
     0
1070
     1
1070
     0
1070
     0
1070
     0
1070
     0
1040
0.0
1040
0.0
1040
0.0
1040
0.5
1040
0.5
1040
0.5
1040
0.5
1070
     0
1002
{
1002
}
1002
}
  0
INSERT
  8
0
  5
129
  2
*X0
 10
317.136546
 20
293.589285
 30
0.0
  0
DIMENSION
  8
0
  5
12A
  2
*D1
 10
342.636546
 20
112.0
 30
0.0
 11
342.636546
 21
112.0
 31
0.0
  1
DN50
 13
317.636546
 23
156.089285
 33
0.0
 14
367.636546
 24
156.089285
 34
0.0
  3
LC-DIM-L-0090-02-02
  0
INSERT
  8
0
  5
12B
  2
*X2
 10
312.136546
 20
287.877532
 30
0.0
  0
INSERT
  8
0
  5
12C
  2
*X3
 10
295.471883
 20
273.407772
 30
0.0
  0
INSERT
  8
0
  5
12D
  2
*X4
 10
365.136546
 20
153.589285
 30
0.0
  0
INSERT
  8
0
  5
12E
  2
*X5
 10
288.095522
 20
153.589285
 30
0.0
  0
DIMENSION
  8
0
  5
12F
  2
*D6
 10
420.0
 20
229.483408
 30
0.0
 11
420.0
 21
229.483408
 31
0.0
  1
150
 13
373.136546
 23
305.377532
 33
0.0
 14
365.136546
 24
153.589285
 34
0.0
 50
90.0
  3
LC-DIM-L-0090-02-02
  0
INSERT
  8
0
  5
130
  2
*X7
 10
364.136546
 20
293.589285
 30
0.0
  0
INSERT
  8
0
  5
131
  2
*X8
 10
367.636546
 20
287.877532
 30
0.0
  0
INSERT
  8
0
  5
132
  2
*X9
 10
250.158244
 20
228.4889
 30
0.0
  0
INSERT
  8
0
  5
133
  2
*X10
 10
265.613256
 20
224.347785
 30
0.0
  0
INSERT
  8
0
  5
134
  2
*X11
 10
290.482817
 20
281.285936
 30
0.0
  0
INSERT
  8
0
  5
135
  2
*X12
 10
282.876548
 20
246.110713
 30
0.0
  0
INSERT
  8
0
  5
137
  2
BLK1
 10
0.0
 20
0.0
 30
0.0
  0
LINE
  8
LC-001-002-----0
  5
13A
 10
342.636546
 20
305.377532
 30
0.0
 11
342.636546
 21
153.589285
 31
0.0
  0
LINE
  8
LC-001-002-----0
  6
CONTINUOUS
 62
     1
  5
13B
 10
367.636546
 20
290.589285
 30
0.0
 11
367.636546
 21
285.589285
 31
0.0
  0
LINE
  8
LC-001-002-----0
  6
CONTINUOUS
 62
     1
  5
13C
 10
317.636546
 20
290.589285
 30
0.0
 11
317.636546
 21
285.589285
 31
0.0
  0
LINE
  8
LC-001-002-----0
  6
CONTINUOUS
 62
     1
  5
13D
 10
365.136546
 20
293.089285
 30
0.0
 11
365.136546
 21
153.589285
 31
0.0
  0
LINE
  8
LC-001-002-----0
  6
CONTINUOUS
 62
     1
  5
13E
 10
320.136546
 20
293.089285
 30
0.0
 11
320.136546
 21
273.407772
 31
0.0
  0
LINE
  8
LC-001-002-----0
  6
CONTINUOUS
 62
     1
  5
13F
 10
320.136546
 20
153.589285
 30
0.0
 11
365.136546
 21
153.589285
 31
0.0
  0
LINE
  8
LC-001-002-----0
  6
CONTINUOUS
 62
     1
  5
140
 10
320.136546
 20
153.589285
 30
0.0
 11
317.636546
 21
156.089285
 31
0.0
  0
LINE
  8
LC-001-002-----0
  6
CONTINUOUS
 62
     1
  5
141
 10
365.136546
 20
153.589285
 30
0.0
 11
367.636546
 21
156.089285
 31
0.0
  0
LINE
  8
LC-001-002-----0
  6
CONTINUOUS
 62
     1
  5
142
 10
317.136546
 20
295.589285
 30
0.0
 11
342.636546
 21
295.589285
 31
0.0
  0
LINE
  8
LC-001-002-----0
  6
CONTINUOUS
 62
     1
  5
143
 10
317.136546
 20
293.589285
 30
0.0
 11
342.636546
 21
293.589285
 31
0.0
  0
LINE
  8
LC-001-002-----0
  6
CONTINUOUS
 62
     1
  5
144
 10
321.136546
 20
295.589285
 30
0.0
 11
321.136546
 21
293.589285
 31
0.0
  0
LINE
  8
LC-001-002-----0
  6
CONTINUOUS
 62
     1
  5
145
 10
318.136546
 20
293.089285
 30
0.0
 11
367.136546
 21
293.089285
 31
0.0
  0
LINE
  8
LC-001-002-----0
  6
CONTINUOUS
 62
     1
  5
146
 10
317.136546
 20
295.589285
 30
0.0
 11
317.136546
 21
293.589285
 31
0.0
  0
LINE
  8
LC-001-002-----0
  6
CONTINUOUS
 62
     1
  5
147
 10
317.636546
 20
246.125185
 30
0.0
 11
317.636546
 21
156.089285
 31
0.0
  0
LINE
  8
LC-001-002-----0
  6
CONTINUOUS
 62
     1
  5
148
 10
320.136546
 20
247.525863
 30
0.0
 11
320.136546
 21
153.589285
 31
0.0
  0
LINE
  8
LC-001-002-----0
  6
CONTINUOUS
 62
     1
  5
149
 10
317.636546
 20
290.589285
 30
0.0
 11
316.636546
 21
290.589285
 31
0.0
  0
LINE
  8
LC-001-002-----0
  6
CONTINUOUS
 62
     1
  5
14A
 10
316.636546
 20
291.589285
 30
0.0
 11
316.636546
 21
290.589285
 31
0.0
  0
ARC
  8
LC-003-002-RND-0
  6
CONTINUOUS
  5
14C
 10
318.136546
 20
291.589285
 30
0.0
 40
1.5
 50
90.0
 51
180.0
  0
LINE
  8
LC-001-002-----0
  6
CONTINUOUS
 62
     1
  5
14D
 10
368.636546
 20
291.589285
 30
0.0
 11
368.636546
 21
290.589285
 31
0.0
  0
LINE
  8
LC-001-002-----0
  6
CONTINUOUS
 62
     1
  5
14E
 10
315.386546
 20
289.627532
 30
0.0
 11
316.636546
 21
290.877532
 31
0.0
  0
LINE
  8
LC-001-002-----0
  6
CONTINUOUS
 62
     1
  5
14F
 10
315.386546
 20
289.627532
 30
0.0
 11
317.35223
 21
289.627532
 31
0.0
  0
LINE
  8
LC-001-002-----0
  6
CONTINUOUS
 62
     1
  5
150
 10
367.636546
 20
290.589285
 30
0.0
 11
368.636546
 21
290.589285
 31
0.0
  0
ARC
  8
LC-003-002-RND-0
  6
CONTINUOUS
  5
151
 10
315.85223
 20
289.377532
 30
0.0
 40
1.5
 50
270.0
 51
0.0
  0
ARC
  8
LC-003-002-RND-0
  6
CONTINUOUS
  5
152
 10
367.136546
 20
291.589285
 30
0.0
 40
1.5
 50
0.0
 51
90.0
  0
LINE
  8
LC-001-002-----0
  6
CONTINUOUS
 62
     1
  5
153
 10
367.636546
 20
285.589285
 30
0.0
 11
367.636546
 21
156.089285
 31
0.0
  0
ARC
  8
LC-003-002-RND-0
  6
CONTINUOUS
  5
154
 10
315.636546
 20
289.877532
 30
0.0
 40
2.0
 50
180.0
 51
270.0
  0
LINE
  8
LC-001-002-----0
  6
CONTINUOUS
 62
     1
  5
155
 10
371.636546
 20
303.877532
 30
0.0
 11
371.636546
 21
289.877532
 31
0.0
  0
LINE
  8
LC-001-002-----0
  6
CONTINUOUS
 62
     1
  5
156
 10
313.636546
 20
303.877532
 30
0.0
 11
313.636546
 21
289.877532
 31
0.0
  0
LINE
  8
LC-001-002-----0
  6
CONTINUOUS
 62
     1
  5
157
 10
313.636546
 20
303.877532
 30
0.0
 11
312.136546
 21
303.877532
 31
0.0
  0
LINE
  8
LC-001-002-----0
  6
CONTINUOUS
 62
     1
  5
158
 10
312.136546
 20
305.377532
 30
0.0
 11
312.136546
 21
303.877532
 31
0.0
  0
LINE
  8
LC-001-002-----0
  6
CONTINUOUS
 62
     1
  5
159
 10
315.386546
 20
305.377532
 30
0.0
 11
316.636546
 21
304.127532
 31
0.0
  0
LINE
  8
LC-001-002-----0
  6
CONTINUOUS
 62
     1
  5
15A
 10
373.136546
 20
305.377532
 30
0.0
 11
373.136546
 21
303.877532
 31
0.0
  0
LINE
  8
LC-001-002-----0
  6
CONTINUOUS
 62
     1
  5
15B
 10
316.636546
 20
304.127532
 30
0.0
 11
316.636546
 21
290.877532
 31
0.0
  0
LINE
  8
LC-001-002-----0
  6
CONTINUOUS
 62
     1
  5
15C
 10
371.636546
 20
303.877532
 30
0.0
 11
373.136546
 21
303.877532
 31
0.0
  0
LINE
  8
LC-001-002-----0
  6
CONTINUOUS
 62
     1
  5
15D
 10
312.136546
 20
305.377532
 30
0.0
 11
373.136546
 21
305.377532
 31
0.0
  0
LINE
  8
LC-001-002-----0
  6
CONTINUOUS
 62
     1
  5
15E
 10
315.386546
 20
289.627532
 30
0.0
 11
315.386546
 21
305.377532
 31
0.0
  0
LINE
  8
LC-001-002-----0
  6
CONTINUOUS
 62
     1
  5
15F
 10
316.636546
 20
304.127532
 30
0.0
 11
368.636546
 21
304.127532
 31
0.0
  0
LINE
  8
LC-001-002-----0
  6
CONTINUOUS
 62
     1
  5
160
 10
317.35223
 20
289.627532
 30
0.0
 11
317.35223
 21
289.377532
 31
0.0
  0
LINE
  8
LC-001-002-----0
  6
CONTINUOUS
 62
     1
  5
161
 10
315.636546
 20
287.877532
 30
0.0
 11
315.85223
 21
287.877532
 31
0.0
  0
LINE
  8
LC-001-002-----0
  6
CONTINUOUS
 62
     1
  5
162
 10
317.636546
 20
285.589285
 30
0.0
 11
317.636546
 21
277.183476
 31
0.0
  0
LINE
  8
LC-001-002-----0
  6
CONTINUOUS
 62
     1
  5
163
 10
367.920863
 20
289.377532
 30
0.0
 11
367.920863
 21
289.627532
 31
0.0
  0
ARC
  8
LC-001-002-----0
  6
CONTINUOUS
 62
     1
  5
164
 10
304.774475
 20
260.466817
 30
0.0
 40
20.086352
 50
319.889331
 51
40.110669
  0
LINE
  8
LC-001-002-----0
  6
CONTINUOUS
 62
     1
  5
165
 10
368.136546
 20
295.589285
 30
0.0
 11
342.636546
 21
295.589285
 31
0.0
  0
LINE
  8
LC-001-002-----0
  6
CONTINUOUS
 62
     1
  5
166
 10
368.136546
 20
293.589285
 30
0.0
 11
342.636546
 21
293.589285
 31
0.0
  0
LINE
  8
LC-001-002-----0
  6
CONTINUOUS
 62
     1
  5
167
 10
364.136546
 20
295.589285
 30
0.0
 11
364.136546
 21
293.589285
 31
0.0
  0
LINE
  8
LC-001-002-----0
  6
CONTINUOUS
 62
     1
  5
168
 10
368.136546
 20
295.589285
 30
0.0
 11
368.136546
 21
293.589285
 31
0.0
  0
ARC
  8
LC-003-002-RND-0
  6
CONTINUOUS
  5
169
 10
369.636546
 20
289.877532
 30
0.0
 40
2.0
 50
270.0
 51
0.0
  0
ARC
  8
LC-003-002-RND-0
  6
CONTINUOUS
  5
16A
 10
369.420863
 20
289.377532
 30
0.0
 40
1.5
 50
180.0
 51
270.0
  0
LINE
  8
LC-001-002-----0
  6
CONTINUOUS
 62
     1
  5
16B
 10
369.886546
 20
289.627532
 30
0.0
 11
367.920863
 21
289.627532
 31
0.0
  0
LINE
  8
LC-001-002-----0
  6
CONTINUOUS
 62
     1
  5
16C
 10
369.886546
 20
305.377532
 30
0.0
 11
369.886546
 21
289.627532
 31
0.0
  0
LINE
  8
LC-001-002-----0
  6
CONTINUOUS
 62
     1
  5
16D
 10
369.886546
 20
289.627532
 30
0.0
 11
368.636546
 21
290.877532
 31
0.0
  0
LINE
  8
LC-001-002-----0
  6
CONTINUOUS
 62
     1
  5
16E
 10
368.636546
 20
304.127532
 30
0.0
 11
368.636546
 21
290.877532
 31
0.0
  0
LINE
  8
LC-001-002-----0
  6
CONTINUOUS
 62
     1
  5
16F
 10
369.886546
 20
305.377532
 30
0.0
 11
368.636546
 21
304.127532
 31
0.0
  0
LINE
  8
LC-001-002-----0
  6
CONTINUOUS
 62
     1
  5
170
 10
369.420863
 20
287.877532
 30
0.0
 11
369.636546
 21
287.877532
 31
0.0
  0
LINE
  8
LC-001-002-----0
  6
CONTINUOUS
 62
     1
  5
171
 10
296.636572
 20
284.363331
 30
0.0
 11
289.001391
 21
255.868524
 31
0.0
  0
LINE
  8
LC-001-002-----0
  6
CONTINUOUS
 62
     1
  5
172
 10
312.091382
 20
280.222216
 30
0.0
 11
311.703153
 21
278.773328
 31
0.0
  0
LINE
  8
LC-001-002-----0
  6
CONTINUOUS
 62
     1
  5
173
 10
303.550333
 20
248.34667
 30
0.0
 11
288.095522
 21
252.487784
 31
0.0
  0
LINE
  8
LC-001-002-----0
  6
CONTINUOUS
 62
     1
  5
174
 10
311.703153
 20
278.773328
 30
0.0
 11
317.636546
 21
277.183476
 31
0.0
  0
LINE
  8
LC-001-002-----0
  6
CONTINUOUS
 62
     1
  5
175
 10
303.938562
 20
249.795558
 30
0.0
 11
317.636546
 21
246.125185
 31
0.0
  0
LINE
  8
LC-007-001-----0
  6
CONTINUOUS
  5
177
 10
289.001391
 20
255.868524
 30
0.0
 11
320.136546
 21
247.525863
 31
0.0
  0
LINE
  8
LC-001-002-----0
  6
CONTINUOUS
 62
     1
  5
178
 10
303.938562
 20
249.795558
 30
0.0
 11
303.550333
 21
248.34667
 31
0.0
  0
LINE
  8
LC-007-001-----0
  6
CONTINUOUS
  5
179
 10
295.471883
 20
280.016666
 30
0.0
 11
320.136546
 21
273.407772
 31
0.0
  0
LINE
  8
LC-001-002-----0
  6
CONTINUOUS
 62
     1
  5
17A
 10
289.001391
 20
255.868524
 30
0.0
 11
288.095522
 21
252.487784
 31
0.0
  0
LINE
  8
LC-001-002-----0
  6
CONTINUOUS
 62
     1
  5
17B
 10
294.316491
 20
283.432082
 30
0.0
 11
292.867602
 21
283.820311
 31
0.0
  0
LINE
  8
LC-001-002-----0
  6
CONTINUOUS
 62
     1
  5
17C
 10
285.103012
 20
254.842542
 30
0.0
 11
286.551901
 21
254.454312
 31
0.0
  0
LINE
  8
LC-001-002-----0
  6
CONTINUOUS
 62
     1
  5
17D
 10
292.867602
 20
283.820311
 30
0.0
 11
292.285258
 21
281.646979
 31
0.0
  0
LINE
  8
LC-001-002-----0
  6
CONTINUOUS
 62
     1
  5
17E
 10
285.685356
 20
257.015874
 30
0.0
 11
277.474988
 21
259.215842
 31
0.0
  0
LINE
  8
LC-001-002-----0
  6
CONTINUOUS
 62
     1
  5
17F
 10
287.651884
 20
258.559496
 30
0.0
 11
275.577814
 21
261.794742
 31
0.0
  0
LINE
  8
LC-001-002-----0
  6
CONTINUOUS
 62
     1
  5
180
 10
285.685356
 20
257.015874
 30
0.0
 11
285.103012
 21
254.842542
 31
0.0
  0
LINE
  8
LC-001-002-----0
  6
CONTINUOUS
 62
     1
  5
181
 10
277.474988
 20
259.215842
 30
0.0
 11
277.086759
 21
257.766953
 31
0.0
  0
LINE
  8
LC-007-001-----0
  6
CONTINUOUS
  5
182
 10
275.577814
 20
261.794742
 30
0.0
 11
265.613256
 21
224.606604
 31
0.0
  0
LINE
  8
LC-001-002-----0
  6
CONTINUOUS
 62
     1
  5
183
 10
260.874082
 20
274.534455
 30
0.0
 11
257.768246
 21
262.943347
 31
0.0
  0
ARC
  8
LC-001-002-----0
  6
CONTINUOUS
 62
     1
  5
184
 10
275.362967
 20
270.652159
 30
0.0
 40
15.0
 50
74.999963
 51
164.999963
  0
LINE
  8
LC-001-002-----0
  6
CONTINUOUS
 62
     1
  5
185
 10
292.285258
 20
281.646979
 30
0.0
 11
279.245262
 21
285.141044
 31
0.0
  0
LINE
  8
LC-007-001-----0
  6
CONTINUOUS
  5
186
 10
263.418306
 20
274.370368
 30
0.0
 11
251.124371
 21
228.4889
 31
0.0
  0
ARC
  8
LC-007-001-----0
  6
CONTINUOUS
  5
187
 10
275.492376
 20
271.135122
 30
0.0
 40
12.5
 50
74.999963
 51
164.999963
  0
LINE
  8
LC-001-002-----0
  6
CONTINUOUS
 62
     1
  5
188
 10
293.216507
 20
279.326898
 30
0.0
 11
278.727622
 21
283.209193
 31
0.0
  0
LINE
  8
LC-007-001-----0
  6
DASHDOT
 62
     2
  5
189
 10
324.847024
 20
259.722283
 30
0.0
 11
273.530497
 21
273.472541
 31
0.0
  0
ARC
  8
LC-007-001-----0
  6
DASHDOT
 62
     2
  5
18A
 10
272.883448
 20
271.057727
 30
0.0
 40
2.5
 50
74.999963
 51
164.999944
  0
LINE
  8
LC-001-002-----0
  5
18B
 10
270.468633
 20
271.704776
 30
0.0
 11
258.174699
 21
225.823308
 31
0.0
  0
LINE
  8
LC-001-002-----0
  6
CONTINUOUS
 62
     1
  5
18C
 10
277.086759
 20
257.766953
 30
0.0
 11
278.535647
 21
257.378724
 31
0.0
  0
LINE
  8
LC-001-002-----0
  6
CONTINUOUS
 62
     1
  5
18D
 10
257.768246
 20
262.943347
 30
0.0
 11
256.319357
 21
263.331576
 31
0.0
  0
LINE
  8
LC-001-002-----0
  6
CONTINUOUS
 62
     1
  5
18E
 10
254.990582
 20
256.440687
 30
0.0
 11
255.956252
 21
256.181936
 31
0.0
  0
LINE
  8
LC-001-002-----0
  6
CONTINUOUS
 62
     1
  5
18F
 10
253.661807
 20
249.549797
 30
0.0
 11
254.279504
 21
249.384286
 31
0.0
  0
LINE
  8
LC-001-002-----0
  6
CONTINUOUS
 62
     1
  5
190
 10
252.333032
 20
242.658908
 30
0.0
 11
253.173425
 21
242.433725
 31
0.0
  0
LINE
  8
LC-001-002-----0
  6
CONTINUOUS
 62
     1
  5
191
 10
251.004258
 20
235.768019
 30
0.0
 11
251.39384
 21
235.66363
 31
0.0
  0
LINE
  8
LC-001-002-----0
  6
CONTINUOUS
 62
     1
  5
192
 10
250.158445
 20
228.747719
 30
0.0
 11
266.579182
 21
224.347785
 31
0.0
  0
LINE
  8
LC-001-002-----0
  6
CONTINUOUS
 62
     1
  5
193
 10
278.535647
 20
257.378724
 30
0.0
 11
275.275021
 21
251.005474
 31
0.0
  0
LINE
  8
LC-001-002-----0
  6
CONTINUOUS
 62
     1
  5
194
 10
276.240947
 20
250.746654
 30
0.0
 11
273.328298
 21
244.280163
 31
0.0
  0
LINE
  8
LC-001-002-----0
  6
CONTINUOUS
 62
     1
  5
195
 10
273.946246
 20
244.114584
 30
0.0
 11
270.810906
 21
237.707764
 31
0.0
  0
LINE
  8
LC-001-002-----0
  6
CONTINUOUS
 62
     1
  5
196
 10
271.651546
 20
237.482514
 30
0.0
 11
268.967052
 21
230.95489
 31
0.0
  0
LINE
  8
LC-001-002-----0
  6
CONTINUOUS
 62
     1
  5
197
 10
269.356845
 20
230.850445
 30
0.0
 11
266.579182
 21
224.347785
 31
0.0
  0
LINE
  8
LC-001-002-----0
  6
CONTINUOUS
 62
     1
  5
198
 10
256.319165
 20
263.331901
 30
0.0
 11
255.95632
 21
256.182192
 31
0.0
  0
LINE
  8
LC-001-002-----0
  6
CONTINUOUS
 62
     1
  5
199
 10
254.990395
 20
256.441011
 30
0.0
 11
254.279573
 21
249.384542
 31
0.0
  0
LINE
  8
LC-001-002-----0
  6
CONTINUOUS
 62
     1
  5
19A
 10
253.661624
 20
249.550121
 30
0.0
 11
253.173494
 21
242.433981
 31
0.0
  0
LINE
  8
LC-001-002-----0
  6
CONTINUOUS
 62
     1
  5
19B
 10
252.332854
 20
242.65923
 30
0.0
 11
251.393876
 21
235.663895
 31
0.0
  0
LINE
  8
LC-001-002-----0
  6
CONTINUOUS
 62
     1
  5
19C
 10
251.004083
 20
235.76834
 30
0.0
 11
250.158276
 21
228.74804
 31
0.0
  0
LINE
  8
LC-001-002-----0
  6
CONTINUOUS
 62
     1
  5
19D
 10
275.275021
 20
251.005474
 30
0.0
 11
276.240947
 21
250.746654
 31
0.0
  0
LINE
  8
LC-001-002-----0
  6
CONTINUOUS
 62
     1
  5
19E
 10
273.328298
 20
244.280163
 30
0.0
 11
273.946246
 21
244.114584
 31
0.0
  0
LINE
  8
LC-001-002-----0
  6
CONTINUOUS
 62
     1
  5
19F
 10
270.810906
 20
237.707764
 30
0.0
 11
271.651546
 21
237.482514
 31
0.0
  0
LINE
  8
LC-001-002-----0
  6
CONTINUOUS
 62
     1
  5
1A0
 10
268.967052
 20
230.95489
 30
0.0
 11
269.356845
 21
230.850445
 31
0.0
  0
LINE
  8
LC-001-002-----0
  6
CONTINUOUS
  5
1A1
 10
275.577814
 20
261.794742
 30
0.0
 11
271.827443
 21
272.936382
 31
0.0
  0
LINE
  8
LC-001-002-----0
  6
CONTINUOUS
 62
     1
  5
1A2
 10
308.327061
 20
283.560238
 30
0.0
 11
308.585881
 21
284.526163
 31
0.0
  0
LINE
  8
LC-001-002-----0
  6
CONTINUOUS
 62
     1
  5
1A3
 10
308.585881
 20
284.526163
 30
0.0
 11
309.551806
 21
284.267344
 31
0.0
  0
LINE
  8
LC-001-002-----0
  6
CONTINUOUS
 62
     1
  5
1A4
 10
309.551806
 20
284.267344
 30
0.0
 11
308.775347
 21
281.369567
 31
0.0
  0
LINE
  8
LC-001-002-----0
  6
CONTINUOUS
 62
     1
  5
1A5
 10
308.775347
 20
281.369567
 30
0.0
 11
307.809422
 21
281.628386
 31
0.0
  0
ARC
  8
LC-001-002-----0
  6
CONTINUOUS
 62
     1
  5
1A6
 10
294.027643
 20
284.285936
 30
0.0
 40
3.0
 50
74.999963
 51
164.999963
  0
LINE
  8
LC-001-002-----0
  6
CONTINUOUS
 62
     1
  5
1A7
 10
294.804102
 20
287.183713
 30
0.0
 11
308.327061
 21
283.560238
 31
0.0
  0
LINE
  8
LC-001-002-----0
  6
CONTINUOUS
 62
     1
  5
1A8
 10
291.931705
 20
282.259351
 30
0.0
 11
292.578754
 21
284.674166
 31
0.0
  0
ARC
  8
LC-001-002-----0
  6
CONTINUOUS
 62
     1
  5
1A9
 10
293.54468
 20
284.415346
 30
0.0
 40
1.0
 50
74.999963
 51
164.999963
  0
LINE
  8
LC-001-002-----0
  6
CONTINUOUS
 62
     1
  5
1AA
 10
293.8035
 20
285.381272
 30
0.0
 11
307.809422
 21
281.628386
 31
0.0
  0
LINE
  8
LC-001-002-----0
  6
CONTINUOUS
 62
     1
  5
1AB
 10
285.100105
 20
250.958859
 30
0.0
 11
298.623083
 21
247.335455
 31
0.0
  0
LINE
  8
LC-001-002-----0
  6
CONTINUOUS
 62
     1
  5
1AC
 10
298.623083
 20
247.335455
 30
0.0
 11
298.364268
 21
246.369528
 31
0.0
  0
LINE
  8
LC-001-002-----0
  6
CONTINUOUS
 62
     1
  5
1AD
 10
298.364268
 20
246.369528
 30
0.0
 11
299.330195
 21
246.110713
 31
0.0
  0
LINE
  8
LC-001-002-----0
  6
CONTINUOUS
 62
     1
  5
1AE
 10
299.330195
 20
246.110713
 30
0.0
 11
300.106639
 21
249.008494
 31
0.0
  0
LINE
  8
LC-001-002-----0
  6
CONTINUOUS
 62
     1
  5
1AF
 10
285.13477
 20
253.02012
 30
0.0
 11
299.140712
 21
249.267309
 31
0.0
  0
LINE
  8
LC-001-002-----0
  6
CONTINUOUS
 62
     1
  5
1B0
 10
300.106639
 20
249.008494
 30
0.0
 11
299.140712
 21
249.267309
 31
0.0
  0
ARC
  8
LC-001-002-----0
  6
CONTINUOUS
 62
     1
  5
1B1
 10
285.876548
 20
253.85664
 30
0.0
 40
3.0
 50
165.000267
 51
255.000229
  0
LINE
  8
LC-001-002-----0
  6
CONTINUOUS
 62
     1
  5
1B2
 10
285.074694
 20
256.659679
 30
0.0
 11
284.427658
 21
254.244861
 31
0.0
  0
ARC
  8
LC-001-002-----0
  6
CONTINUOUS
 62
     1
  5
1B3
 10
285.393585
 20
253.986047
 30
0.0
 40
1.0
 50
165.000267
 51
255.000229
  0
LINE
  8
LC-001-002-----0
  6
CONTINUOUS
 62
     1
  5
1B4
 10
312.091382
 20
280.222216
 30
0.0
 11
296.636572
 21
284.363331
 31
0.0
  0
LINE
  8
LC-001-002-----0
  6
CONTINUOUS
 62
     1
  5
1B5
 10
294.316491
 20
283.432082
 30
0.0
 11
286.551901
 21
254.454312
 31
0.0
  0
LINE
  8
LC-001-002-----0
  6
CONTINUOUS
 62
     1
  5
1B6
 10
290.871046
 20
284.096469
 30
0.0
 11
291.129866
 21
285.062395
 31
0.0
  0
ARC
  8
LC-001-002-----0
  6
CONTINUOUS
 62
     1
  5
1B7
 10
292.319935
 20
283.70824
 30
0.0
 40
1.5
 50
164.999963
 51
254.999811
  0
LINE
  8
LC-001-002-----0
  6
CONTINUOUS
 62
     1
  5
1B8
 10
291.931705
 20
282.259351
 30
0.0
 11
291.931705
 21
282.259351
 31
0.0
  0
LINE
  8
LC-001-002-----0
  6
CONTINUOUS
 62
     1
  5
1B9
 10
283.237582
 20
255.59901
 30
0.0
 11
282.978767
 21
254.633083
 31
0.0
  0
ARC
  8
LC-001-002-----0
  6
CONTINUOUS
 62
     1
  5
1BA
 10
284.686472
 20
255.210789
 30
0.0
 40
1.5
 50
75.000267
 51
165.000267
  0
LINE
  8
LC-001-002-----0
  6
CONTINUOUS
 62
     1
  5
1BB
 10
285.074694
 20
256.659679
 30
0.0
 11
285.074694
 21
256.659679
 31
0.0
  0
ENDSEC
  0
EOF
