  0
SECTION
  2
HEADER
  9
$ACADVER
  1
AC1027
  9
$ACADMAINTVER
 70
   105
  9
$DWGCODEPAGE
  3
ANSI_1252
  9
$REQUIREDVERSIONS
160
                 0
  9
$INSBASE
 10
0.0
 20
0.0
 30
0.0
  9
$EXTMIN
 10
0.0
 20
0.0
 30
0.0
  9
$EXTMAX
 10
840.0
 20
594.0
 30
0.0
  9
$LIMMIN
 10
0.0
 20
0.0
  9
$LIMMAX
 10
840.0
 20
594.0
  9
$ORTHOMODE
 70
     0
  9
$REGENMODE
 70
     1
  9
$FILLMODE
 70
     1
  9
$QTEXTMODE
 70
     0
  9
$MIRRTEXT
 70
     1
  9
$LTSCALE
 40
2.0
  9
$ATTMODE
 70
     1
  9
$TEXTSIZE
 40
7.0
  9
$TRACEWID
 40
1.0
  9
$TEXTSTYLE
  7
Standard
  9
$CLAYER
  8
0
  9
$CELTYPE
  6
ByLayer
  9
$CECOLOR
 62
   256
  9
$CELTSCALE
 40
1.0
  9
$DISPSILH
 70
     0
  9
$DIMSCALE
 40
1.0
  9
$DIMASZ
 40
6.604
  9
$DIMEXO
 40
2.0
  9
$DIMDLI
 40
3.75
  9
$DIMRND
 40
0.0
  9
$DIMDLE
 40
0.0
  9
$DIMEXE
 40
2.0
  9
$DIMTP
 40
0.0
  9
$DIMTM
 40
0.0
  9
$DIMTXT
 40
7.0
  9
$DIMCEN
 40
2.5
  9
$DIMTSZ
 40
0.0
  9
$DIMTOL
 70
     0
  9
$DIMLIM
 70
     0
  9
$DIMTIH
 70
     1
  9
$DIMTOH
 70
     1
  9
$DIMSE1
 70
     0
  9
$DIMSE2
 70
     0
  9
$DIMTAD
 70
     1
  9
$DIMZIN
 70
     1
  9
$DIMBLK
  1

  9
$DIMASO
 70
     1
  9
$DIMSHO
 70
     1
  9
$DIMPOST
  1

  9
$DIMAPOST
  1

  9
$DIMALT
 70
     0
  9
$DIMALTD
 70
     3
  9
$DIMALTF
 40
0.0393700787
  9
$DIMLFAC
 40
1.0
  9
$DIMTOFL
 70
     1
  9
$DIMTVP
 40
0.0
  9
$DIMTIX
 70
     0
  9
$DIMSOXD
 70
     0
  9
$DIMSAH
 70
     0
  9
$DIMBLK1
  1

  9
$DIMBLK2
  1

  9
$DIMSTYLE
  2
ISO-25
  9
$DIMCLRD
 70
     0
  9
$DIMCLRE
 70
     0
  9
$DIMCLRT
 70
     0
  9
$DIMTFAC
 40
1.0
  9
$DIMGAP
 40
3.048
  9
$DIMJUST
 70
     0
  9
$DIMSD1
 70
     0
  9
$DIMSD2
 70
     0
  9
$DIMTOLJ
 70
     0
  9
$DIMTZIN
 70
     1
  9
$DIMALTZ
 70
     0
  9
$DIMALTTZ
 70
     0
  9
$DIMUPT
 70
     0
  9
$DIMDEC
 70
     2
  9
$DIMTDEC
 70
     2
  9
$DIMALTU
 70
     2
  9
$DIMALTTD
 70
     3
  9
$DIMTXSTY
  7
Standard
  9
$DIMAUNIT
 70
     0
  9
$DIMADEC
 70
     0
  9
$DIMALTRND
 40
0.0
  9
$DIMAZIN
 70
     0
  9
$DIMDSEP
 70
    44
  9
$DIMATFIT
 70
     3
  9
$DIMFRAC
 70
     0
  9
$DIMLDRBLK
  1

  9
$DIMLUNIT
 70
     2
  9
$DIMLWD
 70
    -2
  9
$DIMLWE
 70
    -2
  9
$DIMTMOVE
 70
     0
  9
$DIMFXL
 40
1.0
  9
$DIMFXLON
 70
     0
  9
$DIMJOGANG
 40
0.7853981634
  9
$DIMTFILL
 70
     0
  9
$DIMTFILLCLR
 70
     0
  9
$DIMARCSYM
 70
     0
  9
$DIMLTYPE
  6

  9
$DIMLTEX1
  6

  9
$DIMLTEX2
  6

  9
$DIMTXTDIRECTION
 70
     0
  9
$LUNITS
 70
     2
  9
$LUPREC
 70
     2
  9
$SKETCHINC
 40
1.0
  9
$FILLETRAD
 40
10.0
  9
$AUNITS
 70
     0
  9
$AUPREC
 70
     0
  9
$MENU
  1
.
  9
$ELEVATION
 40
0.0
  9
$PELEVATION
 40
0.0
  9
$THICKNESS
 40
0.0
  9
$LIMCHECK
 70
     0
  9
$CHAMFERA
 40
0.0
  9
$CHAMFERB
 40
0.0
  9
$CHAMFERC
 40
0.0
  9
$CHAMFERD
 40
0.0
  9
$SKPOLY
 70
     0
  9
$TDCREATE
 40
2458913.518413681
  9
$TDUCREATE
 40
2458913.476747014
  9
$TDUPDATE
 40
2458913.518414224
  9
$TDUUPDATE
 40
2458913.476747558
  9
$TDINDWG
 40
0.0000000116
  9
$TDUSRTIMER
 40
0.0000000116
  9
$USRTIMER
 70
     1
  9
$ANGBASE
 50
0.0
  9
$ANGDIR
 70
     0
  9
$PDMODE
 70
     0
  9
$PDSIZE
 40
-1.0
  9
$PLINEWID
 40
0.0
  9
$SPLFRAME
 70
     0
  9
$SPLINETYPE
 70
     6
  9
$SPLINESEGS
 70
     8
  9
$HANDSEED
  5
24B
  9
$SURFTAB1
 70
     6
  9
$SURFTAB2
 70
     6
  9
$SURFTYPE
 70
     6
  9
$SURFU
 70
     6
  9
$SURFV
 70
     6
  9
$UCSBASE
  2

  9
$UCSNAME
  2

  9
$UCSORG
 10
0.0
 20
0.0
 30
0.0
  9
$UCSXDIR
 10
1.0
 20
0.0
 30
0.0
  9
$UCSYDIR
 10
0.0
 20
1.0
 30
0.0
  9
$UCSORTHOREF
  2

  9
$UCSORTHOVIEW
 70
     0
  9
$UCSORGTOP
 10
0.0
 20
0.0
 30
0.0
  9
$UCSORGBOTTOM
 10
0.0
 20
0.0
 30
0.0
  9
$UCSORGLEFT
 10
0.0
 20
0.0
 30
0.0
  9
$UCSORGRIGHT
 10
0.0
 20
0.0
 30
0.0
  9
$UCSORGFRONT
 10
0.0
 20
0.0
 30
0.0
  9
$UCSORGBACK
 10
0.0
 20
0.0
 30
0.0
  9
$PUCSBASE
  2

  9
$PUCSNAME
  2

  9
$PUCSORG
 10
0.0
 20
0.0
 30
0.0
  9
$PUCSXDIR
 10
1.0
 20
0.0
 30
0.0
  9
$PUCSYDIR
 10
0.0
 20
1.0
 30
0.0
  9
$PUCSORTHOREF
  2

  9
$PUCSORTHOVIEW
 70
     0
  9
$PUCSORGTOP
 10
0.0
 20
0.0
 30
0.0
  9
$PUCSORGBOTTOM
 10
0.0
 20
0.0
 30
0.0
  9
$PUCSORGLEFT
 10
0.0
 20
0.0
 30
0.0
  9
$PUCSORGRIGHT
 10
0.0
 20
0.0
 30
0.0
  9
$PUCSORGFRONT
 10
0.0
 20
0.0
 30
0.0
  9
$PUCSORGBACK
 10
0.0
 20
0.0
 30
0.0
  9
$USERI1
 70
     0
  9
$USERI2
 70
     0
  9
$USERI3
 70
     0
  9
$USERI4
 70
     0
  9
$USERI5
 70
     0
  9
$USERR1
 40
0.0
  9
$USERR2
 40
0.0
  9
$USERR3
 40
0.0
  9
$USERR4
 40
0.0
  9
$USERR5
 40
0.0
  9
$WORLDVIEW
 70
     1
  9
$SHADEDGE
 70
     3
  9
$SHADEDIF
 70
    70
  9
$TILEMODE
 70
     1
  9
$MAXACTVP
 70
    64
  9
$PINSBASE
 10
0.0
 20
0.0
 30
0.0
  9
$PLIMCHECK
 70
     0
  9
$PEXTMIN
 10
1.0000000000E+20
 20
1.0000000000E+20
 30
1.0000000000E+20
  9
$PEXTMAX
 10
-1.0000000000E+20
 20
-1.0000000000E+20
 30
-1.0000000000E+20
  9
$PLIMMIN
 10
0.0
 20
0.0
  9
$PLIMMAX
 10
420.0
 20
297.0
  9
$UNITMODE
 70
     0
  9
$VISRETAIN
 70
     1
  9
$PLINEGEN
 70
     0
  9
$PSLTSCALE
 70
     1
  9
$TREEDEPTH
 70
  3020
  9
$CMLSTYLE
  2
Standard
  9
$CMLJUST
 70
     0
  9
$CMLSCALE
 40
20.0
  9
$PROXYGRAPHICS
 70
     1
  9
$MEASUREMENT
 70
     1
  9
$CELWEIGHT
370
    -1
  9
$ENDCAPS
280
     0
  9
$JOINSTYLE
280
     0
  9
$LWDISPLAY
290
     1
  9
$INSUNITS
 70
     4
  9
$HYPERLINKBASE
  1

  9
$STYLESHEET
  1

  9
$XEDIT
290
     1
  9
$CEPSNTYPE
380
     0
  9
$PSTYLEMODE
290
     1
  9
$FINGERPRINTGUID
  2
{E2169F5C-881F-4DAE-A176-4CFA334E5CD7}
  9
$VERSIONGUID
  2
{FAEB1C32-E019-11D5-929B-00C0DF256EC4}
  9
$EXTNAMES
290
     1
  9
$PSVPSCALE
 40
0.0
  9
$OLESTARTUP
290
     0
  9
$SORTENTS
280
   127
  9
$INDEXCTL
280
     0
  9
$HIDETEXT
280
     1
  9
$XCLIPFRAME
280
     2
  9
$HALOGAP
280
     0
  9
$OBSCOLOR
 70
   257
  9
$OBSLTYPE
280
     0
  9
$INTERSECTIONDISPLAY
280
     0
  9
$INTERSECTIONCOLOR
 70
   257
  9
$DIMASSOC
280
     2
  9
$PROJECTNAME
  1

  9
$CAMERADISPLAY
290
     0
  9
$LENSLENGTH
 40
50.0
  9
$CAMERAHEIGHT
 40
0.0
  9
$STEPSPERSEC
 40
2.0
  9
$STEPSIZE
 40
6.0
  9
$3DDWFPREC
 40
2.0
  9
$PSOLWIDTH
 40
5.0
  9
$PSOLHEIGHT
 40
80.0
  9
$LOFTANG1
 40
1.5707963268
  9
$LOFTANG2
 40
1.5707963268
  9
$LOFTMAG1
 40
0.0
  9
$LOFTMAG2
 40
0.0
  9
$LOFTPARAM
 70
     7
  9
$LOFTNORMALS
280
     1
  9
$LATITUDE
 40
37.795
  9
$LONGITUDE
 40
-122.394
  9
$NORTHDIRECTION
 40
0.0
  9
$TIMEZONE
 70
 -8000
  9
$LIGHTGLYPHDISPLAY
280
     1
  9
$TILEMODELIGHTSYNCH
280
     1
  9
$CMATERIAL
347
44
  9
$SOLIDHIST
280
     0
  9
$SHOWHIST
280
     1
  9
$DWFFRAME
280
     2
  9
$DGNFRAME
280
     2
  9
$REALWORLDSCALE
290
     1
  9
$INTERFERECOLOR
 62
   256
  9
$CSHADOW
280
     0
  9
$SHADOWPLANELOCATION
 40
0.0
  0
ENDSEC
  0
SECTION
  2
CLASSES
  0
CLASS
  1
ACDBDICTIONARYWDFLT
  2
AcDbDictionaryWithDefault
  3
ObjectDBX Classes
 90
        0
 91
        4
280
     0
281
     0
  0
CLASS
  1
VISUALSTYLE
  2
AcDbVisualStyle
  3
ObjectDBX Classes
 90
     4095
 91
        4
280
     0
281
     0
  0
CLASS
  1
MATERIAL
  2
AcDbMaterial
  3
ObjectDBX Classes
 90
     1153
 91
        4
280
     0
281
     0
  0
CLASS
  1
SCALE
  2
AcDbScale
  3
ObjectDBX Classes
 90
     1153
 91
        4
280
     0
281
     0
  0
CLASS
  1
TABLESTYLE
  2
AcDbTableStyle
  3
ObjectDBX Classes
 90
     4095
 91
        4
280
     0
281
     0
  0
CLASS
  1
MLEADERSTYLE
  2
AcDbMLeaderStyle
  3
ACDB_MLEADERSTYLE_CLASS
 90
     4095
 91
        4
280
     0
281
     0
  0
CLASS
  1
SUN
  2
AcDbSun
  3
SCENEOE
 90
     1153
 91
        4
280
     0
281
     0
  0
CLASS
  1
DICTIONARYVAR
  2
AcDbDictionaryVar
  3
ObjectDBX Classes
 90
        0
 91
        4
280
     0
281
     0
  0
CLASS
  1
CELLSTYLEMAP
  2
AcDbCellStyleMap
  3
ObjectDBX Classes
 90
     1152
 91
        4
280
     0
281
     0
  0
ENDSEC
  0
SECTION
  2
TABLES
  0
TABLE
  2
VPORT
  5
8
330
0
100
AcDbSymbolTable
 70
     1
  0
VPORT
  5
29
330
8
100
AcDbSymbolTableRecord
100
AcDbViewportTableRecord
  2
*Active
 70
     0
 10
0.0
 20
0.0
 11
1.0
 21
1.0
 12
420.0
 22
297.0
 13
0.0
 23
0.0
 14
10.0
 24
10.0
 15
10.0
 25
10.0
 16
0.0
 26
0.0
 36
1.0
 17
0.0
 27
0.0
 37
0.0
 40
594.0
 41
1.4141414141
 42
50.0
 43
0.0
 44
0.0
 50
0.0
 51
0.0
 71
     0
 72
  2000
 73
     1
 74
     3
 75
     0
 76
     0
 77
     0
 78
     0
281
     0
 65
     1
110
0.0
120
0.0
130
0.0
111
1.0
121
0.0
131
0.0
112
0.0
122
1.0
132
0.0
 79
     0
146
0.0
348
2F
 60
     3
 61
     5
292
     1
282
     1
141
0.0
142
0.0
 63
   250
361
6D
  0
ENDTAB
  0
TABLE
  2
LTYPE
  5
5
330
0
100
AcDbSymbolTable
 70
     8
  0
LTYPE
  5
14
330
5
100
AcDbSymbolTableRecord
100
AcDbLinetypeTableRecord
  2
ByBlock
 70
     0
  3

 72
    65
 73
     0
 40
0.0
  0
LTYPE
  5
15
330
5
100
AcDbSymbolTableRecord
100
AcDbLinetypeTableRecord
  2
ByLayer
 70
     0
  3

 72
    65
 73
     0
 40
0.0
  0
LTYPE
  5
16
330
5
100
AcDbSymbolTableRecord
100
AcDbLinetypeTableRecord
  2
Continuous
 70
     0
  3
Solid line
 72
    65
 73
     0
 40
0.0
  0
LTYPE
  5
6E
330
5
100
AcDbSymbolTableRecord
100
AcDbLinetypeTableRecord
  2
SLD-Durchgehend
 70
     0
  3
SolidWorks Line Style
 72
    65
 73
     0
 40
0.0
  0
LTYPE
  5
6F
330
5
100
AcDbSymbolTableRecord
100
AcDbLinetypeTableRecord
  2
SLD-Gestrichelt
 70
     0
  3
SolidWorks Line Style
 72
    65
 73
     2
 40
1.905
 49
1.27
 74
     0
 49
-0.635
 74
     0
  0
LTYPE
  5
70
330
5
100
AcDbSymbolTableRecord
100
AcDbLinetypeTableRecord
  2
SLD-Phantom
 70
     0
  3
SolidWorks Line Style
 72
    65
 73
     6
 40
12.7
 49
6.35
 74
     0
 49
-1.27
 74
     0
 49
1.27
 74
     0
 49
-1.27
 74
     0
 49
1.27
 74
     0
 49
-1.27
 74
     0
  0
LTYPE
  5
71
330
5
100
AcDbSymbolTableRecord
100
AcDbLinetypeTableRecord
  2
SLD-Kette
 70
     0
  3
SolidWorks Line Style
 72
    65
 73
     4
 40
10.16
 49
6.35
 74
     0
 49
-1.27
 74
     0
 49
1.27
 74
     0
 49
-1.27
 74
     0
  0
LTYPE
  5
72
330
5
100
AcDbSymbolTableRecord
100
AcDbLinetypeTableRecord
  2
SLD-Punktstrich
 70
     0
  3
SolidWorks Line Style
 72
    65
 73
     4
 40
19.05
 49
15.24
 74
     0
 49
-1.27
 74
     0
 49
1.27
 74
     0
 49
-1.27
 74
     0
  0
LTYPE
  5
73
330
5
100
AcDbSymbolTableRecord
100
AcDbLinetypeTableRecord
  2
SLD-Naht
 70
     0
  3
SolidWorks Line Style
 72
    65
 73
     2
 40
0.635
 49
0.0
 74
     0
 49
-0.635
 74
     0
  0
LTYPE
  5
74
330
5
100
AcDbSymbolTableRecord
100
AcDbLinetypeTableRecord
  2
SLD-Dicke-Dünne-Kette
 70
     0
  3
SolidWorks Line Style
 72
    65
 73
     4
 40
10.16
 49
6.35
 74
     0
 49
-1.27
 74
     0
 49
1.27
 74
     0
 49
-1.27
 74
     0
  0
ENDTAB
  0
TABLE
  2
LAYER
  5
2
330
0
100
AcDbSymbolTable
 70
     1
  0
LAYER
  5
10
330
2
100
AcDbSymbolTableRecord
100
AcDbLayerTableRecord
  2
0
 70
     0
 62
     7
  6
Continuous
370
    -3
390
F
347
46
348
0
  0
ENDTAB
  0
TABLE
  2
STYLE
  5
3
330
0
100
AcDbSymbolTable
 70
     3
  0
STYLE
  5
11
330
3
100
AcDbSymbolTableRecord
100
AcDbTextStyleTableRecord
  2
Standard
 70
     0
 40
0.0
 41
1.0
 50
0.0
 71
     0
 42
7.0
  3
txt
  4

  0
STYLE
  5
217
330
3
100
AcDbSymbolTableRecord
100
AcDbTextStyleTableRecord
  2
SLDTEXTSTYLE0
 70
     0
 40
0.0
 41
1.0
 50
0.0
 71
     0
 42
7.0
  3
TXT
  4

  0
STYLE
  5
234
330
3
100
AcDbSymbolTableRecord
100
AcDbTextStyleTableRecord
  2
SLDTEXTSTYLE1
 70
     0
 40
0.0
 41
0.96
 50
0.0
 71
     0
 42
7.0
  3
TXT
  4

  0
ENDTAB
  0
TABLE
  2
VIEW
  5
6
330
0
100
AcDbSymbolTable
 70
     0
  0
ENDTAB
  0
TABLE
  2
UCS
  5
7
330
0
100
AcDbSymbolTable
 70
     0
  0
ENDTAB
  0
TABLE
  2
APPID
  5
9
330
0
100
AcDbSymbolTable
 70
     1
  0
APPID
  5
12
330
9
100
AcDbSymbolTableRecord
100
AcDbRegAppTableRecord
  2
ACAD
 70
     0
  0
ENDTAB
  0
TABLE
  2
DIMSTYLE
  5
A
330
0
100
AcDbSymbolTable
 70
     3
100
AcDbDimStyleTable
  0
DIMSTYLE
105
27
330
A
100
AcDbSymbolTableRecord
100
AcDbDimStyleTableRecord
  2
ISO-25
 70
     0
 41
2.5
 42
0.625
 43
3.75
 44
1.25
 73
     0
 74
     0
 77
     1
 78
     8
140
2.5
141
2.5
143
0.0393700787
147
0.625
171
     3
172
     1
178
     0
271
     2
272
     2
274
     3
278
    44
283
     0
284
     8
340
11
  0
DIMSTYLE
105
218
102
{ACAD_REACTORS
330
216
102
}
330
A
100
AcDbSymbolTableRecord
100
AcDbDimStyleTableRecord
  2
SLDDIMSTYLE0
 70
     0
 41
6.604
 44
0.0
 45
0.000000001
 73
     0
 74
     0
 77
     1
 78
    12
 79
     3
140
18.0
147
4.5
173
     1
178
     0
271
     0
276
     2
284
    12
340
217
341
219
343
219
344
219
  0
DIMSTYLE
105
237
102
{ACAD_REACTORS
330
236
102
}
330
A
100
AcDbSymbolTableRecord
100
AcDbDimStyleTableRecord
  2
SLDDIMSTYLE1
 70
     0
 41
6.604
 44
0.0
 45
0.000000001
 73
     0
 74
     0
 77
     1
 78
    12
 79
     3
140
18.0
147
4.5
173
     1
178
     0
271
     0
276
     2
284
    12
340
217
  0
ENDTAB
  0
TABLE
  2
BLOCK_RECORD
  5
1
330
0
100
AcDbSymbolTable
 70
    15
  0
BLOCK_RECORD
  5
1F
330
1
100
AcDbSymbolTableRecord
100
AcDbBlockTableRecord
  2
*Model_Space
340
22
 70
     0
280
     1
281
     0
  0
BLOCK_RECORD
  5
1B
330
1
100
AcDbSymbolTableRecord
100
AcDbBlockTableRecord
  2
*Paper_Space
340
1E
 70
     0
280
     1
281
     0
  0
BLOCK_RECORD
  5
23
330
1
100
AcDbSymbolTableRecord
100
AcDbBlockTableRecord
  2
*Paper_Space0
340
26
 70
     0
280
     1
281
     0
  0
BLOCK_RECORD
  5
75
330
1
100
AcDbSymbolTableRecord
100
AcDbBlockTableRecord
  2
_X0
340
0
102
{BLKREFS
331
20E
102
}
 70
     0
280
     1
281
     0
  0
BLOCK_RECORD
  5
7F
330
1
100
AcDbSymbolTableRecord
100
AcDbBlockTableRecord
  2
_X1
340
0
102
{BLKREFS
331
20D
102
}
 70
     0
280
     1
281
     0
  0
BLOCK_RECORD
  5
86
330
1
100
AcDbSymbolTableRecord
100
AcDbBlockTableRecord
  2
_X2
340
0
102
{BLKREFS
331
211
102
}
 70
     0
280
     1
281
     0
  0
BLOCK_RECORD
  5
DE
330
1
100
AcDbSymbolTableRecord
100
AcDbBlockTableRecord
  2
_X3
340
0
102
{BLKREFS
331
20B
102
}
 70
     0
280
     1
281
     0
  0
BLOCK_RECORD
  5
F1
330
1
100
AcDbSymbolTableRecord
100
AcDbBlockTableRecord
  2
_X4
340
0
102
{BLKREFS
331
20F
102
}
 70
     0
280
     1
281
     0
  0
BLOCK_RECORD
  5
FB
330
1
100
AcDbSymbolTableRecord
100
AcDbBlockTableRecord
  2
_X5
340
0
102
{BLKREFS
331
212
102
}
 70
     0
280
     1
281
     0
  0
BLOCK_RECORD
  5
102
330
1
100
AcDbSymbolTableRecord
100
AcDbBlockTableRecord
  2
_X6
340
0
102
{BLKREFS
331
210
102
}
 70
     0
280
     1
281
     0
  0
BLOCK_RECORD
  5
15A
330
1
100
AcDbSymbolTableRecord
100
AcDbBlockTableRecord
  2
_X9
340
0
102
{BLKREFS
331
20C
102
}
 70
     0
280
     1
281
     0
  0
BLOCK_RECORD
  5
16F
330
1
100
AcDbSymbolTableRecord
100
AcDbBlockTableRecord
  2
_X10
340
0
102
{BLKREFS
331
215
102
}
 70
     0
280
     1
281
     0
  0
BLOCK_RECORD
  5
17D
330
1
100
AcDbSymbolTableRecord
100
AcDbBlockTableRecord
  2
_X11
340
0
102
{BLKREFS
331
213
102
}
 70
     0
280
     1
281
     0
  0
BLOCK_RECORD
  5
185
330
1
100
AcDbSymbolTableRecord
100
AcDbBlockTableRecord
  2
_X12
340
0
102
{BLKREFS
331
214
102
}
 70
     0
280
     1
281
     0
  0
BLOCK_RECORD
  5
219
330
1
100
AcDbSymbolTableRecord
100
AcDbBlockTableRecord
  2
_NONE
340
0
 70
     0
280
     1
281
     0
  0
BLOCK_RECORD
  5
21C
330
1
100
AcDbSymbolTableRecord
100
AcDbBlockTableRecord
  2
_D
340
0
 70
     0
280
     1
281
     0
  0
BLOCK_RECORD
  5
238
330
1
100
AcDbSymbolTableRecord
100
AcDbBlockTableRecord
  2
_D_1
340
0
 70
     0
280
     1
281
     0
  0
ENDTAB
  0
ENDSEC
  0
SECTION
  2
BLOCKS
  0
BLOCK
  5
20
330
1F
100
AcDbEntity
  8
0
100
AcDbBlockBegin
  2
*Model_Space
 70
     0
 10
0.0
 20
0.0
 30
0.0
  3
*Model_Space
  1

  0
ENDBLK
  5
21
330
1F
100
AcDbEntity
  8
0
100
AcDbBlockEnd
  0
BLOCK
  5
1C
330
1B
100
AcDbEntity
 67
     1
  8
0
100
AcDbBlockBegin
  2
*Paper_Space
 70
     0
 10
0.0
 20
0.0
 30
0.0
  3
*Paper_Space
  1

  0
ENDBLK
  5
1D
330
1B
100
AcDbEntity
 67
     1
  8
0
100
AcDbBlockEnd
  0
BLOCK
  5
24
330
23
100
AcDbEntity
  8
0
100
AcDbBlockBegin
  2
*Paper_Space0
 70
     0
 10
0.0
 20
0.0
 30
0.0
  3
*Paper_Space0
  1

  0
ENDBLK
  5
25
330
23
100
AcDbEntity
  8
0
100
AcDbBlockEnd
  0
BLOCK
  5
76
330
75
100
AcDbEntity
  8
0
100
AcDbBlockBegin
  2
_X0
 70
     0
 10
0.0
 20
0.0
 30
0.0
  3
_X0
  1

  0
LINE
  5
78
330
75
100
AcDbEntity
  8
0
  6
SLD-Durchgehend
100
AcDbLine
 10
8.869386
 20
32.0
 30
0.0
 11
5.869386
 21
35.0
 31
0.0
  0
LINE
  5
79
330
75
100
AcDbEntity
  8
0
  6
SLD-Durchgehend
100
AcDbLine
 10
8.0
 20
27.212532
 30
0.0
 11
4.5
 21
30.712532
 31
0.0
  0
LINE
  5
7A
330
75
100
AcDbEntity
  8
0
  6
SLD-Durchgehend
100
AcDbLine
 10
8.0
 20
21.555676
 30
0.0
 11
4.5
 21
25.055676
 31
0.0
  0
LINE
  5
7B
330
75
100
AcDbEntity
  8
0
  6
SLD-Durchgehend
100
AcDbLine
 10
8.0
 20
15.898822
 30
0.0
 11
4.5
 21
19.398822
 31
0.0
  0
LINE
  5
7C
330
75
100
AcDbEntity
  8
0
  6
SLD-Durchgehend
100
AcDbLine
 10
8.0
 20
10.241968
 30
0.0
 11
4.5
 21
13.741968
 31
0.0
  0
LINE
  5
7D
330
75
100
AcDbEntity
  8
0
  6
SLD-Durchgehend
100
AcDbLine
 10
8.0
 20
4.585114
 30
0.0
 11
4.5
 21
8.085114
 31
0.0
  0
LINE
  5
7E
330
75
100
AcDbEntity
  8
0
  6
SLD-Durchgehend
100
AcDbLine
 10
6.241332
 20
0.68693
 30
0.0
 11
3.42826
 21
3.5
 31
0.0
  0
ENDBLK
  5
77
330
75
100
AcDbEntity
  8
0
100
AcDbBlockEnd
  0
BLOCK
  5
80
330
7F
100
AcDbEntity
  8
0
100
AcDbBlockBegin
  2
_X1
 70
     0
 10
0.0
 20
0.0
 30
0.0
  3
_X1
  1

  0
LINE
  5
82
330
7F
100
AcDbEntity
  8
0
  6
SLD-Durchgehend
100
AcDbLine
 10
8.0
 20
2.990036
 30
0.0
 11
6.990036
 21
4.0
 31
0.0
  0
LINE
  5
83
330
7F
100
AcDbEntity
  8
0
  6
SLD-Durchgehend
100
AcDbLine
 10
8.0
 20
0.161608
 30
0.0
 11
4.161608
 21
4.0
 31
0.0
  0
LINE
  5
84
330
7F
100
AcDbEntity
  8
0
  6
SLD-Durchgehend
100
AcDbLine
 10
5.333182
 20
0.0
 30
0.0
 11
1.333182
 21
4.0
 31
0.0
  0
LINE
  5
85
330
7F
100
AcDbEntity
  8
0
  6
SLD-Durchgehend
100
AcDbLine
 10
2.504754
 20
0.0
 30
0.0
 11
0.0
 21
2.504754
 31
0.0
  0
ENDBLK
  5
81
330
7F
100
AcDbEntity
  8
0
100
AcDbBlockEnd
  0
BLOCK
  5
87
330
86
100
AcDbEntity
  8
0
100
AcDbBlockBegin
  2
_X2
 70
     0
 10
0.0
 20
0.0
 30
0.0
  3
_X2
  1

  0
LINE
  5
89
330
86
100
AcDbEntity
  8
0
  6
SLD-Durchgehend
100
AcDbLine
 10
0.0
 20
2.319662
 30
0.0
 11
4.0
 21
6.319662
 31
0.0
  0
LINE
  5
8A
330
86
100
AcDbEntity
  8
0
  6
SLD-Durchgehend
100
AcDbLine
 10
0.0
 20
7.976518
 30
0.0
 11
4.0
 21
11.976518
 31
0.0
  0
LINE
  5
8B
330
86
100
AcDbEntity
  8
0
  6
SLD-Durchgehend
100
AcDbLine
 10
0.0
 20
13.633372
 30
0.0
 11
4.0
 21
17.633372
 31
0.0
  0
LINE
  5
8C
330
86
100
AcDbEntity
  8
0
  6
SLD-Durchgehend
100
AcDbLine
 10
0.0
 20
19.290226
 30
0.0
 11
4.0
 21
23.290226
 31
0.0
  0
LINE
  5
8D
330
86
100
AcDbEntity
  8
0
  6
SLD-Durchgehend
100
AcDbLine
 10
0.0
 20
24.94708
 30
0.0
 11
4.0
 21
28.94708
 31
0.0
  0
LINE
  5
8E
330
86
100
AcDbEntity
  8
0
  6
SLD-Durchgehend
100
AcDbLine
 10
0.0
 20
30.603934
 30
0.0
 11
4.0
 21
34.603934
 31
0.0
  0
LINE
  5
8F
330
86
100
AcDbEntity
  8
0
  6
SLD-Durchgehend
100
AcDbLine
 10
0.0
 20
36.260788
 30
0.0
 11
4.0
 21
40.260788
 31
0.0
  0
LINE
  5
90
330
86
100
AcDbEntity
  8
0
  6
SLD-Durchgehend
100
AcDbLine
 10
0.0
 20
41.917642
 30
0.0
 11
4.0
 21
45.917642
 31
0.0
  0
LINE
  5
91
330
86
100
AcDbEntity
  8
0
  6
SLD-Durchgehend
100
AcDbLine
 10
0.0
 20
47.574496
 30
0.0
 11
4.0
 21
51.574496
 31
0.0
  0
LINE
  5
92
330
86
100
AcDbEntity
  8
0
  6
SLD-Durchgehend
100
AcDbLine
 10
0.0
 20
53.231352
 30
0.0
 11
4.0
 21
57.231352
 31
0.0
  0
LINE
  5
93
330
86
100
AcDbEntity
  8
0
  6
SLD-Durchgehend
100
AcDbLine
 10
0.0
 20
58.888206
 30
0.0
 11
4.0
 21
62.888206
 31
0.0
  0
LINE
  5
94
330
86
100
AcDbEntity
  8
0
  6
SLD-Durchgehend
100
AcDbLine
 10
0.0
 20
64.54506
 30
0.0
 11
4.0
 21
68.54506
 31
0.0
  0
LINE
  5
95
330
86
100
AcDbEntity
  8
0
  6
SLD-Durchgehend
100
AcDbLine
 10
0.0
 20
70.201914
 30
0.0
 11
4.0
 21
74.201914
 31
0.0
  0
LINE
  5
96
330
86
100
AcDbEntity
  8
0
  6
SLD-Durchgehend
100
AcDbLine
 10
0.0
 20
75.858768
 30
0.0
 11
4.0
 21
79.858768
 31
0.0
  0
LINE
  5
97
330
86
100
AcDbEntity
  8
0
  6
SLD-Durchgehend
100
AcDbLine
 10
0.0
 20
81.515622
 30
0.0
 11
4.0
 21
85.515622
 31
0.0
  0
LINE
  5
98
330
86
100
AcDbEntity
  8
0
  6
SLD-Durchgehend
100
AcDbLine
 10
0.0
 20
87.172476
 30
0.0
 11
4.0
 21
91.172476
 31
0.0
  0
LINE
  5
99
330
86
100
AcDbEntity
  8
0
  6
SLD-Durchgehend
100
AcDbLine
 10
0.0
 20
92.82933
 30
0.0
 11
4.0
 21
96.82933
 31
0.0
  0
LINE
  5
9A
330
86
100
AcDbEntity
  8
0
  6
SLD-Durchgehend
100
AcDbLine
 10
0.0
 20
98.486186
 30
0.0
 11
4.0
 21
102.486186
 31
0.0
  0
LINE
  5
9B
330
86
100
AcDbEntity
  8
0
  6
SLD-Durchgehend
100
AcDbLine
 10
0.0
 20
104.14304
 30
0.0
 11
4.0
 21
108.14304
 31
0.0
  0
LINE
  5
9C
330
86
100
AcDbEntity
  8
0
  6
SLD-Durchgehend
100
AcDbLine
 10
0.0
 20
109.799894
 30
0.0
 11
4.0
 21
113.799894
 31
0.0
  0
LINE
  5
9D
330
86
100
AcDbEntity
  8
0
  6
SLD-Durchgehend
100
AcDbLine
 10
0.0
 20
115.456748
 30
0.0
 11
4.0
 21
119.456748
 31
0.0
  0
LINE
  5
9E
330
86
100
AcDbEntity
  8
0
  6
SLD-Durchgehend
100
AcDbLine
 10
0.0
 20
121.113602
 30
0.0
 11
4.0
 21
125.113602
 31
0.0
  0
LINE
  5
9F
330
86
100
AcDbEntity
  8
0
  6
SLD-Durchgehend
100
AcDbLine
 10
0.0
 20
126.770456
 30
0.0
 11
4.0
 21
130.770456
 31
0.0
  0
LINE
  5
A0
330
86
100
AcDbEntity
  8
0
  6
SLD-Durchgehend
100
AcDbLine
 10
0.0
 20
132.42731
 30
0.0
 11
4.0
 21
136.42731
 31
0.0
  0
LINE
  5
A1
330
86
100
AcDbEntity
  8
0
  6
SLD-Durchgehend
100
AcDbLine
 10
0.0
 20
138.084164
 30
0.0
 11
4.0
 21
142.084164
 31
0.0
  0
LINE
  5
A2
330
86
100
AcDbEntity
  8
0
  6
SLD-Durchgehend
100
AcDbLine
 10
0.0
 20
143.74102
 30
0.0
 11
4.0
 21
147.74102
 31
0.0
  0
LINE
  5
A3
330
86
100
AcDbEntity
  8
0
  6
SLD-Durchgehend
100
AcDbLine
 10
0.0
 20
149.397874
 30
0.0
 11
4.0
 21
153.397874
 31
0.0
  0
LINE
  5
A4
330
86
100
AcDbEntity
  8
0
  6
SLD-Durchgehend
100
AcDbLine
 10
0.0
 20
155.054728
 30
0.0
 11
4.0
 21
159.054728
 31
0.0
  0
LINE
  5
A5
330
86
100
AcDbEntity
  8
0
  6
SLD-Durchgehend
100
AcDbLine
 10
0.0
 20
160.711582
 30
0.0
 11
4.0
 21
164.711582
 31
0.0
  0
LINE
  5
A6
330
86
100
AcDbEntity
  8
0
  6
SLD-Durchgehend
100
AcDbLine
 10
0.0
 20
166.368436
 30
0.0
 11
4.0
 21
170.368436
 31
0.0
  0
LINE
  5
A7
330
86
100
AcDbEntity
  8
0
  6
SLD-Durchgehend
100
AcDbLine
 10
0.0
 20
172.02529
 30
0.0
 11
4.0
 21
176.02529
 31
0.0
  0
LINE
  5
A8
330
86
100
AcDbEntity
  8
0
  6
SLD-Durchgehend
100
AcDbLine
 10
0.0
 20
177.682144
 30
0.0
 11
4.0
 21
181.682144
 31
0.0
  0
LINE
  5
A9
330
86
100
AcDbEntity
  8
0
  6
SLD-Durchgehend
100
AcDbLine
 10
0.0
 20
183.338998
 30
0.0
 11
4.0
 21
187.338998
 31
0.0
  0
LINE
  5
AA
330
86
100
AcDbEntity
  8
0
  6
SLD-Durchgehend
100
AcDbLine
 10
0.0
 20
188.995854
 30
0.0
 11
4.0
 21
192.995854
 31
0.0
  0
LINE
  5
AB
330
86
100
AcDbEntity
  8
0
  6
SLD-Durchgehend
100
AcDbLine
 10
0.0
 20
194.652708
 30
0.0
 11
4.0
 21
198.652708
 31
0.0
  0
LINE
  5
AC
330
86
100
AcDbEntity
  8
0
  6
SLD-Durchgehend
100
AcDbLine
 10
0.0
 20
200.309562
 30
0.0
 11
4.0
 21
204.309562
 31
0.0
  0
LINE
  5
AD
330
86
100
AcDbEntity
  8
0
  6
SLD-Durchgehend
100
AcDbLine
 10
0.0
 20
205.966416
 30
0.0
 11
4.0
 21
209.966416
 31
0.0
  0
LINE
  5
AE
330
86
100
AcDbEntity
  8
0
  6
SLD-Durchgehend
100
AcDbLine
 10
0.0
 20
211.62327
 30
0.0
 11
4.0
 21
215.62327
 31
0.0
  0
LINE
  5
AF
330
86
100
AcDbEntity
  8
0
  6
SLD-Durchgehend
100
AcDbLine
 10
0.0
 20
217.280124
 30
0.0
 11
4.0
 21
221.280124
 31
0.0
  0
LINE
  5
B0
330
86
100
AcDbEntity
  8
0
  6
SLD-Durchgehend
100
AcDbLine
 10
0.0
 20
222.936978
 30
0.0
 11
4.0
 21
226.936978
 31
0.0
  0
LINE
  5
B1
330
86
100
AcDbEntity
  8
0
  6
SLD-Durchgehend
100
AcDbLine
 10
0.0
 20
228.593832
 30
0.0
 11
4.0
 21
232.593832
 31
0.0
  0
LINE
  5
B2
330
86
100
AcDbEntity
  8
0
  6
SLD-Durchgehend
100
AcDbLine
 10
0.0
 20
234.250688
 30
0.0
 11
4.0
 21
238.250688
 31
0.0
  0
LINE
  5
B3
330
86
100
AcDbEntity
  8
0
  6
SLD-Durchgehend
100
AcDbLine
 10
0.0
 20
239.907542
 30
0.0
 11
4.0
 21
243.907542
 31
0.0
  0
LINE
  5
B4
330
86
100
AcDbEntity
  8
0
  6
SLD-Durchgehend
100
AcDbLine
 10
0.0
 20
245.564396
 30
0.0
 11
4.0
 21
249.564396
 31
0.0
  0
LINE
  5
B5
330
86
100
AcDbEntity
  8
0
  6
SLD-Durchgehend
100
AcDbLine
 10
0.0
 20
251.22125
 30
0.0
 11
4.0
 21
255.22125
 31
0.0
  0
LINE
  5
B6
330
86
100
AcDbEntity
  8
0
  6
SLD-Durchgehend
100
AcDbLine
 10
0.0
 20
256.878104
 30
0.0
 11
4.0
 21
260.878104
 31
0.0
  0
LINE
  5
B7
330
86
100
AcDbEntity
  8
0
  6
SLD-Durchgehend
100
AcDbLine
 10
0.0
 20
262.534958
 30
0.0
 11
4.0
 21
266.534958
 31
0.0
  0
LINE
  5
B8
330
86
100
AcDbEntity
  8
0
  6
SLD-Durchgehend
100
AcDbLine
 10
0.0
 20
268.191812
 30
0.0
 11
4.0
 21
272.191812
 31
0.0
  0
LINE
  5
B9
330
86
100
AcDbEntity
  8
0
  6
SLD-Durchgehend
100
AcDbLine
 10
0.0
 20
273.848666
 30
0.0
 11
4.0
 21
277.848666
 31
0.0
  0
LINE
  5
BA
330
86
100
AcDbEntity
  8
0
  6
SLD-Durchgehend
100
AcDbLine
 10
0.0
 20
279.505522
 30
0.0
 11
4.0
 21
283.505522
 31
0.0
  0
LINE
  5
BB
330
86
100
AcDbEntity
  8
0
  6
SLD-Durchgehend
100
AcDbLine
 10
0.0
 20
285.162376
 30
0.0
 11
4.0
 21
289.162376
 31
0.0
  0
LINE
  5
BC
330
86
100
AcDbEntity
  8
0
  6
SLD-Durchgehend
100
AcDbLine
 10
0.0
 20
290.81923
 30
0.0
 11
4.0
 21
294.81923
 31
0.0
  0
LINE
  5
BD
330
86
100
AcDbEntity
  8
0
  6
SLD-Durchgehend
100
AcDbLine
 10
0.0
 20
296.476084
 30
0.0
 11
4.0
 21
300.476084
 31
0.0
  0
LINE
  5
BE
330
86
100
AcDbEntity
  8
0
  6
SLD-Durchgehend
100
AcDbLine
 10
0.0
 20
302.132938
 30
0.0
 11
4.0
 21
306.132938
 31
0.0
  0
LINE
  5
BF
330
86
100
AcDbEntity
  8
0
  6
SLD-Durchgehend
100
AcDbLine
 10
0.0
 20
307.789792
 30
0.0
 11
4.0
 21
311.789792
 31
0.0
  0
LINE
  5
C0
330
86
100
AcDbEntity
  8
0
  6
SLD-Durchgehend
100
AcDbLine
 10
0.0
 20
313.446646
 30
0.0
 11
4.0
 21
317.446646
 31
0.0
  0
LINE
  5
C1
330
86
100
AcDbEntity
  8
0
  6
SLD-Durchgehend
100
AcDbLine
 10
0.0
 20
319.1035
 30
0.0
 11
4.0
 21
323.1035
 31
0.0
  0
LINE
  5
C2
330
86
100
AcDbEntity
  8
0
  6
SLD-Durchgehend
100
AcDbLine
 10
0.0
 20
324.760356
 30
0.0
 11
4.0
 21
328.760356
 31
0.0
  0
LINE
  5
C3
330
86
100
AcDbEntity
  8
0
  6
SLD-Durchgehend
100
AcDbLine
 10
0.0
 20
330.41721
 30
0.0
 11
4.0
 21
334.41721
 31
0.0
  0
LINE
  5
C4
330
86
100
AcDbEntity
  8
0
  6
SLD-Durchgehend
100
AcDbLine
 10
0.0
 20
336.074064
 30
0.0
 11
4.0
 21
340.074064
 31
0.0
  0
LINE
  5
C5
330
86
100
AcDbEntity
  8
0
  6
SLD-Durchgehend
100
AcDbLine
 10
0.0
 20
341.730918
 30
0.0
 11
4.0
 21
345.730918
 31
0.0
  0
LINE
  5
C6
330
86
100
AcDbEntity
  8
0
  6
SLD-Durchgehend
100
AcDbLine
 10
0.0
 20
347.387772
 30
0.0
 11
4.0
 21
351.387772
 31
0.0
  0
LINE
  5
C7
330
86
100
AcDbEntity
  8
0
  6
SLD-Durchgehend
100
AcDbLine
 10
0.0
 20
353.044626
 30
0.0
 11
4.0
 21
357.044626
 31
0.0
  0
LINE
  5
C8
330
86
100
AcDbEntity
  8
0
  6
SLD-Durchgehend
100
AcDbLine
 10
0.0
 20
358.70148
 30
0.0
 11
4.0
 21
362.70148
 31
0.0
  0
LINE
  5
C9
330
86
100
AcDbEntity
  8
0
  6
SLD-Durchgehend
100
AcDbLine
 10
0.0
 20
364.358334
 30
0.0
 11
4.0
 21
368.358334
 31
0.0
  0
LINE
  5
CA
330
86
100
AcDbEntity
  8
0
  6
SLD-Durchgehend
100
AcDbLine
 10
0.0
 20
370.01519
 30
0.0
 11
4.0
 21
374.01519
 31
0.0
  0
LINE
  5
CB
330
86
100
AcDbEntity
  8
0
  6
SLD-Durchgehend
100
AcDbLine
 10
0.0
 20
375.672044
 30
0.0
 11
4.0
 21
379.672044
 31
0.0
  0
LINE
  5
CC
330
86
100
AcDbEntity
  8
0
  6
SLD-Durchgehend
100
AcDbLine
 10
0.0
 20
381.328898
 30
0.0
 11
4.0
 21
385.328898
 31
0.0
  0
LINE
  5
CD
330
86
100
AcDbEntity
  8
0
  6
SLD-Durchgehend
100
AcDbLine
 10
0.0
 20
386.985752
 30
0.0
 11
4.0
 21
390.985752
 31
0.0
  0
LINE
  5
CE
330
86
100
AcDbEntity
  8
0
  6
SLD-Durchgehend
100
AcDbLine
 10
0.0
 20
392.642606
 30
0.0
 11
4.0
 21
396.642606
 31
0.0
  0
LINE
  5
CF
330
86
100
AcDbEntity
  8
0
  6
SLD-Durchgehend
100
AcDbLine
 10
0.0
 20
398.29946
 30
0.0
 11
4.0
 21
402.29946
 31
0.0
  0
LINE
  5
D0
330
86
100
AcDbEntity
  8
0
  6
SLD-Durchgehend
100
AcDbLine
 10
0.0
 20
403.956314
 30
0.0
 11
4.0
 21
407.956314
 31
0.0
  0
LINE
  5
D1
330
86
100
AcDbEntity
  8
0
  6
SLD-Durchgehend
100
AcDbLine
 10
0.0
 20
409.613168
 30
0.0
 11
4.0
 21
413.613168
 31
0.0
  0
LINE
  5
D2
330
86
100
AcDbEntity
  8
0
  6
SLD-Durchgehend
100
AcDbLine
 10
0.0
 20
415.270022
 30
0.0
 11
4.0
 21
419.270022
 31
0.0
  0
LINE
  5
D3
330
86
100
AcDbEntity
  8
0
  6
SLD-Durchgehend
100
AcDbLine
 10
0.0
 20
420.926878
 30
0.0
 11
4.0
 21
424.926878
 31
0.0
  0
LINE
  5
D4
330
86
100
AcDbEntity
  8
0
  6
SLD-Durchgehend
100
AcDbLine
 10
0.0
 20
426.583732
 30
0.0
 11
4.0
 21
430.583732
 31
0.0
  0
LINE
  5
D5
330
86
100
AcDbEntity
  8
0
  6
SLD-Durchgehend
100
AcDbLine
 10
0.0
 20
432.240586
 30
0.0
 11
4.0
 21
436.240586
 31
0.0
  0
LINE
  5
D6
330
86
100
AcDbEntity
  8
0
  6
SLD-Durchgehend
100
AcDbLine
 10
0.0
 20
437.89744
 30
0.0
 11
4.0
 21
441.89744
 31
0.0
  0
LINE
  5
D7
330
86
100
AcDbEntity
  8
0
  6
SLD-Durchgehend
100
AcDbLine
 10
0.0
 20
443.554294
 30
0.0
 11
4.0
 21
447.554294
 31
0.0
  0
LINE
  5
D8
330
86
100
AcDbEntity
  8
0
  6
SLD-Durchgehend
100
AcDbLine
 10
0.0
 20
449.211148
 30
0.0
 11
4.0
 21
453.211148
 31
0.0
  0
LINE
  5
D9
330
86
100
AcDbEntity
  8
0
  6
SLD-Durchgehend
100
AcDbLine
 10
0.0
 20
454.868002
 30
0.0
 11
4.0
 21
458.868002
 31
0.0
  0
LINE
  5
DA
330
86
100
AcDbEntity
  8
0
  6
SLD-Durchgehend
100
AcDbLine
 10
0.0
 20
460.524856
 30
0.0
 11
4.0
 21
464.524856
 31
0.0
  0
LINE
  5
DB
330
86
100
AcDbEntity
  8
0
  6
SLD-Durchgehend
100
AcDbLine
 10
0.0
 20
466.181712
 30
0.0
 11
4.0
 21
470.181712
 31
0.0
  0
LINE
  5
DC
330
86
100
AcDbEntity
  8
0
  6
SLD-Durchgehend
100
AcDbLine
 10
4.241796
 20
470.423506
 30
0.0
 11
6.921894
 21
473.103606
 31
0.0
  0
LINE
  5
DD
330
86
100
AcDbEntity
  8
0
  6
SLD-Durchgehend
100
AcDbLine
 10
0.0
 20
471.838566
 30
0.0
 11
3.584942
 21
475.423506
 31
0.0
  0
ENDBLK
  5
88
330
86
100
AcDbEntity
  8
0
100
AcDbBlockEnd
  0
BLOCK
  5
DF
330
DE
100
AcDbEntity
  8
0
100
AcDbBlockBegin
  2
_X3
 70
     0
 10
0.0
 20
0.0
 30
0.0
  3
_X3
  1

  0
LINE
  5
E1
330
DE
100
AcDbEntity
  8
0
  6
SLD-Durchgehend
100
AcDbLine
 10
48.005808
 20
0.086688
 30
0.0
 11
48.329326
 21
0.410206
 31
0.0
  0
LINE
  5
E2
330
DE
100
AcDbEntity
  8
0
  6
SLD-Durchgehend
100
AcDbLine
 10
43.54439
 20
1.282124
 30
0.0
 11
48.329326
 21
6.06706
 31
0.0
  0
LINE
  5
E3
330
DE
100
AcDbEntity
  8
0
  6
SLD-Durchgehend
100
AcDbLine
 10
39.082972
 20
2.47756
 30
0.0
 11
43.98195
 21
7.376538
 31
0.0
  0
LINE
  5
E4
330
DE
100
AcDbEntity
  8
0
  6
SLD-Durchgehend
100
AcDbLine
 10
44.329326
 20
7.723914
 30
0.0
 11
48.329326
 21
11.723914
 31
0.0
  0
LINE
  5
E5
330
DE
100
AcDbEntity
  8
0
  6
SLD-Durchgehend
100
AcDbLine
 10
34.621554
 20
3.672996
 30
0.0
 11
39.520532
 21
8.571974
 31
0.0
  0
LINE
  5
E6
330
DE
100
AcDbEntity
  8
0
  6
SLD-Durchgehend
100
AcDbLine
 10
44.329326
 20
13.380768
 30
0.0
 11
48.329326
 21
17.380768
 31
0.0
  0
LINE
  5
E7
330
DE
100
AcDbEntity
  8
0
  6
SLD-Durchgehend
100
AcDbLine
 10
30.160136
 20
4.868432
 30
0.0
 11
35.059114
 21
9.76741
 31
0.0
  0
LINE
  5
E8
330
DE
100
AcDbEntity
  8
0
  6
SLD-Durchgehend
100
AcDbLine
 10
44.329326
 20
19.037622
 30
0.0
 11
48.329326
 21
23.037622
 31
0.0
  0
LINE
  5
E9
330
DE
100
AcDbEntity
  8
0
  6
SLD-Durchgehend
100
AcDbLine
 10
25.698718
 20
6.06387
 30
0.0
 11
33.047186
 21
13.412336
 31
0.0
  0
LINE
  5
EA
330
DE
100
AcDbEntity
  8
0
  6
SLD-Durchgehend
100
AcDbLine
 10
41.329326
 20
21.694476
 30
0.0
 11
44.718308
 21
25.083458
 31
0.0
  0
LINE
  5
EB
330
DE
100
AcDbEntity
  8
0
  6
SLD-Durchgehend
100
AcDbLine
 10
21.2373
 20
7.259306
 30
0.0
 11
28.585768
 21
14.607772
 31
0.0
  0
LINE
  5
EC
330
DE
100
AcDbEntity
  8
0
  6
SLD-Durchgehend
100
AcDbLine
 10
16.775884
 20
8.454742
 30
0.0
 11
24.12435
 21
15.803208
 31
0.0
  0
LINE
  5
ED
330
DE
100
AcDbEntity
  8
0
  6
SLD-Durchgehend
100
AcDbLine
 10
12.314466
 20
9.650178
 30
0.0
 11
19.662932
 21
16.998644
 31
0.0
  0
LINE
  5
EE
330
DE
100
AcDbEntity
  8
0
  6
SLD-Durchgehend
100
AcDbLine
 10
7.853048
 20
10.845614
 30
0.0
 11
15.201514
 21
18.194082
 31
0.0
  0
LINE
  5
EF
330
DE
100
AcDbEntity
  8
0
  6
SLD-Durchgehend
100
AcDbLine
 10
3.39163
 20
12.041052
 30
0.0
 11
10.740096
 21
19.389518
 31
0.0
  0
LINE
  5
F0
330
DE
100
AcDbEntity
  8
0
  6
SLD-Durchgehend
100
AcDbLine
 10
0.496492
 20
14.802768
 30
0.0
 11
6.278678
 21
20.584954
 31
0.0
  0
ENDBLK
  5
E0
330
DE
100
AcDbEntity
  8
0
100
AcDbBlockEnd
  0
BLOCK
  5
F2
330
F1
100
AcDbEntity
  8
0
100
AcDbBlockBegin
  2
_X4
 70
     0
 10
0.0
 20
0.0
 30
0.0
  3
_X4
  1

  0
LINE
  5
F4
330
F1
100
AcDbEntity
  8
0
  6
SLD-Durchgehend
100
AcDbLine
 10
6.5
 20
31.202864
 30
0.0
 11
2.702864
 21
35.0
 31
0.0
  0
LINE
  5
F5
330
F1
100
AcDbEntity
  8
0
  6
SLD-Durchgehend
100
AcDbLine
 10
6.5
 20
25.546008
 30
0.0
 11
3.0
 21
29.046008
 31
0.0
  0
LINE
  5
F6
330
F1
100
AcDbEntity
  8
0
  6
SLD-Durchgehend
100
AcDbLine
 10
0.04601
 20
32.0
 30
0.0
 11
0.0
 21
32.046008
 31
0.0
  0
LINE
  5
F7
330
F1
100
AcDbEntity
  8
0
  6
SLD-Durchgehend
100
AcDbLine
 10
6.5
 20
19.889154
 30
0.0
 11
3.0
 21
23.389154
 31
0.0
  0
LINE
  5
F8
330
F1
100
AcDbEntity
  8
0
  6
SLD-Durchgehend
100
AcDbLine
 10
6.5
 20
14.2323
 30
0.0
 11
3.0
 21
17.7323
 31
0.0
  0
LINE
  5
F9
330
F1
100
AcDbEntity
  8
0
  6
SLD-Durchgehend
100
AcDbLine
 10
6.5
 20
8.575446
 30
0.0
 11
3.0
 21
12.075446
 31
0.0
  0
LINE
  5
FA
330
F1
100
AcDbEntity
  8
0
  6
SLD-Durchgehend
100
AcDbLine
 10
8.984972
 20
0.43362
 30
0.0
 11
3.0
 21
6.418592
 31
0.0
  0
ENDBLK
  5
F3
330
F1
100
AcDbEntity
  8
0
100
AcDbBlockEnd
  0
BLOCK
  5
FC
330
FB
100
AcDbEntity
  8
0
100
AcDbBlockBegin
  2
_X5
 70
     0
 10
0.0
 20
0.0
 30
0.0
  3
_X5
  1

  0
LINE
  5
FE
330
FB
100
AcDbEntity
  8
0
  6
SLD-Durchgehend
100
AcDbLine
 10
8.0
 20
2.622502
 30
0.0
 11
6.622504
 21
4.0
 31
0.0
  0
LINE
  5
FF
330
FB
100
AcDbEntity
  8
0
  6
SLD-Durchgehend
100
AcDbLine
 10
7.794076
 20
0.0
 30
0.0
 11
3.794076
 21
4.0
 31
0.0
  0
LINE
  5
100
330
FB
100
AcDbEntity
  8
0
  6
SLD-Durchgehend
100
AcDbLine
 10
4.96565
 20
0.0
 30
0.0
 11
0.96565
 21
4.0
 31
0.0
  0
LINE
  5
101
330
FB
100
AcDbEntity
  8
0
  6
SLD-Durchgehend
100
AcDbLine
 10
2.137222
 20
0.0
 30
0.0
 11
0.0
 21
2.137222
 31
0.0
  0
ENDBLK
  5
FD
330
FB
100
AcDbEntity
  8
0
100
AcDbBlockEnd
  0
BLOCK
  5
103
330
102
100
AcDbEntity
  8
0
100
AcDbBlockBegin
  2
_X6
 70
     0
 10
0.0
 20
0.0
 30
0.0
  3
_X6
  1

  0
LINE
  5
105
330
102
100
AcDbEntity
  8
0
  6
SLD-Durchgehend
100
AcDbLine
 10
61.152664
 20
1.929384
 30
0.0
 11
63.082048
 21
3.858768
 31
0.0
  0
LINE
  5
106
330
102
100
AcDbEntity
  8
0
  6
SLD-Durchgehend
100
AcDbLine
 10
59.082048
 20
5.515622
 30
0.0
 11
63.082048
 21
9.515622
 31
0.0
  0
LINE
  5
107
330
102
100
AcDbEntity
  8
0
  6
SLD-Durchgehend
100
AcDbLine
 10
59.082048
 20
11.172476
 30
0.0
 11
63.082048
 21
15.172476
 31
0.0
  0
LINE
  5
108
330
102
100
AcDbEntity
  8
0
  6
SLD-Durchgehend
100
AcDbLine
 10
59.082048
 20
16.82933
 30
0.0
 11
63.082048
 21
20.82933
 31
0.0
  0
LINE
  5
109
330
102
100
AcDbEntity
  8
0
  6
SLD-Durchgehend
100
AcDbLine
 10
59.082048
 20
22.486186
 30
0.0
 11
63.082048
 21
26.486186
 31
0.0
  0
LINE
  5
10A
330
102
100
AcDbEntity
  8
0
  6
SLD-Durchgehend
100
AcDbLine
 10
59.082048
 20
28.14304
 30
0.0
 11
63.082048
 21
32.14304
 31
0.0
  0
LINE
  5
10B
330
102
100
AcDbEntity
  8
0
  6
SLD-Durchgehend
100
AcDbLine
 10
59.082048
 20
33.799894
 30
0.0
 11
63.082048
 21
37.799894
 31
0.0
  0
LINE
  5
10C
330
102
100
AcDbEntity
  8
0
  6
SLD-Durchgehend
100
AcDbLine
 10
59.082048
 20
39.456748
 30
0.0
 11
63.082048
 21
43.456748
 31
0.0
  0
LINE
  5
10D
330
102
100
AcDbEntity
  8
0
  6
SLD-Durchgehend
100
AcDbLine
 10
59.082048
 20
45.113602
 30
0.0
 11
63.082048
 21
49.113602
 31
0.0
  0
LINE
  5
10E
330
102
100
AcDbEntity
  8
0
  6
SLD-Durchgehend
100
AcDbLine
 10
59.082048
 20
50.770456
 30
0.0
 11
63.082048
 21
54.770456
 31
0.0
  0
LINE
  5
10F
330
102
100
AcDbEntity
  8
0
  6
SLD-Durchgehend
100
AcDbLine
 10
59.082048
 20
56.42731
 30
0.0
 11
63.082048
 21
60.42731
 31
0.0
  0
LINE
  5
110
330
102
100
AcDbEntity
  8
0
  6
SLD-Durchgehend
100
AcDbLine
 10
59.082048
 20
62.084164
 30
0.0
 11
63.082048
 21
66.084164
 31
0.0
  0
LINE
  5
111
330
102
100
AcDbEntity
  8
0
  6
SLD-Durchgehend
100
AcDbLine
 10
59.082048
 20
67.74102
 30
0.0
 11
63.082048
 21
71.74102
 31
0.0
  0
LINE
  5
112
330
102
100
AcDbEntity
  8
0
  6
SLD-Durchgehend
100
AcDbLine
 10
59.082048
 20
73.397874
 30
0.0
 11
63.082048
 21
77.397874
 31
0.0
  0
LINE
  5
113
330
102
100
AcDbEntity
  8
0
  6
SLD-Durchgehend
100
AcDbLine
 10
59.082048
 20
79.054728
 30
0.0
 11
63.082048
 21
83.054728
 31
0.0
  0
LINE
  5
114
330
102
100
AcDbEntity
  8
0
  6
SLD-Durchgehend
100
AcDbLine
 10
59.082048
 20
84.711582
 30
0.0
 11
63.082048
 21
88.711582
 31
0.0
  0
LINE
  5
115
330
102
100
AcDbEntity
  8
0
  6
SLD-Durchgehend
100
AcDbLine
 10
59.082048
 20
90.368436
 30
0.0
 11
63.082048
 21
94.368436
 31
0.0
  0
LINE
  5
116
330
102
100
AcDbEntity
  8
0
  6
SLD-Durchgehend
100
AcDbLine
 10
59.082048
 20
96.02529
 30
0.0
 11
63.082048
 21
100.02529
 31
0.0
  0
LINE
  5
117
330
102
100
AcDbEntity
  8
0
  6
SLD-Durchgehend
100
AcDbLine
 10
59.082048
 20
101.682144
 30
0.0
 11
63.082048
 21
105.682144
 31
0.0
  0
LINE
  5
118
330
102
100
AcDbEntity
  8
0
  6
SLD-Durchgehend
100
AcDbLine
 10
59.082048
 20
107.338998
 30
0.0
 11
63.082048
 21
111.338998
 31
0.0
  0
LINE
  5
119
330
102
100
AcDbEntity
  8
0
  6
SLD-Durchgehend
100
AcDbLine
 10
59.082048
 20
112.995854
 30
0.0
 11
63.082048
 21
116.995854
 31
0.0
  0
LINE
  5
11A
330
102
100
AcDbEntity
  8
0
  6
SLD-Durchgehend
100
AcDbLine
 10
59.082048
 20
118.652708
 30
0.0
 11
63.082048
 21
122.652708
 31
0.0
  0
LINE
  5
11B
330
102
100
AcDbEntity
  8
0
  6
SLD-Durchgehend
100
AcDbLine
 10
59.082048
 20
124.309562
 30
0.0
 11
63.082048
 21
128.309562
 31
0.0
  0
LINE
  5
11C
330
102
100
AcDbEntity
  8
0
  6
SLD-Durchgehend
100
AcDbLine
 10
59.082048
 20
129.966416
 30
0.0
 11
63.082048
 21
133.966416
 31
0.0
  0
LINE
  5
11D
330
102
100
AcDbEntity
  8
0
  6
SLD-Durchgehend
100
AcDbLine
 10
59.082048
 20
135.62327
 30
0.0
 11
63.082048
 21
139.62327
 31
0.0
  0
LINE
  5
11E
330
102
100
AcDbEntity
  8
0
  6
SLD-Durchgehend
100
AcDbLine
 10
59.082048
 20
141.280124
 30
0.0
 11
63.082048
 21
145.280124
 31
0.0
  0
LINE
  5
11F
330
102
100
AcDbEntity
  8
0
  6
SLD-Durchgehend
100
AcDbLine
 10
59.082048
 20
146.936978
 30
0.0
 11
63.082048
 21
150.936978
 31
0.0
  0
LINE
  5
120
330
102
100
AcDbEntity
  8
0
  6
SLD-Durchgehend
100
AcDbLine
 10
59.082048
 20
152.593832
 30
0.0
 11
63.082048
 21
156.593832
 31
0.0
  0
LINE
  5
121
330
102
100
AcDbEntity
  8
0
  6
SLD-Durchgehend
100
AcDbLine
 10
59.082048
 20
158.250688
 30
0.0
 11
63.082048
 21
162.250688
 31
0.0
  0
LINE
  5
122
330
102
100
AcDbEntity
  8
0
  6
SLD-Durchgehend
100
AcDbLine
 10
59.082048
 20
163.907542
 30
0.0
 11
63.082048
 21
167.907542
 31
0.0
  0
LINE
  5
123
330
102
100
AcDbEntity
  8
0
  6
SLD-Durchgehend
100
AcDbLine
 10
59.082048
 20
169.564396
 30
0.0
 11
63.082048
 21
173.564396
 31
0.0
  0
LINE
  5
124
330
102
100
AcDbEntity
  8
0
  6
SLD-Durchgehend
100
AcDbLine
 10
59.082048
 20
175.22125
 30
0.0
 11
63.082048
 21
179.22125
 31
0.0
  0
LINE
  5
125
330
102
100
AcDbEntity
  8
0
  6
SLD-Durchgehend
100
AcDbLine
 10
59.082048
 20
180.878104
 30
0.0
 11
63.082048
 21
184.878104
 31
0.0
  0
LINE
  5
126
330
102
100
AcDbEntity
  8
0
  6
SLD-Durchgehend
100
AcDbLine
 10
59.082048
 20
186.534958
 30
0.0
 11
63.082048
 21
190.534958
 31
0.0
  0
LINE
  5
127
330
102
100
AcDbEntity
  8
0
  6
SLD-Durchgehend
100
AcDbLine
 10
59.082048
 20
192.191812
 30
0.0
 11
63.082048
 21
196.191812
 31
0.0
  0
LINE
  5
128
330
102
100
AcDbEntity
  8
0
  6
SLD-Durchgehend
100
AcDbLine
 10
59.082048
 20
197.848666
 30
0.0
 11
63.082048
 21
201.848666
 31
0.0
  0
LINE
  5
129
330
102
100
AcDbEntity
  8
0
  6
SLD-Durchgehend
100
AcDbLine
 10
59.082048
 20
203.505522
 30
0.0
 11
63.082048
 21
207.505522
 31
0.0
  0
LINE
  5
12A
330
102
100
AcDbEntity
  8
0
  6
SLD-Durchgehend
100
AcDbLine
 10
59.082048
 20
209.162376
 30
0.0
 11
63.082048
 21
213.162376
 31
0.0
  0
LINE
  5
12B
330
102
100
AcDbEntity
  8
0
  6
SLD-Durchgehend
100
AcDbLine
 10
59.082048
 20
214.81923
 30
0.0
 11
63.082048
 21
218.81923
 31
0.0
  0
LINE
  5
12C
330
102
100
AcDbEntity
  8
0
  6
SLD-Durchgehend
100
AcDbLine
 10
59.082048
 20
220.476084
 30
0.0
 11
63.082048
 21
224.476084
 31
0.0
  0
LINE
  5
12D
330
102
100
AcDbEntity
  8
0
  6
SLD-Durchgehend
100
AcDbLine
 10
59.082048
 20
226.132938
 30
0.0
 11
63.082048
 21
230.132938
 31
0.0
  0
LINE
  5
12E
330
102
100
AcDbEntity
  8
0
  6
SLD-Durchgehend
100
AcDbLine
 10
59.082048
 20
231.789792
 30
0.0
 11
63.082048
 21
235.789792
 31
0.0
  0
LINE
  5
12F
330
102
100
AcDbEntity
  8
0
  6
SLD-Durchgehend
100
AcDbLine
 10
59.082048
 20
237.446646
 30
0.0
 11
63.082048
 21
241.446646
 31
0.0
  0
LINE
  5
130
330
102
100
AcDbEntity
  8
0
  6
SLD-Durchgehend
100
AcDbLine
 10
59.082048
 20
243.1035
 30
0.0
 11
63.082048
 21
247.1035
 31
0.0
  0
LINE
  5
131
330
102
100
AcDbEntity
  8
0
  6
SLD-Durchgehend
100
AcDbLine
 10
59.082048
 20
248.760356
 30
0.0
 11
63.082048
 21
252.760356
 31
0.0
  0
LINE
  5
132
330
102
100
AcDbEntity
  8
0
  6
SLD-Durchgehend
100
AcDbLine
 10
59.082048
 20
254.41721
 30
0.0
 11
63.082048
 21
258.41721
 31
0.0
  0
LINE
  5
133
330
102
100
AcDbEntity
  8
0
  6
SLD-Durchgehend
100
AcDbLine
 10
59.082048
 20
260.074064
 30
0.0
 11
63.082048
 21
264.074064
 31
0.0
  0
LINE
  5
134
330
102
100
AcDbEntity
  8
0
  6
SLD-Durchgehend
100
AcDbLine
 10
59.082048
 20
265.730918
 30
0.0
 11
63.082048
 21
269.730918
 31
0.0
  0
LINE
  5
135
330
102
100
AcDbEntity
  8
0
  6
SLD-Durchgehend
100
AcDbLine
 10
59.082048
 20
271.387772
 30
0.0
 11
63.082048
 21
275.387772
 31
0.0
  0
LINE
  5
136
330
102
100
AcDbEntity
  8
0
  6
SLD-Durchgehend
100
AcDbLine
 10
59.082048
 20
277.044626
 30
0.0
 11
63.082048
 21
281.044626
 31
0.0
  0
LINE
  5
137
330
102
100
AcDbEntity
  8
0
  6
SLD-Durchgehend
100
AcDbLine
 10
59.082048
 20
282.70148
 30
0.0
 11
63.082048
 21
286.70148
 31
0.0
  0
LINE
  5
138
330
102
100
AcDbEntity
  8
0
  6
SLD-Durchgehend
100
AcDbLine
 10
59.082048
 20
288.358334
 30
0.0
 11
63.082048
 21
292.358334
 31
0.0
  0
LINE
  5
139
330
102
100
AcDbEntity
  8
0
  6
SLD-Durchgehend
100
AcDbLine
 10
59.082048
 20
294.01519
 30
0.0
 11
63.082048
 21
298.01519
 31
0.0
  0
LINE
  5
13A
330
102
100
AcDbEntity
  8
0
  6
SLD-Durchgehend
100
AcDbLine
 10
59.082048
 20
299.672044
 30
0.0
 11
63.082048
 21
303.672044
 31
0.0
  0
LINE
  5
13B
330
102
100
AcDbEntity
  8
0
  6
SLD-Durchgehend
100
AcDbLine
 10
59.082048
 20
305.328898
 30
0.0
 11
63.082048
 21
309.328898
 31
0.0
  0
LINE
  5
13C
330
102
100
AcDbEntity
  8
0
  6
SLD-Durchgehend
100
AcDbLine
 10
59.082048
 20
310.985752
 30
0.0
 11
63.082048
 21
314.985752
 31
0.0
  0
LINE
  5
13D
330
102
100
AcDbEntity
  8
0
  6
SLD-Durchgehend
100
AcDbLine
 10
59.082048
 20
316.642606
 30
0.0
 11
63.082048
 21
320.642606
 31
0.0
  0
LINE
  5
13E
330
102
100
AcDbEntity
  8
0
  6
SLD-Durchgehend
100
AcDbLine
 10
59.082048
 20
322.29946
 30
0.0
 11
63.082048
 21
326.29946
 31
0.0
  0
LINE
  5
13F
330
102
100
AcDbEntity
  8
0
  6
SLD-Durchgehend
100
AcDbLine
 10
59.082048
 20
327.956314
 30
0.0
 11
63.082048
 21
331.956314
 31
0.0
  0
LINE
  5
140
330
102
100
AcDbEntity
  8
0
  6
SLD-Durchgehend
100
AcDbLine
 10
59.082048
 20
333.613168
 30
0.0
 11
63.082048
 21
337.613168
 31
0.0
  0
LINE
  5
141
330
102
100
AcDbEntity
  8
0
  6
SLD-Durchgehend
100
AcDbLine
 10
59.082048
 20
339.270022
 30
0.0
 11
63.082048
 21
343.270022
 31
0.0
  0
LINE
  5
142
330
102
100
AcDbEntity
  8
0
  6
SLD-Durchgehend
100
AcDbLine
 10
59.082048
 20
344.926878
 30
0.0
 11
63.082048
 21
348.926878
 31
0.0
  0
LINE
  5
143
330
102
100
AcDbEntity
  8
0
  6
SLD-Durchgehend
100
AcDbLine
 10
59.082048
 20
350.583732
 30
0.0
 11
63.082048
 21
354.583732
 31
0.0
  0
LINE
  5
144
330
102
100
AcDbEntity
  8
0
  6
SLD-Durchgehend
100
AcDbLine
 10
59.082048
 20
356.240586
 30
0.0
 11
63.082048
 21
360.240586
 31
0.0
  0
LINE
  5
145
330
102
100
AcDbEntity
  8
0
  6
SLD-Durchgehend
100
AcDbLine
 10
59.082048
 20
361.89744
 30
0.0
 11
63.082048
 21
365.89744
 31
0.0
  0
LINE
  5
146
330
102
100
AcDbEntity
  8
0
  6
SLD-Durchgehend
100
AcDbLine
 10
59.082048
 20
367.554294
 30
0.0
 11
63.082048
 21
371.554294
 31
0.0
  0
LINE
  5
147
330
102
100
AcDbEntity
  8
0
  6
SLD-Durchgehend
100
AcDbLine
 10
59.082048
 20
373.211148
 30
0.0
 11
63.082048
 21
377.211148
 31
0.0
  0
LINE
  5
148
330
102
100
AcDbEntity
  8
0
  6
SLD-Durchgehend
100
AcDbLine
 10
59.082048
 20
378.868002
 30
0.0
 11
63.082048
 21
382.868002
 31
0.0
  0
LINE
  5
149
330
102
100
AcDbEntity
  8
0
  6
SLD-Durchgehend
100
AcDbLine
 10
59.082048
 20
384.524856
 30
0.0
 11
63.082048
 21
388.524856
 31
0.0
  0
LINE
  5
14A
330
102
100
AcDbEntity
  8
0
  6
SLD-Durchgehend
100
AcDbLine
 10
59.082048
 20
390.181712
 30
0.0
 11
63.082048
 21
394.181712
 31
0.0
  0
LINE
  5
14B
330
102
100
AcDbEntity
  8
0
  6
SLD-Durchgehend
100
AcDbLine
 10
58.820492
 20
395.577008
 30
0.0
 11
62.086476
 21
398.842994
 31
0.0
  0
LINE
  5
14C
330
102
100
AcDbEntity
  8
0
  6
SLD-Durchgehend
100
AcDbLine
 10
54.359074
 20
396.772444
 30
0.0
 11
57.625058
 21
400.03843
 31
0.0
  0
LINE
  5
14D
330
102
100
AcDbEntity
  8
0
  6
SLD-Durchgehend
100
AcDbLine
 10
49.897656
 20
397.967882
 30
0.0
 11
53.16364
 21
401.233866
 31
0.0
  0
LINE
  5
14E
330
102
100
AcDbEntity
  8
0
  6
SLD-Durchgehend
100
AcDbLine
 10
45.436238
 20
399.163318
 30
0.0
 11
48.702224
 21
402.429302
 31
0.0
  0
LINE
  5
14F
330
102
100
AcDbEntity
  8
0
  6
SLD-Durchgehend
100
AcDbLine
 10
40.97482
 20
400.358754
 30
0.0
 11
44.240806
 21
403.62474
 31
0.0
  0
LINE
  5
150
330
102
100
AcDbEntity
  8
0
  6
SLD-Durchgehend
100
AcDbLine
 10
36.513402
 20
401.55419
 30
0.0
 11
39.779388
 21
404.820176
 31
0.0
  0
LINE
  5
151
330
102
100
AcDbEntity
  8
0
  6
SLD-Durchgehend
100
AcDbLine
 10
29.602496
 20
400.300138
 30
0.0
 11
31.516264
 21
402.213906
 31
0.0
  0
LINE
  5
152
330
102
100
AcDbEntity
  8
0
  6
SLD-Durchgehend
100
AcDbLine
 10
32.051984
 20
402.749628
 30
0.0
 11
35.31797
 21
406.015612
 31
0.0
  0
LINE
  5
153
330
102
100
AcDbEntity
  8
0
  6
SLD-Durchgehend
100
AcDbLine
 10
25.141078
 20
401.495574
 30
0.0
 11
30.856552
 21
407.211048
 31
0.0
  0
LINE
  5
154
330
102
100
AcDbEntity
  8
0
  6
SLD-Durchgehend
100
AcDbLine
 10
20.67966
 20
402.691012
 30
0.0
 11
26.395134
 21
408.406484
 31
0.0
  0
LINE
  5
155
330
102
100
AcDbEntity
  8
0
  6
SLD-Durchgehend
100
AcDbLine
 10
16.218242
 20
403.886448
 30
0.0
 11
21.933716
 21
409.601922
 31
0.0
  0
LINE
  5
156
330
102
100
AcDbEntity
  8
0
  6
SLD-Durchgehend
100
AcDbLine
 10
11.756824
 20
405.081884
 30
0.0
 11
17.472298
 21
410.797358
 31
0.0
  0
LINE
  5
157
330
102
100
AcDbEntity
  8
0
  6
SLD-Durchgehend
100
AcDbLine
 10
7.295406
 20
406.27732
 30
0.0
 11
13.01088
 21
411.992794
 31
0.0
  0
LINE
  5
158
330
102
100
AcDbEntity
  8
0
  6
SLD-Durchgehend
100
AcDbLine
 10
2.833988
 20
407.472756
 30
0.0
 11
8.549462
 21
413.18823
 31
0.0
  0
LINE
  5
159
330
102
100
AcDbEntity
  8
0
  6
SLD-Durchgehend
100
AcDbLine
 10
0.755296
 20
411.050918
 30
0.0
 11
4.088044
 21
414.383668
 31
0.0
  0
ENDBLK
  5
104
330
102
100
AcDbEntity
  8
0
100
AcDbBlockEnd
  0
BLOCK
  5
15B
330
15A
100
AcDbEntity
  8
0
100
AcDbBlockBegin
  2
_X9
 70
     0
 10
0.0
 20
0.0
 30
0.0
  3
_X9
  1

  0
LINE
  5
15D
330
15A
100
AcDbEntity
  8
0
  6
SLD-Durchgehend
100
AcDbLine
 10
0.654908
 20
5.953564
 30
0.0
 11
4.578958
 21
9.877608
 31
0.0
  0
LINE
  5
15E
330
15A
100
AcDbEntity
  8
0
  6
SLD-Durchgehend
100
AcDbLine
 10
2.766646
 20
16.550574
 30
0.0
 11
7.684794
 21
21.468716
 31
0.0
  0
LINE
  5
15F
330
15A
100
AcDbEntity
  8
0
  6
SLD-Durchgehend
100
AcDbLine
 10
4.082204
 20
26.351406
 30
0.0
 11
5.707076
 21
27.976276
 31
0.0
  0
LINE
  5
160
330
15A
100
AcDbEntity
  8
0
  6
SLD-Durchgehend
100
AcDbLine
 10
6.06066
 20
28.32986
 30
0.0
 11
10.79063
 21
33.059824
 31
0.0
  0
LINE
  5
161
330
15A
100
AcDbEntity
  8
0
  6
SLD-Durchgehend
100
AcDbLine
 10
80.82481
 20
103.093912
 30
0.0
 11
84.0908
 21
106.359896
 31
0.0
  0
LINE
  5
162
330
15A
100
AcDbEntity
  8
0
  6
SLD-Durchgehend
100
AcDbLine
 10
84.329782
 20
106.598878
 30
0.0
 11
87.765036
 21
110.034128
 31
0.0
  0
LINE
  5
163
330
15A
100
AcDbEntity
  8
0
  6
SLD-Durchgehend
100
AcDbLine
 10
6.685572
 20
37.440046
 30
0.0
 11
13.896466
 21
44.650932
 31
0.0
  0
LINE
  5
164
330
15A
100
AcDbEntity
  8
0
  6
SLD-Durchgehend
100
AcDbLine
 10
74.132682
 20
104.887066
 30
0.0
 11
77.39867
 21
108.15305
 31
0.0
  0
LINE
  5
165
330
15A
100
AcDbEntity
  8
0
  6
SLD-Durchgehend
100
AcDbLine
 10
8.88016
 20
48.119908
 30
0.0
 11
17.002302
 21
56.242038
 31
0.0
  0
LINE
  5
166
330
15A
100
AcDbEntity
  8
0
  6
SLD-Durchgehend
100
AcDbLine
 10
67.440552
 20
106.680222
 30
0.0
 11
70.70654
 21
109.946206
 31
0.0
  0
LINE
  5
167
330
15A
100
AcDbEntity
  8
0
  6
SLD-Durchgehend
100
AcDbLine
 10
11.806506
 20
59.531526
 30
0.0
 11
20.108138
 21
67.833146
 31
0.0
  0
LINE
  5
168
330
15A
100
AcDbEntity
  8
0
  6
SLD-Durchgehend
100
AcDbLine
 10
60.748422
 20
108.473378
 30
0.0
 11
64.014412
 21
111.739362
 31
0.0
  0
LINE
  5
169
330
15A
100
AcDbEntity
  8
0
  6
SLD-Durchgehend
100
AcDbLine
 10
12.260152
 20
68.470448
 30
0.0
 11
13.231438
 21
69.44173
 31
0.0
  0
LINE
  5
16A
330
15A
100
AcDbEntity
  8
0
  6
SLD-Durchgehend
100
AcDbLine
 10
16.142902
 20
72.353192
 30
0.0
 11
23.213974
 21
79.424254
 31
0.0
  0
LINE
  5
16B
330
15A
100
AcDbEntity
  8
0
  6
SLD-Durchgehend
100
AcDbLine
 10
53.875612
 20
110.08585
 30
0.0
 11
57.311514
 21
113.52175
 31
0.0
  0
LINE
  5
16C
330
15A
100
AcDbEntity
  8
0
  6
SLD-Durchgehend
100
AcDbLine
 10
19.248738
 20
83.9443
 30
0.0
 11
26.31981
 21
91.015362
 31
0.0
  0
LINE
  5
16D
330
15A
100
AcDbEntity
  8
0
  6
SLD-Durchgehend
100
AcDbLine
 10
44.929286
 20
109.624814
 30
0.0
 11
49.620626
 21
114.316148
 31
0.0
  0
LINE
  5
16E
330
15A
100
AcDbEntity
  8
0
  6
SLD-Durchgehend
100
AcDbLine
 10
22.740816
 20
95.921648
 30
0.0
 11
38.814352
 21
111.995164
 31
0.0
  0
ENDBLK
  5
15C
330
15A
100
AcDbEntity
  8
0
100
AcDbBlockEnd
  0
BLOCK
  5
170
330
16F
100
AcDbEntity
  8
0
100
AcDbBlockBegin
  2
_X10
 70
     0
 10
0.0
 20
0.0
 30
0.0
  3
_X10
  1

  0
LINE
  5
172
330
16F
100
AcDbEntity
  8
0
  6
SLD-Durchgehend
100
AcDbLine
 10
0.566188
 20
2.630678
 30
0.0
 11
4.911846
 21
6.97633
 31
0.0
  0
LINE
  5
173
330
16F
100
AcDbEntity
  8
0
  6
SLD-Durchgehend
100
AcDbLine
 10
3.672024
 20
14.221786
 30
0.0
 11
9.531792
 21
20.081546
 31
0.0
  0
LINE
  5
174
330
16F
100
AcDbEntity
  8
0
  6
SLD-Durchgehend
100
AcDbLine
 10
6.77786
 20
25.812894
 30
0.0
 11
12.992876
 21
32.0279
 31
0.0
  0
LINE
  5
175
330
16F
100
AcDbEntity
  8
0
  6
SLD-Durchgehend
100
AcDbLine
 10
41.325832
 20
60.360818
 30
0.0
 11
42.133222
 21
61.168208
 31
0.0
  0
LINE
  5
176
330
16F
100
AcDbEntity
  8
0
  6
SLD-Durchgehend
100
AcDbLine
 10
9.883696
 20
37.404
 30
0.0
 11
17.958988
 21
45.479282
 31
0.0
  0
LINE
  5
177
330
16F
100
AcDbEntity
  8
0
  6
SLD-Durchgehend
100
AcDbLine
 10
38.307938
 20
65.828206
 30
0.0
 11
41.573928
 21
69.09419
 31
0.0
  0
LINE
  5
178
330
16F
100
AcDbEntity
  8
0
  6
SLD-Durchgehend
100
AcDbLine
 10
12.989532
 20
48.995108
 30
0.0
 11
21.432996
 21
57.438562
 31
0.0
  0
LINE
  5
179
330
16F
100
AcDbEntity
  8
0
  6
SLD-Durchgehend
100
AcDbLine
 10
31.61581
 20
67.621362
 30
0.0
 11
34.881798
 21
70.887346
 31
0.0
  0
LINE
  5
17A
330
16F
100
AcDbEntity
  8
0
  6
SLD-Durchgehend
100
AcDbLine
 10
16.095368
 20
60.586216
 30
0.0
 11
23.16644
 21
67.65728
 31
0.0
  0
LINE
  5
17B
330
16F
100
AcDbEntity
  8
0
  6
SLD-Durchgehend
100
AcDbLine
 10
24.92368
 20
69.414516
 30
0.0
 11
28.189668
 21
72.6805
 31
0.0
  0
LINE
  5
17C
330
16F
100
AcDbEntity
  8
0
  6
SLD-Durchgehend
100
AcDbLine
 10
19.201204
 20
72.177324
 30
0.0
 11
21.49754
 21
74.473656
 31
0.0
  0
ENDBLK
  5
171
330
16F
100
AcDbEntity
  8
0
100
AcDbBlockEnd
  0
BLOCK
  5
17E
330
17D
100
AcDbEntity
  8
0
100
AcDbBlockBegin
  2
_X11
 70
     0
 10
0.0
 20
0.0
 30
0.0
  3
_X11
  1

  0
LINE
  5
180
330
17D
100
AcDbEntity
  8
0
  6
SLD-Durchgehend
100
AcDbLine
 10
0.616942
 20
5.025748
 30
0.0
 11
3.066432
 21
2.576262
 31
0.0
  0
LINE
  5
181
330
17D
100
AcDbEntity
  8
0
  6
SLD-Durchgehend
100
AcDbLine
 10
3.398052
 20
10.729916
 30
0.0
 11
5.883618
 21
8.244356
 31
0.0
  0
LINE
  5
182
330
17D
100
AcDbEntity
  8
0
  6
SLD-Durchgehend
100
AcDbLine
 10
11.613858
 20
10.999398
 30
0.0
 11
17.270728
 21
5.342536
 31
0.0
  0
LINE
  5
183
330
17D
100
AcDbEntity
  8
0
  6
SLD-Durchgehend
100
AcDbLine
 10
23.204992
 20
7.893556
 30
0.0
 11
28.861862
 21
2.236692
 31
0.0
  0
LINE
  5
184
330
17D
100
AcDbEntity
  8
0
  6
SLD-Durchgehend
100
AcDbLine
 10
34.796126
 20
4.787712
 30
0.0
 11
37.183432
 21
2.40041
 31
0.0
  0
ENDBLK
  5
17F
330
17D
100
AcDbEntity
  8
0
100
AcDbBlockEnd
  0
BLOCK
  5
186
330
185
100
AcDbEntity
  8
0
100
AcDbBlockBegin
  2
_X12
 70
     0
 10
0.0
 20
0.0
 30
0.0
  3
_X12
  1

  0
LINE
  5
188
330
185
100
AcDbEntity
  8
0
  6
SLD-Durchgehend
100
AcDbLine
 10
0.040266
 20
14.797904
 30
0.0
 11
5.396184
 21
9.441992
 31
0.0
  0
LINE
  5
189
330
185
100
AcDbEntity
  8
0
  6
SLD-Durchgehend
100
AcDbLine
 10
1.488064
 20
21.835384
 30
0.0
 11
3.93756
 21
19.38589
 31
0.0
  0
LINE
  5
18A
330
185
100
AcDbEntity
  8
0
  6
SLD-Durchgehend
100
AcDbLine
 10
11.33041
 20
11.99305
 30
0.0
 11
16.98723
 21
6.336238
 31
0.0
  0
LINE
  5
18B
330
185
100
AcDbEntity
  8
0
  6
SLD-Durchgehend
100
AcDbLine
 10
22.921454
 20
8.887296
 30
0.0
 11
28.578274
 21
3.230486
 31
0.0
  0
LINE
  5
18C
330
185
100
AcDbEntity
  8
0
  6
SLD-Durchgehend
100
AcDbLine
 10
31.042154
 20
0.766608
 30
0.0
 11
31.406682
 21
0.40208
 31
0.0
  0
ENDBLK
  5
187
330
185
100
AcDbEntity
  8
0
100
AcDbBlockEnd
  0
BLOCK
  5
21A
330
219
100
AcDbEntity
  8
0
100
AcDbBlockBegin
  2
_NONE
 70
     0
 10
0.0
 20
0.0
 30
0.0
  3
_NONE
  1

  0
ENDBLK
  5
21B
330
219
100
AcDbEntity
  8
0
100
AcDbBlockEnd
  0
BLOCK
  5
21D
330
21C
100
AcDbEntity
  8
0
100
AcDbBlockBegin
  2
_D
 70
     0
 10
0.0
 20
0.0
 30
0.0
  3
_D
  1

  0
LINE
  5
21F
330
21C
100
AcDbEntity
  8
0
  6
SLD-Durchgehend
 62
   179
420
  2171202
370
    18
100
AcDbLine
 10
319.937821
 20
135.332247
 30
0.0
 11
319.937821
 21
87.2
 31
0.0
  0
LINE
  5
220
330
21C
100
AcDbEntity
  8
0
  6
SLD-Durchgehend
 62
   179
420
  2171202
370
    18
100
AcDbLine
 10
359.937821
 20
135.332247
 30
0.0
 11
359.937821
 21
87.2
 31
0.0
  0
LINE
  5
221
330
21C
100
AcDbEntity
  8
0
  6
SLD-Durchgehend
 62
   179
420
  2171202
370
    18
100
AcDbLine
 10
302.091814
 20
95.650529
 30
0.0
 11
319.937821
 21
98.0
 31
0.0
  0
LINE
  5
222
330
21C
100
AcDbEntity
  8
0
  6
SLD-Durchgehend
 62
   179
420
  2171202
370
    18
100
AcDbLine
 10
319.937821
 20
98.0
 30
0.0
 11
302.091814
 21
100.349471
 31
0.0
  0
LINE
  5
223
330
21C
100
AcDbEntity
  8
0
  6
SLD-Durchgehend
 62
   179
420
  2171202
370
    18
100
AcDbLine
 10
302.091814
 20
100.349471
 30
0.0
 11
302.091814
 21
95.650529
 31
0.0
  0
LINE
  5
224
330
21C
100
AcDbEntity
  8
0
  6
SLD-Durchgehend
 62
   179
420
  2171202
370
    18
100
AcDbLine
 10
302.051776
 20
96.261391
 30
0.0
 11
315.257821
 21
98.0
 31
0.0
  0
LINE
  5
225
330
21C
100
AcDbEntity
  8
0
  6
SLD-Durchgehend
 62
   179
420
  2171202
370
    18
100
AcDbLine
 10
315.257821
 20
98.0
 30
0.0
 11
302.051776
 21
99.738609
 31
0.0
  0
LINE
  5
226
330
21C
100
AcDbEntity
  8
0
  6
SLD-Durchgehend
 62
   179
420
  2171202
370
    18
100
AcDbLine
 10
302.011738
 20
96.872254
 30
0.0
 11
310.577821
 21
98.0
 31
0.0
  0
LINE
  5
227
330
21C
100
AcDbEntity
  8
0
  6
SLD-Durchgehend
 62
   179
420
  2171202
370
    18
100
AcDbLine
 10
310.577821
 20
98.0
 30
0.0
 11
302.011738
 21
99.127746
 31
0.0
  0
LINE
  5
228
330
21C
100
AcDbEntity
  8
0
  6
SLD-Durchgehend
 62
   179
420
  2171202
370
    18
100
AcDbLine
 10
301.9717
 20
97.483116
 30
0.0
 11
305.897821
 21
98.0
 31
0.0
  0
LINE
  5
229
330
21C
100
AcDbEntity
  8
0
  6
SLD-Durchgehend
 62
   179
420
  2171202
370
    18
100
AcDbLine
 10
305.897821
 20
98.0
 30
0.0
 11
301.9717
 21
98.516884
 31
0.0
  0
LINE
  5
22A
330
21C
100
AcDbEntity
  8
0
  6
SLD-Durchgehend
 62
   179
420
  2171202
370
    18
100
AcDbLine
 10
377.783829
 20
100.349471
 30
0.0
 11
359.937821
 21
98.0
 31
0.0
  0
LINE
  5
22B
330
21C
100
AcDbEntity
  8
0
  6
SLD-Durchgehend
 62
   179
420
  2171202
370
    18
100
AcDbLine
 10
359.937821
 20
98.0
 30
0.0
 11
377.783829
 21
95.650529
 31
0.0
  0
LINE
  5
22C
330
21C
100
AcDbEntity
  8
0
  6
SLD-Durchgehend
 62
   179
420
  2171202
370
    18
100
AcDbLine
 10
377.783829
 20
95.650529
 30
0.0
 11
377.783829
 21
100.349471
 31
0.0
  0
LINE
  5
22D
330
21C
100
AcDbEntity
  8
0
  6
SLD-Durchgehend
 62
   179
420
  2171202
370
    18
100
AcDbLine
 10
377.823867
 20
99.738609
 30
0.0
 11
364.617821
 21
98.0
 31
0.0
  0
LINE
  5
22E
330
21C
100
AcDbEntity
  8
0
  6
SLD-Durchgehend
 62
   179
420
  2171202
370
    18
100
AcDbLine
 10
364.617821
 20
98.0
 30
0.0
 11
377.823867
 21
96.261391
 31
0.0
  0
LINE
  5
22F
330
21C
100
AcDbEntity
  8
0
  6
SLD-Durchgehend
 62
   179
420
  2171202
370
    18
100
AcDbLine
 10
377.863905
 20
99.127746
 30
0.0
 11
369.297821
 21
98.0
 31
0.0
  0
LINE
  5
230
330
21C
100
AcDbEntity
  8
0
  6
SLD-Durchgehend
 62
   179
420
  2171202
370
    18
100
AcDbLine
 10
369.297821
 20
98.0
 30
0.0
 11
377.863905
 21
96.872254
 31
0.0
  0
LINE
  5
231
330
21C
100
AcDbEntity
  8
0
  6
SLD-Durchgehend
 62
   179
420
  2171202
370
    18
100
AcDbLine
 10
377.903943
 20
98.516884
 30
0.0
 11
373.977821
 21
98.0
 31
0.0
  0
LINE
  5
232
330
21C
100
AcDbEntity
  8
0
  6
SLD-Durchgehend
 62
   179
420
  2171202
370
    18
100
AcDbLine
 10
373.977821
 20
98.0
 30
0.0
 11
377.903943
 21
97.483116
 31
0.0
  0
LINE
  5
233
330
21C
100
AcDbEntity
  8
0
  6
SLD-Durchgehend
 62
   179
420
  2171202
370
    18
100
AcDbLine
 10
294.737821
 20
98.0
 30
0.0
 11
450.340341
 21
98.0
 31
0.0
  0
MTEXT
  5
235
330
21C
100
AcDbEntity
  8
0
  6
SLD-Durchgehend
 62
   179
420
  2171202
370
    18
100
AcDbMText
 10
387.213067
 20
125.0827012616
 30
0.0
 40
18.0
 41
0.0
 46
0.0
 71
     1
 72
     1
  1
DN40
  7
SLDTEXTSTYLE1
 73
     1
 44
1.0
  0
ENDBLK
  5
21E
330
21C
100
AcDbEntity
  8
0
100
AcDbBlockEnd
  0
BLOCK
  5
239
330
238
100
AcDbEntity
  8
0
100
AcDbBlockBegin
  2
_D_1
 70
     0
 10
0.0
 20
0.0
 30
0.0
  3
_D_1
  1

  0
SOLID
  5
23B
330
238
100
AcDbEntity
  8
0
  6
SLD-Durchgehend
 62
   179
420
  2171202
370
    18
100
AcDbTrace
 10
420.0
 20
133.332247
 30
0.0
 11
421.44
 21
139.936247
 31
0.0
 12
418.56
 22
139.936247
 32
0.0
 13
418.56
 23
139.936247
 33
0.0
  0
SOLID
  5
23C
330
238
100
AcDbEntity
  8
0
  6
SLD-Durchgehend
 62
   179
420
  2171202
370
    18
100
AcDbTrace
 10
420.0
 20
383.332247
 30
0.0
 11
418.56
 21
376.728247
 31
0.0
 12
421.44
 22
376.728247
 32
0.0
 13
421.44
 23
376.728247
 33
0.0
  0
LINE
  5
23D
330
238
100
AcDbEntity
  8
0
  6
SLD-Durchgehend
 62
   179
420
  2171202
370
    18
100
AcDbLine
 10
359.937821
 20
133.332247
 30
0.0
 11
422.0
 21
133.332247
 31
0.0
  0
LINE
  5
23E
330
238
100
AcDbEntity
  8
0
  6
SLD-Durchgehend
 62
   179
420
  2171202
370
    18
100
AcDbLine
 10
367.937821
 20
383.332247
 30
0.0
 11
422.0
 21
383.332247
 31
0.0
  0
LINE
  5
23F
330
238
100
AcDbEntity
  8
0
  6
SLD-Durchgehend
 62
   179
420
  2171202
370
    18
100
AcDbLine
 10
420.0
 20
133.332247
 30
0.0
 11
420.0
 21
383.332247
 31
0.0
  0
MTEXT
  5
240
330
238
100
AcDbEntity
  8
0
  6
SLD-Durchgehend
 62
   179
420
  2171202
370
    18
100
AcDbMText
 10
396.7967797528
 20
233.3697472623
 30
0.0
 40
18.0
 41
0.0
 46
0.0
 71
     1
 72
     1
  1
212
  7
SLDTEXTSTYLE1
 11
6.123233995736766E-17
 21
1.0
 31
0.0
 73
     1
 44
1.0
  0
ENDBLK
  5
23A
330
238
100
AcDbEntity
  8
0
100
AcDbBlockEnd
  0
ENDSEC
  0
SECTION
  2
ENTITIES
  0
LINE
  5
18D
330
1F
100
AcDbEntity
  8
0
100
AcDbLine
 10
339.937821
 20
383.332247
 30
0.0
 11
339.937821
 21
133.332247
 31
0.0
  0
LINE
  5
18E
330
1F
100
AcDbEntity
  8
0
  6
SLD-Durchgehend
 62
     1
100
AcDbLine
 10
359.937821
 20
368.544
 30
0.0
 11
359.937821
 21
135.332247
 31
0.0
  0
LINE
  5
18F
330
1F
100
AcDbEntity
  8
0
  6
SLD-Durchgehend
 62
     1
100
AcDbLine
 10
319.937821
 20
368.544
 30
0.0
 11
319.937821
 21
362.144
 31
0.0
  0
LINE
  5
190
330
1F
100
AcDbEntity
  8
0
  6
SLD-Durchgehend
 62
     1
100
AcDbLine
 10
321.937821
 20
133.332247
 30
0.0
 11
357.937821
 21
133.332247
 31
0.0
  0
LINE
  5
191
330
1F
100
AcDbEntity
  8
0
  6
SLD-Durchgehend
 62
     1
100
AcDbLine
 10
321.9378214997
 20
371.044
 30
0.0
 11
321.9378214997
 21
358.502271
 31
0.0
  0
LINE
  5
192
330
1F
100
AcDbEntity
  8
0
  6
SLD-Durchgehend
 62
     1
100
AcDbLine
 10
357.937821
 20
371.044
 30
0.0
 11
357.937821
 21
133.332247
 31
0.0
  0
LINE
  5
193
330
1F
100
AcDbEntity
  8
0
  6
SLD-Durchgehend
 62
     1
100
AcDbLine
 10
313.937821
 20
383.332247
 30
0.0
 11
339.937821
 21
383.332247
 31
0.0
  0
LINE
  5
194
330
1F
100
AcDbEntity
  8
0
  6
SLD-Durchgehend
 62
     1
100
AcDbLine
 10
321.937821
 20
133.332247
 30
0.0
 11
319.937821
 21
135.332247
 31
0.0
  0
LINE
  5
195
330
1F
100
AcDbEntity
  8
0
  6
SLD-Durchgehend
 62
     1
100
AcDbLine
 10
357.937821
 20
133.332247
 30
0.0
 11
359.937821
 21
135.332247
 31
0.0
  0
LINE
  5
196
330
1F
100
AcDbEntity
  8
0
  6
SLD-Durchgehend
 62
     1
100
AcDbLine
 10
318.437821
 20
368.544
 30
0.0
 11
319.937821
 21
368.544
 31
0.0
  0
LINE
  5
197
330
1F
100
AcDbEntity
  8
0
  6
SLD-Durchgehend
 62
     1
100
AcDbLine
 10
319.937821
 20
371.044
 30
0.0
 11
359.937821
 21
371.044
 31
0.0
  0
LINE
  5
198
330
1F
100
AcDbEntity
  8
0
  6
SLD-Durchgehend
 62
     1
100
AcDbLine
 10
365.937821
 20
383.332247
 30
0.0
 11
339.937821
 21
383.332247
 31
0.0
  0
LINE
  5
199
330
1F
100
AcDbEntity
  8
0
  6
SLD-Durchgehend
 62
     1
100
AcDbLine
 10
361.437821
 20
368.544
 30
0.0
 11
359.937821
 21
368.544
 31
0.0
  0
LINE
  5
19A
330
1F
100
AcDbEntity
  8
0
  6
SLD-Durchgehend
 62
     1
100
AcDbLine
 10
361.437821
 20
369.544
 30
0.0
 11
361.437821
 21
368.544
 31
0.0
  0
LINE
  5
19B
330
1F
100
AcDbEntity
  8
0
  6
SLD-Durchgehend
 62
     1
100
AcDbLine
 10
364.437821
 20
381.832247
 30
0.0
 11
364.437821
 21
367.832247
 31
0.0
  0
LINE
  5
19C
330
1F
100
AcDbEntity
  8
0
  6
SLD-Durchgehend
 62
     1
100
AcDbLine
 10
362.437821
 20
365.832247
 30
0.0
 11
362.222138
 21
365.832247
 31
0.0
  0
LINE
  5
19D
330
1F
100
AcDbEntity
  8
0
  6
SLD-Durchgehend
 62
     1
100
AcDbLine
 10
365.937821
 20
381.832247
 30
0.0
 11
364.437821
 21
381.832247
 31
0.0
  0
LINE
  5
19E
330
1F
100
AcDbEntity
  8
0
  6
SLD-Durchgehend
 62
     1
100
AcDbLine
 10
365.937821
 20
383.332247
 30
0.0
 11
365.937821
 21
381.832247
 31
0.0
  0
LINE
  5
19F
330
1F
100
AcDbEntity
  8
0
  6
SLD-Durchgehend
 62
     1
100
AcDbLine
 10
361.437821
 20
382.082247
 30
0.0
 11
361.437821
 21
368.832247
 31
0.0
  0
LINE
  5
1A0
330
1F
100
AcDbEntity
  8
0
  6
SLD-Durchgehend
 62
     1
100
AcDbLine
 10
362.687821
 20
383.332247
 30
0.0
 11
362.687821
 21
367.582247
 31
0.0
  0
LINE
  5
1A1
330
1F
100
AcDbEntity
  8
0
  6
SLD-Durchgehend
 62
     1
100
AcDbLine
 10
362.687821
 20
367.582247
 30
0.0
 11
360.722138
 21
367.582247
 31
0.0
  0
LINE
  5
1A2
330
1F
100
AcDbEntity
  8
0
  6
SLD-Durchgehend
 62
     1
100
AcDbLine
 10
360.722138
 20
367.332247
 30
0.0
 11
360.722138
 21
367.582247
 31
0.0
  0
LINE
  5
1A3
330
1F
100
AcDbEntity
  8
0
  6
SLD-Durchgehend
 62
     1
100
AcDbLine
 10
362.687821
 20
383.332247
 30
0.0
 11
361.437821
 21
382.082247
 31
0.0
  0
LINE
  5
1A4
330
1F
100
AcDbEntity
  8
0
  6
SLD-Durchgehend
 62
     1
100
AcDbLine
 10
362.687821
 20
367.582247
 30
0.0
 11
361.437821
 21
368.832247
 31
0.0
  0
LINE
  5
1A5
330
1F
100
AcDbEntity
  8
0
  6
SLD-Durchgehend
 62
     1
100
AcDbLine
 10
361.437821
 20
382.082247
 30
0.0
 11
339.937821
 21
382.082247
 31
0.0
  0
LINE
  5
1A6
330
1F
100
AcDbEntity
  8
0
  6
SLD-Durchgehend
 62
     1
100
AcDbLine
 10
360.937821
 20
371.544
 30
0.0
 11
339.937821
 21
371.544
 31
0.0
  0
LINE
  5
1A7
330
1F
100
AcDbEntity
  8
0
  6
SLD-Durchgehend
 62
     1
100
AcDbLine
 10
360.937821
 20
373.544
 30
0.0
 11
339.937821
 21
373.544
 31
0.0
  0
LINE
  5
1A8
330
1F
100
AcDbEntity
  8
0
  6
SLD-Durchgehend
 62
     1
100
AcDbLine
 10
360.937821
 20
373.544
 30
0.0
 11
360.937821
 21
371.544
 31
0.0
  0
LINE
  5
1A9
330
1F
100
AcDbEntity
  8
0
  6
SLD-Durchgehend
 62
     1
100
AcDbLine
 10
318.437821
 20
369.544
 30
0.0
 11
318.437821
 21
368.544
 31
0.0
  0
LINE
  5
1AA
330
1F
100
AcDbEntity
  8
0
  6
SLD-Durchgehend
 62
     1
100
AcDbLine
 10
319.937821
 20
331.085709
 30
0.0
 11
319.937821
 21
135.332247
 31
0.0
  0
LINE
  5
1AB
330
1F
100
AcDbEntity
  8
0
  6
SLD-Durchgehend
 62
     1
100
AcDbLine
 10
321.937821
 20
332.620362
 30
0.0
 11
321.937821
 21
133.332247
 31
0.0
  0
LINE
  5
1AC
330
1F
100
AcDbEntity
  8
0
  6
SLD-Durchgehend
 62
     1
100
AcDbLine
 10
315.437821
 20
381.832247
 30
0.0
 11
315.437821
 21
367.832247
 31
0.0
  0
LINE
  5
1AD
330
1F
100
AcDbEntity
  8
0
  6
SLD-Durchgehend
 62
     1
100
AcDbLine
 10
317.437821
 20
365.832247
 30
0.0
 11
317.653505
 21
365.832247
 31
0.0
  0
LINE
  5
1AE
330
1F
100
AcDbEntity
  8
0
  6
SLD-Durchgehend
 62
     1
100
AcDbLine
 10
356.937821
 20
373.544
 30
0.0
 11
356.937821
 21
371.544
 31
0.0
  0
LINE
  5
1AF
330
1F
100
AcDbEntity
  8
0
  6
SLD-Durchgehend
 62
     1
100
AcDbLine
 10
313.937821
 20
381.832247
 30
0.0
 11
315.437821
 21
381.832247
 31
0.0
  0
LINE
  5
1B0
330
1F
100
AcDbEntity
  8
0
  6
SLD-Durchgehend
 62
     1
100
AcDbLine
 10
313.937821
 20
383.332247
 30
0.0
 11
313.937821
 21
381.832247
 31
0.0
  0
LINE
  5
1B1
330
1F
100
AcDbEntity
  8
0
  6
SLD-Durchgehend
 62
     1
100
AcDbLine
 10
318.437821
 20
382.082247
 30
0.0
 11
318.437821
 21
368.832247
 31
0.0
  0
LINE
  5
1B2
330
1F
100
AcDbEntity
  8
0
  6
SLD-Durchgehend
 62
     1
100
AcDbLine
 10
317.187821
 20
383.332247
 30
0.0
 11
317.187821
 21
367.582247
 31
0.0
  0
LINE
  5
1B3
330
1F
100
AcDbEntity
  8
0
  6
SLD-Durchgehend
 62
     1
100
AcDbLine
 10
317.187821
 20
367.582247
 30
0.0
 11
319.153505
 21
367.582247
 31
0.0
  0
LINE
  5
1B4
330
1F
100
AcDbEntity
  8
0
  6
SLD-Durchgehend
 62
     1
100
AcDbLine
 10
319.153505
 20
367.332247
 30
0.0
 11
319.153505
 21
367.582247
 31
0.0
  0
LINE
  5
1B5
330
1F
100
AcDbEntity
  8
0
  6
SLD-Durchgehend
 62
     1
100
AcDbLine
 10
317.187821
 20
383.332247
 30
0.0
 11
318.437821
 21
382.082247
 31
0.0
  0
LINE
  5
1B6
330
1F
100
AcDbEntity
  8
0
  6
SLD-Durchgehend
 62
     1
100
AcDbLine
 10
317.187821
 20
367.582247
 30
0.0
 11
318.437821
 21
368.832247
 31
0.0
  0
LINE
  5
1B7
330
1F
100
AcDbEntity
  8
0
  6
SLD-Durchgehend
 62
     1
100
AcDbLine
 10
318.437821
 20
382.082247
 30
0.0
 11
339.937821
 21
382.082247
 31
0.0
  0
LINE
  5
1B8
330
1F
100
AcDbEntity
  8
0
  6
SLD-Durchgehend
 62
     1
100
AcDbLine
 10
318.937821
 20
371.544
 30
0.0
 11
339.937821
 21
371.544
 31
0.0
  0
LINE
  5
1B9
330
1F
100
AcDbEntity
  8
0
  6
SLD-Durchgehend
 62
     1
100
AcDbLine
 10
318.937821
 20
373.544
 30
0.0
 11
339.937821
 21
373.544
 31
0.0
  0
LINE
  5
1BA
330
1F
100
AcDbEntity
  8
0
  6
SLD-Durchgehend
 62
     1
100
AcDbLine
 10
318.937821
 20
373.544
 30
0.0
 11
318.937821
 21
371.544
 31
0.0
  0
LINE
  5
1BB
330
1F
100
AcDbEntity
  8
0
  6
SLD-Durchgehend
 62
     1
100
AcDbLine
 10
322.937821
 20
373.544
 30
0.0
 11
322.937821
 21
371.544
 31
0.0
  0
LINE
  5
1BC
330
1F
100
AcDbEntity
  8
0
  6
SLD-Durchgehend
 62
     1
100
AcDbLine
 10
298.937847
 20
369.323856
 30
0.0
 11
291.302666
 21
340.829049
 31
0.0
  0
LINE
  5
1BD
330
1F
100
AcDbEntity
  8
0
  6
SLD-Durchgehend
 62
     1
100
AcDbLine
 10
314.392657
 20
365.182741
 30
0.0
 11
314.004428
 21
363.733852
 31
0.0
  0
LINE
  5
1BE
330
1F
100
AcDbEntity
  8
0
  6
SLD-Durchgehend
 62
     1
100
AcDbLine
 10
305.851608
 20
333.307194
 30
0.0
 11
290.396797
 21
337.448309
 31
0.0
  0
LINE
  5
1BF
330
1F
100
AcDbEntity
  8
0
  6
SLD-Durchgehend
 62
     1
100
AcDbLine
 10
314.004428
 20
363.733852
 30
0.0
 11
319.937821
 21
362.144
 31
0.0
  0
LINE
  5
1C0
330
1F
100
AcDbEntity
  8
0
  6
SLD-Durchgehend
 62
     1
100
AcDbLine
 10
306.239837
 20
334.756082
 30
0.0
 11
319.937821
 21
331.085709
 31
0.0
  0
LINE
  5
1C1
330
1F
100
AcDbEntity
  8
0
  6
SLD-Durchgehend
100
AcDbLine
 10
291.302666
 20
340.829049
 30
0.0
 11
321.937821
 21
332.620362
 31
0.0
  0
LINE
  5
1C2
330
1F
100
AcDbEntity
  8
0
  6
SLD-Durchgehend
 62
     1
100
AcDbLine
 10
306.239837
 20
334.756082
 30
0.0
 11
305.851608
 21
333.307194
 31
0.0
  0
LINE
  5
1C3
330
1F
100
AcDbEntity
  8
0
  6
SLD-Durchgehend
100
AcDbLine
 10
297.7731584997
 20
364.97719
 30
0.0
 11
321.9378214997
 21
358.502271
 31
0.0
  0
LINE
  5
1C4
330
1F
100
AcDbEntity
  8
0
  6
SLD-Durchgehend
 62
     1
100
AcDbLine
 10
291.302666
 20
340.829049
 30
0.0
 11
290.396797
 21
337.448309
 31
0.0
  0
LINE
  5
1C5
330
1F
100
AcDbEntity
  8
0
  6
SLD-Durchgehend
 62
     1
100
AcDbLine
 10
296.617766
 20
368.392606
 30
0.0
 11
295.168877
 21
368.780836
 31
0.0
  0
LINE
  5
1C6
330
1F
100
AcDbEntity
  8
0
  6
SLD-Durchgehend
 62
     1
100
AcDbLine
 10
287.404287
 20
339.803066
 30
0.0
 11
288.853175
 21
339.414837
 31
0.0
  0
LINE
  5
1C7
330
1F
100
AcDbEntity
  8
0
  6
SLD-Durchgehend
 62
     1
100
AcDbLine
 10
295.168877
 20
368.780836
 30
0.0
 11
294.586533
 21
366.607503
 31
0.0
  0
LINE
  5
1C8
330
1F
100
AcDbEntity
  8
0
  6
SLD-Durchgehend
 62
     1
100
AcDbLine
 10
287.986631
 20
341.976399
 30
0.0
 11
279.776263
 21
344.176366
 31
0.0
  0
LINE
  5
1C9
330
1F
100
AcDbEntity
  8
0
  6
SLD-Durchgehend
 62
     1
100
AcDbLine
 10
289.953159
 20
343.520021
 30
0.0
 11
277.879088
 21
346.755267
 31
0.0
  0
LINE
  5
1CA
330
1F
100
AcDbEntity
  8
0
  6
SLD-Durchgehend
 62
     1
100
AcDbLine
 10
287.986631
 20
341.976399
 30
0.0
 11
287.404287
 21
339.803066
 31
0.0
  0
LINE
  5
1CB
330
1F
100
AcDbEntity
  8
0
  6
SLD-Durchgehend
 62
     1
100
AcDbLine
 10
279.776263
 20
344.176366
 30
0.0
 11
279.388034
 21
342.727478
 31
0.0
  0
LINE
  5
1CC
330
1F
100
AcDbEntity
  8
0
  6
SLD-Durchgehend
100
AcDbLine
 10
277.879088
 20
346.755267
 30
0.0
 11
267.914531
 21
309.567129
 31
0.0
  0
LINE
  5
1CD
330
1F
100
AcDbEntity
  8
0
  6
SLD-Durchgehend
 62
     1
100
AcDbLine
 10
263.175356694
 20
359.4949795301
 30
0.0
 11
260.069520694
 21
347.9038715301
 31
0.0
  0
LINE
  5
1CE
330
1F
100
AcDbEntity
  8
0
  6
SLD-Durchgehend
 62
     1
100
AcDbLine
 10
294.586533
 20
366.607503
 30
0.0
 11
281.5465360331
 21
370.1015688873
 31
0.0
  0
LINE
  5
1CF
330
1F
100
AcDbEntity
  8
0
  6
SLD-Durchgehend
100
AcDbLine
 10
265.719581
 20
359.330893
 30
0.0
 11
253.425646
 21
313.449424
 31
0.0
  0
LINE
  5
1D0
330
1F
100
AcDbEntity
  8
0
  6
SLD-Durchgehend
 62
     1
100
AcDbLine
 10
295.5177822398
 20
364.2874215847
 30
0.0
 11
281.0288971007
 21
368.1697173241
 31
0.0
  0
LINE
  5
1D1
330
1F
100
AcDbEntity
  8
0
  6
SLD-Punktstrich
 62
     2
420
 16776960
100
AcDbLine
 10
327.1482990253
 20
344.6828079563
 30
0.0
 11
275.8317720253
 21
358.4330659563
 31
0.0
  0
LINE
  5
1D2
330
1F
100
AcDbEntity
  8
0
100
AcDbLine
 10
272.7699080667
 20
356.665301973
 30
0.0
 11
260.475974
 21
310.783832
 31
0.0
  0
LINE
  5
1D3
330
1F
100
AcDbEntity
  8
0
  6
SLD-Durchgehend
 62
     1
100
AcDbLine
 10
279.388034
 20
342.727478
 30
0.0
 11
280.836922
 21
342.339248
 31
0.0
  0
LINE
  5
1D4
330
1F
100
AcDbEntity
  8
0
  6
SLD-Durchgehend
 62
     1
100
AcDbLine
 10
260.069520694
 20
347.9038715301
 30
0.0
 11
258.620631694
 21
348.2921015301
 31
0.0
  0
LINE
  5
1D5
330
1F
100
AcDbEntity
  8
0
  6
SLD-Durchgehend
 62
     1
100
AcDbLine
 10
257.291857
 20
341.401211
 30
0.0
 11
258.257527
 21
341.14246
 31
0.0
  0
LINE
  5
1D6
330
1F
100
AcDbEntity
  8
0
  6
SLD-Durchgehend
 62
     1
100
AcDbLine
 10
255.963082
 20
334.510322
 30
0.0
 11
256.580779
 21
334.34481
 31
0.0
  0
LINE
  5
1D7
330
1F
100
AcDbEntity
  8
0
  6
SLD-Durchgehend
 62
     1
100
AcDbLine
 10
254.634307
 20
327.619432
 30
0.0
 11
255.4747
 21
327.394249
 31
0.0
  0
LINE
  5
1D8
330
1F
100
AcDbEntity
  8
0
  6
SLD-Durchgehend
 62
     1
100
AcDbLine
 10
253.305532
 20
320.728543
 30
0.0
 11
253.695115
 21
320.624154
 31
0.0
  0
LINE
  5
1D9
330
1F
100
AcDbEntity
  8
0
  6
SLD-Durchgehend
 62
     1
100
AcDbLine
 10
252.45972
 20
313.708244
 30
0.0
 11
268.880456
 21
309.308309
 31
0.0
  0
LINE
  5
1DA
330
1F
100
AcDbEntity
  8
0
  6
SLD-Durchgehend
 62
     1
100
AcDbLine
 10
280.836922
 20
342.339248
 30
0.0
 11
277.576296
 21
335.965998
 31
0.0
  0
LINE
  5
1DB
330
1F
100
AcDbEntity
  8
0
  6
SLD-Durchgehend
 62
     1
100
AcDbLine
 10
278.542222
 20
335.707178
 30
0.0
 11
275.629573
 21
329.240688
 31
0.0
  0
LINE
  5
1DC
330
1F
100
AcDbEntity
  8
0
  6
SLD-Durchgehend
 62
     1
100
AcDbLine
 10
276.247521
 20
329.075109
 30
0.0
 11
273.112181
 21
322.668288
 31
0.0
  0
LINE
  5
1DD
330
1F
100
AcDbEntity
  8
0
  6
SLD-Durchgehend
 62
     1
100
AcDbLine
 10
273.95282
 20
322.443039
 30
0.0
 11
271.268327
 21
315.915414
 31
0.0
  0
LINE
  5
1DE
330
1F
100
AcDbEntity
  8
0
  6
SLD-Durchgehend
 62
     1
100
AcDbLine
 10
271.65812
 20
315.810969
 30
0.0
 11
268.880456
 21
309.308309
 31
0.0
  0
LINE
  5
1DF
330
1F
100
AcDbEntity
  8
0
  6
SLD-Durchgehend
 62
     1
100
AcDbLine
 10
258.62044
 20
348.292426
 30
0.0
 11
258.257595
 21
341.142716
 31
0.0
  0
LINE
  5
1E0
330
1F
100
AcDbEntity
  8
0
  6
SLD-Durchgehend
 62
     1
100
AcDbLine
 10
257.291669
 20
341.401535
 30
0.0
 11
256.580847
 21
334.345066
 31
0.0
  0
LINE
  5
1E1
330
1F
100
AcDbEntity
  8
0
  6
SLD-Durchgehend
 62
     1
100
AcDbLine
 10
255.962899
 20
334.510645
 30
0.0
 11
255.474769
 21
327.394506
 31
0.0
  0
LINE
  5
1E2
330
1F
100
AcDbEntity
  8
0
  6
SLD-Durchgehend
 62
     1
100
AcDbLine
 10
254.634129
 20
327.619755
 30
0.0
 11
253.695151
 21
320.62442
 31
0.0
  0
LINE
  5
1E3
330
1F
100
AcDbEntity
  8
0
  6
SLD-Durchgehend
 62
     1
100
AcDbLine
 10
253.305358
 20
320.728864
 30
0.0
 11
252.459551
 21
313.708565
 31
0.0
  0
LINE
  5
1E4
330
1F
100
AcDbEntity
  8
0
  6
SLD-Durchgehend
 62
     1
100
AcDbLine
 10
277.576296
 20
335.965998
 30
0.0
 11
278.542222
 21
335.707178
 31
0.0
  0
LINE
  5
1E5
330
1F
100
AcDbEntity
  8
0
  6
SLD-Durchgehend
 62
     1
100
AcDbLine
 10
275.629573
 20
329.240688
 30
0.0
 11
276.247521
 21
329.075109
 31
0.0
  0
LINE
  5
1E6
330
1F
100
AcDbEntity
  8
0
  6
SLD-Durchgehend
 62
     1
100
AcDbLine
 10
273.112181
 20
322.668288
 30
0.0
 11
273.95282
 21
322.443039
 31
0.0
  0
LINE
  5
1E7
330
1F
100
AcDbEntity
  8
0
  6
SLD-Durchgehend
 62
     1
100
AcDbLine
 10
271.268327
 20
315.915414
 30
0.0
 11
271.65812
 21
315.810969
 31
0.0
  0
LINE
  5
1E8
330
1F
100
AcDbEntity
  8
0
  6
SLD-Durchgehend
100
AcDbLine
 10
277.879088
 20
346.755267
 30
0.0
 11
274.128718
 21
357.896906
 31
0.0
  0
LINE
  5
1E9
330
1F
100
AcDbEntity
  8
0
  6
SLD-Durchgehend
 62
     1
100
AcDbLine
 10
310.628336
 20
368.520762
 30
0.0
 11
310.887156
 21
369.486688
 31
0.0
  0
LINE
  5
1EA
330
1F
100
AcDbEntity
  8
0
  6
SLD-Durchgehend
 62
     1
100
AcDbLine
 10
310.887156
 20
369.486688
 30
0.0
 11
311.8530803331
 21
369.2278681787
 31
0.0
  0
LINE
  5
1EB
330
1F
100
AcDbEntity
  8
0
  6
SLD-Durchgehend
 62
     1
100
AcDbLine
 10
311.8530803331
 20
369.2278681787
 30
0.0
 11
311.0766212618
 21
366.3300909126
 31
0.0
  0
LINE
  5
1EC
330
1F
100
AcDbEntity
  8
0
  6
SLD-Durchgehend
 62
     1
100
AcDbLine
 10
311.0766212618
 20
366.3300909126
 30
0.0
 11
310.1106962618
 21
366.5889109126
 31
0.0
  0
LINE
  5
1ED
330
1F
100
AcDbEntity
  8
0
  6
SLD-Durchgehend
 62
     1
100
AcDbLine
 10
297.1053770066
 20
372.1442369775
 30
0.0
 11
310.628336
 21
368.520762
 31
0.0
  0
LINE
  5
1EE
330
1F
100
AcDbEntity
  8
0
  6
SLD-Durchgehend
 62
     1
100
AcDbLine
 10
294.2329794085
 20
367.2198756585
 30
0.0
 11
294.8800284085
 21
369.6346896585
 31
0.0
  0
LINE
  5
1EF
330
1F
100
AcDbEntity
  8
0
  6
SLD-Durchgehend
 62
     1
100
AcDbLine
 10
296.1047739307
 20
370.3417955717
 30
0.0
 11
310.1106962618
 21
366.5889109126
 31
0.0
  0
LINE
  5
1F0
330
1F
100
AcDbEntity
  8
0
  6
SLD-Durchgehend
 62
     1
100
AcDbLine
 10
287.4013790009
 20
335.9193830005
 30
0.0
 11
300.9243580009
 21
332.2959790005
 31
0.0
  0
LINE
  5
1F1
330
1F
100
AcDbEntity
  8
0
  6
SLD-Durchgehend
 62
     1
100
AcDbLine
 10
300.9243580009
 20
332.2959790005
 30
0.0
 11
300.6655430009
 21
331.3300520005
 31
0.0
  0
LINE
  5
1F2
330
1F
100
AcDbEntity
  8
0
  6
SLD-Durchgehend
 62
     1
100
AcDbLine
 10
300.6655430009
 20
331.3300520005
 30
0.0
 11
301.6314700009
 21
331.0712380005
 31
0.0
  0
LINE
  5
1F3
330
1F
100
AcDbEntity
  8
0
  6
SLD-Durchgehend
 62
     1
100
AcDbLine
 10
301.6314700009
 20
331.0712380005
 30
0.0
 11
302.4079140007
 21
333.9690189998
 31
0.0
  0
LINE
  5
1F4
330
1F
100
AcDbEntity
  8
0
  6
SLD-Durchgehend
 62
     1
100
AcDbLine
 10
287.436045
 20
337.980644
 30
0.0
 11
301.441987
 21
334.227833
 31
0.0
  0
LINE
  5
1F5
330
1F
100
AcDbEntity
  8
0
  6
SLD-Durchgehend
 62
     1
100
AcDbLine
 10
302.4079140007
 20
333.9690189998
 30
0.0
 11
301.441987
 21
334.227833
 31
0.0
  0
LINE
  5
1F6
330
1F
100
AcDbEntity
  8
0
  6
SLD-Durchgehend
 62
     1
100
AcDbLine
 10
287.375969
 20
341.620203
 30
0.0
 11
286.728933
 21
339.205386
 31
0.0
  0
LINE
  5
1F7
330
1F
100
AcDbEntity
  8
0
  6
SLD-Durchgehend
 62
     1
100
AcDbLine
 10
314.392657
 20
365.182741
 30
0.0
 11
298.937847
 21
369.323856
 31
0.0
  0
LINE
  5
1F8
330
1F
100
AcDbEntity
  8
0
  6
SLD-Durchgehend
 62
     1
100
AcDbLine
 10
296.617766
 20
368.392606
 30
0.0
 11
288.853175
 21
339.414837
 31
0.0
  0
LINE
  5
1F9
330
1F
100
AcDbEntity
  8
0
  6
SLD-Durchgehend
 62
     1
100
AcDbLine
 10
293.172321
 20
369.056994
 30
0.0
 11
293.4311410225
 21
370.0229190066
 31
0.0
  0
LINE
  5
1FA
330
1F
100
AcDbEntity
  8
0
  6
SLD-Durchgehend
 62
     1
100
AcDbLine
 10
285.538857
 20
340.559535
 30
0.0
 11
285.2800419029
 21
339.5936076316
 31
0.0
  0
ARC
  5
1FB
330
1F
100
AcDbEntity
  8
0
  6
SLD-Durchgehend
100
AcDbCircle
 10
359.937821
 20
369.544
 30
0.0
 40
1.5
100
AcDbArc
 50
0.0
 51
90.0
  0
ARC
  5
1FC
330
1F
100
AcDbEntity
  8
0
  6
SLD-Durchgehend
100
AcDbCircle
 10
362.437821
 20
367.832247
 30
0.0
 40
2.0
100
AcDbArc
 50
270.0
 51
0.0
  0
ARC
  5
1FD
330
1F
100
AcDbEntity
  8
0
  6
SLD-Durchgehend
100
AcDbCircle
 10
362.222138
 20
367.332247
 30
0.0
 40
1.5
100
AcDbArc
 50
180.0
 51
270.0
  0
ARC
  5
1FE
330
1F
100
AcDbEntity
  8
0
  6
SLD-Durchgehend
100
AcDbCircle
 10
319.937821
 20
369.544
 30
0.0
 40
1.5
100
AcDbArc
 50
90.0
 51
180.0
  0
ARC
  5
1FF
330
1F
100
AcDbEntity
  8
0
  6
SLD-Durchgehend
 62
     1
100
AcDbCircle
 10
308.5237982498
 20
345.561316759
 30
0.0
 40
18.63878527199667
100
AcDbArc
 50
316.0283404279
 51
43.9716573598
  0
ARC
  5
200
330
1F
100
AcDbEntity
  8
0
  6
SLD-Durchgehend
100
AcDbCircle
 10
317.437821
 20
367.832247
 30
0.0
 40
2.0
100
AcDbArc
 50
180.0
 51
270.0
  0
ARC
  5
201
330
1F
100
AcDbEntity
  8
0
  6
SLD-Durchgehend
100
AcDbCircle
 10
317.653505
 20
367.332247
 30
0.0
 40
1.5
100
AcDbArc
 50
270.0
 51
0.0
  0
ARC
  5
202
330
1F
100
AcDbEntity
  8
0
  6
SLD-Durchgehend
 62
     1
100
AcDbCircle
 10
277.664241112
 20
355.612684418
 30
0.0
 40
14.99999956720805
100
AcDbArc
 50
74.999963
 51
164.9999622448
  0
ARC
  5
203
330
1F
100
AcDbEntity
  8
0
  6
SLD-Durchgehend
100
AcDbCircle
 10
277.7936513275
 20
356.0956469122
 30
0.0
 40
12.49999966090834
100
AcDbArc
 50
74.999963
 51
164.9999615069
  0
ARC
  5
204
330
1F
100
AcDbEntity
  8
0
  6
SLD-Punktstrich
 62
     2
420
 16776960
100
AcDbCircle
 10
275.1847220345
 20
356.0182519908
 30
0.0
 40
2.500000035709592
100
AcDbArc
 50
74.999943797
 51
164.999944
  0
ARC
  5
205
330
1F
100
AcDbEntity
  8
0
  6
SLD-Durchgehend
 62
     1
100
AcDbCircle
 10
296.328918
 20
369.24646
 30
0.0
 40
2.999999999999985
100
AcDbArc
 50
74.999963
 51
164.999963
  0
ARC
  5
206
330
1F
100
AcDbEntity
  8
0
  6
SLD-Durchgehend
 62
     1
100
AcDbCircle
 10
295.8459542081
 20
369.3758697122
 30
0.0
 40
1.000000207468915
100
AcDbArc
 50
74.999963
 51
164.9999497287
  0
ARC
  5
207
330
1F
100
AcDbEntity
  8
0
  6
SLD-Durchgehend
 62
     1
100
AcDbCircle
 10
288.1778230007
 20
338.8171639998
 30
0.0
 40
3.000000000758145
100
AcDbArc
 50
165.000267
 51
255.0002597231
  0
ARC
  5
208
330
1F
100
AcDbEntity
  8
0
  6
SLD-Durchgehend
 62
     1
100
AcDbCircle
 10
287.69486
 20
338.946571
 30
0.0
 40
1.000000086777024
100
AcDbArc
 50
165.0002412752
 51
255.0002412752
  0
ARC
  5
209
330
1F
100
AcDbEntity
  8
0
  6
SLD-Durchgehend
 62
     1
100
AcDbCircle
 10
294.6212095335
 20
368.668764125
 30
0.0
 40
1.500000139444105
100
AcDbArc
 50
164.9999497287
 51
254.9999398425
  0
ARC
  5
20A
330
1F
100
AcDbEntity
  8
0
  6
SLD-Durchgehend
 62
     1
100
AcDbCircle
 10
286.987747
 20
340.171313
 30
0.0
 40
1.499999517794576
100
AcDbArc
 50
75.0002547801
 51
165.0002547801
  0
INSERT
  5
20B
330
1F
100
AcDbEntity
  8
0
  6
Continuous
 62
     7
100
AcDbBlockReference
  2
_X3
 10
297.773158
 20
358.502271
 30
0.0
 41
0.5
 42
0.5
 43
0.5
  0
INSERT
  5
20C
330
1F
100
AcDbEntity
  8
0
  6
Continuous
 62
     7
100
AcDbBlockReference
  2
_X9
 10
252.459519
 20
313.449424
 30
0.0
 41
0.5
 42
0.5
 43
0.5
  0
INSERT
  5
20D
330
1F
100
AcDbEntity
  8
0
  6
Continuous
 62
     7
100
AcDbBlockReference
  2
_X1
 10
356.937821
 20
371.544
 30
0.0
 41
0.5
 42
0.5
 43
0.5
  0
INSERT
  5
20E
330
1F
100
AcDbEntity
  8
0
  6
Continuous
 62
     7
100
AcDbBlockReference
  2
_X0
 10
360.437821
 20
365.832247
 30
0.0
 41
0.5
 42
0.5
 43
0.5
  0
INSERT
  5
20F
330
1F
100
AcDbEntity
  8
0
  6
Continuous
 62
     7
100
AcDbBlockReference
  2
_X4
 10
313.937821
 20
365.832247
 30
0.0
 41
0.5
 42
0.5
 43
0.5
  0
INSERT
  5
210
330
1F
100
AcDbEntity
  8
0
  6
Continuous
 62
     7
100
AcDbBlockReference
  2
_X6
 10
290.396797
 20
133.332247
 30
0.0
 41
0.5
 42
0.5
 43
0.5
  0
INSERT
  5
211
330
1F
100
AcDbEntity
  8
0
  6
Continuous
 62
     7
100
AcDbBlockReference
  2
_X2
 10
357.937821
 20
133.332247
 30
0.0
 41
0.5
 42
0.5
 43
0.5
  0
INSERT
  5
212
330
1F
100
AcDbEntity
  8
0
  6
Continuous
 62
     7
100
AcDbBlockReference
  2
_X5
 10
318.937821
 20
371.544
 30
0.0
 41
0.5
 42
0.5
 43
0.5
  0
INSERT
  5
213
330
1F
100
AcDbEntity
  8
0
  6
Continuous
 62
     7
100
AcDbBlockReference
  2
_X11
 10
292.784092
 20
366.24646
 30
0.0
 41
0.5
 42
0.5
 43
0.5
  0
INSERT
  5
214
330
1F
100
AcDbEntity
  8
0
  6
Continuous
 62
     7
100
AcDbBlockReference
  2
_X12
 10
285.177823
 20
331.071238
 30
0.0
 41
0.5
 42
0.5
 43
0.5
  0
INSERT
  5
215
330
1F
100
AcDbEntity
  8
0
  6
Continuous
 62
     7
100
AcDbBlockReference
  2
_X10
 10
267.914531
 20
309.308309
 30
0.0
 41
0.5
 42
0.5
 43
0.5
  0
DIMENSION
  5
216
330
1F
100
AcDbEntity
  8
0
  6
SLD-Durchgehend
 62
   179
420
  2171202
370
    18
100
AcDbDimension
280
     0
  2
_D
 10
319.937821
 20
98.0
 30
0.0
 11
339.937821
 21
98.0
 31
0.0
 70
   160
  1
DN<>
 71
     2
 42
-1.0
 73
     0
 74
     0
 75
     0
  3
SLDDIMSTYLE0
100
AcDbAlignedDimension
 13
359.937821
 23
135.332247
 33
0.0
 14
319.937821
 24
135.332247
 34
0.0
100
AcDbRotatedDimension
  0
DIMENSION
  5
236
330
1F
100
AcDbEntity
  8
0
  6
SLD-Durchgehend
 62
   179
420
  2171202
370
    18
100
AcDbDimension
280
     0
  2
_D_1
 10
420.0
 20
383.332247
 30
0.0
 11
420.0
 21
258.332247
 31
0.0
 70
   160
  1
<>
 71
     2
 42
-1.0
 73
     0
 74
     0
 75
     0
  3
SLDDIMSTYLE1
100
AcDbAlignedDimension
 13
357.937821
 23
133.332247
 33
0.0
 14
365.937821
 24
383.332247
 34
0.0
 50
90.0
100
AcDbRotatedDimension
  0
ENDSEC
  0
SECTION
  2
OBJECTS
  0
DICTIONARY
  5
C
330
0
100
AcDbDictionary
281
     1
  3
ACAD_DETAILVIEWSTYLE
350
248
  3
ACAD_GROUP
350
D
  3
ACAD_LAYOUT
350
1A
  3
ACAD_MATERIAL
350
43
  3
ACAD_MLEADERSTYLE
350
6B
  3
ACAD_MLINESTYLE
350
17
  3
ACAD_PLOTSETTINGS
350
19
  3
ACAD_PLOTSTYLENAME
350
E
  3
ACAD_SCALELIST
350
47
  3
ACAD_SECTIONVIEWSTYLE
350
249
  3
ACAD_TABLESTYLE
350
69
  3
ACAD_VISUALSTYLE
350
2A
  3
ACDB_RECOMPOSE_DATA
350
245
  3
AcDbVariableDictionary
350
241
  0
SUN
  5
6D
330
29
100
AcDbSun
 90
        1
290
     0
 63
     7
421
 16777215
 40
1.0
291
     1
 91
  2455826
 92
 54000000
292
     0
 70
     2
 71
   256
280
     1
  0
DICTIONARY
  5
248
102
{ACAD_REACTORS
330
C
102
}
330
C
100
AcDbDictionary
281
     1
  0
DICTIONARY
  5
D
102
{ACAD_REACTORS
330
C
102
}
330
C
100
AcDbDictionary
281
     1
  0
DICTIONARY
  5
1A
102
{ACAD_REACTORS
330
C
102
}
330
C
100
AcDbDictionary
281
     1
  3
Layout1
350
1E
  3
Layout2
350
26
  3
Model
350
22
  0
DICTIONARY
  5
43
102
{ACAD_REACTORS
330
C
102
}
330
C
100
AcDbDictionary
281
     1
  3
ByBlock
350
45
  3
ByLayer
350
44
  3
Global
350
46
  0
DICTIONARY
  5
6B
102
{ACAD_REACTORS
330
C
102
}
330
C
100
AcDbDictionary
281
     1
  3
Standard
350
6C
  0
DICTIONARY
  5
17
102
{ACAD_REACTORS
330
C
102
}
330
C
100
AcDbDictionary
281
     1
  3
Standard
350
18
  0
DICTIONARY
  5
19
102
{ACAD_REACTORS
330
C
102
}
330
C
100
AcDbDictionary
281
     1
  0
ACDBDICTIONARYWDFLT
  5
E
102
{ACAD_REACTORS
330
C
102
}
330
C
100
AcDbDictionary
281
     1
  3
Normal
350
F
100
AcDbDictionaryWithDefault
340
F
  0
DICTIONARY
  5
47
102
{ACAD_REACTORS
330
C
102
}
330
C
100
AcDbDictionary
281
     1
  3
A0
350
48
  3
A1
350
49
  3
A2
350
4A
  3
A3
350
4B
  3
A4
350
4C
  3
A5
350
4D
  3
A6
350
4E
  3
A7
350
4F
  3
A8
350
50
  3
A9
350
51
  3
B0
350
52
  3
B1
350
53
  3
B2
350
54
  3
B3
350
55
  3
B4
350
56
  3
B5
350
57
  3
B6
350
58
  3
B7
350
59
  3
B8
350
5A
  3
B9
350
5B
  3
C0
350
5C
  3
C1
350
5D
  3
C2
350
5E
  3
C3
350
5F
  3
C4
350
60
  3
C5
350
61
  3
C6
350
62
  3
C7
350
63
  3
C8
350
64
  3
C9
350
65
  3
D0
350
66
  3
D1
350
67
  3
D2
350
68
  0
DICTIONARY
  5
249
102
{ACAD_REACTORS
330
C
102
}
330
C
100
AcDbDictionary
281
     1
  0
DICTIONARY
  5
69
102
{ACAD_REACTORS
330
C
102
}
330
C
100
AcDbDictionary
281
     1
  3
Standard
350
6A
  0
DICTIONARY
  5
2A
102
{ACAD_REACTORS
330
C
102
}
330
C
100
AcDbDictionary
281
     1
  3
2dWireframe
350
2F
  3
Basic
350
32
  3
Brighten
350
36
  3
ColorChange
350
3A
  3
Conceptual
350
34
  3
Dim
350
35
  3
EdgeColorOff
350
3D
  3
Facepattern
350
39
  3
Flat
350
2B
  3
FlatWithEdges
350
2C
  3
Gouraud
350
2D
  3
GouraudWithEdges
350
2E
  3
Hidden
350
31
  3
JitterOff
350
3B
  3
Linepattern
350
38
  3
OverhangOff
350
3C
  3
Realistic
350
33
  3
Shaded
350
42
  3
Shaded with edges
350
41
  3
Shades of Gray
350
3E
  3
Sketchy
350
3F
  3
Thicken
350
37
  3
Wireframe
350
30
  3
X-Ray
350
40
  0
XRECORD
  5
245
102
{ACAD_REACTORS
330
C
102
}
330
C
100
AcDbXrecord
280
     1
 90
        1
330
6A
  0
DICTIONARY
  5
241
102
{ACAD_REACTORS
330
C
102
}
330
C
100
AcDbDictionary
281
     1
  3
CANNOSCALE
350
242
  3
CMLEADERSTYLE
350
247
  3
CTABLESTYLE
350
246
  3
SECTIONTHICKNESSINC
350
24A
  0
LAYOUT
  5
1E
102
{ACAD_REACTORS
330
1A
102
}
330
1A
100
AcDbPlotSettings
  1

  2
none_device
  4

  6

 40
0.0
 41
0.0
 42
0.0
 43
0.0
 44
0.0
 45
0.0
 46
0.0
 47
0.0
 48
0.0
 49
0.0
140
0.0
141
0.0
142
1.0
143
1.0
 70
   688
 72
     1
 73
     0
 74
     5
  7

 75
    16
 76
     0
 77
     2
 78
   300
147
1.0
148
0.0
149
0.0
100
AcDbLayout
  1
Layout1
 70
     1
 71
     1
 10
0.0
 20
0.0
 11
420.0
 21
297.0
 12
0.0
 22
0.0
 32
0.0
 14
1.0000000000E+20
 24
1.0000000000E+20
 34
1.0000000000E+20
 15
-1.0000000000E+20
 25
-1.0000000000E+20
 35
-1.0000000000E+20
146
0.0
 13
0.0
 23
0.0
 33
0.0
 16
1.0
 26
0.0
 36
0.0
 17
0.0
 27
1.0
 37
0.0
 76
     0
330
1B
  0
LAYOUT
  5
26
102
{ACAD_REACTORS
330
1A
102
}
330
1A
100
AcDbPlotSettings
  1

  2
none_device
  4

  6

 40
0.0
 41
0.0
 42
0.0
 43
0.0
 44
0.0
 45
0.0
 46
0.0
 47
0.0
 48
0.0
 49
0.0
140
0.0
141
0.0
142
1.0
143
1.0
 70
   688
 72
     1
 73
     0
 74
     5
  7

 75
    16
 76
     0
 77
     2
 78
   300
147
1.0
148
0.0
149
0.0
100
AcDbLayout
  1
Layout2
 70
     1
 71
     2
 10
0.0
 20
0.0
 11
0.0
 21
0.0
 12
0.0
 22
0.0
 32
0.0
 14
0.0
 24
0.0
 34
0.0
 15
0.0
 25
0.0
 35
0.0
146
0.0
 13
0.0
 23
0.0
 33
0.0
 16
1.0
 26
0.0
 36
0.0
 17
0.0
 27
1.0
 37
0.0
 76
     0
330
23
  0
LAYOUT
  5
22
102
{ACAD_REACTORS
330
1A
102
}
330
1A
100
AcDbPlotSettings
  1

  2
none_device
  4
Letter_(8.50_x_11.00_Inches)
  6

 40
6.35
 41
6.35
 42
6.35000508
 43
6.35000508
 44
215.9
 45
279.4
 46
0.0
 47
0.0
 48
0.0
 49
0.0
140
0.0
141
0.0
142
1.0
143
1.0
 70
  1712
 72
     1
 73
     0
 74
     0
  7

 75
     0
 76
     0
 77
     2
 78
   300
147
1.0
148
0.0
149
0.0
100
AcDbLayout
  1
Model
 70
     1
 71
     0
 10
0.0
 20
0.0
 11
840.0
 21
594.0
 12
0.0
 22
0.0
 32
0.0
 14
0.0
 24
0.0
 34
0.0
 15
840.0
 25
594.0
 35
0.0
146
0.0
 13
0.0
 23
0.0
 33
0.0
 16
1.0
 26
0.0
 36
0.0
 17
0.0
 27
1.0
 37
0.0
 76
     0
330
1F
331
29
  0
MATERIAL
  5
45
102
{ACAD_REACTORS
330
43
102
}
330
43
100
AcDbMaterial
  1
ByBlock
 72
     1
 94
      127
  0
MATERIAL
  5
44
102
{ACAD_REACTORS
330
43
102
}
330
43
100
AcDbMaterial
  1
ByLayer
 72
     1
 94
      127
  0
MATERIAL
  5
46
102
{ACAD_REACTORS
330
43
102
}
330
43
100
AcDbMaterial
  1
Global
 72
     1
 94
      127
  0
MLEADERSTYLE
  5
6C
102
{ACAD_REACTORS
330
6B
102
}
330
6B
100
AcDbMLeaderStyle
179
     2
170
     2
171
     1
172
     0
 90
        2
 40
0.0
 41
0.0
173
     1
 91
-1056964608
340
14
 92
       -2
290
     1
 42
2.0
291
     1
 43
8.0
  3
Standard
341
0
 44
4.0
300

342
11
174
     1
178
     6
175
     1
176
     0
 93
-1056964608
 45
4.0
292
     0
297
     0
 46
4.0
343
0
 94
-1056964608
 47
1.0
 49
1.0
140
1.0
293
     1
141
0.0
294
     1
177
     0
142
1.0
295
     0
296
     0
143
3.75
271
     0
272
     9
273
     9
298
     0
  0
MLINESTYLE
  5
18
102
{ACAD_REACTORS
330
17
102
}
330
17
100
AcDbMlineStyle
  2
Standard
 70
     0
  3

 62
   256
 51
90.0
 52
90.0
 71
     2
 49
0.5
 62
   256
  6
BYLAYER
 49
-0.5
 62
   256
  6
BYLAYER
  0
ACDBPLACEHOLDER
  5
F
102
{ACAD_REACTORS
330
E
102
}
330
E
  0
SCALE
  5
48
102
{ACAD_REACTORS
330
47
102
}
330
47
100
AcDbScale
 70
     0
300
1:1
140
1.0
141
1.0
290
     1
  0
SCALE
  5
49
102
{ACAD_REACTORS
330
47
102
}
330
47
100
AcDbScale
 70
     0
300
1:2
140
1.0
141
2.0
290
     0
  0
SCALE
  5
4A
102
{ACAD_REACTORS
330
47
102
}
330
47
100
AcDbScale
 70
     0
300
1:4
140
1.0
141
4.0
290
     0
  0
SCALE
  5
4B
102
{ACAD_REACTORS
330
47
102
}
330
47
100
AcDbScale
 70
     0
300
1:5
140
1.0
141
5.0
290
     0
  0
SCALE
  5
4C
102
{ACAD_REACTORS
330
47
102
}
330
47
100
AcDbScale
 70
     0
300
1:8
140
1.0
141
8.0
290
     0
  0
SCALE
  5
4D
102
{ACAD_REACTORS
330
47
102
}
330
47
100
AcDbScale
 70
     0
300
1:10
140
1.0
141
10.0
290
     0
  0
SCALE
  5
4E
102
{ACAD_REACTORS
330
47
102
}
330
47
100
AcDbScale
 70
     0
300
1:16
140
1.0
141
16.0
290
     0
  0
SCALE
  5
4F
102
{ACAD_REACTORS
330
47
102
}
330
47
100
AcDbScale
 70
     0
300
1:20
140
1.0
141
20.0
290
     0
  0
SCALE
  5
50
102
{ACAD_REACTORS
330
47
102
}
330
47
100
AcDbScale
 70
     0
300
1:30
140
1.0
141
30.0
290
     0
  0
SCALE
  5
51
102
{ACAD_REACTORS
330
47
102
}
330
47
100
AcDbScale
 70
     0
300
1:40
140
1.0
141
40.0
290
     0
  0
SCALE
  5
52
102
{ACAD_REACTORS
330
47
102
}
330
47
100
AcDbScale
 70
     0
300
1:50
140
1.0
141
50.0
290
     0
  0
SCALE
  5
53
102
{ACAD_REACTORS
330
47
102
}
330
47
100
AcDbScale
 70
     0
300
1:100
140
1.0
141
100.0
290
     0
  0
SCALE
  5
54
102
{ACAD_REACTORS
330
47
102
}
330
47
100
AcDbScale
 70
     0
300
2:1
140
2.0
141
1.0
290
     0
  0
SCALE
  5
55
102
{ACAD_REACTORS
330
47
102
}
330
47
100
AcDbScale
 70
     0
300
4:1
140
4.0
141
1.0
290
     0
  0
SCALE
  5
56
102
{ACAD_REACTORS
330
47
102
}
330
47
100
AcDbScale
 70
     0
300
8:1
140
8.0
141
1.0
290
     0
  0
SCALE
  5
57
102
{ACAD_REACTORS
330
47
102
}
330
47
100
AcDbScale
 70
     0
300
10:1
140
10.0
141
1.0
290
     0
  0
SCALE
  5
58
102
{ACAD_REACTORS
330
47
102
}
330
47
100
AcDbScale
 70
     0
300
100:1
140
100.0
141
1.0
290
     0
  0
SCALE
  5
59
102
{ACAD_REACTORS
330
47
102
}
330
47
100
AcDbScale
 70
     0
300
1/128" = 1'-0"
140
0.0078125
141
12.0
290
     0
  0
SCALE
  5
5A
102
{ACAD_REACTORS
330
47
102
}
330
47
100
AcDbScale
 70
     0
300
1/64" = 1'-0"
140
0.015625
141
12.0
290
     0
  0
SCALE
  5
5B
102
{ACAD_REACTORS
330
47
102
}
330
47
100
AcDbScale
 70
     0
300
1/32" = 1'-0"
140
0.03125
141
12.0
290
     0
  0
SCALE
  5
5C
102
{ACAD_REACTORS
330
47
102
}
330
47
100
AcDbScale
 70
     0
300
1/16" = 1'-0"
140
0.0625
141
12.0
290
     0
  0
SCALE
  5
5D
102
{ACAD_REACTORS
330
47
102
}
330
47
100
AcDbScale
 70
     0
300
3/32" = 1'-0"
140
0.09375
141
12.0
290
     0
  0
SCALE
  5
5E
102
{ACAD_REACTORS
330
47
102
}
330
47
100
AcDbScale
 70
     0
300
1/8" = 1'-0"
140
0.125
141
12.0
290
     0
  0
SCALE
  5
5F
102
{ACAD_REACTORS
330
47
102
}
330
47
100
AcDbScale
 70
     0
300
3/16" = 1'-0"
140
0.1875
141
12.0
290
     0
  0
SCALE
  5
60
102
{ACAD_REACTORS
330
47
102
}
330
47
100
AcDbScale
 70
     0
300
1/4" = 1'-0"
140
0.25
141
12.0
290
     0
  0
SCALE
  5
61
102
{ACAD_REACTORS
330
47
102
}
330
47
100
AcDbScale
 70
     0
300
3/8" = 1'-0"
140
0.375
141
12.0
290
     0
  0
SCALE
  5
62
102
{ACAD_REACTORS
330
47
102
}
330
47
100
AcDbScale
 70
     0
300
1/2" = 1'-0"
140
0.5
141
12.0
290
     0
  0
SCALE
  5
63
102
{ACAD_REACTORS
330
47
102
}
330
47
100
AcDbScale
 70
     0
300
3/4" = 1'-0"
140
0.75
141
12.0
290
     0
  0
SCALE
  5
64
102
{ACAD_REACTORS
330
47
102
}
330
47
100
AcDbScale
 70
     0
300
1" = 1'-0"
140
1.0
141
12.0
290
     0
  0
SCALE
  5
65
102
{ACAD_REACTORS
330
47
102
}
330
47
100
AcDbScale
 70
     0
300
1-1/2" = 1'-0"
140
1.5
141
12.0
290
     0
  0
SCALE
  5
66
102
{ACAD_REACTORS
330
47
102
}
330
47
100
AcDbScale
 70
     0
300
3" = 1'-0"
140
3.0
141
12.0
290
     0
  0
SCALE
  5
67
102
{ACAD_REACTORS
330
47
102
}
330
47
100
AcDbScale
 70
     0
300
6" = 1'-0"
140
6.0
141
12.0
290
     0
  0
SCALE
  5
68
102
{ACAD_REACTORS
330
47
102
}
330
47
100
AcDbScale
 70
     0
300
1'-0" = 1'-0"
140
12.0
141
12.0
290
     0
  0
TABLESTYLE
  5
6A
102
{ACAD_REACTORS
330
69
102
}
102
{ACAD_XDICTIONARY
360
243
102
}
330
69
100
AcDbTableStyle
  3
Standard
 70
     0
 71
     0
 40
0.06
 41
0.06
280
     0
281
     0
  7
Standard
140
4.5
170
     2
 62
     0
 63
   257
283
     0
 90
        4
 91
        0
  1

274
    -2
284
     1
 64
     0
275
    -2
285
     1
 65
     0
276
    -2
286
     1
 66
     0
277
    -2
287
     1
 67
     0
278
    -2
288
     1
 68
     0
279
    -2
289
     1
 69
     0
  7
Standard
140
6.0
170
     5
 62
     0
 63
   257
283
     0
 90
        4
 91
        0
  1

274
    -2
284
     1
 64
     0
275
    -2
285
     1
 65
     0
276
    -2
286
     1
 66
     0
277
    -2
287
     1
 67
     0
278
    -2
288
     1
 68
     0
279
    -2
289
     1
 69
     0
  7
Standard
140
4.5
170
     5
 62
     0
 63
   257
283
     0
 90
        4
 91
        0
  1

274
    -2
284
     1
 64
     0
275
    -2
285
     1
 65
     0
276
    -2
286
     1
 66
     0
277
    -2
287
     1
 67
     0
278
    -2
288
     1
 68
     0
279
    -2
289
     1
 69
     0
  0
VISUALSTYLE
  5
2F
102
{ACAD_REACTORS
330
2A
102
}
330
2A
100
AcDbVisualStyle
  2
2dWireframe
 70
     4
177
     3
291
     0
 70
    58
 90
        0
176
     1
 90
        2
176
     1
 90
        0
176
     1
 90
        0
176
     1
 40
0.6
176
     1
 40
30.0
176
     1
 62
     7
420
 16777215
176
     1
 90
        1
176
     1
 90
        4
176
     1
 62
     7
176
     1
 62
   257
176
     1
 90
        1
176
     1
 90
        1
176
     1
 40
1.0
176
     1
 90
        0
176
     1
 62
   257
176
     1
 40
1.0
176
     1
 90
        1
176
     1
 90
        6
176
     1
 90
        2
176
     1
 62
     7
176
     1
 90
        5
176
     1
 90
        0
176
     1
 90
        0
176
     1
290
     0
176
     1
 90
        1
176
     1
 40
0.0
176
     1
 90
        0
176
     1
290
     1
176
     1
290
     1
176
     1
290
     0
176
     1
290
     0
176
     1
290
     0
176
     1
290
     0
176
     1
290
     0
176
     1
290
     0
176
     1
290
     0
176
     1
 90
       50
176
     1
 40
0.0
176
     1
 40
1.0
176
     1
 90
        0
176
     1
 62
    18
420
        0
176
     1
 90
       50
176
     1
 90
        3
176
     1
 62
     5
420
      255
176
     1
290
     0
176
     1
 90
       50
176
     1
 90
       50
176
     1
 90
       50
176
     1
290
     0
176
     1
 90
       50
176
     1
 62
   256
176
     0
 40
1.0
176
     0
 90
        2
176
     1
  1
strokes_ogs.tif
176
     1
290
     0
176
     1
 40
1.0
176
     1
 40
1.0
176
     1
  0
VISUALSTYLE
  5
32
102
{ACAD_REACTORS
330
2A
102
}
330
2A
100
AcDbVisualStyle
  2
Basic
 70
     7
177
     3
291
     1
 70
    58
 90
        1
176
     1
 90
        0
176
     1
 90
        1
176
     1
 90
        0
176
     1
 40
0.6
176
     1
 40
30.0
176
     1
 62
     7
420
 16777215
176
     1
 90
        0
176
     1
 90
        4
176
     1
 62
     7
176
     1
 62
   257
176
     1
 90
        1
176
     1
 90
        1
176
     1
 40
1.0
176
     1
 90
        8
176
     1
 62
     7
176
     1
 40
1.0
176
     1
 90
        1
176
     1
 90
        6
176
     1
 90
        2
176
     1
 62
     7
176
     1
 90
        5
176
     1
 90
        0
176
     1
 90
        0
176
     1
290
     0
176
     1
 90
        1
176
     1
 40
0.0
176
     1
 90
        0
176
     1
290
     0
176
     1
290
     1
176
     1
290
     1
176
     1
290
     0
176
     1
290
     0
176
     1
290
     0
176
     1
290
     0
176
     1
290
     0
176
     1
290
     0
176
     1
 90
       50
176
     1
 40
0.0
176
     1
 40
1.0
176
     1
 90
        0
176
     1
 62
    18
420
        0
176
     1
 90
       50
176
     1
 90
        3
176
     1
 62
     5
420
      255
176
     1
290
     0
176
     1
 90
       50
176
     1
 90
       50
176
     1
 90
       50
176
     1
290
     0
176
     1
 90
       50
176
     1
 62
   256
176
     0
 40
1.0
176
     0
 90
        2
176
     1
  1
strokes_ogs.tif
176
     1
290
     0
176
     1
 40
1.0
176
     1
 40
1.0
176
     1
  0
VISUALSTYLE
  5
36
102
{ACAD_REACTORS
330
2A
102
}
330
2A
100
AcDbVisualStyle
  2
Brighten
 70
    12
177
     3
291
     1
 70
    58
 90
        2
176
     1
 90
        2
176
     1
 90
        0
176
     1
 90
        0
176
     1
 40
0.6
176
     1
 40
30.0
176
     1
 62
     7
420
 16777215
176
     1
 90
        1
176
     1
 90
        4
176
     1
 62
     7
176
     1
 62
   257
176
     1
 90
        1
176
     1
 90
        1
176
     1
 40
1.0
176
     1
 90
        8
176
     1
 62
     7
176
     1
 40
1.0
176
     1
 90
        1
176
     1
 90
        6
176
     1
 90
        2
176
     1
 62
     7
176
     1
 90
        5
176
     1
 90
        0
176
     1
 90
        0
176
     1
290
     0
176
     1
 90
        1
176
     1
 40
50.0
176
     1
 90
        0
176
     1
290
     0
176
     1
290
     1
176
     1
290
     1
176
     1
290
     0
176
     1
290
     0
176
     1
290
     0
176
     1
290
     0
176
     1
290
     0
176
     1
290
     0
176
     1
 90
       50
176
     1
 40
0.0
176
     1
 40
1.0
176
     1
 90
        0
176
     1
 62
    18
420
        0
176
     1
 90
       50
176
     1
 90
        3
176
     1
 62
     5
420
      255
176
     1
290
     0
176
     1
 90
       50
176
     1
 90
       50
176
     1
 90
       50
176
     1
290
     0
176
     1
 90
       50
176
     1
 62
   256
176
     0
 40
1.0
176
     0
 90
        2
176
     1
  1
strokes_ogs.tif
176
     1
290
     0
176
     1
 40
1.0
176
     1
 40
1.0
176
     1
  0
VISUALSTYLE
  5
3A
102
{ACAD_REACTORS
330
2A
102
}
330
2A
100
AcDbVisualStyle
  2
ColorChange
 70
    16
177
     3
291
     1
 70
    58
 90
        2
176
     1
 90
        2
176
     1
 90
        3
176
     1
 90
        0
176
     1
 40
0.6
176
     1
 40
30.0
176
     1
 62
     8
420
  8421504
176
     1
 90
        1
176
     1
 90
        4
176
     1
 62
     7
176
     1
 62
   257
176
     1
 90
        1
176
     1
 90
        1
176
     1
 40
1.0
176
     1
 90
        8
176
     1
 62
     8
420
  8421504
176
     1
 40
1.0
176
     1
 90
        1
176
     1
 90
        6
176
     1
 90
        2
176
     1
 62
     7
176
     1
 90
        5
176
     1
 90
        0
176
     1
 90
        0
176
     1
290
     0
176
     1
 90
        1
176
     1
 40
0.0
176
     1
 90
        0
176
     1
290
     0
176
     1
290
     1
176
     1
290
     1
176
     1
290
     0
176
     1
290
     0
176
     1
290
     0
176
     1
290
     0
176
     1
290
     0
176
     1
290
     0
176
     1
 90
       50
176
     1
 40
0.0
176
     1
 40
1.0
176
     1
 90
        0
176
     1
 62
    18
420
        0
176
     1
 90
       50
176
     1
 90
        3
176
     1
 62
     5
420
      255
176
     1
290
     0
176
     1
 90
       50
176
     1
 90
       50
176
     1
 90
       50
176
     1
290
     0
176
     1
 90
       50
176
     1
 62
   256
176
     0
 40
1.0
176
     0
 90
        2
176
     1
  1
strokes_ogs.tif
176
     1
290
     0
176
     1
 40
1.0
176
     1
 40
1.0
176
     1
  0
VISUALSTYLE
  5
34
102
{ACAD_REACTORS
330
2A
102
}
330
2A
100
AcDbVisualStyle
  2
Conceptual
 70
     9
177
     3
291
     0
 70
    58
 90
        3
176
     1
 90
        2
176
     1
 90
        0
176
     1
 90
        0
176
     1
 40
0.6
176
     1
 40
30.0
176
     1
 62
     7
420
 16777215
176
     1
 90
        2
176
     1
 90
        2
176
     1
 62
     7
176
     1
 62
   257
176
     1
 90
        1
176
     1
 90
        1
176
     1
 40
179.0
176
     1
 90
        8
176
     1
 62
     7
176
     1
 40
1.0
176
     1
 90
        1
176
     1
 90
        6
176
     1
 90
        2
176
     1
 62
     7
176
     1
 90
        3
176
     1
 90
        0
176
     1
 90
        0
176
     1
290
     0
176
     1
 90
        1
176
     1
 40
0.0
176
     1
 90
        0
176
     1
290
     0
176
     1
290
     1
176
     1
290
     1
176
     1
290
     0
176
     1
290
     0
176
     1
290
     0
176
     1
290
     0
176
     1
290
     0
176
     1
290
     0
176
     1
 90
       50
176
     1
 40
0.0
176
     1
 40
1.0
176
     1
 90
        0
176
     1
 62
    18
420
        0
176
     1
 90
       50
176
     1
 90
        3
176
     1
 62
     5
420
      255
176
     1
290
     0
176
     1
 90
       50
176
     1
 90
       50
176
     1
 90
       50
176
     1
290
     0
176
     1
 90
       50
176
     1
 62
   256
176
     0
 40
1.0
176
     0
 90
        2
176
     1
  1
strokes_ogs.tif
176
     1
290
     0
176
     1
 40
1.0
176
     1
 40
1.0
176
     1
  0
VISUALSTYLE
  5
35
102
{ACAD_REACTORS
330
2A
102
}
330
2A
100
AcDbVisualStyle
  2
Dim
 70
    11
177
     3
291
     1
 70
    58
 90
        2
176
     1
 90
        2
176
     1
 90
        0
176
     1
 90
        0
176
     1
 40
0.6
176
     1
 40
30.0
176
     1
 62
     7
420
 16777215
176
     1
 90
        1
176
     1
 90
        4
176
     1
 62
     7
176
     1
 62
   257
176
     1
 90
        1
176
     1
 90
        1
176
     1
 40
1.0
176
     1
 90
        8
176
     1
 62
     7
176
     1
 40
1.0
176
     1
 90
        1
176
     1
 90
        6
176
     1
 90
        2
176
     1
 62
     7
176
     1
 90
        5
176
     1
 90
        0
176
     1
 90
        0
176
     1
290
     0
176
     1
 90
        1
176
     1
 40
-50.0
176
     1
 90
        0
176
     1
290
     0
176
     1
290
     1
176
     1
290
     1
176
     1
290
     0
176
     1
290
     0
176
     1
290
     0
176
     1
290
     0
176
     1
290
     0
176
     1
290
     0
176
     1
 90
       50
176
     1
 40
0.0
176
     1
 40
1.0
176
     1
 90
        0
176
     1
 62
    18
420
        0
176
     1
 90
       50
176
     1
 90
        3
176
     1
 62
     5
420
      255
176
     1
290
     0
176
     1
 90
       50
176
     1
 90
       50
176
     1
 90
       50
176
     1
290
     0
176
     1
 90
       50
176
     1
 62
   256
176
     0
 40
1.0
176
     0
 90
        2
176
     1
  1
strokes_ogs.tif
176
     1
290
     0
176
     1
 40
1.0
176
     1
 40
1.0
176
     1
  0
VISUALSTYLE
  5
3D
102
{ACAD_REACTORS
330
2A
102
}
330
2A
100
AcDbVisualStyle
  2
EdgeColorOff
 70
    22
177
     3
291
     1
 70
    58
 90
        2
176
     0
 90
        2
176
     0
 90
        0
176
     0
 90
        0
176
     0
 40
0.6
176
     0
 40
30.0
176
     0
 62
     7
420
 16777215
176
     0
 90
        1
176
     0
 90
        4
176
     0
 62
     7
176
     0
 62
   257
176
     0
 90
        1
176
     0
 90
        1
176
     0
 40
1.0
176
     0
 90
        8
176
     2
 62
     7
176
     0
 40
1.0
176
     0
 90
        1
176
     0
 90
        6
176
     0
 90
        2
176
     0
 62
     7
176
     0
 90
        5
176
     0
 90
        0
176
     0
 90
        0
176
     0
290
     0
176
     0
 90
        1
176
     0
 40
0.0
176
     0
 90
        0
176
     0
290
     0
176
     0
290
     1
176
     0
290
     1
176
     0
290
     0
176
     0
290
     0
176
     0
290
     0
176
     0
290
     0
176
     0
290
     0
176
     0
290
     0
176
     0
 90
       50
176
     0
 40
0.0
176
     0
 40
1.0
176
     0
 90
        0
176
     0
 62
    18
420
        0
176
     0
 90
       50
176
     0
 90
        3
176
     0
 62
     5
420
      255
176
     0
290
     0
176
     0
 90
       50
176
     0
 90
       50
176
     0
 90
       50
176
     0
290
     0
176
     0
 90
       50
176
     0
 62
   256
176
     0
 40
1.0
176
     0
 90
        2
176
     0
  1
strokes_ogs.tif
176
     0
290
     0
176
     0
 40
1.0
176
     0
 40
1.0
176
     0
  0
VISUALSTYLE
  5
39
102
{ACAD_REACTORS
330
2A
102
}
330
2A
100
AcDbVisualStyle
  2
Facepattern
 70
    15
177
     3
291
     1
 70
    58
 90
        2
176
     1
 90
        2
176
     1
 90
        0
176
     1
 90
        0
176
     1
 40
0.6
176
     1
 40
30.0
176
     1
 62
     7
420
 16777215
176
     1
 90
        1
176
     1
 90
        4
176
     1
 62
     7
176
     1
 62
   257
176
     1
 90
        1
176
     1
 90
        1
176
     1
 40
1.0
176
     1
 90
        8
176
     1
 62
     7
176
     1
 40
1.0
176
     1
 90
        1
176
     1
 90
        6
176
     1
 90
        2
176
     1
 62
     7
176
     1
 90
        5
176
     1
 90
        0
176
     1
 90
        0
176
     1
290
     0
176
     1
 90
        1
176
     1
 40
0.0
176
     1
 90
        0
176
     1
290
     0
176
     1
290
     1
176
     1
290
     1
176
     1
290
     0
176
     1
290
     0
176
     1
290
     0
176
     1
290
     0
176
     1
290
     0
176
     1
290
     0
176
     1
 90
       50
176
     1
 40
0.0
176
     1
 40
1.0
176
     1
 90
        0
176
     1
 62
    18
420
        0
176
     1
 90
       50
176
     1
 90
        3
176
     1
 62
     5
420
      255
176
     1
290
     0
176
     1
 90
       50
176
     1
 90
       50
176
     1
 90
       50
176
     1
290
     0
176
     1
 90
       50
176
     1
 62
   256
176
     0
 40
1.0
176
     0
 90
        2
176
     1
  1
strokes_ogs.tif
176
     1
290
     0
176
     1
 40
1.0
176
     1
 40
1.0
176
     1
  0
VISUALSTYLE
  5
2B
102
{ACAD_REACTORS
330
2A
102
}
330
2A
100
AcDbVisualStyle
  2
Flat
 70
     0
177
     3
291
     1
 70
    58
 90
        2
176
     1
 90
        1
176
     1
 90
        1
176
     1
 90
        2
176
     1
 40
0.6
176
     1
 40
30.0
176
     1
 62
     7
420
 16777215
176
     1
 90
        0
176
     1
 90
        0
176
     1
 62
     7
176
     1
 62
   257
176
     1
 90
        1
176
     1
 90
        1
176
     1
 40
1.0
176
     1
 90
        8
176
     1
 62
     7
176
     1
 40
1.0
176
     1
 90
        1
176
     1
 90
        6
176
     1
 90
        2
176
     1
 62
     7
176
     1
 90
        5
176
     1
 90
        0
176
     1
 90
        0
176
     1
290
     0
176
     1
 90
       13
176
     1
 40
0.0
176
     1
 90
        0
176
     1
290
     0
176
     1
290
     1
176
     1
290
     1
176
     1
290
     0
176
     1
290
     0
176
     1
290
     0
176
     1
290
     0
176
     1
290
     0
176
     1
290
     0
176
     1
 90
       50
176
     1
 40
0.0
176
     1
 40
1.0
176
     1
 90
        0
176
     1
 62
    18
420
        0
176
     1
 90
       50
176
     1
 90
        3
176
     1
 62
     5
420
      255
176
     1
290
     0
176
     1
 90
       50
176
     1
 90
       50
176
     1
 90
       50
176
     1
290
     0
176
     1
 90
       50
176
     1
 62
   256
176
     0
 40
1.0
176
     0
 90
        2
176
     1
  1
strokes_ogs.tif
176
     1
290
     0
176
     1
 40
1.0
176
     1
 40
1.0
176
     1
  0
VISUALSTYLE
  5
2C
102
{ACAD_REACTORS
330
2A
102
}
330
2A
100
AcDbVisualStyle
  2
FlatWithEdges
 70
     1
177
     3
291
     1
 70
    58
 90
        2
176
     1
 90
        1
176
     1
 90
        1
176
     1
 90
        2
176
     1
 40
0.6
176
     1
 40
30.0
176
     1
 62
     7
420
 16777215
176
     1
 90
        1
176
     1
 90
        0
176
     1
 62
     7
176
     1
 62
   257
176
     1
 90
        1
176
     1
 90
        1
176
     1
 40
1.0
176
     1
 90
        0
176
     1
 62
   257
176
     1
 40
1.0
176
     1
 90
        1
176
     1
 90
        6
176
     1
 90
        2
176
     1
 62
     7
176
     1
 90
        5
176
     1
 90
        0
176
     1
 90
        0
176
     1
290
     0
176
     1
 90
       13
176
     1
 40
0.0
176
     1
 90
        0
176
     1
290
     0
176
     1
290
     1
176
     1
290
     1
176
     1
290
     0
176
     1
290
     0
176
     1
290
     0
176
     1
290
     0
176
     1
290
     0
176
     1
290
     0
176
     1
 90
       50
176
     1
 40
0.0
176
     1
 40
1.0
176
     1
 90
        0
176
     1
 62
    18
420
        0
176
     1
 90
       50
176
     1
 90
        3
176
     1
 62
     5
420
      255
176
     1
290
     0
176
     1
 90
       50
176
     1
 90
       50
176
     1
 90
       50
176
     1
290
     0
176
     1
 90
       50
176
     1
 62
   256
176
     0
 40
1.0
176
     0
 90
        2
176
     1
  1
strokes_ogs.tif
176
     1
290
     0
176
     1
 40
1.0
176
     1
 40
1.0
176
     1
  0
VISUALSTYLE
  5
2D
102
{ACAD_REACTORS
330
2A
102
}
330
2A
100
AcDbVisualStyle
  2
Gouraud
 70
     2
177
     3
291
     1
 70
    58
 90
        2
176
     1
 90
        2
176
     1
 90
        1
176
     1
 90
        2
176
     1
 40
0.6
176
     1
 40
30.0
176
     1
 62
     7
420
 16777215
176
     1
 90
        0
176
     1
 90
        0
176
     1
 62
     7
176
     1
 62
   257
176
     1
 90
        1
176
     1
 90
        1
176
     1
 40
1.0
176
     1
 90
        0
176
     1
 62
     7
176
     1
 40
1.0
176
     1
 90
        1
176
     1
 90
        6
176
     1
 90
        2
176
     1
 62
     7
176
     1
 90
        5
176
     1
 90
        0
176
     1
 90
        0
176
     1
290
     0
176
     1
 90
       13
176
     1
 40
0.0
176
     1
 90
        0
176
     1
290
     0
176
     1
290
     1
176
     1
290
     1
176
     1
290
     0
176
     1
290
     0
176
     1
290
     0
176
     1
290
     0
176
     1
290
     0
176
     1
290
     0
176
     1
 90
       50
176
     1
 40
0.0
176
     1
 40
1.0
176
     1
 90
        0
176
     1
 62
    18
420
        0
176
     1
 90
       50
176
     1
 90
        3
176
     1
 62
     5
420
      255
176
     1
290
     0
176
     1
 90
       50
176
     1
 90
       50
176
     1
 90
       50
176
     1
290
     0
176
     1
 90
       50
176
     1
 62
   256
176
     0
 40
1.0
176
     0
 90
        2
176
     1
  1
strokes_ogs.tif
176
     1
290
     0
176
     1
 40
1.0
176
     1
 40
1.0
176
     1
  0
VISUALSTYLE
  5
2E
102
{ACAD_REACTORS
330
2A
102
}
330
2A
100
AcDbVisualStyle
  2
GouraudWithEdges
 70
     3
177
     3
291
     1
 70
    58
 90
        2
176
     1
 90
        2
176
     1
 90
        1
176
     1
 90
        2
176
     1
 40
0.6
176
     1
 40
30.0
176
     1
 62
     7
420
 16777215
176
     1
 90
        1
176
     1
 90
        0
176
     1
 62
     7
176
     1
 62
   257
176
     1
 90
        1
176
     1
 90
        1
176
     1
 40
1.0
176
     1
 90
        0
176
     1
 62
   257
176
     1
 40
1.0
176
     1
 90
        1
176
     1
 90
        6
176
     1
 90
        2
176
     1
 62
     7
176
     1
 90
        5
176
     1
 90
        0
176
     1
 90
        0
176
     1
290
     0
176
     1
 90
       13
176
     1
 40
0.0
176
     1
 90
        0
176
     1
290
     0
176
     1
290
     1
176
     1
290
     1
176
     1
290
     0
176
     1
290
     0
176
     1
290
     0
176
     1
290
     0
176
     1
290
     0
176
     1
290
     0
176
     1
 90
       50
176
     1
 40
0.0
176
     1
 40
1.0
176
     1
 90
        0
176
     1
 62
    18
420
        0
176
     1
 90
       50
176
     1
 90
        3
176
     1
 62
     5
420
      255
176
     1
290
     0
176
     1
 90
       50
176
     1
 90
       50
176
     1
 90
       50
176
     1
290
     0
176
     1
 90
       50
176
     1
 62
   256
176
     0
 40
1.0
176
     0
 90
        2
176
     1
  1
strokes_ogs.tif
176
     1
290
     0
176
     1
 40
1.0
176
     1
 40
1.0
176
     1
  0
VISUALSTYLE
  5
31
102
{ACAD_REACTORS
330
2A
102
}
330
2A
100
AcDbVisualStyle
  2
Hidden
 70
     6
177
     3
291
     0
 70
    58
 90
        1
176
     1
 90
        2
176
     1
 90
        2
176
     1
 90
        0
176
     1
 40
0.6
176
     1
 40
30.0
176
     1
 62
     7
420
 16777215
176
     1
 90
        2
176
     1
 90
        2
176
     1
 62
     7
176
     1
 62
   257
176
     1
 90
        2
176
     1
 90
        1
176
     1
 40
40.0
176
     1
 90
        0
176
     1
 62
   257
176
     1
 40
1.0
176
     1
 90
        1
176
     1
 90
        6
176
     1
 90
        2
176
     1
 62
     7
176
     1
 90
        3
176
     1
 90
        0
176
     1
 90
        0
176
     1
290
     0
176
     1
 90
        1
176
     1
 40
0.0
176
     1
 90
        0
176
     1
290
     0
176
     1
290
     1
176
     1
290
     1
176
     1
290
     0
176
     1
290
     0
176
     1
290
     0
176
     1
290
     0
176
     1
290
     0
176
     1
290
     0
176
     1
 90
       50
176
     1
 40
0.0
176
     1
 40
1.0
176
     1
 90
        0
176
     1
 62
    18
420
        0
176
     1
 90
       50
176
     1
 90
        3
176
     1
 62
     5
420
      255
176
     1
290
     0
176
     1
 90
       50
176
     1
 90
       50
176
     1
 90
       50
176
     1
290
     0
176
     1
 90
       50
176
     1
 62
   256
176
     0
 40
1.0
176
     0
 90
        2
176
     1
  1
strokes_ogs.tif
176
     1
290
     0
176
     1
 40
1.0
176
     1
 40
1.0
176
     1
  0
VISUALSTYLE
  5
3B
102
{ACAD_REACTORS
330
2A
102
}
330
2A
100
AcDbVisualStyle
  2
JitterOff
 70
    20
177
     3
291
     1
 70
    58
 90
        2
176
     0
 90
        2
176
     0
 90
        0
176
     0
 90
        0
176
     0
 40
0.6
176
     0
 40
30.0
176
     0
 62
     7
420
 16777215
176
     0
 90
        1
176
     0
 90
        4
176
     0
 62
     7
176
     0
 62
   257
176
     0
 90
        1
176
     0
 90
        1
176
     0
 40
1.0
176
     0
 90
       10
176
     2
 62
     7
176
     0
 40
1.0
176
     0
 90
        1
176
     0
 90
        6
176
     0
 90
        2
176
     0
 62
     7
176
     0
 90
        5
176
     0
 90
        0
176
     0
 90
        0
176
     0
290
     0
176
     0
 90
        1
176
     0
 40
0.0
176
     0
 90
        0
176
     0
290
     0
176
     0
290
     1
176
     0
290
     1
176
     0
290
     0
176
     0
290
     0
176
     0
290
     0
176
     0
290
     0
176
     0
290
     0
176
     0
290
     0
176
     0
 90
       50
176
     0
 40
0.0
176
     0
 40
1.0
176
     0
 90
        0
176
     0
 62
    18
420
        0
176
     0
 90
       50
176
     0
 90
        3
176
     0
 62
     5
420
      255
176
     0
290
     0
176
     0
 90
       50
176
     0
 90
       50
176
     0
 90
       50
176
     0
290
     0
176
     0
 90
       50
176
     0
 62
   256
176
     0
 40
1.0
176
     0
 90
        2
176
     0
  1
strokes_ogs.tif
176
     0
290
     0
176
     0
 40
1.0
176
     0
 40
1.0
176
     0
  0
VISUALSTYLE
  5
38
102
{ACAD_REACTORS
330
2A
102
}
330
2A
100
AcDbVisualStyle
  2
Linepattern
 70
    14
177
     3
291
     1
 70
    58
 90
        2
176
     1
 90
        2
176
     1
 90
        0
176
     1
 90
        0
176
     1
 40
0.6
176
     1
 40
30.0
176
     1
 62
     7
420
 16777215
176
     1
 90
        1
176
     1
 90
        4
176
     1
 62
     7
176
     1
 62
   257
176
     1
 90
        7
176
     1
 90
        7
176
     1
 40
1.0
176
     1
 90
        8
176
     1
 62
     7
176
     1
 40
1.0
176
     1
 90
        1
176
     1
 90
        6
176
     1
 90
        2
176
     1
 62
     7
176
     1
 90
        5
176
     1
 90
        0
176
     1
 90
        0
176
     1
290
     0
176
     1
 90
        1
176
     1
 40
0.0
176
     1
 90
        0
176
     1
290
     0
176
     1
290
     1
176
     1
290
     1
176
     1
290
     0
176
     1
290
     0
176
     1
290
     0
176
     1
290
     0
176
     1
290
     0
176
     1
290
     0
176
     1
 90
       50
176
     1
 40
0.0
176
     1
 40
1.0
176
     1
 90
        0
176
     1
 62
    18
420
        0
176
     1
 90
       50
176
     1
 90
        3
176
     1
 62
     5
420
      255
176
     1
290
     0
176
     1
 90
       50
176
     1
 90
       50
176
     1
 90
       50
176
     1
290
     0
176
     1
 90
       50
176
     1
 62
   256
176
     0
 40
1.0
176
     0
 90
        2
176
     1
  1
strokes_ogs.tif
176
     1
290
     0
176
     1
 40
1.0
176
     1
 40
1.0
176
     1
  0
VISUALSTYLE
  5
3C
102
{ACAD_REACTORS
330
2A
102
}
330
2A
100
AcDbVisualStyle
  2
OverhangOff
 70
    21
177
     3
291
     1
 70
    58
 90
        2
176
     0
 90
        2
176
     0
 90
        0
176
     0
 90
        0
176
     0
 40
0.6
176
     0
 40
30.0
176
     0
 62
     7
420
 16777215
176
     0
 90
        1
176
     0
 90
        4
176
     0
 62
     7
176
     0
 62
   257
176
     0
 90
        1
176
     0
 90
        1
176
     0
 40
1.0
176
     0
 90
        9
176
     2
 62
     7
176
     0
 40
1.0
176
     0
 90
        1
176
     0
 90
        6
176
     0
 90
        2
176
     0
 62
     7
176
     0
 90
        5
176
     0
 90
        0
176
     0
 90
        0
176
     0
290
     0
176
     0
 90
        1
176
     0
 40
0.0
176
     0
 90
        0
176
     0
290
     0
176
     0
290
     1
176
     0
290
     1
176
     0
290
     0
176
     0
290
     0
176
     0
290
     0
176
     0
290
     0
176
     0
290
     0
176
     0
290
     0
176
     0
 90
       50
176
     0
 40
0.0
176
     0
 40
1.0
176
     0
 90
        0
176
     0
 62
    18
420
        0
176
     0
 90
       50
176
     0
 90
        3
176
     0
 62
     5
420
      255
176
     0
290
     0
176
     0
 90
       50
176
     0
 90
       50
176
     0
 90
       50
176
     0
290
     0
176
     0
 90
       50
176
     0
 62
   256
176
     0
 40
1.0
176
     0
 90
        2
176
     0
  1
strokes_ogs.tif
176
     0
290
     0
176
     0
 40
1.0
176
     0
 40
1.0
176
     0
  0
VISUALSTYLE
  5
33
102
{ACAD_REACTORS
330
2A
102
}
330
2A
100
AcDbVisualStyle
  2
Realistic
 70
     8
177
     3
291
     0
 70
    58
 90
        2
176
     1
 90
        3
176
     1
 90
        0
176
     1
 90
        2
176
     1
 40
0.6
176
     1
 40
30.0
176
     1
 62
     7
420
 16777215
176
     1
 90
        0
176
     1
 90
        0
176
     1
 62
     7
176
     1
 62
   257
176
     1
 90
        1
176
     1
 90
        1
176
     1
 40
1.0
176
     1
 90
        8
176
     1
 62
   257
176
     1
 40
1.0
176
     1
 90
        1
176
     1
 90
        6
176
     1
 90
        2
176
     1
 62
     7
176
     1
 90
        3
176
     1
 90
        0
176
     1
 90
        0
176
     1
290
     0
176
     1
 90
       13
176
     1
 40
0.0
176
     1
 90
        0
176
     1
290
     0
176
     1
290
     1
176
     1
290
     1
176
     1
290
     0
176
     1
290
     0
176
     1
290
     0
176
     1
290
     0
176
     1
290
     0
176
     1
290
     0
176
     1
 90
       50
176
     1
 40
0.0
176
     1
 40
1.0
176
     1
 90
        0
176
     1
 62
    18
420
        0
176
     1
 90
       50
176
     1
 90
        3
176
     1
 62
     5
420
      255
176
     1
290
     0
176
     1
 90
       50
176
     1
 90
       50
176
     1
 90
       50
176
     1
290
     0
176
     1
 90
       50
176
     1
 62
   256
176
     0
 40
1.0
176
     0
 90
        2
176
     1
  1
strokes_ogs.tif
176
     1
290
     0
176
     1
 40
1.0
176
     1
 40
1.0
176
     1
  0
VISUALSTYLE
  5
42
102
{ACAD_REACTORS
330
2A
102
}
330
2A
100
AcDbVisualStyle
  2
Shaded
 70
    27
177
     3
291
     0
 70
    58
 90
        2
176
     1
 90
        2
176
     1
 90
        1
176
     1
 90
        2
176
     1
 40
0.6
176
     1
 40
30.0
176
     1
 62
     7
420
 16777215
176
     1
 90
        0
176
     1
 90
        4
176
     1
 62
     7
176
     1
 62
   257
176
     1
 90
        1
176
     1
 90
        1
176
     1
 40
1.0
176
     1
 90
        8
176
     1
 62
   257
176
     1
 40
1.0
176
     1
 90
        1
176
     1
 90
        6
176
     1
 90
        2
176
     1
 62
     8
420
  7895160
176
     1
 90
        3
176
     1
 90
        0
176
     1
 90
        0
176
     1
290
     0
176
     1
 90
        5
176
     1
 40
0.0
176
     1
 90
        0
176
     1
290
     0
176
     1
290
     1
176
     1
290
     1
176
     1
290
     0
176
     1
290
     0
176
     1
290
     0
176
     1
290
     0
176
     1
290
     0
176
     1
290
     0
176
     1
 90
       50
176
     1
 40
0.0
176
     1
 40
1.0
176
     1
 90
        0
176
     1
 62
    18
420
        0
176
     1
 90
       50
176
     1
 90
        3
176
     1
 62
     5
420
      255
176
     1
290
     0
176
     1
 90
       50
176
     1
 90
       50
176
     1
 90
       50
176
     1
290
     0
176
     1
 90
       50
176
     1
 62
   256
176
     0
 40
1.0
176
     0
 90
        2
176
     1
  1
strokes_ogs.tif
176
     1
290
     0
176
     1
 40
1.0
176
     1
 40
1.0
176
     1
  0
VISUALSTYLE
  5
41
102
{ACAD_REACTORS
330
2A
102
}
330
2A
100
AcDbVisualStyle
  2
Shaded with edges
 70
    26
177
     3
291
     0
 70
    58
 90
        2
176
     1
 90
        2
176
     1
 90
        1
176
     1
 90
        2
176
     1
 40
0.6
176
     1
 40
30.0
176
     1
 62
     7
420
 16777215
176
     1
 90
        1
176
     1
 90
       10
176
     1
 62
     7
176
     1
 62
   257
176
     1
 90
        2
176
     1
 90
        1
176
     1
 40
1.0
176
     1
 90
        8
176
     1
 62
   257
176
     1
 40
1.0
176
     1
 90
        1
176
     1
 90
        6
176
     1
 90
        2
176
     1
 62
     7
176
     1
 90
        3
176
     1
 90
        0
176
     1
 90
        0
176
     1
290
     0
176
     1
 90
        5
176
     1
 40
0.0
176
     1
 90
        0
176
     1
290
     0
176
     1
290
     1
176
     1
290
     1
176
     1
290
     0
176
     1
290
     0
176
     1
290
     0
176
     1
290
     0
176
     1
290
     0
176
     1
290
     0
176
     1
 90
       50
176
     1
 40
0.0
176
     1
 40
1.0
176
     1
 90
        0
176
     1
 62
    18
420
        0
176
     1
 90
       50
176
     1
 90
        3
176
     1
 62
     5
420
      255
176
     1
290
     0
176
     1
 90
       50
176
     1
 90
       50
176
     1
 90
       50
176
     1
290
     0
176
     1
 90
       50
176
     1
 62
   256
176
     0
 40
1.0
176
     0
 90
        2
176
     1
  1
strokes_ogs.tif
176
     1
290
     0
176
     1
 40
1.0
176
     1
 40
1.0
176
     1
  0
VISUALSTYLE
  5
3E
102
{ACAD_REACTORS
330
2A
102
}
330
2A
100
AcDbVisualStyle
  2
Shades of Gray
 70
    23
177
     3
291
     0
 70
    58
 90
        2
176
     1
 90
        2
176
     1
 90
        3
176
     1
 90
        0
176
     1
 40
0.6
176
     1
 40
30.0
176
     1
 62
     7
420
 16777215
176
     1
 90
        2
176
     1
 90
        2
176
     1
 62
     7
176
     1
 62
     7
176
     1
 90
        1
176
     1
 90
        1
176
     1
 40
40.0
176
     1
 90
        8
176
     1
 62
     7
176
     1
 40
1.0
176
     1
 90
        1
176
     1
 90
        6
176
     1
 90
        2
176
     1
 62
     7
176
     1
 90
        3
176
     1
 90
        0
176
     1
 90
        0
176
     1
290
     0
176
     1
 90
        1
176
     1
 40
0.0
176
     1
 90
        0
176
     1
290
     0
176
     1
290
     1
176
     1
290
     1
176
     1
290
     0
176
     1
290
     0
176
     1
290
     0
176
     1
290
     0
176
     1
290
     0
176
     1
290
     0
176
     1
 90
       50
176
     1
 40
0.0
176
     1
 40
1.0
176
     1
 90
        0
176
     1
 62
    18
420
        0
176
     1
 90
       50
176
     1
 90
        3
176
     1
 62
     5
420
      255
176
     1
290
     0
176
     1
 90
       50
176
     1
 90
       50
176
     1
 90
       50
176
     1
290
     0
176
     1
 90
       50
176
     1
 62
   256
176
     0
 40
1.0
176
     0
 90
        2
176
     1
  1
strokes_ogs.tif
176
     1
290
     0
176
     1
 40
1.0
176
     1
 40
1.0
176
     1
  0
VISUALSTYLE
  5
3F
102
{ACAD_REACTORS
330
2A
102
}
330
2A
100
AcDbVisualStyle
  2
Sketchy
 70
    24
177
     3
291
     0
 70
    58
 90
        1
176
     1
 90
        2
176
     1
 90
        2
176
     1
 90
        0
176
     1
 40
0.6
176
     1
 40
30.0
176
     1
 62
     7
420
 16777215
176
     1
 90
        2
176
     1
 90
        2
176
     1
 62
     7
176
     1
 62
     7
176
     1
 90
        1
176
     1
 90
        1
176
     1
 40
40.0
176
     1
 90
       11
176
     1
 62
     7
176
     1
 40
1.0
176
     1
 90
        1
176
     1
 90
        6
176
     1
 90
        2
176
     1
 62
     7
176
     1
 90
        6
176
     1
 90
        0
176
     1
 90
        0
176
     1
290
     0
176
     1
 90
        1
176
     1
 40
0.0
176
     1
 90
        0
176
     1
290
     0
176
     1
290
     1
176
     1
290
     1
176
     1
290
     0
176
     1
290
     0
176
     1
290
     0
176
     1
290
     0
176
     1
290
     0
176
     1
290
     0
176
     1
 90
       50
176
     1
 40
0.0
176
     1
 40
1.0
176
     1
 90
        0
176
     1
 62
    18
420
        0
176
     1
 90
       50
176
     1
 90
        3
176
     1
 62
     5
420
      255
176
     1
290
     0
176
     1
 90
       50
176
     1
 90
       50
176
     1
 90
       50
176
     1
290
     0
176
     1
 90
       50
176
     1
 62
   256
176
     0
 40
1.0
176
     0
 90
        2
176
     1
  1
strokes_ogs.tif
176
     1
290
     0
176
     1
 40
1.0
176
     1
 40
1.0
176
     1
  0
VISUALSTYLE
  5
37
102
{ACAD_REACTORS
330
2A
102
}
330
2A
100
AcDbVisualStyle
  2
Thicken
 70
    13
177
     3
291
     1
 70
    58
 90
        2
176
     1
 90
        2
176
     1
 90
        0
176
     1
 90
        0
176
     1
 40
0.6
176
     1
 40
30.0
176
     1
 62
     7
420
 16777215
176
     1
 90
        1
176
     1
 90
        4
176
     1
 62
     7
176
     1
 62
   257
176
     1
 90
        1
176
     1
 90
        1
176
     1
 40
1.0
176
     1
 90
       12
176
     1
 62
     7
176
     1
 40
1.0
176
     1
 90
        1
176
     1
 90
        6
176
     1
 90
        2
176
     1
 62
     7
176
     1
 90
        5
176
     1
 90
        0
176
     1
 90
        0
176
     1
290
     0
176
     1
 90
        1
176
     1
 40
0.0
176
     1
 90
        0
176
     1
290
     0
176
     1
290
     1
176
     1
290
     1
176
     1
290
     0
176
     1
290
     0
176
     1
290
     0
176
     1
290
     0
176
     1
290
     0
176
     1
290
     0
176
     1
 90
       50
176
     1
 40
0.0
176
     1
 40
1.0
176
     1
 90
        0
176
     1
 62
    18
420
        0
176
     1
 90
       50
176
     1
 90
        3
176
     1
 62
     5
420
      255
176
     1
290
     0
176
     1
 90
       50
176
     1
 90
       50
176
     1
 90
       50
176
     1
290
     0
176
     1
 90
       50
176
     1
 62
   256
176
     0
 40
1.0
176
     0
 90
        2
176
     1
  1
strokes_ogs.tif
176
     1
290
     0
176
     1
 40
1.0
176
     1
 40
1.0
176
     1
  0
VISUALSTYLE
  5
30
102
{ACAD_REACTORS
330
2A
102
}
330
2A
100
AcDbVisualStyle
  2
Wireframe
 70
     5
177
     3
291
     0
 70
    58
 90
        0
176
     1
 90
        2
176
     1
 90
        0
176
     1
 90
        0
176
     1
 40
0.6
176
     1
 40
30.0
176
     1
 62
     7
420
 16777215
176
     1
 90
        1
176
     1
 90
        4
176
     1
 62
     7
176
     1
 62
   257
176
     1
 90
        1
176
     1
 90
        1
176
     1
 40
1.0
176
     1
 90
        0
176
     1
 62
   257
176
     1
 40
1.0
176
     1
 90
        1
176
     1
 90
        6
176
     1
 90
        2
176
     1
 62
     7
176
     1
 90
        3
176
     1
 90
        0
176
     1
 90
        0
176
     1
290
     0
176
     1
 90
        1
176
     1
 40
0.0
176
     1
 90
        0
176
     1
290
     0
176
     1
290
     1
176
     1
290
     1
176
     1
290
     0
176
     1
290
     0
176
     1
290
     0
176
     1
290
     0
176
     1
290
     0
176
     1
290
     0
176
     1
 90
       50
176
     1
 40
0.0
176
     1
 40
1.0
176
     1
 90
        0
176
     1
 62
    18
420
        0
176
     1
 90
       50
176
     1
 90
        3
176
     1
 62
     5
420
      255
176
     1
290
     0
176
     1
 90
       50
176
     1
 90
       50
176
     1
 90
       50
176
     1
290
     0
176
     1
 90
       50
176
     1
 62
   256
176
     0
 40
1.0
176
     0
 90
        2
176
     1
  1
strokes_ogs.tif
176
     1
290
     0
176
     1
 40
1.0
176
     1
 40
1.0
176
     1
  0
VISUALSTYLE
  5
40
102
{ACAD_REACTORS
330
2A
102
}
330
2A
100
AcDbVisualStyle
  2
X-Ray
 70
    25
177
     3
291
     0
 70
    58
 90
        2
176
     1
 90
        2
176
     1
 90
        1
176
     1
 90
        1
176
     1
 40
0.5
176
     1
 40
30.0
176
     1
 62
     7
420
 16777215
176
     1
 90
        1
176
     1
 90
        0
176
     1
 62
     7
176
     1
 62
   257
176
     1
 90
        1
176
     1
 90
        1
176
     1
 40
1.0
176
     1
 90
        8
176
     1
 62
     7
176
     1
 40
1.0
176
     1
 90
        1
176
     1
 90
        6
176
     1
 90
        2
176
     1
 62
     7
176
     1
 90
        3
176
     1
 90
        0
176
     1
 90
        0
176
     1
290
     0
176
     1
 90
       13
176
     1
 40
0.0
176
     1
 90
        0
176
     1
290
     0
176
     1
290
     1
176
     1
290
     1
176
     1
290
     0
176
     1
290
     0
176
     1
290
     0
176
     1
290
     0
176
     1
290
     0
176
     1
290
     0
176
     1
 90
       50
176
     1
 40
0.0
176
     1
 40
1.0
176
     1
 90
        0
176
     1
 62
    18
420
        0
176
     1
 90
       50
176
     1
 90
        3
176
     1
 62
     5
420
      255
176
     1
290
     0
176
     1
 90
       50
176
     1
 90
       50
176
     1
 90
       50
176
     1
290
     0
176
     1
 90
       50
176
     1
 62
   256
176
     0
 40
1.0
176
     0
 90
        2
176
     1
  1
strokes_ogs.tif
176
     1
290
     0
176
     1
 40
1.0
176
     1
 40
1.0
176
     1
  0
DICTIONARYVAR
  5
242
102
{ACAD_REACTORS
330
241
102
}
330
241
100
DictionaryVariables
280
     0
  1
1:1
  0
DICTIONARYVAR
  5
247
102
{ACAD_REACTORS
330
241
102
}
330
241
100
DictionaryVariables
280
     0
  1
Standard
  0
DICTIONARYVAR
  5
246
102
{ACAD_REACTORS
330
241
102
}
330
241
100
DictionaryVariables
280
     0
  1
Standard
  0
DICTIONARYVAR
  5
24A
102
{ACAD_REACTORS
330
241
102
}
330
241
100
DictionaryVariables
280
     0
  1
6.000000
  0
DICTIONARY
  5
243
330
6A
100
AcDbDictionary
280
     1
281
     1
  3
ACAD_ROUNDTRIP_2008_TABLESTYLE_CELLSTYLEMAP
360
244
  0
CELLSTYLEMAP
  5
244
102
{ACAD_REACTORS
330
243
102
}
330
243
100
AcDbCellStyleMap
 90
        3
300
CELLSTYLE
  1
TABLEFORMAT_BEGIN
 90
        5
170
     1
 91
        0
 92
    32768
 62
   257
 93
        1
300
CONTENTFORMAT
  1
CONTENTFORMAT_BEGIN
 90
        0
 91
        0
 92
        4
 93
        0
300

 40
0.0
140
1.0
 94
        5
 62
     0
340
11
144
6.0
309
CONTENTFORMAT_END
171
     1
301
MARGIN
  1
CELLMARGIN_BEGIN
 40
1.5
 40
1.5
 40
1.5
 40
1.5
 40
1.5
 40
1.5
309
CELLMARGIN_END
 94
        6
 95
        1
302
GRIDFORMAT
  1
GRIDFORMAT_BEGIN
 90
        0
 91
        1
 62
     0
 92
       -2
340
14
 93
        0
 40
0.045
309
GRIDFORMAT_END
 95
        2
302
GRIDFORMAT
  1
GRIDFORMAT_BEGIN
 90
        0
 91
        1
 62
     0
 92
       -2
340
14
 93
        0
 40
0.045
309
GRIDFORMAT_END
 95
        4
302
GRIDFORMAT
  1
GRIDFORMAT_BEGIN
 90
        0
 91
        1
 62
     0
 92
       -2
340
14
 93
        0
 40
0.045
309
GRIDFORMAT_END
 95
        8
302
GRIDFORMAT
  1
GRIDFORMAT_BEGIN
 90
        0
 91
        1
 62
     0
 92
       -2
340
14
 93
        0
 40
0.045
309
GRIDFORMAT_END
 95
       16
302
GRIDFORMAT
  1
GRIDFORMAT_BEGIN
 90
        0
 91
        1
 62
     0
 92
       -2
340
14
 93
        0
 40
0.045
309
GRIDFORMAT_END
 95
       32
302
GRIDFORMAT
  1
GRIDFORMAT_BEGIN
 90
        0
 91
        1
 62
     0
 92
       -2
340
14
 93
        0
 40
0.045
309
GRIDFORMAT_END
309
TABLEFORMAT_END
  1
CELLSTYLE_BEGIN
 90
        1
 91
        1
300
_TITLE
309
CELLSTYLE_END
300
CELLSTYLE
  1
TABLEFORMAT_BEGIN
 90
        5
170
     1
 91
        0
 92
        0
 62
   257
 93
        1
300
CONTENTFORMAT
  1
CONTENTFORMAT_BEGIN
 90
        0
 91
        0
 92
        4
 93
        0
300

 40
0.0
140
1.0
 94
        5
 62
     0
340
11
144
4.5
309
CONTENTFORMAT_END
171
     1
301
MARGIN
  1
CELLMARGIN_BEGIN
 40
1.5
 40
1.5
 40
1.5
 40
1.5
 40
1.5
 40
1.5
309
CELLMARGIN_END
 94
        6
 95
        1
302
GRIDFORMAT
  1
GRIDFORMAT_BEGIN
 90
        0
 91
        1
 62
     0
 92
       -2
340
14
 93
        0
 40
0.045
309
GRIDFORMAT_END
 95
        2
302
GRIDFORMAT
  1
GRIDFORMAT_BEGIN
 90
        0
 91
        1
 62
     0
 92
       -2
340
14
 93
        0
 40
0.045
309
GRIDFORMAT_END
 95
        4
302
GRIDFORMAT
  1
GRIDFORMAT_BEGIN
 90
        0
 91
        1
 62
     0
 92
       -2
340
14
 93
        0
 40
0.045
309
GRIDFORMAT_END
 95
        8
302
GRIDFORMAT
  1
GRIDFORMAT_BEGIN
 90
        0
 91
        1
 62
     0
 92
       -2
340
14
 93
        0
 40
0.045
309
GRIDFORMAT_END
 95
       16
302
GRIDFORMAT
  1
GRIDFORMAT_BEGIN
 90
        0
 91
        1
 62
     0
 92
       -2
340
14
 93
        0
 40
0.045
309
GRIDFORMAT_END
 95
       32
302
GRIDFORMAT
  1
GRIDFORMAT_BEGIN
 90
        0
 91
        1
 62
     0
 92
       -2
340
14
 93
        0
 40
0.045
309
GRIDFORMAT_END
309
TABLEFORMAT_END
  1
CELLSTYLE_BEGIN
 90
        2
 91
        1
300
_HEADER
309
CELLSTYLE_END
300
CELLSTYLE
  1
TABLEFORMAT_BEGIN
 90
        5
170
     1
 91
        0
 92
        0
 62
   257
 93
        1
300
CONTENTFORMAT
  1
CONTENTFORMAT_BEGIN
 90
        0
 91
        0
 92
        4
 93
        0
300

 40
0.0
140
1.0
 94
        2
 62
     0
340
11
144
4.5
309
CONTENTFORMAT_END
171
     1
301
MARGIN
  1
CELLMARGIN_BEGIN
 40
1.5
 40
1.5
 40
1.5
 40
1.5
 40
1.5
 40
1.5
309
CELLMARGIN_END
 94
        6
 95
        1
302
GRIDFORMAT
  1
GRIDFORMAT_BEGIN
 90
        0
 91
        1
 62
     0
 92
       -2
340
14
 93
        0
 40
0.045
309
GRIDFORMAT_END
 95
        2
302
GRIDFORMAT
  1
GRIDFORMAT_BEGIN
 90
        0
 91
        1
 62
     0
 92
       -2
340
14
 93
        0
 40
0.045
309
GRIDFORMAT_END
 95
        4
302
GRIDFORMAT
  1
GRIDFORMAT_BEGIN
 90
        0
 91
        1
 62
     0
 92
       -2
340
14
 93
        0
 40
0.045
309
GRIDFORMAT_END
 95
        8
302
GRIDFORMAT
  1
GRIDFORMAT_BEGIN
 90
        0
 91
        1
 62
     0
 92
       -2
340
14
 93
        0
 40
0.045
309
GRIDFORMAT_END
 95
       16
302
GRIDFORMAT
  1
GRIDFORMAT_BEGIN
 90
        0
 91
        1
 62
     0
 92
       -2
340
14
 93
        0
 40
0.045
309
GRIDFORMAT_END
 95
       32
302
GRIDFORMAT
  1
GRIDFORMAT_BEGIN
 90
        0
 91
        1
 62
     0
 92
       -2
340
14
 93
        0
 40
0.045
309
GRIDFORMAT_END
309
TABLEFORMAT_END
  1
CELLSTYLE_BEGIN
 90
        3
 91
        2
300
_DATA
309
CELLSTYLE_END
  0
ENDSEC
  0
EOF
