  0
SECTION
  2
HEADER
  9
$ACADVER
  1
AC1009
  9
$INSBASE
 10
0.0
 20
0.0
 30
0.0
  9
$EXTMIN
 10
0.0
 20
0.0
 30
0.0
  9
$EXTMAX
 10
840.0
 20
594.0
 30
0.0
  9
$LIMMIN
 10
0.0
 20
0.0
  9
$LIMMAX
 10
840.0
 20
594.0
  9
$ORTHOMODE
 70
     0
  9
$REGENMODE
 70
     1
  9
$FILLMODE
 70
     1
  9
$QTEXTMODE
 70
     0
  9
$MIRRTEXT
 70
     1
  9
$DRAGMODE
 70
     2
  9
$LTSCALE
 40
2.0
  9
$OSMODE
 70
     0
  9
$ATTMODE
 70
     1
  9
$TEXTSIZE
 40
0.2
  9
$TRACEWID
 40
0.05
  9
$TEXTSTYLE
  7
STANDARD
  9
$CLAYER
  8
0
  9
$CELTYPE
  6
BYLAYER
  9
$CECOLOR
 62
     7
  9
$DIMSCALE
 40
2.0
  9
$DIMASZ
 40
3.5
  9
$DIMEXO
 40
0.0625
  9
$DIMDLI
 40
0.38
  9
$DIMRND
 40
0.0
  9
$DIMDLE
 40
0.0
  9
$DIMEXE
 40
0.18
  9
$DIMTP
 40
0.0
  9
$DIMTM
 40
0.0
  9
$DIMTXT
 40
3.5
  9
$DIMCEN
 40
0.09
  9
$DIMTSZ
 40
0.0
  9
$DIMTOL
 70
     0
  9
$DIMLIM
 70
     0
  9
$DIMTIH
 70
     1
  9
$DIMTOH
 70
     1
  9
$DIMSE1
 70
     0
  9
$DIMSE2
 70
     0
  9
$DIMTAD
 70
     1
  9
$DIMZIN
 70
     0
  9
$DIMBLK
  1

  9
$DIMASO
 70
     1
  9
$DIMSHO
 70
     1
  9
$DIMPOST
  1

  9
$DIMAPOST
  1

  9
$DIMALT
 70
     0
  9
$DIMALTD
 70
     2
  9
$DIMALTF
 40
25.4
  9
$DIMLFAC
 40
1.0
  9
$DIMTOFL
 70
     0
  9
$DIMTVP
 40
0.0
  9
$DIMTIX
 70
     0
  9
$DIMSOXD
 70
     0
  9
$DIMSAH
 70
     0
  9
$DIMBLK1
  1

  9
$DIMBLK2
  1

  9
$DIMSTYLE
  2
STANDARD
  9
$DIMCLRD
 70
     0
  9
$DIMCLRE
 70
     0
  9
$DIMCLRT
 70
     0
  9
$DIMTFAC
 40
1.0
  9
$DIMGAP
 40
0.09
  9
$LUNITS
 70
     2
  9
$LUPREC
 70
     2
  9
$AXISMODE
 70
     0
  9
$AXISUNIT
 10
0.0
 20
0.0
  9
$SKETCHINC
 40
0.1
  9
$FILLETRAD
 40
0.0
  9
$AUNITS
 70
     0
  9
$AUPREC
 70
     0
  9
$MENU
  1
acad
  9
$ELEVATION
 40
0.0
  9
$PELEVATION
 40
0.0
  9
$THICKNESS
 40
0.0
  9
$LIMCHECK
 70
     0
  9
$BLIPMODE
 70
     1
  9
$CHAMFERA
 40
0.0
  9
$CHAMFERB
 40
0.0
  9
$SKPOLY
 70
     0
  9
$TDCREATE
 40
0.000000000
  9
$TDUPDATE
 40
0.000000000
  9
$TDINDWG
 40
0.0000000000
  9
$TDUSRTIMER
 40
0.0000000000
  9
$USRTIMER
 70
     1
  9
$ANGBASE
 50
0.0
  9
$ANGDIR
 70
     0
  9
$PDMODE
 70
     0
  9
$PDSIZE
 40
0.0
  9
$PLINEWID
 40
0.0
  9
$COORDS
 70
     0
  9
$SPLFRAME
 70
     0
  9
$SPLINETYPE
 70
     6
  9
$SPLINESEGS
 70
     8
  9
$ATTDIA
 70
     0
  9
$ATTREQ
 70
     1
  9
$HANDLING
 70
     1
  9
$HANDSEED
  5
1C9
  9
$SURFTAB1
 70
     6
  9
$SURFTAB2
 70
     6
  9
$SURFTYPE
 70
     6
  9
$SURFU
 70
     6
  9
$SURFV
 70
     6
  9
$UCSNAME
  2

  9
$UCSORG
 10
0.0
 20
0.0
 30
0.0
  9
$UCSXDIR
 10
1.0
 20
0.0
 30
0.0
  9
$UCSYDIR
 10
0.0
 20
1.0
 30
0.0
  9
$PUCSNAME
  2

  9
$PUCSORG
 10
0.0
 20
0.0
 30
0.0
  9
$PUCSXDIR
 10
1.0
 20
0.0
 30
0.0
  9
$PUCSYDIR
 10
0.0
 20
1.0
 30
0.0
  9
$USERI1
 70
     0
  9
$USERI2
 70
     0
  9
$USERI3
 70
     0
  9
$USERI4
 70
     0
  9
$USERI5
 70
     0
  9
$USERR1
 40
0.0
  9
$USERR2
 40
0.0
  9
$USERR3
 40
0.0
  9
$USERR4
 40
0.0
  9
$USERR5
 40
0.0
  9
$WORLDVIEW
 70
     1
  9
$SHADEDGE
 70
     3
  9
$SHADEDIF
 70
    70
  9
$TILEMODE
 70
     1
  9
$MAXACTVP
 70
    16
  9
$PINSBASE
 10
0.0
 20
0.0
 30
0.0
  9
$PLIMCHECK
 70
     0
  9
$PEXTMIN
 10
1.000000E+20
 20
1.000000E+20
 30
1.000000E+20
  9
$PEXTMAX
 10
-1.000000E+20
 20
-1.000000E+20
 30
-1.000000E+20
  9
$PLIMMIN
 10
0.0
 20
0.0
  9
$PLIMMAX
 10
840.0
 20
594.0
  9
$UNITMODE
 70
     0
  9
$VISRETAIN
 70
     0
  9
$PLINEGEN
 70
     1
  9
$PSLTSCALE
 70
     0
  9
$TREEDEPTH
 70
  3020
  9
$DWGCODEPAGE
  3
dos850
  0
ENDSEC
  0
SECTION
  2
TABLES
  0
TABLE
  2
VPORT
 70
     1
  0
VPORT
  2
*ACTIVE
 70
     0
 10
0.0
 20
0.0
 11
1.0
 21
1.0
 12
420.0
 22
297.0
 13
0.0
 23
0.0
 14
1.0
 24
1.0
 15
0.0
 25
0.0
 16
0.0
 26
0.0
 36
1.0
 17
0.0
 27
0.0
 37
0.0
 40
594.0
 41
1.604229
 42
50.0
 43
0.0
 44
0.0
 50
0.0
 51
0.0
 71
     0
 72
   100
 73
     1
 74
     1
 75
     0
 76
     0
 77
     0
 78
     0
  0
ENDTAB
  0
TABLE
  2
LTYPE
 70
     2
  0
LTYPE
  2
CONTINUOUS
 70
    64
  3
Solid line
 72
    65
 73
     0
 40
0.0
  0
LTYPE
  2
DASHDOT
 70
    64
  3
__ . __ . __ . __ . __
 72
    65
 73
     4
 40
7.5
 49
5.0
 49
-1.25
 49
0.0
 49
-1.25
  0
ENDTAB
  0
TABLE
  2
LAYER
 70
    11
  0
LAYER
  2
0
 70
     0
 62
     7
  6
CONTINUOUS
  0
LAYER
  2
LC-INFO-1-2-MM-A3-0
 70
     1
 62
    -1
  6
CONTINUOUS
  0
LAYER
  2
LC-003-005-----0
 70
     0
 62
     2
  6
CONTINUOUS
  0
LAYER
  2
LC-005-003-MTH-0
 70
     0
 62
     2
  6
CONTINUOUS
  0
LAYER
  2
LC-006-003-MTG-0
 70
     0
 62
     2
  6
CONTINUOUS
  0
LAYER
  2
LC-004-003-----0
 70
     0
 62
     2
  6
CONTINUOUS
  0
LAYER
  2
LC-008-000-----0
 70
     0
 62
     7
  6
CONTINUOUS
  0
LAYER
  2
LC-001-002-----0
 70
     0
 62
     2
  6
DASHDOT
  0
LAYER
  2
LC-002-002-RND-0
 70
     0
 62
     1
  6
CONTINUOUS
  0
LAYER
  2
LC-007-001-----0
 70
     0
 62
     1
  6
CONTINUOUS
  0
LAYER
  2
LC-000
 70
     0
 62
     7
  6
CONTINUOUS
  0
ENDTAB
  0
TABLE
  2
STYLE
 70
     4
  0
STYLE
  2
STANDARD
 70
     0
 40
0.0
 41
1.0
 50
0.0
 71
     0
 42
0.0
  3
txt
  4

  0
STYLE
  2
LC-STANDARD
 70
    64
 40
0.0
 41
1.0
 50
0.0
 71
     0
 42
3.5
  3
MONOTXT
  4

  0
STYLE
  2
LC-TXTSTYLE-150-400-0-0-D2
 70
    64
 40
0.0
 41
1.0
 50
15.0
 71
     0
 42
3.5
  3
MONOTXT
  4

  0
STYLE
  2
LC-TXTSTYLE-150-400-0-0-D3
 70
    64
 40
0.0
 41
1.0
 50
15.0
 71
     0
 42
3.5
  3
LC-STANDARD
  4

  0
ENDTAB
  0
TABLE
  2
VIEW
 70
     0
  0
ENDTAB
  0
TABLE
  2
UCS
 70
     0
  0
ENDTAB
  0
TABLE
  2
APPID
 70
     1
  0
APPID
  2
ACAD
 70
     0
  0
ENDTAB
  0
TABLE
  2
DIMSTYLE
 70
     3
  0
DIMSTYLE
  2
STANDARD
 70
     0
  3

  4

  5

  6

  7

 40
1.0
 41
0.18
 42
0.0625
 43
0.38
 44
0.18
 45
0.0
 46
0.0
 47
0.0
 48
0.0
 71
     0
 72
     0
 73
     1
 74
     1
 75
     0
 76
     0
 77
     0
 78
     0
140
0.18
141
0.09
142
0.0
143
25.4
144
1.0
145
0.0
146
1.0
147
0.09
170
     0
171
     2
172
     0
173
     0
174
     0
175
     0
176
     0
177
     0
178
     0
  0
DIMSTYLE
  2
LC-STANDARD
 70
     0
  3

  4

  5

  6

  7

 40
1.0
 41
3.5
 42
0.0
 43
7.5
 44
1.8
 45
0.0
 46
0.0
 47
0.0
 48
0.0
 71
     0
 72
     0
 73
     0
 74
     0
 75
     0
 76
     0
 77
     1
 78
     8
140
3.5
141
0.0
142
0.0
143
25.4
144
1.0
145
0.0
146
0.71
147
1.5
170
     0
171
     2
172
     1
173
     0
174
     0
175
     0
176
     0
177
     0
178
     3
  0
DIMSTYLE
  2
LC-DIM-L-0090-02-02
 70
     0
  3

  4

  5

  6

  7

 40
2.0
 41
3.5
 42
0.0
 43
7.5
 44
1.8
 45
0.0
 46
0.0
 47
0.0
 48
0.0
 71
     0
 72
     0
 73
     0
 74
     0
 75
     0
 76
     0
 77
     1
 78
     8
140
9.0
141
0.0
142
0.0
143
25.4
144
1.0
145
0.0
146
0.71
147
1.5
170
     0
171
     2
172
     0
173
     0
174
     0
175
     0
176
     2
177
     2
178
     6
  0
ENDTAB
  0
ENDSEC
  0
SECTION
  2
BLOCKS
  0
BLOCK
  8
0
  5
23
  2
*X0
 70
    65
 10
358.636546
 20
188.084
 30
0.0
  3
*X0
  0
LINE
  8
LC-003-005-----0
  6
CONTINUOUS
  5
25
 10
365.136546
 20
189.774065
 30
0.0
 11
367.636546
 21
192.274065
 31
0.0
  0
LINE
  8
LC-003-005-----0
  6
CONTINUOUS
  5
26
 10
365.136546
 20
192.602492
 30
0.0
 11
367.636546
 21
195.102492
 31
0.0
  0
LINE
  8
LC-003-005-----0
  6
CONTINUOUS
  5
27
 10
365.136546
 20
195.430919
 30
0.0
 11
367.636546
 21
197.930919
 31
0.0
  0
LINE
  8
LC-003-005-----0
  6
CONTINUOUS
  5
28
 10
365.136546
 20
198.259346
 30
0.0
 11
367.636546
 21
200.759346
 31
0.0
  0
LINE
  8
LC-003-005-----0
  6
CONTINUOUS
  5
29
 10
365.136546
 20
201.087773
 30
0.0
 11
367.636546
 21
203.587773
 31
0.0
  0
LINE
  8
LC-003-005-----0
  6
CONTINUOUS
  5
2A
 10
365.136546
 20
203.9162
 30
0.0
 11
367.636546
 21
206.4162
 31
0.0
  0
LINE
  8
LC-003-005-----0
  6
CONTINUOUS
  5
2B
 10
365.136546
 20
206.744627
 30
0.0
 11
367.636546
 21
209.244627
 31
0.0
  0
LINE
  8
LC-003-005-----0
  6
CONTINUOUS
  5
2C
 10
365.136546
 20
209.573055
 30
0.0
 11
367.636546
 21
212.073055
 31
0.0
  0
LINE
  8
LC-003-005-----0
  6
CONTINUOUS
  5
2D
 10
365.136546
 20
212.401482
 30
0.0
 11
367.636546
 21
214.901482
 31
0.0
  0
LINE
  8
LC-003-005-----0
  6
CONTINUOUS
  5
2E
 10
365.136546
 20
215.229909
 30
0.0
 11
367.636546
 21
217.729909
 31
0.0
  0
LINE
  8
LC-003-005-----0
  6
CONTINUOUS
  5
2F
 10
365.136546
 20
218.058336
 30
0.0
 11
367.636546
 21
220.558336
 31
0.0
  0
LINE
  8
LC-003-005-----0
  6
CONTINUOUS
  5
30
 10
365.136546
 20
220.886763
 30
0.0
 11
367.636546
 21
223.386763
 31
0.0
  0
LINE
  8
LC-003-005-----0
  6
CONTINUOUS
  5
31
 10
365.136546
 20
223.71519
 30
0.0
 11
367.636546
 21
226.21519
 31
0.0
  0
LINE
  8
LC-003-005-----0
  6
CONTINUOUS
  5
32
 10
365.136546
 20
226.543617
 30
0.0
 11
367.636546
 21
229.043617
 31
0.0
  0
LINE
  8
LC-003-005-----0
  6
CONTINUOUS
  5
33
 10
365.136546
 20
229.372044
 30
0.0
 11
367.636546
 21
231.872044
 31
0.0
  0
LINE
  8
LC-003-005-----0
  6
CONTINUOUS
  5
34
 10
365.136546
 20
232.200472
 30
0.0
 11
367.636546
 21
234.700472
 31
0.0
  0
LINE
  8
LC-003-005-----0
  6
CONTINUOUS
  5
35
 10
365.136546
 20
235.028899
 30
0.0
 11
367.636546
 21
237.528899
 31
0.0
  0
LINE
  8
LC-003-005-----0
  6
CONTINUOUS
  5
36
 10
365.136546
 20
237.857326
 30
0.0
 11
367.636546
 21
240.357326
 31
0.0
  0
LINE
  8
LC-003-005-----0
  6
CONTINUOUS
  5
37
 10
365.136546
 20
240.685753
 30
0.0
 11
367.636546
 21
243.185753
 31
0.0
  0
LINE
  8
LC-003-005-----0
  6
CONTINUOUS
  5
38
 10
365.136546
 20
243.51418
 30
0.0
 11
367.636546
 21
246.01418
 31
0.0
  0
LINE
  8
LC-003-005-----0
  6
CONTINUOUS
  5
39
 10
365.136546
 20
246.342607
 30
0.0
 11
367.636546
 21
248.842607
 31
0.0
  0
LINE
  8
LC-003-005-----0
  6
CONTINUOUS
  5
3A
 10
365.136546
 20
249.171034
 30
0.0
 11
367.636546
 21
251.671034
 31
0.0
  0
LINE
  8
LC-003-005-----0
  6
CONTINUOUS
  5
3B
 10
365.136546
 20
251.999461
 30
0.0
 11
367.636546
 21
254.499461
 31
0.0
  0
LINE
  8
LC-003-005-----0
  6
CONTINUOUS
  5
3C
 10
365.136546
 20
254.827889
 30
0.0
 11
367.636546
 21
257.327889
 31
0.0
  0
LINE
  8
LC-003-005-----0
  6
CONTINUOUS
  5
3D
 10
365.136546
 20
257.656316
 30
0.0
 11
367.636546
 21
260.156316
 31
0.0
  0
LINE
  8
LC-003-005-----0
  6
CONTINUOUS
  5
3E
 10
365.136546
 20
260.484743
 30
0.0
 11
367.636546
 21
262.984743
 31
0.0
  0
LINE
  8
LC-003-005-----0
  6
CONTINUOUS
  5
3F
 10
365.136546
 20
263.31317
 30
0.0
 11
367.636546
 21
265.81317
 31
0.0
  0
LINE
  8
LC-003-005-----0
  6
CONTINUOUS
  5
40
 10
365.136546
 20
266.141597
 30
0.0
 11
367.636546
 21
268.641597
 31
0.0
  0
LINE
  8
LC-003-005-----0
  6
CONTINUOUS
  5
41
 10
365.136546
 20
268.970024
 30
0.0
 11
367.636546
 21
271.470024
 31
0.0
  0
LINE
  8
LC-003-005-----0
  6
CONTINUOUS
  5
42
 10
365.136546
 20
271.798451
 30
0.0
 11
367.636546
 21
274.298451
 31
0.0
  0
LINE
  8
LC-003-005-----0
  6
CONTINUOUS
  5
43
 10
365.136546
 20
274.626878
 30
0.0
 11
367.636546
 21
277.126878
 31
0.0
  0
LINE
  8
LC-003-005-----0
  6
CONTINUOUS
  5
44
 10
365.136546
 20
277.455306
 30
0.0
 11
367.636546
 21
279.955306
 31
0.0
  0
LINE
  8
LC-003-005-----0
  6
CONTINUOUS
  5
45
 10
365.136546
 20
280.283733
 30
0.0
 11
367.636546
 21
282.783733
 31
0.0
  0
LINE
  8
LC-003-005-----0
  6
CONTINUOUS
  5
46
 10
365.136546
 20
283.11216
 30
0.0
 11
367.636546
 21
285.61216
 31
0.0
  0
LINE
  8
LC-003-005-----0
  6
CONTINUOUS
  5
47
 10
365.136546
 20
285.940587
 30
0.0
 11
367.636546
 21
288.440587
 31
0.0
  0
LINE
  8
LC-003-005-----0
  6
CONTINUOUS
  5
48
 10
365.136546
 20
288.769014
 30
0.0
 11
367.636546
 21
291.269014
 31
0.0
  0
LINE
  8
LC-003-005-----0
  6
CONTINUOUS
  5
49
 10
365.136546
 20
291.597441
 30
0.0
 11
367.636546
 21
294.097441
 31
0.0
  0
LINE
  8
LC-003-005-----0
  6
CONTINUOUS
  5
4A
 10
365.136546
 20
294.425868
 30
0.0
 11
367.636546
 21
296.925868
 31
0.0
  0
LINE
  8
LC-003-005-----0
  6
CONTINUOUS
  5
4B
 10
365.136546
 20
297.254295
 30
0.0
 11
367.636546
 21
299.754295
 31
0.0
  0
LINE
  8
LC-003-005-----0
  6
CONTINUOUS
  5
4C
 10
365.136546
 20
300.082723
 30
0.0
 11
367.636546
 21
302.582723
 31
0.0
  0
LINE
  8
LC-003-005-----0
  6
CONTINUOUS
  5
4D
 10
365.136546
 20
302.91115
 30
0.0
 11
367.503991
 21
305.278594
 31
0.0
  0
LINE
  8
LC-003-005-----0
  6
CONTINUOUS
  5
4E
 10
364.544104
 20
305.147134
 30
0.0
 11
366.339141
 21
306.942172
 31
0.0
  0
LINE
  8
LC-003-005-----0
  6
CONTINUOUS
  5
4F
 10
363.379254
 20
306.810712
 30
0.0
 11
365.174292
 21
308.605749
 31
0.0
  0
LINE
  8
LC-003-005-----0
  6
CONTINUOUS
  5
50
 10
362.214404
 20
308.474289
 30
0.0
 11
364.009442
 21
310.269327
 31
0.0
  0
LINE
  8
LC-003-005-----0
  6
CONTINUOUS
  5
51
 10
361.049555
 20
310.137867
 30
0.0
 11
362.844593
 21
311.932904
 31
0.0
  0
LINE
  8
LC-003-005-----0
  6
CONTINUOUS
  5
52
 10
359.884705
 20
311.801444
 30
0.0
 11
361.679743
 21
313.596482
 31
0.0
  0
LINE
  8
LC-003-005-----0
  6
CONTINUOUS
  5
53
 10
358.719856
 20
313.465022
 30
0.0
 11
361.136546
 21
315.881712
 31
0.0
  0
LINE
  8
LC-003-005-----0
  6
CONTINUOUS
  5
54
 10
358.636546
 20
316.21014
 30
0.0
 11
361.63226
 21
319.205853
 31
0.0
  0
LINE
  8
LC-003-005-----0
  6
CONTINUOUS
  5
55
 10
358.636546
 20
319.038567
 30
0.0
 11
359.18198
 21
319.584
 31
0.0
  0
ENDBLK
  8
0
  5
56
  0
BLOCK
  8
0
  5
58
  2
*D1
 70
    65
 10
0.0
 20
0.0
 30
0.0
  3
*D1
  0
LINE
  8
LC-005-003-MTH-0
  6
CONTINUOUS
  5
5A
 10
365.136546
 20
188.084
 30
0.0
 11
430.8
 21
188.084
 31
0.0
  0
LINE
  8
LC-005-003-MTH-0
  6
CONTINUOUS
  5
5B
 10
366.636546
 20
331.872247
 30
0.0
 11
430.8
 21
331.872247
 31
0.0
  0
LINE
  8
LC-006-003-MTG-0
  6
CONTINUOUS
  5
5D
 10
420.0
 20
188.084
 30
0.0
 11
420.0
 21
331.872247
 31
0.0
  0
LINE
  8
LC-004-003-----0
  6
CONTINUOUS
  5
5F
 10
417.650529
 20
205.930008
 30
0.0
 11
420.0
 21
188.084
 31
0.0
  0
LINE
  8
LC-004-003-----0
  6
CONTINUOUS
  5
60
 10
420.0
 20
188.084
 30
0.0
 11
422.349471
 21
205.930008
 31
0.0
  0
LINE
  8
LC-004-003-----0
  6
CONTINUOUS
  5
61
 10
422.349471
 20
205.930008
 30
0.0
 11
417.650529
 21
205.930008
 31
0.0
  0
LINE
  8
LC-004-003-----0
  6
CONTINUOUS
  5
62
 10
418.261391
 20
205.970046
 30
0.0
 11
420.0
 21
192.764
 31
0.0
  0
LINE
  8
LC-004-003-----0
  6
CONTINUOUS
  5
63
 10
420.0
 20
192.764
 30
0.0
 11
421.738609
 21
205.970046
 31
0.0
  0
LINE
  8
LC-004-003-----0
  6
CONTINUOUS
  5
64
 10
418.872254
 20
206.010084
 30
0.0
 11
420.0
 21
197.444
 31
0.0
  0
LINE
  8
LC-004-003-----0
  6
CONTINUOUS
  5
65
 10
420.0
 20
197.444
 30
0.0
 11
421.127746
 21
206.010084
 31
0.0
  0
LINE
  8
LC-004-003-----0
  6
CONTINUOUS
  5
66
 10
419.483116
 20
206.050122
 30
0.0
 11
420.0
 21
202.124
 31
0.0
  0
LINE
  8
LC-004-003-----0
  6
CONTINUOUS
  5
67
 10
420.0
 20
202.124
 30
0.0
 11
420.516884
 21
206.050122
 31
0.0
  0
LINE
  8
LC-004-003-----0
  6
CONTINUOUS
  5
68
 10
422.349471
 20
314.026239
 30
0.0
 11
420.0
 21
331.872247
 31
0.0
  0
LINE
  8
LC-004-003-----0
  6
CONTINUOUS
  5
69
 10
420.0
 20
331.872247
 30
0.0
 11
417.650529
 21
314.026239
 31
0.0
  0
LINE
  8
LC-004-003-----0
  6
CONTINUOUS
  5
6A
 10
417.650529
 20
314.026239
 30
0.0
 11
422.349471
 21
314.026239
 31
0.0
  0
LINE
  8
LC-004-003-----0
  6
CONTINUOUS
  5
6B
 10
421.738609
 20
313.986201
 30
0.0
 11
420.0
 21
327.192247
 31
0.0
  0
LINE
  8
LC-004-003-----0
  6
CONTINUOUS
  5
6C
 10
420.0
 20
327.192247
 30
0.0
 11
418.261391
 21
313.986201
 31
0.0
  0
LINE
  8
LC-004-003-----0
  6
CONTINUOUS
  5
6D
 10
421.127746
 20
313.946163
 30
0.0
 11
420.0
 21
322.512247
 31
0.0
  0
LINE
  8
LC-004-003-----0
  6
CONTINUOUS
  5
6E
 10
420.0
 20
322.512247
 30
0.0
 11
418.872254
 21
313.946163
 31
0.0
  0
LINE
  8
LC-004-003-----0
  6
CONTINUOUS
  5
6F
 10
420.516884
 20
313.906125
 30
0.0
 11
420.0
 21
317.832247
 31
0.0
  0
LINE
  8
LC-004-003-----0
  6
CONTINUOUS
  5
70
 10
420.0
 20
317.832247
 30
0.0
 11
419.483116
 21
313.906125
 31
0.0
  0
TEXT
  8
LC-004-003-----0
  6
CONTINUOUS
 62
     6
  5
72
 10
409.568001
 20
243.639511
 30
0.0
 40
18.0
  1
145
 50
90.0
 41
0.9
 51
15.0
  7
LC-TXTSTYLE-150-400-0-0-D0
 72
     1
 11
409.568001
 21
262.773369
 31
0.0
  0
ENDBLK
  8
0
  5
73
  0
BLOCK
  8
0
  5
75
  2
*X2
 70
    65
 10
318.636546
 20
314.372247
 30
0.0
  3
*X2
  0
LINE
  8
LC-003-005-----0
  6
CONTINUOUS
  5
76
 10
321.886546
 20
331.480119
 30
0.0
 11
321.494419
 21
331.872247
 31
0.0
  0
LINE
  8
LC-003-005-----0
  6
CONTINUOUS
  5
77
 10
321.886546
 20
328.651692
 30
0.0
 11
318.665992
 21
331.872247
 31
0.0
  0
LINE
  8
LC-003-005-----0
  6
CONTINUOUS
  5
78
 10
321.886546
 20
325.823265
 30
0.0
 11
320.136546
 21
327.573265
 31
0.0
  0
LINE
  8
LC-003-005-----0
  6
CONTINUOUS
  5
79
 10
321.886546
 20
322.994838
 30
0.0
 11
320.136546
 21
324.744838
 31
0.0
  0
LINE
  8
LC-003-005-----0
  6
CONTINUOUS
  5
7A
 10
321.886546
 20
320.166411
 30
0.0
 11
320.136546
 21
321.916411
 31
0.0
  0
LINE
  8
LC-003-005-----0
  6
CONTINUOUS
  5
7B
 10
323.787656
 20
315.436874
 30
0.0
 11
323.102283
 21
316.122247
 31
0.0
  0
LINE
  8
LC-003-005-----0
  6
CONTINUOUS
  5
7C
 10
321.886546
 20
317.337984
 30
0.0
 11
320.136546
 21
319.087984
 31
0.0
  0
LINE
  8
LC-003-005-----0
  6
CONTINUOUS
  5
7D
 10
322.020486
 20
314.375617
 30
0.0
 11
320.139917
 21
316.256186
 31
0.0
  0
ENDBLK
  8
0
  5
7E
  0
BLOCK
  8
0
  5
80
  2
*X3
 70
    65
 10
323.636546
 20
320.084
 30
0.0
  3
*X3
  0
LINE
  8
LC-003-005-----0
  6
CONTINUOUS
  5
81
 10
327.636546
 20
321.487479
 30
0.0
 11
327.040025
 21
322.084
 31
0.0
  0
LINE
  8
LC-003-005-----0
  6
CONTINUOUS
  5
82
 10
327.625812
 20
320.084
 30
0.0
 11
325.625812
 21
322.084
 31
0.0
  0
LINE
  8
LC-003-005-----0
  6
CONTINUOUS
  5
83
 10
326.211598
 20
320.084
 30
0.0
 11
324.211598
 21
322.084
 31
0.0
  0
LINE
  8
LC-003-005-----0
  6
CONTINUOUS
  5
84
 10
324.797384
 20
320.084
 30
0.0
 11
323.636546
 21
321.244838
 31
0.0
  0
ENDBLK
  8
0
  5
85
  0
BLOCK
  8
0
  5
87
  2
*X4
 70
    65
 10
357.636546
 20
320.084
 30
0.0
  3
*X4
  0
LINE
  8
LC-003-005-----0
  6
CONTINUOUS
  5
88
 10
361.636546
 20
321.428604
 30
0.0
 11
360.981151
 21
322.084
 31
0.0
  0
LINE
  8
LC-003-005-----0
  6
CONTINUOUS
  5
89
 10
361.566937
 20
320.084
 30
0.0
 11
359.566937
 21
322.084
 31
0.0
  0
LINE
  8
LC-003-005-----0
  6
CONTINUOUS
  5
8A
 10
360.152724
 20
320.084
 30
0.0
 11
358.152724
 21
322.084
 31
0.0
  0
LINE
  8
LC-003-005-----0
  6
CONTINUOUS
  5
8B
 10
358.73851
 20
320.084
 30
0.0
 11
357.636546
 21
321.185964
 31
0.0
  0
ENDBLK
  8
0
  5
8C
  0
BLOCK
  8
0
  5
8E
  2
*X5
 70
    65
 10
361.136546
 20
314.372247
 30
0.0
  3
*X5
  0
LINE
  8
LC-003-005-----0
  6
CONTINUOUS
  5
8F
 10
365.420826
 20
330.372247
 30
0.0
 11
363.920826
 21
331.872247
 31
0.0
  0
LINE
  8
LC-003-005-----0
  6
CONTINUOUS
  5
90
 10
365.136546
 20
327.828099
 30
0.0
 11
363.386546
 21
329.578099
 31
0.0
  0
LINE
  8
LC-003-005-----0
  6
CONTINUOUS
  5
91
 10
365.136546
 20
324.999672
 30
0.0
 11
363.386546
 21
326.749672
 31
0.0
  0
LINE
  8
LC-003-005-----0
  6
CONTINUOUS
  5
92
 10
365.136546
 20
322.171245
 30
0.0
 11
363.386546
 21
323.921245
 31
0.0
  0
LINE
  8
LC-003-005-----0
  6
CONTINUOUS
  5
93
 10
365.136546
 20
319.342818
 30
0.0
 11
363.386546
 21
321.092818
 31
0.0
  0
LINE
  8
LC-003-005-----0
  6
CONTINUOUS
  5
94
 10
365.136546
 20
316.514391
 30
0.0
 11
363.386546
 21
318.264391
 31
0.0
  0
LINE
  8
LC-003-005-----0
  6
CONTINUOUS
  5
95
 10
364.165357
 20
314.657153
 30
0.0
 11
362.700263
 21
316.122247
 31
0.0
  0
ENDBLK
  8
0
  5
96
  0
BLOCK
  8
0
  5
98
  2
*X6
 70
    65
 10
286.095522
 20
188.084
 30
0.0
  3
*X6
  0
LINE
  8
LC-003-005-----0
  6
CONTINUOUS
  5
99
 10
319.164097
 20
189.056449
 30
0.0
 11
320.136546
 21
190.028899
 31
0.0
  0
LINE
  8
LC-003-005-----0
  6
CONTINUOUS
  5
9A
 10
317.749883
 20
190.470663
 30
0.0
 11
320.136546
 21
192.857326
 31
0.0
  0
LINE
  8
LC-003-005-----0
  6
CONTINUOUS
  5
9B
 10
317.636546
 20
193.185753
 30
0.0
 11
320.136546
 21
195.685753
 31
0.0
  0
LINE
  8
LC-003-005-----0
  6
CONTINUOUS
  5
9C
 10
317.636546
 20
196.01418
 30
0.0
 11
320.136546
 21
198.51418
 31
0.0
  0
LINE
  8
LC-003-005-----0
  6
CONTINUOUS
  5
9D
 10
317.636546
 20
198.842607
 30
0.0
 11
320.136546
 21
201.342607
 31
0.0
  0
LINE
  8
LC-003-005-----0
  6
CONTINUOUS
  5
9E
 10
317.636546
 20
201.671034
 30
0.0
 11
320.136546
 21
204.171034
 31
0.0
  0
LINE
  8
LC-003-005-----0
  6
CONTINUOUS
  5
9F
 10
317.636546
 20
204.499461
 30
0.0
 11
320.136546
 21
206.999461
 31
0.0
  0
LINE
  8
LC-003-005-----0
  6
CONTINUOUS
  5
A0
 10
317.636546
 20
207.327889
 30
0.0
 11
320.136546
 21
209.827889
 31
0.0
  0
LINE
  8
LC-003-005-----0
  6
CONTINUOUS
  5
A1
 10
317.636546
 20
210.156316
 30
0.0
 11
320.136546
 21
212.656316
 31
0.0
  0
LINE
  8
LC-003-005-----0
  6
CONTINUOUS
  5
A2
 10
317.636546
 20
212.984743
 30
0.0
 11
320.136546
 21
215.484743
 31
0.0
  0
LINE
  8
LC-003-005-----0
  6
CONTINUOUS
  5
A3
 10
317.636546
 20
215.81317
 30
0.0
 11
320.136546
 21
218.31317
 31
0.0
  0
LINE
  8
LC-003-005-----0
  6
CONTINUOUS
  5
A4
 10
317.636546
 20
218.641597
 30
0.0
 11
320.136546
 21
221.141597
 31
0.0
  0
LINE
  8
LC-003-005-----0
  6
CONTINUOUS
  5
A5
 10
317.636546
 20
221.470024
 30
0.0
 11
320.136546
 21
223.970024
 31
0.0
  0
LINE
  8
LC-003-005-----0
  6
CONTINUOUS
  5
A6
 10
317.636546
 20
224.298451
 30
0.0
 11
320.136546
 21
226.798451
 31
0.0
  0
LINE
  8
LC-003-005-----0
  6
CONTINUOUS
  5
A7
 10
317.636546
 20
227.126878
 30
0.0
 11
320.136546
 21
229.626878
 31
0.0
  0
LINE
  8
LC-003-005-----0
  6
CONTINUOUS
  5
A8
 10
317.636546
 20
229.955306
 30
0.0
 11
320.136546
 21
232.455306
 31
0.0
  0
LINE
  8
LC-003-005-----0
  6
CONTINUOUS
  5
A9
 10
317.636546
 20
232.783733
 30
0.0
 11
320.136546
 21
235.283733
 31
0.0
  0
LINE
  8
LC-003-005-----0
  6
CONTINUOUS
  5
AA
 10
317.636546
 20
235.61216
 30
0.0
 11
320.136546
 21
238.11216
 31
0.0
  0
LINE
  8
LC-003-005-----0
  6
CONTINUOUS
  5
AB
 10
317.636546
 20
238.440587
 30
0.0
 11
320.136546
 21
240.940587
 31
0.0
  0
LINE
  8
LC-003-005-----0
  6
CONTINUOUS
  5
AC
 10
317.636546
 20
241.269014
 30
0.0
 11
320.136546
 21
243.769014
 31
0.0
  0
LINE
  8
LC-003-005-----0
  6
CONTINUOUS
  5
AD
 10
317.636546
 20
244.097441
 30
0.0
 11
320.136546
 21
246.597441
 31
0.0
  0
LINE
  8
LC-003-005-----0
  6
CONTINUOUS
  5
AE
 10
317.636546
 20
246.925868
 30
0.0
 11
320.136546
 21
249.425868
 31
0.0
  0
LINE
  8
LC-003-005-----0
  6
CONTINUOUS
  5
AF
 10
317.636546
 20
249.754295
 30
0.0
 11
320.136546
 21
252.254295
 31
0.0
  0
LINE
  8
LC-003-005-----0
  6
CONTINUOUS
  5
B0
 10
317.636546
 20
252.582723
 30
0.0
 11
320.136546
 21
255.082723
 31
0.0
  0
LINE
  8
LC-003-005-----0
  6
CONTINUOUS
  5
B1
 10
317.636546
 20
255.41115
 30
0.0
 11
320.136546
 21
257.91115
 31
0.0
  0
LINE
  8
LC-003-005-----0
  6
CONTINUOUS
  5
B2
 10
317.636546
 20
258.239577
 30
0.0
 11
320.136546
 21
260.739577
 31
0.0
  0
LINE
  8
LC-003-005-----0
  6
CONTINUOUS
  5
B3
 10
317.636546
 20
261.068004
 30
0.0
 11
320.136546
 21
263.568004
 31
0.0
  0
LINE
  8
LC-003-005-----0
  6
CONTINUOUS
  5
B4
 10
317.636546
 20
263.896431
 30
0.0
 11
320.136546
 21
266.396431
 31
0.0
  0
LINE
  8
LC-003-005-----0
  6
CONTINUOUS
  5
B5
 10
317.636546
 20
266.724858
 30
0.0
 11
320.136546
 21
269.224858
 31
0.0
  0
LINE
  8
LC-003-005-----0
  6
CONTINUOUS
  5
B6
 10
317.636546
 20
269.553285
 30
0.0
 11
320.136546
 21
272.053285
 31
0.0
  0
LINE
  8
LC-003-005-----0
  6
CONTINUOUS
  5
B7
 10
317.636546
 20
272.381712
 30
0.0
 11
320.136546
 21
274.881712
 31
0.0
  0
LINE
  8
LC-003-005-----0
  6
CONTINUOUS
  5
B8
 10
317.636546
 20
275.21014
 30
0.0
 11
320.136546
 21
277.71014
 31
0.0
  0
LINE
  8
LC-003-005-----0
  6
CONTINUOUS
  5
B9
 10
317.636546
 20
278.038567
 30
0.0
 11
320.136546
 21
280.538567
 31
0.0
  0
LINE
  8
LC-003-005-----0
  6
CONTINUOUS
  5
BA
 10
317.636546
 20
280.866994
 30
0.0
 11
320.136546
 21
283.366994
 31
0.0
  0
LINE
  8
LC-003-005-----0
  6
CONTINUOUS
  5
BB
 10
316.365659
 20
282.424534
 30
0.0
 11
317.998652
 21
284.057527
 31
0.0
  0
LINE
  8
LC-003-005-----0
  6
CONTINUOUS
  5
BC
 10
314.134951
 20
283.022252
 30
0.0
 11
315.767943
 21
284.655245
 31
0.0
  0
LINE
  8
LC-003-005-----0
  6
CONTINUOUS
  5
BD
 10
311.904242
 20
283.61997
 30
0.0
 11
313.537234
 21
285.252963
 31
0.0
  0
LINE
  8
LC-003-005-----0
  6
CONTINUOUS
  5
BE
 10
309.673533
 20
284.217689
 30
0.0
 11
311.306525
 21
285.850681
 31
0.0
  0
LINE
  8
LC-003-005-----0
  6
CONTINUOUS
  5
BF
 10
307.442824
 20
284.815407
 30
0.0
 11
309.075816
 21
286.448399
 31
0.0
  0
LINE
  8
LC-003-005-----0
  6
CONTINUOUS
  5
C0
 10
305.212115
 20
285.413125
 30
0.0
 11
306.845107
 21
287.046118
 31
0.0
  0
LINE
  8
LC-003-005-----0
  6
CONTINUOUS
  5
C1
 10
302.981406
 20
286.010843
 30
0.0
 11
304.614399
 21
287.643836
 31
0.0
  0
LINE
  8
LC-003-005-----0
  6
CONTINUOUS
  5
C2
 10
299.525953
 20
285.383817
 30
0.0
 11
302.38369
 21
288.241554
 31
0.0
  0
LINE
  8
LC-003-005-----0
  6
CONTINUOUS
  5
C3
 10
297.295244
 20
285.981535
 30
0.0
 11
300.152981
 21
288.839272
 31
0.0
  0
LINE
  8
LC-003-005-----0
  6
CONTINUOUS
  5
C4
 10
295.064535
 20
286.579254
 30
0.0
 11
297.922272
 21
289.43699
 31
0.0
  0
LINE
  8
LC-003-005-----0
  6
CONTINUOUS
  5
C5
 10
292.833826
 20
287.176972
 30
0.0
 11
295.691563
 21
290.034709
 31
0.0
  0
LINE
  8
LC-003-005-----0
  6
CONTINUOUS
  5
C6
 10
290.603117
 20
287.77469
 30
0.0
 11
293.460854
 21
290.632427
 31
0.0
  0
LINE
  8
LC-003-005-----0
  6
CONTINUOUS
  5
C7
 10
288.372408
 20
288.372408
 30
0.0
 11
291.230145
 21
291.230145
 31
0.0
  0
LINE
  8
LC-003-005-----0
  6
CONTINUOUS
  5
C8
 10
286.141699
 20
288.970126
 30
0.0
 11
288.999436
 21
291.827863
 31
0.0
  0
ENDBLK
  8
0
  5
C9
  0
BLOCK
  8
0
  5
CB
  2
*X7
 70
    65
 10
293.471883
 20
308.566331
 30
0.0
  3
*X7
  0
LINE
  8
LC-003-005-----0
  6
CONTINUOUS
  5
CC
 10
322.796096
 20
308.653961
 30
0.0
 11
324.091657
 21
309.949522
 31
0.0
  0
LINE
  8
LC-003-005-----0
  6
CONTINUOUS
  5
CD
 10
320.565388
 20
309.251679
 30
0.0
 11
326.636546
 21
315.322838
 31
0.0
  0
LINE
  8
LC-003-005-----0
  6
CONTINUOUS
  5
CE
 10
318.334679
 20
309.849397
 30
0.0
 11
320.784167
 21
312.298886
 31
0.0
  0
LINE
  8
LC-003-005-----0
  6
CONTINUOUS
  5
CF
 10
324.136546
 20
315.651265
 30
0.0
 11
326.636546
 21
318.151265
 31
0.0
  0
LINE
  8
LC-003-005-----0
  6
CONTINUOUS
  5
D0
 10
316.10397
 20
310.447116
 30
0.0
 11
318.553459
 21
312.896604
 31
0.0
  0
LINE
  8
LC-003-005-----0
  6
CONTINUOUS
  5
D1
 10
323.136546
 20
317.479692
 30
0.0
 11
325.240854
 21
319.584
 31
0.0
  0
LINE
  8
LC-003-005-----0
  6
CONTINUOUS
  5
D2
 10
313.873261
 20
311.044834
 30
0.0
 11
316.32275
 21
313.494323
 31
0.0
  0
LINE
  8
LC-003-005-----0
  6
CONTINUOUS
  5
D3
 10
311.642552
 20
311.642552
 30
0.0
 11
314.092041
 21
314.092041
 31
0.0
  0
LINE
  8
LC-003-005-----0
  6
CONTINUOUS
  5
D4
 10
309.411843
 20
312.24027
 30
0.0
 11
311.861332
 21
314.689759
 31
0.0
  0
LINE
  8
LC-003-005-----0
  6
CONTINUOUS
  5
D5
 10
307.181134
 20
312.837988
 30
0.0
 11
309.736814
 21
315.393668
 31
0.0
  0
LINE
  8
LC-003-005-----0
  6
CONTINUOUS
  5
D6
 10
304.950425
 20
313.435707
 30
0.0
 11
308.624658
 21
317.10994
 31
0.0
  0
LINE
  8
LC-003-005-----0
  6
CONTINUOUS
  5
D7
 10
302.719716
 20
314.033425
 30
0.0
 11
306.39395
 21
317.707658
 31
0.0
  0
LINE
  8
LC-003-005-----0
  6
CONTINUOUS
  5
D8
 10
300.489007
 20
314.631143
 30
0.0
 11
304.163241
 21
318.305376
 31
0.0
  0
LINE
  8
LC-003-005-----0
  6
CONTINUOUS
  5
D9
 10
298.258298
 20
315.228861
 30
0.0
 11
301.932532
 21
318.903094
 31
0.0
  0
LINE
  8
LC-003-005-----0
  6
CONTINUOUS
  5
DA
 10
296.02759
 20
315.826579
 30
0.0
 11
299.701823
 21
319.500813
 31
0.0
  0
LINE
  8
LC-003-005-----0
  6
CONTINUOUS
  5
DB
 10
293.796881
 20
316.424298
 30
0.0
 11
297.471114
 21
320.098531
 31
0.0
  0
LINE
  8
LC-003-005-----0
  6
CONTINUOUS
  5
DC
 10
294.356331
 20
319.812175
 30
0.0
 11
295.240405
 21
320.696249
 31
0.0
  0
ENDBLK
  8
0
  5
DD
  0
BLOCK
  8
0
  5
DF
  2
*D8
 70
    65
 10
0.0
 20
0.0
 30
0.0
  3
*D8
  0
LINE
  8
LC-005-003-MTH-0
  6
CONTINUOUS
  5
E0
 10
317.636546
 20
190.584
 30
0.0
 11
317.636546
 21
129.2
 31
0.0
  0
LINE
  8
LC-005-003-MTH-0
  6
CONTINUOUS
  5
E1
 10
367.636546
 20
190.584
 30
0.0
 11
367.636546
 21
129.2
 31
0.0
  0
LINE
  8
LC-004-003-----0
  6
CONTINUOUS
  5
E2
 10
299.790539
 20
137.650529
 30
0.0
 11
317.636546
 21
140.0
 31
0.0
  0
LINE
  8
LC-004-003-----0
  6
CONTINUOUS
  5
E3
 10
317.636546
 20
140.0
 30
0.0
 11
299.790539
 21
142.349471
 31
0.0
  0
LINE
  8
LC-004-003-----0
  6
CONTINUOUS
  5
E4
 10
299.790539
 20
142.349471
 30
0.0
 11
299.790539
 21
137.650529
 31
0.0
  0
LINE
  8
LC-004-003-----0
  6
CONTINUOUS
  5
E5
 10
299.750501
 20
138.261391
 30
0.0
 11
312.956546
 21
140.0
 31
0.0
  0
LINE
  8
LC-004-003-----0
  6
CONTINUOUS
  5
E6
 10
312.956546
 20
140.0
 30
0.0
 11
299.750501
 21
141.738609
 31
0.0
  0
LINE
  8
LC-004-003-----0
  6
CONTINUOUS
  5
E7
 10
299.710463
 20
138.872254
 30
0.0
 11
308.276546
 21
140.0
 31
0.0
  0
LINE
  8
LC-004-003-----0
  6
CONTINUOUS
  5
E8
 10
308.276546
 20
140.0
 30
0.0
 11
299.710463
 21
141.127746
 31
0.0
  0
LINE
  8
LC-004-003-----0
  6
CONTINUOUS
  5
E9
 10
299.670425
 20
139.483116
 30
0.0
 11
303.596546
 21
140.0
 31
0.0
  0
LINE
  8
LC-004-003-----0
  6
CONTINUOUS
  5
EA
 10
303.596546
 20
140.0
 30
0.0
 11
299.670425
 21
140.516884
 31
0.0
  0
LINE
  8
LC-004-003-----0
  6
CONTINUOUS
  5
EB
 10
385.482554
 20
142.349471
 30
0.0
 11
367.636546
 21
140.0
 31
0.0
  0
LINE
  8
LC-004-003-----0
  6
CONTINUOUS
  5
EC
 10
367.636546
 20
140.0
 30
0.0
 11
385.482554
 21
137.650529
 31
0.0
  0
LINE
  8
LC-004-003-----0
  6
CONTINUOUS
  5
ED
 10
385.482554
 20
137.650529
 30
0.0
 11
385.482554
 21
142.349471
 31
0.0
  0
LINE
  8
LC-004-003-----0
  6
CONTINUOUS
  5
EE
 10
385.522592
 20
141.738609
 30
0.0
 11
372.316546
 21
140.0
 31
0.0
  0
LINE
  8
LC-004-003-----0
  6
CONTINUOUS
  5
EF
 10
372.316546
 20
140.0
 30
0.0
 11
385.522592
 21
138.261391
 31
0.0
  0
LINE
  8
LC-004-003-----0
  6
CONTINUOUS
  5
F0
 10
385.56263
 20
141.127746
 30
0.0
 11
376.996546
 21
140.0
 31
0.0
  0
LINE
  8
LC-004-003-----0
  6
CONTINUOUS
  5
F1
 10
376.996546
 20
140.0
 30
0.0
 11
385.56263
 21
138.872254
 31
0.0
  0
LINE
  8
LC-004-003-----0
  6
CONTINUOUS
  5
F2
 10
385.602668
 20
140.516884
 30
0.0
 11
381.676546
 21
140.0
 31
0.0
  0
LINE
  8
LC-004-003-----0
  6
CONTINUOUS
  5
F3
 10
381.676546
 20
140.0
 30
0.0
 11
385.602668
 21
139.483116
 31
0.0
  0
LINE
  8
LC-006-003-MTG-0
  6
CONTINUOUS
  5
F4
 10
292.436546
 20
140.0
 30
0.0
 11
458.039066
 21
140.0
 31
0.0
  0
TEXT
  8
LC-004-003-----0
  6
CONTINUOUS
 62
     6
  5
F5
 10
394.911792
 20
150.431999
 30
0.0
 40
18.0
  1
DN50
 51
15.0
  7
LC-TXTSTYLE-150-400-0-0-D0
  0
ENDBLK
  8
0
  5
F6
  0
BLOCK
  8
0
  5
F8
  2
*X9
 70
    65
 10
248.158244
 20
264.983615
 30
0.0
  3
*X9
  0
LINE
  8
LC-003-005-----0
  6
CONTINUOUS
  5
F9
 10
248.24817
 20
265.218393
 30
0.0
 11
249.531018
 21
266.501239
 31
0.0
  0
LINE
  8
LC-003-005-----0
  6
CONTINUOUS
  5
FA
 10
248.723798
 20
269.936658
 30
0.0
 11
251.083936
 21
272.296793
 31
0.0
  0
LINE
  8
LC-003-005-----0
  6
CONTINUOUS
  5
FB
 10
249.811052
 20
275.266548
 30
0.0
 11
252.636854
 21
278.092346
 31
0.0
  0
LINE
  8
LC-003-005-----0
  6
CONTINUOUS
  5
FC
 10
290.545869
 20
316.00131
 30
0.0
 11
291.527752
 21
316.983193
 31
0.0
  0
LINE
  8
LC-003-005-----0
  6
CONTINUOUS
  5
FD
 10
251.316584
 20
281.014716
 30
0.0
 11
254.189772
 21
283.8879
 31
0.0
  0
LINE
  8
LC-003-005-----0
  6
CONTINUOUS
  5
FE
 10
287.199804
 20
316.897888
 30
0.0
 11
288.832798
 21
318.53088
 31
0.0
  0
LINE
  8
LC-003-005-----0
  6
CONTINUOUS
  5
FF
 10
251.62904
 20
285.569809
 30
0.0
 11
252.010351
 21
285.95112
 31
0.0
  0
LINE
  8
LC-003-005-----0
  6
CONTINUOUS
  5
100
 10
252.31778
 20
286.258548
 30
0.0
 11
255.74269
 21
289.683454
 31
0.0
  0
LINE
  8
LC-003-005-----0
  6
CONTINUOUS
  5
101
 10
283.853739
 20
317.794466
 30
0.0
 11
285.486734
 21
319.427458
 31
0.0
  0
LINE
  8
LC-003-005-----0
  6
CONTINUOUS
  5
102
 10
252.793028
 20
290.976434
 30
0.0
 11
257.295608
 21
295.479008
 31
0.0
  0
LINE
  8
LC-003-005-----0
  6
CONTINUOUS
  5
103
 10
280.507675
 20
318.691043
 30
0.0
 11
282.140669
 21
320.324036
 31
0.0
  0
LINE
  8
LC-003-005-----0
  6
CONTINUOUS
  5
104
 10
254.154424
 20
296.580466
 30
0.0
 11
258.848527
 21
301.274562
 31
0.0
  0
LINE
  8
LC-003-005-----0
  6
CONTINUOUS
  5
105
 10
277.16161
 20
319.587621
 30
0.0
 11
278.794604
 21
321.220613
 31
0.0
  0
LINE
  8
LC-003-005-----0
  6
CONTINUOUS
  5
106
 10
256.865908
 20
303.534584
 30
0.0
 11
260.401445
 21
307.070116
 31
0.0
  0
LINE
  8
LC-003-005-----0
  6
CONTINUOUS
  5
107
 10
273.461145
 20
320.129798
 30
0.0
 11
275.346498
 21
322.01515
 31
0.0
  0
LINE
  8
LC-003-005-----0
  6
CONTINUOUS
  5
108
 10
258.418826
 20
309.330138
 30
0.0
 11
262.315377
 21
313.226684
 31
0.0
  0
LINE
  8
LC-003-005-----0
  6
CONTINUOUS
  5
109
 10
267.895545
 20
318.806844
 30
0.0
 11
271.05732
 21
321.968615
 31
0.0
  0
ENDBLK
  8
0
  5
10A
  0
BLOCK
  8
0
  5
10C
  2
*X10
 70
    65
 10
263.613256
 20
260.8425
 30
0.0
  3
*X10
  0
LINE
  8
LC-003-005-----0
  6
CONTINUOUS
  5
10D
 10
264.532563
 20
264.532212
 30
0.0
 11
267.347909
 21
267.347554
 31
0.0
  0
LINE
  8
LC-003-005-----0
  6
CONTINUOUS
  5
10E
 10
266.085481
 20
270.327766
 30
0.0
 11
269.593287
 21
273.835567
 31
0.0
  0
LINE
  8
LC-003-005-----0
  6
CONTINUOUS
  5
10F
 10
267.638399
 20
276.12332
 30
0.0
 11
271.775521
 21
280.260436
 31
0.0
  0
LINE
  8
LC-003-005-----0
  6
CONTINUOUS
  5
110
 10
283.194759
 20
291.679659
 30
0.0
 11
285.31608
 21
293.800978
 31
0.0
  0
LINE
  8
LC-003-005-----0
  6
CONTINUOUS
  5
111
 10
269.191317
 20
281.918874
 30
0.0
 11
274.017307
 21
286.744857
 31
0.0
  0
LINE
  8
LC-003-005-----0
  6
CONTINUOUS
  5
112
 10
281.39638
 20
294.12392
 30
0.0
 11
283.029374
 21
295.756913
 31
0.0
  0
LINE
  8
LC-003-005-----0
  6
CONTINUOUS
  5
113
 10
270.744235
 20
287.714428
 30
0.0
 11
276.150561
 21
293.120747
 31
0.0
  0
LINE
  8
LC-003-005-----0
  6
CONTINUOUS
  5
114
 10
278.050316
 20
295.020498
 30
0.0
 11
279.68331
 21
296.65349
 31
0.0
  0
LINE
  8
LC-003-005-----0
  6
CONTINUOUS
  5
115
 10
272.297154
 20
293.509982
 30
0.0
 11
276.337245
 21
297.550068
 31
0.0
  0
ENDBLK
  8
0
  5
116
  0
BLOCK
  8
0
  5
118
  2
*X11
 70
    65
 10
288.482817
 20
317.780651
 30
0.0
  3
*X11
  0
LINE
  8
LC-003-005-----0
  6
CONTINUOUS
  5
119
 10
289.188991
 20
321.751246
 30
0.0
 11
290.408131
 21
320.532108
 31
0.0
  0
LINE
  8
LC-003-005-----0
  6
CONTINUOUS
  5
11A
 10
291.456999
 20
323.725879
 30
0.0
 11
293.857178
 21
321.325704
 31
0.0
  0
LINE
  8
LC-003-005-----0
  6
CONTINUOUS
  5
11B
 10
296.824309
 20
322.601214
 30
0.0
 11
299.652745
 21
319.772782
 31
0.0
  0
LINE
  8
LC-003-005-----0
  6
CONTINUOUS
  5
11C
 10
302.619876
 20
321.048292
 30
0.0
 11
305.448312
 21
318.219861
 31
0.0
  0
LINE
  8
LC-003-005-----0
  6
CONTINUOUS
  5
11D
 10
307.001226
 20
320.909587
 30
0.0
 11
307.466631
 21
320.444182
 31
0.0
  0
ENDBLK
  8
0
  5
11E
  0
BLOCK
  8
0
  5
120
  2
*X12
 70
    65
 10
280.876548
 20
282.605428
 30
0.0
  3
*X12
  0
LINE
  8
LC-003-005-----0
  6
CONTINUOUS
  5
121
 10
281.116109
 20
291.640376
 30
0.0
 11
282.40153
 21
290.354958
 31
0.0
  0
LINE
  8
LC-003-005-----0
  6
CONTINUOUS
  5
122
 10
283.280775
 20
289.475714
 30
0.0
 11
286.109184
 21
286.647308
 31
0.0
  0
LINE
  8
LC-003-005-----0
  6
CONTINUOUS
  5
123
 10
289.076297
 20
287.922837
 30
0.0
 11
291.904706
 21
285.094432
 31
0.0
  0
LINE
  8
LC-003-005-----0
  6
CONTINUOUS
  5
124
 10
294.871819
 20
286.369961
 30
0.0
 11
297.606215
 21
283.635568
 31
0.0
  0
ENDBLK
  8
0
  5
125
  0
BLOCK
  8
0
  5
127
  2
BLK1
 70
    64
 10
0.0
 20
0.0
 30
0.0
  3
BLK1
  0
ENDBLK
  8
0
  5
128
  0
ENDSEC
  0
SECTION
  2
ENTITIES
  0
VIEWPORT
  8
LC-000
  5
1C4
 67
     1
 68
     1
 10
420.0
 20
297.0
 30
0.0
 40
840.0
 41
594.0
 69
     1
1001
ACAD
1000
MVIEW
1002
{
1070
    16
1010
0.0
1020
0.0
1030
0.0
1010
0.0
1020
0.0
1030
1.0
1040
0.0
1040
594.0
1040
420.0
1040
297.0
1040
50.0
1040
0.0
1040
0.0
1070
     0
1070
   100
1070
     1
1070
     1
1070
     0
1070
     0
1070
     0
1070
     0
1040
0.0
1040
0.0
1040
0.0
1040
1.0
1040
1.0
1040
0.0
1040
0.0
1070
     0
1002
{
1002
}
1002
}
  0
VIEWPORT
  8
0
  5
1C5
 67
     1
 68
     1
 10
0.0
 20
0.0
 30
0.0
 40
0.0
 41
0.0
 69
     1
1001
ACAD
1000
MVIEW
1002
{
1070
    16
1010
0.0
1020
0.0
1030
0.0
1010
0.0
1020
0.0
1030
1.0
1040
0.0
1040
594.0
1040
0.0
1040
0.0
1040
50.0
1040
0.0
1040
0.0
1070
     0
1070
   100
1070
     0
1070
     1
1070
     0
1070
     0
1070
     0
1070
     0
1040
0.0
1040
0.0
1040
0.0
1040
0.5
1040
0.5
1040
0.5
1040
0.5
1070
     0
1002
{
1002
}
1002
}
  0
INSERT
  8
0
  5
129
  2
*X0
 10
358.636546
 20
188.084
 30
0.0
  0
DIMENSION
  8
0
  5
12A
  2
*D1
 10
420.0
 20
259.978123
 30
0.0
 11
420.0
 21
259.978123
 31
0.0
  1
145
 13
365.136546
 23
188.084
 33
0.0
 14
366.636546
 24
331.872247
 34
0.0
 50
90.0
  3
LC-DIM-L-0090-02-02
  0
INSERT
  8
0
  5
12B
  2
*X2
 10
318.636546
 20
314.372247
 30
0.0
  0
INSERT
  8
0
  5
12C
  2
*X3
 10
323.636546
 20
320.084
 30
0.0
  0
INSERT
  8
0
  5
12D
  2
*X4
 10
357.636546
 20
320.084
 30
0.0
  0
INSERT
  8
0
  5
12E
  2
*X5
 10
361.136546
 20
314.372247
 30
0.0
  0
INSERT
  8
0
  5
12F
  2
*X6
 10
286.095522
 20
188.084
 30
0.0
  0
INSERT
  8
0
  5
130
  2
*X7
 10
293.471883
 20
308.566331
 30
0.0
  0
DIMENSION
  8
0
  5
131
  2
*D8
 10
342.636546
 20
140.0
 30
0.0
 11
342.636546
 21
140.0
 31
0.0
  1
DN50
 13
317.636546
 23
190.584
 33
0.0
 14
367.636546
 24
190.584
 34
0.0
  3
LC-DIM-L-0090-02-02
  0
INSERT
  8
0
  5
132
  2
*X9
 10
248.158244
 20
264.983615
 30
0.0
  0
INSERT
  8
0
  5
133
  2
*X10
 10
263.613256
 20
260.8425
 30
0.0
  0
INSERT
  8
0
  5
134
  2
*X11
 10
288.482817
 20
317.780651
 30
0.0
  0
INSERT
  8
0
  5
135
  2
*X12
 10
280.876548
 20
282.605428
 30
0.0
  0
INSERT
  8
0
  5
137
  2
BLK1
 10
0.0
 20
0.0
 30
0.0
  0
LINE
  8
LC-001-002-----0
  5
13A
 10
342.636546
 20
331.872247
 30
0.0
 11
342.636546
 21
188.084
 31
0.0
  0
LINE
  8
LC-001-002-----0
  6
CONTINUOUS
 62
     1
  5
13B
 10
367.636546
 20
305.089285
 30
0.0
 11
367.636546
 21
190.584
 31
0.0
  0
LINE
  8
LC-001-002-----0
  6
CONTINUOUS
 62
     1
  5
13C
 10
317.636546
 20
282.084
 30
0.0
 11
317.636546
 21
190.584
 31
0.0
  0
LINE
  8
LC-001-002-----0
  6
CONTINUOUS
 62
     1
  5
13D
 10
365.136546
 20
304.301038
 30
0.0
 11
365.136546
 21
188.084
 31
0.0
  0
LINE
  8
LC-001-002-----0
  6
CONTINUOUS
 62
     1
  5
13E
 10
320.136546
 20
283.484678
 30
0.0
 11
320.136546
 21
188.084
 31
0.0
  0
LINE
  8
LC-001-002-----0
  6
CONTINUOUS
 62
     1
  5
13F
 10
320.136546
 20
188.084
 30
0.0
 11
365.136546
 21
188.084
 31
0.0
  0
LINE
  8
LC-001-002-----0
  6
CONTINUOUS
 62
     1
  5
140
 10
320.136546
 20
188.084
 30
0.0
 11
317.636546
 21
190.584
 31
0.0
  0
LINE
  8
LC-001-002-----0
  6
CONTINUOUS
 62
     1
  5
141
 10
365.136546
 20
188.084
 30
0.0
 11
367.636546
 21
190.584
 31
0.0
  0
LINE
  8
LC-001-002-----0
  6
CONTINUOUS
 62
     1
  5
142
 10
361.136546
 20
314.372247
 30
0.0
 11
367.636546
 21
305.089285
 31
0.0
  0
LINE
  8
LC-001-002-----0
  6
CONTINUOUS
 62
     1
  5
143
 10
358.636546
 20
319.584
 30
0.0
 11
358.636546
 21
313.584
 31
0.0
  0
LINE
  8
LC-001-002-----0
  6
CONTINUOUS
 62
     1
  5
144
 10
326.636546
 20
319.584
 30
0.0
 11
326.636546
 21
313.584
 31
0.0
  0
LINE
  8
LC-001-002-----0
  6
CONTINUOUS
 62
     1
  5
145
 10
324.636546
 20
319.584
 30
0.0
 11
360.636546
 21
319.584
 31
0.0
  0
LINE
  8
LC-001-002-----0
  6
CONTINUOUS
 62
     1
  5
146
 10
326.636546
 20
313.584
 30
0.0
 11
358.636546
 21
313.584
 31
0.0
  0
LINE
  8
LC-001-002-----0
  6
CONTINUOUS
 62
     1
  5
147
 10
361.136546
 20
317.084
 30
0.0
 11
361.136546
 21
314.372247
 31
0.0
  0
LINE
  8
LC-001-002-----0
  6
CONTINUOUS
 62
     1
  5
148
 10
326.636546
 20
313.584
 30
0.0
 11
323.123136
 21
308.566331
 31
0.0
  0
LINE
  8
LC-001-002-----0
  6
CONTINUOUS
 62
     1
  5
149
 10
358.636546
 20
313.584
 30
0.0
 11
365.136546
 21
304.301038
 31
0.0
  0
LINE
  8
LC-001-002-----0
  6
CONTINUOUS
 62
     1
  5
14A
 10
324.136546
 20
314.372247
 30
0.0
 11
322.384507
 21
311.870075
 31
0.0
  0
LINE
  8
LC-001-002-----0
  6
CONTINUOUS
 62
     1
  5
14B
 10
324.136546
 20
317.084
 30
0.0
 11
324.136546
 21
314.372247
 31
0.0
  0
LINE
  8
LC-001-002-----0
  6
CONTINUOUS
 62
     1
  5
14C
 10
325.792043
 20
304.301038
 30
0.0
 11
365.136546
 21
304.301038
 31
0.0
  0
LINE
  8
LC-001-002-----0
  6
CONTINUOUS
 62
     1
  5
14D
 10
362.136546
 20
318.084
 30
0.0
 11
362.136546
 21
317.084
 31
0.0
  0
LINE
  8
LC-001-002-----0
  6
CONTINUOUS
 62
     1
  5
14E
 10
323.136546
 20
318.084
 30
0.0
 11
323.136546
 21
317.084
 31
0.0
  0
LINE
  8
LC-001-002-----0
  6
CONTINUOUS
 62
     1
  5
14F
 10
323.136546
 20
317.084
 30
0.0
 11
324.136546
 21
317.084
 31
0.0
  0
LINE
  8
LC-001-002-----0
  6
CONTINUOUS
 62
     1
  5
150
 10
361.136546
 20
317.084
 30
0.0
 11
362.136546
 21
317.084
 31
0.0
  0
ARC
  8
LC-002-002-RND-0
  6
CONTINUOUS
  5
152
 10
324.636546
 20
318.084
 30
0.0
 40
1.5
 50
90.0
 51
180.0
  0
ARC
  8
LC-002-002-RND-0
  6
CONTINUOUS
  5
153
 10
360.636546
 20
318.084
 30
0.0
 40
1.5
 50
0.0
 51
90.0
  0
ARC
  8
LC-001-002-----0
  6
CONTINUOUS
 62
     1
  5
154
 10
309.807422
 20
297.433255
 30
0.0
 40
17.356659
 50
306.520487
 51
39.898505
  0
LINE
  8
LC-001-002-----0
  6
CONTINUOUS
 62
     1
  5
155
 10
365.136546
 20
330.372247
 30
0.0
 11
365.136546
 21
316.372247
 31
0.0
  0
LINE
  8
LC-001-002-----0
  6
CONTINUOUS
 62
     1
  5
156
 10
320.136546
 20
330.372247
 30
0.0
 11
320.136546
 21
316.372247
 31
0.0
  0
LINE
  8
LC-001-002-----0
  6
CONTINUOUS
 62
     1
  5
157
 10
322.136546
 20
314.372247
 30
0.0
 11
322.35223
 21
314.372247
 31
0.0
  0
LINE
  8
LC-001-002-----0
  6
CONTINUOUS
 62
     1
  5
158
 10
318.636546
 20
331.872247
 30
0.0
 11
366.636546
 21
331.872247
 31
0.0
  0
LINE
  8
LC-001-002-----0
  6
CONTINUOUS
 62
     1
  5
159
 10
318.636546
 20
330.372247
 30
0.0
 11
320.136546
 21
330.372247
 31
0.0
  0
LINE
  8
LC-001-002-----0
  6
CONTINUOUS
 62
     1
  5
15A
 10
366.636546
 20
331.872247
 30
0.0
 11
366.636546
 21
330.372247
 31
0.0
  0
LINE
  8
LC-001-002-----0
  6
CONTINUOUS
 62
     1
  5
15B
 10
318.636546
 20
331.872247
 30
0.0
 11
318.636546
 21
330.372247
 31
0.0
  0
LINE
  8
LC-001-002-----0
  6
CONTINUOUS
 62
     1
  5
15C
 10
365.136546
 20
330.372247
 30
0.0
 11
366.636546
 21
330.372247
 31
0.0
  0
LINE
  8
LC-001-002-----0
  6
CONTINUOUS
 62
     1
  5
15D
 10
323.136546
 20
330.622247
 30
0.0
 11
323.136546
 21
317.372247
 31
0.0
  0
LINE
  8
LC-001-002-----0
  6
CONTINUOUS
 62
     1
  5
15E
 10
321.886546
 20
331.872247
 30
0.0
 11
321.886546
 21
316.122247
 31
0.0
  0
LINE
  8
LC-001-002-----0
  6
CONTINUOUS
 62
     1
  5
15F
 10
321.886546
 20
316.122247
 30
0.0
 11
323.85223
 21
316.122247
 31
0.0
  0
LINE
  8
LC-001-002-----0
  6
CONTINUOUS
 62
     1
  5
160
 10
323.85223
 20
315.872247
 30
0.0
 11
323.85223
 21
316.122247
 31
0.0
  0
ARC
  8
LC-002-002-RND-0
  6
CONTINUOUS
  5
161
 10
322.136546
 20
316.372247
 30
0.0
 40
2.0
 50
180.0
 51
270.0
  0
ARC
  8
LC-002-002-RND-0
  6
CONTINUOUS
  5
162
 10
322.35223
 20
315.872247
 30
0.0
 40
1.5
 50
270.0
 51
0.0
  0
LINE
  8
LC-001-002-----0
  6
CONTINUOUS
 62
     1
  5
163
 10
321.886546
 20
331.872247
 30
0.0
 11
323.136546
 21
330.622247
 31
0.0
  0
LINE
  8
LC-001-002-----0
  6
CONTINUOUS
 62
     1
  5
164
 10
321.886546
 20
316.122247
 30
0.0
 11
323.136546
 21
317.372247
 31
0.0
  0
LINE
  8
LC-001-002-----0
  6
CONTINUOUS
 62
     1
  5
165
 10
323.136546
 20
330.622247
 30
0.0
 11
342.636546
 21
330.622247
 31
0.0
  0
LINE
  8
LC-001-002-----0
  6
CONTINUOUS
 62
     1
  5
166
 10
323.636546
 20
320.084
 30
0.0
 11
342.636546
 21
320.084
 31
0.0
  0
LINE
  8
LC-001-002-----0
  6
CONTINUOUS
 62
     1
  5
167
 10
323.636546
 20
322.084
 30
0.0
 11
342.636546
 21
322.084
 31
0.0
  0
LINE
  8
LC-001-002-----0
  6
CONTINUOUS
 62
     1
  5
168
 10
323.636546
 20
322.084
 30
0.0
 11
323.636546
 21
320.084
 31
0.0
  0
LINE
  8
LC-001-002-----0
  6
CONTINUOUS
 62
     1
  5
169
 10
327.636546
 20
322.084
 30
0.0
 11
327.636546
 21
320.084
 31
0.0
  0
LINE
  8
LC-001-002-----0
  6
CONTINUOUS
 62
     1
  5
16A
 10
361.636546
 20
322.084
 30
0.0
 11
342.636546
 21
322.084
 31
0.0
  0
LINE
  8
LC-001-002-----0
  6
CONTINUOUS
 62
     1
  5
16B
 10
361.636546
 20
320.084
 30
0.0
 11
342.636546
 21
320.084
 31
0.0
  0
LINE
  8
LC-001-002-----0
  6
CONTINUOUS
 62
     1
  5
16C
 10
357.636546
 20
322.084
 30
0.0
 11
357.636546
 21
320.084
 31
0.0
  0
LINE
  8
LC-001-002-----0
  6
CONTINUOUS
 62
     1
  5
16D
 10
361.636546
 20
322.084
 30
0.0
 11
361.636546
 21
320.084
 31
0.0
  0
ARC
  8
LC-002-002-RND-0
  6
CONTINUOUS
  5
16E
 10
363.136546
 20
316.372247
 30
0.0
 40
2.0
 50
270.0
 51
0.0
  0
ARC
  8
LC-002-002-RND-0
  6
CONTINUOUS
  5
16F
 10
362.920863
 20
315.872247
 30
0.0
 40
1.5
 50
180.0
 51
270.0
  0
LINE
  8
LC-001-002-----0
  6
CONTINUOUS
 62
     1
  5
170
 10
363.386546
 20
316.122247
 30
0.0
 11
361.420863
 21
316.122247
 31
0.0
  0
LINE
  8
LC-001-002-----0
  6
CONTINUOUS
 62
     1
  5
171
 10
363.386546
 20
331.872247
 30
0.0
 11
363.386546
 21
316.122247
 31
0.0
  0
LINE
  8
LC-001-002-----0
  6
CONTINUOUS
 62
     1
  5
172
 10
363.386546
 20
316.122247
 30
0.0
 11
362.136546
 21
317.372247
 31
0.0
  0
LINE
  8
LC-001-002-----0
  6
CONTINUOUS
 62
     1
  5
173
 10
362.136546
 20
330.622247
 30
0.0
 11
362.136546
 21
317.372247
 31
0.0
  0
LINE
  8
LC-001-002-----0
  6
CONTINUOUS
 62
     1
  5
174
 10
363.386546
 20
331.872247
 30
0.0
 11
362.136546
 21
330.622247
 31
0.0
  0
LINE
  8
LC-001-002-----0
  6
CONTINUOUS
 62
     1
  5
175
 10
362.136546
 20
330.622247
 30
0.0
 11
342.636546
 21
330.622247
 31
0.0
  0
LINE
  8
LC-001-002-----0
  6
CONTINUOUS
 62
     1
  5
176
 10
361.420863
 20
315.872247
 30
0.0
 11
361.420863
 21
316.122247
 31
0.0
  0
LINE
  8
LC-001-002-----0
  6
CONTINUOUS
 62
     1
  5
177
 10
362.920863
 20
314.372247
 30
0.0
 11
363.136546
 21
314.372247
 31
0.0
  0
LINE
  8
LC-001-002-----0
  6
CONTINUOUS
 62
     1
  5
178
 10
294.636572
 20
320.858046
 30
0.0
 11
287.001391
 21
292.363239
 31
0.0
  0
LINE
  8
LC-001-002-----0
  6
CONTINUOUS
 62
     1
  5
179
 10
310.091382
 20
316.716931
 30
0.0
 11
309.703153
 21
315.268043
 31
0.0
  0
LINE
  8
LC-001-002-----0
  6
CONTINUOUS
 62
     1
  5
17A
 10
301.550333
 20
284.841385
 30
0.0
 11
286.095522
 21
288.982499
 31
0.0
  0
LINE
  8
LC-001-002-----0
  6
CONTINUOUS
 62
     1
  5
17B
 10
309.703153
 20
315.268043
 30
0.0
 11
322.384507
 21
311.870075
 31
0.0
  0
LINE
  8
LC-001-002-----0
  6
CONTINUOUS
 62
     1
  5
17C
 10
301.938562
 20
286.290273
 30
0.0
 11
317.636546
 21
282.084
 31
0.0
  0
LINE
  8
LC-007-001-----0
  6
CONTINUOUS
  5
17E
 10
287.001391
 20
292.363239
 30
0.0
 11
320.136546
 21
283.484678
 31
0.0
  0
LINE
  8
LC-001-002-----0
  6
CONTINUOUS
 62
     1
  5
17F
 10
301.938562
 20
286.290273
 30
0.0
 11
301.550333
 21
284.841385
 31
0.0
  0
LINE
  8
LC-007-001-----0
  6
CONTINUOUS
  5
180
 10
293.471883
 20
316.511381
 30
0.0
 11
323.123136
 21
308.566331
 31
0.0
  0
LINE
  8
LC-001-002-----0
  6
CONTINUOUS
 62
     1
  5
181
 10
287.001391
 20
292.363239
 30
0.0
 11
286.095522
 21
288.982499
 31
0.0
  0
LINE
  8
LC-001-002-----0
  6
CONTINUOUS
 62
     1
  5
182
 10
292.316491
 20
319.926797
 30
0.0
 11
290.867602
 21
320.315027
 31
0.0
  0
LINE
  8
LC-001-002-----0
  6
CONTINUOUS
 62
     1
  5
183
 10
283.103012
 20
291.337257
 30
0.0
 11
284.551901
 21
290.949027
 31
0.0
  0
LINE
  8
LC-001-002-----0
  6
CONTINUOUS
 62
     1
  5
184
 10
290.867602
 20
320.315027
 30
0.0
 11
290.285258
 21
318.141694
 31
0.0
  0
LINE
  8
LC-001-002-----0
  6
CONTINUOUS
 62
     1
  5
185
 10
283.685356
 20
293.51059
 30
0.0
 11
275.474988
 21
295.710557
 31
0.0
  0
LINE
  8
LC-001-002-----0
  6
CONTINUOUS
 62
     1
  5
186
 10
285.651884
 20
295.054211
 30
0.0
 11
273.577814
 21
298.289457
 31
0.0
  0
LINE
  8
LC-001-002-----0
  6
CONTINUOUS
 62
     1
  5
187
 10
283.685356
 20
293.51059
 30
0.0
 11
283.103012
 21
291.337257
 31
0.0
  0
LINE
  8
LC-001-002-----0
  6
CONTINUOUS
 62
     1
  5
188
 10
275.474988
 20
295.710557
 30
0.0
 11
275.086759
 21
294.261668
 31
0.0
  0
LINE
  8
LC-007-001-----0
  6
CONTINUOUS
  5
189
 10
273.577814
 20
298.289457
 30
0.0
 11
263.613256
 21
261.101319
 31
0.0
  0
LINE
  8
LC-001-002-----0
  6
CONTINUOUS
 62
     1
  5
18A
 10
258.874082
 20
311.02917
 30
0.0
 11
255.768246
 21
299.438062
 31
0.0
  0
ARC
  8
LC-001-002-----0
  6
CONTINUOUS
 62
     1
  5
18B
 10
273.362967
 20
307.146875
 30
0.0
 40
15.0
 50
74.999963
 51
164.999963
  0
LINE
  8
LC-001-002-----0
  6
CONTINUOUS
 62
     1
  5
18C
 10
290.285258
 20
318.141694
 30
0.0
 11
277.245262
 21
321.635759
 31
0.0
  0
LINE
  8
LC-007-001-----0
  6
CONTINUOUS
  5
18D
 10
261.418306
 20
310.865083
 30
0.0
 11
249.124371
 21
264.983615
 31
0.0
  0
ARC
  8
LC-007-001-----0
  6
CONTINUOUS
  5
18E
 10
273.492376
 20
307.629837
 30
0.0
 40
12.5
 50
74.999963
 51
164.999963
  0
LINE
  8
LC-001-002-----0
  6
CONTINUOUS
 62
     1
  5
18F
 10
291.216507
 20
315.821613
 30
0.0
 11
276.727622
 21
319.703908
 31
0.0
  0
LINE
  8
LC-007-001-----0
  6
DASHDOT
 62
     2
  5
190
 10
327.006858
 20
295.102371
 30
0.0
 11
271.530497
 21
309.967256
 31
0.0
  0
ARC
  8
LC-007-001-----0
  6
DASHDOT
 62
     2
  5
191
 10
270.883448
 20
307.552442
 30
0.0
 40
2.5
 50
74.999963
 51
164.999944
  0
LINE
  8
LC-001-002-----0
  5
192
 10
268.468633
 20
308.199492
 30
0.0
 11
256.174699
 21
262.318023
 31
0.0
  0
LINE
  8
LC-001-002-----0
  6
CONTINUOUS
 62
     1
  5
193
 10
275.086759
 20
294.261668
 30
0.0
 11
276.535647
 21
293.873439
 31
0.0
  0
LINE
  8
LC-001-002-----0
  6
CONTINUOUS
 62
     1
  5
194
 10
255.768246
 20
299.438062
 30
0.0
 11
254.319357
 21
299.826291
 31
0.0
  0
LINE
  8
LC-001-002-----0
  6
CONTINUOUS
 62
     1
  5
195
 10
252.990582
 20
292.935402
 30
0.0
 11
253.956252
 21
292.676651
 31
0.0
  0
LINE
  8
LC-001-002-----0
  6
CONTINUOUS
 62
     1
  5
196
 10
251.661807
 20
286.044512
 30
0.0
 11
252.279504
 21
285.879001
 31
0.0
  0
LINE
  8
LC-001-002-----0
  6
CONTINUOUS
 62
     1
  5
197
 10
250.333032
 20
279.153623
 30
0.0
 11
251.173425
 21
278.92844
 31
0.0
  0
LINE
  8
LC-001-002-----0
  6
CONTINUOUS
 62
     1
  5
198
 10
249.004258
 20
272.262734
 30
0.0
 11
249.39384
 21
272.158345
 31
0.0
  0
LINE
  8
LC-001-002-----0
  6
CONTINUOUS
 62
     1
  5
199
 10
248.158445
 20
265.242434
 30
0.0
 11
264.579182
 21
260.8425
 31
0.0
  0
LINE
  8
LC-001-002-----0
  6
CONTINUOUS
 62
     1
  5
19A
 10
276.535647
 20
293.873439
 30
0.0
 11
273.275021
 21
287.500189
 31
0.0
  0
LINE
  8
LC-001-002-----0
  6
CONTINUOUS
 62
     1
  5
19B
 10
274.240947
 20
287.241369
 30
0.0
 11
271.328298
 21
280.774878
 31
0.0
  0
LINE
  8
LC-001-002-----0
  6
CONTINUOUS
 62
     1
  5
19C
 10
271.946246
 20
280.609299
 30
0.0
 11
268.810906
 21
274.202479
 31
0.0
  0
LINE
  8
LC-001-002-----0
  6
CONTINUOUS
 62
     1
  5
19D
 10
269.651546
 20
273.97723
 30
0.0
 11
266.967052
 21
267.449605
 31
0.0
  0
LINE
  8
LC-001-002-----0
  6
CONTINUOUS
 62
     1
  5
19E
 10
267.356845
 20
267.34516
 30
0.0
 11
264.579182
 21
260.8425
 31
0.0
  0
LINE
  8
LC-001-002-----0
  6
CONTINUOUS
 62
     1
  5
19F
 10
254.319165
 20
299.826616
 30
0.0
 11
253.95632
 21
292.676907
 31
0.0
  0
LINE
  8
LC-001-002-----0
  6
CONTINUOUS
 62
     1
  5
1A0
 10
252.990395
 20
292.935726
 30
0.0
 11
252.279573
 21
285.879257
 31
0.0
  0
LINE
  8
LC-001-002-----0
  6
CONTINUOUS
 62
     1
  5
1A1
 10
251.661624
 20
286.044836
 30
0.0
 11
251.173494
 21
278.928696
 31
0.0
  0
LINE
  8
LC-001-002-----0
  6
CONTINUOUS
 62
     1
  5
1A2
 10
250.332854
 20
279.153945
 30
0.0
 11
249.393876
 21
272.15861
 31
0.0
  0
LINE
  8
LC-001-002-----0
  6
CONTINUOUS
 62
     1
  5
1A3
 10
249.004083
 20
272.263055
 30
0.0
 11
248.158276
 21
265.242755
 31
0.0
  0
LINE
  8
LC-001-002-----0
  6
CONTINUOUS
 62
     1
  5
1A4
 10
273.275021
 20
287.500189
 30
0.0
 11
274.240947
 21
287.241369
 31
0.0
  0
LINE
  8
LC-001-002-----0
  6
CONTINUOUS
 62
     1
  5
1A5
 10
271.328298
 20
280.774878
 30
0.0
 11
271.946246
 21
280.609299
 31
0.0
  0
LINE
  8
LC-001-002-----0
  6
CONTINUOUS
 62
     1
  5
1A6
 10
268.810906
 20
274.202479
 30
0.0
 11
269.651546
 21
273.97723
 31
0.0
  0
LINE
  8
LC-001-002-----0
  6
CONTINUOUS
 62
     1
  5
1A7
 10
266.967052
 20
267.449605
 30
0.0
 11
267.356845
 21
267.34516
 31
0.0
  0
LINE
  8
LC-001-002-----0
  6
CONTINUOUS
  5
1A8
 10
273.577814
 20
298.289457
 30
0.0
 11
269.827443
 21
309.431097
 31
0.0
  0
LINE
  8
LC-001-002-----0
  6
CONTINUOUS
 62
     1
  5
1A9
 10
306.327061
 20
320.054953
 30
0.0
 11
306.585881
 21
321.020878
 31
0.0
  0
LINE
  8
LC-001-002-----0
  6
CONTINUOUS
 62
     1
  5
1AA
 10
306.585881
 20
321.020878
 30
0.0
 11
307.551806
 21
320.762059
 31
0.0
  0
LINE
  8
LC-001-002-----0
  6
CONTINUOUS
 62
     1
  5
1AB
 10
307.551806
 20
320.762059
 30
0.0
 11
306.775347
 21
317.864282
 31
0.0
  0
LINE
  8
LC-001-002-----0
  6
CONTINUOUS
 62
     1
  5
1AC
 10
306.775347
 20
317.864282
 30
0.0
 11
305.809422
 21
318.123101
 31
0.0
  0
ARC
  8
LC-001-002-----0
  6
CONTINUOUS
 62
     1
  5
1AD
 10
292.027643
 20
320.780651
 30
0.0
 40
3.0
 50
74.999963
 51
164.999963
  0
LINE
  8
LC-001-002-----0
  6
CONTINUOUS
 62
     1
  5
1AE
 10
292.804102
 20
323.678428
 30
0.0
 11
306.327061
 21
320.054953
 31
0.0
  0
LINE
  8
LC-001-002-----0
  6
CONTINUOUS
 62
     1
  5
1AF
 10
289.931705
 20
318.754066
 30
0.0
 11
290.578754
 21
321.168881
 31
0.0
  0
ARC
  8
LC-001-002-----0
  6
CONTINUOUS
 62
     1
  5
1B0
 10
291.54468
 20
320.910061
 30
0.0
 40
1.0
 50
74.999963
 51
164.999963
  0
LINE
  8
LC-001-002-----0
  6
CONTINUOUS
 62
     1
  5
1B1
 10
291.8035
 20
321.875987
 30
0.0
 11
305.809422
 21
318.123101
 31
0.0
  0
LINE
  8
LC-001-002-----0
  6
CONTINUOUS
 62
     1
  5
1B2
 10
283.100105
 20
287.453574
 30
0.0
 11
296.623083
 21
283.83017
 31
0.0
  0
LINE
  8
LC-001-002-----0
  6
CONTINUOUS
 62
     1
  5
1B3
 10
296.623083
 20
283.83017
 30
0.0
 11
296.364268
 21
282.864243
 31
0.0
  0
LINE
  8
LC-001-002-----0
  6
CONTINUOUS
 62
     1
  5
1B4
 10
296.364268
 20
282.864243
 30
0.0
 11
297.330195
 21
282.605428
 31
0.0
  0
LINE
  8
LC-001-002-----0
  6
CONTINUOUS
 62
     1
  5
1B5
 10
297.330195
 20
282.605428
 30
0.0
 11
298.106639
 21
285.503209
 31
0.0
  0
LINE
  8
LC-001-002-----0
  6
CONTINUOUS
 62
     1
  5
1B6
 10
283.13477
 20
289.514835
 30
0.0
 11
297.140712
 21
285.762024
 31
0.0
  0
LINE
  8
LC-001-002-----0
  6
CONTINUOUS
 62
     1
  5
1B7
 10
298.106639
 20
285.503209
 30
0.0
 11
297.140712
 21
285.762024
 31
0.0
  0
ARC
  8
LC-001-002-----0
  6
CONTINUOUS
 62
     1
  5
1B8
 10
283.876548
 20
290.351355
 30
0.0
 40
3.0
 50
165.000267
 51
255.000229
  0
LINE
  8
LC-001-002-----0
  6
CONTINUOUS
 62
     1
  5
1B9
 10
283.074694
 20
293.154394
 30
0.0
 11
282.427658
 21
290.739577
 31
0.0
  0
ARC
  8
LC-001-002-----0
  6
CONTINUOUS
 62
     1
  5
1BA
 10
283.393585
 20
290.480762
 30
0.0
 40
1.0
 50
165.000267
 51
255.000229
  0
LINE
  8
LC-001-002-----0
  6
CONTINUOUS
 62
     1
  5
1BB
 10
310.091382
 20
316.716931
 30
0.0
 11
294.636572
 21
320.858046
 31
0.0
  0
LINE
  8
LC-001-002-----0
  6
CONTINUOUS
 62
     1
  5
1BC
 10
292.316491
 20
319.926797
 30
0.0
 11
284.551901
 21
290.949027
 31
0.0
  0
LINE
  8
LC-001-002-----0
  6
CONTINUOUS
 62
     1
  5
1BD
 10
288.871046
 20
320.591184
 30
0.0
 11
289.129866
 21
321.55711
 31
0.0
  0
ARC
  8
LC-001-002-----0
  6
CONTINUOUS
 62
     1
  5
1BE
 10
290.319935
 20
320.202955
 30
0.0
 40
1.5
 50
164.999963
 51
254.999811
  0
LINE
  8
LC-001-002-----0
  6
CONTINUOUS
 62
     1
  5
1BF
 10
289.931705
 20
318.754066
 30
0.0
 11
289.931705
 21
318.754066
 31
0.0
  0
LINE
  8
LC-001-002-----0
  6
CONTINUOUS
 62
     1
  5
1C0
 10
281.237582
 20
292.093725
 30
0.0
 11
280.978767
 21
291.127798
 31
0.0
  0
ARC
  8
LC-001-002-----0
  6
CONTINUOUS
 62
     1
  5
1C1
 10
282.686472
 20
291.705504
 30
0.0
 40
1.5
 50
75.000267
 51
165.000267
  0
LINE
  8
LC-001-002-----0
  6
CONTINUOUS
 62
     1
  5
1C2
 10
283.074694
 20
293.154394
 30
0.0
 11
283.074694
 21
293.154394
 31
0.0
  0
ENDSEC
  0
EOF
