  0
SECTION
  2
HEADER
  9
$ACADVER
  1
AC1009
  9
$INSBASE
 10
0.0
 20
0.0
 30
0.0
  9
$EXTMIN
 10
0.0
 20
0.0
 30
0.0
  9
$EXTMAX
 10
840.0
 20
594.0
 30
0.0
  9
$LIMMIN
 10
0.0
 20
0.0
  9
$LIMMAX
 10
840.0
 20
594.0
  9
$ORTHOMODE
 70
     0
  9
$REGENMODE
 70
     1
  9
$FILLMODE
 70
     1
  9
$QTEXTMODE
 70
     0
  9
$MIRRTEXT
 70
     1
  9
$DRAGMODE
 70
     2
  9
$LTSCALE
 40
2.0
  9
$OSMODE
 70
     0
  9
$ATTMODE
 70
     1
  9
$TEXTSIZE
 40
0.2
  9
$TRACEWID
 40
0.05
  9
$TEXTSTYLE
  7
STANDARD
  9
$CLAYER
  8
0
  9
$CELTYPE
  6
BYLAYER
  9
$CECOLOR
 62
     7
  9
$DIMSCALE
 40
2.0
  9
$DIMASZ
 40
3.5
  9
$DIMEXO
 40
0.0625
  9
$DIMDLI
 40
0.38
  9
$DIMRND
 40
0.0
  9
$DIMDLE
 40
0.0
  9
$DIMEXE
 40
0.18
  9
$DIMTP
 40
0.0
  9
$DIMTM
 40
0.0
  9
$DIMTXT
 40
3.5
  9
$DIMCEN
 40
0.09
  9
$DIMTSZ
 40
0.0
  9
$DIMTOL
 70
     0
  9
$DIMLIM
 70
     0
  9
$DIMTIH
 70
     1
  9
$DIMTOH
 70
     1
  9
$DIMSE1
 70
     0
  9
$DIMSE2
 70
     0
  9
$DIMTAD
 70
     1
  9
$DIMZIN
 70
     0
  9
$DIMBLK
  1

  9
$DIMASO
 70
     1
  9
$DIMSHO
 70
     1
  9
$DIMPOST
  1

  9
$DIMAPOST
  1

  9
$DIMALT
 70
     0
  9
$DIMALTD
 70
     2
  9
$DIMALTF
 40
25.4
  9
$DIMLFAC
 40
1.0
  9
$DIMTOFL
 70
     0
  9
$DIMTVP
 40
0.0
  9
$DIMTIX
 70
     0
  9
$DIMSOXD
 70
     0
  9
$DIMSAH
 70
     0
  9
$DIMBLK1
  1

  9
$DIMBLK2
  1

  9
$DIMSTYLE
  2
STANDARD
  9
$DIMCLRD
 70
     0
  9
$DIMCLRE
 70
     0
  9
$DIMCLRT
 70
     0
  9
$DIMTFAC
 40
1.0
  9
$DIMGAP
 40
0.09
  9
$LUNITS
 70
     2
  9
$LUPREC
 70
     2
  9
$AXISMODE
 70
     0
  9
$AXISUNIT
 10
0.0
 20
0.0
  9
$SKETCHINC
 40
0.1
  9
$FILLETRAD
 40
0.0
  9
$AUNITS
 70
     0
  9
$AUPREC
 70
     0
  9
$MENU
  1
acad
  9
$ELEVATION
 40
0.0
  9
$PELEVATION
 40
0.0
  9
$THICKNESS
 40
0.0
  9
$LIMCHECK
 70
     0
  9
$BLIPMODE
 70
     1
  9
$CHAMFERA
 40
0.0
  9
$CHAMFERB
 40
0.0
  9
$SKPOLY
 70
     0
  9
$TDCREATE
 40
0.000000000
  9
$TDUPDATE
 40
0.000000000
  9
$TDINDWG
 40
0.0000000000
  9
$TDUSRTIMER
 40
0.0000000000
  9
$USRTIMER
 70
     1
  9
$ANGBASE
 50
0.0
  9
$ANGDIR
 70
     0
  9
$PDMODE
 70
     0
  9
$PDSIZE
 40
0.0
  9
$PLINEWID
 40
0.0
  9
$COORDS
 70
     0
  9
$SPLFRAME
 70
     0
  9
$SPLINETYPE
 70
     6
  9
$SPLINESEGS
 70
     8
  9
$ATTDIA
 70
     0
  9
$ATTREQ
 70
     1
  9
$HANDLING
 70
     1
  9
$HANDSEED
  5
1CC
  9
$SURFTAB1
 70
     6
  9
$SURFTAB2
 70
     6
  9
$SURFTYPE
 70
     6
  9
$SURFU
 70
     6
  9
$SURFV
 70
     6
  9
$UCSNAME
  2

  9
$UCSORG
 10
0.0
 20
0.0
 30
0.0
  9
$UCSXDIR
 10
1.0
 20
0.0
 30
0.0
  9
$UCSYDIR
 10
0.0
 20
1.0
 30
0.0
  9
$PUCSNAME
  2

  9
$PUCSORG
 10
0.0
 20
0.0
 30
0.0
  9
$PUCSXDIR
 10
1.0
 20
0.0
 30
0.0
  9
$PUCSYDIR
 10
0.0
 20
1.0
 30
0.0
  9
$USERI1
 70
     0
  9
$USERI2
 70
     0
  9
$USERI3
 70
     0
  9
$USERI4
 70
     0
  9
$USERI5
 70
     0
  9
$USERR1
 40
0.0
  9
$USERR2
 40
0.0
  9
$USERR3
 40
0.0
  9
$USERR4
 40
0.0
  9
$USERR5
 40
0.0
  9
$WORLDVIEW
 70
     1
  9
$SHADEDGE
 70
     3
  9
$SHADEDIF
 70
    70
  9
$TILEMODE
 70
     1
  9
$MAXACTVP
 70
    16
  9
$PINSBASE
 10
0.0
 20
0.0
 30
0.0
  9
$PLIMCHECK
 70
     0
  9
$PEXTMIN
 10
1.000000E+20
 20
1.000000E+20
 30
1.000000E+20
  9
$PEXTMAX
 10
-1.000000E+20
 20
-1.000000E+20
 30
-1.000000E+20
  9
$PLIMMIN
 10
0.0
 20
0.0
  9
$PLIMMAX
 10
840.0
 20
594.0
  9
$UNITMODE
 70
     0
  9
$VISRETAIN
 70
     0
  9
$PLINEGEN
 70
     1
  9
$PSLTSCALE
 70
     0
  9
$TREEDEPTH
 70
  3020
  9
$DWGCODEPAGE
  3
dos850
  0
ENDSEC
  0
SECTION
  2
TABLES
  0
TABLE
  2
VPORT
 70
     1
  0
VPORT
  2
*ACTIVE
 70
     0
 10
0.0
 20
0.0
 11
1.0
 21
1.0
 12
420.0
 22
297.0
 13
0.0
 23
0.0
 14
1.0
 24
1.0
 15
0.0
 25
0.0
 16
0.0
 26
0.0
 36
1.0
 17
0.0
 27
0.0
 37
0.0
 40
594.0
 41
1.604229
 42
50.0
 43
0.0
 44
0.0
 50
0.0
 51
0.0
 71
     0
 72
   100
 73
     1
 74
     1
 75
     0
 76
     0
 77
     0
 78
     0
  0
ENDTAB
  0
TABLE
  2
LTYPE
 70
     2
  0
LTYPE
  2
CONTINUOUS
 70
    64
  3
Solid line
 72
    65
 73
     0
 40
0.0
  0
LTYPE
  2
DASHDOT
 70
    64
  3
__ . __ . __ . __ . __
 72
    65
 73
     4
 40
7.5
 49
5.0
 49
-1.25
 49
0.0
 49
-1.25
  0
ENDTAB
  0
TABLE
  2
LAYER
 70
    11
  0
LAYER
  2
0
 70
     0
 62
     7
  6
CONTINUOUS
  0
LAYER
  2
LC-INFO-1-2-MM-A3-0
 70
     1
 62
    -1
  6
CONTINUOUS
  0
LAYER
  2
LC-003-003-MTH-0
 70
     0
 62
     2
  6
CONTINUOUS
  0
LAYER
  2
LC-002-003-----0
 70
     0
 62
     2
  6
CONTINUOUS
  0
LAYER
  2
LC-004-003-MTG-0
 70
     0
 62
     2
  6
CONTINUOUS
  0
LAYER
  2
LC-005-005-----0
 70
     0
 62
     2
  6
CONTINUOUS
  0
LAYER
  2
LC-008-000-----0
 70
     0
 62
     7
  6
CONTINUOUS
  0
LAYER
  2
LC-001-002-----0
 70
     0
 62
     2
  6
DASHDOT
  0
LAYER
  2
LC-006-002-RND-0
 70
     0
 62
     1
  6
CONTINUOUS
  0
LAYER
  2
LC-007-001-----0
 70
     0
 62
     1
  6
CONTINUOUS
  0
LAYER
  2
LC-000
 70
     0
 62
     7
  6
CONTINUOUS
  0
ENDTAB
  0
TABLE
  2
STYLE
 70
     4
  0
STYLE
  2
STANDARD
 70
     0
 40
0.0
 41
1.0
 50
0.0
 71
     0
 42
0.0
  3
txt
  4

  0
STYLE
  2
LC-STANDARD
 70
    64
 40
0.0
 41
1.0
 50
0.0
 71
     0
 42
3.5
  3
MONOTXT
  4

  0
STYLE
  2
LC-TXTSTYLE-150-400-0-0-D2
 70
    64
 40
0.0
 41
1.0
 50
15.0
 71
     0
 42
3.5
  3
MONOTXT
  4

  0
STYLE
  2
LC-TXTSTYLE-150-400-0-0-D3
 70
    64
 40
0.0
 41
1.0
 50
15.0
 71
     0
 42
3.5
  3
LC-STANDARD
  4

  0
ENDTAB
  0
TABLE
  2
VIEW
 70
     0
  0
ENDTAB
  0
TABLE
  2
UCS
 70
     0
  0
ENDTAB
  0
TABLE
  2
APPID
 70
     1
  0
APPID
  2
ACAD
 70
     0
  0
ENDTAB
  0
TABLE
  2
DIMSTYLE
 70
     3
  0
DIMSTYLE
  2
STANDARD
 70
     0
  3

  4

  5

  6

  7

 40
1.0
 41
0.18
 42
0.0625
 43
0.38
 44
0.18
 45
0.0
 46
0.0
 47
0.0
 48
0.0
 71
     0
 72
     0
 73
     1
 74
     1
 75
     0
 76
     0
 77
     0
 78
     0
140
0.18
141
0.09
142
0.0
143
25.4
144
1.0
145
0.0
146
1.0
147
0.09
170
     0
171
     2
172
     0
173
     0
174
     0
175
     0
176
     0
177
     0
178
     0
  0
DIMSTYLE
  2
LC-STANDARD
 70
     0
  3

  4

  5

  6

  7

 40
1.0
 41
3.5
 42
0.0
 43
7.5
 44
1.8
 45
0.0
 46
0.0
 47
0.0
 48
0.0
 71
     0
 72
     0
 73
     0
 74
     0
 75
     0
 76
     0
 77
     1
 78
     8
140
3.5
141
0.0
142
0.0
143
25.4
144
1.0
145
0.0
146
0.71
147
1.5
170
     0
171
     2
172
     1
173
     0
174
     0
175
     0
176
     0
177
     0
178
     3
  0
DIMSTYLE
  2
LC-DIM-L-0090-02-02
 70
     0
  3

  4

  5

  6

  7

 40
2.0
 41
3.5
 42
0.0
 43
7.5
 44
1.8
 45
0.0
 46
0.0
 47
0.0
 48
0.0
 71
     0
 72
     0
 73
     0
 74
     0
 75
     0
 76
     0
 77
     1
 78
     8
140
9.0
141
0.0
142
0.0
143
25.4
144
1.0
145
0.0
146
0.71
147
1.5
170
     0
171
     2
172
     0
173
     0
174
     0
175
     0
176
     2
177
     2
178
     6
  0
ENDTAB
  0
ENDSEC
  0
SECTION
  2
BLOCKS
  0
BLOCK
  8
0
  5
23
  2
*D0
 70
    65
 10
0.0
 20
0.0
 30
0.0
  3
*D0
  0
LINE
  8
LC-003-003-MTH-0
  6
CONTINUOUS
  5
25
 10
319.937821
 20
241.044
 30
0.0
 11
319.937821
 21
169.2
 31
0.0
  0
LINE
  8
LC-003-003-MTH-0
  6
CONTINUOUS
  5
26
 10
359.937821
 20
241.044
 30
0.0
 11
359.937821
 21
169.2
 31
0.0
  0
LINE
  8
LC-002-003-----0
  6
CONTINUOUS
  5
28
 10
302.091814
 20
177.650529
 30
0.0
 11
319.937821
 21
180.0
 31
0.0
  0
LINE
  8
LC-002-003-----0
  6
CONTINUOUS
  5
29
 10
319.937821
 20
180.0
 30
0.0
 11
302.091814
 21
182.349471
 31
0.0
  0
LINE
  8
LC-002-003-----0
  6
CONTINUOUS
  5
2A
 10
302.091814
 20
182.349471
 30
0.0
 11
302.091814
 21
177.650529
 31
0.0
  0
LINE
  8
LC-002-003-----0
  6
CONTINUOUS
  5
2B
 10
302.051776
 20
178.261391
 30
0.0
 11
315.257821
 21
180.0
 31
0.0
  0
LINE
  8
LC-002-003-----0
  6
CONTINUOUS
  5
2C
 10
315.257821
 20
180.0
 30
0.0
 11
302.051776
 21
181.738609
 31
0.0
  0
LINE
  8
LC-002-003-----0
  6
CONTINUOUS
  5
2D
 10
302.011738
 20
178.872254
 30
0.0
 11
310.577821
 21
180.0
 31
0.0
  0
LINE
  8
LC-002-003-----0
  6
CONTINUOUS
  5
2E
 10
310.577821
 20
180.0
 30
0.0
 11
302.011738
 21
181.127746
 31
0.0
  0
LINE
  8
LC-002-003-----0
  6
CONTINUOUS
  5
2F
 10
301.9717
 20
179.483116
 30
0.0
 11
305.897821
 21
180.0
 31
0.0
  0
LINE
  8
LC-002-003-----0
  6
CONTINUOUS
  5
30
 10
305.897821
 20
180.0
 30
0.0
 11
301.9717
 21
180.516884
 31
0.0
  0
LINE
  8
LC-002-003-----0
  6
CONTINUOUS
  5
31
 10
377.783829
 20
182.349471
 30
0.0
 11
359.937821
 21
180.0
 31
0.0
  0
LINE
  8
LC-002-003-----0
  6
CONTINUOUS
  5
32
 10
359.937821
 20
180.0
 30
0.0
 11
377.783829
 21
177.650529
 31
0.0
  0
LINE
  8
LC-002-003-----0
  6
CONTINUOUS
  5
33
 10
377.783829
 20
177.650529
 30
0.0
 11
377.783829
 21
182.349471
 31
0.0
  0
LINE
  8
LC-002-003-----0
  6
CONTINUOUS
  5
34
 10
377.823867
 20
181.738609
 30
0.0
 11
364.617821
 21
180.0
 31
0.0
  0
LINE
  8
LC-002-003-----0
  6
CONTINUOUS
  5
35
 10
364.617821
 20
180.0
 30
0.0
 11
377.823867
 21
178.261391
 31
0.0
  0
LINE
  8
LC-002-003-----0
  6
CONTINUOUS
  5
36
 10
377.863905
 20
181.127746
 30
0.0
 11
369.297821
 21
180.0
 31
0.0
  0
LINE
  8
LC-002-003-----0
  6
CONTINUOUS
  5
37
 10
369.297821
 20
180.0
 30
0.0
 11
377.863905
 21
178.872254
 31
0.0
  0
LINE
  8
LC-002-003-----0
  6
CONTINUOUS
  5
38
 10
377.903943
 20
180.516884
 30
0.0
 11
373.977821
 21
180.0
 31
0.0
  0
LINE
  8
LC-002-003-----0
  6
CONTINUOUS
  5
39
 10
373.977821
 20
180.0
 30
0.0
 11
377.903943
 21
179.483116
 31
0.0
  0
LINE
  8
LC-004-003-MTG-0
  6
CONTINUOUS
  5
3B
 10
294.737821
 20
180.0
 30
0.0
 11
450.340341
 21
180.0
 31
0.0
  0
TEXT
  8
LC-002-003-----0
  6
CONTINUOUS
 62
     6
  5
3D
 10
387.213067
 20
190.431999
 30
0.0
 40
18.0
  1
DN40
 41
0.9
 51
15.0
  7
LC-TXTSTYLE-150-400-0-0-D0
  0
ENDBLK
  8
0
  5
3E
  0
BLOCK
  8
0
  5
40
  2
*X1
 70
    65
 10
297.773158
 20
357.402271
 30
0.0
  3
*X1
  0
LINE
  8
LC-005-005-----0
  6
CONTINUOUS
  5
42
 10
320.90852
 20
357.678072
 30
0.0
 11
321.937821
 21
358.707374
 31
0.0
  0
LINE
  8
LC-005-005-----0
  6
CONTINUOUS
  5
43
 10
318.677811
 20
358.275791
 30
0.0
 11
325.937821
 21
365.535801
 31
0.0
  0
LINE
  8
LC-005-005-----0
  6
CONTINUOUS
  5
44
 10
316.447102
 20
358.873509
 30
0.0
 11
318.896591
 21
361.322998
 31
0.0
  0
LINE
  8
LC-005-005-----0
  6
CONTINUOUS
  5
45
 10
323.937821
 20
366.364228
 30
0.0
 11
325.937821
 21
368.364228
 31
0.0
  0
LINE
  8
LC-005-005-----0
  6
CONTINUOUS
  5
46
 10
314.216393
 20
359.471227
 30
0.0
 11
316.665882
 21
361.920716
 31
0.0
  0
LINE
  8
LC-005-005-----0
  6
CONTINUOUS
  5
47
 10
323.289166
 20
368.544
 30
0.0
 11
325.789166
 21
371.044
 31
0.0
  0
LINE
  8
LC-005-005-----0
  6
CONTINUOUS
  5
48
 10
311.985684
 20
360.068945
 30
0.0
 11
314.435173
 21
362.518434
 31
0.0
  0
LINE
  8
LC-005-005-----0
  6
CONTINUOUS
  5
49
 10
320.460739
 20
368.544
 30
0.0
 11
322.960739
 21
371.044
 31
0.0
  0
LINE
  8
LC-005-005-----0
  6
CONTINUOUS
  5
4A
 10
309.754975
 20
360.666663
 30
0.0
 11
313.429208
 21
364.340897
 31
0.0
  0
LINE
  8
LC-005-005-----0
  6
CONTINUOUS
  5
4B
 10
307.524266
 20
361.264382
 30
0.0
 11
311.198499
 21
364.938615
 31
0.0
  0
LINE
  8
LC-005-005-----0
  6
CONTINUOUS
  5
4C
 10
305.293557
 20
361.8621
 30
0.0
 11
308.967791
 21
365.536333
 31
0.0
  0
LINE
  8
LC-005-005-----0
  6
CONTINUOUS
  5
4D
 10
303.062848
 20
362.459818
 30
0.0
 11
306.737082
 21
366.134051
 31
0.0
  0
LINE
  8
LC-005-005-----0
  6
CONTINUOUS
  5
4E
 10
300.83214
 20
363.057536
 30
0.0
 11
304.506373
 21
366.73177
 31
0.0
  0
LINE
  8
LC-005-005-----0
  6
CONTINUOUS
  5
4F
 10
298.601431
 20
363.655254
 30
0.0
 11
302.275664
 21
367.329488
 31
0.0
  0
LINE
  8
LC-005-005-----0
  6
CONTINUOUS
  5
50
 10
298.424034
 20
366.306285
 30
0.0
 11
300.044955
 21
367.927206
 31
0.0
  0
ENDBLK
  8
0
  5
51
  0
BLOCK
  8
0
  5
53
  2
*X2
 70
    65
 10
290.396797
 20
239.044
 30
0.0
  3
*X2
  0
LINE
  8
LC-005-005-----0
  6
CONTINUOUS
  5
54
 10
321.503104
 20
239.478717
 30
0.0
 11
321.937821
 21
239.913435
 31
0.0
  0
LINE
  8
LC-005-005-----0
  6
CONTINUOUS
  5
55
 10
320.08889
 20
240.892931
 30
0.0
 11
321.937821
 21
242.741862
 31
0.0
  0
LINE
  8
LC-005-005-----0
  6
CONTINUOUS
  5
56
 10
319.937821
 20
243.570289
 30
0.0
 11
321.937821
 21
245.570289
 31
0.0
  0
LINE
  8
LC-005-005-----0
  6
CONTINUOUS
  5
57
 10
319.937821
 20
246.398716
 30
0.0
 11
321.937821
 21
248.398716
 31
0.0
  0
LINE
  8
LC-005-005-----0
  6
CONTINUOUS
  5
58
 10
319.937821
 20
249.227143
 30
0.0
 11
321.937821
 21
251.227143
 31
0.0
  0
LINE
  8
LC-005-005-----0
  6
CONTINUOUS
  5
59
 10
319.937821
 20
252.05557
 30
0.0
 11
321.937821
 21
254.05557
 31
0.0
  0
LINE
  8
LC-005-005-----0
  6
CONTINUOUS
  5
5A
 10
319.937821
 20
254.883997
 30
0.0
 11
321.937821
 21
256.883997
 31
0.0
  0
LINE
  8
LC-005-005-----0
  6
CONTINUOUS
  5
5B
 10
319.937821
 20
257.712425
 30
0.0
 11
321.937821
 21
259.712425
 31
0.0
  0
LINE
  8
LC-005-005-----0
  6
CONTINUOUS
  5
5C
 10
319.937821
 20
260.540852
 30
0.0
 11
321.937821
 21
262.540852
 31
0.0
  0
LINE
  8
LC-005-005-----0
  6
CONTINUOUS
  5
5D
 10
319.937821
 20
263.369279
 30
0.0
 11
321.937821
 21
265.369279
 31
0.0
  0
LINE
  8
LC-005-005-----0
  6
CONTINUOUS
  5
5E
 10
319.937821
 20
266.197706
 30
0.0
 11
321.937821
 21
268.197706
 31
0.0
  0
LINE
  8
LC-005-005-----0
  6
CONTINUOUS
  5
5F
 10
319.937821
 20
269.026133
 30
0.0
 11
321.937821
 21
271.026133
 31
0.0
  0
LINE
  8
LC-005-005-----0
  6
CONTINUOUS
  5
60
 10
319.937821
 20
271.85456
 30
0.0
 11
321.937821
 21
273.85456
 31
0.0
  0
LINE
  8
LC-005-005-----0
  6
CONTINUOUS
  5
61
 10
319.937821
 20
274.682987
 30
0.0
 11
321.937821
 21
276.682987
 31
0.0
  0
LINE
  8
LC-005-005-----0
  6
CONTINUOUS
  5
62
 10
319.937821
 20
277.511414
 30
0.0
 11
321.937821
 21
279.511414
 31
0.0
  0
LINE
  8
LC-005-005-----0
  6
CONTINUOUS
  5
63
 10
319.937821
 20
280.339842
 30
0.0
 11
321.937821
 21
282.339842
 31
0.0
  0
LINE
  8
LC-005-005-----0
  6
CONTINUOUS
  5
64
 10
319.937821
 20
283.168269
 30
0.0
 11
321.937821
 21
285.168269
 31
0.0
  0
LINE
  8
LC-005-005-----0
  6
CONTINUOUS
  5
65
 10
319.937821
 20
285.996696
 30
0.0
 11
321.937821
 21
287.996696
 31
0.0
  0
LINE
  8
LC-005-005-----0
  6
CONTINUOUS
  5
66
 10
319.937821
 20
288.825123
 30
0.0
 11
321.937821
 21
290.825123
 31
0.0
  0
LINE
  8
LC-005-005-----0
  6
CONTINUOUS
  5
67
 10
319.937821
 20
291.65355
 30
0.0
 11
321.937821
 21
293.65355
 31
0.0
  0
LINE
  8
LC-005-005-----0
  6
CONTINUOUS
  5
68
 10
319.937821
 20
294.481977
 30
0.0
 11
321.937821
 21
296.481977
 31
0.0
  0
LINE
  8
LC-005-005-----0
  6
CONTINUOUS
  5
69
 10
319.937821
 20
297.310404
 30
0.0
 11
321.937821
 21
299.310404
 31
0.0
  0
LINE
  8
LC-005-005-----0
  6
CONTINUOUS
  5
6A
 10
319.937821
 20
300.138831
 30
0.0
 11
321.937821
 21
302.138831
 31
0.0
  0
LINE
  8
LC-005-005-----0
  6
CONTINUOUS
  5
6B
 10
319.937821
 20
302.967258
 30
0.0
 11
321.937821
 21
304.967258
 31
0.0
  0
LINE
  8
LC-005-005-----0
  6
CONTINUOUS
  5
6C
 10
319.937821
 20
305.795686
 30
0.0
 11
321.937821
 21
307.795686
 31
0.0
  0
LINE
  8
LC-005-005-----0
  6
CONTINUOUS
  5
6D
 10
319.937821
 20
308.624113
 30
0.0
 11
321.937821
 21
310.624113
 31
0.0
  0
LINE
  8
LC-005-005-----0
  6
CONTINUOUS
  5
6E
 10
319.937821
 20
311.45254
 30
0.0
 11
321.937821
 21
313.45254
 31
0.0
  0
LINE
  8
LC-005-005-----0
  6
CONTINUOUS
  5
6F
 10
319.937821
 20
314.280967
 30
0.0
 11
321.937821
 21
316.280967
 31
0.0
  0
LINE
  8
LC-005-005-----0
  6
CONTINUOUS
  5
70
 10
319.937821
 20
317.109394
 30
0.0
 11
321.937821
 21
319.109394
 31
0.0
  0
LINE
  8
LC-005-005-----0
  6
CONTINUOUS
  5
71
 10
319.937821
 20
319.937821
 30
0.0
 11
321.937821
 21
321.937821
 31
0.0
  0
LINE
  8
LC-005-005-----0
  6
CONTINUOUS
  5
72
 10
319.937821
 20
322.766248
 30
0.0
 11
321.937821
 21
324.766248
 31
0.0
  0
LINE
  8
LC-005-005-----0
  6
CONTINUOUS
  5
73
 10
319.937821
 20
325.594675
 30
0.0
 11
321.937821
 21
327.594675
 31
0.0
  0
LINE
  8
LC-005-005-----0
  6
CONTINUOUS
  5
74
 10
319.937821
 20
328.423103
 30
0.0
 11
321.937821
 21
330.423103
 31
0.0
  0
LINE
  8
LC-005-005-----0
  6
CONTINUOUS
  5
75
 10
318.939501
 20
330.253209
 30
0.0
 11
320.572493
 21
331.886202
 31
0.0
  0
LINE
  8
LC-005-005-----0
  6
CONTINUOUS
  5
76
 10
316.708792
 20
330.850927
 30
0.0
 11
318.341784
 21
332.48392
 31
0.0
  0
LINE
  8
LC-005-005-----0
  6
CONTINUOUS
  5
77
 10
314.478083
 20
331.448645
 30
0.0
 11
316.111075
 21
333.081638
 31
0.0
  0
LINE
  8
LC-005-005-----0
  6
CONTINUOUS
  5
78
 10
312.247374
 20
332.046364
 30
0.0
 11
313.880366
 21
333.679356
 31
0.0
  0
LINE
  8
LC-005-005-----0
  6
CONTINUOUS
  5
79
 10
310.016665
 20
332.644082
 30
0.0
 11
311.649657
 21
334.277074
 31
0.0
  0
LINE
  8
LC-005-005-----0
  6
CONTINUOUS
  5
7A
 10
307.785956
 20
333.2418
 30
0.0
 11
309.418949
 21
334.874793
 31
0.0
  0
LINE
  8
LC-005-005-----0
  6
CONTINUOUS
  5
7B
 10
304.330503
 20
332.614774
 30
0.0
 11
307.18824
 21
335.472511
 31
0.0
  0
LINE
  8
LC-005-005-----0
  6
CONTINUOUS
  5
7C
 10
302.099794
 20
333.212492
 30
0.0
 11
304.957531
 21
336.070229
 31
0.0
  0
LINE
  8
LC-005-005-----0
  6
CONTINUOUS
  5
7D
 10
299.869085
 20
333.81021
 30
0.0
 11
302.726822
 21
336.667947
 31
0.0
  0
LINE
  8
LC-005-005-----0
  6
CONTINUOUS
  5
7E
 10
297.638376
 20
334.407929
 30
0.0
 11
300.496113
 21
337.265666
 31
0.0
  0
LINE
  8
LC-005-005-----0
  6
CONTINUOUS
  5
7F
 10
295.407667
 20
335.005647
 30
0.0
 11
298.265404
 21
337.863384
 31
0.0
  0
LINE
  8
LC-005-005-----0
  6
CONTINUOUS
  5
80
 10
293.176958
 20
335.603365
 30
0.0
 11
296.034695
 21
338.461102
 31
0.0
  0
LINE
  8
LC-005-005-----0
  6
CONTINUOUS
  5
81
 10
290.946249
 20
336.201083
 30
0.0
 11
293.803986
 21
339.05882
 31
0.0
  0
LINE
  8
LC-005-005-----0
  6
CONTINUOUS
  5
82
 10
291.177075
 20
339.260336
 30
0.0
 11
291.573277
 21
339.656538
 31
0.0
  0
ENDBLK
  8
0
  5
83
  0
BLOCK
  8
0
  5
85
  2
*D3
 70
    65
 10
0.0
 20
0.0
 30
0.0
  3
*D3
  0
LINE
  8
LC-003-003-MTH-0
  6
CONTINUOUS
  5
86
 10
357.937821
 20
239.044
 30
0.0
 11
416.8
 21
239.044
 31
0.0
  0
LINE
  8
LC-003-003-MTH-0
  6
CONTINUOUS
  5
87
 10
363.937821
 20
383.332247
 30
0.0
 11
416.8
 21
383.332247
 31
0.0
  0
LINE
  8
LC-004-003-MTG-0
  6
CONTINUOUS
  5
88
 10
406.0
 20
239.044
 30
0.0
 11
406.0
 21
383.332247
 31
0.0
  0
LINE
  8
LC-002-003-----0
  6
CONTINUOUS
  5
89
 10
403.650529
 20
256.890008
 30
0.0
 11
406.0
 21
239.044
 31
0.0
  0
LINE
  8
LC-002-003-----0
  6
CONTINUOUS
  5
8A
 10
406.0
 20
239.044
 30
0.0
 11
408.349471
 21
256.890008
 31
0.0
  0
LINE
  8
LC-002-003-----0
  6
CONTINUOUS
  5
8B
 10
408.349471
 20
256.890008
 30
0.0
 11
403.650529
 21
256.890008
 31
0.0
  0
LINE
  8
LC-002-003-----0
  6
CONTINUOUS
  5
8C
 10
404.261391
 20
256.930046
 30
0.0
 11
406.0
 21
243.724
 31
0.0
  0
LINE
  8
LC-002-003-----0
  6
CONTINUOUS
  5
8D
 10
406.0
 20
243.724
 30
0.0
 11
407.738609
 21
256.930046
 31
0.0
  0
LINE
  8
LC-002-003-----0
  6
CONTINUOUS
  5
8E
 10
404.872254
 20
256.970084
 30
0.0
 11
406.0
 21
248.404
 31
0.0
  0
LINE
  8
LC-002-003-----0
  6
CONTINUOUS
  5
8F
 10
406.0
 20
248.404
 30
0.0
 11
407.127746
 21
256.970084
 31
0.0
  0
LINE
  8
LC-002-003-----0
  6
CONTINUOUS
  5
90
 10
405.483116
 20
257.010122
 30
0.0
 11
406.0
 21
253.084
 31
0.0
  0
LINE
  8
LC-002-003-----0
  6
CONTINUOUS
  5
91
 10
406.0
 20
253.084
 30
0.0
 11
406.516884
 21
257.010122
 31
0.0
  0
LINE
  8
LC-002-003-----0
  6
CONTINUOUS
  5
92
 10
408.349471
 20
365.486239
 30
0.0
 11
406.0
 21
383.332247
 31
0.0
  0
LINE
  8
LC-002-003-----0
  6
CONTINUOUS
  5
93
 10
406.0
 20
383.332247
 30
0.0
 11
403.650529
 21
365.486239
 31
0.0
  0
LINE
  8
LC-002-003-----0
  6
CONTINUOUS
  5
94
 10
403.650529
 20
365.486239
 30
0.0
 11
408.349471
 21
365.486239
 31
0.0
  0
LINE
  8
LC-002-003-----0
  6
CONTINUOUS
  5
95
 10
407.738609
 20
365.446201
 30
0.0
 11
406.0
 21
378.652247
 31
0.0
  0
LINE
  8
LC-002-003-----0
  6
CONTINUOUS
  5
96
 10
406.0
 20
378.652247
 30
0.0
 11
404.261391
 21
365.446201
 31
0.0
  0
LINE
  8
LC-002-003-----0
  6
CONTINUOUS
  5
97
 10
407.127746
 20
365.406163
 30
0.0
 11
406.0
 21
373.972247
 31
0.0
  0
LINE
  8
LC-002-003-----0
  6
CONTINUOUS
  5
98
 10
406.0
 20
373.972247
 30
0.0
 11
404.872254
 21
365.406163
 31
0.0
  0
LINE
  8
LC-002-003-----0
  6
CONTINUOUS
  5
99
 10
406.516884
 20
365.366125
 30
0.0
 11
406.0
 21
369.292247
 31
0.0
  0
LINE
  8
LC-002-003-----0
  6
CONTINUOUS
  5
9A
 10
406.0
 20
369.292247
 30
0.0
 11
405.483116
 21
365.366125
 31
0.0
  0
TEXT
  8
LC-002-003-----0
  6
CONTINUOUS
 62
     6
  5
9B
 10
395.568001
 20
294.849511
 30
0.0
 40
18.0
  1
145
 50
90.0
 51
15.0
  7
LC-TXTSTYLE-150-400-0-0-D0
 72
     1
 11
395.568001
 21
313.983369
 31
0.0
  0
ENDBLK
  8
0
  5
9C
  0
BLOCK
  8
0
  5
9E
  2
*X4
 70
    65
 10
315.937821
 20
365.832247
 30
0.0
  3
*X4
  0
LINE
  8
LC-005-005-----0
  6
CONTINUOUS
  5
9F
 10
319.187821
 20
382.262106
 30
0.0
 11
318.11768
 21
383.332247
 31
0.0
  0
LINE
  8
LC-005-005-----0
  6
CONTINUOUS
  5
A0
 10
319.187821
 20
379.433679
 30
0.0
 11
317.437821
 21
381.183679
 31
0.0
  0
LINE
  8
LC-005-005-----0
  6
CONTINUOUS
  5
A1
 10
316.789253
 20
381.832247
 30
0.0
 11
315.937821
 21
382.683679
 31
0.0
  0
LINE
  8
LC-005-005-----0
  6
CONTINUOUS
  5
A2
 10
319.187821
 20
376.605251
 30
0.0
 11
317.437821
 21
378.355251
 31
0.0
  0
LINE
  8
LC-005-005-----0
  6
CONTINUOUS
  5
A3
 10
319.187821
 20
373.776824
 30
0.0
 11
317.437821
 21
375.526824
 31
0.0
  0
LINE
  8
LC-005-005-----0
  6
CONTINUOUS
  5
A4
 10
319.187821
 20
370.948397
 30
0.0
 11
317.437821
 21
372.698397
 31
0.0
  0
LINE
  8
LC-005-005-----0
  6
CONTINUOUS
  5
A5
 10
320.862891
 20
366.4449
 30
0.0
 11
319.725544
 21
367.582247
 31
0.0
  0
LINE
  8
LC-005-005-----0
  6
CONTINUOUS
  5
A6
 10
319.187821
 20
368.11997
 30
0.0
 11
317.437821
 21
369.86997
 31
0.0
  0
LINE
  8
LC-005-005-----0
  6
CONTINUOUS
  5
A7
 10
318.272671
 20
366.206693
 30
0.0
 11
317.812268
 21
366.667097
 31
0.0
  0
ENDBLK
  8
0
  5
A8
  0
BLOCK
  8
0
  5
AA
  2
*X5
 70
    65
 10
320.937821
 20
371.544
 30
0.0
  3
*X5
  0
LINE
  8
LC-005-005-----0
  6
CONTINUOUS
  5
AB
 10
324.937821
 20
372.269465
 30
0.0
 11
323.663286
 21
373.544
 31
0.0
  0
LINE
  8
LC-005-005-----0
  6
CONTINUOUS
  5
AC
 10
324.249073
 20
371.544
 30
0.0
 11
322.249073
 21
373.544
 31
0.0
  0
LINE
  8
LC-005-005-----0
  6
CONTINUOUS
  5
AD
 10
322.834859
 20
371.544
 30
0.0
 11
320.937821
 21
373.441038
 31
0.0
  0
LINE
  8
LC-005-005-----0
  6
CONTINUOUS
  5
AE
 10
321.420646
 20
371.544
 30
0.0
 11
320.937821
 21
372.026824
 31
0.0
  0
ENDBLK
  8
0
  5
AF
  0
BLOCK
  8
0
  5
B1
  2
*X6
 70
    65
 10
354.937821
 20
371.544
 30
0.0
  3
*X6
  0
LINE
  8
LC-005-005-----0
  6
CONTINUOUS
  5
B2
 10
358.937821
 20
372.21059
 30
0.0
 11
357.604412
 21
373.544
 31
0.0
  0
LINE
  8
LC-005-005-----0
  6
CONTINUOUS
  5
B3
 10
358.190198
 20
371.544
 30
0.0
 11
356.190198
 21
373.544
 31
0.0
  0
LINE
  8
LC-005-005-----0
  6
CONTINUOUS
  5
B4
 10
356.775985
 20
371.544
 30
0.0
 11
354.937821
 21
373.382163
 31
0.0
  0
LINE
  8
LC-005-005-----0
  6
CONTINUOUS
  5
B5
 10
355.361771
 20
371.544
 30
0.0
 11
354.937821
 21
371.96795
 31
0.0
  0
ENDBLK
  8
0
  5
B6
  0
BLOCK
  8
0
  5
B8
  2
*X7
 70
    65
 10
358.437821
 20
365.832247
 30
0.0
  3
*X7
  0
LINE
  8
LC-005-005-----0
  6
CONTINUOUS
  5
B9
 10
363.937821
 20
382.76694
 30
0.0
 11
363.372514
 21
383.332247
 31
0.0
  0
LINE
  8
LC-005-005-----0
  6
CONTINUOUS
  5
BA
 10
362.437821
 20
381.438513
 30
0.0
 11
360.687821
 21
383.188513
 31
0.0
  0
LINE
  8
LC-005-005-----0
  6
CONTINUOUS
  5
BB
 10
362.437821
 20
378.610085
 30
0.0
 11
360.687821
 21
380.360085
 31
0.0
  0
LINE
  8
LC-005-005-----0
  6
CONTINUOUS
  5
BC
 10
362.437821
 20
375.781658
 30
0.0
 11
360.687821
 21
377.531658
 31
0.0
  0
LINE
  8
LC-005-005-----0
  6
CONTINUOUS
  5
BD
 10
362.437821
 20
372.953231
 30
0.0
 11
360.687821
 21
374.703231
 31
0.0
  0
LINE
  8
LC-005-005-----0
  6
CONTINUOUS
  5
BE
 10
362.437821
 20
370.124804
 30
0.0
 11
360.687821
 21
371.874804
 31
0.0
  0
LINE
  8
LC-005-005-----0
  6
CONTINUOUS
  5
BF
 10
362.379878
 20
367.35432
 30
0.0
 11
360.687821
 21
369.046377
 31
0.0
  0
LINE
  8
LC-005-005-----0
  6
CONTINUOUS
  5
C0
 10
360.994492
 20
365.911279
 30
0.0
 11
359.323524
 21
367.582247
 31
0.0
  0
ENDBLK
  8
0
  5
C1
  0
BLOCK
  8
0
  5
C3
  2
*X8
 70
    65
 10
353.937821
 20
239.044
 30
0.0
  3
*X8
  0
LINE
  8
LC-005-005-----0
  6
CONTINUOUS
  5
C4
 10
357.937821
 20
239.143882
 30
0.0
 11
359.937821
 21
241.143882
 31
0.0
  0
LINE
  8
LC-005-005-----0
  6
CONTINUOUS
  5
C5
 10
357.937821
 20
241.972309
 30
0.0
 11
359.937821
 21
243.972309
 31
0.0
  0
LINE
  8
LC-005-005-----0
  6
CONTINUOUS
  5
C6
 10
357.937821
 20
244.800736
 30
0.0
 11
359.937821
 21
246.800736
 31
0.0
  0
LINE
  8
LC-005-005-----0
  6
CONTINUOUS
  5
C7
 10
357.937821
 20
247.629163
 30
0.0
 11
359.937821
 21
249.629163
 31
0.0
  0
LINE
  8
LC-005-005-----0
  6
CONTINUOUS
  5
C8
 10
357.937821
 20
250.457591
 30
0.0
 11
359.937821
 21
252.457591
 31
0.0
  0
LINE
  8
LC-005-005-----0
  6
CONTINUOUS
  5
C9
 10
357.937821
 20
253.286018
 30
0.0
 11
359.937821
 21
255.286018
 31
0.0
  0
LINE
  8
LC-005-005-----0
  6
CONTINUOUS
  5
CA
 10
357.937821
 20
256.114445
 30
0.0
 11
359.937821
 21
258.114445
 31
0.0
  0
LINE
  8
LC-005-005-----0
  6
CONTINUOUS
  5
CB
 10
357.937821
 20
258.942872
 30
0.0
 11
359.937821
 21
260.942872
 31
0.0
  0
LINE
  8
LC-005-005-----0
  6
CONTINUOUS
  5
CC
 10
357.937821
 20
261.771299
 30
0.0
 11
359.937821
 21
263.771299
 31
0.0
  0
LINE
  8
LC-005-005-----0
  6
CONTINUOUS
  5
CD
 10
357.937821
 20
264.599726
 30
0.0
 11
359.937821
 21
266.599726
 31
0.0
  0
LINE
  8
LC-005-005-----0
  6
CONTINUOUS
  5
CE
 10
357.937821
 20
267.428153
 30
0.0
 11
359.937821
 21
269.428153
 31
0.0
  0
LINE
  8
LC-005-005-----0
  6
CONTINUOUS
  5
CF
 10
357.937821
 20
270.25658
 30
0.0
 11
359.937821
 21
272.25658
 31
0.0
  0
LINE
  8
LC-005-005-----0
  6
CONTINUOUS
  5
D0
 10
357.937821
 20
273.085008
 30
0.0
 11
359.937821
 21
275.085008
 31
0.0
  0
LINE
  8
LC-005-005-----0
  6
CONTINUOUS
  5
D1
 10
357.937821
 20
275.913435
 30
0.0
 11
359.937821
 21
277.913435
 31
0.0
  0
LINE
  8
LC-005-005-----0
  6
CONTINUOUS
  5
D2
 10
357.937821
 20
278.741862
 30
0.0
 11
359.937821
 21
280.741862
 31
0.0
  0
LINE
  8
LC-005-005-----0
  6
CONTINUOUS
  5
D3
 10
357.937821
 20
281.570289
 30
0.0
 11
359.937821
 21
283.570289
 31
0.0
  0
LINE
  8
LC-005-005-----0
  6
CONTINUOUS
  5
D4
 10
357.937821
 20
284.398716
 30
0.0
 11
359.937821
 21
286.398716
 31
0.0
  0
LINE
  8
LC-005-005-----0
  6
CONTINUOUS
  5
D5
 10
357.937821
 20
287.227143
 30
0.0
 11
359.937821
 21
289.227143
 31
0.0
  0
LINE
  8
LC-005-005-----0
  6
CONTINUOUS
  5
D6
 10
357.937821
 20
290.05557
 30
0.0
 11
359.937821
 21
292.05557
 31
0.0
  0
LINE
  8
LC-005-005-----0
  6
CONTINUOUS
  5
D7
 10
357.937821
 20
292.883997
 30
0.0
 11
359.937821
 21
294.883997
 31
0.0
  0
LINE
  8
LC-005-005-----0
  6
CONTINUOUS
  5
D8
 10
357.937821
 20
295.712425
 30
0.0
 11
359.937821
 21
297.712425
 31
0.0
  0
LINE
  8
LC-005-005-----0
  6
CONTINUOUS
  5
D9
 10
357.937821
 20
298.540852
 30
0.0
 11
359.937821
 21
300.540852
 31
0.0
  0
LINE
  8
LC-005-005-----0
  6
CONTINUOUS
  5
DA
 10
357.937821
 20
301.369279
 30
0.0
 11
359.937821
 21
303.369279
 31
0.0
  0
LINE
  8
LC-005-005-----0
  6
CONTINUOUS
  5
DB
 10
357.937821
 20
304.197706
 30
0.0
 11
359.937821
 21
306.197706
 31
0.0
  0
LINE
  8
LC-005-005-----0
  6
CONTINUOUS
  5
DC
 10
357.937821
 20
307.026133
 30
0.0
 11
359.937821
 21
309.026133
 31
0.0
  0
LINE
  8
LC-005-005-----0
  6
CONTINUOUS
  5
DD
 10
357.937821
 20
309.85456
 30
0.0
 11
359.937821
 21
311.85456
 31
0.0
  0
LINE
  8
LC-005-005-----0
  6
CONTINUOUS
  5
DE
 10
357.937821
 20
312.682987
 30
0.0
 11
359.937821
 21
314.682987
 31
0.0
  0
LINE
  8
LC-005-005-----0
  6
CONTINUOUS
  5
DF
 10
357.937821
 20
315.511414
 30
0.0
 11
359.937821
 21
317.511414
 31
0.0
  0
LINE
  8
LC-005-005-----0
  6
CONTINUOUS
  5
E0
 10
357.937821
 20
318.339842
 30
0.0
 11
359.937821
 21
320.339842
 31
0.0
  0
LINE
  8
LC-005-005-----0
  6
CONTINUOUS
  5
E1
 10
357.937821
 20
321.168269
 30
0.0
 11
359.937821
 21
323.168269
 31
0.0
  0
LINE
  8
LC-005-005-----0
  6
CONTINUOUS
  5
E2
 10
357.937821
 20
323.996696
 30
0.0
 11
359.937821
 21
325.996696
 31
0.0
  0
LINE
  8
LC-005-005-----0
  6
CONTINUOUS
  5
E3
 10
357.937821
 20
326.825123
 30
0.0
 11
359.937821
 21
328.825123
 31
0.0
  0
LINE
  8
LC-005-005-----0
  6
CONTINUOUS
  5
E4
 10
357.937821
 20
329.65355
 30
0.0
 11
359.937821
 21
331.65355
 31
0.0
  0
LINE
  8
LC-005-005-----0
  6
CONTINUOUS
  5
E5
 10
357.937821
 20
332.481977
 30
0.0
 11
359.937821
 21
334.481977
 31
0.0
  0
LINE
  8
LC-005-005-----0
  6
CONTINUOUS
  5
E6
 10
357.937821
 20
335.310404
 30
0.0
 11
359.937821
 21
337.310404
 31
0.0
  0
LINE
  8
LC-005-005-----0
  6
CONTINUOUS
  5
E7
 10
357.937821
 20
338.138831
 30
0.0
 11
359.937821
 21
340.138831
 31
0.0
  0
LINE
  8
LC-005-005-----0
  6
CONTINUOUS
  5
E8
 10
357.937821
 20
340.967258
 30
0.0
 11
359.937821
 21
342.967258
 31
0.0
  0
LINE
  8
LC-005-005-----0
  6
CONTINUOUS
  5
E9
 10
357.937821
 20
343.795686
 30
0.0
 11
359.937821
 21
345.795686
 31
0.0
  0
LINE
  8
LC-005-005-----0
  6
CONTINUOUS
  5
EA
 10
357.937821
 20
346.624113
 30
0.0
 11
359.937821
 21
348.624113
 31
0.0
  0
LINE
  8
LC-005-005-----0
  6
CONTINUOUS
  5
EB
 10
357.937821
 20
349.45254
 30
0.0
 11
359.937821
 21
351.45254
 31
0.0
  0
LINE
  8
LC-005-005-----0
  6
CONTINUOUS
  5
EC
 10
357.937821
 20
352.280967
 30
0.0
 11
359.937821
 21
354.280967
 31
0.0
  0
LINE
  8
LC-005-005-----0
  6
CONTINUOUS
  5
ED
 10
357.937821
 20
355.109394
 30
0.0
 11
359.937821
 21
357.109394
 31
0.0
  0
LINE
  8
LC-005-005-----0
  6
CONTINUOUS
  5
EE
 10
357.937821
 20
357.937821
 30
0.0
 11
359.937821
 21
359.937821
 31
0.0
  0
LINE
  8
LC-005-005-----0
  6
CONTINUOUS
  5
EF
 10
357.525108
 20
360.353535
 30
0.0
 11
358.953679
 21
361.782106
 31
0.0
  0
LINE
  8
LC-005-005-----0
  6
CONTINUOUS
  5
F0
 10
355.908864
 20
361.565718
 30
0.0
 11
357.337435
 21
362.994289
 31
0.0
  0
LINE
  8
LC-005-005-----0
  6
CONTINUOUS
  5
F1
 10
354.29262
 20
362.777901
 30
0.0
 11
355.937821
 21
364.423103
 31
0.0
  0
LINE
  8
LC-005-005-----0
  6
CONTINUOUS
  5
F2
 10
353.937821
 20
365.25153
 30
0.0
 11
355.937821
 21
367.25153
 31
0.0
  0
LINE
  8
LC-005-005-----0
  6
CONTINUOUS
  5
F3
 10
357.230292
 20
368.544
 30
0.0
 11
359.134587
 21
370.448296
 31
0.0
  0
LINE
  8
LC-005-005-----0
  6
CONTINUOUS
  5
F4
 10
353.937821
 20
368.079957
 30
0.0
 11
356.901864
 21
371.044
 31
0.0
  0
LINE
  8
LC-005-005-----0
  6
CONTINUOUS
  5
F5
 10
353.937821
 20
370.908384
 30
0.0
 11
354.073437
 21
371.044
 31
0.0
  0
ENDBLK
  8
0
  5
F6
  0
BLOCK
  8
0
  5
F8
  2
*X9
 70
    65
 10
252.459519
 20
312.349424
 30
0.0
  3
*X9
  0
LINE
  8
LC-005-005-----0
  6
CONTINUOUS
  5
F9
 10
253.052748
 20
312.449342
 30
0.0
 11
253.598709
 21
312.995303
 31
0.0
  0
LINE
  8
LC-005-005-----0
  6
CONTINUOUS
  5
FA
 10
252.937655
 20
316.576888
 30
0.0
 11
255.151627
 21
318.790857
 31
0.0
  0
LINE
  8
LC-005-005-----0
  6
CONTINUOUS
  5
FB
 10
254.013386
 20
321.895255
 30
0.0
 11
256.704545
 21
324.586411
 31
0.0
  0
LINE
  8
LC-005-005-----0
  6
CONTINUOUS
  5
FC
 10
295.350446
 20
363.23226
 30
0.0
 11
295.595443
 21
363.477257
 31
0.0
  0
LINE
  8
LC-005-005-----0
  6
CONTINUOUS
  5
FD
 10
255.57086
 20
327.695365
 30
0.0
 11
258.257463
 21
330.381964
 31
0.0
  0
LINE
  8
LC-005-005-----0
  6
CONTINUOUS
  5
FE
 10
292.004381
 20
364.128838
 30
0.0
 11
293.637376
 21
365.76183
 31
0.0
  0
LINE
  8
LC-005-005-----0
  6
CONTINUOUS
  5
FF
 10
295.02704
 20
367.151492
 30
0.0
 11
295.474494
 21
367.598946
 31
0.0
  0
LINE
  8
LC-005-005-----0
  6
CONTINUOUS
  5
100
 10
255.883316
 20
332.250458
 30
0.0
 11
259.810381
 21
336.177518
 31
0.0
  0
LINE
  8
LC-005-005-----0
  6
CONTINUOUS
  5
101
 10
288.658317
 20
365.025415
 30
0.0
 11
290.291311
 21
366.658407
 31
0.0
  0
LINE
  8
LC-005-005-----0
  6
CONTINUOUS
  5
102
 10
257.022818
 20
337.632597
 30
0.0
 11
261.363299
 21
341.973072
 31
0.0
  0
LINE
  8
LC-005-005-----0
  6
CONTINUOUS
  5
103
 10
285.312252
 20
365.921993
 30
0.0
 11
286.945246
 21
367.554985
 31
0.0
  0
LINE
  8
LC-005-005-----0
  6
CONTINUOUS
  5
104
 10
258.421581
 20
343.273996
 30
0.0
 11
262.916217
 21
347.768626
 31
0.0
  0
LINE
  8
LC-005-005-----0
  6
CONTINUOUS
  5
105
 10
281.966187
 20
366.818571
 30
0.0
 11
283.599182
 21
368.451563
 31
0.0
  0
LINE
  8
LC-005-005-----0
  6
CONTINUOUS
  5
106
 10
260.933599
 20
350.028648
 30
0.0
 11
264.469135
 21
353.56418
 31
0.0
  0
LINE
  8
LC-005-005-----0
  6
CONTINUOUS
  5
107
 10
278.386552
 20
367.481578
 30
0.0
 11
280.201512
 21
369.296535
 31
0.0
  0
LINE
  8
LC-005-005-----0
  6
CONTINUOUS
  5
108
 10
262.486517
 20
355.824202
 30
0.0
 11
266.115418
 21
359.453099
 31
0.0
  0
LINE
  8
LC-005-005-----0
  6
CONTINUOUS
  5
109
 10
273.336215
 20
366.673886
 30
0.0
 11
276.092437
 21
369.430104
 31
0.0
  0
LINE
  8
LC-005-005-----0
  6
CONTINUOUS
  5
10A
 10
265.051679
 20
362.631998
 30
0.0
 11
269.544944
 21
367.125257
 31
0.0
  0
ENDBLK
  8
0
  5
10B
  0
BLOCK
  8
0
  5
10D
  2
*X10
 70
    65
 10
267.914531
 20
308.208309
 30
0.0
  3
*X10
  0
LINE
  8
LC-005-005-----0
  6
CONTINUOUS
  5
10E
 10
268.600254
 20
311.026277
 30
0.0
 11
271.190704
 21
313.616723
 31
0.0
  0
LINE
  8
LC-005-005-----0
  6
CONTINUOUS
  5
10F
 10
270.153172
 20
316.82183
 30
0.0
 11
273.448795
 21
320.117449
 31
0.0
  0
LINE
  8
LC-005-005-----0
  6
CONTINUOUS
  5
110
 10
271.70609
 20
322.617384
 30
0.0
 11
275.465192
 21
326.376481
 31
0.0
  0
LINE
  8
LC-005-005-----0
  6
CONTINUOUS
  5
111
 10
287.709904
 20
338.621176
 30
0.0
 11
289.383771
 21
340.295042
 31
0.0
  0
LINE
  8
LC-005-005-----0
  6
CONTINUOUS
  5
112
 10
273.259008
 20
328.412938
 30
0.0
 11
277.795559
 21
332.949483
 31
0.0
  0
LINE
  8
LC-005-005-----0
  6
CONTINUOUS
  5
113
 10
286.200957
 20
341.35487
 30
0.0
 11
287.833952
 21
342.987862
 31
0.0
  0
LINE
  8
LC-005-005-----0
  6
CONTINUOUS
  5
114
 10
274.811926
 20
334.208492
 30
0.0
 11
279.783332
 21
339.179891
 31
0.0
  0
LINE
  8
LC-005-005-----0
  6
CONTINUOUS
  5
115
 10
282.854893
 20
342.251448
 30
0.0
 11
284.487887
 21
343.88444
 31
0.0
  0
LINE
  8
LC-005-005-----0
  6
CONTINUOUS
  5
116
 10
276.364844
 20
340.004046
 30
0.0
 11
281.141822
 21
344.781017
 31
0.0
  0
ENDBLK
  8
0
  5
117
  0
BLOCK
  8
0
  5
119
  2
*X11
 70
    65
 10
292.784092
 20
365.14646
 30
0.0
  3
*X11
  0
LINE
  8
LC-005-005-----0
  6
CONTINUOUS
  5
11A
 10
293.325021
 20
368.526876
 30
0.0
 11
294.549766
 21
367.302133
 31
0.0
  0
LINE
  8
LC-005-005-----0
  6
CONTINUOUS
  5
11B
 10
295.177737
 20
370.9168
 30
0.0
 11
297.126521
 21
368.968019
 31
0.0
  0
LINE
  8
LC-005-005-----0
  6
CONTINUOUS
  5
11C
 10
300.093653
 20
370.243529
 30
0.0
 11
302.922088
 21
367.415097
 31
0.0
  0
LINE
  8
LC-005-005-----0
  6
CONTINUOUS
  5
11D
 10
305.88922
 20
368.690608
 30
0.0
 11
308.717655
 21
365.862176
 31
0.0
  0
LINE
  8
LC-005-005-----0
  6
CONTINUOUS
  5
11E
 10
310.791769
 20
368.030703
 30
0.0
 11
311.608266
 21
367.214207
 31
0.0
  0
ENDBLK
  8
0
  5
11F
  0
BLOCK
  8
0
  5
121
  2
*X12
 70
    65
 10
285.177823
 20
329.971238
 30
0.0
  3
*X12
  0
LINE
  8
LC-005-005-----0
  6
CONTINUOUS
  5
122
 10
285.258774
 20
338.409372
 30
0.0
 11
289.378536
 21
334.289615
 31
0.0
  0
LINE
  8
LC-005-005-----0
  6
CONTINUOUS
  5
123
 10
292.345648
 20
335.565145
 30
0.0
 11
295.174058
 21
332.736739
 31
0.0
  0
LINE
  8
LC-005-005-----0
  6
CONTINUOUS
  5
124
 10
298.141171
 20
334.012268
 30
0.0
 11
301.747853
 21
330.405591
 31
0.0
  0
ENDBLK
  8
0
  5
125
  0
BLOCK
  8
0
  5
127
  2
BLK1
 70
    64
 10
0.0
 20
0.0
 30
0.0
  3
BLK1
  0
ENDBLK
  8
0
  5
128
  0
ENDSEC
  0
SECTION
  2
ENTITIES
  0
VIEWPORT
  8
LC-000
  5
1C7
 67
     1
 68
     1
 10
420.0
 20
297.0
 30
0.0
 40
840.0
 41
594.0
 69
     1
1001
ACAD
1000
MVIEW
1002
{
1070
    16
1010
0.0
1020
0.0
1030
0.0
1010
0.0
1020
0.0
1030
1.0
1040
0.0
1040
594.0
1040
420.0
1040
297.0
1040
50.0
1040
0.0
1040
0.0
1070
     0
1070
   100
1070
     1
1070
     1
1070
     0
1070
     0
1070
     0
1070
     0
1040
0.0
1040
0.0
1040
0.0
1040
1.0
1040
1.0
1040
0.0
1040
0.0
1070
     0
1002
{
1002
}
1002
}
  0
VIEWPORT
  8
0
  5
1C8
 67
     1
 68
     1
 10
0.0
 20
0.0
 30
0.0
 40
0.0
 41
0.0
 69
     1
1001
ACAD
1000
MVIEW
1002
{
1070
    16
1010
0.0
1020
0.0
1030
0.0
1010
0.0
1020
0.0
1030
1.0
1040
0.0
1040
594.0
1040
0.0
1040
0.0
1040
50.0
1040
0.0
1040
0.0
1070
     0
1070
   100
1070
     0
1070
     1
1070
     0
1070
     0
1070
     0
1070
     0
1040
0.0
1040
0.0
1040
0.0
1040
0.5
1040
0.5
1040
0.5
1040
0.5
1070
     0
1002
{
1002
}
1002
}
  0
DIMENSION
  8
0
  5
129
  2
*D0
 10
384.980331
 20
180.0
 30
0.0
 11
384.980331
 21
180.0
 31
0.0
  1
DN40
 13
319.937821
 23
241.044
 33
0.0
 14
359.937821
 24
241.044
 34
0.0
  3
LC-DIM-L-0090-02-02
  0
INSERT
  8
0
  5
12A
  2
*X1
 10
297.773158
 20
357.402271
 30
0.0
  0
INSERT
  8
0
  5
12B
  2
*X2
 10
290.396797
 20
239.044
 30
0.0
  0
DIMENSION
  8
0
  5
12C
  2
*D3
 10
406.0
 20
311.188123
 30
0.0
 11
406.0
 21
311.188123
 31
0.0
  1
145
 13
357.937821
 23
239.044
 33
0.0
 14
363.937821
 24
383.332247
 34
0.0
 50
90.0
  3
LC-DIM-L-0090-02-02
  0
INSERT
  8
0
  5
12D
  2
*X4
 10
315.937821
 20
365.832247
 30
0.0
  0
INSERT
  8
0
  5
12E
  2
*X5
 10
320.937821
 20
371.544
 30
0.0
  0
INSERT
  8
0
  5
12F
  2
*X6
 10
354.937821
 20
371.544
 30
0.0
  0
INSERT
  8
0
  5
130
  2
*X7
 10
358.437821
 20
365.832247
 30
0.0
  0
INSERT
  8
0
  5
131
  2
*X8
 10
353.937821
 20
239.044
 30
0.0
  0
INSERT
  8
0
  5
132
  2
*X9
 10
252.459519
 20
312.349424
 30
0.0
  0
INSERT
  8
0
  5
133
  2
*X10
 10
267.914531
 20
308.208309
 30
0.0
  0
INSERT
  8
0
  5
134
  2
*X11
 10
292.784092
 20
365.14646
 30
0.0
  0
INSERT
  8
0
  5
135
  2
*X12
 10
285.177823
 20
329.971238
 30
0.0
  0
INSERT
  8
0
  5
137
  2
BLK1
 10
0.0
 20
0.0
 30
0.0
  0
LINE
  8
LC-001-002-----0
  5
13A
 10
339.937821
 20
383.332247
 30
0.0
 11
339.937821
 21
239.044
 31
0.0
  0
LINE
  8
LC-001-002-----0
  6
CONTINUOUS
 62
     1
  5
13B
 10
359.937821
 20
361.044
 30
0.0
 11
359.937821
 21
241.044
 31
0.0
  0
LINE
  8
LC-001-002-----0
  6
CONTINUOUS
 62
     1
  5
13C
 10
319.937821
 20
329.985709
 30
0.0
 11
319.937821
 21
241.044
 31
0.0
  0
LINE
  8
LC-001-002-----0
  6
CONTINUOUS
 62
     1
  5
13D
 10
321.937821
 20
239.044
 30
0.0
 11
357.937821
 21
239.044
 31
0.0
  0
LINE
  8
LC-001-002-----0
  6
CONTINUOUS
 62
     1
  5
13E
 10
321.937821
 20
360.044
 30
0.0
 11
321.937821
 21
357.402271
 31
0.0
  0
LINE
  8
LC-001-002-----0
  6
CONTINUOUS
 62
     1
  5
13F
 10
357.937821
 20
360.044
 30
0.0
 11
357.937821
 21
239.044
 31
0.0
  0
LINE
  8
LC-001-002-----0
  6
CONTINUOUS
 62
     1
  5
140
 10
321.937821
 20
360.044
 30
0.0
 11
339.937821
 21
360.044
 31
0.0
  0
LINE
  8
LC-001-002-----0
  6
CONTINUOUS
 62
     1
  5
141
 10
321.937821
 20
239.044
 30
0.0
 11
319.937821
 21
241.044
 31
0.0
  0
LINE
  8
LC-001-002-----0
  6
CONTINUOUS
 62
     1
  5
142
 10
357.937821
 20
239.044
 30
0.0
 11
359.937821
 21
241.044
 31
0.0
  0
LINE
  8
LC-001-002-----0
  6
CONTINUOUS
 62
     1
  5
143
 10
325.937821
 20
363.044
 30
0.0
 11
339.937821
 21
363.044
 31
0.0
  0
LINE
  8
LC-001-002-----0
  6
CONTINUOUS
 62
     1
  5
144
 10
357.937821
 20
360.044
 30
0.0
 11
339.937821
 21
360.044
 31
0.0
  0
LINE
  8
LC-001-002-----0
  6
CONTINUOUS
 62
     1
  5
145
 10
323.937821
 20
368.544
 30
0.0
 11
323.937821
 21
364.044
 31
0.0
  0
LINE
  8
LC-001-002-----0
  6
CONTINUOUS
 62
     1
  5
146
 10
353.937821
 20
363.044
 30
0.0
 11
339.937821
 21
363.044
 31
0.0
  0
LINE
  8
LC-001-002-----0
  6
CONTINUOUS
 62
     1
  5
147
 10
325.937821
 20
371.044
 30
0.0
 11
325.937821
 21
363.044
 31
0.0
  0
LINE
  8
LC-001-002-----0
  6
CONTINUOUS
 62
     1
  5
148
 10
321.937821
 20
371.044
 30
0.0
 11
357.937821
 21
371.044
 31
0.0
  0
LINE
  8
LC-001-002-----0
  6
CONTINUOUS
 62
     1
  5
149
 10
357.937821
 20
360.044
 30
0.0
 11
353.937821
 21
363.044
 31
0.0
  0
LINE
  8
LC-001-002-----0
  6
CONTINUOUS
 62
     1
  5
14A
 10
321.937821
 20
360.044
 30
0.0
 11
325.937821
 21
363.044
 31
0.0
  0
LINE
  8
LC-001-002-----0
  6
CONTINUOUS
 62
     1
  5
14B
 10
319.937821
 20
361.044
 30
0.0
 11
323.937821
 21
364.044
 31
0.0
  0
LINE
  8
LC-001-002-----0
  6
CONTINUOUS
 62
     1
  5
14C
 10
359.937821
 20
361.044
 30
0.0
 11
355.937821
 21
364.044
 31
0.0
  0
LINE
  8
LC-001-002-----0
  6
CONTINUOUS
 62
     1
  5
14D
 10
355.937821
 20
368.544
 30
0.0
 11
355.937821
 21
364.044
 31
0.0
  0
LINE
  8
LC-001-002-----0
  6
CONTINUOUS
 62
     1
  5
14E
 10
353.937821
 20
371.044
 30
0.0
 11
353.937821
 21
363.044
 31
0.0
  0
LINE
  8
LC-001-002-----0
  6
CONTINUOUS
 62
     1
  5
14F
 10
321.937821
 20
331.520362
 30
0.0
 11
321.937821
 21
239.044
 31
0.0
  0
ARC
  8
LC-001-002-----0
  6
CONTINUOUS
 62
     1
  5
150
 10
308.523798
 20
344.461317
 30
0.0
 40
18.638785
 50
316.028341
 51
43.971659
  0
LINE
  8
LC-001-002-----0
  6
CONTINUOUS
 62
     1
  5
151
 10
359.437821
 20
369.544
 30
0.0
 11
359.437821
 21
368.544
 31
0.0
  0
LINE
  8
LC-001-002-----0
  6
CONTINUOUS
 62
     1
  5
152
 10
320.437821
 20
369.544
 30
0.0
 11
320.437821
 21
368.544
 31
0.0
  0
LINE
  8
LC-001-002-----0
  6
CONTINUOUS
 62
     1
  5
153
 10
320.437821
 20
368.544
 30
0.0
 11
323.937821
 21
368.544
 31
0.0
  0
LINE
  8
LC-001-002-----0
  6
CONTINUOUS
 62
     1
  5
154
 10
355.937821
 20
368.544
 30
0.0
 11
359.437821
 21
368.544
 31
0.0
  0
ARC
  8
LC-006-002-RND-0
  6
CONTINUOUS
  5
156
 10
321.937821
 20
369.544
 30
0.0
 40
1.5
 50
90.0
 51
180.0
  0
ARC
  8
LC-006-002-RND-0
  6
CONTINUOUS
  5
157
 10
357.937821
 20
369.544
 30
0.0
 40
1.5
 50
0.0
 51
90.0
  0
LINE
  8
LC-001-002-----0
  6
CONTINUOUS
 62
     1
  5
158
 10
362.437821
 20
381.832247
 30
0.0
 11
362.437821
 21
367.832247
 31
0.0
  0
LINE
  8
LC-001-002-----0
  6
CONTINUOUS
 62
     1
  5
159
 10
317.437821
 20
381.832247
 30
0.0
 11
317.437821
 21
367.832247
 31
0.0
  0
LINE
  8
LC-001-002-----0
  6
CONTINUOUS
 62
     1
  5
15A
 10
319.437821
 20
365.832247
 30
0.0
 11
319.653505
 21
365.832247
 31
0.0
  0
LINE
  8
LC-001-002-----0
  6
CONTINUOUS
 62
     1
  5
15B
 10
315.937821
 20
383.332247
 30
0.0
 11
363.937821
 21
383.332247
 31
0.0
  0
LINE
  8
LC-001-002-----0
  6
CONTINUOUS
 62
     1
  5
15C
 10
315.937821
 20
381.832247
 30
0.0
 11
317.437821
 21
381.832247
 31
0.0
  0
LINE
  8
LC-001-002-----0
  6
CONTINUOUS
 62
     1
  5
15D
 10
363.937821
 20
383.332247
 30
0.0
 11
363.937821
 21
381.832247
 31
0.0
  0
LINE
  8
LC-001-002-----0
  6
CONTINUOUS
 62
     1
  5
15E
 10
315.937821
 20
383.332247
 30
0.0
 11
315.937821
 21
381.832247
 31
0.0
  0
LINE
  8
LC-001-002-----0
  6
CONTINUOUS
 62
     1
  5
15F
 10
362.437821
 20
381.832247
 30
0.0
 11
363.937821
 21
381.832247
 31
0.0
  0
LINE
  8
LC-001-002-----0
  6
CONTINUOUS
 62
     1
  5
160
 10
320.437821
 20
382.082247
 30
0.0
 11
320.437821
 21
368.832247
 31
0.0
  0
LINE
  8
LC-001-002-----0
  6
CONTINUOUS
 62
     1
  5
161
 10
319.187821
 20
383.332247
 30
0.0
 11
319.187821
 21
367.582247
 31
0.0
  0
LINE
  8
LC-001-002-----0
  6
CONTINUOUS
 62
     1
  5
162
 10
319.187821
 20
367.582247
 30
0.0
 11
321.153505
 21
367.582247
 31
0.0
  0
LINE
  8
LC-001-002-----0
  6
CONTINUOUS
 62
     1
  5
163
 10
321.153505
 20
367.332247
 30
0.0
 11
321.153505
 21
367.582247
 31
0.0
  0
ARC
  8
LC-006-002-RND-0
  6
CONTINUOUS
  5
164
 10
319.437821
 20
367.832247
 30
0.0
 40
2.0
 50
180.0
 51
270.0
  0
ARC
  8
LC-006-002-RND-0
  6
CONTINUOUS
  5
165
 10
319.653505
 20
367.332247
 30
0.0
 40
1.5
 50
270.0
 51
0.0
  0
LINE
  8
LC-001-002-----0
  6
CONTINUOUS
 62
     1
  5
166
 10
319.187821
 20
383.332247
 30
0.0
 11
320.437821
 21
382.082247
 31
0.0
  0
LINE
  8
LC-001-002-----0
  6
CONTINUOUS
 62
     1
  5
167
 10
319.187821
 20
367.582247
 30
0.0
 11
320.437821
 21
368.832247
 31
0.0
  0
LINE
  8
LC-001-002-----0
  6
CONTINUOUS
 62
     1
  5
168
 10
320.437821
 20
382.082247
 30
0.0
 11
339.937821
 21
382.082247
 31
0.0
  0
LINE
  8
LC-001-002-----0
  6
CONTINUOUS
 62
     1
  5
169
 10
320.937821
 20
371.544
 30
0.0
 11
339.937821
 21
371.544
 31
0.0
  0
LINE
  8
LC-001-002-----0
  6
CONTINUOUS
 62
     1
  5
16A
 10
320.937821
 20
373.544
 30
0.0
 11
339.937821
 21
373.544
 31
0.0
  0
LINE
  8
LC-001-002-----0
  6
CONTINUOUS
 62
     1
  5
16B
 10
320.937821
 20
373.544
 30
0.0
 11
320.937821
 21
371.544
 31
0.0
  0
LINE
  8
LC-001-002-----0
  6
CONTINUOUS
 62
     1
  5
16C
 10
324.937821
 20
373.544
 30
0.0
 11
324.937821
 21
371.544
 31
0.0
  0
LINE
  8
LC-001-002-----0
  6
CONTINUOUS
 62
     1
  5
16D
 10
358.937821
 20
373.544
 30
0.0
 11
339.937821
 21
373.544
 31
0.0
  0
LINE
  8
LC-001-002-----0
  6
CONTINUOUS
 62
     1
  5
16E
 10
358.937821
 20
371.544
 30
0.0
 11
339.937821
 21
371.544
 31
0.0
  0
LINE
  8
LC-001-002-----0
  6
CONTINUOUS
 62
     1
  5
16F
 10
354.937821
 20
373.544
 30
0.0
 11
354.937821
 21
371.544
 31
0.0
  0
LINE
  8
LC-001-002-----0
  6
CONTINUOUS
 62
     1
  5
170
 10
358.937821
 20
373.544
 30
0.0
 11
358.937821
 21
371.544
 31
0.0
  0
ARC
  8
LC-006-002-RND-0
  6
CONTINUOUS
  5
171
 10
360.437821
 20
367.832247
 30
0.0
 40
2.0
 50
270.0
 51
0.0
  0
ARC
  8
LC-006-002-RND-0
  6
CONTINUOUS
  5
172
 10
360.222138
 20
367.332247
 30
0.0
 40
1.5
 50
180.0
 51
270.0
  0
LINE
  8
LC-001-002-----0
  6
CONTINUOUS
 62
     1
  5
173
 10
360.687821
 20
367.582247
 30
0.0
 11
358.722138
 21
367.582247
 31
0.0
  0
LINE
  8
LC-001-002-----0
  6
CONTINUOUS
 62
     1
  5
174
 10
360.687821
 20
383.332247
 30
0.0
 11
360.687821
 21
367.582247
 31
0.0
  0
LINE
  8
LC-001-002-----0
  6
CONTINUOUS
 62
     1
  5
175
 10
360.687821
 20
367.582247
 30
0.0
 11
359.437821
 21
368.832247
 31
0.0
  0
LINE
  8
LC-001-002-----0
  6
CONTINUOUS
 62
     1
  5
176
 10
359.437821
 20
382.082247
 30
0.0
 11
359.437821
 21
368.832247
 31
0.0
  0
LINE
  8
LC-001-002-----0
  6
CONTINUOUS
 62
     1
  5
177
 10
360.687821
 20
383.332247
 30
0.0
 11
359.437821
 21
382.082247
 31
0.0
  0
LINE
  8
LC-001-002-----0
  6
CONTINUOUS
 62
     1
  5
178
 10
359.437821
 20
382.082247
 30
0.0
 11
339.937821
 21
382.082247
 31
0.0
  0
LINE
  8
LC-001-002-----0
  6
CONTINUOUS
 62
     1
  5
179
 10
358.722138
 20
367.332247
 30
0.0
 11
358.722138
 21
367.582247
 31
0.0
  0
LINE
  8
LC-001-002-----0
  6
CONTINUOUS
 62
     1
  5
17A
 10
360.222138
 20
365.832247
 30
0.0
 11
360.437821
 21
365.832247
 31
0.0
  0
LINE
  8
LC-001-002-----0
  6
CONTINUOUS
 62
     1
  5
17B
 10
298.937847
 20
368.223856
 30
0.0
 11
291.302666
 21
339.729049
 31
0.0
  0
LINE
  8
LC-001-002-----0
  6
CONTINUOUS
 62
     1
  5
17C
 10
314.392657
 20
364.082741
 30
0.0
 11
314.004428
 21
362.633852
 31
0.0
  0
LINE
  8
LC-001-002-----0
  6
CONTINUOUS
 62
     1
  5
17D
 10
305.851608
 20
332.207194
 30
0.0
 11
290.396797
 21
336.348309
 31
0.0
  0
LINE
  8
LC-001-002-----0
  6
CONTINUOUS
 62
     1
  5
17E
 10
314.004428
 20
362.633852
 30
0.0
 11
319.937821
 21
361.044
 31
0.0
  0
LINE
  8
LC-001-002-----0
  6
CONTINUOUS
 62
     1
  5
17F
 10
306.239837
 20
333.656082
 30
0.0
 11
319.937821
 21
329.985709
 31
0.0
  0
LINE
  8
LC-007-001-----0
  6
CONTINUOUS
  5
181
 10
291.302666
 20
339.729049
 30
0.0
 11
321.937821
 21
331.520362
 31
0.0
  0
LINE
  8
LC-001-002-----0
  6
CONTINUOUS
 62
     1
  5
182
 10
306.239837
 20
333.656082
 30
0.0
 11
305.851608
 21
332.207194
 31
0.0
  0
LINE
  8
LC-007-001-----0
  6
CONTINUOUS
  5
183
 10
297.773158
 20
363.87719
 30
0.0
 11
321.937821
 21
357.402271
 31
0.0
  0
LINE
  8
LC-001-002-----0
  6
CONTINUOUS
 62
     1
  5
184
 10
291.302666
 20
339.729049
 30
0.0
 11
290.396797
 21
336.348309
 31
0.0
  0
LINE
  8
LC-001-002-----0
  6
CONTINUOUS
 62
     1
  5
185
 10
296.617766
 20
367.292606
 30
0.0
 11
295.168877
 21
367.680836
 31
0.0
  0
LINE
  8
LC-001-002-----0
  6
CONTINUOUS
 62
     1
  5
186
 10
287.404287
 20
338.703066
 30
0.0
 11
288.853175
 21
338.314837
 31
0.0
  0
LINE
  8
LC-001-002-----0
  6
CONTINUOUS
 62
     1
  5
187
 10
295.168877
 20
367.680836
 30
0.0
 11
294.586533
 21
365.507503
 31
0.0
  0
LINE
  8
LC-001-002-----0
  6
CONTINUOUS
 62
     1
  5
188
 10
287.986631
 20
340.876399
 30
0.0
 11
279.776263
 21
343.076366
 31
0.0
  0
LINE
  8
LC-001-002-----0
  6
CONTINUOUS
 62
     1
  5
189
 10
289.953159
 20
342.420021
 30
0.0
 11
277.879088
 21
345.655267
 31
0.0
  0
LINE
  8
LC-001-002-----0
  6
CONTINUOUS
 62
     1
  5
18A
 10
287.986631
 20
340.876399
 30
0.0
 11
287.404287
 21
338.703066
 31
0.0
  0
LINE
  8
LC-001-002-----0
  6
CONTINUOUS
 62
     1
  5
18B
 10
279.776263
 20
343.076366
 30
0.0
 11
279.388034
 21
341.627478
 31
0.0
  0
LINE
  8
LC-007-001-----0
  6
CONTINUOUS
  5
18C
 10
277.879088
 20
345.655267
 30
0.0
 11
267.914531
 21
308.467129
 31
0.0
  0
LINE
  8
LC-001-002-----0
  6
CONTINUOUS
 62
     1
  5
18D
 10
263.175357
 20
358.394979
 30
0.0
 11
260.069521
 21
346.803871
 31
0.0
  0
ARC
  8
LC-001-002-----0
  6
CONTINUOUS
 62
     1
  5
18E
 10
277.664241
 20
354.512684
 30
0.0
 40
15.0
 50
74.999963
 51
164.999963
  0
LINE
  8
LC-001-002-----0
  6
CONTINUOUS
 62
     1
  5
18F
 10
294.586533
 20
365.507503
 30
0.0
 11
281.546537
 21
369.001569
 31
0.0
  0
LINE
  8
LC-007-001-----0
  6
CONTINUOUS
  5
190
 10
265.719581
 20
358.230893
 30
0.0
 11
253.425646
 21
312.349424
 31
0.0
  0
ARC
  8
LC-007-001-----0
  6
CONTINUOUS
  5
191
 10
277.793651
 20
354.995647
 30
0.0
 40
12.5
 50
74.999963
 51
164.999963
  0
LINE
  8
LC-001-002-----0
  6
CONTINUOUS
 62
     1
  5
192
 10
295.517782
 20
363.187422
 30
0.0
 11
281.028897
 21
367.069717
 31
0.0
  0
LINE
  8
LC-007-001-----0
  6
DASHDOT
 62
     2
  5
193
 10
327.148299
 20
343.582808
 30
0.0
 11
275.831772
 21
357.333066
 31
0.0
  0
ARC
  8
LC-007-001-----0
  6
DASHDOT
 62
     2
  5
194
 10
275.184722
 20
354.918252
 30
0.0
 40
2.5
 50
74.999963
 51
164.999944
  0
LINE
  8
LC-001-002-----0
  5
195
 10
272.769908
 20
355.565301
 30
0.0
 11
260.475974
 21
309.683832
 31
0.0
  0
LINE
  8
LC-001-002-----0
  6
CONTINUOUS
 62
     1
  5
196
 10
279.388034
 20
341.627478
 30
0.0
 11
280.836922
 21
341.239248
 31
0.0
  0
LINE
  8
LC-001-002-----0
  6
CONTINUOUS
 62
     1
  5
197
 10
260.069521
 20
346.803871
 30
0.0
 11
258.620632
 21
347.192101
 31
0.0
  0
LINE
  8
LC-001-002-----0
  6
CONTINUOUS
 62
     1
  5
198
 10
257.291857
 20
340.301211
 30
0.0
 11
258.257527
 21
340.04246
 31
0.0
  0
LINE
  8
LC-001-002-----0
  6
CONTINUOUS
 62
     1
  5
199
 10
255.963082
 20
333.410322
 30
0.0
 11
256.580779
 21
333.24481
 31
0.0
  0
LINE
  8
LC-001-002-----0
  6
CONTINUOUS
 62
     1
  5
19A
 10
254.634307
 20
326.519432
 30
0.0
 11
255.4747
 21
326.294249
 31
0.0
  0
LINE
  8
LC-001-002-----0
  6
CONTINUOUS
 62
     1
  5
19B
 10
253.305532
 20
319.628543
 30
0.0
 11
253.695115
 21
319.524154
 31
0.0
  0
LINE
  8
LC-001-002-----0
  6
CONTINUOUS
 62
     1
  5
19C
 10
252.45972
 20
312.608244
 30
0.0
 11
268.880456
 21
308.208309
 31
0.0
  0
LINE
  8
LC-001-002-----0
  6
CONTINUOUS
 62
     1
  5
19D
 10
280.836922
 20
341.239248
 30
0.0
 11
277.576296
 21
334.865998
 31
0.0
  0
LINE
  8
LC-001-002-----0
  6
CONTINUOUS
 62
     1
  5
19E
 10
278.542222
 20
334.607178
 30
0.0
 11
275.629573
 21
328.140688
 31
0.0
  0
LINE
  8
LC-001-002-----0
  6
CONTINUOUS
 62
     1
  5
19F
 10
276.247521
 20
327.975109
 30
0.0
 11
273.112181
 21
321.568288
 31
0.0
  0
LINE
  8
LC-001-002-----0
  6
CONTINUOUS
 62
     1
  5
1A0
 10
273.95282
 20
321.343039
 30
0.0
 11
271.268327
 21
314.815414
 31
0.0
  0
LINE
  8
LC-001-002-----0
  6
CONTINUOUS
 62
     1
  5
1A1
 10
271.65812
 20
314.710969
 30
0.0
 11
268.880456
 21
308.208309
 31
0.0
  0
LINE
  8
LC-001-002-----0
  6
CONTINUOUS
 62
     1
  5
1A2
 10
258.62044
 20
347.192426
 30
0.0
 11
258.257595
 21
340.042716
 31
0.0
  0
LINE
  8
LC-001-002-----0
  6
CONTINUOUS
 62
     1
  5
1A3
 10
257.291669
 20
340.301535
 30
0.0
 11
256.580847
 21
333.245066
 31
0.0
  0
LINE
  8
LC-001-002-----0
  6
CONTINUOUS
 62
     1
  5
1A4
 10
255.962899
 20
333.410645
 30
0.0
 11
255.474769
 21
326.294506
 31
0.0
  0
LINE
  8
LC-001-002-----0
  6
CONTINUOUS
 62
     1
  5
1A5
 10
254.634129
 20
326.519755
 30
0.0
 11
253.695151
 21
319.52442
 31
0.0
  0
LINE
  8
LC-001-002-----0
  6
CONTINUOUS
 62
     1
  5
1A6
 10
253.305358
 20
319.628864
 30
0.0
 11
252.459551
 21
312.608565
 31
0.0
  0
LINE
  8
LC-001-002-----0
  6
CONTINUOUS
 62
     1
  5
1A7
 10
277.576296
 20
334.865998
 30
0.0
 11
278.542222
 21
334.607178
 31
0.0
  0
LINE
  8
LC-001-002-----0
  6
CONTINUOUS
 62
     1
  5
1A8
 10
275.629573
 20
328.140688
 30
0.0
 11
276.247521
 21
327.975109
 31
0.0
  0
LINE
  8
LC-001-002-----0
  6
CONTINUOUS
 62
     1
  5
1A9
 10
273.112181
 20
321.568288
 30
0.0
 11
273.95282
 21
321.343039
 31
0.0
  0
LINE
  8
LC-001-002-----0
  6
CONTINUOUS
 62
     1
  5
1AA
 10
271.268327
 20
314.815414
 30
0.0
 11
271.65812
 21
314.710969
 31
0.0
  0
LINE
  8
LC-001-002-----0
  6
CONTINUOUS
  5
1AB
 10
277.879088
 20
345.655267
 30
0.0
 11
274.128718
 21
356.796906
 31
0.0
  0
LINE
  8
LC-001-002-----0
  6
CONTINUOUS
 62
     1
  5
1AC
 10
310.628336
 20
367.420762
 30
0.0
 11
310.887156
 21
368.386688
 31
0.0
  0
LINE
  8
LC-001-002-----0
  6
CONTINUOUS
 62
     1
  5
1AD
 10
310.887156
 20
368.386688
 30
0.0
 11
311.853081
 21
368.127868
 31
0.0
  0
LINE
  8
LC-001-002-----0
  6
CONTINUOUS
 62
     1
  5
1AE
 10
311.853081
 20
368.127868
 30
0.0
 11
311.076622
 21
365.230091
 31
0.0
  0
LINE
  8
LC-001-002-----0
  6
CONTINUOUS
 62
     1
  5
1AF
 10
311.076622
 20
365.230091
 30
0.0
 11
310.110697
 21
365.488911
 31
0.0
  0
ARC
  8
LC-001-002-----0
  6
CONTINUOUS
 62
     1
  5
1B0
 10
296.328918
 20
368.14646
 30
0.0
 40
3.0
 50
74.999963
 51
164.999963
  0
LINE
  8
LC-001-002-----0
  6
CONTINUOUS
 62
     1
  5
1B1
 10
297.105377
 20
371.044237
 30
0.0
 11
310.628336
 21
367.420762
 31
0.0
  0
LINE
  8
LC-001-002-----0
  6
CONTINUOUS
 62
     1
  5
1B2
 10
294.23298
 20
366.119876
 30
0.0
 11
294.880029
 21
368.53469
 31
0.0
  0
ARC
  8
LC-001-002-----0
  6
CONTINUOUS
 62
     1
  5
1B3
 10
295.845955
 20
368.27587
 30
0.0
 40
1.0
 50
74.999963
 51
164.999963
  0
LINE
  8
LC-001-002-----0
  6
CONTINUOUS
 62
     1
  5
1B4
 10
296.104775
 20
369.241796
 30
0.0
 11
310.110697
 21
365.488911
 31
0.0
  0
LINE
  8
LC-001-002-----0
  6
CONTINUOUS
 62
     1
  5
1B5
 10
287.401379
 20
334.819383
 30
0.0
 11
300.924358
 21
331.195979
 31
0.0
  0
LINE
  8
LC-001-002-----0
  6
CONTINUOUS
 62
     1
  5
1B6
 10
300.924358
 20
331.195979
 30
0.0
 11
300.665543
 21
330.230052
 31
0.0
  0
LINE
  8
LC-001-002-----0
  6
CONTINUOUS
 62
     1
  5
1B7
 10
300.665543
 20
330.230052
 30
0.0
 11
301.63147
 21
329.971238
 31
0.0
  0
LINE
  8
LC-001-002-----0
  6
CONTINUOUS
 62
     1
  5
1B8
 10
301.63147
 20
329.971238
 30
0.0
 11
302.407914
 21
332.869019
 31
0.0
  0
LINE
  8
LC-001-002-----0
  6
CONTINUOUS
 62
     1
  5
1B9
 10
287.436045
 20
336.880644
 30
0.0
 11
301.441987
 21
333.127833
 31
0.0
  0
LINE
  8
LC-001-002-----0
  6
CONTINUOUS
 62
     1
  5
1BA
 10
302.407914
 20
332.869019
 30
0.0
 11
301.441987
 21
333.127833
 31
0.0
  0
ARC
  8
LC-001-002-----0
  6
CONTINUOUS
 62
     1
  5
1BB
 10
288.177823
 20
337.717164
 30
0.0
 40
3.0
 50
165.000267
 51
255.000229
  0
LINE
  8
LC-001-002-----0
  6
CONTINUOUS
 62
     1
  5
1BC
 10
287.375969
 20
340.520203
 30
0.0
 11
286.728933
 21
338.105386
 31
0.0
  0
ARC
  8
LC-001-002-----0
  6
CONTINUOUS
 62
     1
  5
1BD
 10
287.69486
 20
337.846571
 30
0.0
 40
1.0
 50
165.000267
 51
255.000229
  0
LINE
  8
LC-001-002-----0
  6
CONTINUOUS
 62
     1
  5
1BE
 10
314.392657
 20
364.082741
 30
0.0
 11
298.937847
 21
368.223856
 31
0.0
  0
LINE
  8
LC-001-002-----0
  6
CONTINUOUS
 62
     1
  5
1BF
 10
296.617766
 20
367.292606
 30
0.0
 11
288.853175
 21
338.314837
 31
0.0
  0
LINE
  8
LC-001-002-----0
  6
CONTINUOUS
 62
     1
  5
1C0
 10
293.172321
 20
367.956994
 30
0.0
 11
293.431141
 21
368.922919
 31
0.0
  0
ARC
  8
LC-001-002-----0
  6
CONTINUOUS
 62
     1
  5
1C1
 10
294.62121
 20
367.568764
 30
0.0
 40
1.5
 50
164.999963
 51
254.999811
  0
LINE
  8
LC-001-002-----0
  6
CONTINUOUS
 62
     1
  5
1C2
 10
294.23298
 20
366.119876
 30
0.0
 11
294.23298
 21
366.119876
 31
0.0
  0
LINE
  8
LC-001-002-----0
  6
CONTINUOUS
 62
     1
  5
1C3
 10
285.538857
 20
339.459535
 30
0.0
 11
285.280042
 21
338.493608
 31
0.0
  0
ARC
  8
LC-001-002-----0
  6
CONTINUOUS
 62
     1
  5
1C4
 10
286.987747
 20
339.071313
 30
0.0
 40
1.5
 50
75.000267
 51
165.000267
  0
LINE
  8
LC-001-002-----0
  6
CONTINUOUS
 62
     1
  5
1C5
 10
287.375969
 20
340.520203
 30
0.0
 11
287.375969
 21
340.520203
 31
0.0
  0
ENDSEC
  0
EOF
