  0
SECTION
  2
HEADER
  9
$ACADVER
  1
AC1009
  9
$INSBASE
 10
0.0
 20
0.0
 30
0.0
  9
$EXTMIN
 10
0.0
 20
0.0
 30
0.0
  9
$EXTMAX
 10
840.0
 20
594.0
 30
0.0
  9
$LIMMIN
 10
0.0
 20
0.0
  9
$LIMMAX
 10
840.0
 20
594.0
  9
$ORTHOMODE
 70
     0
  9
$REGENMODE
 70
     1
  9
$FILLMODE
 70
     1
  9
$QTEXTMODE
 70
     0
  9
$MIRRTEXT
 70
     1
  9
$DRAGMODE
 70
     2
  9
$LTSCALE
 40
2.0
  9
$OSMODE
 70
     0
  9
$ATTMODE
 70
     1
  9
$TEXTSIZE
 40
0.2
  9
$TRACEWID
 40
0.05
  9
$TEXTSTYLE
  7
STANDARD
  9
$CLAYER
  8
0
  9
$CELTYPE
  6
BYLAYER
  9
$CECOLOR
 62
     7
  9
$DIMSCALE
 40
2.0
  9
$DIMASZ
 40
3.5
  9
$DIMEXO
 40
0.0625
  9
$DIMDLI
 40
0.38
  9
$DIMRND
 40
0.0
  9
$DIMDLE
 40
0.0
  9
$DIMEXE
 40
0.18
  9
$DIMTP
 40
0.0
  9
$DIMTM
 40
0.0
  9
$DIMTXT
 40
3.5
  9
$DIMCEN
 40
0.09
  9
$DIMTSZ
 40
0.0
  9
$DIMTOL
 70
     0
  9
$DIMLIM
 70
     0
  9
$DIMTIH
 70
     1
  9
$DIMTOH
 70
     1
  9
$DIMSE1
 70
     0
  9
$DIMSE2
 70
     0
  9
$DIMTAD
 70
     1
  9
$DIMZIN
 70
     0
  9
$DIMBLK
  1

  9
$DIMASO
 70
     1
  9
$DIMSHO
 70
     1
  9
$DIMPOST
  1

  9
$DIMAPOST
  1

  9
$DIMALT
 70
     0
  9
$DIMALTD
 70
     2
  9
$DIMALTF
 40
25.4
  9
$DIMLFAC
 40
1.0
  9
$DIMTOFL
 70
     0
  9
$DIMTVP
 40
0.0
  9
$DIMTIX
 70
     0
  9
$DIMSOXD
 70
     0
  9
$DIMSAH
 70
     0
  9
$DIMBLK1
  1

  9
$DIMBLK2
  1

  9
$DIMSTYLE
  2
STANDARD
  9
$DIMCLRD
 70
     0
  9
$DIMCLRE
 70
     0
  9
$DIMCLRT
 70
     0
  9
$DIMTFAC
 40
1.0
  9
$DIMGAP
 40
0.09
  9
$LUNITS
 70
     2
  9
$LUPREC
 70
     2
  9
$AXISMODE
 70
     0
  9
$AXISUNIT
 10
0.0
 20
0.0
  9
$SKETCHINC
 40
0.1
  9
$FILLETRAD
 40
0.0
  9
$AUNITS
 70
     0
  9
$AUPREC
 70
     0
  9
$MENU
  1
acad
  9
$ELEVATION
 40
0.0
  9
$PELEVATION
 40
0.0
  9
$THICKNESS
 40
0.0
  9
$LIMCHECK
 70
     0
  9
$BLIPMODE
 70
     1
  9
$CHAMFERA
 40
0.0
  9
$CHAMFERB
 40
0.0
  9
$SKPOLY
 70
     0
  9
$TDCREATE
 40
0.000000000
  9
$TDUPDATE
 40
0.000000000
  9
$TDINDWG
 40
0.0000000000
  9
$TDUSRTIMER
 40
0.0000000000
  9
$USRTIMER
 70
     1
  9
$ANGBASE
 50
0.0
  9
$ANGDIR
 70
     0
  9
$PDMODE
 70
     0
  9
$PDSIZE
 40
0.0
  9
$PLINEWID
 40
0.0
  9
$COORDS
 70
     0
  9
$SPLFRAME
 70
     0
  9
$SPLINETYPE
 70
     6
  9
$SPLINESEGS
 70
     8
  9
$ATTDIA
 70
     0
  9
$ATTREQ
 70
     1
  9
$HANDLING
 70
     1
  9
$HANDSEED
  5
124
  9
$SURFTAB1
 70
     6
  9
$SURFTAB2
 70
     6
  9
$SURFTYPE
 70
     6
  9
$SURFU
 70
     6
  9
$SURFV
 70
     6
  9
$UCSNAME
  2

  9
$UCSORG
 10
0.0
 20
0.0
 30
0.0
  9
$UCSXDIR
 10
1.0
 20
0.0
 30
0.0
  9
$UCSYDIR
 10
0.0
 20
1.0
 30
0.0
  9
$PUCSNAME
  2

  9
$PUCSORG
 10
0.0
 20
0.0
 30
0.0
  9
$PUCSXDIR
 10
1.0
 20
0.0
 30
0.0
  9
$PUCSYDIR
 10
0.0
 20
1.0
 30
0.0
  9
$USERI1
 70
     0
  9
$USERI2
 70
     0
  9
$USERI3
 70
     0
  9
$USERI4
 70
     0
  9
$USERI5
 70
     0
  9
$USERR1
 40
0.0
  9
$USERR2
 40
0.0
  9
$USERR3
 40
0.0
  9
$USERR4
 40
0.0
  9
$USERR5
 40
0.0
  9
$WORLDVIEW
 70
     1
  9
$SHADEDGE
 70
     3
  9
$SHADEDIF
 70
    70
  9
$TILEMODE
 70
     1
  9
$MAXACTVP
 70
    16
  9
$PINSBASE
 10
0.0
 20
0.0
 30
0.0
  9
$PLIMCHECK
 70
     0
  9
$PEXTMIN
 10
1.000000E+20
 20
1.000000E+20
 30
1.000000E+20
  9
$PEXTMAX
 10
-1.000000E+20
 20
-1.000000E+20
 30
-1.000000E+20
  9
$PLIMMIN
 10
0.0
 20
0.0
  9
$PLIMMAX
 10
840.0
 20
594.0
  9
$UNITMODE
 70
     0
  9
$VISRETAIN
 70
     0
  9
$PLINEGEN
 70
     1
  9
$PSLTSCALE
 70
     0
  9
$TREEDEPTH
 70
  3020
  9
$DWGCODEPAGE
  3
dos850
  0
ENDSEC
  0
SECTION
  2
TABLES
  0
TABLE
  2
VPORT
 70
     1
  0
VPORT
  2
*ACTIVE
 70
     0
 10
0.0
 20
0.0
 11
1.0
 21
1.0
 12
420.0
 22
297.0
 13
0.0
 23
0.0
 14
1.0
 24
1.0
 15
0.0
 25
0.0
 16
0.0
 26
0.0
 36
1.0
 17
0.0
 27
0.0
 37
0.0
 40
594.0
 41
1.604229
 42
50.0
 43
0.0
 44
0.0
 50
0.0
 51
0.0
 71
     0
 72
   100
 73
     1
 74
     1
 75
     0
 76
     0
 77
     0
 78
     0
  0
ENDTAB
  0
TABLE
  2
LTYPE
 70
     2
  0
LTYPE
  2
CONTINUOUS
 70
    64
  3
Solid line
 72
    65
 73
     0
 40
0.0
  0
LTYPE
  2
DASHDOT
 70
    64
  3
__ . __ . __ . __ . __
 72
    65
 73
     4
 40
7.5
 49
5.0
 49
-1.25
 49
0.0
 49
-1.25
  0
ENDTAB
  0
TABLE
  2
LAYER
 70
     9
  0
LAYER
  2
0
 70
     0
 62
     7
  6
CONTINUOUS
  0
LAYER
  2
LC-INFO-1-2-MM-A3-0
 70
     1
 62
    -1
  6
CONTINUOUS
  0
LAYER
  2
LC-003-005-----0
 70
     0
 62
     2
  6
CONTINUOUS
  0
LAYER
  2
LC-005-003-MTH-0
 70
     0
 62
     2
  6
CONTINUOUS
  0
LAYER
  2
LC-006-003-MTG-0
 70
     0
 62
     2
  6
CONTINUOUS
  0
LAYER
  2
LC-004-003-----0
 70
     0
 62
     2
  6
CONTINUOUS
  0
LAYER
  2
LC-001-002-----0
 70
     0
 62
     2
  6
DASHDOT
  0
LAYER
  2
LC-002-002-RND-0
 70
     0
 62
     1
  6
CONTINUOUS
  0
LAYER
  2
LC-000
 70
     0
 62
     7
  6
CONTINUOUS
  0
ENDTAB
  0
TABLE
  2
STYLE
 70
     4
  0
STYLE
  2
STANDARD
 70
     0
 40
0.0
 41
1.0
 50
0.0
 71
     0
 42
0.0
  3
txt
  4

  0
STYLE
  2
LC-STANDARD
 70
    64
 40
0.0
 41
1.0
 50
0.0
 71
     0
 42
3.5
  3
MONOTXT
  4

  0
STYLE
  2
LC-TXTSTYLE-150-400-0-0-D2
 70
    64
 40
0.0
 41
1.0
 50
15.0
 71
     0
 42
3.5
  3
MONOTXT
  4

  0
STYLE
  2
LC-TXTSTYLE-150-400-0-0-D3
 70
    64
 40
0.0
 41
1.0
 50
15.0
 71
     0
 42
3.5
  3
LC-STANDARD
  4

  0
ENDTAB
  0
TABLE
  2
VIEW
 70
     0
  0
ENDTAB
  0
TABLE
  2
UCS
 70
     0
  0
ENDTAB
  0
TABLE
  2
APPID
 70
     1
  0
APPID
  2
ACAD
 70
     0
  0
ENDTAB
  0
TABLE
  2
DIMSTYLE
 70
     3
  0
DIMSTYLE
  2
STANDARD
 70
     0
  3

  4

  5

  6

  7

 40
1.0
 41
0.18
 42
0.0625
 43
0.38
 44
0.18
 45
0.0
 46
0.0
 47
0.0
 48
0.0
 71
     0
 72
     0
 73
     1
 74
     1
 75
     0
 76
     0
 77
     0
 78
     0
140
0.18
141
0.09
142
0.0
143
25.4
144
1.0
145
0.0
146
1.0
147
0.09
170
     0
171
     2
172
     0
173
     0
174
     0
175
     0
176
     0
177
     0
178
     0
  0
DIMSTYLE
  2
LC-STANDARD
 70
     0
  3

  4

  5

  6

  7

 40
1.0
 41
3.5
 42
0.0
 43
7.5
 44
1.8
 45
0.0
 46
0.0
 47
0.0
 48
0.0
 71
     0
 72
     0
 73
     0
 74
     0
 75
     0
 76
     0
 77
     1
 78
     8
140
3.5
141
0.0
142
0.0
143
25.4
144
1.0
145
0.0
146
0.71
147
1.5
170
     0
171
     2
172
     1
173
     0
174
     0
175
     0
176
     0
177
     0
178
     3
  0
DIMSTYLE
  2
LC-DIM-L-0090-02-02
 70
     0
  3

  4

  5

  6

  7

 40
2.0
 41
3.5
 42
0.0
 43
7.5
 44
1.8
 45
0.0
 46
0.0
 47
0.0
 48
0.0
 71
     0
 72
     0
 73
     0
 74
     0
 75
     0
 76
     0
 77
     1
 78
     8
140
9.0
141
0.0
142
0.0
143
25.4
144
1.0
145
0.0
146
0.71
147
1.5
170
     0
171
     2
172
     0
173
     0
174
     0
175
     0
176
     2
177
     2
178
     6
  0
ENDTAB
  0
ENDSEC
  0
SECTION
  2
BLOCKS
  0
BLOCK
  8
0
  5
23
  2
*X0
 70
    65
 10
317.636546
 20
199.584
 30
0.0
  3
*X0
  0
LINE
  8
LC-003-005-----0
  6
CONTINUOUS
  5
25
 10
319.257243
 20
200.463304
 30
0.0
 11
320.136546
 21
201.342607
 31
0.0
  0
LINE
  8
LC-003-005-----0
  6
CONTINUOUS
  5
26
 10
317.843029
 20
201.877517
 30
0.0
 11
320.136546
 21
204.171034
 31
0.0
  0
LINE
  8
LC-003-005-----0
  6
CONTINUOUS
  5
27
 10
317.636546
 20
204.499461
 30
0.0
 11
320.136546
 21
206.999461
 31
0.0
  0
LINE
  8
LC-003-005-----0
  6
CONTINUOUS
  5
28
 10
317.636546
 20
207.327889
 30
0.0
 11
320.136546
 21
209.827889
 31
0.0
  0
LINE
  8
LC-003-005-----0
  6
CONTINUOUS
  5
29
 10
317.636546
 20
210.156316
 30
0.0
 11
320.136546
 21
212.656316
 31
0.0
  0
LINE
  8
LC-003-005-----0
  6
CONTINUOUS
  5
2A
 10
317.636546
 20
212.984743
 30
0.0
 11
320.136546
 21
215.484743
 31
0.0
  0
LINE
  8
LC-003-005-----0
  6
CONTINUOUS
  5
2B
 10
317.636546
 20
215.81317
 30
0.0
 11
320.136546
 21
218.31317
 31
0.0
  0
LINE
  8
LC-003-005-----0
  6
CONTINUOUS
  5
2C
 10
317.636546
 20
218.641597
 30
0.0
 11
320.136546
 21
221.141597
 31
0.0
  0
LINE
  8
LC-003-005-----0
  6
CONTINUOUS
  5
2D
 10
317.636546
 20
221.470024
 30
0.0
 11
320.136546
 21
223.970024
 31
0.0
  0
LINE
  8
LC-003-005-----0
  6
CONTINUOUS
  5
2E
 10
317.636546
 20
224.298451
 30
0.0
 11
320.136546
 21
226.798451
 31
0.0
  0
LINE
  8
LC-003-005-----0
  6
CONTINUOUS
  5
2F
 10
317.636546
 20
227.126878
 30
0.0
 11
320.136546
 21
229.626878
 31
0.0
  0
LINE
  8
LC-003-005-----0
  6
CONTINUOUS
  5
30
 10
317.636546
 20
229.955306
 30
0.0
 11
320.136546
 21
232.455306
 31
0.0
  0
LINE
  8
LC-003-005-----0
  6
CONTINUOUS
  5
31
 10
317.636546
 20
232.783733
 30
0.0
 11
320.136546
 21
235.283733
 31
0.0
  0
LINE
  8
LC-003-005-----0
  6
CONTINUOUS
  5
32
 10
317.636546
 20
235.61216
 30
0.0
 11
320.136546
 21
238.11216
 31
0.0
  0
LINE
  8
LC-003-005-----0
  6
CONTINUOUS
  5
33
 10
317.636546
 20
238.440587
 30
0.0
 11
320.136546
 21
240.940587
 31
0.0
  0
LINE
  8
LC-003-005-----0
  6
CONTINUOUS
  5
34
 10
317.636546
 20
241.269014
 30
0.0
 11
320.136546
 21
243.769014
 31
0.0
  0
LINE
  8
LC-003-005-----0
  6
CONTINUOUS
  5
35
 10
317.636546
 20
244.097441
 30
0.0
 11
320.136546
 21
246.597441
 31
0.0
  0
LINE
  8
LC-003-005-----0
  6
CONTINUOUS
  5
36
 10
317.636546
 20
246.925868
 30
0.0
 11
320.136546
 21
249.425868
 31
0.0
  0
LINE
  8
LC-003-005-----0
  6
CONTINUOUS
  5
37
 10
317.636546
 20
249.754295
 30
0.0
 11
320.136546
 21
252.254295
 31
0.0
  0
LINE
  8
LC-003-005-----0
  6
CONTINUOUS
  5
38
 10
317.636546
 20
252.582723
 30
0.0
 11
320.136546
 21
255.082723
 31
0.0
  0
LINE
  8
LC-003-005-----0
  6
CONTINUOUS
  5
39
 10
317.636546
 20
255.41115
 30
0.0
 11
320.136546
 21
257.91115
 31
0.0
  0
LINE
  8
LC-003-005-----0
  6
CONTINUOUS
  5
3A
 10
317.636546
 20
258.239577
 30
0.0
 11
320.136546
 21
260.739577
 31
0.0
  0
LINE
  8
LC-003-005-----0
  6
CONTINUOUS
  5
3B
 10
317.636546
 20
261.068004
 30
0.0
 11
320.136546
 21
263.568004
 31
0.0
  0
LINE
  8
LC-003-005-----0
  6
CONTINUOUS
  5
3C
 10
317.636546
 20
263.896431
 30
0.0
 11
320.136546
 21
266.396431
 31
0.0
  0
LINE
  8
LC-003-005-----0
  6
CONTINUOUS
  5
3D
 10
317.636546
 20
266.724858
 30
0.0
 11
320.136546
 21
269.224858
 31
0.0
  0
LINE
  8
LC-003-005-----0
  6
CONTINUOUS
  5
3E
 10
317.636546
 20
269.553285
 30
0.0
 11
320.136546
 21
272.053285
 31
0.0
  0
LINE
  8
LC-003-005-----0
  6
CONTINUOUS
  5
3F
 10
317.636546
 20
272.381712
 30
0.0
 11
320.136546
 21
274.881712
 31
0.0
  0
LINE
  8
LC-003-005-----0
  6
CONTINUOUS
  5
40
 10
317.636546
 20
275.21014
 30
0.0
 11
320.136546
 21
277.71014
 31
0.0
  0
LINE
  8
LC-003-005-----0
  6
CONTINUOUS
  5
41
 10
317.636546
 20
278.038567
 30
0.0
 11
320.136546
 21
280.538567
 31
0.0
  0
LINE
  8
LC-003-005-----0
  6
CONTINUOUS
  5
42
 10
317.636546
 20
280.866994
 30
0.0
 11
320.136546
 21
283.366994
 31
0.0
  0
LINE
  8
LC-003-005-----0
  6
CONTINUOUS
  5
43
 10
317.636546
 20
283.695421
 30
0.0
 11
320.136546
 21
286.195421
 31
0.0
  0
LINE
  8
LC-003-005-----0
  6
CONTINUOUS
  5
44
 10
317.636546
 20
286.523848
 30
0.0
 11
320.136546
 21
289.023848
 31
0.0
  0
LINE
  8
LC-003-005-----0
  6
CONTINUOUS
  5
45
 10
317.636546
 20
289.352275
 30
0.0
 11
320.136546
 21
291.852275
 31
0.0
  0
LINE
  8
LC-003-005-----0
  6
CONTINUOUS
  5
46
 10
317.636546
 20
292.180702
 30
0.0
 11
320.136546
 21
294.680702
 31
0.0
  0
LINE
  8
LC-003-005-----0
  6
CONTINUOUS
  5
47
 10
317.636546
 20
295.009129
 30
0.0
 11
320.136546
 21
297.509129
 31
0.0
  0
LINE
  8
LC-003-005-----0
  6
CONTINUOUS
  5
48
 10
317.636546
 20
297.837557
 30
0.0
 11
320.136546
 21
300.337557
 31
0.0
  0
LINE
  8
LC-003-005-----0
  6
CONTINUOUS
  5
49
 10
317.636546
 20
300.665984
 30
0.0
 11
320.136546
 21
303.165984
 31
0.0
  0
LINE
  8
LC-003-005-----0
  6
CONTINUOUS
  5
4A
 10
317.636546
 20
303.494411
 30
0.0
 11
324.091657
 21
309.949522
 31
0.0
  0
LINE
  8
LC-003-005-----0
  6
CONTINUOUS
  5
4B
 10
320.517683
 20
309.203975
 30
0.0
 11
326.636546
 21
315.322838
 31
0.0
  0
LINE
  8
LC-003-005-----0
  6
CONTINUOUS
  5
4C
 10
324.136546
 20
315.651265
 30
0.0
 11
326.636546
 21
318.151265
 31
0.0
  0
LINE
  8
LC-003-005-----0
  6
CONTINUOUS
  5
4D
 10
323.136546
 20
317.479692
 30
0.0
 11
325.240854
 21
319.584
 31
0.0
  0
ENDBLK
  8
0
  5
4E
  0
BLOCK
  8
0
  5
50
  2
*X1
 70
    65
 10
358.636546
 20
199.584
 30
0.0
  3
*X1
  0
LINE
  8
LC-003-005-----0
  6
CONTINUOUS
  5
51
 10
365.136546
 20
201.087773
 30
0.0
 11
367.636546
 21
203.587773
 31
0.0
  0
LINE
  8
LC-003-005-----0
  6
CONTINUOUS
  5
52
 10
365.136546
 20
203.9162
 30
0.0
 11
367.636546
 21
206.4162
 31
0.0
  0
LINE
  8
LC-003-005-----0
  6
CONTINUOUS
  5
53
 10
365.136546
 20
206.744627
 30
0.0
 11
367.636546
 21
209.244627
 31
0.0
  0
LINE
  8
LC-003-005-----0
  6
CONTINUOUS
  5
54
 10
365.136546
 20
209.573055
 30
0.0
 11
367.636546
 21
212.073055
 31
0.0
  0
LINE
  8
LC-003-005-----0
  6
CONTINUOUS
  5
55
 10
365.136546
 20
212.401482
 30
0.0
 11
367.636546
 21
214.901482
 31
0.0
  0
LINE
  8
LC-003-005-----0
  6
CONTINUOUS
  5
56
 10
365.136546
 20
215.229909
 30
0.0
 11
367.636546
 21
217.729909
 31
0.0
  0
LINE
  8
LC-003-005-----0
  6
CONTINUOUS
  5
57
 10
365.136546
 20
218.058336
 30
0.0
 11
367.636546
 21
220.558336
 31
0.0
  0
LINE
  8
LC-003-005-----0
  6
CONTINUOUS
  5
58
 10
365.136546
 20
220.886763
 30
0.0
 11
367.636546
 21
223.386763
 31
0.0
  0
LINE
  8
LC-003-005-----0
  6
CONTINUOUS
  5
59
 10
365.136546
 20
223.71519
 30
0.0
 11
367.636546
 21
226.21519
 31
0.0
  0
LINE
  8
LC-003-005-----0
  6
CONTINUOUS
  5
5A
 10
365.136546
 20
226.543617
 30
0.0
 11
367.636546
 21
229.043617
 31
0.0
  0
LINE
  8
LC-003-005-----0
  6
CONTINUOUS
  5
5B
 10
365.136546
 20
229.372044
 30
0.0
 11
367.636546
 21
231.872044
 31
0.0
  0
LINE
  8
LC-003-005-----0
  6
CONTINUOUS
  5
5C
 10
365.136546
 20
232.200472
 30
0.0
 11
367.636546
 21
234.700472
 31
0.0
  0
LINE
  8
LC-003-005-----0
  6
CONTINUOUS
  5
5D
 10
365.136546
 20
235.028899
 30
0.0
 11
367.636546
 21
237.528899
 31
0.0
  0
LINE
  8
LC-003-005-----0
  6
CONTINUOUS
  5
5E
 10
365.136546
 20
237.857326
 30
0.0
 11
367.636546
 21
240.357326
 31
0.0
  0
LINE
  8
LC-003-005-----0
  6
CONTINUOUS
  5
5F
 10
365.136546
 20
240.685753
 30
0.0
 11
367.636546
 21
243.185753
 31
0.0
  0
LINE
  8
LC-003-005-----0
  6
CONTINUOUS
  5
60
 10
365.136546
 20
243.51418
 30
0.0
 11
367.636546
 21
246.01418
 31
0.0
  0
LINE
  8
LC-003-005-----0
  6
CONTINUOUS
  5
61
 10
365.136546
 20
246.342607
 30
0.0
 11
367.636546
 21
248.842607
 31
0.0
  0
LINE
  8
LC-003-005-----0
  6
CONTINUOUS
  5
62
 10
365.136546
 20
249.171034
 30
0.0
 11
367.636546
 21
251.671034
 31
0.0
  0
LINE
  8
LC-003-005-----0
  6
CONTINUOUS
  5
63
 10
365.136546
 20
251.999461
 30
0.0
 11
367.636546
 21
254.499461
 31
0.0
  0
LINE
  8
LC-003-005-----0
  6
CONTINUOUS
  5
64
 10
365.136546
 20
254.827889
 30
0.0
 11
367.636546
 21
257.327889
 31
0.0
  0
LINE
  8
LC-003-005-----0
  6
CONTINUOUS
  5
65
 10
365.136546
 20
257.656316
 30
0.0
 11
367.636546
 21
260.156316
 31
0.0
  0
LINE
  8
LC-003-005-----0
  6
CONTINUOUS
  5
66
 10
365.136546
 20
260.484743
 30
0.0
 11
367.636546
 21
262.984743
 31
0.0
  0
LINE
  8
LC-003-005-----0
  6
CONTINUOUS
  5
67
 10
365.136546
 20
263.31317
 30
0.0
 11
367.636546
 21
265.81317
 31
0.0
  0
LINE
  8
LC-003-005-----0
  6
CONTINUOUS
  5
68
 10
365.136546
 20
266.141597
 30
0.0
 11
367.636546
 21
268.641597
 31
0.0
  0
LINE
  8
LC-003-005-----0
  6
CONTINUOUS
  5
69
 10
365.136546
 20
268.970024
 30
0.0
 11
367.636546
 21
271.470024
 31
0.0
  0
LINE
  8
LC-003-005-----0
  6
CONTINUOUS
  5
6A
 10
365.136546
 20
271.798451
 30
0.0
 11
367.636546
 21
274.298451
 31
0.0
  0
LINE
  8
LC-003-005-----0
  6
CONTINUOUS
  5
6B
 10
365.136546
 20
274.626878
 30
0.0
 11
367.636546
 21
277.126878
 31
0.0
  0
LINE
  8
LC-003-005-----0
  6
CONTINUOUS
  5
6C
 10
365.136546
 20
277.455306
 30
0.0
 11
367.636546
 21
279.955306
 31
0.0
  0
LINE
  8
LC-003-005-----0
  6
CONTINUOUS
  5
6D
 10
365.136546
 20
280.283733
 30
0.0
 11
367.636546
 21
282.783733
 31
0.0
  0
LINE
  8
LC-003-005-----0
  6
CONTINUOUS
  5
6E
 10
365.136546
 20
283.11216
 30
0.0
 11
367.636546
 21
285.61216
 31
0.0
  0
LINE
  8
LC-003-005-----0
  6
CONTINUOUS
  5
6F
 10
365.136546
 20
285.940587
 30
0.0
 11
367.636546
 21
288.440587
 31
0.0
  0
LINE
  8
LC-003-005-----0
  6
CONTINUOUS
  5
70
 10
365.136546
 20
288.769014
 30
0.0
 11
367.636546
 21
291.269014
 31
0.0
  0
LINE
  8
LC-003-005-----0
  6
CONTINUOUS
  5
71
 10
365.136546
 20
291.597441
 30
0.0
 11
367.636546
 21
294.097441
 31
0.0
  0
LINE
  8
LC-003-005-----0
  6
CONTINUOUS
  5
72
 10
365.136546
 20
294.425868
 30
0.0
 11
367.636546
 21
296.925868
 31
0.0
  0
LINE
  8
LC-003-005-----0
  6
CONTINUOUS
  5
73
 10
365.136546
 20
297.254295
 30
0.0
 11
367.636546
 21
299.754295
 31
0.0
  0
LINE
  8
LC-003-005-----0
  6
CONTINUOUS
  5
74
 10
365.136546
 20
300.082723
 30
0.0
 11
367.636546
 21
302.582723
 31
0.0
  0
LINE
  8
LC-003-005-----0
  6
CONTINUOUS
  5
75
 10
365.136546
 20
302.91115
 30
0.0
 11
367.503991
 21
305.278594
 31
0.0
  0
LINE
  8
LC-003-005-----0
  6
CONTINUOUS
  5
76
 10
364.544104
 20
305.147134
 30
0.0
 11
366.339141
 21
306.942172
 31
0.0
  0
LINE
  8
LC-003-005-----0
  6
CONTINUOUS
  5
77
 10
363.379254
 20
306.810712
 30
0.0
 11
365.174292
 21
308.605749
 31
0.0
  0
LINE
  8
LC-003-005-----0
  6
CONTINUOUS
  5
78
 10
362.214404
 20
308.474289
 30
0.0
 11
364.009442
 21
310.269327
 31
0.0
  0
LINE
  8
LC-003-005-----0
  6
CONTINUOUS
  5
79
 10
361.049555
 20
310.137867
 30
0.0
 11
362.844593
 21
311.932904
 31
0.0
  0
LINE
  8
LC-003-005-----0
  6
CONTINUOUS
  5
7A
 10
359.884705
 20
311.801444
 30
0.0
 11
361.679743
 21
313.596482
 31
0.0
  0
LINE
  8
LC-003-005-----0
  6
CONTINUOUS
  5
7B
 10
358.719856
 20
313.465022
 30
0.0
 11
361.136546
 21
315.881712
 31
0.0
  0
LINE
  8
LC-003-005-----0
  6
CONTINUOUS
  5
7C
 10
358.636546
 20
316.21014
 30
0.0
 11
361.63226
 21
319.205853
 31
0.0
  0
LINE
  8
LC-003-005-----0
  6
CONTINUOUS
  5
7D
 10
358.636546
 20
319.038567
 30
0.0
 11
359.18198
 21
319.584
 31
0.0
  0
ENDBLK
  8
0
  5
7E
  0
BLOCK
  8
0
  5
80
  2
*D2
 70
    65
 10
0.0
 20
0.0
 30
0.0
  3
*D2
  0
LINE
  8
LC-005-003-MTH-0
  6
CONTINUOUS
  5
82
 10
365.136546
 20
199.584
 30
0.0
 11
430.8
 21
199.584
 31
0.0
  0
LINE
  8
LC-005-003-MTH-0
  6
CONTINUOUS
  5
83
 10
366.636546
 20
331.872247
 30
0.0
 11
430.8
 21
331.872247
 31
0.0
  0
LINE
  8
LC-006-003-MTG-0
  6
CONTINUOUS
  5
85
 10
420.0
 20
199.584
 30
0.0
 11
420.0
 21
331.872247
 31
0.0
  0
LINE
  8
LC-004-003-----0
  6
CONTINUOUS
  5
87
 10
417.650529
 20
217.430008
 30
0.0
 11
420.0
 21
199.584
 31
0.0
  0
LINE
  8
LC-004-003-----0
  6
CONTINUOUS
  5
88
 10
420.0
 20
199.584
 30
0.0
 11
422.349471
 21
217.430008
 31
0.0
  0
LINE
  8
LC-004-003-----0
  6
CONTINUOUS
  5
89
 10
422.349471
 20
217.430008
 30
0.0
 11
417.650529
 21
217.430008
 31
0.0
  0
LINE
  8
LC-004-003-----0
  6
CONTINUOUS
  5
8A
 10
418.261391
 20
217.470046
 30
0.0
 11
420.0
 21
204.264
 31
0.0
  0
LINE
  8
LC-004-003-----0
  6
CONTINUOUS
  5
8B
 10
420.0
 20
204.264
 30
0.0
 11
421.738609
 21
217.470046
 31
0.0
  0
LINE
  8
LC-004-003-----0
  6
CONTINUOUS
  5
8C
 10
418.872254
 20
217.510084
 30
0.0
 11
420.0
 21
208.944
 31
0.0
  0
LINE
  8
LC-004-003-----0
  6
CONTINUOUS
  5
8D
 10
420.0
 20
208.944
 30
0.0
 11
421.127746
 21
217.510084
 31
0.0
  0
LINE
  8
LC-004-003-----0
  6
CONTINUOUS
  5
8E
 10
419.483116
 20
217.550122
 30
0.0
 11
420.0
 21
213.624
 31
0.0
  0
LINE
  8
LC-004-003-----0
  6
CONTINUOUS
  5
8F
 10
420.0
 20
213.624
 30
0.0
 11
420.516884
 21
217.550122
 31
0.0
  0
LINE
  8
LC-004-003-----0
  6
CONTINUOUS
  5
90
 10
422.349471
 20
314.026239
 30
0.0
 11
420.0
 21
331.872247
 31
0.0
  0
LINE
  8
LC-004-003-----0
  6
CONTINUOUS
  5
91
 10
420.0
 20
331.872247
 30
0.0
 11
417.650529
 21
314.026239
 31
0.0
  0
LINE
  8
LC-004-003-----0
  6
CONTINUOUS
  5
92
 10
417.650529
 20
314.026239
 30
0.0
 11
422.349471
 21
314.026239
 31
0.0
  0
LINE
  8
LC-004-003-----0
  6
CONTINUOUS
  5
93
 10
421.738609
 20
313.986201
 30
0.0
 11
420.0
 21
327.192247
 31
0.0
  0
LINE
  8
LC-004-003-----0
  6
CONTINUOUS
  5
94
 10
420.0
 20
327.192247
 30
0.0
 11
418.261391
 21
313.986201
 31
0.0
  0
LINE
  8
LC-004-003-----0
  6
CONTINUOUS
  5
95
 10
421.127746
 20
313.946163
 30
0.0
 11
420.0
 21
322.512247
 31
0.0
  0
LINE
  8
LC-004-003-----0
  6
CONTINUOUS
  5
96
 10
420.0
 20
322.512247
 30
0.0
 11
418.872254
 21
313.946163
 31
0.0
  0
LINE
  8
LC-004-003-----0
  6
CONTINUOUS
  5
97
 10
420.516884
 20
313.906125
 30
0.0
 11
420.0
 21
317.832247
 31
0.0
  0
LINE
  8
LC-004-003-----0
  6
CONTINUOUS
  5
98
 10
420.0
 20
317.832247
 30
0.0
 11
419.483116
 21
313.906125
 31
0.0
  0
TEXT
  8
LC-004-003-----0
  6
CONTINUOUS
 62
     6
  5
9A
 10
409.568001
 20
249.389511
 30
0.0
 40
18.0
  1
130
 50
90.0
 41
0.9
 51
15.0
  7
LC-TXTSTYLE-150-400-0-0-D0
 72
     1
 11
409.568001
 21
268.523369
 31
0.0
  0
ENDBLK
  8
0
  5
9B
  0
BLOCK
  8
0
  5
9D
  2
*X3
 70
    65
 10
318.636546
 20
314.372247
 30
0.0
  3
*X3
  0
LINE
  8
LC-003-005-----0
  6
CONTINUOUS
  5
9E
 10
321.886546
 20
331.480119
 30
0.0
 11
321.494419
 21
331.872247
 31
0.0
  0
LINE
  8
LC-003-005-----0
  6
CONTINUOUS
  5
9F
 10
321.886546
 20
328.651692
 30
0.0
 11
318.665992
 21
331.872247
 31
0.0
  0
LINE
  8
LC-003-005-----0
  6
CONTINUOUS
  5
A0
 10
321.886546
 20
325.823265
 30
0.0
 11
320.136546
 21
327.573265
 31
0.0
  0
LINE
  8
LC-003-005-----0
  6
CONTINUOUS
  5
A1
 10
321.886546
 20
322.994838
 30
0.0
 11
320.136546
 21
324.744838
 31
0.0
  0
LINE
  8
LC-003-005-----0
  6
CONTINUOUS
  5
A2
 10
321.886546
 20
320.166411
 30
0.0
 11
320.136546
 21
321.916411
 31
0.0
  0
LINE
  8
LC-003-005-----0
  6
CONTINUOUS
  5
A3
 10
323.787656
 20
315.436874
 30
0.0
 11
323.102283
 21
316.122247
 31
0.0
  0
LINE
  8
LC-003-005-----0
  6
CONTINUOUS
  5
A4
 10
321.886546
 20
317.337984
 30
0.0
 11
320.136546
 21
319.087984
 31
0.0
  0
LINE
  8
LC-003-005-----0
  6
CONTINUOUS
  5
A5
 10
322.020486
 20
314.375617
 30
0.0
 11
320.139917
 21
316.256186
 31
0.0
  0
ENDBLK
  8
0
  5
A6
  0
BLOCK
  8
0
  5
A8
  2
*X4
 70
    65
 10
323.636546
 20
320.084
 30
0.0
  3
*X4
  0
LINE
  8
LC-003-005-----0
  6
CONTINUOUS
  5
A9
 10
327.636546
 20
321.487479
 30
0.0
 11
327.040025
 21
322.084
 31
0.0
  0
LINE
  8
LC-003-005-----0
  6
CONTINUOUS
  5
AA
 10
327.625812
 20
320.084
 30
0.0
 11
325.625812
 21
322.084
 31
0.0
  0
LINE
  8
LC-003-005-----0
  6
CONTINUOUS
  5
AB
 10
326.211598
 20
320.084
 30
0.0
 11
324.211598
 21
322.084
 31
0.0
  0
LINE
  8
LC-003-005-----0
  6
CONTINUOUS
  5
AC
 10
324.797384
 20
320.084
 30
0.0
 11
323.636546
 21
321.244838
 31
0.0
  0
ENDBLK
  8
0
  5
AD
  0
BLOCK
  8
0
  5
AF
  2
*X5
 70
    65
 10
357.636546
 20
320.084
 30
0.0
  3
*X5
  0
LINE
  8
LC-003-005-----0
  6
CONTINUOUS
  5
B0
 10
361.636546
 20
321.428604
 30
0.0
 11
360.981151
 21
322.084
 31
0.0
  0
LINE
  8
LC-003-005-----0
  6
CONTINUOUS
  5
B1
 10
361.566937
 20
320.084
 30
0.0
 11
359.566937
 21
322.084
 31
0.0
  0
LINE
  8
LC-003-005-----0
  6
CONTINUOUS
  5
B2
 10
360.152724
 20
320.084
 30
0.0
 11
358.152724
 21
322.084
 31
0.0
  0
LINE
  8
LC-003-005-----0
  6
CONTINUOUS
  5
B3
 10
358.73851
 20
320.084
 30
0.0
 11
357.636546
 21
321.185964
 31
0.0
  0
ENDBLK
  8
0
  5
B4
  0
BLOCK
  8
0
  5
B6
  2
*X6
 70
    65
 10
361.136546
 20
314.372247
 30
0.0
  3
*X6
  0
LINE
  8
LC-003-005-----0
  6
CONTINUOUS
  5
B7
 10
365.420826
 20
330.372247
 30
0.0
 11
363.920826
 21
331.872247
 31
0.0
  0
LINE
  8
LC-003-005-----0
  6
CONTINUOUS
  5
B8
 10
365.136546
 20
327.828099
 30
0.0
 11
363.386546
 21
329.578099
 31
0.0
  0
LINE
  8
LC-003-005-----0
  6
CONTINUOUS
  5
B9
 10
365.136546
 20
324.999672
 30
0.0
 11
363.386546
 21
326.749672
 31
0.0
  0
LINE
  8
LC-003-005-----0
  6
CONTINUOUS
  5
BA
 10
365.136546
 20
322.171245
 30
0.0
 11
363.386546
 21
323.921245
 31
0.0
  0
LINE
  8
LC-003-005-----0
  6
CONTINUOUS
  5
BB
 10
365.136546
 20
319.342818
 30
0.0
 11
363.386546
 21
321.092818
 31
0.0
  0
LINE
  8
LC-003-005-----0
  6
CONTINUOUS
  5
BC
 10
365.136546
 20
316.514391
 30
0.0
 11
363.386546
 21
318.264391
 31
0.0
  0
LINE
  8
LC-003-005-----0
  6
CONTINUOUS
  5
BD
 10
364.165357
 20
314.657153
 30
0.0
 11
362.700263
 21
316.122247
 31
0.0
  0
ENDBLK
  8
0
  5
BE
  0
BLOCK
  8
0
  5
C0
  2
*D7
 70
    65
 10
0.0
 20
0.0
 30
0.0
  3
*D7
  0
LINE
  8
LC-005-003-MTH-0
  6
CONTINUOUS
  5
C1
 10
317.636546
 20
202.084
 30
0.0
 11
317.636546
 21
133.2
 31
0.0
  0
LINE
  8
LC-005-003-MTH-0
  6
CONTINUOUS
  5
C2
 10
367.636546
 20
202.084
 30
0.0
 11
367.636546
 21
133.2
 31
0.0
  0
LINE
  8
LC-004-003-----0
  6
CONTINUOUS
  5
C3
 10
299.790539
 20
141.650529
 30
0.0
 11
317.636546
 21
144.0
 31
0.0
  0
LINE
  8
LC-004-003-----0
  6
CONTINUOUS
  5
C4
 10
317.636546
 20
144.0
 30
0.0
 11
299.790539
 21
146.349471
 31
0.0
  0
LINE
  8
LC-004-003-----0
  6
CONTINUOUS
  5
C5
 10
299.790539
 20
146.349471
 30
0.0
 11
299.790539
 21
141.650529
 31
0.0
  0
LINE
  8
LC-004-003-----0
  6
CONTINUOUS
  5
C6
 10
299.750501
 20
142.261391
 30
0.0
 11
312.956546
 21
144.0
 31
0.0
  0
LINE
  8
LC-004-003-----0
  6
CONTINUOUS
  5
C7
 10
312.956546
 20
144.0
 30
0.0
 11
299.750501
 21
145.738609
 31
0.0
  0
LINE
  8
LC-004-003-----0
  6
CONTINUOUS
  5
C8
 10
299.710463
 20
142.872254
 30
0.0
 11
308.276546
 21
144.0
 31
0.0
  0
LINE
  8
LC-004-003-----0
  6
CONTINUOUS
  5
C9
 10
308.276546
 20
144.0
 30
0.0
 11
299.710463
 21
145.127746
 31
0.0
  0
LINE
  8
LC-004-003-----0
  6
CONTINUOUS
  5
CA
 10
299.670425
 20
143.483116
 30
0.0
 11
303.596546
 21
144.0
 31
0.0
  0
LINE
  8
LC-004-003-----0
  6
CONTINUOUS
  5
CB
 10
303.596546
 20
144.0
 30
0.0
 11
299.670425
 21
144.516884
 31
0.0
  0
LINE
  8
LC-004-003-----0
  6
CONTINUOUS
  5
CC
 10
385.482554
 20
146.349471
 30
0.0
 11
367.636546
 21
144.0
 31
0.0
  0
LINE
  8
LC-004-003-----0
  6
CONTINUOUS
  5
CD
 10
367.636546
 20
144.0
 30
0.0
 11
385.482554
 21
141.650529
 31
0.0
  0
LINE
  8
LC-004-003-----0
  6
CONTINUOUS
  5
CE
 10
385.482554
 20
141.650529
 30
0.0
 11
385.482554
 21
146.349471
 31
0.0
  0
LINE
  8
LC-004-003-----0
  6
CONTINUOUS
  5
CF
 10
385.522592
 20
145.738609
 30
0.0
 11
372.316546
 21
144.0
 31
0.0
  0
LINE
  8
LC-004-003-----0
  6
CONTINUOUS
  5
D0
 10
372.316546
 20
144.0
 30
0.0
 11
385.522592
 21
142.261391
 31
0.0
  0
LINE
  8
LC-004-003-----0
  6
CONTINUOUS
  5
D1
 10
385.56263
 20
145.127746
 30
0.0
 11
376.996546
 21
144.0
 31
0.0
  0
LINE
  8
LC-004-003-----0
  6
CONTINUOUS
  5
D2
 10
376.996546
 20
144.0
 30
0.0
 11
385.56263
 21
142.872254
 31
0.0
  0
LINE
  8
LC-004-003-----0
  6
CONTINUOUS
  5
D3
 10
385.602668
 20
144.516884
 30
0.0
 11
381.676546
 21
144.0
 31
0.0
  0
LINE
  8
LC-004-003-----0
  6
CONTINUOUS
  5
D4
 10
381.676546
 20
144.0
 30
0.0
 11
385.602668
 21
143.483116
 31
0.0
  0
LINE
  8
LC-006-003-MTG-0
  6
CONTINUOUS
  5
D5
 10
292.436546
 20
144.0
 30
0.0
 11
458.039066
 21
144.0
 31
0.0
  0
TEXT
  8
LC-004-003-----0
  6
CONTINUOUS
 62
     6
  5
D6
 10
394.911792
 20
154.431999
 30
0.0
 40
18.0
  1
DN50
 51
15.0
  7
LC-TXTSTYLE-150-400-0-0-D0
  0
ENDBLK
  8
0
  5
D7
  0
ENDSEC
  0
SECTION
  2
ENTITIES
  0
VIEWPORT
  8
LC-000
  5
120
 67
     1
 68
     1
 10
420.0
 20
297.0
 30
0.0
 40
840.0
 41
594.0
 69
     1
1001
ACAD
1000
MVIEW
1002
{
1070
    16
1010
0.0
1020
0.0
1030
0.0
1010
0.0
1020
0.0
1030
1.0
1040
0.0
1040
594.0
1040
420.0
1040
297.0
1040
50.0
1040
0.0
1040
0.0
1070
     0
1070
   100
1070
     1
1070
     1
1070
     0
1070
     0
1070
     0
1070
     0
1040
0.0
1040
0.0
1040
0.0
1040
1.0
1040
1.0
1040
0.0
1040
0.0
1070
     0
1002
{
1002
}
1002
}
  0
VIEWPORT
  8
0
  5
121
 67
     1
 68
     1
 10
0.0
 20
0.0
 30
0.0
 40
0.0
 41
0.0
 69
     1
1001
ACAD
1000
MVIEW
1002
{
1070
    16
1010
0.0
1020
0.0
1030
0.0
1010
0.0
1020
0.0
1030
1.0
1040
0.0
1040
594.0
1040
0.0
1040
0.0
1040
50.0
1040
0.0
1040
0.0
1070
     0
1070
   100
1070
     0
1070
     1
1070
     0
1070
     0
1070
     0
1070
     0
1040
0.0
1040
0.0
1040
0.0
1040
0.5
1040
0.5
1040
0.5
1040
0.5
1070
     0
1002
{
1002
}
1002
}
  0
INSERT
  8
0
  5
D8
  2
*X0
 10
317.636546
 20
199.584
 30
0.0
  0
INSERT
  8
0
  5
D9
  2
*X1
 10
358.636546
 20
199.584
 30
0.0
  0
DIMENSION
  8
0
  5
DA
  2
*D2
 10
420.0
 20
265.728123
 30
0.0
 11
420.0
 21
265.728123
 31
0.0
  1
130
 13
366.636546
 23
331.872247
 33
0.0
 14
365.136546
 24
199.584
 34
0.0
 50
90.0
  3
LC-DIM-L-0090-02-02
  0
INSERT
  8
0
  5
DB
  2
*X3
 10
318.636546
 20
314.372247
 30
0.0
  0
INSERT
  8
0
  5
DC
  2
*X4
 10
323.636546
 20
320.084
 30
0.0
  0
INSERT
  8
0
  5
DD
  2
*X5
 10
357.636546
 20
320.084
 30
0.0
  0
INSERT
  8
0
  5
DE
  2
*X6
 10
361.136546
 20
314.372247
 30
0.0
  0
DIMENSION
  8
0
  5
DF
  2
*D7
 10
388.163937
 20
144.0
 30
0.0
 11
388.163937
 21
144.0
 31
0.0
  1
DN50
 13
317.636546
 23
202.084
 33
0.0
 14
367.636546
 24
202.084
 34
0.0
  3
LC-DIM-L-0090-02-02
  0
LINE
  8
LC-001-002-----0
  5
E2
 10
342.636546
 20
331.872247
 30
0.0
 11
342.636546
 21
199.584
 31
0.0
  0
LINE
  8
LC-001-002-----0
  6
CONTINUOUS
 62
     1
  5
E3
 10
367.636546
 20
305.089285
 30
0.0
 11
367.636546
 21
202.084
 31
0.0
  0
LINE
  8
LC-001-002-----0
  6
CONTINUOUS
 62
     1
  5
E4
 10
317.636546
 20
305.089285
 30
0.0
 11
317.636546
 21
202.084
 31
0.0
  0
LINE
  8
LC-001-002-----0
  6
CONTINUOUS
 62
     1
  5
E5
 10
365.136546
 20
304.301038
 30
0.0
 11
365.136546
 21
199.584
 31
0.0
  0
LINE
  8
LC-001-002-----0
  6
CONTINUOUS
 62
     1
  5
E6
 10
320.136546
 20
304.301038
 30
0.0
 11
320.136546
 21
199.584
 31
0.0
  0
LINE
  8
LC-001-002-----0
  6
CONTINUOUS
 62
     1
  5
E7
 10
320.136546
 20
199.584
 30
0.0
 11
365.136546
 21
199.584
 31
0.0
  0
LINE
  8
LC-001-002-----0
  6
CONTINUOUS
 62
     1
  5
E8
 10
320.136546
 20
199.584
 30
0.0
 11
317.636546
 21
202.084
 31
0.0
  0
LINE
  8
LC-001-002-----0
  6
CONTINUOUS
 62
     1
  5
E9
 10
365.136546
 20
199.584
 30
0.0
 11
367.636546
 21
202.084
 31
0.0
  0
LINE
  8
LC-001-002-----0
  6
CONTINUOUS
 62
     1
  5
EA
 10
361.136546
 20
314.372247
 30
0.0
 11
367.636546
 21
305.089285
 31
0.0
  0
LINE
  8
LC-001-002-----0
  6
CONTINUOUS
 62
     1
  5
EB
 10
358.636546
 20
319.584
 30
0.0
 11
358.636546
 21
313.584
 31
0.0
  0
LINE
  8
LC-001-002-----0
  6
CONTINUOUS
 62
     1
  5
EC
 10
326.636546
 20
319.584
 30
0.0
 11
326.636546
 21
313.584
 31
0.0
  0
LINE
  8
LC-001-002-----0
  6
CONTINUOUS
 62
     1
  5
ED
 10
324.636546
 20
319.584
 30
0.0
 11
360.636546
 21
319.584
 31
0.0
  0
LINE
  8
LC-001-002-----0
  6
CONTINUOUS
 62
     1
  5
EE
 10
326.636546
 20
313.584
 30
0.0
 11
358.636546
 21
313.584
 31
0.0
  0
LINE
  8
LC-001-002-----0
  6
CONTINUOUS
 62
     1
  5
EF
 10
361.136546
 20
317.084
 30
0.0
 11
361.136546
 21
314.372247
 31
0.0
  0
LINE
  8
LC-001-002-----0
  6
CONTINUOUS
 62
     1
  5
F0
 10
326.636546
 20
313.584
 30
0.0
 11
320.136546
 21
304.301038
 31
0.0
  0
LINE
  8
LC-001-002-----0
  6
CONTINUOUS
 62
     1
  5
F1
 10
358.636546
 20
313.584
 30
0.0
 11
365.136546
 21
304.301038
 31
0.0
  0
LINE
  8
LC-001-002-----0
  6
CONTINUOUS
 62
     1
  5
F2
 10
324.136546
 20
314.372247
 30
0.0
 11
317.636546
 21
305.089285
 31
0.0
  0
LINE
  8
LC-001-002-----0
  6
CONTINUOUS
 62
     1
  5
F3
 10
324.136546
 20
317.084
 30
0.0
 11
324.136546
 21
314.372247
 31
0.0
  0
LINE
  8
LC-001-002-----0
  6
CONTINUOUS
 62
     1
  5
F4
 10
320.136546
 20
304.301038
 30
0.0
 11
365.136546
 21
304.301038
 31
0.0
  0
LINE
  8
LC-001-002-----0
  6
CONTINUOUS
 62
     1
  5
F5
 10
362.136546
 20
318.084
 30
0.0
 11
362.136546
 21
317.084
 31
0.0
  0
LINE
  8
LC-001-002-----0
  6
CONTINUOUS
 62
     1
  5
F6
 10
323.136546
 20
318.084
 30
0.0
 11
323.136546
 21
317.084
 31
0.0
  0
LINE
  8
LC-001-002-----0
  6
CONTINUOUS
 62
     1
  5
F7
 10
323.136546
 20
317.084
 30
0.0
 11
324.136546
 21
317.084
 31
0.0
  0
LINE
  8
LC-001-002-----0
  6
CONTINUOUS
 62
     1
  5
F8
 10
361.136546
 20
317.084
 30
0.0
 11
362.136546
 21
317.084
 31
0.0
  0
ARC
  8
LC-002-002-RND-0
  6
CONTINUOUS
  5
FA
 10
324.636546
 20
318.084
 30
0.0
 40
1.5
 50
90.0
 51
180.0
  0
ARC
  8
LC-002-002-RND-0
  6
CONTINUOUS
  5
FB
 10
360.636546
 20
318.084
 30
0.0
 40
1.5
 50
0.0
 51
90.0
  0
LINE
  8
LC-001-002-----0
  6
CONTINUOUS
 62
     1
  5
FC
 10
365.136546
 20
330.372247
 30
0.0
 11
365.136546
 21
316.372247
 31
0.0
  0
LINE
  8
LC-001-002-----0
  6
CONTINUOUS
 62
     1
  5
FD
 10
320.136546
 20
330.372247
 30
0.0
 11
320.136546
 21
316.372247
 31
0.0
  0
LINE
  8
LC-001-002-----0
  6
CONTINUOUS
 62
     1
  5
FE
 10
322.136546
 20
314.372247
 30
0.0
 11
322.35223
 21
314.372247
 31
0.0
  0
LINE
  8
LC-001-002-----0
  6
CONTINUOUS
 62
     1
  5
FF
 10
318.636546
 20
331.872247
 30
0.0
 11
366.636546
 21
331.872247
 31
0.0
  0
LINE
  8
LC-001-002-----0
  6
CONTINUOUS
 62
     1
  5
100
 10
318.636546
 20
330.372247
 30
0.0
 11
320.136546
 21
330.372247
 31
0.0
  0
LINE
  8
LC-001-002-----0
  6
CONTINUOUS
 62
     1
  5
101
 10
366.636546
 20
331.872247
 30
0.0
 11
366.636546
 21
330.372247
 31
0.0
  0
LINE
  8
LC-001-002-----0
  6
CONTINUOUS
 62
     1
  5
102
 10
318.636546
 20
331.872247
 30
0.0
 11
318.636546
 21
330.372247
 31
0.0
  0
LINE
  8
LC-001-002-----0
  6
CONTINUOUS
 62
     1
  5
103
 10
365.136546
 20
330.372247
 30
0.0
 11
366.636546
 21
330.372247
 31
0.0
  0
LINE
  8
LC-001-002-----0
  6
CONTINUOUS
 62
     1
  5
104
 10
323.136546
 20
330.622247
 30
0.0
 11
323.136546
 21
317.372247
 31
0.0
  0
LINE
  8
LC-001-002-----0
  6
CONTINUOUS
 62
     1
  5
105
 10
321.886546
 20
331.872247
 30
0.0
 11
321.886546
 21
316.122247
 31
0.0
  0
LINE
  8
LC-001-002-----0
  6
CONTINUOUS
 62
     1
  5
106
 10
321.886546
 20
316.122247
 30
0.0
 11
323.85223
 21
316.122247
 31
0.0
  0
LINE
  8
LC-001-002-----0
  6
CONTINUOUS
 62
     1
  5
107
 10
323.85223
 20
315.872247
 30
0.0
 11
323.85223
 21
316.122247
 31
0.0
  0
ARC
  8
LC-002-002-RND-0
  6
CONTINUOUS
  5
108
 10
322.136546
 20
316.372247
 30
0.0
 40
2.0
 50
180.0
 51
270.0
  0
ARC
  8
LC-002-002-RND-0
  6
CONTINUOUS
  5
109
 10
322.35223
 20
315.872247
 30
0.0
 40
1.5
 50
270.0
 51
0.0
  0
LINE
  8
LC-001-002-----0
  6
CONTINUOUS
 62
     1
  5
10A
 10
321.886546
 20
331.872247
 30
0.0
 11
323.136546
 21
330.622247
 31
0.0
  0
LINE
  8
LC-001-002-----0
  6
CONTINUOUS
 62
     1
  5
10B
 10
321.886546
 20
316.122247
 30
0.0
 11
323.136546
 21
317.372247
 31
0.0
  0
LINE
  8
LC-001-002-----0
  6
CONTINUOUS
 62
     1
  5
10C
 10
323.136546
 20
330.622247
 30
0.0
 11
342.636546
 21
330.622247
 31
0.0
  0
LINE
  8
LC-001-002-----0
  6
CONTINUOUS
 62
     1
  5
10D
 10
323.636546
 20
320.084
 30
0.0
 11
342.636546
 21
320.084
 31
0.0
  0
LINE
  8
LC-001-002-----0
  6
CONTINUOUS
 62
     1
  5
10E
 10
323.636546
 20
322.084
 30
0.0
 11
342.636546
 21
322.084
 31
0.0
  0
LINE
  8
LC-001-002-----0
  6
CONTINUOUS
 62
     1
  5
10F
 10
323.636546
 20
322.084
 30
0.0
 11
323.636546
 21
320.084
 31
0.0
  0
LINE
  8
LC-001-002-----0
  6
CONTINUOUS
 62
     1
  5
110
 10
327.636546
 20
322.084
 30
0.0
 11
327.636546
 21
320.084
 31
0.0
  0
LINE
  8
LC-001-002-----0
  6
CONTINUOUS
 62
     1
  5
111
 10
361.636546
 20
322.084
 30
0.0
 11
342.636546
 21
322.084
 31
0.0
  0
LINE
  8
LC-001-002-----0
  6
CONTINUOUS
 62
     1
  5
112
 10
361.636546
 20
320.084
 30
0.0
 11
342.636546
 21
320.084
 31
0.0
  0
LINE
  8
LC-001-002-----0
  6
CONTINUOUS
 62
     1
  5
113
 10
357.636546
 20
322.084
 30
0.0
 11
357.636546
 21
320.084
 31
0.0
  0
LINE
  8
LC-001-002-----0
  6
CONTINUOUS
 62
     1
  5
114
 10
361.636546
 20
322.084
 30
0.0
 11
361.636546
 21
320.084
 31
0.0
  0
ARC
  8
LC-002-002-RND-0
  6
CONTINUOUS
  5
115
 10
363.136546
 20
316.372247
 30
0.0
 40
2.0
 50
270.0
 51
0.0
  0
ARC
  8
LC-002-002-RND-0
  6
CONTINUOUS
  5
116
 10
362.920863
 20
315.872247
 30
0.0
 40
1.5
 50
180.0
 51
270.0
  0
LINE
  8
LC-001-002-----0
  6
CONTINUOUS
 62
     1
  5
117
 10
363.386546
 20
316.122247
 30
0.0
 11
361.420863
 21
316.122247
 31
0.0
  0
LINE
  8
LC-001-002-----0
  6
CONTINUOUS
 62
     1
  5
118
 10
363.386546
 20
331.872247
 30
0.0
 11
363.386546
 21
316.122247
 31
0.0
  0
LINE
  8
LC-001-002-----0
  6
CONTINUOUS
 62
     1
  5
119
 10
363.386546
 20
316.122247
 30
0.0
 11
362.136546
 21
317.372247
 31
0.0
  0
LINE
  8
LC-001-002-----0
  6
CONTINUOUS
 62
     1
  5
11A
 10
362.136546
 20
330.622247
 30
0.0
 11
362.136546
 21
317.372247
 31
0.0
  0
LINE
  8
LC-001-002-----0
  6
CONTINUOUS
 62
     1
  5
11B
 10
363.386546
 20
331.872247
 30
0.0
 11
362.136546
 21
330.622247
 31
0.0
  0
LINE
  8
LC-001-002-----0
  6
CONTINUOUS
 62
     1
  5
11C
 10
362.136546
 20
330.622247
 30
0.0
 11
342.636546
 21
330.622247
 31
0.0
  0
LINE
  8
LC-001-002-----0
  6
CONTINUOUS
 62
     1
  5
11D
 10
361.420863
 20
315.872247
 30
0.0
 11
361.420863
 21
316.122247
 31
0.0
  0
LINE
  8
LC-001-002-----0
  6
CONTINUOUS
 62
     1
  5
11E
 10
362.920863
 20
314.372247
 30
0.0
 11
363.136546
 21
314.372247
 31
0.0
  0
ENDSEC
  0
EOF
