  0
SECTION
  2
HEADER
  9
$ACADVER
  1
AC1015
  9
$ACADMAINTVER
 70
     6
  9
$DWGCODEPAGE
  3
ANSI_1252
  9
$INSBASE
 10
-109.159416
 20
89.664
 30
0.0
  9
$EXTMIN
 10
-358.167028
 20
-25.21535
 30
0.0
  9
$EXTMAX
 10
481.832972
 20
568.78465
 30
0.0
  9
$LIMMIN
 10
-358.167028
 20
-25.21535
  9
$LIMMAX
 10
481.832972
 20
568.78465
  9
$ORTHOMODE
 70
     0
  9
$REGENMODE
 70
     1
  9
$FILLMODE
 70
     1
  9
$QTEXTMODE
 70
     0
  9
$MIRRTEXT
 70
     1
  9
$LTSCALE
 40
2.0
  9
$ATTMODE
 70
     1
  9
$TEXTSIZE
 40
2.5
  9
$TRACEWID
 40
1.0
  9
$TEXTSTYLE
  7
Standard
  9
$CLAYER
  8
0
  9
$CELTYPE
  6
ByLayer
  9
$CECOLOR
 62
     7
  9
$CELTSCALE
 40
1.0
  9
$DISPSILH
 70
     0
  9
$DIMSCALE
 40
2.0
  9
$DIMASZ
 40
3.5
  9
$DIMEXO
 40
0.625
  9
$DIMDLI
 40
3.75
  9
$DIMRND
 40
0.0
  9
$DIMDLE
 40
0.0
  9
$DIMEXE
 40
1.25
  9
$DIMTP
 40
0.0
  9
$DIMTM
 40
0.0
  9
$DIMTXT
 40
3.5
  9
$DIMCEN
 40
2.5
  9
$DIMTSZ
 40
0.0
  9
$DIMTOL
 70
     0
  9
$DIMLIM
 70
     0
  9
$DIMTIH
 70
     0
  9
$DIMTOH
 70
     0
  9
$DIMSE1
 70
     0
  9
$DIMSE2
 70
     0
  9
$DIMTAD
 70
     1
  9
$DIMZIN
 70
     8
  9
$DIMBLK
  1

  9
$DIMASO
 70
     1
  9
$DIMSHO
 70
     1
  9
$DIMPOST
  1

  9
$DIMAPOST
  1

  9
$DIMALT
 70
     0
  9
$DIMALTD
 70
     3
  9
$DIMALTF
 40
0.03937
  9
$DIMLFAC
 40
1.0
  9
$DIMTOFL
 70
     1
  9
$DIMTVP
 40
0.0
  9
$DIMTIX
 70
     0
  9
$DIMSOXD
 70
     0
  9
$DIMSAH
 70
     0
  9
$DIMBLK1
  1

  9
$DIMBLK2
  1

  9
$DIMSTYLE
  2
ISO-25
  9
$DIMCLRD
 70
     0
  9
$DIMCLRE
 70
     0
  9
$DIMCLRT
 70
     0
  9
$DIMTFAC
 40
1.0
  9
$DIMGAP
 40
0.625
  9
$DIMJUST
 70
     0
  9
$DIMSD1
 70
     0
  9
$DIMSD2
 70
     0
  9
$DIMTOLJ
 70
     0
  9
$DIMTZIN
 70
     8
  9
$DIMALTZ
 70
     0
  9
$DIMALTTZ
 70
     0
  9
$DIMUPT
 70
     0
  9
$DIMDEC
 70
     2
  9
$DIMTDEC
 70
     2
  9
$DIMALTU
 70
     2
  9
$DIMALTTD
 70
     3
  9
$DIMTXSTY
  7
Standard
  9
$DIMAUNIT
 70
     0
  9
$DIMADEC
 70
     0
  9
$DIMALTRND
 40
0.0
  9
$DIMAZIN
 70
     0
  9
$DIMDSEP
 70
    44
  9
$DIMATFIT
 70
     3
  9
$DIMFRAC
 70
     0
  9
$DIMLDRBLK
  1

  9
$DIMLUNIT
 70
     2
  9
$DIMLWD
 70
    -2
  9
$DIMLWE
 70
    -2
  9
$DIMTMOVE
 70
     0
  9
$LUNITS
 70
     2
  9
$LUPREC
 70
     4
  9
$SKETCHINC
 40
1.0
  9
$FILLETRAD
 40
10.0
  9
$AUNITS
 70
     0
  9
$AUPREC
 70
     0
  9
$MENU
  1
.
  9
$ELEVATION
 40
0.0
  9
$PELEVATION
 40
0.0
  9
$THICKNESS
 40
0.0
  9
$LIMCHECK
 70
     0
  9
$CHAMFERA
 40
10.0
  9
$CHAMFERB
 40
10.0
  9
$CHAMFERC
 40
20.0
  9
$CHAMFERD
 40
0.0
  9
$SKPOLY
 70
     0
  9
$TDCREATE
 40
2456140.235748982
  9
$TDUCREATE
 40
2456140.152415648
  9
$TDUPDATE
 40
2456140.235748993
  9
$TDUUPDATE
 40
2456140.15241566
  9
$TDINDWG
 40
0.0000000116
  9
$TDUSRTIMER
 40
0.0000000116
  9
$USRTIMER
 70
     1
  9
$ANGBASE
 50
0.0
  9
$ANGDIR
 70
     0
  9
$PDMODE
 70
     0
  9
$PDSIZE
 40
0.0
  9
$PLINEWID
 40
0.0
  9
$SPLFRAME
 70
     0
  9
$SPLINETYPE
 70
     6
  9
$SPLINESEGS
 70
     8
  9
$HANDSEED
  5
293
  9
$SURFTAB1
 70
     6
  9
$SURFTAB2
 70
     6
  9
$SURFTYPE
 70
     6
  9
$SURFU
 70
     6
  9
$SURFV
 70
     6
  9
$UCSBASE
  2

  9
$UCSNAME
  2

  9
$UCSORG
 10
0.0
 20
0.0
 30
0.0
  9
$UCSXDIR
 10
1.0
 20
0.0
 30
0.0
  9
$UCSYDIR
 10
0.0
 20
1.0
 30
0.0
  9
$UCSORTHOREF
  2

  9
$UCSORTHOVIEW
 70
     0
  9
$UCSORGTOP
 10
0.0
 20
0.0
 30
0.0
  9
$UCSORGBOTTOM
 10
0.0
 20
0.0
 30
0.0
  9
$UCSORGLEFT
 10
0.0
 20
0.0
 30
0.0
  9
$UCSORGRIGHT
 10
0.0
 20
0.0
 30
0.0
  9
$UCSORGFRONT
 10
0.0
 20
0.0
 30
0.0
  9
$UCSORGBACK
 10
0.0
 20
0.0
 30
0.0
  9
$PUCSBASE
  2

  9
$PUCSNAME
  2

  9
$PUCSORG
 10
0.0
 20
0.0
 30
0.0
  9
$PUCSXDIR
 10
1.0
 20
0.0
 30
0.0
  9
$PUCSYDIR
 10
0.0
 20
1.0
 30
0.0
  9
$PUCSORTHOREF
  2

  9
$PUCSORTHOVIEW
 70
     0
  9
$PUCSORGTOP
 10
0.0
 20
0.0
 30
0.0
  9
$PUCSORGBOTTOM
 10
0.0
 20
0.0
 30
0.0
  9
$PUCSORGLEFT
 10
0.0
 20
0.0
 30
0.0
  9
$PUCSORGRIGHT
 10
0.0
 20
0.0
 30
0.0
  9
$PUCSORGFRONT
 10
0.0
 20
0.0
 30
0.0
  9
$PUCSORGBACK
 10
0.0
 20
0.0
 30
0.0
  9
$USERI1
 70
     0
  9
$USERI2
 70
     0
  9
$USERI3
 70
     0
  9
$USERI4
 70
     0
  9
$USERI5
 70
     0
  9
$USERR1
 40
0.0
  9
$USERR2
 40
0.0
  9
$USERR3
 40
0.0
  9
$USERR4
 40
0.0
  9
$USERR5
 40
0.0
  9
$WORLDVIEW
 70
     1
  9
$SHADEDGE
 70
     3
  9
$SHADEDIF
 70
    70
  9
$TILEMODE
 70
     1
  9
$MAXACTVP
 70
    64
  9
$PINSBASE
 10
0.0
 20
0.0
 30
0.0
  9
$PLIMCHECK
 70
     0
  9
$PEXTMIN
 10
-358.167028
 20
-25.21535
 30
0.0
  9
$PEXTMAX
 10
481.832972
 20
568.78465
 30
0.0
  9
$PLIMMIN
 10
-358.167028
 20
-25.21535
  9
$PLIMMAX
 10
481.832972
 20
568.78465
  9
$UNITMODE
 70
     0
  9
$VISRETAIN
 70
     1
  9
$PLINEGEN
 70
     0
  9
$PSLTSCALE
 70
     1
  9
$TREEDEPTH
 70
  3020
  9
$CMLSTYLE
  2
Standard
  9
$CMLJUST
 70
     0
  9
$CMLSCALE
 40
20.0
  9
$PROXYGRAPHICS
 70
     1
  9
$MEASUREMENT
 70
     1
  9
$CELWEIGHT
370
    -1
  9
$ENDCAPS
280
     0
  9
$JOINSTYLE
280
     0
  9
$LWDISPLAY
290
     0
  9
$INSUNITS
 70
     4
  9
$HYPERLINKBASE
  1

  9
$STYLESHEET
  1

  9
$XEDIT
290
     1
  9
$CEPSNTYPE
380
     0
  9
$PSTYLEMODE
290
     1
  9
$FINGERPRINTGUID
  2
{FAEB1C30-E019-11D5-929B-00C0DF256EC4}
  9
$VERSIONGUID
  2
{FAEB1C32-E019-11D5-929B-00C0DF256EC4}
  9
$EXTNAMES
290
     1
  9
$PSVPSCALE
 40
0.0
  9
$OLESTARTUP
290
     0
  0
ENDSEC
  0
SECTION
  2
CLASSES
  0
CLASS
  1
ACDBDICTIONARYWDFLT
  2
AcDbDictionaryWithDefault
  3
ObjectDBX Classes
 90
        0
280
     0
281
     0
  0
CLASS
  1
ACDBPLACEHOLDER
  2
AcDbPlaceHolder
  3
ObjectDBX Classes
 90
        0
280
     0
281
     0
  0
CLASS
  1
LAYOUT
  2
AcDbLayout
  3
ObjectDBX Classes
 90
        0
280
     0
281
     0
  0
ENDSEC
  0
SECTION
  2
TABLES
  0
TABLE
  2
VPORT
  5
8
330
0
100
AcDbSymbolTable
 70
     2
  0
VPORT
  5
29
330
8
100
AcDbSymbolTableRecord
100
AcDbViewportTableRecord
  2
*ACTIVE
 70
     0
 10
0.0
 20
0.0
 11
1.0
 21
1.0
 12
61.832972
 22
271.78465
 13
0.0
 23
0.0
 14
1.0
 24
1.0
 15
0.0
 25
0.0
 16
0.0
 26
0.0
 36
1.0
 17
0.0
 27
0.0
 37
0.0
 40
594.0
 41
1.414141
 42
50.0
 43
0.0
 44
0.0
 50
0.0
 51
0.0
 71
    16
 72
   100
 73
     1
 74
     0
 75
     0
 76
     0
 77
     0
 78
     0
281
     0
 65
     0
110
0.0
120
0.0
130
0.0
111
1.0
121
0.0
131
0.0
112
0.0
122
1.0
132
0.0
 79
     0
146
0.0
  0
ENDTAB
  0
TABLE
  2
LTYPE
  5
5
330
0
100
AcDbSymbolTable
 70
     3
  0
LTYPE
  5
14
330
5
100
AcDbSymbolTableRecord
100
AcDbLinetypeTableRecord
  2
ByBlock
 70
     0
  3

 72
    65
 73
     0
 40
0.0
  0
LTYPE
  5
15
330
5
100
AcDbSymbolTableRecord
100
AcDbLinetypeTableRecord
  2
ByLayer
 70
     0
  3

 72
    65
 73
     0
 40
0.0
  0
LTYPE
  5
16
330
5
100
AcDbSymbolTableRecord
100
AcDbLinetypeTableRecord
  2
Continuous
 70
     0
  3
Solid line
 72
    65
 73
     0
 40
0.0
  0
LTYPE
  5
2A
330
5
100
AcDbSymbolTableRecord
100
AcDbLinetypeTableRecord
  2
DASHED
 70
     0
  3
__ __ __ __ __
 72
    65
 73
     2
 40
6.25
 49
5.0
 74
     4
 75
     0
340
0
 46
1.0
 50
0.0
 44
0.0
 45
0.0
 49
-1.25
 74
     4
 75
     0
340
0
 46
1.0
 50
0.0
 44
0.0
 45
0.0
  0
LTYPE
  5
211
330
5
100
AcDbSymbolTableRecord
100
AcDbLinetypeTableRecord
  2
DASHDOT
 70
     0
  3
__ . __ . __ . __ . __
 72
    65
 73
     4
 40
7.5
 49
5.0
 74
     4
 75
     0
340
0
 46
1.0
 50
0.0
 44
0.0
 45
0.0
 49
-1.25
 74
     4
 75
     0
340
0
 46
1.0
 50
0.0
 44
0.0
 45
0.0
 49
0.0
 74
     4
 75
     0
340
0
 46
1.0
 50
0.0
 44
0.0
 45
0.0
 49
-1.25
 74
     4
 75
     0
340
0
 46
1.0
 50
0.0
 44
0.0
 45
0.0
  0
ENDTAB
  0
TABLE
  2
LAYER
  5
2
330
0
100
AcDbSymbolTable
 70
    11
  0
LAYER
  5
10
330
2
100
AcDbSymbolTableRecord
100
AcDbLayerTableRecord
  2
0
 70
     0
 62
     7
  6
Continuous
370
    -3
390
F
  0
LAYER
  5
2B
330
2
100
AcDbSymbolTableRecord
100
AcDbLayerTableRecord
  2
LC-INFO-1-2-mm-A3-0
 70
     1
 62
     7
  6
ByBlock
370
    -3
390
F
  0
LAYER
  5
2C
330
2
100
AcDbSymbolTableRecord
100
AcDbLayerTableRecord
  2
LC-CUT-HIDDEN
 70
     0
 62
     7
  6
DASHED
370
    -3
390
F
  0
LAYER
  5
2D
330
2
100
AcDbSymbolTableRecord
100
AcDbLayerTableRecord
  2
LC-VIEWPORT
 70
     0
 62
     7
  6
ByBlock
370
    -3
390
F
  0
LAYER
  5
2E
330
2
100
AcDbSymbolTableRecord
100
AcDbLayerTableRecord
  2
LC-3D-HIDDEN
 70
     0
 62
     9
  6
DASHED
370
    -3
390
F
  0
LAYER
  5
30
330
2
100
AcDbSymbolTableRecord
100
AcDbLayerTableRecord
  2
LC-001-002-----0
 70
     0
 62
     1
  6
ByBlock
370
    -3
390
F
  0
LAYER
  5
3D
330
2
100
AcDbSymbolTableRecord
100
AcDbLayerTableRecord
  2
LC-002-002-RND-0
 70
     0
 62
     1
  6
ByBlock
370
    -3
390
F
  0
LAYER
  5
52
330
2
100
AcDbSymbolTableRecord
100
AcDbLayerTableRecord
  2
LC-003-005-----0
 70
     0
 62
     2
  6
ByBlock
370
    -3
390
F
  0
LAYER
  5
1F3
330
2
100
AcDbSymbolTableRecord
100
AcDbLayerTableRecord
  2
LC-004-003-----0
 70
     0
 62
     2
  6
ByBlock
370
    -3
390
F
  0
LAYER
  5
212
330
2
100
AcDbSymbolTableRecord
100
AcDbLayerTableRecord
  2
LC-005-007-KH--0
 70
     0
 62
    44
  6
DASHDOT
370
    -3
390
F
  0
LAYER
  5
244
330
2
100
AcDbSymbolTableRecord
100
AcDbLayerTableRecord
  2
Defpoints
 70
     0
 62
     7
  6
Continuous
290
     0
370
    -3
390
F
  0
ENDTAB
  0
TABLE
  2
STYLE
  5
3
330
0
100
AcDbSymbolTable
 70
     3
  0
STYLE
  5
11
330
3
100
AcDbSymbolTableRecord
100
AcDbTextStyleTableRecord
  2
Standard
 70
     0
 40
0.0
 41
1.0
 50
0.0
 71
     0
 42
2.5
  3
txt
  4

  0
STYLE
  5
2F
330
3
100
AcDbSymbolTableRecord
100
AcDbTextStyleTableRecord
  2
LCTX15-400-0-0-Arial
 70
     0
 40
0.0
 41
0.9
 50
0.0
 71
     0
 42
3.5
  3

  4

1001
ACAD
1000
Arial
1071
 16777218
  0
STYLE
  5
241
330
3
100
AcDbSymbolTableRecord
100
AcDbTextStyleTableRecord
  2
LCTX15-400-0-0pDIN-Schrift
 70
     0
 40
2.5
 41
0.8
 50
15.0
 71
     0
 42
3.5
  3
STANDARD
  4

  0
ENDTAB
  0
TABLE
  2
VIEW
  5
6
330
0
100
AcDbSymbolTable
 70
     0
  0
ENDTAB
  0
TABLE
  2
UCS
  5
7
330
0
100
AcDbSymbolTable
 70
     0
  0
ENDTAB
  0
TABLE
  2
APPID
  5
9
330
0
100
AcDbSymbolTable
 70
     1
  0
APPID
  5
12
330
9
100
AcDbSymbolTableRecord
100
AcDbRegAppTableRecord
  2
ACAD
 70
     0
  0
ENDTAB
  0
TABLE
  2
DIMSTYLE
  5
A
330
0
100
AcDbSymbolTable
 70
     2
100
AcDbDimStyleTable
  0
DIMSTYLE
105
27
330
A
100
AcDbSymbolTableRecord
100
AcDbDimStyleTableRecord
  2
ISO-25
 70
     0
 41
2.5
 42
0.625
 43
3.75
 44
1.25
 73
     0
 74
     0
 77
     1
 78
     8
140
2.5
141
2.5
143
0.03937
147
0.625
171
     3
172
     1
271
     2
272
     2
274
     3
278
    44
283
     0
284
     8
340
11
  0
DIMSTYLE
105
242
102
{ACAD_REACTORS
330
243
330
251
330
271
330
27E
102
}
330
A
100
AcDbSymbolTableRecord
100
AcDbDimStyleTableRecord
  2
LC-DIM-L-0140-02-02
 70
     0
 40
2.0
 41
14.0
 42
0.0
 43
7.5
 44
1.8
 73
     0
 74
     0
 77
     1
 78
     8
 79
     2
140
14.0
141
0.0
146
0.71
147
1.5
176
     2
177
     2
178
     2
179
     2
271
     2
278
    44
289
     1
340
241
  0
ENDTAB
  0
TABLE
  2
BLOCK_RECORD
  5
1
330
0
100
AcDbSymbolTable
 70
    18
  0
BLOCK_RECORD
  5
1F
330
1
100
AcDbSymbolTableRecord
100
AcDbBlockTableRecord
  2
*Model_Space
340
22
  0
BLOCK_RECORD
  5
1B
330
1
100
AcDbSymbolTableRecord
100
AcDbBlockTableRecord
  2
*Paper_Space
340
1E
  0
BLOCK_RECORD
  5
23
330
1
100
AcDbSymbolTableRecord
100
AcDbBlockTableRecord
  2
*Paper_Space0
340
26
  0
BLOCK_RECORD
  5
4F
330
1
100
AcDbSymbolTableRecord
100
AcDbBlockTableRecord
  2
*X11
340
0
102
{BLKREFS
331
7B
102
}
  0
BLOCK_RECORD
  5
7C
330
1
100
AcDbSymbolTableRecord
100
AcDbBlockTableRecord
  2
*X22
340
0
102
{BLKREFS
331
A8
102
}
  0
BLOCK_RECORD
  5
F1
330
1
100
AcDbSymbolTableRecord
100
AcDbBlockTableRecord
  2
*X33
340
0
102
{BLKREFS
331
FE
102
}
  0
BLOCK_RECORD
  5
100
330
1
100
AcDbSymbolTableRecord
100
AcDbBlockTableRecord
  2
*X44
340
0
102
{BLKREFS
331
10F
102
}
  0
BLOCK_RECORD
  5
114
330
1
100
AcDbSymbolTableRecord
100
AcDbBlockTableRecord
  2
*X55
340
0
102
{BLKREFS
331
140
102
}
  0
BLOCK_RECORD
  5
16E
330
1
100
AcDbSymbolTableRecord
100
AcDbBlockTableRecord
  2
*X66
340
0
102
{BLKREFS
331
176
102
}
  0
BLOCK_RECORD
  5
17E
330
1
100
AcDbSymbolTableRecord
100
AcDbBlockTableRecord
  2
*X77
340
0
102
{BLKREFS
331
185
102
}
  0
BLOCK_RECORD
  5
186
330
1
100
AcDbSymbolTableRecord
100
AcDbBlockTableRecord
  2
*X88
340
0
102
{BLKREFS
331
18D
102
}
  0
BLOCK_RECORD
  5
1B4
330
1
100
AcDbSymbolTableRecord
100
AcDbBlockTableRecord
  2
*X99
340
0
102
{BLKREFS
331
1BB
102
}
  0
BLOCK_RECORD
  5
1C3
330
1
100
AcDbSymbolTableRecord
100
AcDbBlockTableRecord
  2
*X1010
340
0
102
{BLKREFS
331
1CA
102
}
  0
BLOCK_RECORD
  5
1CB
330
1
100
AcDbSymbolTableRecord
100
AcDbBlockTableRecord
  2
*X1111
340
0
102
{BLKREFS
331
1D3
102
}
  0
BLOCK_RECORD
  5
1D5
330
1
100
AcDbSymbolTableRecord
100
AcDbBlockTableRecord
  2
*X1212
340
0
102
{BLKREFS
331
1E0
102
}
  0
BLOCK_RECORD
  5
1E1
330
1
100
AcDbSymbolTableRecord
100
AcDbBlockTableRecord
  2
*X1313
340
0
102
{BLKREFS
331
1EA
102
}
  0
BLOCK_RECORD
  5
245
330
1
100
AcDbSymbolTableRecord
100
AcDbBlockTableRecord
  2
*D14
340
0
  0
BLOCK_RECORD
  5
252
330
1
100
AcDbSymbolTableRecord
100
AcDbBlockTableRecord
  2
*D15
340
0
  0
BLOCK_RECORD
  5
272
330
1
100
AcDbSymbolTableRecord
100
AcDbBlockTableRecord
  2
*D16
340
0
  0
BLOCK_RECORD
  5
27F
330
1
100
AcDbSymbolTableRecord
100
AcDbBlockTableRecord
  2
*D17
340
0
  0
ENDTAB
  0
ENDSEC
  0
SECTION
  2
BLOCKS
  0
BLOCK
  5
20
330
1F
100
AcDbEntity
  8
0
100
AcDbBlockBegin
  2
*Model_Space
 70
     0
 71
     0
 10
0.0
 20
0.0
 30
0.0
  3
*Model_Space
  1

  0
ENDBLK
  5
21
330
1F
100
AcDbEntity
  8
0
100
AcDbBlockEnd
  0
BLOCK
  5
1C
330
1B
100
AcDbEntity
 67
     1
  8
0
100
AcDbBlockBegin
  2
*Paper_Space
 70
     0
 71
     0
 10
0.0
 20
0.0
 30
0.0
  3
*Paper_Space
  1

  0
ENDBLK
  5
1D
330
1B
100
AcDbEntity
 67
     1
  8
0
100
AcDbBlockEnd
  0
BLOCK
  5
24
330
23
100
AcDbEntity
  8
0
100
AcDbBlockBegin
  2
*Paper_Space0
 70
     0
 71
     0
 10
0.0
 20
0.0
 30
0.0
  3
*Paper_Space0
  1

  0
ENDBLK
  5
25
330
23
100
AcDbEntity
  8
0
100
AcDbBlockEnd
  0
BLOCK
  5
50
330
4F
100
AcDbEntity
  8
0
100
AcDbBlockBegin
  2
*X11
 70
     1
 71
     0
 10
0.0
 20
0.0
 30
0.0
  3
*X11
  1

  4
*X1
  0
LINE
  5
53
330
4F
100
AcDbEntity
  8
LC-003-005-----0
 62
     7
370
    25
100
AcDbLine
 10
-47.211857
 20
372.480977
 30
0.0
 11
-49.711857
 21
374.980977
 31
0.0
  0
LINE
  5
54
330
4F
100
AcDbEntity
  8
LC-003-005-----0
 62
     7
370
    25
100
AcDbLine
 10
-47.211857
 20
369.652549
 30
0.0
 11
-49.711857
 21
372.152549
 31
0.0
  0
LINE
  5
55
330
4F
100
AcDbEntity
  8
LC-003-005-----0
 62
     7
370
    25
100
AcDbLine
 10
-43.211857
 20
362.824122
 30
0.0
 11
-45.635604
 21
365.247869
 31
0.0
  0
LINE
  5
56
330
4F
100
AcDbEntity
  8
LC-003-005-----0
 62
     7
370
    25
100
AcDbLine
 10
-47.211857
 20
366.824122
 30
0.0
 11
-49.711857
 21
369.324122
 31
0.0
  0
LINE
  5
57
330
4F
100
AcDbEntity
  8
LC-003-005-----0
 62
     7
370
    25
100
AcDbLine
 10
-43.211857
 20
359.995695
 30
0.0
 11
-45.711857
 21
362.495695
 31
0.0
  0
LINE
  5
58
330
4F
100
AcDbEntity
  8
LC-003-005-----0
 62
     7
370
    25
100
AcDbLine
 10
-45.964031
 20
362.747869
 30
0.0
 11
-49.711857
 21
366.495695
 31
0.0
  0
LINE
  5
59
330
4F
100
AcDbEntity
  8
LC-003-005-----0
 62
     7
370
    25
100
AcDbLine
 10
-43.211857
 20
357.167268
 30
0.0
 11
-45.711857
 21
359.667268
 31
0.0
  0
LINE
  5
5A
330
4F
100
AcDbEntity
  8
LC-003-005-----0
 62
     7
370
    25
100
AcDbLine
 10
-48.792458
 20
362.747869
 30
0.0
 11
-49.711857
 21
363.667268
 31
0.0
  0
LINE
  5
5B
330
4F
100
AcDbEntity
  8
LC-003-005-----0
 62
     7
370
    25
100
AcDbLine
 10
-43.211857
 20
354.338841
 30
0.0
 11
-45.711857
 21
356.838841
 31
0.0
  0
LINE
  5
5C
330
4F
100
AcDbEntity
  8
LC-003-005-----0
 62
     7
370
    25
100
AcDbLine
 10
-43.211857
 20
351.510414
 30
0.0
 11
-45.711857
 21
354.010414
 31
0.0
  0
LINE
  5
5D
330
4F
100
AcDbEntity
  8
LC-003-005-----0
 62
     7
370
    25
100
AcDbLine
 10
-43.211857
 20
348.681987
 30
0.0
 11
-45.711857
 21
351.181987
 31
0.0
  0
LINE
  5
5E
330
4F
100
AcDbEntity
  8
LC-003-005-----0
 62
     7
370
    25
100
AcDbLine
 10
-43.211857
 20
345.85356
 30
0.0
 11
-45.711857
 21
348.35356
 31
0.0
  0
LINE
  5
5F
330
4F
100
AcDbEntity
  8
LC-003-005-----0
 62
     7
370
    25
100
AcDbLine
 10
-43.211857
 20
343.025132
 30
0.0
 11
-45.711857
 21
345.525132
 31
0.0
  0
LINE
  5
60
330
4F
100
AcDbEntity
  8
LC-003-005-----0
 62
     7
370
    25
100
AcDbLine
 10
-43.211857
 20
340.196705
 30
0.0
 11
-45.711857
 21
342.696705
 31
0.0
  0
LINE
  5
61
330
4F
100
AcDbEntity
  8
LC-003-005-----0
 62
     7
370
    25
100
AcDbLine
 10
-43.211857
 20
337.368278
 30
0.0
 11
-45.711857
 21
339.868278
 31
0.0
  0
LINE
  5
62
330
4F
100
AcDbEntity
  8
LC-003-005-----0
 62
     7
370
    25
100
AcDbLine
 10
-43.211857
 20
334.539851
 30
0.0
 11
-45.711857
 21
337.039851
 31
0.0
  0
LINE
  5
63
330
4F
100
AcDbEntity
  8
LC-003-005-----0
 62
     7
370
    25
100
AcDbLine
 10
-43.211857
 20
331.711424
 30
0.0
 11
-45.711857
 21
334.211424
 31
0.0
  0
LINE
  5
64
330
4F
100
AcDbEntity
  8
LC-003-005-----0
 62
     7
370
    25
100
AcDbLine
 10
-43.211857
 20
328.882997
 30
0.0
 11
-45.711857
 21
331.382997
 31
0.0
  0
LINE
  5
65
330
4F
100
AcDbEntity
  8
LC-003-005-----0
 62
     7
370
    25
100
AcDbLine
 10
-43.211857
 20
326.05457
 30
0.0
 11
-45.711857
 21
328.55457
 31
0.0
  0
LINE
  5
66
330
4F
100
AcDbEntity
  8
LC-003-005-----0
 62
     7
370
    25
100
AcDbLine
 10
-43.211857
 20
323.226143
 30
0.0
 11
-45.711857
 21
325.726143
 31
0.0
  0
LINE
  5
67
330
4F
100
AcDbEntity
  8
LC-003-005-----0
 62
     7
370
    25
100
AcDbLine
 10
-43.211857
 20
320.397715
 30
0.0
 11
-45.711857
 21
322.897715
 31
0.0
  0
LINE
  5
68
330
4F
100
AcDbEntity
  8
LC-003-005-----0
 62
     7
370
    25
100
AcDbLine
 10
-43.211857
 20
317.569288
 30
0.0
 11
-45.711857
 21
320.069288
 31
0.0
  0
LINE
  5
69
330
4F
100
AcDbEntity
  8
LC-003-005-----0
 62
     7
370
    25
100
AcDbLine
 10
-43.211857
 20
314.740861
 30
0.0
 11
-45.711857
 21
317.240861
 31
0.0
  0
LINE
  5
6A
330
4F
100
AcDbEntity
  8
LC-003-005-----0
 62
     7
370
    25
100
AcDbLine
 10
-43.211857
 20
311.912434
 30
0.0
 11
-45.711857
 21
314.412434
 31
0.0
  0
LINE
  5
6B
330
4F
100
AcDbEntity
  8
LC-003-005-----0
 62
     7
370
    25
100
AcDbLine
 10
-43.211857
 20
309.084007
 30
0.0
 11
-45.711857
 21
311.584007
 31
0.0
  0
LINE
  5
6C
330
4F
100
AcDbEntity
  8
LC-003-005-----0
 62
     7
370
    25
100
AcDbLine
 10
-43.211857
 20
306.25558
 30
0.0
 11
-45.711857
 21
308.75558
 31
0.0
  0
LINE
  5
6D
330
4F
100
AcDbEntity
  8
LC-003-005-----0
 62
     7
370
    25
100
AcDbLine
 10
-43.211857
 20
303.427153
 30
0.0
 11
-45.711857
 21
305.927153
 31
0.0
  0
LINE
  5
6E
330
4F
100
AcDbEntity
  8
LC-003-005-----0
 62
     7
370
    25
100
AcDbLine
 10
-43.211857
 20
300.598726
 30
0.0
 11
-45.711857
 21
303.098726
 31
0.0
  0
LINE
  5
6F
330
4F
100
AcDbEntity
  8
LC-003-005-----0
 62
     7
370
    25
100
AcDbLine
 10
-43.211857
 20
297.770298
 30
0.0
 11
-45.711857
 21
300.270298
 31
0.0
  0
LINE
  5
70
330
4F
100
AcDbEntity
  8
LC-003-005-----0
 62
     7
370
    25
100
AcDbLine
 10
-43.211857
 20
294.941871
 30
0.0
 11
-45.711857
 21
297.441871
 31
0.0
  0
LINE
  5
71
330
4F
100
AcDbEntity
  8
LC-003-005-----0
 62
     7
370
    25
100
AcDbLine
 10
-43.211857
 20
292.113444
 30
0.0
 11
-45.711857
 21
294.613444
 31
0.0
  0
LINE
  5
72
330
4F
100
AcDbEntity
  8
LC-003-005-----0
 62
     7
370
    25
100
AcDbLine
 10
-43.211857
 20
289.285017
 30
0.0
 11
-45.711857
 21
291.785017
 31
0.0
  0
LINE
  5
73
330
4F
100
AcDbEntity
  8
LC-003-005-----0
 62
     7
370
    25
100
AcDbLine
 10
-43.211857
 20
286.45659
 30
0.0
 11
-45.711857
 21
288.95659
 31
0.0
  0
LINE
  5
74
330
4F
100
AcDbEntity
  8
LC-003-005-----0
 62
     7
370
    25
100
AcDbLine
 10
-43.211857
 20
283.628163
 30
0.0
 11
-45.711857
 21
286.128163
 31
0.0
  0
LINE
  5
75
330
4F
100
AcDbEntity
  8
LC-003-005-----0
 62
     7
370
    25
100
AcDbLine
 10
-43.211857
 20
280.799736
 30
0.0
 11
-45.711857
 21
283.299736
 31
0.0
  0
LINE
  5
76
330
4F
100
AcDbEntity
  8
LC-003-005-----0
 62
     7
370
    25
100
AcDbLine
 10
-43.211857
 20
277.971309
 30
0.0
 11
-45.711857
 21
280.471309
 31
0.0
  0
LINE
  5
77
330
4F
100
AcDbEntity
  8
LC-003-005-----0
 62
     7
370
    25
100
AcDbLine
 10
-43.211857
 20
275.142881
 30
0.0
 11
-45.711857
 21
277.642881
 31
0.0
  0
LINE
  5
78
330
4F
100
AcDbEntity
  8
LC-003-005-----0
 62
     7
370
    25
100
AcDbLine
 10
-43.211857
 20
272.314454
 30
0.0
 11
-45.711857
 21
274.814454
 31
0.0
  0
LINE
  5
79
330
4F
100
AcDbEntity
  8
LC-003-005-----0
 62
     7
370
    25
100
AcDbLine
 10
-43.211857
 20
269.486027
 30
0.0
 11
-45.711857
 21
271.986027
 31
0.0
  0
LINE
  5
7A
330
4F
100
AcDbEntity
  8
LC-003-005-----0
 62
     7
370
    25
100
AcDbLine
 10
-43.211857
 20
266.6576
 30
0.0
 11
-45.711857
 21
269.1576
 31
0.0
  0
ENDBLK
  5
51
330
4F
100
AcDbEntity
  8
0
100
AcDbBlockEnd
  0
BLOCK
  5
7D
330
7C
100
AcDbEntity
  8
0
100
AcDbBlockBegin
  2
*X22
 70
     1
 71
     0
 10
0.0
 20
0.0
 30
0.0
  3
*X22
  1

  4
*X2
  0
LINE
  5
7F
330
7C
100
AcDbEntity
  8
LC-003-005-----0
 62
     7
370
    25
100
AcDbLine
 10
60.288143
 20
372.461207
 30
0.0
 11
59.001481
 21
373.747869
 31
0.0
  0
LINE
  5
80
330
7C
100
AcDbEntity
  8
LC-003-005-----0
 62
     7
370
    25
100
AcDbLine
 10
60.288143
 20
369.63278
 30
0.0
 11
57.788143
 21
372.13278
 31
0.0
  0
LINE
  5
81
330
7C
100
AcDbEntity
  8
LC-003-005-----0
 62
     7
370
    25
100
AcDbLine
 10
60.288143
 20
366.804353
 30
0.0
 11
57.788143
 21
369.304353
 31
0.0
  0
LINE
  5
82
330
7C
100
AcDbEntity
  8
LC-003-005-----0
 62
     7
370
    25
100
AcDbLine
 10
60.288143
 20
363.975926
 30
0.0
 11
57.788143
 21
366.475926
 31
0.0
  0
LINE
  5
83
330
7C
100
AcDbEntity
  8
LC-003-005-----0
 62
     7
370
    25
100
AcDbLine
 10
58.687773
 20
362.747869
 30
0.0
 11
56.187773
 21
365.247869
 31
0.0
  0
LINE
  5
84
330
7C
100
AcDbEntity
  8
LC-003-005-----0
 62
     7
370
    25
100
AcDbLine
 10
56.288143
 20
362.319072
 30
0.0
 11
53.792616
 21
364.814599
 31
0.0
  0
LINE
  5
85
330
7C
100
AcDbEntity
  8
LC-003-005-----0
 62
     7
370
    25
100
AcDbLine
 10
56.288143
 20
359.490644
 30
0.0
 11
53.788143
 21
361.990644
 31
0.0
  0
LINE
  5
86
330
7C
100
AcDbEntity
  8
LC-003-005-----0
 62
     7
370
    25
100
AcDbLine
 10
56.288143
 20
356.662217
 30
0.0
 11
53.788143
 21
359.162217
 31
0.0
  0
LINE
  5
87
330
7C
100
AcDbEntity
  8
LC-003-005-----0
 62
     7
370
    25
100
AcDbLine
 10
56.288143
 20
353.83379
 30
0.0
 11
53.788143
 21
356.33379
 31
0.0
  0
LINE
  5
88
330
7C
100
AcDbEntity
  8
LC-003-005-----0
 62
     7
370
    25
100
AcDbLine
 10
56.288143
 20
351.005363
 30
0.0
 11
53.788143
 21
353.505363
 31
0.0
  0
LINE
  5
89
330
7C
100
AcDbEntity
  8
LC-003-005-----0
 62
     7
370
    25
100
AcDbLine
 10
56.288143
 20
348.176936
 30
0.0
 11
53.788143
 21
350.676936
 31
0.0
  0
LINE
  5
8A
330
7C
100
AcDbEntity
  8
LC-003-005-----0
 62
     7
370
    25
100
AcDbLine
 10
56.288143
 20
345.348509
 30
0.0
 11
53.788143
 21
347.848509
 31
0.0
  0
LINE
  5
8B
330
7C
100
AcDbEntity
  8
LC-003-005-----0
 62
     7
370
    25
100
AcDbLine
 10
56.288143
 20
342.520082
 30
0.0
 11
53.788143
 21
345.020082
 31
0.0
  0
LINE
  5
8C
330
7C
100
AcDbEntity
  8
LC-003-005-----0
 62
     7
370
    25
100
AcDbLine
 10
56.288143
 20
339.691655
 30
0.0
 11
53.788143
 21
342.191655
 31
0.0
  0
LINE
  5
8D
330
7C
100
AcDbEntity
  8
LC-003-005-----0
 62
     7
370
    25
100
AcDbLine
 10
56.288143
 20
336.863227
 30
0.0
 11
53.788143
 21
339.363227
 31
0.0
  0
LINE
  5
8E
330
7C
100
AcDbEntity
  8
LC-003-005-----0
 62
     7
370
    25
100
AcDbLine
 10
56.288143
 20
334.0348
 30
0.0
 11
53.788143
 21
336.5348
 31
0.0
  0
LINE
  5
8F
330
7C
100
AcDbEntity
  8
LC-003-005-----0
 62
     7
370
    25
100
AcDbLine
 10
56.288143
 20
331.206373
 30
0.0
 11
53.788143
 21
333.706373
 31
0.0
  0
LINE
  5
90
330
7C
100
AcDbEntity
  8
LC-003-005-----0
 62
     7
370
    25
100
AcDbLine
 10
56.288143
 20
328.377946
 30
0.0
 11
53.788143
 21
330.877946
 31
0.0
  0
LINE
  5
91
330
7C
100
AcDbEntity
  8
LC-003-005-----0
 62
     7
370
    25
100
AcDbLine
 10
56.288143
 20
325.549519
 30
0.0
 11
53.788143
 21
328.049519
 31
0.0
  0
LINE
  5
92
330
7C
100
AcDbEntity
  8
LC-003-005-----0
 62
     7
370
    25
100
AcDbLine
 10
56.288143
 20
322.721092
 30
0.0
 11
53.788143
 21
325.221092
 31
0.0
  0
LINE
  5
93
330
7C
100
AcDbEntity
  8
LC-003-005-----0
 62
     7
370
    25
100
AcDbLine
 10
56.288143
 20
319.892665
 30
0.0
 11
53.788143
 21
322.392665
 31
0.0
  0
LINE
  5
94
330
7C
100
AcDbEntity
  8
LC-003-005-----0
 62
     7
370
    25
100
AcDbLine
 10
56.288143
 20
317.064238
 30
0.0
 11
53.788143
 21
319.564238
 31
0.0
  0
LINE
  5
95
330
7C
100
AcDbEntity
  8
LC-003-005-----0
 62
     7
370
    25
100
AcDbLine
 10
56.288143
 20
314.235811
 30
0.0
 11
53.788143
 21
316.735811
 31
0.0
  0
LINE
  5
96
330
7C
100
AcDbEntity
  8
LC-003-005-----0
 62
     7
370
    25
100
AcDbLine
 10
56.288143
 20
311.407383
 30
0.0
 11
53.788143
 21
313.907383
 31
0.0
  0
LINE
  5
97
330
7C
100
AcDbEntity
  8
LC-003-005-----0
 62
     7
370
    25
100
AcDbLine
 10
56.288143
 20
308.578956
 30
0.0
 11
53.788143
 21
311.078956
 31
0.0
  0
LINE
  5
98
330
7C
100
AcDbEntity
  8
LC-003-005-----0
 62
     7
370
    25
100
AcDbLine
 10
56.288143
 20
305.750529
 30
0.0
 11
53.788143
 21
308.250529
 31
0.0
  0
LINE
  5
99
330
7C
100
AcDbEntity
  8
LC-003-005-----0
 62
     7
370
    25
100
AcDbLine
 10
56.288143
 20
302.922102
 30
0.0
 11
53.788143
 21
305.422102
 31
0.0
  0
LINE
  5
9A
330
7C
100
AcDbEntity
  8
LC-003-005-----0
 62
     7
370
    25
100
AcDbLine
 10
56.288143
 20
300.093675
 30
0.0
 11
53.788143
 21
302.593675
 31
0.0
  0
LINE
  5
9B
330
7C
100
AcDbEntity
  8
LC-003-005-----0
 62
     7
370
    25
100
AcDbLine
 10
56.288143
 20
297.265248
 30
0.0
 11
53.788143
 21
299.765248
 31
0.0
  0
LINE
  5
9C
330
7C
100
AcDbEntity
  8
LC-003-005-----0
 62
     7
370
    25
100
AcDbLine
 10
56.288143
 20
294.436821
 30
0.0
 11
53.788143
 21
296.936821
 31
0.0
  0
LINE
  5
9D
330
7C
100
AcDbEntity
  8
LC-003-005-----0
 62
     7
370
    25
100
AcDbLine
 10
56.288143
 20
291.608394
 30
0.0
 11
53.788143
 21
294.108394
 31
0.0
  0
LINE
  5
9E
330
7C
100
AcDbEntity
  8
LC-003-005-----0
 62
     7
370
    25
100
AcDbLine
 10
56.288143
 20
288.779966
 30
0.0
 11
53.788143
 21
291.279966
 31
0.0
  0
LINE
  5
9F
330
7C
100
AcDbEntity
  8
LC-003-005-----0
 62
     7
370
    25
100
AcDbLine
 10
56.288143
 20
285.951539
 30
0.0
 11
53.788143
 21
288.451539
 31
0.0
  0
LINE
  5
A0
330
7C
100
AcDbEntity
  8
LC-003-005-----0
 62
     7
370
    25
100
AcDbLine
 10
56.288143
 20
283.123112
 30
0.0
 11
53.788143
 21
285.623112
 31
0.0
  0
LINE
  5
A1
330
7C
100
AcDbEntity
  8
LC-003-005-----0
 62
     7
370
    25
100
AcDbLine
 10
56.288143
 20
280.294685
 30
0.0
 11
53.788143
 21
282.794685
 31
0.0
  0
LINE
  5
A2
330
7C
100
AcDbEntity
  8
LC-003-005-----0
 62
     7
370
    25
100
AcDbLine
 10
56.288143
 20
277.466258
 30
0.0
 11
53.788143
 21
279.966258
 31
0.0
  0
LINE
  5
A3
330
7C
100
AcDbEntity
  8
LC-003-005-----0
 62
     7
370
    25
100
AcDbLine
 10
56.288143
 20
274.637831
 30
0.0
 11
53.788143
 21
277.137831
 31
0.0
  0
LINE
  5
A4
330
7C
100
AcDbEntity
  8
LC-003-005-----0
 62
     7
370
    25
100
AcDbLine
 10
56.288143
 20
271.809404
 30
0.0
 11
53.788143
 21
274.309404
 31
0.0
  0
LINE
  5
A5
330
7C
100
AcDbEntity
  8
LC-003-005-----0
 62
     7
370
    25
100
AcDbLine
 10
56.288143
 20
268.980977
 30
0.0
 11
53.788143
 21
271.480977
 31
0.0
  0
LINE
  5
A6
330
7C
100
AcDbEntity
  8
LC-003-005-----0
 62
     7
370
    25
100
AcDbLine
 10
55.739687
 20
266.701005
 30
0.0
 11
53.788143
 21
268.652549
 31
0.0
  0
LINE
  5
A7
330
7C
100
AcDbEntity
  8
LC-003-005-----0
 62
     7
370
    25
100
AcDbLine
 10
53.864396
 20
265.747869
 30
0.0
 11
53.788143
 21
265.824122
 31
0.0
  0
ENDBLK
  5
7E
330
7C
100
AcDbEntity
  8
0
100
AcDbBlockEnd
  0
BLOCK
  5
F2
330
F1
100
AcDbEntity
  8
0
100
AcDbBlockBegin
  2
*X33
 70
     1
 71
     0
 10
0.0
 20
0.0
 30
0.0
  3
*X33
  1

  4
*X3
  0
LINE
  5
F4
330
F1
100
AcDbEntity
  8
LC-003-005-----0
 62
     7
370
    25
100
AcDbLine
 10
56.524909
 20
367.651893
 30
0.0
 11
57.597443
 21
368.724426
 31
0.0
  0
LINE
  5
F5
330
F1
100
AcDbEntity
  8
LC-003-005-----0
 62
     7
370
    25
100
AcDbLine
 10
56.238143
 20
370.193554
 30
0.0
 11
56.938143
 21
370.893554
 31
0.0
  0
LINE
  5
F6
330
F1
100
AcDbEntity
  8
LC-003-005-----0
 62
     7
370
    25
100
AcDbLine
 10
56.238143
 20
373.021981
 30
0.0
 11
56.938143
 21
373.721981
 31
0.0
  0
LINE
  5
F7
330
F1
100
AcDbEntity
  8
LC-003-005-----0
 62
     7
370
    25
100
AcDbLine
 10
58.464031
 20
375.247869
 30
0.0
 11
59.067717
 21
375.851555
 31
0.0
  0
LINE
  5
F8
330
F1
100
AcDbEntity
  8
LC-003-005-----0
 62
     7
370
    25
100
AcDbLine
 10
59.588143
 20
376.371981
 30
0.0
 11
60.288143
 21
377.071981
 31
0.0
  0
LINE
  5
F9
330
F1
100
AcDbEntity
  8
LC-003-005-----0
 62
     7
370
    25
100
AcDbLine
 10
60.864031
 20
377.647869
 30
0.0
 11
61.564031
 21
378.347869
 31
0.0
  0
LINE
  5
FA
330
F1
100
AcDbEntity
  8
LC-003-005-----0
 62
     7
370
    25
100
AcDbLine
 10
63.288143
 20
380.071981
 30
0.0
 11
63.988143
 21
380.771981
 31
0.0
  0
LINE
  5
FB
330
F1
100
AcDbEntity
  8
LC-003-005-----0
 62
     7
370
    25
100
AcDbLine
 10
63.288143
 20
382.900408
 30
0.0
 11
63.988143
 21
383.600408
 31
0.0
  0
LINE
  5
FC
330
F1
100
AcDbEntity
  8
LC-003-005-----0
 62
     7
370
    25
100
AcDbLine
 10
63.288143
 20
385.728835
 30
0.0
 11
63.988143
 21
386.428835
 31
0.0
  0
LINE
  5
FD
330
F1
100
AcDbEntity
  8
LC-003-005-----0
 62
     7
370
    25
100
AcDbLine
 10
64.759539
 20
387.200231
 30
0.0
 11
65.294152
 21
387.734844
 31
0.0
  0
ENDBLK
  5
F3
330
F1
100
AcDbEntity
  8
0
100
AcDbBlockEnd
  0
BLOCK
  5
101
330
100
100
AcDbEntity
  8
0
100
AcDbBlockBegin
  2
*X44
 70
     1
 71
     0
 10
0.0
 20
0.0
 30
0.0
  3
*X44
  1

  4
*X4
  0
LINE
  5
103
330
100
100
AcDbEntity
  8
LC-003-005-----0
 62
     7
370
    25
100
AcDbLine
 10
-46.324772
 20
366.625589
 30
0.0
 11
-45.775132
 21
367.175229
 31
0.0
  0
LINE
  5
104
330
100
100
AcDbEntity
  8
LC-003-005-----0
 62
     7
370
    25
100
AcDbLine
 10
-47.020907
 20
368.75788
 30
0.0
 11
-45.661857
 21
370.11693
 31
0.0
  0
LINE
  5
105
330
100
100
AcDbEntity
  8
LC-003-005-----0
 62
     7
370
    25
100
AcDbLine
 10
-46.361857
 20
372.245357
 30
0.0
 11
-45.661857
 21
372.945357
 31
0.0
  0
LINE
  5
106
330
100
100
AcDbEntity
  8
LC-003-005-----0
 62
     7
370
    25
100
AcDbLine
 10
-46.432105
 20
375.003537
 30
0.0
 11
-45.975335
 21
375.460306
 31
0.0
  0
LINE
  5
107
330
100
100
AcDbEntity
  8
LC-003-005-----0
 62
     7
370
    25
100
AcDbLine
 10
-48.937989
 20
375.326079
 30
0.0
 11
-48.412514
 21
375.851555
 31
0.0
  0
LINE
  5
108
330
100
100
AcDbEntity
  8
LC-003-005-----0
 62
     7
370
    25
100
AcDbLine
 10
-49.750909
 20
377.341587
 30
0.0
 11
-49.2403
 21
377.852196
 31
0.0
  0
LINE
  5
109
330
100
100
AcDbEntity
  8
LC-003-005-----0
 62
     7
370
    25
100
AcDbLine
 10
-52.271568
 20
377.649355
 30
0.0
 11
-51.573054
 21
378.347869
 31
0.0
  0
LINE
  5
10A
330
100
100
AcDbEntity
  8
LC-003-005-----0
 62
     7
370
    25
100
AcDbLine
 10
-53.411857
 20
379.337493
 30
0.0
 11
-52.711857
 21
380.037493
 31
0.0
  0
LINE
  5
10B
330
100
100
AcDbEntity
  8
LC-003-005-----0
 62
     7
370
    25
100
AcDbLine
 10
-53.411857
 20
382.16592
 30
0.0
 11
-52.711857
 21
382.86592
 31
0.0
  0
LINE
  5
10C
330
100
100
AcDbEntity
  8
LC-003-005-----0
 62
     7
370
    25
100
AcDbLine
 10
-53.411857
 20
384.994347
 30
0.0
 11
-52.711857
 21
385.694347
 31
0.0
  0
LINE
  5
10D
330
100
100
AcDbEntity
  8
LC-003-005-----0
 62
     7
370
    25
100
AcDbLine
 10
-54.675065
 20
386.559566
 30
0.0
 11
-54.291185
 21
386.943447
 31
0.0
  0
LINE
  5
10E
330
100
100
AcDbEntity
  8
LC-003-005-----0
 62
     7
370
    25
100
AcDbLine
 10
-53.412398
 20
387.822234
 30
0.0
 11
-52.812855
 21
388.421777
 31
0.0
  0
ENDBLK
  5
102
330
100
100
AcDbEntity
  8
0
100
AcDbBlockEnd
  0
BLOCK
  5
115
330
114
100
AcDbEntity
  8
0
100
AcDbBlockBegin
  2
*X55
 70
     1
 71
     0
 10
0.0
 20
0.0
 30
0.0
  3
*X55
  1

  4
*X5
  0
LINE
  5
117
330
114
100
AcDbEntity
  8
LC-003-005-----0
 62
     7
370
    25
100
AcDbLine
 10
59.288143
 20
387.603343
 30
0.0
 11
58.131919
 21
388.759566
 31
0.0
  0
LINE
  5
118
330
114
100
AcDbEntity
  8
LC-003-005-----0
 62
     7
370
    25
100
AcDbLine
 10
58.295817
 20
385.767241
 30
0.0
 11
55.303492
 21
388.759566
 31
0.0
  0
LINE
  5
119
330
114
100
AcDbEntity
  8
LC-003-005-----0
 62
     7
370
    25
100
AcDbLine
 10
55.475065
 20
385.759566
 30
0.0
 11
52.475065
 21
388.759566
 31
0.0
  0
LINE
  5
11A
330
114
100
AcDbEntity
  8
LC-003-005-----0
 62
     7
370
    25
100
AcDbLine
 10
52.646638
 20
385.759566
 30
0.0
 11
49.646638
 21
388.759566
 31
0.0
  0
LINE
  5
11B
330
114
100
AcDbEntity
  8
LC-003-005-----0
 62
     7
370
    25
100
AcDbLine
 10
49.818211
 20
385.759566
 30
0.0
 11
46.818211
 21
388.759566
 31
0.0
  0
LINE
  5
11C
330
114
100
AcDbEntity
  8
LC-003-005-----0
 62
     7
370
    25
100
AcDbLine
 10
46.989784
 20
385.759566
 30
0.0
 11
43.989784
 21
388.759566
 31
0.0
  0
LINE
  5
11D
330
114
100
AcDbEntity
  8
LC-003-005-----0
 62
     7
370
    25
100
AcDbLine
 10
44.161357
 20
385.759566
 30
0.0
 11
41.161357
 21
388.759566
 31
0.0
  0
LINE
  5
11E
330
114
100
AcDbEntity
  8
LC-003-005-----0
 62
     7
370
    25
100
AcDbLine
 10
41.332929
 20
385.759566
 30
0.0
 11
38.332929
 21
388.759566
 31
0.0
  0
LINE
  5
11F
330
114
100
AcDbEntity
  8
LC-003-005-----0
 62
     7
370
    25
100
AcDbLine
 10
38.504502
 20
385.759566
 30
0.0
 11
35.504502
 21
388.759566
 31
0.0
  0
LINE
  5
120
330
114
100
AcDbEntity
  8
LC-003-005-----0
 62
     7
370
    25
100
AcDbLine
 10
35.676075
 20
385.759566
 30
0.0
 11
32.676075
 21
388.759566
 31
0.0
  0
LINE
  5
121
330
114
100
AcDbEntity
  8
LC-003-005-----0
 62
     7
370
    25
100
AcDbLine
 10
32.847648
 20
385.759566
 30
0.0
 11
29.847648
 21
388.759566
 31
0.0
  0
LINE
  5
122
330
114
100
AcDbEntity
  8
LC-003-005-----0
 62
     7
370
    25
100
AcDbLine
 10
30.019221
 20
385.759566
 30
0.0
 11
27.019221
 21
388.759566
 31
0.0
  0
LINE
  5
123
330
114
100
AcDbEntity
  8
LC-003-005-----0
 62
     7
370
    25
100
AcDbLine
 10
27.190794
 20
385.759566
 30
0.0
 11
24.190794
 21
388.759566
 31
0.0
  0
LINE
  5
124
330
114
100
AcDbEntity
  8
LC-003-005-----0
 62
     7
370
    25
100
AcDbLine
 10
24.362367
 20
385.759566
 30
0.0
 11
21.362367
 21
388.759566
 31
0.0
  0
LINE
  5
125
330
114
100
AcDbEntity
  8
LC-003-005-----0
 62
     7
370
    25
100
AcDbLine
 10
21.53394
 20
385.759566
 30
0.0
 11
18.53394
 21
388.759566
 31
0.0
  0
LINE
  5
126
330
114
100
AcDbEntity
  8
LC-003-005-----0
 62
     7
370
    25
100
AcDbLine
 10
18.705512
 20
385.759566
 30
0.0
 11
15.705512
 21
388.759566
 31
0.0
  0
LINE
  5
127
330
114
100
AcDbEntity
  8
LC-003-005-----0
 62
     7
370
    25
100
AcDbLine
 10
15.877085
 20
385.759566
 30
0.0
 11
12.877085
 21
388.759566
 31
0.0
  0
LINE
  5
128
330
114
100
AcDbEntity
  8
LC-003-005-----0
 62
     7
370
    25
100
AcDbLine
 10
13.048658
 20
385.759566
 30
0.0
 11
10.048658
 21
388.759566
 31
0.0
  0
LINE
  5
129
330
114
100
AcDbEntity
  8
LC-003-005-----0
 62
     7
370
    25
100
AcDbLine
 10
10.220231
 20
385.759566
 30
0.0
 11
7.220231
 21
388.759566
 31
0.0
  0
LINE
  5
12A
330
114
100
AcDbEntity
  8
LC-003-005-----0
 62
     7
370
    25
100
AcDbLine
 10
7.391804
 20
385.759566
 30
0.0
 11
4.391804
 21
388.759566
 31
0.0
  0
LINE
  5
12B
330
114
100
AcDbEntity
  8
LC-003-005-----0
 62
     7
370
    25
100
AcDbLine
 10
4.563377
 20
385.759566
 30
0.0
 11
1.563377
 21
388.759566
 31
0.0
  0
LINE
  5
12C
330
114
100
AcDbEntity
  8
LC-003-005-----0
 62
     7
370
    25
100
AcDbLine
 10
1.73495
 20
385.759566
 30
0.0
 11
-1.26505
 21
388.759566
 31
0.0
  0
LINE
  5
12D
330
114
100
AcDbEntity
  8
LC-003-005-----0
 62
     7
370
    25
100
AcDbLine
 10
-1.093477
 20
385.759566
 30
0.0
 11
-4.093477
 21
388.759566
 31
0.0
  0
LINE
  5
12E
330
114
100
AcDbEntity
  8
LC-003-005-----0
 62
     7
370
    25
100
AcDbLine
 10
-3.921905
 20
385.759566
 30
0.0
 11
-6.921905
 21
388.759566
 31
0.0
  0
LINE
  5
12F
330
114
100
AcDbEntity
  8
LC-003-005-----0
 62
     7
370
    25
100
AcDbLine
 10
-6.750332
 20
385.759566
 30
0.0
 11
-9.750332
 21
388.759566
 31
0.0
  0
LINE
  5
130
330
114
100
AcDbEntity
  8
LC-003-005-----0
 62
     7
370
    25
100
AcDbLine
 10
-9.578759
 20
385.759566
 30
0.0
 11
-12.578759
 21
388.759566
 31
0.0
  0
LINE
  5
131
330
114
100
AcDbEntity
  8
LC-003-005-----0
 62
     7
370
    25
100
AcDbLine
 10
-12.407186
 20
385.759566
 30
0.0
 11
-15.407186
 21
388.759566
 31
0.0
  0
LINE
  5
132
330
114
100
AcDbEntity
  8
LC-003-005-----0
 62
     7
370
    25
100
AcDbLine
 10
-15.235613
 20
385.759566
 30
0.0
 11
-18.235613
 21
388.759566
 31
0.0
  0
LINE
  5
133
330
114
100
AcDbEntity
  8
LC-003-005-----0
 62
     7
370
    25
100
AcDbLine
 10
-18.06404
 20
385.759566
 30
0.0
 11
-21.06404
 21
388.759566
 31
0.0
  0
LINE
  5
134
330
114
100
AcDbEntity
  8
LC-003-005-----0
 62
     7
370
    25
100
AcDbLine
 10
-20.892467
 20
385.759566
 30
0.0
 11
-23.892467
 21
388.759566
 31
0.0
  0
LINE
  5
135
330
114
100
AcDbEntity
  8
LC-003-005-----0
 62
     7
370
    25
100
AcDbLine
 10
-23.720894
 20
385.759566
 30
0.0
 11
-26.720894
 21
388.759566
 31
0.0
  0
LINE
  5
136
330
114
100
AcDbEntity
  8
LC-003-005-----0
 62
     7
370
    25
100
AcDbLine
 10
-26.549322
 20
385.759566
 30
0.0
 11
-29.549322
 21
388.759566
 31
0.0
  0
LINE
  5
137
330
114
100
AcDbEntity
  8
LC-003-005-----0
 62
     7
370
    25
100
AcDbLine
 10
-29.377749
 20
385.759566
 30
0.0
 11
-32.377749
 21
388.759566
 31
0.0
  0
LINE
  5
138
330
114
100
AcDbEntity
  8
LC-003-005-----0
 62
     7
370
    25
100
AcDbLine
 10
-32.206176
 20
385.759566
 30
0.0
 11
-35.206176
 21
388.759566
 31
0.0
  0
LINE
  5
139
330
114
100
AcDbEntity
  8
LC-003-005-----0
 62
     7
370
    25
100
AcDbLine
 10
-35.034603
 20
385.759566
 30
0.0
 11
-38.034603
 21
388.759566
 31
0.0
  0
LINE
  5
13A
330
114
100
AcDbEntity
  8
LC-003-005-----0
 62
     7
370
    25
100
AcDbLine
 10
-37.86303
 20
385.759566
 30
0.0
 11
-40.86303
 21
388.759566
 31
0.0
  0
LINE
  5
13B
330
114
100
AcDbEntity
  8
LC-003-005-----0
 62
     7
370
    25
100
AcDbLine
 10
-40.691457
 20
385.759566
 30
0.0
 11
-43.691457
 21
388.759566
 31
0.0
  0
LINE
  5
13C
330
114
100
AcDbEntity
  8
LC-003-005-----0
 62
     7
370
    25
100
AcDbLine
 10
-43.519884
 20
385.759566
 30
0.0
 11
-46.519884
 21
388.759566
 31
0.0
  0
LINE
  5
13D
330
114
100
AcDbEntity
  8
LC-003-005-----0
 62
     7
370
    25
100
AcDbLine
 10
-46.348311
 20
385.759566
 30
0.0
 11
-49.348311
 21
388.759566
 31
0.0
  0
LINE
  5
13E
330
114
100
AcDbEntity
  8
LC-003-005-----0
 62
     7
370
    25
100
AcDbLine
 10
-49.176739
 20
385.759566
 30
0.0
 11
-52.176739
 21
388.759566
 31
0.0
  0
LINE
  5
13F
330
114
100
AcDbEntity
  8
LC-003-005-----0
 62
     7
370
    25
100
AcDbLine
 10
-52.005166
 20
385.759566
 30
0.0
 11
-52.211857
 21
385.966258
 31
0.0
  0
ENDBLK
  5
116
330
114
100
AcDbEntity
  8
0
100
AcDbBlockEnd
  0
BLOCK
  5
16F
330
16E
100
AcDbEntity
  8
0
100
AcDbBlockBegin
  2
*X66
 70
     1
 71
     0
 10
0.0
 20
0.0
 30
0.0
  3
*X66
  1

  4
*X6
  0
LINE
  5
171
330
16E
100
AcDbEntity
  8
LC-003-005-----0
 62
     7
370
    25
100
AcDbLine
 10
-19.660356
 20
379.147869
 30
0.0
 11
-19.211857
 21
379.596367
 31
0.0
  0
LINE
  5
172
330
16E
100
AcDbEntity
  8
LC-003-005-----0
 62
     7
370
    25
100
AcDbLine
 10
-20.711857
 20
380.924795
 30
0.0
 11
-19.477745
 21
382.158906
 31
0.0
  0
LINE
  5
173
330
16E
100
AcDbEntity
  8
LC-003-005-----0
 62
     7
370
    25
100
AcDbLine
 10
-25.31721
 20
379.147869
 30
0.0
 11
-24.711857
 21
379.753222
 31
0.0
  0
LINE
  5
174
330
16E
100
AcDbEntity
  8
LC-003-005-----0
 62
     7
370
    25
100
AcDbLine
 10
-22.61721
 20
381.847869
 30
0.0
 11
-21.140305
 21
383.324773
 31
0.0
  0
LINE
  5
175
330
16E
100
AcDbEntity
  8
LC-003-005-----0
 62
     7
370
    25
100
AcDbLine
 10
-26.211857
 20
381.081649
 30
0.0
 11
-23.945637
 21
383.347869
 31
0.0
  0
ENDBLK
  5
170
330
16E
100
AcDbEntity
  8
0
100
AcDbBlockEnd
  0
BLOCK
  5
17F
330
17E
100
AcDbEntity
  8
0
100
AcDbBlockBegin
  2
*X77
 70
     1
 71
     0
 10
0.0
 20
0.0
 30
0.0
  3
*X77
  1

  4
*X7
  0
LINE
  5
181
330
17E
100
AcDbEntity
  8
LC-003-005-----0
 62
     7
370
    25
100
AcDbLine
 10
-33.711857
 20
379.238503
 30
0.0
 11
-32.211857
 21
380.738503
 31
0.0
  0
LINE
  5
182
330
17E
100
AcDbEntity
  8
LC-003-005-----0
 62
     7
370
    25
100
AcDbLine
 10
-34.052492
 20
381.726295
 30
0.0
 11
-32.984172
 21
382.794615
 31
0.0
  0
LINE
  5
183
330
17E
100
AcDbEntity
  8
LC-003-005-----0
 62
     7
370
    25
100
AcDbLine
 10
-39.211857
 20
379.395357
 30
0.0
 11
-37.711857
 21
380.895357
 31
0.0
  0
LINE
  5
184
330
17E
100
AcDbEntity
  8
LC-003-005-----0
 62
     7
370
    25
100
AcDbLine
 10
-36.759346
 20
381.847869
 30
0.0
 11
-35.259346
 21
383.347869
 31
0.0
  0
ENDBLK
  5
180
330
17E
100
AcDbEntity
  8
0
100
AcDbBlockEnd
  0
BLOCK
  5
187
330
186
100
AcDbEntity
  8
0
100
AcDbBlockBegin
  2
*X88
 70
     1
 71
     0
 10
0.0
 20
0.0
 30
0.0
  3
*X88
  1

  4
*X8
  0
LINE
  5
189
330
186
100
AcDbEntity
  8
LC-003-005-----0
 62
     7
370
    25
100
AcDbLine
 10
-46.711857
 20
380.380639
 30
0.0
 11
-45.316485
 21
381.776011
 31
0.0
  0
LINE
  5
18A
330
186
100
AcDbEntity
  8
LC-003-005-----0
 62
     7
370
    25
100
AcDbLine
 10
-51.573054
 20
378.347869
 30
0.0
 11
-50.711857
 21
379.209066
 31
0.0
  0
LINE
  5
18B
330
186
100
AcDbEntity
  8
LC-003-005-----0
 62
     7
370
    25
100
AcDbLine
 10
-48.073054
 20
381.847869
 30
0.0
 11
-46.704389
 21
383.216534
 31
0.0
  0
LINE
  5
18C
330
186
100
AcDbEntity
  8
LC-003-005-----0
 62
     7
370
    25
100
AcDbLine
 10
-52.211857
 20
380.537493
 30
0.0
 11
-49.401481
 21
383.347869
 31
0.0
  0
ENDBLK
  5
188
330
186
100
AcDbEntity
  8
0
100
AcDbBlockEnd
  0
BLOCK
  5
1B5
330
1B4
100
AcDbEntity
  8
0
100
AcDbBlockBegin
  2
*X99
 70
     1
 71
     0
 10
0.0
 20
0.0
 30
0.0
  3
*X99
  1

  4
*X9
  0
LINE
  5
1B7
330
1B4
100
AcDbEntity
  8
LC-003-005-----0
 62
     7
370
    25
100
AcDbLine
 10
35.288143
 20
380.356252
 30
0.0
 11
36.689305
 21
381.757414
 31
0.0
  0
LINE
  5
1B8
330
1B4
100
AcDbEntity
  8
LC-003-005-----0
 62
     7
370
    25
100
AcDbLine
 10
31.251332
 20
379.147869
 30
0.0
 11
31.288143
 21
379.184679
 31
0.0
  0
LINE
  5
1B9
330
1B4
100
AcDbEntity
  8
LC-003-005-----0
 62
     7
370
    25
100
AcDbLine
 10
33.951332
 20
381.847869
 30
0.0
 11
35.313512
 21
383.210048
 31
0.0
  0
LINE
  5
1BA
330
1B4
100
AcDbEntity
  8
LC-003-005-----0
 62
     7
370
    25
100
AcDbLine
 10
29.788143
 20
380.513106
 30
0.0
 11
32.622905
 21
383.347869
 31
0.0
  0
ENDBLK
  5
1B6
330
1B4
100
AcDbEntity
  8
0
100
AcDbBlockEnd
  0
BLOCK
  5
1C4
330
1C3
100
AcDbEntity
  8
0
100
AcDbBlockBegin
  2
*X1010
 70
     1
 71
     0
 10
0.0
 20
0.0
 30
0.0
  3
*X1010
  1

  4
*X10
  0
LINE
  5
1C6
330
1C3
100
AcDbEntity
  8
LC-003-005-----0
 62
     7
370
    25
100
AcDbLine
 10
48.288143
 20
379.214116
 30
0.0
 11
49.788143
 21
380.714116
 31
0.0
  0
LINE
  5
1C7
330
1C3
100
AcDbEntity
  8
LC-003-005-----0
 62
     7
370
    25
100
AcDbLine
 10
47.962126
 20
381.716527
 30
0.0
 11
49.028815
 21
382.783216
 31
0.0
  0
LINE
  5
1C8
330
1C3
100
AcDbEntity
  8
LC-003-005-----0
 62
     7
370
    25
100
AcDbLine
 10
42.788143
 20
379.370971
 30
0.0
 11
44.288143
 21
380.870971
 31
0.0
  0
LINE
  5
1C9
330
1C3
100
AcDbEntity
  8
LC-003-005-----0
 62
     7
370
    25
100
AcDbLine
 10
45.265041
 20
381.847869
 30
0.0
 11
46.765041
 21
383.347869
 31
0.0
  0
ENDBLK
  5
1C5
330
1C3
100
AcDbEntity
  8
0
100
AcDbBlockEnd
  0
BLOCK
  5
1CC
330
1CB
100
AcDbEntity
  8
0
100
AcDbBlockBegin
  2
*X1111
 70
     1
 71
     0
 10
0.0
 20
0.0
 30
0.0
  3
*X1111
  1

  4
*X11
  0
LINE
  5
1CE
330
1CB
100
AcDbEntity
  8
LC-003-005-----0
 62
     7
370
    25
100
AcDbLine
 10
61.826087
 20
378.609925
 30
0.0
 11
62.788143
 21
379.571981
 31
0.0
  0
LINE
  5
1CF
330
1CB
100
AcDbEntity
  8
LC-003-005-----0
 62
     7
370
    25
100
AcDbLine
 10
61.288143
 20
380.900408
 30
0.0
 11
62.530698
 21
382.142963
 31
0.0
  0
LINE
  5
1D0
330
1CB
100
AcDbEntity
  8
LC-003-005-----0
 62
     7
370
    25
100
AcDbLine
 10
56.707176
 20
379.147869
 30
0.0
 11
57.288143
 21
379.728835
 31
0.0
  0
LINE
  5
1D1
330
1CB
100
AcDbEntity
  8
LC-003-005-----0
 62
     7
370
    25
100
AcDbLine
 10
59.407176
 20
381.847869
 30
0.0
 11
60.880914
 21
383.321606
 31
0.0
  0
LINE
  5
1D2
330
1CB
100
AcDbEntity
  8
LC-003-005-----0
 62
     7
370
    25
100
AcDbLine
 10
55.788143
 20
381.057262
 30
0.0
 11
58.078749
 21
383.347869
 31
0.0
  0
ENDBLK
  5
1CD
330
1CB
100
AcDbEntity
  8
0
100
AcDbBlockEnd
  0
BLOCK
  5
1D6
330
1D5
100
AcDbEntity
  8
0
100
AcDbBlockBegin
  2
*X1212
 70
     1
 71
     0
 10
0.0
 20
0.0
 30
0.0
  3
*X1212
  1

  4
*X12
  0
LINE
  5
1D8
330
1D5
100
AcDbEntity
  8
LC-003-005-----0
 62
     7
370
    25
100
AcDbLine
 10
22.766051
 20
379.147869
 30
0.0
 11
23.788143
 21
380.169961
 31
0.0
  0
LINE
  5
1D9
330
1D5
100
AcDbEntity
  8
LC-003-005-----0
 62
     7
370
    25
100
AcDbLine
 10
22.213599
 20
381.423843
 30
0.0
 11
23.294248
 21
382.504493
 31
0.0
  0
LINE
  5
1DA
330
1D5
100
AcDbEntity
  8
LC-003-005-----0
 62
     7
370
    25
100
AcDbLine
 10
19.809197
 20
381.847869
 30
0.0
 11
21.309197
 21
383.347869
 31
0.0
  0
LINE
  5
1DB
330
1D5
100
AcDbEntity
  8
LC-003-005-----0
 62
     7
370
    25
100
AcDbLine
 10
16.98077
 20
381.847869
 30
0.0
 11
18.48077
 21
383.347869
 31
0.0
  0
LINE
  5
1DC
330
1D5
100
AcDbEntity
  8
LC-003-005-----0
 62
     7
370
    25
100
AcDbLine
 10
14.152342
 20
381.847869
 30
0.0
 11
15.652342
 21
383.347869
 31
0.0
  0
LINE
  5
1DD
330
1D5
100
AcDbEntity
  8
LC-003-005-----0
 62
     7
370
    25
100
AcDbLine
 10
11.323915
 20
381.847869
 30
0.0
 11
12.823915
 21
383.347869
 31
0.0
  0
LINE
  5
1DE
330
1D5
100
AcDbEntity
  8
LC-003-005-----0
 62
     7
370
    25
100
AcDbLine
 10
8.495488
 20
381.847869
 30
0.0
 11
9.995488
 21
383.347869
 31
0.0
  0
LINE
  5
1DF
330
1D5
100
AcDbEntity
  8
LC-003-005-----0
 62
     7
370
    25
100
AcDbLine
 10
5.667061
 20
381.847869
 30
0.0
 11
7.167061
 21
383.347869
 31
0.0
  0
ENDBLK
  5
1D7
330
1D5
100
AcDbEntity
  8
0
100
AcDbBlockEnd
  0
BLOCK
  5
1E2
330
1E1
100
AcDbEntity
  8
0
100
AcDbBlockBegin
  2
*X1313
 70
     1
 71
     0
 10
0.0
 20
0.0
 30
0.0
  3
*X1313
  1

  4
*X13
  0
LINE
  5
1E4
330
1E1
100
AcDbEntity
  8
LC-003-005-----0
 62
     7
370
    25
100
AcDbLine
 10
2.838634
 20
381.847869
 30
0.0
 11
4.338634
 21
383.347869
 31
0.0
  0
LINE
  5
1E5
330
1E1
100
AcDbEntity
  8
LC-003-005-----0
 62
     7
370
    25
100
AcDbLine
 10
0.010207
 20
381.847869
 30
0.0
 11
1.510207
 21
383.347869
 31
0.0
  0
LINE
  5
1E6
330
1E1
100
AcDbEntity
  8
LC-003-005-----0
 62
     7
370
    25
100
AcDbLine
 10
-2.81822
 20
381.847869
 30
0.0
 11
-1.31822
 21
383.347869
 31
0.0
  0
LINE
  5
1E7
330
1E1
100
AcDbEntity
  8
LC-003-005-----0
 62
     7
370
    25
100
AcDbLine
 10
-5.646647
 20
381.847869
 30
0.0
 11
-4.146647
 21
383.347869
 31
0.0
  0
LINE
  5
1E8
330
1E1
100
AcDbEntity
  8
LC-003-005-----0
 62
     7
370
    25
100
AcDbLine
 10
-8.475075
 20
381.847869
 30
0.0
 11
-6.975075
 21
383.347869
 31
0.0
  0
LINE
  5
1E9
330
1E1
100
AcDbEntity
  8
LC-003-005-----0
 62
     7
370
    25
100
AcDbLine
 10
-13.211857
 20
379.939513
 30
0.0
 11
-9.803502
 21
383.347869
 31
0.0
  0
ENDBLK
  5
1E3
330
1E1
100
AcDbEntity
  8
0
100
AcDbBlockEnd
  0
BLOCK
  5
24F
330
245
100
AcDbEntity
  8
0
100
AcDbBlockBegin
  2
*D14
 70
     1
 71
     0
 10
0.0
 20
0.0
 30
0.0
  3
*D14
  1

  0
LINE
  5
246
330
245
100
AcDbEntity
  8
LC-004-003-----0
 62
     2
370
    -2
100
AcDbLine
 10
-55.211857
 20
386.559566
 30
0.0
 11
-55.211857
 21
411.41065
 31
0.0
  0
LINE
  5
247
330
245
100
AcDbEntity
  8
LC-004-003-----0
 62
     2
370
    -2
100
AcDbLine
 10
65.788143
 20
386.559566
 30
0.0
 11
65.788143
 21
411.41065
 31
0.0
  0
LINE
  5
248
330
245
100
AcDbEntity
  8
LC-004-003-----0
 62
     2
370
    -2
100
AcDbLine
 10
-27.211857
 20
407.81065
 30
0.0
 11
37.788143
 21
407.81065
 31
0.0
  0
SOLID
  5
249
330
245
100
AcDbEntity
  8
LC-004-003-----0
 62
     2
100
AcDbTrace
 10
-27.211857
 20
412.477317
 30
0.0
 11
-27.211857
 21
403.143984
 31
0.0
 12
-55.211857
 22
407.81065
 32
0.0
 13
-55.211857
 23
407.81065
 33
0.0
  0
SOLID
  5
24A
330
245
100
AcDbEntity
  8
LC-004-003-----0
 62
     2
100
AcDbTrace
 10
37.788143
 20
403.143984
 30
0.0
 11
37.788143
 21
412.477317
 31
0.0
 12
65.788143
 22
407.81065
 32
0.0
 13
65.788143
 23
407.81065
 33
0.0
  0
MTEXT
  5
24B
330
245
100
AcDbEntity
  8
LC-004-003-----0
 62
     2
100
AcDbMText
 10
14.978294
 20
438.61065
 30
0.0
 40
28.0
 41
0.0
 71
     5
 72
     1
  1
\A1;120
  7
LCTX15-400-0-0pDIN-Schrift
 73
     1
 44
1.0
  0
POINT
  5
24C
330
245
100
AcDbEntity
  8
Defpoints
 62
     0
100
AcDbPoint
 10
-55.211857
 20
386.559566
 30
0.0
  0
POINT
  5
24D
330
245
100
AcDbEntity
  8
Defpoints
 62
     0
100
AcDbPoint
 10
65.788143
 20
386.559566
 30
0.0
  0
POINT
  5
24E
330
245
100
AcDbEntity
  8
Defpoints
 62
     0
100
AcDbPoint
 10
65.788143
 20
407.81065
 30
0.0
  0
ENDBLK
  5
250
330
245
100
AcDbEntity
  8
0
100
AcDbBlockEnd
  0
BLOCK
  5
25D
330
252
100
AcDbEntity
  8
0
100
AcDbBlockBegin
  2
*D15
 70
     1
 71
     0
 10
0.0
 20
0.0
 30
0.0
  3
*D15
  1

  0
LINE
  5
253
330
252
100
AcDbEntity
  8
LC-004-003-----0
 62
     2
370
    -2
100
AcDbLine
 10
-49.211857
 20
362.747869
 30
0.0
 11
-82.0
 21
362.747869
 31
0.0
  0
LINE
  5
254
330
252
100
AcDbEntity
  8
LC-004-003-----0
 62
     2
370
    -2
100
AcDbLine
 10
-53.411857
 20
388.759566
 30
0.0
 11
-82.0
 21
388.759566
 31
0.0
  0
LINE
  5
255
330
252
100
AcDbEntity
  8
LC-004-003-----0
 62
     2
370
    -2
100
AcDbLine
 10
-78.4
 20
416.759566
 30
0.0
 11
-78.4
 21
444.759566
 31
0.0
  0
LINE
  5
256
330
252
100
AcDbEntity
  8
LC-004-003-----0
 62
     2
370
    -2
100
AcDbLine
 10
-78.4
 20
334.747869
 30
0.0
 11
-78.4
 21
312.71526
 31
0.0
  0
SOLID
  5
257
330
252
100
AcDbEntity
  8
LC-004-003-----0
 62
     2
100
AcDbTrace
 10
-73.733333
 20
334.747869
 30
0.0
 11
-83.066667
 21
334.747869
 31
0.0
 12
-78.4
 22
362.747869
 32
0.0
 13
-78.4
 23
362.747869
 33
0.0
  0
SOLID
  5
258
330
252
100
AcDbEntity
  8
LC-004-003-----0
 62
     2
100
AcDbTrace
 10
-83.066667
 20
416.759566
 30
0.0
 11
-73.733333
 21
416.759566
 31
0.0
 12
-78.4
 22
388.759566
 32
0.0
 13
-78.4
 23
388.759566
 33
0.0
  0
MTEXT
  5
259
330
252
100
AcDbEntity
  8
LC-004-003-----0
 62
     2
100
AcDbMText
 10
-109.2
 20
336.53065
 30
0.0
 40
28.0
 41
0.0
 71
     5
 72
     1
  1
\A1;26
  7
LCTX15-400-0-0pDIN-Schrift
 11
6.123031769111886E-17
 21
1.0
 31
0.0
 73
     1
 44
1.0
  0
POINT
  5
25A
330
252
100
AcDbEntity
  8
Defpoints
 62
     0
100
AcDbPoint
 10
-49.211857
 20
362.747869
 30
0.0
  0
POINT
  5
25B
330
252
100
AcDbEntity
  8
Defpoints
 62
     0
100
AcDbPoint
 10
-53.411857
 20
388.759566
 30
0.0
  0
POINT
  5
25C
330
252
100
AcDbEntity
  8
Defpoints
 62
     0
100
AcDbPoint
 10
-78.4
 20
388.759566
 30
0.0
  0
ENDBLK
  5
25E
330
252
100
AcDbEntity
  8
0
100
AcDbBlockEnd
  0
BLOCK
  5
27C
330
272
100
AcDbEntity
  8
0
100
AcDbBlockBegin
  2
*D16
 70
     1
 71
     0
 10
0.0
 20
0.0
 30
0.0
  3
*D16
  1

  0
LINE
  5
273
330
272
100
AcDbEntity
  8
LC-004-003-----0
 62
     2
370
    -2
100
AcDbLine
 10
-53.411857
 20
388.759566
 30
0.0
 11
-136.639894
 21
388.759566
 31
0.0
  0
LINE
  5
274
330
272
100
AcDbEntity
  8
LC-004-003-----0
 62
     2
370
    -2
100
AcDbLine
 10
-44.90801
 20
265.747869
 30
0.0
 11
-136.639894
 21
265.747869
 31
0.0
  0
LINE
  5
275
330
272
100
AcDbEntity
  8
LC-004-003-----0
 62
     2
370
    -2
100
AcDbLine
 10
-133.039894
 20
360.759566
 30
0.0
 11
-133.039894
 21
293.747869
 31
0.0
  0
SOLID
  5
276
330
272
100
AcDbEntity
  8
LC-004-003-----0
 62
     2
100
AcDbTrace
 10
-128.373228
 20
360.759566
 30
0.0
 11
-137.706561
 21
360.759566
 31
0.0
 12
-133.039894
 22
388.759566
 32
0.0
 13
-133.039894
 23
388.759566
 33
0.0
  0
SOLID
  5
277
330
272
100
AcDbEntity
  8
LC-004-003-----0
 62
     2
100
AcDbTrace
 10
-137.706561
 20
293.747869
 30
0.0
 11
-128.373228
 21
293.747869
 31
0.0
 12
-133.039894
 22
265.747869
 32
0.0
 13
-133.039894
 23
265.747869
 33
0.0
  0
MTEXT
  5
278
330
272
100
AcDbEntity
  8
LC-004-003-----0
 62
     2
100
AcDbMText
 10
-163.839894
 20
326.43265
 30
0.0
 40
28.0
 41
0.0
 71
     5
 72
     1
  1
\A1;123
  7
LCTX15-400-0-0pDIN-Schrift
 11
6.123031769111886E-17
 21
1.0
 31
0.0
 73
     1
 44
1.0
  0
POINT
  5
279
330
272
100
AcDbEntity
  8
Defpoints
 62
     0
100
AcDbPoint
 10
-53.411857
 20
388.759566
 30
0.0
  0
POINT
  5
27A
330
272
100
AcDbEntity
  8
Defpoints
 62
     0
100
AcDbPoint
 10
-44.90801
 20
265.747869
 30
0.0
  0
POINT
  5
27B
330
272
100
AcDbEntity
  8
Defpoints
 62
     0
100
AcDbPoint
 10
-133.039894
 20
265.747869
 30
0.0
  0
ENDBLK
  5
27D
330
272
100
AcDbEntity
  8
0
100
AcDbBlockEnd
  0
BLOCK
  5
289
330
27F
100
AcDbEntity
  8
0
100
AcDbBlockBegin
  2
*D17
 70
     1
 71
     0
 10
0.0
 20
0.0
 30
0.0
  3
*D17
  1

  0
LINE
  5
280
330
27F
100
AcDbEntity
  8
LC-004-003-----0
 62
     2
370
    -2
100
AcDbLine
 10
-45.711857
 20
268.747869
 30
0.0
 11
-45.711857
 21
216.4
 31
0.0
  0
LINE
  5
281
330
27F
100
AcDbEntity
  8
LC-004-003-----0
 62
     2
370
    -2
100
AcDbLine
 10
56.288143
 20
268.747869
 30
0.0
 11
56.288143
 21
216.4
 31
0.0
  0
LINE
  5
282
330
27F
100
AcDbEntity
  8
LC-004-003-----0
 62
     2
370
    -2
100
AcDbLine
 10
-17.711857
 20
220.0
 30
0.0
 11
28.288143
 21
220.0
 31
0.0
  0
SOLID
  5
283
330
27F
100
AcDbEntity
  8
LC-004-003-----0
 62
     2
100
AcDbTrace
 10
-17.711857
 20
224.666667
 30
0.0
 11
-17.711857
 21
215.333333
 31
0.0
 12
-45.711857
 22
220.0
 32
0.0
 13
-45.711857
 23
220.0
 33
0.0
  0
SOLID
  5
284
330
27F
100
AcDbEntity
  8
LC-004-003-----0
 62
     2
100
AcDbTrace
 10
28.288143
 20
215.333333
 30
0.0
 11
28.288143
 21
224.666667
 31
0.0
 12
56.288143
 22
220.0
 32
0.0
 13
56.288143
 23
220.0
 33
0.0
  0
MTEXT
  5
285
330
27F
100
AcDbEntity
  8
LC-004-003-----0
 62
     2
100
AcDbMText
 10
5.288143
 20
250.8
 30
0.0
 40
28.0
 41
0.0
 71
     5
 72
     1
  1
\A1;%%c102,7
  7
LCTX15-400-0-0pDIN-Schrift
 73
     1
 44
1.0
  0
POINT
  5
286
330
27F
100
AcDbEntity
  8
Defpoints
 62
     0
100
AcDbPoint
 10
-45.711857
 20
268.747869
 30
0.0
  0
POINT
  5
287
330
27F
100
AcDbEntity
  8
Defpoints
 62
     0
100
AcDbPoint
 10
56.288143
 20
268.747869
 30
0.0
  0
POINT
  5
288
330
27F
100
AcDbEntity
  8
Defpoints
 62
     0
100
AcDbPoint
 10
56.288143
 20
220.0
 30
0.0
  0
ENDBLK
  5
28A
330
27F
100
AcDbEntity
  8
0
100
AcDbBlockEnd
  0
ENDSEC
  0
SECTION
  2
ENTITIES
  0
LINE
  5
31
102
{ACAD_REACTORS
330
28D
102
}
330
1F
100
AcDbEntity
  8
LC-001-002-----0
 62
     7
370
    50
100
AcDbLine
 10
-47.211857
 20
373.247869
 30
0.0
 11
-47.211857
 21
371.747869
 31
0.0
  0
LINE
  5
32
102
{ACAD_REACTORS
330
28D
102
}
330
1F
100
AcDbEntity
  8
LC-001-002-----0
 62
     7
370
    50
100
AcDbLine
 10
57.788143
 20
373.247869
 30
0.0
 11
57.788143
 21
371.747869
 31
0.0
  0
LINE
  5
33
102
{ACAD_REACTORS
330
28D
102
}
330
1F
100
AcDbEntity
  8
LC-001-002-----0
 62
     7
370
    50
100
AcDbLine
 10
-45.711857
 20
268.747869
 30
0.0
 11
-44.90801
 21
265.747869
 31
0.0
  0
LINE
  5
34
102
{ACAD_REACTORS
330
28D
102
}
330
1F
100
AcDbEntity
  8
LC-001-002-----0
 62
     7
370
    50
100
AcDbLine
 10
-44.90801
 20
265.747869
 30
0.0
 11
5.288143
 21
265.747869
 31
0.0
  0
LINE
  5
35
102
{ACAD_REACTORS
330
28D
102
}
330
1F
100
AcDbEntity
  8
LC-001-002-----0
 62
     7
370
    50
100
AcDbLine
 10
56.288143
 20
268.747869
 30
0.0
 11
55.484295
 21
265.747869
 31
0.0
  0
LINE
  5
36
102
{ACAD_REACTORS
330
28D
102
}
330
1F
100
AcDbEntity
  8
LC-001-002-----0
 62
     7
370
    50
100
AcDbLine
 10
-48.461857
 20
373.747869
 30
0.0
 11
-48.461857
 21
375.247869
 31
0.0
  0
LINE
  5
37
102
{ACAD_REACTORS
330
28D
102
}
330
1F
100
AcDbEntity
  8
LC-001-002-----0
 62
     7
370
    50
100
AcDbLine
 10
-47.211857
 20
365.247869
 30
0.0
 11
5.288143
 21
365.247869
 31
0.0
  0
LINE
  5
38
102
{ACAD_REACTORS
330
28D
102
}
330
1F
100
AcDbEntity
  8
LC-001-002-----0
 62
     7
370
    50
100
AcDbLine
 10
55.484295
 20
265.747869
 30
0.0
 11
5.288143
 21
265.747869
 31
0.0
  0
LINE
  5
39
102
{ACAD_REACTORS
330
28D
102
}
330
1F
100
AcDbEntity
  8
LC-001-002-----0
 62
     7
370
    50
100
AcDbLine
 10
-47.211857
 20
370.247869
 30
0.0
 11
-47.211857
 21
365.247869
 31
0.0
  0
LINE
  5
3A
102
{ACAD_REACTORS
330
28D
102
}
330
1F
100
AcDbEntity
  8
LC-001-002-----0
 62
     7
370
    50
100
AcDbLine
 10
59.038143
 20
373.747869
 30
0.0
 11
59.038143
 21
375.247869
 31
0.0
  0
ARC
  5
3B
102
{ACAD_REACTORS
330
28D
102
}
330
1F
100
AcDbEntity
  8
LC-001-002-----0
 62
     7
370
    50
100
AcDbCircle
 10
-47.211857
 20
370.997869
 30
0.0
 40
0.75
100
AcDbArc
 50
270.0
 51
90.0
  0
LINE
  5
3C
102
{ACAD_REACTORS
330
28D
102
}
330
1F
100
AcDbEntity
  8
LC-001-002-----0
 62
     7
370
    50
100
AcDbLine
 10
-47.711857
 20
373.747869
 30
0.0
 11
-48.461857
 21
373.747869
 31
0.0
  0
ARC
  5
3E
102
{ACAD_REACTORS
330
28D
102
}
330
1F
100
AcDbEntity
  8
LC-002-002-RND-0
 62
     7
370
    50
100
AcDbCircle
 10
-47.711857
 20
373.247869
 30
0.0
 40
0.5
100
AcDbArc
 50
360.0
 51
90.0
  0
ARC
  5
3F
102
{ACAD_REACTORS
330
28D
102
}
330
1F
100
AcDbEntity
  8
LC-002-002-RND-0
 62
     7
370
    50
100
AcDbCircle
 10
-43.711857
 20
364.747869
 30
0.0
 40
0.5
100
AcDbArc
 50
0.0
 51
90.0
  0
ARC
  5
40
102
{ACAD_REACTORS
330
28D
102
}
330
1F
100
AcDbEntity
  8
LC-002-002-RND-0
 62
     7
370
    50
100
AcDbCircle
 10
-49.211857
 20
363.247869
 30
0.0
 40
0.5
100
AcDbArc
 50
180.0
 51
270.0
  0
LINE
  5
41
102
{ACAD_REACTORS
330
28D
102
}
330
1F
100
AcDbEntity
  8
LC-001-002-----0
 62
     7
370
    50
100
AcDbLine
 10
57.788143
 20
365.247869
 30
0.0
 11
5.288143
 21
365.247869
 31
0.0
  0
LINE
  5
42
102
{ACAD_REACTORS
330
28D
102
}
330
1F
100
AcDbEntity
  8
LC-001-002-----0
 62
     7
370
    50
100
AcDbLine
 10
57.788143
 20
370.247869
 30
0.0
 11
57.788143
 21
365.247869
 31
0.0
  0
ARC
  5
43
102
{ACAD_REACTORS
330
28D
102
}
330
1F
100
AcDbEntity
  8
LC-001-002-----0
 62
     7
370
    50
100
AcDbCircle
 10
57.788143
 20
370.997869
 30
0.0
 40
0.75
100
AcDbArc
 50
90.0
 51
270.0
  0
LINE
  5
44
102
{ACAD_REACTORS
330
28D
102
}
330
1F
100
AcDbEntity
  8
LC-001-002-----0
 62
     7
370
    50
100
AcDbLine
 10
-49.711857
 20
375.247869
 30
0.0
 11
-49.711857
 21
363.247869
 31
0.0
  0
LINE
  5
45
102
{ACAD_REACTORS
330
28D
102
}
330
1F
100
AcDbEntity
  8
LC-001-002-----0
 62
     7
370
    50
100
AcDbLine
 10
58.288143
 20
373.747869
 30
0.0
 11
59.038143
 21
373.747869
 31
0.0
  0
ARC
  5
46
102
{ACAD_REACTORS
330
28D
102
}
330
1F
100
AcDbEntity
  8
LC-002-002-RND-0
 62
     7
370
    50
100
AcDbCircle
 10
58.288143
 20
373.247869
 30
0.0
 40
0.5
100
AcDbArc
 50
90.0
 51
180.0
  0
ARC
  5
47
102
{ACAD_REACTORS
330
28D
102
}
330
1F
100
AcDbEntity
  8
LC-002-002-RND-0
 62
     7
370
    50
100
AcDbCircle
 10
54.288143
 20
364.747869
 30
0.0
 40
0.5
100
AcDbArc
 50
90.0
 51
180.0
  0
LINE
  5
48
102
{ACAD_REACTORS
330
28D
102
}
330
1F
100
AcDbEntity
  8
LC-001-002-----0
 62
     7
370
    50
100
AcDbLine
 10
-48.461857
 20
375.247869
 30
0.0
 11
-49.711857
 21
375.247869
 31
0.0
  0
ARC
  5
49
102
{ACAD_REACTORS
330
28D
102
}
330
1F
100
AcDbEntity
  8
LC-002-002-RND-0
 62
     7
370
    50
100
AcDbCircle
 10
59.788143
 20
363.247869
 30
0.0
 40
0.5
100
AcDbArc
 50
270.0
 51
0.0
  0
LINE
  5
4A
102
{ACAD_REACTORS
330
28D
102
}
330
1F
100
AcDbEntity
  8
LC-001-002-----0
 62
     7
370
    50
100
AcDbLine
 10
60.288143
 20
375.247869
 30
0.0
 11
60.288143
 21
363.247869
 31
0.0
  0
LINE
  5
4B
102
{ACAD_REACTORS
330
28D
102
}
330
1F
100
AcDbEntity
  8
LC-001-002-----0
 62
     7
370
    50
100
AcDbLine
 10
59.038143
 20
375.247869
 30
0.0
 11
60.288143
 21
375.247869
 31
0.0
  0
LINE
  5
4C
102
{ACAD_REACTORS
330
28D
102
}
330
1F
100
AcDbEntity
  8
LC-001-002-----0
 62
     7
370
    50
100
AcDbLine
 10
56.288143
 20
362.747869
 30
0.0
 11
56.288143
 21
268.747869
 31
0.0
  0
LINE
  5
4D
102
{ACAD_REACTORS
330
28D
102
}
330
1F
100
AcDbEntity
  8
LC-001-002-----0
 62
     7
370
    50
100
AcDbLine
 10
53.788143
 20
364.747869
 30
0.0
 11
53.788143
 21
265.747869
 31
0.0
  0
LINE
  5
4E
102
{ACAD_REACTORS
330
28D
102
}
330
1F
100
AcDbEntity
  8
LC-001-002-----0
 62
     7
370
    50
100
AcDbLine
 10
59.788143
 20
362.747869
 30
0.0
 11
56.288143
 21
362.747869
 31
0.0
  0
INSERT
  5
7B
102
{ACAD_REACTORS
330
28D
102
}
330
1F
100
AcDbEntity
  8
LC-003-005-----0
 62
     7
370
    25
100
AcDbBlockReference
  2
*X11
 10
0.0
 20
0.0
 30
0.0
  0
INSERT
  5
A8
102
{ACAD_REACTORS
330
28D
102
}
330
1F
100
AcDbEntity
  8
LC-003-005-----0
 62
     7
370
    25
100
AcDbBlockReference
  2
*X22
 10
0.0
 20
0.0
 30
0.0
  0
LINE
  5
A9
102
{ACAD_REACTORS
330
28D
102
}
330
1F
100
AcDbEntity
  8
LC-001-002-----0
 62
     7
370
    50
100
AcDbLine
 10
-45.711857
 20
362.747869
 30
0.0
 11
-45.711857
 21
268.747869
 31
0.0
  0
LINE
  5
AA
102
{ACAD_REACTORS
330
28D
102
}
330
1F
100
AcDbEntity
  8
LC-001-002-----0
 62
     7
370
    50
100
AcDbLine
 10
-43.211857
 20
364.747869
 30
0.0
 11
-43.211857
 21
265.747869
 31
0.0
  0
LINE
  5
AB
102
{ACAD_REACTORS
330
28D
102
}
330
1F
100
AcDbEntity
  8
LC-001-002-----0
 62
     7
370
    50
100
AcDbLine
 10
-49.211857
 20
362.747869
 30
0.0
 11
-45.711857
 21
362.747869
 31
0.0
  0
LINE
  5
AC
102
{ACAD_REACTORS
330
290
102
}
330
1F
100
AcDbEntity
  8
LC-001-002-----0
 62
     7
370
    50
100
AcDbLine
 10
63.288143
 20
379.059566
 30
0.0
 11
63.288143
 21
388.059566
 31
0.0
  0
ARC
  5
AD
102
{ACAD_REACTORS
330
290
102
}
330
1F
100
AcDbEntity
  8
LC-002-002-RND-0
 62
     7
370
    50
100
AcDbCircle
 10
60.788143
 20
377.147869
 30
0.0
 40
0.5
100
AcDbArc
 50
90.0
 51
180.0
  0
LINE
  5
AE
102
{ACAD_REACTORS
330
290
102
}
330
1F
100
AcDbEntity
  8
LC-001-002-----0
 62
     7
370
    50
100
AcDbLine
 10
63.988143
 20
388.759566
 30
0.0
 11
63.988143
 21
388.759566
 31
0.0
  0
ARC
  5
AF
102
{ACAD_REACTORS
330
290
102
}
330
1F
100
AcDbEntity
  8
LC-002-002-RND-0
 62
     7
370
    50
100
AcDbCircle
 10
62.788143
 20
378.847869
 30
0.0
 40
0.5
100
AcDbArc
 50
270.0
 51
360.0
  0
ARC
  5
B0
102
{ACAD_REACTORS
330
290
102
}
330
1F
100
AcDbEntity
  8
LC-002-002-RND-0
 62
     7
370
    50
100
AcDbCircle
 10
59.088143
 20
376.447869
 30
0.0
 40
1.199999999999932
100
AcDbArc
 50
270.0
 51
360.0
  0
LINE
  5
B1
102
{ACAD_REACTORS
330
290
102
}
330
1F
100
AcDbEntity
  8
LC-001-002-----0
 62
     7
370
    50
100
AcDbLine
 10
63.288143
 20
378.847869
 30
0.0
 11
63.288143
 21
382.759566
 31
0.0
  0
ARC
  5
B2
102
{ACAD_REACTORS
330
290
102
}
330
1F
100
AcDbEntity
  8
LC-002-002-RND-0
 62
     7
370
    50
100
AcDbCircle
 10
62.788143
 20
378.847869
 30
0.0
 40
1.199999999999932
100
AcDbArc
 50
270.0
 51
360.0
  0
LINE
  5
B3
102
{ACAD_REACTORS
330
290
102
}
330
1F
100
AcDbEntity
  8
LC-001-002-----0
 62
     7
370
    50
100
AcDbLine
 10
62.788143
 20
377.647869
 30
0.0
 11
60.788143
 21
377.647869
 31
0.0
  0
LINE
  5
B4
102
{ACAD_REACTORS
330
290
102
}
330
1F
100
AcDbEntity
  8
LC-001-002-----0
 62
     7
370
    50
100
AcDbLine
 10
60.288143
 20
376.447869
 30
0.0
 11
60.288143
 21
377.147869
 31
0.0
  0
LINE
  5
B5
102
{ACAD_REACTORS
330
290
102
}
330
1F
100
AcDbEntity
  8
LC-001-002-----0
 62
     7
370
    50
100
AcDbLine
 10
59.088143
 20
375.247869
 30
0.0
 11
57.438143
 21
375.247869
 31
0.0
  0
LINE
  5
B6
102
{ACAD_REACTORS
330
290
102
}
330
1F
100
AcDbEntity
  8
LC-001-002-----0
 62
     7
370
    50
100
AcDbLine
 10
-53.822058
 20
388.759566
 30
0.0
 11
5.970211
 21
388.759566
 31
0.0
  0
ARC
  5
B7
102
{ACAD_REACTORS
330
290
102
}
330
1F
100
AcDbEntity
  8
LC-002-002-RND-0
 62
     7
370
    50
100
AcDbCircle
 10
59.088143
 20
376.351555
 30
0.0
 40
0.5
100
AcDbArc
 50
270.0
 51
0.0
  0
ARC
  5
B8
102
{ACAD_REACTORS
330
290
102
}
330
1F
100
AcDbEntity
  8
LC-002-002-RND-0
 62
     7
370
    50
100
AcDbCircle
 10
-48.511857
 20
376.351555
 30
0.0
 40
0.5
100
AcDbArc
 50
180.0
 51
270.0
  0
LINE
  5
B9
102
{ACAD_REACTORS
330
290
102
}
330
1F
100
AcDbEntity
  8
LC-001-002-----0
 62
     7
370
    50
100
AcDbLine
 10
-52.711857
 20
379.647869
 30
0.0
 11
-52.711857
 21
388.059566
 31
0.0
  0
ARC
  5
BA
102
{ACAD_REACTORS
330
290
102
}
330
1F
100
AcDbEntity
  8
LC-002-002-RND-0
 62
     7
370
    50
100
AcDbCircle
 10
-50.211857
 20
377.147869
 30
0.0
 40
0.5
100
AcDbArc
 50
360.0
 51
90.0
  0
LINE
  5
BB
102
{ACAD_REACTORS
330
290
102
}
330
1F
100
AcDbEntity
  8
LC-001-002-----0
 62
     7
370
    50
100
AcDbLine
 10
-53.411857
 20
388.759566
 30
0.0
 11
-53.411857
 21
388.759566
 31
0.0
  0
ARC
  5
BC
102
{ACAD_REACTORS
330
290
102
}
330
1F
100
AcDbEntity
  8
LC-002-002-RND-0
 62
     7
370
    50
100
AcDbCircle
 10
-52.211857
 20
378.847869
 30
0.0
 40
0.5
100
AcDbArc
 50
180.0
 51
270.0
  0
ARC
  5
BD
102
{ACAD_REACTORS
330
290
102
}
330
1F
100
AcDbEntity
  8
LC-002-002-RND-0
 62
     7
370
    50
100
AcDbCircle
 10
60.788143
 20
377.147869
 30
0.0
 40
1.200000000000046
100
AcDbArc
 50
90.0
 51
180.0
  0
LINE
  5
BE
102
{ACAD_REACTORS
330
290
102
}
330
1F
100
AcDbEntity
  8
LC-001-002-----0
 62
     7
370
    50
100
AcDbLine
 10
63.988143
 20
378.847869
 30
0.0
 11
63.988143
 21
387.80587
 31
0.0
  0
ARC
  5
BF
102
{ACAD_REACTORS
330
290
102
}
330
1F
100
AcDbEntity
  8
LC-002-002-RND-0
 62
     7
370
    50
100
AcDbCircle
 10
-50.211857
 20
377.147869
 30
0.0
 40
1.199999999999989
100
AcDbArc
 50
360.0
 51
90.0
  0
LINE
  5
C0
102
{ACAD_REACTORS
330
290
102
}
330
1F
100
AcDbEntity
  8
LC-001-002-----0
 62
     7
370
    50
100
AcDbLine
 10
-52.711857
 20
378.847869
 30
0.0
 11
-52.711857
 21
382.759566
 31
0.0
  0
ARC
  5
C1
102
{ACAD_REACTORS
330
290
102
}
330
1F
100
AcDbEntity
  8
LC-002-002-RND-0
 62
     7
370
    50
100
AcDbCircle
 10
-52.211857
 20
378.847869
 30
0.0
 40
1.199999999999989
100
AcDbArc
 50
180.0
 51
270.0
  0
LINE
  5
C2
102
{ACAD_REACTORS
330
290
102
}
330
1F
100
AcDbEntity
  8
LC-001-002-----0
 62
     7
370
    50
100
AcDbLine
 10
-53.411857
 20
378.847869
 30
0.0
 11
-53.411857
 21
387.80587
 31
0.0
  0
LINE
  5
C3
102
{ACAD_REACTORS
330
290
102
}
330
1F
100
AcDbEntity
  8
LC-001-002-----0
 62
     7
370
    50
100
AcDbLine
 10
-52.211857
 20
377.647869
 30
0.0
 11
-50.211857
 21
377.647869
 31
0.0
  0
LINE
  5
C4
102
{ACAD_REACTORS
330
290
102
}
330
1F
100
AcDbEntity
  8
LC-001-002-----0
 62
     7
370
    50
100
AcDbLine
 10
-49.711857
 20
376.447869
 30
0.0
 11
-49.711857
 21
377.147869
 31
0.0
  0
LINE
  5
C5
102
{ACAD_REACTORS
330
290
102
}
330
1F
100
AcDbEntity
  8
LC-001-002-----0
 62
     7
370
    50
100
AcDbLine
 10
-48.511857
 20
375.247869
 30
0.0
 11
-46.851652
 21
375.247869
 31
0.0
  0
LINE
  5
C6
102
{ACAD_REACTORS
330
290
102
}
330
1F
100
AcDbEntity
  8
LC-001-002-----0
 62
     7
370
    50
100
AcDbLine
 10
56.883771
 20
368.637857
 30
0.0
 11
55.919598
 21
365.988815
 31
0.0
  0
ARC
  5
C7
102
{ACAD_REACTORS
330
290
102
}
330
1F
100
AcDbEntity
  8
LC-002-002-RND-0
 62
     7
370
    50
100
AcDbCircle
 10
-53.411857
 20
388.059566
 30
0.0
 40
0.7000000000000455
100
AcDbArc
 50
0.0
 51
90.0
  0
LINE
  5
C8
102
{ACAD_REACTORS
330
290
102
}
330
1F
100
AcDbEntity
  8
LC-001-002-----0
 62
     7
370
    50
100
AcDbLine
 10
56.238143
 20
369.040463
 30
0.0
 11
56.238143
 21
374.651555
 31
0.0
  0
LINE
  5
C9
102
{ACAD_REACTORS
330
290
102
}
330
1F
100
AcDbEntity
  8
LC-001-002-----0
 62
     7
370
    50
100
AcDbLine
 10
56.938143
 20
369.740818
 30
0.0
 11
56.938143
 21
374.747869
 31
0.0
  0
LINE
  5
CA
102
{ACAD_REACTORS
330
290
102
}
330
1F
100
AcDbEntity
  8
LC-001-002-----0
 62
     7
370
    50
100
AcDbLine
 10
55.919598
 20
365.988815
 30
0.0
 11
56.581593
 21
365.747869
 31
0.0
  0
LINE
  5
CB
102
{ACAD_REACTORS
330
290
102
}
330
1F
100
AcDbEntity
  8
LC-001-002-----0
 62
     7
370
    50
100
AcDbLine
 10
5.288143
 20
365.747869
 30
0.0
 11
-46.005308
 21
365.747869
 31
0.0
  0
ARC
  5
CC
102
{ACAD_REACTORS
330
290
102
}
330
1F
100
AcDbEntity
  8
LC-001-002-----0
 62
     7
370
    50
100
AcDbCircle
 10
56.497476
 20
368.732942
 30
0.0
 40
1.099999999999995
100
AcDbArc
 50
340.0
 51
66.383903
  0
LINE
  5
CD
102
{ACAD_REACTORS
330
290
102
}
330
1F
100
AcDbEntity
  8
LC-001-002-----0
 62
     7
370
    50
100
AcDbLine
 10
5.288143
 20
365.747869
 30
0.0
 11
56.581593
 21
365.747869
 31
0.0
  0
ARC
  5
CE
102
{ACAD_REACTORS
330
290
102
}
330
1F
100
AcDbEntity
  8
LC-002-002-RND-0
 62
     7
370
    50
100
AcDbCircle
 10
56.601863
 20
368.740463
 30
0.0
 40
0.2999999999999998
100
AcDbArc
 50
340.0
 51
90.0
  0
LINE
  5
CF
102
{ACAD_REACTORS
330
290
102
}
330
1F
100
AcDbEntity
  8
LC-001-002-----0
 62
     7
370
    50
100
AcDbLine
 10
-45.661857
 20
369.040463
 30
0.0
 11
-45.661857
 21
374.651555
 31
0.0
  0
LINE
  5
D0
102
{ACAD_REACTORS
330
290
102
}
330
1F
100
AcDbEntity
  8
LC-001-002-----0
 62
     7
370
    50
100
AcDbLine
 10
-46.361857
 20
369.740818
 30
0.0
 11
-46.361857
 21
374.747973
 31
0.0
  0
LINE
  5
D1
102
{ACAD_REACTORS
330
290
102
}
330
1F
100
AcDbEntity
  8
LC-001-002-----0
 62
     7
370
    50
100
AcDbLine
 10
5.288143
 20
365.988815
 30
0.0
 11
-45.343313
 21
365.988815
 31
0.0
  0
LINE
  5
D2
102
{ACAD_REACTORS
330
290
102
}
330
1F
100
AcDbEntity
  8
LC-001-002-----0
 62
     7
370
    50
100
AcDbLine
 10
56.601863
 20
369.040463
 30
0.0
 11
5.288143
 21
369.040463
 31
0.0
  0
ARC
  5
D3
102
{ACAD_REACTORS
330
290
102
}
330
1F
100
AcDbEntity
  8
LC-002-002-RND-0
 62
     7
370
    50
100
AcDbCircle
 10
57.438143
 20
374.651555
 30
0.0
 40
1.199999999999932
100
AcDbArc
 50
90.0
 51
180.0
  0
LINE
  5
D4
102
{ACAD_REACTORS
330
290
102
}
330
1F
100
AcDbEntity
  8
LC-001-002-----0
 62
     7
370
    50
100
AcDbLine
 10
59.088143
 20
375.851555
 30
0.0
 11
5.288143
 21
375.851555
 31
0.0
  0
LINE
  5
D5
102
{ACAD_REACTORS
330
290
102
}
330
1F
100
AcDbEntity
  8
LC-001-002-----0
 62
     7
370
    50
100
AcDbLine
 10
-46.954852
 20
368.35672
 30
0.0
 11
-46.005308
 21
365.747869
 31
0.0
  0
ARC
  5
D6
102
{ACAD_REACTORS
330
290
102
}
330
1F
100
AcDbEntity
  8
LC-001-002-----0
 62
     7
370
    50
100
AcDbCircle
 10
-45.92119
 20
368.732942
 30
0.0
 40
1.100000000000002
100
AcDbArc
 50
113.616097
 51
200.0
  0
LINE
  5
D7
102
{ACAD_REACTORS
330
290
102
}
330
1F
100
AcDbEntity
  8
LC-001-002-----0
 62
     7
370
    50
100
AcDbLine
 10
59.588143
 20
376.351555
 30
0.0
 11
59.588143
 21
377.147869
 31
0.0
  0
LINE
  5
D8
102
{ACAD_REACTORS
330
290
102
}
330
1F
100
AcDbEntity
  8
LC-001-002-----0
 62
     7
370
    50
100
AcDbLine
 10
62.788143
 20
378.347869
 30
0.0
 11
5.288143
 21
378.347869
 31
0.0
  0
LINE
  5
D9
102
{ACAD_REACTORS
330
290
102
}
330
1F
100
AcDbEntity
  8
LC-001-002-----0
 62
     7
370
    50
100
AcDbLine
 10
5.288143
 20
365.988815
 30
0.0
 11
55.919598
 21
365.988815
 31
0.0
  0
ARC
  5
DA
102
{ACAD_REACTORS
330
290
102
}
330
1F
100
AcDbEntity
  8
LC-002-002-RND-0
 62
     7
370
    50
100
AcDbCircle
 10
-46.025577
 20
368.740463
 30
0.0
 40
0.2999999999999545
100
AcDbArc
 50
90.0
 51
200.0
  0
LINE
  5
DB
102
{ACAD_REACTORS
330
290
102
}
330
1F
100
AcDbEntity
  8
LC-001-002-----0
 62
     7
370
    50
100
AcDbLine
 10
-46.307485
 20
368.637857
 30
0.0
 11
-45.343313
 21
365.988815
 31
0.0
  0
LINE
  5
DC
102
{ACAD_REACTORS
330
290
102
}
330
1F
100
AcDbEntity
  8
LC-001-002-----0
 62
     7
370
    50
100
AcDbLine
 10
-46.025577
 20
369.040463
 30
0.0
 11
5.288143
 21
369.040463
 31
0.0
  0
ARC
  5
DD
102
{ACAD_REACTORS
330
290
102
}
330
1F
100
AcDbEntity
  8
LC-002-002-RND-0
 62
     7
370
    50
100
AcDbCircle
 10
-46.861857
 20
374.651555
 30
0.0
 40
1.199999999999989
100
AcDbArc
 50
360.0
 51
90.0
  0
LINE
  5
DE
102
{ACAD_REACTORS
330
290
102
}
330
1F
100
AcDbEntity
  8
LC-001-002-----0
 62
     7
370
    50
100
AcDbLine
 10
-48.511857
 20
375.851555
 30
0.0
 11
5.288143
 21
375.851555
 31
0.0
  0
LINE
  5
DF
102
{ACAD_REACTORS
330
290
102
}
330
1F
100
AcDbEntity
  8
LC-001-002-----0
 62
     7
370
    50
100
AcDbLine
 10
-49.011857
 20
376.351555
 30
0.0
 11
-49.011857
 21
377.147869
 31
0.0
  0
LINE
  5
E0
102
{ACAD_REACTORS
330
290
102
}
330
1F
100
AcDbEntity
  8
LC-001-002-----0
 62
     7
370
    50
100
AcDbLine
 10
-52.211857
 20
378.347869
 30
0.0
 11
5.288143
 21
378.347869
 31
0.0
  0
ARC
  5
E1
102
{ACAD_REACTORS
330
290
102
}
330
1F
100
AcDbEntity
  8
LC-002-002-RND-0
 62
     7
370
    50
100
AcDbCircle
 10
-46.861857
 20
374.747973
 30
0.0
 40
0.5
100
AcDbArc
 50
360.0
 51
90.0
  0
LINE
  5
E2
102
{ACAD_REACTORS
330
290
102
}
330
1F
100
AcDbEntity
  8
LC-001-002-----0
 62
     7
370
    50
100
AcDbLine
 10
-45.343313
 20
365.988815
 30
0.0
 11
-46.005308
 21
365.747869
 31
0.0
  0
LINE
  5
E3
102
{ACAD_REACTORS
330
290
102
}
330
1F
100
AcDbEntity
  8
LC-001-002-----0
 62
     7
370
    50
100
AcDbLine
 10
57.531138
 20
368.35672
 30
0.0
 11
56.581593
 21
365.747869
 31
0.0
  0
LINE
  5
E4
102
{ACAD_REACTORS
330
290
102
}
330
1F
100
AcDbEntity
  8
LC-001-002-----0
 62
     7
370
    50
100
AcDbLine
 10
-55.211857
 20
386.559566
 30
0.0
 11
-53.411857
 21
386.559566
 31
0.0
  0
ARC
  5
E5
102
{ACAD_REACTORS
330
290
102
}
330
1F
100
AcDbEntity
  8
LC-002-002-RND-0
 62
     7
370
    50
100
AcDbCircle
 10
-53.822058
 20
388.059566
 30
0.0
 40
0.6999999999999886
100
AcDbArc
 50
90.0
 51
157.202062
  0
LINE
  5
E6
102
{ACAD_REACTORS
330
290
102
}
330
1F
100
AcDbEntity
  8
LC-001-002-----0
 62
     7
370
    50
100
AcDbLine
 10
-54.467372
 20
388.330804
 30
0.0
 11
-55.211857
 21
386.559566
 31
0.0
  0
LINE
  5
E7
102
{ACAD_REACTORS
330
290
102
}
330
1F
100
AcDbEntity
  8
LC-001-002-----0
 62
     7
370
    50
100
AcDbLine
 10
-53.888315
 20
387.901932
 30
0.0
 11
-54.452537
 21
386.559566
 31
0.0
  0
ARC
  5
E8
102
{ACAD_REACTORS
330
290
102
}
330
1F
100
AcDbEntity
  8
LC-001-002-----0
 62
     7
370
    50
100
AcDbCircle
 10
-53.65977
 20
387.80587
 30
0.0
 40
0.2479128220921893
100
AcDbArc
 50
360.0
 51
157.202062
  0
LINE
  5
E9
102
{ACAD_REACTORS
330
290
102
}
330
1F
100
AcDbEntity
  8
LC-001-002-----0
 62
     7
370
    50
100
AcDbLine
 10
63.988143
 20
388.759566
 30
0.0
 11
63.988143
 21
388.759566
 31
0.0
  0
ARC
  5
EA
102
{ACAD_REACTORS
330
290
102
}
330
1F
100
AcDbEntity
  8
LC-002-002-RND-0
 62
     7
370
    50
100
AcDbCircle
 10
63.988143
 20
388.059566
 30
0.0
 40
0.7000000000000455
100
AcDbArc
 50
90.0
 51
180.0
  0
LINE
  5
EB
102
{ACAD_REACTORS
330
290
102
}
330
1F
100
AcDbEntity
  8
LC-001-002-----0
 62
     7
370
    50
100
AcDbLine
 10
65.788143
 20
386.559566
 30
0.0
 11
63.988143
 21
386.559566
 31
0.0
  0
ARC
  5
EC
102
{ACAD_REACTORS
330
290
102
}
330
1F
100
AcDbEntity
  8
LC-002-002-RND-0
 62
     7
370
    50
100
AcDbCircle
 10
64.398344
 20
388.059566
 30
0.0
 40
0.7000000000000483
100
AcDbArc
 50
22.797938
 51
90.0
  0
LINE
  5
ED
102
{ACAD_REACTORS
330
290
102
}
330
1F
100
AcDbEntity
  8
LC-001-002-----0
 62
     7
370
    50
100
AcDbLine
 10
65.043658
 20
388.330804
 30
0.0
 11
65.788143
 21
386.559566
 31
0.0
  0
LINE
  5
EE
102
{ACAD_REACTORS
330
290
102
}
330
1F
100
AcDbEntity
  8
LC-001-002-----0
 62
     7
370
    50
100
AcDbLine
 10
64.464601
 20
387.901932
 30
0.0
 11
65.028823
 21
386.559566
 31
0.0
  0
ARC
  5
EF
102
{ACAD_REACTORS
330
290
102
}
330
1F
100
AcDbEntity
  8
LC-001-002-----0
 62
     7
370
    50
100
AcDbCircle
 10
64.236056
 20
387.80587
 30
0.0
 40
0.2479128220923021
100
AcDbArc
 50
22.797938
 51
180.0
  0
ARC
  5
F0
102
{ACAD_REACTORS
330
290
102
}
330
1F
100
AcDbEntity
  8
LC-002-002-RND-0
 62
     7
370
    50
100
AcDbCircle
 10
57.438143
 20
374.747869
 30
0.0
 40
0.5
100
AcDbArc
 50
90.0
 51
180.0
  0
INSERT
  5
FE
102
{ACAD_REACTORS
330
290
102
}
330
1F
100
AcDbEntity
  8
LC-003-005-----0
 62
     7
370
    25
100
AcDbBlockReference
  2
*X33
 10
0.0
 20
0.0
 30
0.0
  0
ARC
  5
FF
102
{ACAD_REACTORS
330
290
102
}
330
1F
100
AcDbEntity
  8
LC-002-002-RND-0
 62
     7
370
    50
100
AcDbCircle
 10
-48.511857
 20
376.447869
 30
0.0
 40
1.199999999999989
100
AcDbArc
 50
180.0
 51
270.0
  0
INSERT
  5
10F
102
{ACAD_REACTORS
330
290
102
}
330
1F
100
AcDbEntity
  8
LC-003-005-----0
 62
     7
370
    25
100
AcDbBlockReference
  2
*X44
 10
0.0
 20
0.0
 30
0.0
  0
LINE
  5
110
102
{ACAD_REACTORS
330
292
102
}
330
1F
100
AcDbEntity
  8
LC-001-002-----0
 62
     7
370
    50
100
AcDbLine
 10
61.788143
 20
385.759566
 30
0.0
 11
-52.211857
 21
385.759566
 31
0.0
  0
LINE
  5
111
102
{ACAD_REACTORS
330
292
102
}
330
1F
100
AcDbEntity
  8
LC-001-002-----0
 62
     7
370
    50
100
AcDbLine
 10
59.288143
 20
388.759566
 30
0.0
 11
59.288143
 21
386.759566
 31
0.0
  0
LINE
  5
112
102
{ACAD_REACTORS
330
292
102
}
330
1F
100
AcDbEntity
  8
LC-001-002-----0
 62
     7
370
    50
100
AcDbLine
 10
64.398344
 20
388.759566
 30
0.0
 11
-52.211857
 21
388.759566
 31
0.0
  0
LINE
  5
113
102
{ACAD_REACTORS
330
292
102
}
330
1F
100
AcDbEntity
  8
LC-001-002-----0
 62
     7
370
    50
100
AcDbLine
 10
-52.211857
 20
385.159566
 30
0.0
 11
-52.211857
 21
388.759566
 31
0.0
  0
INSERT
  5
140
102
{ACAD_REACTORS
330
292
102
}
330
1F
100
AcDbEntity
  8
LC-003-005-----0
 62
     7
370
    25
100
AcDbBlockReference
  2
*X55
 10
0.0
 20
0.0
 30
0.0
  0
LINE
  5
141
102
{ACAD_REACTORS
330
292
102
}
330
1F
100
AcDbEntity
  8
LC-001-002-----0
 62
     7
370
    50
100
AcDbLine
 10
-49.711857
 20
385.159566
 30
0.0
 11
-49.711857
 21
385.759566
 31
0.0
  0
LINE
  5
142
102
{ACAD_REACTORS
330
292
102
}
330
1F
100
AcDbEntity
  8
LC-001-002-----0
 62
     7
370
    50
100
AcDbLine
 10
-50.211857
 20
384.659566
 30
0.0
 11
-51.711857
 21
384.659566
 31
0.0
  0
LINE
  5
143
330
1F
100
AcDbEntity
  8
LC-001-002-----0
 62
     7
370
    50
100
AcDbLine
 10
62.788143
 20
388.759566
 30
0.0
 11
62.788143
 21
386.759566
 31
0.0
  0
LINE
  5
144
330
1F
100
AcDbEntity
  8
LC-001-002-----0
 62
     7
370
    50
100
AcDbLine
 10
62.788143
 20
386.759566
 30
0.0
 11
61.788143
 21
385.759566
 31
0.0
  0
LINE
  5
145
102
{ACAD_REACTORS
330
292
102
}
330
1F
100
AcDbEntity
  8
LC-001-002-----0
 62
     7
370
    50
100
AcDbLine
 10
59.288143
 20
386.759566
 30
0.0
 11
58.288143
 21
385.759566
 31
0.0
  0
LINE
  5
146
330
1F
100
AcDbEntity
  8
LC-001-002-----0
 62
     7
370
    50
100
AcDbLine
 10
62.788143
 20
386.759566
 30
0.0
 11
59.288143
 21
386.759566
 31
0.0
  0
ARC
  5
147
102
{ACAD_REACTORS
330
292
102
}
330
1F
100
AcDbEntity
  8
LC-002-002-RND-0
 62
     7
370
    50
100
AcDbCircle
 10
-50.211857
 20
385.159566
 30
0.0
 40
0.5
100
AcDbArc
 50
270.0
 51
360.0
  0
ARC
  5
148
102
{ACAD_REACTORS
330
292
102
}
330
1F
100
AcDbEntity
  8
LC-002-002-RND-0
 62
     7
370
    50
100
AcDbCircle
 10
-51.711857
 20
385.159566
 30
0.0
 40
0.5
100
AcDbArc
 50
180.0
 51
270.0
  0
LINE
  5
149
102
{ACAD_REACTORS
330
28C
102
}
330
1F
100
AcDbEntity
  8
LC-001-002-----0
 62
     7
370
    50
100
AcDbLine
 10
5.288143
 20
383.347869
 30
0.0
 11
-34.461857
 21
383.347869
 31
0.0
  0
LINE
  5
14A
102
{ACAD_REACTORS
330
28C
102
}
330
1F
100
AcDbEntity
  8
LC-001-002-----0
 62
     7
370
    50
100
AcDbLine
 10
-52.211857
 20
381.097869
 30
0.0
 11
-52.211857
 21
378.347869
 31
0.0
  0
LINE
  5
14B
102
{ACAD_REACTORS
330
28C
102
}
330
1F
100
AcDbEntity
  8
LC-001-002-----0
 62
     7
370
    50
100
AcDbLine
 10
5.288143
 20
381.847869
 30
0.0
 11
-10.961857
 21
381.847869
 31
0.0
  0
LINE
  5
14C
102
{ACAD_REACTORS
330
28C
102
}
330
1F
100
AcDbEntity
  8
LC-001-002-----0
 62
     7
370
    50
100
AcDbLine
 10
-52.211857
 20
381.097869
 30
0.0
 11
-52.211857
 21
378.347869
 31
0.0
  0
ARC
  5
14D
102
{ACAD_REACTORS
330
28C
102
}
330
1F
100
AcDbEntity
  8
LC-002-002-RND-0
 62
     7
370
    50
100
AcDbCircle
 10
-49.961857
 20
381.097869
 30
0.0
 40
2.25
100
AcDbArc
 50
90.0
 51
180.0
  0
ARC
  5
14E
102
{ACAD_REACTORS
330
28C
102
}
330
1F
100
AcDbEntity
  8
LC-002-002-RND-0
 62
     7
370
    50
100
AcDbCircle
 10
-21.461857
 20
381.097869
 30
0.0
 40
0.75
100
AcDbArc
 50
360.0
 51
90.0
  0
ARC
  5
14F
102
{ACAD_REACTORS
330
28C
102
}
330
1F
100
AcDbEntity
  8
LC-002-002-RND-0
 62
     7
370
    50
100
AcDbCircle
 10
-23.961857
 20
381.097869
 30
0.0
 40
0.75
100
AcDbArc
 50
90.0
 51
180.0
  0
ARC
  5
150
102
{ACAD_REACTORS
330
28C
102
}
330
1F
100
AcDbEntity
  8
LC-002-002-RND-0
 62
     7
370
    50
100
AcDbCircle
 10
-34.461857
 20
381.097869
 30
0.0
 40
0.75
100
AcDbArc
 50
360.0
 51
90.0
  0
ARC
  5
151
102
{ACAD_REACTORS
330
28C
102
}
330
1F
100
AcDbEntity
  8
LC-002-002-RND-0
 62
     7
370
    50
100
AcDbCircle
 10
-36.961857
 20
381.097869
 30
0.0
 40
0.75
100
AcDbArc
 50
90.0
 51
180.0
  0
ARC
  5
152
102
{ACAD_REACTORS
330
28C
102
}
330
1F
100
AcDbEntity
  8
LC-002-002-RND-0
 62
     7
370
    50
100
AcDbCircle
 10
-47.461857
 20
381.097869
 30
0.0
 40
0.75
100
AcDbArc
 50
360.0
 51
90.0
  0
ARC
  5
153
102
{ACAD_REACTORS
330
28C
102
}
330
1F
100
AcDbEntity
  8
LC-002-002-RND-0
 62
     7
370
    50
100
AcDbCircle
 10
-49.961857
 20
381.097869
 30
0.0
 40
0.75
100
AcDbArc
 50
90.0
 51
180.0
  0
LINE
  5
154
102
{ACAD_REACTORS
330
28C
102
}
330
1F
100
AcDbEntity
  8
LC-001-002-----0
 62
     7
370
    50
100
AcDbLine
 10
-13.211857
 20
379.147869
 30
0.0
 11
-13.211857
 21
381.097869
 31
0.0
  0
LINE
  5
155
102
{ACAD_REACTORS
330
28C
102
}
330
1F
100
AcDbEntity
  8
LC-001-002-----0
 62
     7
370
    50
100
AcDbLine
 10
-11.711857
 20
379.147869
 30
0.0
 11
-32.211857
 21
379.147869
 31
0.0
  0
LINE
  5
156
102
{ACAD_REACTORS
330
28C
102
}
330
1F
100
AcDbEntity
  8
LC-001-002-----0
 62
     7
370
    50
100
AcDbLine
 10
-43.361857
 20
383.347869
 30
0.0
 11
-47.461857
 21
383.347869
 31
0.0
  0
LINE
  5
157
102
{ACAD_REACTORS
330
28C
102
}
330
1F
100
AcDbEntity
  8
LC-001-002-----0
 62
     7
370
    50
100
AcDbLine
 10
-11.711857
 20
379.147869
 30
0.0
 11
-11.711857
 21
381.097869
 31
0.0
  0
ARC
  5
158
102
{ACAD_REACTORS
330
28C
102
}
330
1F
100
AcDbEntity
  8
LC-002-002-RND-0
 62
     7
370
    50
100
AcDbCircle
 10
-21.461857
 20
381.097869
 30
0.0
 40
2.25
100
AcDbArc
 50
360.0
 51
90.0
  0
ARC
  5
159
102
{ACAD_REACTORS
330
28C
102
}
330
1F
100
AcDbEntity
  8
LC-002-002-RND-0
 62
     7
370
    50
100
AcDbCircle
 10
-23.961857
 20
381.097869
 30
0.0
 40
2.25
100
AcDbArc
 50
90.0
 51
180.0
  0
ARC
  5
15A
102
{ACAD_REACTORS
330
28C
102
}
330
1F
100
AcDbEntity
  8
LC-002-002-RND-0
 62
     7
370
    50
100
AcDbCircle
 10
-34.461857
 20
381.097869
 30
0.0
 40
2.25
100
AcDbArc
 50
360.0
 51
90.0
  0
ARC
  5
15B
102
{ACAD_REACTORS
330
28C
102
}
330
1F
100
AcDbEntity
  8
LC-002-002-RND-0
 62
     7
370
    50
100
AcDbCircle
 10
-36.961857
 20
381.097869
 30
0.0
 40
2.25
100
AcDbArc
 50
90.0
 51
180.0
  0
ARC
  5
15C
102
{ACAD_REACTORS
330
28C
102
}
330
1F
100
AcDbEntity
  8
LC-002-002-RND-0
 62
     7
370
    50
100
AcDbCircle
 10
-47.461857
 20
381.097869
 30
0.0
 40
2.25
100
AcDbArc
 50
360.0
 51
90.0
  0
ARC
  5
15D
102
{ACAD_REACTORS
330
28C
102
}
330
1F
100
AcDbEntity
  8
LC-002-002-RND-0
 62
     7
370
    50
100
AcDbCircle
 10
-10.961857
 20
381.097869
 30
0.0
 40
2.25
100
AcDbArc
 50
90.0
 51
180.0
  0
ARC
  5
15E
102
{ACAD_REACTORS
330
28C
102
}
330
1F
100
AcDbEntity
  8
LC-002-002-RND-0
 62
     7
370
    50
100
AcDbCircle
 10
-10.961857
 20
381.097869
 30
0.0
 40
0.75
100
AcDbArc
 50
90.0
 51
180.0
  0
LINE
  5
15F
102
{ACAD_REACTORS
330
28C
102
}
330
1F
100
AcDbEntity
  8
LC-001-002-----0
 62
     7
370
    50
100
AcDbLine
 10
-21.461857
 20
381.847869
 30
0.0
 11
-23.961857
 21
381.847869
 31
0.0
  0
LINE
  5
160
102
{ACAD_REACTORS
330
28C
102
}
330
1F
100
AcDbEntity
  8
LC-001-002-----0
 62
     7
370
    50
100
AcDbLine
 10
-34.461857
 20
381.847869
 30
0.0
 11
-36.961857
 21
381.847869
 31
0.0
  0
LINE
  5
161
102
{ACAD_REACTORS
330
28C
102
}
330
1F
100
AcDbEntity
  8
LC-001-002-----0
 62
     7
370
    50
100
AcDbLine
 10
-19.211857
 20
379.147869
 30
0.0
 11
-19.211857
 21
381.097869
 31
0.0
  0
LINE
  5
162
102
{ACAD_REACTORS
330
28C
102
}
330
1F
100
AcDbEntity
  8
LC-001-002-----0
 62
     7
370
    50
100
AcDbLine
 10
-20.711857
 20
379.147869
 30
0.0
 11
-20.711857
 21
381.097869
 31
0.0
  0
LINE
  5
163
102
{ACAD_REACTORS
330
28C
102
}
330
1F
100
AcDbEntity
  8
LC-001-002-----0
 62
     7
370
    50
100
AcDbLine
 10
-50.711857
 20
379.147869
 30
0.0
 11
-51.511857
 21
378.347869
 31
0.0
  0
LINE
  5
164
102
{ACAD_REACTORS
330
28C
102
}
330
1F
100
AcDbEntity
  8
LC-001-002-----0
 62
     7
370
    50
100
AcDbLine
 10
-47.461857
 20
381.847869
 30
0.0
 11
-49.961857
 21
381.847869
 31
0.0
  0
LINE
  5
165
102
{ACAD_REACTORS
330
28C
102
}
330
1F
100
AcDbEntity
  8
LC-001-002-----0
 62
     7
370
    50
100
AcDbLine
 10
-24.711857
 20
379.147869
 30
0.0
 11
-24.711857
 21
381.097869
 31
0.0
  0
LINE
  5
166
102
{ACAD_REACTORS
330
28C
102
}
330
1F
100
AcDbEntity
  8
LC-001-002-----0
 62
     7
370
    50
100
AcDbLine
 10
-26.211857
 20
379.147869
 30
0.0
 11
-26.211857
 21
381.097869
 31
0.0
  0
LINE
  5
167
102
{ACAD_REACTORS
330
28C
102
}
330
1F
100
AcDbEntity
  8
LC-001-002-----0
 62
     7
370
    50
100
AcDbLine
 10
-32.211857
 20
379.147869
 30
0.0
 11
-32.211857
 21
381.097869
 31
0.0
  0
LINE
  5
168
102
{ACAD_REACTORS
330
28C
102
}
330
1F
100
AcDbEntity
  8
LC-001-002-----0
 62
     7
370
    50
100
AcDbLine
 10
-33.711857
 20
379.147869
 30
0.0
 11
-33.711857
 21
381.097869
 31
0.0
  0
LINE
  5
169
102
{ACAD_REACTORS
330
28C
102
}
330
1F
100
AcDbEntity
  8
LC-001-002-----0
 62
     7
370
    50
100
AcDbLine
 10
-37.711857
 20
379.147869
 30
0.0
 11
-37.711857
 21
381.097869
 31
0.0
  0
LINE
  5
16A
102
{ACAD_REACTORS
330
28C
102
}
330
1F
100
AcDbEntity
  8
LC-001-002-----0
 62
     7
370
    50
100
AcDbLine
 10
-39.211857
 20
379.147869
 30
0.0
 11
-39.211857
 21
381.097869
 31
0.0
  0
LINE
  5
16B
102
{ACAD_REACTORS
330
28C
102
}
330
1F
100
AcDbEntity
  8
LC-001-002-----0
 62
     7
370
    50
100
AcDbLine
 10
-45.211857
 20
379.147869
 30
0.0
 11
-45.211857
 21
381.097869
 31
0.0
  0
LINE
  5
16C
102
{ACAD_REACTORS
330
28C
102
}
330
1F
100
AcDbEntity
  8
LC-001-002-----0
 62
     7
370
    50
100
AcDbLine
 10
-46.711857
 20
379.147869
 30
0.0
 11
-46.711857
 21
381.097869
 31
0.0
  0
LINE
  5
16D
102
{ACAD_REACTORS
330
28C
102
}
330
1F
100
AcDbEntity
  8
LC-001-002-----0
 62
     7
370
    50
100
AcDbLine
 10
-50.711857
 20
379.147869
 30
0.0
 11
-50.711857
 21
381.097869
 31
0.0
  0
INSERT
  5
176
102
{ACAD_REACTORS
330
28C
102
}
330
1F
100
AcDbEntity
  8
LC-003-005-----0
 62
     7
370
    25
100
AcDbBlockReference
  2
*X66
 10
0.0
 20
0.0
 30
0.0
  0
LINE
  5
177
102
{ACAD_REACTORS
330
28C
102
}
330
1F
100
AcDbEntity
  8
LC-001-002-----0
 62
     7
370
    50
100
AcDbLine
 10
-32.211857
 20
379.147869
 30
0.0
 11
-37.711857
 21
379.147869
 31
0.0
  0
LINE
  5
178
102
{ACAD_REACTORS
330
28C
102
}
330
1F
100
AcDbEntity
  8
LC-001-002-----0
 62
     7
370
    50
100
AcDbLine
 10
-37.711857
 20
379.147869
 30
0.0
 11
-39.211857
 21
379.147869
 31
0.0
  0
LINE
  5
179
102
{ACAD_REACTORS
330
28C
102
}
330
1F
100
AcDbEntity
  8
LC-001-002-----0
 62
     7
370
    50
100
AcDbLine
 10
-39.211857
 20
379.147869
 30
0.0
 11
-46.711857
 21
379.147869
 31
0.0
  0
LINE
  5
17A
102
{ACAD_REACTORS
330
28C
102
}
330
1F
100
AcDbEntity
  8
LC-001-002-----0
 62
     7
370
    50
100
AcDbLine
 10
-34.461857
 20
383.347869
 30
0.0
 11
-36.961857
 21
383.347869
 31
0.0
  0
LINE
  5
17B
102
{ACAD_REACTORS
330
28C
102
}
330
1F
100
AcDbEntity
  8
LC-001-002-----0
 62
     7
370
    50
100
AcDbLine
 10
-36.961857
 20
383.347869
 30
0.0
 11
-43.361857
 21
383.347869
 31
0.0
  0
LINE
  5
17C
102
{ACAD_REACTORS
330
28C
102
}
330
1F
100
AcDbEntity
  8
LC-001-002-----0
 62
     7
370
    50
100
AcDbLine
 10
-47.461857
 20
383.347869
 30
0.0
 11
-49.961857
 21
383.347869
 31
0.0
  0
LINE
  5
17D
102
{ACAD_REACTORS
330
28C
102
}
330
1F
100
AcDbEntity
  8
LC-001-002-----0
 62
     7
370
    50
100
AcDbLine
 10
-51.511857
 20
378.347869
 30
0.0
 11
-52.211857
 21
378.347869
 31
0.0
  0
INSERT
  5
185
102
{ACAD_REACTORS
330
28C
102
}
330
1F
100
AcDbEntity
  8
LC-003-005-----0
 62
     7
370
    25
100
AcDbBlockReference
  2
*X77
 10
0.0
 20
0.0
 30
0.0
  0
INSERT
  5
18D
102
{ACAD_REACTORS
330
28C
102
}
330
1F
100
AcDbEntity
  8
LC-003-005-----0
 62
     7
370
    25
100
AcDbBlockReference
  2
*X88
 10
0.0
 20
0.0
 30
0.0
  0
LINE
  5
18E
102
{ACAD_REACTORS
330
28C
102
}
330
1F
100
AcDbEntity
  8
LC-001-002-----0
 62
     7
370
    50
100
AcDbLine
 10
5.288143
 20
378.347869
 30
0.0
 11
-51.511857
 21
378.347869
 31
0.0
  0
LINE
  5
18F
102
{ACAD_REACTORS
330
28F
102
}
330
1F
100
AcDbEntity
  8
LC-001-002-----0
 62
     7
370
    50
100
AcDbLine
 10
5.288143
 20
383.347869
 30
0.0
 11
45.038143
 21
383.347869
 31
0.0
  0
LINE
  5
190
102
{ACAD_REACTORS
330
28F
102
}
330
1F
100
AcDbEntity
  8
LC-001-002-----0
 62
     7
370
    50
100
AcDbLine
 10
62.788143
 20
381.097869
 30
0.0
 11
62.788143
 21
378.347869
 31
0.0
  0
LINE
  5
191
102
{ACAD_REACTORS
330
28F
102
}
330
1F
100
AcDbEntity
  8
LC-001-002-----0
 62
     7
370
    50
100
AcDbLine
 10
5.288143
 20
381.847869
 30
0.0
 11
21.538143
 21
381.847869
 31
0.0
  0
LINE
  5
192
102
{ACAD_REACTORS
330
28F
102
}
330
1F
100
AcDbEntity
  8
LC-001-002-----0
 62
     7
370
    50
100
AcDbLine
 10
62.788143
 20
381.097869
 30
0.0
 11
62.788143
 21
378.347869
 31
0.0
  0
ARC
  5
193
102
{ACAD_REACTORS
330
28F
102
}
330
1F
100
AcDbEntity
  8
LC-002-002-RND-0
 62
     7
370
    50
100
AcDbCircle
 10
60.538143
 20
381.097869
 30
0.0
 40
2.25
100
AcDbArc
 50
360.0
 51
90.0
  0
ARC
  5
194
102
{ACAD_REACTORS
330
28F
102
}
330
1F
100
AcDbEntity
  8
LC-002-002-RND-0
 62
     7
370
    50
100
AcDbCircle
 10
32.038143
 20
381.097869
 30
0.0
 40
0.75
100
AcDbArc
 50
90.0
 51
180.0
  0
ARC
  5
195
102
{ACAD_REACTORS
330
28F
102
}
330
1F
100
AcDbEntity
  8
LC-002-002-RND-0
 62
     7
370
    50
100
AcDbCircle
 10
34.538143
 20
381.097869
 30
0.0
 40
0.75
100
AcDbArc
 50
0.0
 51
90.0
  0
ARC
  5
196
102
{ACAD_REACTORS
330
28F
102
}
330
1F
100
AcDbEntity
  8
LC-002-002-RND-0
 62
     7
370
    50
100
AcDbCircle
 10
45.038143
 20
381.097869
 30
0.0
 40
0.75
100
AcDbArc
 50
90.0
 51
180.0
  0
ARC
  5
197
102
{ACAD_REACTORS
330
28F
102
}
330
1F
100
AcDbEntity
  8
LC-002-002-RND-0
 62
     7
370
    50
100
AcDbCircle
 10
47.538143
 20
381.097869
 30
0.0
 40
0.75
100
AcDbArc
 50
360.0
 51
90.0
  0
ARC
  5
198
102
{ACAD_REACTORS
330
28F
102
}
330
1F
100
AcDbEntity
  8
LC-002-002-RND-0
 62
     7
370
    50
100
AcDbCircle
 10
58.038143
 20
381.097869
 30
0.0
 40
0.75
100
AcDbArc
 50
90.0
 51
180.0
  0
ARC
  5
199
102
{ACAD_REACTORS
330
28F
102
}
330
1F
100
AcDbEntity
  8
LC-002-002-RND-0
 62
     7
370
    50
100
AcDbCircle
 10
60.538143
 20
381.097869
 30
0.0
 40
0.75
100
AcDbArc
 50
360.0
 51
90.0
  0
LINE
  5
19A
102
{ACAD_REACTORS
330
28F
102
}
330
1F
100
AcDbEntity
  8
LC-001-002-----0
 62
     7
370
    50
100
AcDbLine
 10
23.788143
 20
379.147869
 30
0.0
 11
23.788143
 21
381.097869
 31
0.0
  0
LINE
  5
19B
102
{ACAD_REACTORS
330
28F
102
}
330
1F
100
AcDbEntity
  8
LC-001-002-----0
 62
     7
370
    50
100
AcDbLine
 10
22.288143
 20
379.147869
 30
0.0
 11
42.788143
 21
379.147869
 31
0.0
  0
LINE
  5
19C
102
{ACAD_REACTORS
330
28F
102
}
330
1F
100
AcDbEntity
  8
LC-001-002-----0
 62
     7
370
    50
100
AcDbLine
 10
53.938143
 20
383.347869
 30
0.0
 11
58.038143
 21
383.347869
 31
0.0
  0
LINE
  5
19D
102
{ACAD_REACTORS
330
28F
102
}
330
1F
100
AcDbEntity
  8
LC-001-002-----0
 62
     7
370
    50
100
AcDbLine
 10
22.288143
 20
379.147869
 30
0.0
 11
22.288143
 21
381.097869
 31
0.0
  0
ARC
  5
19E
102
{ACAD_REACTORS
330
28F
102
}
330
1F
100
AcDbEntity
  8
LC-002-002-RND-0
 62
     7
370
    50
100
AcDbCircle
 10
32.038143
 20
381.097869
 30
0.0
 40
2.25
100
AcDbArc
 50
90.0
 51
180.0
  0
ARC
  5
19F
102
{ACAD_REACTORS
330
28F
102
}
330
1F
100
AcDbEntity
  8
LC-002-002-RND-0
 62
     7
370
    50
100
AcDbCircle
 10
34.538143
 20
381.097869
 30
0.0
 40
2.25
100
AcDbArc
 50
360.0
 51
90.0
  0
ARC
  5
1A0
102
{ACAD_REACTORS
330
28F
102
}
330
1F
100
AcDbEntity
  8
LC-002-002-RND-0
 62
     7
370
    50
100
AcDbCircle
 10
45.038143
 20
381.097869
 30
0.0
 40
2.25
100
AcDbArc
 50
90.0
 51
180.0
  0
ARC
  5
1A1
102
{ACAD_REACTORS
330
28F
102
}
330
1F
100
AcDbEntity
  8
LC-002-002-RND-0
 62
     7
370
    50
100
AcDbCircle
 10
47.538143
 20
381.097869
 30
0.0
 40
2.25
100
AcDbArc
 50
360.0
 51
90.0
  0
ARC
  5
1A2
102
{ACAD_REACTORS
330
28F
102
}
330
1F
100
AcDbEntity
  8
LC-002-002-RND-0
 62
     7
370
    50
100
AcDbCircle
 10
58.038143
 20
381.097869
 30
0.0
 40
2.25
100
AcDbArc
 50
90.0
 51
180.0
  0
ARC
  5
1A3
102
{ACAD_REACTORS
330
28F
102
}
330
1F
100
AcDbEntity
  8
LC-002-002-RND-0
 62
     7
370
    50
100
AcDbCircle
 10
21.538143
 20
381.097869
 30
0.0
 40
2.25
100
AcDbArc
 50
360.0
 51
90.0
  0
ARC
  5
1A4
102
{ACAD_REACTORS
330
28F
102
}
330
1F
100
AcDbEntity
  8
LC-002-002-RND-0
 62
     7
370
    50
100
AcDbCircle
 10
21.538143
 20
381.097869
 30
0.0
 40
0.75
100
AcDbArc
 50
360.0
 51
90.0
  0
LINE
  5
1A5
102
{ACAD_REACTORS
330
28F
102
}
330
1F
100
AcDbEntity
  8
LC-001-002-----0
 62
     7
370
    50
100
AcDbLine
 10
32.038143
 20
381.847869
 30
0.0
 11
34.538143
 21
381.847869
 31
0.0
  0
LINE
  5
1A6
102
{ACAD_REACTORS
330
28F
102
}
330
1F
100
AcDbEntity
  8
LC-001-002-----0
 62
     7
370
    50
100
AcDbLine
 10
45.038143
 20
381.847869
 30
0.0
 11
47.538143
 21
381.847869
 31
0.0
  0
LINE
  5
1A7
102
{ACAD_REACTORS
330
28F
102
}
330
1F
100
AcDbEntity
  8
LC-001-002-----0
 62
     7
370
    50
100
AcDbLine
 10
29.788143
 20
379.147869
 30
0.0
 11
29.788143
 21
381.097869
 31
0.0
  0
LINE
  5
1A8
102
{ACAD_REACTORS
330
28F
102
}
330
1F
100
AcDbEntity
  8
LC-001-002-----0
 62
     7
370
    50
100
AcDbLine
 10
31.288143
 20
379.147869
 30
0.0
 11
31.288143
 21
381.097869
 31
0.0
  0
LINE
  5
1A9
102
{ACAD_REACTORS
330
28F
102
}
330
1F
100
AcDbEntity
  8
LC-001-002-----0
 62
     7
370
    50
100
AcDbLine
 10
61.288143
 20
379.147869
 30
0.0
 11
62.088143
 21
378.347869
 31
0.0
  0
LINE
  5
1AA
102
{ACAD_REACTORS
330
28F
102
}
330
1F
100
AcDbEntity
  8
LC-001-002-----0
 62
     7
370
    50
100
AcDbLine
 10
58.038143
 20
381.847869
 30
0.0
 11
60.538143
 21
381.847869
 31
0.0
  0
LINE
  5
1AB
102
{ACAD_REACTORS
330
28F
102
}
330
1F
100
AcDbEntity
  8
LC-001-002-----0
 62
     7
370
    50
100
AcDbLine
 10
35.288143
 20
379.147869
 30
0.0
 11
35.288143
 21
381.097869
 31
0.0
  0
LINE
  5
1AC
102
{ACAD_REACTORS
330
28F
102
}
330
1F
100
AcDbEntity
  8
LC-001-002-----0
 62
     7
370
    50
100
AcDbLine
 10
36.788143
 20
379.147869
 30
0.0
 11
36.788143
 21
381.097869
 31
0.0
  0
LINE
  5
1AD
102
{ACAD_REACTORS
330
28F
102
}
330
1F
100
AcDbEntity
  8
LC-001-002-----0
 62
     7
370
    50
100
AcDbLine
 10
42.788143
 20
379.147869
 30
0.0
 11
42.788143
 21
381.097869
 31
0.0
  0
LINE
  5
1AE
102
{ACAD_REACTORS
330
28F
102
}
330
1F
100
AcDbEntity
  8
LC-001-002-----0
 62
     7
370
    50
100
AcDbLine
 10
44.288143
 20
379.147869
 30
0.0
 11
44.288143
 21
381.097869
 31
0.0
  0
LINE
  5
1AF
102
{ACAD_REACTORS
330
28F
102
}
330
1F
100
AcDbEntity
  8
LC-001-002-----0
 62
     7
370
    50
100
AcDbLine
 10
48.288143
 20
379.147869
 30
0.0
 11
48.288143
 21
381.097869
 31
0.0
  0
LINE
  5
1B0
102
{ACAD_REACTORS
330
28F
102
}
330
1F
100
AcDbEntity
  8
LC-001-002-----0
 62
     7
370
    50
100
AcDbLine
 10
49.788143
 20
379.147869
 30
0.0
 11
49.788143
 21
381.097869
 31
0.0
  0
LINE
  5
1B1
102
{ACAD_REACTORS
330
28F
102
}
330
1F
100
AcDbEntity
  8
LC-001-002-----0
 62
     7
370
    50
100
AcDbLine
 10
55.788143
 20
379.147869
 30
0.0
 11
55.788143
 21
381.097869
 31
0.0
  0
LINE
  5
1B2
102
{ACAD_REACTORS
330
28F
102
}
330
1F
100
AcDbEntity
  8
LC-001-002-----0
 62
     7
370
    50
100
AcDbLine
 10
57.288143
 20
379.147869
 30
0.0
 11
57.288143
 21
381.097869
 31
0.0
  0
LINE
  5
1B3
102
{ACAD_REACTORS
330
28F
102
}
330
1F
100
AcDbEntity
  8
LC-001-002-----0
 62
     7
370
    50
100
AcDbLine
 10
61.288143
 20
379.147869
 30
0.0
 11
61.288143
 21
381.097869
 31
0.0
  0
INSERT
  5
1BB
102
{ACAD_REACTORS
330
28F
102
}
330
1F
100
AcDbEntity
  8
LC-003-005-----0
 62
     7
370
    25
100
AcDbBlockReference
  2
*X99
 10
0.0
 20
0.0
 30
0.0
  0
LINE
  5
1BC
102
{ACAD_REACTORS
330
28F
102
}
330
1F
100
AcDbEntity
  8
LC-001-002-----0
 62
     7
370
    50
100
AcDbLine
 10
42.788143
 20
379.147869
 30
0.0
 11
48.288143
 21
379.147869
 31
0.0
  0
LINE
  5
1BD
102
{ACAD_REACTORS
330
28F
102
}
330
1F
100
AcDbEntity
  8
LC-001-002-----0
 62
     7
370
    50
100
AcDbLine
 10
48.288143
 20
379.147869
 30
0.0
 11
49.788143
 21
379.147869
 31
0.0
  0
LINE
  5
1BE
102
{ACAD_REACTORS
330
28F
102
}
330
1F
100
AcDbEntity
  8
LC-001-002-----0
 62
     7
370
    50
100
AcDbLine
 10
49.788143
 20
379.147869
 30
0.0
 11
57.288143
 21
379.147869
 31
0.0
  0
LINE
  5
1BF
102
{ACAD_REACTORS
330
28F
102
}
330
1F
100
AcDbEntity
  8
LC-001-002-----0
 62
     7
370
    50
100
AcDbLine
 10
45.038143
 20
383.347869
 30
0.0
 11
47.538143
 21
383.347869
 31
0.0
  0
LINE
  5
1C0
102
{ACAD_REACTORS
330
28F
102
}
330
1F
100
AcDbEntity
  8
LC-001-002-----0
 62
     7
370
    50
100
AcDbLine
 10
47.538143
 20
383.347869
 30
0.0
 11
53.938143
 21
383.347869
 31
0.0
  0
LINE
  5
1C1
102
{ACAD_REACTORS
330
28F
102
}
330
1F
100
AcDbEntity
  8
LC-001-002-----0
 62
     7
370
    50
100
AcDbLine
 10
58.038143
 20
383.347869
 30
0.0
 11
60.538143
 21
383.347869
 31
0.0
  0
LINE
  5
1C2
102
{ACAD_REACTORS
330
28F
102
}
330
1F
100
AcDbEntity
  8
LC-001-002-----0
 62
     7
370
    50
100
AcDbLine
 10
62.088143
 20
378.347869
 30
0.0
 11
62.788143
 21
378.347869
 31
0.0
  0
INSERT
  5
1CA
102
{ACAD_REACTORS
330
28F
102
}
330
1F
100
AcDbEntity
  8
LC-003-005-----0
 62
     7
370
    25
100
AcDbBlockReference
  2
*X1010
 10
0.0
 20
0.0
 30
0.0
  0
INSERT
  5
1D3
102
{ACAD_REACTORS
330
28F
102
}
330
1F
100
AcDbEntity
  8
LC-003-005-----0
 62
     7
370
    25
100
AcDbBlockReference
  2
*X1111
 10
0.0
 20
0.0
 30
0.0
  0
LINE
  5
1D4
102
{ACAD_REACTORS
330
28F
102
}
330
1F
100
AcDbEntity
  8
LC-001-002-----0
 62
     7
370
    50
100
AcDbLine
 10
5.288143
 20
378.347869
 30
0.0
 11
62.088143
 21
378.347869
 31
0.0
  0
INSERT
  5
1E0
330
1F
100
AcDbEntity
  8
LC-003-005-----0
 62
     7
370
    25
100
AcDbBlockReference
  2
*X1212
 10
0.0
 20
0.0
 30
0.0
  0
INSERT
  5
1EA
330
1F
100
AcDbEntity
  8
LC-003-005-----0
 62
     7
370
    25
100
AcDbBlockReference
  2
*X1313
 10
0.0
 20
0.0
 30
0.0
  0
LINE
  5
1EB
102
{ACAD_REACTORS
330
28B
102
}
330
1F
100
AcDbEntity
  8
LC-001-002-----0
 62
     7
370
    50
100
AcDbLine
 10
163.788143
 20
385.967897
 30
0.0
 11
163.788143
 21
271.967897
 31
0.0
  0
LINE
  5
1EC
102
{ACAD_REACTORS
330
28B
102
}
330
1F
100
AcDbEntity
  8
LC-001-002-----0
 62
     7
370
    50
100
AcDbLine
 10
164.788143
 20
386.967897
 30
0.0
 11
278.788143
 21
386.967897
 31
0.0
  0
ARC
  5
1ED
102
{ACAD_REACTORS
330
28B
102
}
330
1F
100
AcDbEntity
  8
LC-002-002-RND-0
 62
     7
370
    50
100
AcDbCircle
 10
278.788143
 20
271.967897
 30
0.0
 40
1.0
100
AcDbArc
 50
270.0
 51
0.0
  0
ARC
  5
1EE
102
{ACAD_REACTORS
330
28B
102
}
330
1F
100
AcDbEntity
  8
LC-002-002-RND-0
 62
     7
370
    50
100
AcDbCircle
 10
278.788143
 20
385.967897
 30
0.0
 40
1.0
100
AcDbArc
 50
0.0
 51
90.0
  0
ARC
  5
1EF
102
{ACAD_REACTORS
330
28B
102
}
330
1F
100
AcDbEntity
  8
LC-002-002-RND-0
 62
     7
370
    50
100
AcDbCircle
 10
164.788143
 20
385.967897
 30
0.0
 40
1.0
100
AcDbArc
 50
90.0
 51
180.0
  0
ARC
  5
1F0
102
{ACAD_REACTORS
330
28B
102
}
330
1F
100
AcDbEntity
  8
LC-002-002-RND-0
 62
     7
370
    50
100
AcDbCircle
 10
164.788143
 20
271.967897
 30
0.0
 40
1.0
100
AcDbArc
 50
180.0
 51
270.0
  0
LINE
  5
1F1
102
{ACAD_REACTORS
330
28B
102
}
330
1F
100
AcDbEntity
  8
LC-001-002-----0
 62
     7
370
    50
100
AcDbLine
 10
279.788143
 20
385.967897
 30
0.0
 11
279.788143
 21
271.967897
 31
0.0
  0
LINE
  5
1F2
102
{ACAD_REACTORS
330
28B
102
}
330
1F
100
AcDbEntity
  8
LC-001-002-----0
 62
     7
370
    50
100
AcDbLine
 10
164.788143
 20
270.967897
 30
0.0
 11
278.788143
 21
270.967897
 31
0.0
  0
LINE
  5
1F4
102
{ACAD_REACTORS
330
28B
102
}
330
1F
100
AcDbEntity
  8
LC-004-003-----0
 62
     7
370
    25
100
AcDbLine
 10
279.188143
 20
269.567897
 30
0.0
 11
164.388143
 21
269.567897
 31
0.0
  0
ARC
  5
1F5
102
{ACAD_REACTORS
330
28B
102
}
330
1F
100
AcDbEntity
  8
LC-004-003-----0
 62
     7
370
    25
100
AcDbCircle
 10
279.188143
 20
271.567897
 30
0.0
 40
2.0
100
AcDbArc
 50
270.0
 51
0.0
  0
LINE
  5
1F6
102
{ACAD_REACTORS
330
28B
102
}
330
1F
100
AcDbEntity
  8
LC-004-003-----0
 62
     7
370
    25
100
AcDbLine
 10
162.388143
 20
271.567897
 30
0.0
 11
162.388143
 21
386.367897
 31
0.0
  0
ARC
  5
1F7
102
{ACAD_REACTORS
330
28B
102
}
330
1F
100
AcDbEntity
  8
LC-004-003-----0
 62
     7
370
    25
100
AcDbCircle
 10
164.388143
 20
271.567897
 30
0.0
 40
2.0
100
AcDbArc
 50
180.0
 51
270.0
  0
LINE
  5
1F8
102
{ACAD_REACTORS
330
28B
102
}
330
1F
100
AcDbEntity
  8
LC-004-003-----0
 62
     7
370
    25
100
AcDbLine
 10
164.388143
 20
388.367897
 30
0.0
 11
279.188143
 21
388.367897
 31
0.0
  0
ARC
  5
1F9
102
{ACAD_REACTORS
330
28B
102
}
330
1F
100
AcDbEntity
  8
LC-004-003-----0
 62
     7
370
    25
100
AcDbCircle
 10
164.388143
 20
386.367897
 30
0.0
 40
2.0
100
AcDbArc
 50
90.0
 51
180.0
  0
LINE
  5
1FA
102
{ACAD_REACTORS
330
28B
102
}
330
1F
100
AcDbEntity
  8
LC-004-003-----0
 62
     7
370
    25
100
AcDbLine
 10
281.188143
 20
386.367897
 30
0.0
 11
281.188143
 21
271.567897
 31
0.0
  0
ARC
  5
1FB
102
{ACAD_REACTORS
330
28B
102
}
330
1F
100
AcDbEntity
  8
LC-004-003-----0
 62
     7
370
    25
100
AcDbCircle
 10
279.188143
 20
386.367897
 30
0.0
 40
2.0
100
AcDbArc
 50
0.0
 51
90.0
  0
LINE
  5
1FC
102
{ACAD_REACTORS
330
28B
102
}
330
1F
100
AcDbEntity
  8
LC-001-002-----0
 62
     7
370
    50
100
AcDbLine
 10
164.788143
 20
389.467897
 30
0.0
 11
278.788143
 21
389.467897
 31
0.0
  0
LINE
  5
1FD
102
{ACAD_REACTORS
330
28B
102
}
330
1F
100
AcDbEntity
  8
LC-001-002-----0
 62
     7
370
    50
100
AcDbLine
 10
161.288143
 20
271.967897
 30
0.0
 11
161.288143
 21
385.967897
 31
0.0
  0
LINE
  5
1FE
102
{ACAD_REACTORS
330
28B
102
}
330
1F
100
AcDbEntity
  8
LC-001-002-----0
 62
     7
370
    50
100
AcDbLine
 10
278.788143
 20
268.467897
 30
0.0
 11
164.788143
 21
268.467897
 31
0.0
  0
LINE
  5
1FF
102
{ACAD_REACTORS
330
28B
102
}
330
1F
100
AcDbEntity
  8
LC-001-002-----0
 62
     7
370
    50
100
AcDbLine
 10
282.288143
 20
385.967897
 30
0.0
 11
282.288143
 21
271.967897
 31
0.0
  0
ARC
  5
200
102
{ACAD_REACTORS
330
28B
102
}
330
1F
100
AcDbEntity
  8
LC-001-002-----0
 62
     7
370
    50
100
AcDbCircle
 10
164.788143
 20
271.967897
 30
0.0
 40
3.499999999999659
100
AcDbArc
 50
180.0
 51
270.0
  0
ARC
  5
201
102
{ACAD_REACTORS
330
28B
102
}
330
1F
100
AcDbEntity
  8
LC-002-002-RND-0
 62
     7
370
    50
100
AcDbCircle
 10
278.788143
 20
271.967897
 30
0.0
 40
3.5
100
AcDbArc
 50
270.0
 51
0.0
  0
ARC
  5
202
102
{ACAD_REACTORS
330
28B
102
}
330
1F
100
AcDbEntity
  8
LC-002-002-RND-0
 62
     7
370
    50
100
AcDbCircle
 10
278.788143
 20
385.967897
 30
0.0
 40
3.5
100
AcDbArc
 50
0.0
 51
90.0
  0
ARC
  5
203
102
{ACAD_REACTORS
330
28B
102
}
330
1F
100
AcDbEntity
  8
LC-002-002-RND-0
 62
     7
370
    50
100
AcDbCircle
 10
164.788143
 20
385.967897
 30
0.0
 40
3.5
100
AcDbArc
 50
90.0
 51
180.0
  0
ARC
  5
204
102
{ACAD_REACTORS
330
291
102
}
330
1F
100
AcDbEntity
  8
LC-002-002-RND-0
 62
     7
370
    50
100
AcDbCircle
 10
170.288143
 20
278.217897
 30
0.0
 40
0.5
100
AcDbArc
 50
270.0
 51
0.0
  0
ARC
  5
205
102
{ACAD_REACTORS
330
291
102
}
330
1F
100
AcDbEntity
  8
LC-002-002-RND-0
 62
     7
370
    50
100
AcDbCircle
 10
170.288143
 20
291.967897
 30
0.0
 40
0.5
100
AcDbArc
 50
0.0
 51
90.0
  0
ARC
  5
206
102
{ACAD_REACTORS
330
291
102
}
330
1F
100
AcDbEntity
  8
LC-002-002-RND-0
 62
     7
370
    50
100
AcDbCircle
 10
166.288143
 20
273.467897
 30
0.0
 40
2.0
100
AcDbArc
 50
180.0
 51
270.0
  0
LINE
  5
207
102
{ACAD_REACTORS
330
291
102
}
330
1F
100
AcDbEntity
  8
LC-001-002-----0
 62
     7
370
    50
100
AcDbLine
 10
164.288143
 20
277.717897
 30
0.0
 11
170.288143
 21
277.717897
 31
0.0
  0
LINE
  5
208
102
{ACAD_REACTORS
330
291
102
}
330
1F
100
AcDbEntity
  8
LC-001-002-----0
 62
     7
370
    50
100
AcDbLine
 10
164.288143
 20
273.467897
 30
0.0
 11
164.288143
 21
328.967897
 31
0.0
  0
LINE
  5
209
102
{ACAD_REACTORS
330
291
102
}
330
1F
100
AcDbEntity
  8
LC-001-002-----0
 62
     7
370
    50
100
AcDbLine
 10
164.288143
 20
292.467897
 30
0.0
 11
170.288143
 21
292.467897
 31
0.0
  0
LINE
  5
20A
102
{ACAD_REACTORS
330
291
102
}
330
1F
100
AcDbEntity
  8
LC-001-002-----0
 62
     7
370
    50
100
AcDbLine
 10
166.788143
 20
277.717897
 30
0.0
 11
166.788143
 21
292.467897
 31
0.0
  0
LINE
  5
20B
102
{ACAD_REACTORS
330
291
102
}
330
1F
100
AcDbEntity
  8
LC-001-002-----0
 62
     7
370
    50
100
AcDbLine
 10
170.788143
 20
278.217897
 30
0.0
 11
170.788143
 21
291.967897
 31
0.0
  0
ARC
  5
20C
102
{ACAD_REACTORS
330
291
102
}
330
1F
100
AcDbEntity
  8
LC-002-002-RND-0
 62
     7
370
    50
100
AcDbCircle
 10
277.288143
 20
273.467897
 30
0.0
 40
2.0
100
AcDbArc
 50
270.0
 51
0.0
  0
ARC
  5
20D
102
{ACAD_REACTORS
330
291
102
}
330
1F
100
AcDbEntity
  8
LC-001-002-----0
 62
     7
370
    50
100
AcDbCircle
 10
305.788143
 20
328.967897
 30
0.0
 40
29.99999999999983
100
AcDbArc
 50
180.0
 51
207.048111
  0
ARC
  5
20E
102
{ACAD_REACTORS
330
291
102
}
330
1F
100
AcDbEntity
  8
LC-002-002-RND-0
 62
     7
370
    50
100
AcDbCircle
 10
277.288143
 20
314.416265
 30
0.0
 40
2.0
100
AcDbArc
 50
0.0
 51
27.048111
  0
LINE
  5
20F
102
{ACAD_REACTORS
330
291
102
}
330
1F
100
AcDbEntity
  8
LC-001-002-----0
 62
     7
370
    50
100
AcDbLine
 10
277.288143
 20
271.467897
 30
0.0
 11
166.288143
 21
271.467897
 31
0.0
  0
LINE
  5
210
102
{ACAD_REACTORS
330
291
102
}
330
1F
100
AcDbEntity
  8
LC-001-002-----0
 62
     7
370
    50
100
AcDbLine
 10
279.288143
 20
273.467897
 30
0.0
 11
279.288143
 21
314.416265
 31
0.0
  0
LINE
  5
213
102
{ACAD_REACTORS
330
28E
102
}
330
1F
100
AcDbEntity
  8
LC-005-007-KH--0
 62
     7
370
    13
100
AcDbLine
 10
216.788143
 20
375.789367
 30
0.0
 11
216.788143
 21
375.789367
 31
0.0
  0
LINE
  5
214
102
{ACAD_REACTORS
330
28E
102
}
330
1F
100
AcDbEntity
  8
LC-005-007-KH--0
 62
     7
370
    13
100
AcDbLine
 10
226.788143
 20
375.789367
 30
0.0
 11
226.788143
 21
375.789367
 31
0.0
  0
ARC
  5
215
102
{ACAD_REACTORS
330
28E
102
}
330
1F
100
AcDbEntity
  8
LC-001-002-----0
 62
     7
370
    50
100
AcDbCircle
 10
221.788143
 20
328.967897
 30
0.0
 40
18.50000000000008
100
AcDbArc
 50
111.844757
 51
158.155243
  0
ARC
  5
216
102
{ACAD_REACTORS
330
28E
102
}
330
1F
100
AcDbEntity
  8
LC-001-002-----0
 62
     7
370
    50
100
AcDbCircle
 10
221.788143
 20
328.967897
 30
0.0
 40
24.50000000000005
100
AcDbArc
 50
111.844757
 51
158.155243
  0
ARC
  5
217
102
{ACAD_REACTORS
330
28E
102
}
330
1F
100
AcDbEntity
  8
LC-001-002-----0
 62
     7
370
    50
100
AcDbCircle
 10
221.788143
 20
328.967897
 30
0.0
 40
31.50000000000002
100
AcDbArc
 50
103.40802
 51
166.59198
  0
ARC
  5
218
102
{ACAD_REACTORS
330
28E
102
}
330
1F
100
AcDbEntity
  8
LC-001-002-----0
 62
     7
370
    50
100
AcDbCircle
 10
221.788143
 20
328.967897
 30
0.0
 40
37.49999999999998
100
AcDbArc
 50
103.40802
 51
166.59198
  0
ARC
  5
219
102
{ACAD_REACTORS
330
28E
102
}
330
1F
100
AcDbEntity
  8
LC-001-002-----0
 62
     7
370
    50
100
AcDbCircle
 10
221.788143
 20
328.967897
 30
0.0
 40
44.50000000000007
100
AcDbArc
 50
99.696028
 51
170.303972
  0
ARC
  5
21A
102
{ACAD_REACTORS
330
28E
102
}
330
1F
100
AcDbEntity
  8
LC-001-002-----0
 62
     7
370
    50
100
AcDbCircle
 10
221.788143
 20
328.967897
 30
0.0
 40
50.50000000000002
100
AcDbArc
 50
99.696028
 51
170.303972
  0
ARC
  5
21B
102
{ACAD_REACTORS
330
28E
102
}
330
1F
100
AcDbEntity
  8
LC-001-002-----0
 62
     7
370
    50
100
AcDbCircle
 10
221.788143
 20
328.967897
 30
0.0
 40
18.49999999999997
100
AcDbArc
 50
21.844757
 51
68.155243
  0
ARC
  5
21C
102
{ACAD_REACTORS
330
28E
102
}
330
1F
100
AcDbEntity
  8
LC-001-002-----0
 62
     7
370
    50
100
AcDbCircle
 10
221.788143
 20
328.967897
 30
0.0
 40
24.49999999999995
100
AcDbArc
 50
21.844757
 51
68.155243
  0
ARC
  5
21D
102
{ACAD_REACTORS
330
28E
102
}
330
1F
100
AcDbEntity
  8
LC-001-002-----0
 62
     7
370
    50
100
AcDbCircle
 10
221.788143
 20
328.967897
 30
0.0
 40
31.49999999999996
100
AcDbArc
 50
13.40802
 51
76.59198
  0
ARC
  5
21E
102
{ACAD_REACTORS
330
28E
102
}
330
1F
100
AcDbEntity
  8
LC-001-002-----0
 62
     7
370
    50
100
AcDbCircle
 10
221.788143
 20
328.967897
 30
0.0
 40
37.49999999999994
100
AcDbArc
 50
13.40802
 51
76.59198
  0
ARC
  5
21F
102
{ACAD_REACTORS
330
28E
102
}
330
1F
100
AcDbEntity
  8
LC-001-002-----0
 62
     7
370
    50
100
AcDbCircle
 10
221.788143
 20
328.967897
 30
0.0
 40
44.50000000000001
100
AcDbArc
 50
9.696028
 51
80.303972
  0
ARC
  5
220
102
{ACAD_REACTORS
330
28E
102
}
330
1F
100
AcDbEntity
  8
LC-001-002-----0
 62
     7
370
    50
100
AcDbCircle
 10
221.788143
 20
328.967897
 30
0.0
 40
50.49999999999997
100
AcDbArc
 50
9.696028
 51
80.303972
  0
LINE
  5
221
102
{ACAD_REACTORS
330
28E
102
}
330
1F
100
AcDbEntity
  8
LC-005-007-KH--0
 62
     7
370
    13
100
AcDbLine
 10
255.347791
 20
333.967897
 30
0.0
 11
255.347791
 21
333.967897
 31
0.0
  0
LINE
  5
222
102
{ACAD_REACTORS
330
28E
102
}
330
1F
100
AcDbEntity
  8
LC-005-007-KH--0
 62
     7
370
    13
100
AcDbLine
 10
174.966673
 20
333.967897
 30
0.0
 11
174.966673
 21
333.967897
 31
0.0
  0
LINE
  5
223
102
{ACAD_REACTORS
330
28E
102
}
330
1F
100
AcDbEntity
  8
LC-005-007-KH--0
 62
     7
370
    13
100
AcDbLine
 10
241.744345
 20
333.967897
 30
0.0
 11
241.744345
 21
333.967897
 31
0.0
  0
LINE
  5
224
102
{ACAD_REACTORS
330
28E
102
}
330
1F
100
AcDbEntity
  8
LC-005-007-KH--0
 62
     7
370
    13
100
AcDbLine
 10
268.609612
 20
333.967897
 30
0.0
 11
268.609612
 21
333.967897
 31
0.0
  0
LINE
  5
225
102
{ACAD_REACTORS
330
28E
102
}
330
1F
100
AcDbEntity
  8
LC-005-007-KH--0
 62
     7
370
    13
100
AcDbLine
 10
216.788143
 20
348.924099
 30
0.0
 11
216.788143
 21
348.924099
 31
0.0
  0
LINE
  5
226
102
{ACAD_REACTORS
330
28E
102
}
330
1F
100
AcDbEntity
  8
LC-005-007-KH--0
 62
     7
370
    13
100
AcDbLine
 10
216.788143
 20
362.527546
 30
0.0
 11
216.788143
 21
362.527546
 31
0.0
  0
ARC
  5
227
102
{ACAD_REACTORS
330
28E
102
}
330
1F
100
AcDbEntity
  8
LC-002-002-RND-0
 62
     7
370
    50
100
AcDbCircle
 10
174.966673
 20
336.967897
 30
0.0
 40
3.000000000000036
100
AcDbArc
 50
170.303972
 51
270.0
  0
ARC
  5
228
102
{ACAD_REACTORS
330
28E
102
}
330
1F
100
AcDbEntity
  8
LC-001-002-----0
 62
     7
370
    50
100
AcDbCircle
 10
174.966673
 20
336.967897
 30
0.0
 40
3.0
100
AcDbArc
 50
270.0
 51
350.303972
  0
ARC
  5
229
102
{ACAD_REACTORS
330
28E
102
}
330
1F
100
AcDbEntity
  8
LC-001-002-----0
 62
     7
370
    50
100
AcDbCircle
 10
188.228494
 20
336.967897
 30
0.0
 40
3.0
100
AcDbArc
 50
166.59198
 51
270.0
  0
ARC
  5
22A
102
{ACAD_REACTORS
330
28E
102
}
330
1F
100
AcDbEntity
  8
LC-002-002-RND-0
 62
     7
370
    50
100
AcDbCircle
 10
188.228494
 20
336.967897
 30
0.0
 40
3.0
100
AcDbArc
 50
270.0
 51
346.59198
  0
ARC
  5
22B
102
{ACAD_REACTORS
330
28E
102
}
330
1F
100
AcDbEntity
  8
LC-002-002-RND-0
 62
     7
370
    50
100
AcDbCircle
 10
201.831941
 20
336.967897
 30
0.0
 40
3.000000000000084
100
AcDbArc
 50
158.155243
 51
270.0
  0
ARC
  5
22C
102
{ACAD_REACTORS
330
28E
102
}
330
1F
100
AcDbEntity
  8
LC-001-002-----0
 62
     7
370
    50
100
AcDbCircle
 10
201.831941
 20
336.967897
 30
0.0
 40
3.0
100
AcDbArc
 50
270.0
 51
338.155243
  0
ARC
  5
22D
102
{ACAD_REACTORS
330
28E
102
}
330
1F
100
AcDbEntity
  8
LC-001-002-----0
 62
     7
370
    50
100
AcDbCircle
 10
213.788143
 20
348.924099
 30
0.0
 40
2.999999999999989
100
AcDbArc
 50
291.844757
 51
0.0
  0
ARC
  5
22E
102
{ACAD_REACTORS
330
28E
102
}
330
1F
100
AcDbEntity
  8
LC-002-002-RND-0
 62
     7
370
    50
100
AcDbCircle
 10
213.788143
 20
348.924099
 30
0.0
 40
3.0
100
AcDbArc
 50
0.0
 51
111.844757
  0
ARC
  5
22F
102
{ACAD_REACTORS
330
28E
102
}
330
1F
100
AcDbEntity
  8
LC-001-002-----0
 62
     7
370
    50
100
AcDbCircle
 10
213.788143
 20
362.527546
 30
0.0
 40
3.000000000000029
100
AcDbArc
 50
283.40802
 51
0.0
  0
ARC
  5
230
102
{ACAD_REACTORS
330
28E
102
}
330
1F
100
AcDbEntity
  8
LC-001-002-----0
 62
     7
370
    50
100
AcDbCircle
 10
213.788143
 20
362.527546
 30
0.0
 40
3.0
100
AcDbArc
 50
0.0
 51
103.40802
  0
ARC
  5
231
102
{ACAD_REACTORS
330
28E
102
}
330
1F
100
AcDbEntity
  8
LC-001-002-----0
 62
     7
370
    50
100
AcDbCircle
 10
213.788143
 20
375.789367
 30
0.0
 40
2.999999999999914
100
AcDbArc
 50
279.696028
 51
0.0
  0
ARC
  5
232
102
{ACAD_REACTORS
330
28E
102
}
330
1F
100
AcDbEntity
  8
LC-002-002-RND-0
 62
     7
370
    50
100
AcDbCircle
 10
213.788143
 20
375.789367
 30
0.0
 40
3.0
100
AcDbArc
 50
0.0
 51
99.696028
  0
ARC
  5
233
102
{ACAD_REACTORS
330
28E
102
}
330
1F
100
AcDbEntity
  8
LC-001-002-----0
 62
     7
370
    50
100
AcDbCircle
 10
229.788143
 20
375.789367
 30
0.0
 40
3.0
100
AcDbArc
 50
180.0
 51
260.303972
  0
ARC
  5
234
102
{ACAD_REACTORS
330
28E
102
}
330
1F
100
AcDbEntity
  8
LC-001-002-----0
 62
     7
370
    50
100
AcDbCircle
 10
229.788143
 20
375.789367
 30
0.0
 40
3.000000000000026
100
AcDbArc
 50
80.303972
 51
180.0
  0
ARC
  5
235
102
{ACAD_REACTORS
330
28E
102
}
330
1F
100
AcDbEntity
  8
LC-001-002-----0
 62
     7
370
    50
100
AcDbCircle
 10
229.788143
 20
362.527546
 30
0.0
 40
2.999999999999918
100
AcDbArc
 50
76.59198
 51
180.0
  0
ARC
  5
236
102
{ACAD_REACTORS
330
28E
102
}
330
1F
100
AcDbEntity
  8
LC-001-002-----0
 62
     7
370
    50
100
AcDbCircle
 10
229.788143
 20
362.527546
 30
0.0
 40
3.0
100
AcDbArc
 50
180.0
 51
256.59198
  0
ARC
  5
237
102
{ACAD_REACTORS
330
28E
102
}
330
1F
100
AcDbEntity
  8
LC-002-002-RND-0
 62
     7
370
    50
100
AcDbCircle
 10
229.788143
 20
348.924099
 30
0.0
 40
2.999999999999989
100
AcDbArc
 50
68.155243
 51
180.0
  0
ARC
  5
238
102
{ACAD_REACTORS
330
28E
102
}
330
1F
100
AcDbEntity
  8
LC-002-002-RND-0
 62
     7
370
    50
100
AcDbCircle
 10
229.788143
 20
348.924099
 30
0.0
 40
3.0
100
AcDbArc
 50
180.0
 51
248.155243
  0
ARC
  5
239
102
{ACAD_REACTORS
330
28E
102
}
330
1F
100
AcDbEntity
  8
LC-002-002-RND-0
 62
     7
370
    50
100
AcDbCircle
 10
268.609612
 20
336.967897
 30
0.0
 40
3.0
100
AcDbArc
 50
270.0
 51
9.696028
  0
ARC
  5
23A
102
{ACAD_REACTORS
330
28E
102
}
330
1F
100
AcDbEntity
  8
LC-002-002-RND-0
 62
     7
370
    50
100
AcDbCircle
 10
268.609612
 20
336.967897
 30
0.0
 40
2.999999999999905
100
AcDbArc
 50
189.696028
 51
270.0
  0
ARC
  5
23B
102
{ACAD_REACTORS
330
28E
102
}
330
1F
100
AcDbEntity
  8
LC-002-002-RND-0
 62
     7
370
    50
100
AcDbCircle
 10
255.347791
 20
336.967897
 30
0.0
 40
3.0
100
AcDbArc
 50
270.0
 51
13.40802
  0
ARC
  5
23C
102
{ACAD_REACTORS
330
28E
102
}
330
1F
100
AcDbEntity
  8
LC-001-002-----0
 62
     7
370
    50
100
AcDbCircle
 10
255.347791
 20
336.967897
 30
0.0
 40
2.999999999999973
100
AcDbArc
 50
193.40802
 51
270.0
  0
ARC
  5
23D
102
{ACAD_REACTORS
330
28E
102
}
330
1F
100
AcDbEntity
  8
LC-002-002-RND-0
 62
     7
370
    50
100
AcDbCircle
 10
241.744345
 20
336.967897
 30
0.0
 40
3.0
100
AcDbArc
 50
270.0
 51
21.844757
  0
ARC
  5
23E
102
{ACAD_REACTORS
330
28E
102
}
330
1F
100
AcDbEntity
  8
LC-002-002-RND-0
 62
     7
370
    50
100
AcDbCircle
 10
241.744345
 20
336.967897
 30
0.0
 40
2.999999999999989
100
AcDbArc
 50
201.844757
 51
270.0
  0
ARC
  5
23F
330
1F
100
AcDbEntity
  8
LC-001-002-----0
 62
     7
370
    50
100
AcDbCircle
 10
221.788143
 20
328.967897
 30
0.0
 40
57.5
100
AcDbArc
 50
0.0
 51
180.0
  0
LINE
  5
240
330
1F
100
AcDbEntity
  8
LC-001-002-----0
  6
DASHDOT
 62
     7
370
    25
100
AcDbLine
 10
161.288143
 20
328.967897
 30
0.0
 11
282.288143
 21
328.967897
 31
0.0
  0
DIMENSION
  5
243
330
1F
100
AcDbEntity
  8
LC-004-003-----0
 62
     7
370
    25
100
AcDbDimension
  2
*D14
 10
65.788143
 20
407.81065
 30
0.0
 11
14.978294
 21
438.61065
 31
0.0
 70
   160
  1
120
 71
     5
 42
121.0
  3
LC-DIM-L-0140-02-02
100
AcDbAlignedDimension
 13
-55.211857
 23
386.559566
 33
0.0
 14
65.788143
 24
386.559566
 34
0.0
100
AcDbRotatedDimension
  0
DIMENSION
  5
251
330
1F
100
AcDbEntity
  8
LC-004-003-----0
 62
     7
370
    25
100
AcDbDimension
  2
*D15
 10
-78.4
 20
388.759566
 30
0.0
 11
-109.2
 21
336.53065
 31
0.0
 70
   160
  1
26
 71
     5
 42
26.011698
 53
90.0
  3
LC-DIM-L-0140-02-02
100
AcDbAlignedDimension
 13
-49.211857
 23
362.747869
 33
0.0
 14
-53.411857
 24
388.759566
 34
0.0
 50
90.0
100
AcDbRotatedDimension
  0
LINE
  5
25F
330
1F
100
AcDbEntity
  8
LC-001-002-----0
 62
     7
370
    25
100
AcDbLine
 10
-27.616868
 20
419.09665
 30
0.0
 11
-27.616868
 21
434.09665
 31
0.0
  0
LINE
  5
260
330
1F
100
AcDbEntity
  8
LC-001-002-----0
 62
     7
370
    25
100
AcDbLine
 10
-27.616868
 20
434.09665
 30
0.0
 11
-42.616868
 21
434.09665
 31
0.0
  0
LINE
  5
261
330
1F
100
AcDbEntity
  8
LC-001-002-----0
 62
     7
370
    25
100
AcDbLine
 10
-42.616868
 20
419.09665
 30
0.0
 11
-42.616868
 21
434.09665
 31
0.0
  0
LINE
  5
262
330
1F
100
AcDbEntity
  8
LC-001-002-----0
 62
     7
370
    25
100
AcDbLine
 10
-27.616868
 20
419.09665
 30
0.0
 11
-42.616868
 21
419.09665
 31
0.0
  0
CIRCLE
  5
263
330
1F
100
AcDbEntity
  8
LC-001-002-----0
 62
     7
370
    50
100
AcDbCircle
 10
173.788143
 20
372.867897
 30
0.0
 40
4.5
  0
LINE
  5
264
330
1F
100
AcDbEntity
  8
LC-001-002-----0
 62
     7
370
    50
100
AcDbLine
 10
174.288143
 20
375.367897
 30
0.0
 11
173.288143
 21
375.367897
 31
0.0
  0
LINE
  5
265
330
1F
100
AcDbEntity
  8
LC-001-002-----0
 62
     7
370
    50
100
AcDbLine
 10
173.288143
 20
375.367897
 30
0.0
 11
173.288143
 21
373.367897
 31
0.0
  0
LINE
  5
266
330
1F
100
AcDbEntity
  8
LC-001-002-----0
 62
     7
370
    50
100
AcDbLine
 10
173.288143
 20
370.367897
 30
0.0
 11
174.288143
 21
370.367897
 31
0.0
  0
LINE
  5
267
330
1F
100
AcDbEntity
  8
LC-001-002-----0
 62
     7
370
    50
100
AcDbLine
 10
174.288143
 20
370.367897
 30
0.0
 11
174.288143
 21
372.367897
 31
0.0
  0
LINE
  5
268
330
1F
100
AcDbEntity
  8
LC-001-002-----0
 62
     7
370
    50
100
AcDbLine
 10
176.288143
 20
373.367897
 30
0.0
 11
176.288143
 21
372.367897
 31
0.0
  0
LINE
  5
269
330
1F
100
AcDbEntity
  8
LC-001-002-----0
 62
     7
370
    50
100
AcDbLine
 10
176.288143
 20
372.367897
 30
0.0
 11
174.288143
 21
372.367897
 31
0.0
  0
LINE
  5
26A
330
1F
100
AcDbEntity
  8
LC-001-002-----0
 62
     7
370
    50
100
AcDbLine
 10
171.288143
 20
372.367897
 30
0.0
 11
171.288143
 21
373.367897
 31
0.0
  0
LINE
  5
26B
330
1F
100
AcDbEntity
  8
LC-001-002-----0
 62
     7
370
    50
100
AcDbLine
 10
171.288143
 20
373.367897
 30
0.0
 11
173.288143
 21
373.367897
 31
0.0
  0
LINE
  5
26C
330
1F
100
AcDbEntity
  8
LC-001-002-----0
 62
     7
370
    50
100
AcDbLine
 10
174.288143
 20
373.367897
 30
0.0
 11
176.288143
 21
373.367897
 31
0.0
  0
LINE
  5
26D
330
1F
100
AcDbEntity
  8
LC-001-002-----0
 62
     7
370
    50
100
AcDbLine
 10
174.288143
 20
373.367897
 30
0.0
 11
174.288143
 21
375.367897
 31
0.0
  0
LINE
  5
26E
330
1F
100
AcDbEntity
  8
LC-001-002-----0
 62
     7
370
    50
100
AcDbLine
 10
173.288143
 20
372.367897
 30
0.0
 11
173.288143
 21
370.367897
 31
0.0
  0
LINE
  5
26F
330
1F
100
AcDbEntity
  8
LC-001-002-----0
 62
     7
370
    50
100
AcDbLine
 10
173.288143
 20
372.367897
 30
0.0
 11
171.288143
 21
372.367897
 31
0.0
  0
LINE
  5
270
330
1F
100
AcDbEntity
  8
LC-001-002-----0
  6
DASHDOT
 62
     7
370
    25
100
AcDbLine
 10
5.288143
 20
269.176228
 30
0.0
 11
5.288143
 21
388.759566
 31
0.0
  0
DIMENSION
  5
271
330
1F
100
AcDbEntity
  8
LC-004-003-----0
 62
     7
370
    25
100
AcDbDimension
  2
*D16
 10
-133.039894
 20
265.747869
 30
0.0
 11
-163.839894
 21
326.43265
 31
0.0
 70
   160
  1
123
 71
     5
 42
123.011698
 53
90.0
  3
LC-DIM-L-0140-02-02
100
AcDbAlignedDimension
 13
-53.411857
 23
388.759566
 33
0.0
 14
-44.90801
 24
265.747869
 34
0.0
 50
90.0
100
AcDbRotatedDimension
  0
DIMENSION
  5
27E
330
1F
100
AcDbEntity
  8
LC-004-003-----0
 62
     7
370
    25
100
AcDbDimension
  2
*D17
 10
56.288143
 20
220.0
 30
0.0
 11
5.288143
 21
250.8
 31
0.0
 70
   160
  1
%%c102,7
 71
     5
 42
102.0
  3
LC-DIM-L-0140-02-02
100
AcDbAlignedDimension
 13
-45.711857
 23
268.747869
 33
0.0
 14
56.288143
 24
268.747869
 34
0.0
100
AcDbRotatedDimension
  0
ENDSEC
  0
SECTION
  2
OBJECTS
  0
DICTIONARY
  5
C
330
0
100
AcDbDictionary
281
     1
  3
ACAD_GROUP
350
D
  3
ACAD_LAYOUT
350
1A
  3
ACAD_MLINESTYLE
350
17
  3
ACAD_PLOTSETTINGS
350
19
  3
ACAD_PLOTSTYLENAME
350
E
  0
DICTIONARY
  5
D
102
{ACAD_REACTORS
330
C
102
}
330
C
100
AcDbDictionary
281
     1
  3
LCGROUP104
350
28D
  3
LCGROUP1218
350
28E
  3
LCGROUP239
350
290
  3
LCGROUP270
350
292
  3
LCGROUP379
350
28C
  3
LCGROUP429
350
28F
  3
LCGROUP588
350
28B
  3
LCGROUP800
350
291
  0
DICTIONARY
  5
1A
102
{ACAD_REACTORS
330
C
102
}
330
C
100
AcDbDictionary
281
     1
  3
Layout1
350
1E
  3
Layout2
350
26
  3
Model
350
22
  0
DICTIONARY
  5
17
102
{ACAD_REACTORS
330
C
102
}
330
C
100
AcDbDictionary
281
     1
  3
Standard
350
18
  0
DICTIONARY
  5
19
102
{ACAD_REACTORS
330
C
102
}
330
C
100
AcDbDictionary
281
     1
  0
ACDBDICTIONARYWDFLT
  5
E
102
{ACAD_REACTORS
330
C
102
}
330
C
100
AcDbDictionary
281
     1
  3
Normal
350
F
100
AcDbDictionaryWithDefault
340
F
  0
GROUP
  5
28D
102
{ACAD_REACTORS
330
D
102
}
330
D
100
AcDbGroup
300
GRP104
 70
     1
 71
     1
340
31
340
32
340
33
340
34
340
35
340
36
340
37
340
38
340
39
340
3A
340
3B
340
3C
340
3E
340
3F
340
40
340
41
340
42
340
43
340
44
340
45
340
46
340
47
340
48
340
49
340
4A
340
4B
340
4C
340
4D
340
4E
340
7B
340
A8
340
A9
340
AA
340
AB
  0
GROUP
  5
28E
102
{ACAD_REACTORS
330
D
102
}
330
D
100
AcDbGroup
300
GRP1218
 70
     1
 71
     1
340
213
340
214
340
215
340
216
340
217
340
218
340
219
340
21A
340
21B
340
21C
340
21D
340
21E
340
21F
340
220
340
221
340
222
340
223
340
224
340
225
340
226
340
227
340
228
340
229
340
22A
340
22B
340
22C
340
22D
340
22E
340
22F
340
230
340
231
340
232
340
233
340
234
340
235
340
236
340
237
340
238
340
239
340
23A
340
23B
340
23C
340
23D
340
23E
  0
GROUP
  5
290
102
{ACAD_REACTORS
330
D
102
}
330
D
100
AcDbGroup
300
GRP239
 70
     1
 71
     1
340
AC
340
AD
340
AE
340
AF
340
B0
340
B1
340
B2
340
B3
340
B4
340
B5
340
B6
340
B7
340
B8
340
B9
340
BA
340
BB
340
BC
340
BD
340
BE
340
BF
340
C0
340
C1
340
C2
340
C3
340
C4
340
C5
340
C6
340
C7
340
C8
340
C9
340
CA
340
CB
340
CC
340
CD
340
CE
340
CF
340
D0
340
D1
340
D2
340
D3
340
D4
340
D5
340
D6
340
D7
340
D8
340
D9
340
DA
340
DB
340
DC
340
DD
340
DE
340
DF
340
E0
340
E1
340
E2
340
E3
340
E4
340
E5
340
E6
340
E7
340
E8
340
E9
340
EA
340
EB
340
EC
340
ED
340
EE
340
EF
340
F0
340
FE
340
FF
340
10F
  0
GROUP
  5
292
102
{ACAD_REACTORS
330
D
102
}
330
D
100
AcDbGroup
300
GRP270
 70
     1
 71
     1
340
110
340
111
340
112
340
113
340
140
340
141
340
142
340
145
340
147
340
148
  0
GROUP
  5
28C
102
{ACAD_REACTORS
330
D
102
}
330
D
100
AcDbGroup
300
GRP379
 70
     1
 71
     1
340
149
340
14A
340
14B
340
14C
340
14D
340
14E
340
14F
340
150
340
151
340
152
340
153
340
154
340
155
340
156
340
157
340
158
340
159
340
15A
340
15B
340
15C
340
15D
340
15E
340
15F
340
160
340
161
340
162
340
163
340
164
340
165
340
166
340
167
340
168
340
169
340
16A
340
16B
340
16C
340
16D
340
176
340
177
340
178
340
179
340
17A
340
17B
340
17C
340
17D
340
185
340
18D
340
18E
  0
GROUP
  5
28F
102
{ACAD_REACTORS
330
D
102
}
330
D
100
AcDbGroup
300
GRP429
 70
     1
 71
     1
340
18F
340
190
340
191
340
192
340
193
340
194
340
195
340
196
340
197
340
198
340
199
340
19A
340
19B
340
19C
340
19D
340
19E
340
19F
340
1A0
340
1A1
340
1A2
340
1A3
340
1A4
340
1A5
340
1A6
340
1A7
340
1A8
340
1A9
340
1AA
340
1AB
340
1AC
340
1AD
340
1AE
340
1AF
340
1B0
340
1B1
340
1B2
340
1B3
340
1BB
340
1BC
340
1BD
340
1BE
340
1BF
340
1C0
340
1C1
340
1C2
340
1CA
340
1D3
340
1D4
  0
GROUP
  5
28B
102
{ACAD_REACTORS
330
D
102
}
330
D
100
AcDbGroup
300
GRP588
 70
     1
 71
     1
340
1EB
340
1EC
340
1ED
340
1EE
340
1EF
340
1F0
340
1F1
340
1F2
340
1F4
340
1F5
340
1F6
340
1F7
340
1F8
340
1F9
340
1FA
340
1FB
340
1FC
340
1FD
340
1FE
340
1FF
340
200
340
201
340
202
340
203
  0
GROUP
  5
291
102
{ACAD_REACTORS
330
D
102
}
330
D
100
AcDbGroup
300
GRP800
 70
     1
 71
     1
340
204
340
205
340
206
340
207
340
208
340
209
340
20A
340
20B
340
20C
340
20D
340
20E
340
20F
340
210
  0
LAYOUT
  5
1E
102
{ACAD_REACTORS
330
1A
102
}
330
1A
100
AcDbPlotSettings
  1

  2

  4

  6

 40
0.0
 41
0.0
 42
0.0
 43
0.0
 44
0.0
 45
0.0
 46
0.0
 47
0.0
 48
0.0
 49
0.0
140
0.0
141
0.0
142
1.0
143
1.0
 70
   688
 72
     0
 73
     0
 74
     5
  7

 75
    16
147
1.0
148
0.0
149
0.0
100
AcDbLayout
  1
Layout1
 70
     1
 71
     1
 10
-358.167028
 20
-25.21535
 11
481.832972
 21
568.78465
 12
0.0
 22
0.0
 32
0.0
 14
-358.167028
 24
-25.21535
 34
0.0
 15
481.832972
 25
568.78465
 35
0.0
146
0.0
 13
0.0
 23
0.0
 33
0.0
 16
1.0
 26
0.0
 36
0.0
 17
0.0
 27
1.0
 37
0.0
 76
     0
330
1B
  0
LAYOUT
  5
26
102
{ACAD_REACTORS
330
1A
102
}
330
1A
100
AcDbPlotSettings
  1

  2

  4

  6

 40
0.0
 41
0.0
 42
0.0
 43
0.0
 44
0.0
 45
0.0
 46
0.0
 47
0.0
 48
0.0
 49
0.0
140
0.0
141
0.0
142
1.0
143
1.0
 70
   688
 72
     0
 73
     0
 74
     5
  7

 75
    16
147
1.0
148
0.0
149
0.0
100
AcDbLayout
  1
Layout2
 70
     1
 71
     2
 10
0.0
 20
0.0
 11
0.0
 21
0.0
 12
0.0
 22
0.0
 32
0.0
 14
0.0
 24
0.0
 34
0.0
 15
0.0
 25
0.0
 35
0.0
146
0.0
 13
0.0
 23
0.0
 33
0.0
 16
1.0
 26
0.0
 36
0.0
 17
0.0
 27
1.0
 37
0.0
 76
     0
330
23
  0
LAYOUT
  5
22
102
{ACAD_REACTORS
330
1A
102
}
330
1A
100
AcDbPlotSettings
  1

  2

  4

  6

 40
0.0
 41
0.0
 42
0.0
 43
0.0
 44
0.0
 45
0.0
 46
0.0
 47
0.0
 48
0.0
 49
0.0
140
0.0
141
0.0
142
1.0
143
1.0
 70
  1776
 72
     0
 73
     0
 74
     0
  7

 75
     0
147
1.0
148
0.0
149
0.0
100
AcDbLayout
  1
Model
 70
     1
 71
     0
 10
-358.167028
 20
-25.21535
 11
481.832972
 21
568.78465
 12
-109.159416
 22
89.664
 32
0.0
 14
-358.167028
 24
-25.21535
 34
0.0
 15
481.832972
 25
568.78465
 35
0.0
146
0.0
 13
0.0
 23
0.0
 33
0.0
 16
1.0
 26
0.0
 36
0.0
 17
0.0
 27
1.0
 37
0.0
 76
     0
330
1F
  0
MLINESTYLE
  5
18
102
{ACAD_REACTORS
330
17
102
}
330
17
100
AcDbMlineStyle
  2
Standard
 70
     0
  3

 62
   256
 51
90.0
 52
90.0
 71
     2
 49
0.5
 62
   256
  6
BYLAYER
 49
-0.5
 62
   256
  6
BYLAYER
  0
ACDBPLACEHOLDER
  5
F
102
{ACAD_REACTORS
330
E
102
}
330
E
  0
ENDSEC
  0
EOF
