  0
SECTION
  2
HEADER
  9
$ACADVER
  1
AC1009
  9
$INSBASE
 10
0.0
 20
0.0
 30
0.0
  9
$EXTMIN
 10
0.0
 20
0.0
 30
0.0
  9
$EXTMAX
 10
840.0
 20
594.0
 30
0.0
  9
$LIMMIN
 10
0.0
 20
0.0
  9
$LIMMAX
 10
840.0
 20
594.0
  9
$ORTHOMODE
 70
     0
  9
$REGENMODE
 70
     1
  9
$FILLMODE
 70
     1
  9
$QTEXTMODE
 70
     0
  9
$MIRRTEXT
 70
     1
  9
$DRAGMODE
 70
     2
  9
$LTSCALE
 40
2.0
  9
$OSMODE
 70
     0
  9
$ATTMODE
 70
     1
  9
$TEXTSIZE
 40
0.2
  9
$TRACEWID
 40
0.05
  9
$TEXTSTYLE
  7
STANDARD
  9
$CLAYER
  8
0
  9
$CELTYPE
  6
BYLAYER
  9
$CECOLOR
 62
     7
  9
$DIMSCALE
 40
2.0
  9
$DIMASZ
 40
3.5
  9
$DIMEXO
 40
0.0625
  9
$DIMDLI
 40
0.38
  9
$DIMRND
 40
0.0
  9
$DIMDLE
 40
0.0
  9
$DIMEXE
 40
0.18
  9
$DIMTP
 40
0.0
  9
$DIMTM
 40
0.0
  9
$DIMTXT
 40
3.5
  9
$DIMCEN
 40
0.09
  9
$DIMTSZ
 40
0.0
  9
$DIMTOL
 70
     0
  9
$DIMLIM
 70
     0
  9
$DIMTIH
 70
     1
  9
$DIMTOH
 70
     1
  9
$DIMSE1
 70
     0
  9
$DIMSE2
 70
     0
  9
$DIMTAD
 70
     1
  9
$DIMZIN
 70
     0
  9
$DIMBLK
  1

  9
$DIMASO
 70
     1
  9
$DIMSHO
 70
     1
  9
$DIMPOST
  1

  9
$DIMAPOST
  1

  9
$DIMALT
 70
     0
  9
$DIMALTD
 70
     2
  9
$DIMALTF
 40
25.4
  9
$DIMLFAC
 40
1.0
  9
$DIMTOFL
 70
     0
  9
$DIMTVP
 40
0.0
  9
$DIMTIX
 70
     0
  9
$DIMSOXD
 70
     0
  9
$DIMSAH
 70
     0
  9
$DIMBLK1
  1

  9
$DIMBLK2
  1

  9
$DIMSTYLE
  2
STANDARD
  9
$DIMCLRD
 70
     0
  9
$DIMCLRE
 70
     0
  9
$DIMCLRT
 70
     0
  9
$DIMTFAC
 40
1.0
  9
$DIMGAP
 40
0.09
  9
$LUNITS
 70
     2
  9
$LUPREC
 70
     2
  9
$AXISMODE
 70
     0
  9
$AXISUNIT
 10
0.0
 20
0.0
  9
$SKETCHINC
 40
0.1
  9
$FILLETRAD
 40
0.0
  9
$AUNITS
 70
     0
  9
$AUPREC
 70
     0
  9
$MENU
  1
acad
  9
$ELEVATION
 40
0.0
  9
$PELEVATION
 40
0.0
  9
$THICKNESS
 40
0.0
  9
$LIMCHECK
 70
     0
  9
$BLIPMODE
 70
     1
  9
$CHAMFERA
 40
0.0
  9
$CHAMFERB
 40
0.0
  9
$SKPOLY
 70
     0
  9
$TDCREATE
 40
0.000000000
  9
$TDUPDATE
 40
0.000000000
  9
$TDINDWG
 40
0.0000000000
  9
$TDUSRTIMER
 40
0.0000000000
  9
$USRTIMER
 70
     1
  9
$ANGBASE
 50
0.0
  9
$ANGDIR
 70
     0
  9
$PDMODE
 70
     0
  9
$PDSIZE
 40
0.0
  9
$PLINEWID
 40
0.0
  9
$COORDS
 70
     0
  9
$SPLFRAME
 70
     0
  9
$SPLINETYPE
 70
     6
  9
$SPLINESEGS
 70
     8
  9
$ATTDIA
 70
     0
  9
$ATTREQ
 70
     1
  9
$HANDLING
 70
     1
  9
$HANDSEED
  5
403
  9
$SURFTAB1
 70
     6
  9
$SURFTAB2
 70
     6
  9
$SURFTYPE
 70
     6
  9
$SURFU
 70
     6
  9
$SURFV
 70
     6
  9
$UCSNAME
  2

  9
$UCSORG
 10
0.0
 20
0.0
 30
0.0
  9
$UCSXDIR
 10
1.0
 20
0.0
 30
0.0
  9
$UCSYDIR
 10
0.0
 20
1.0
 30
0.0
  9
$PUCSNAME
  2

  9
$PUCSORG
 10
0.0
 20
0.0
 30
0.0
  9
$PUCSXDIR
 10
1.0
 20
0.0
 30
0.0
  9
$PUCSYDIR
 10
0.0
 20
1.0
 30
0.0
  9
$USERI1
 70
     0
  9
$USERI2
 70
     0
  9
$USERI3
 70
     0
  9
$USERI4
 70
     0
  9
$USERI5
 70
     0
  9
$USERR1
 40
0.0
  9
$USERR2
 40
0.0
  9
$USERR3
 40
0.0
  9
$USERR4
 40
0.0
  9
$USERR5
 40
0.0
  9
$WORLDVIEW
 70
     1
  9
$SHADEDGE
 70
     3
  9
$SHADEDIF
 70
    70
  9
$TILEMODE
 70
     1
  9
$MAXACTVP
 70
    16
  9
$PINSBASE
 10
0.0
 20
0.0
 30
0.0
  9
$PLIMCHECK
 70
     0
  9
$PEXTMIN
 10
1.000000E+20
 20
1.000000E+20
 30
1.000000E+20
  9
$PEXTMAX
 10
-1.000000E+20
 20
-1.000000E+20
 30
-1.000000E+20
  9
$PLIMMIN
 10
0.0
 20
0.0
  9
$PLIMMAX
 10
840.0
 20
594.0
  9
$UNITMODE
 70
     0
  9
$VISRETAIN
 70
     0
  9
$PLINEGEN
 70
     1
  9
$PSLTSCALE
 70
     0
  9
$TREEDEPTH
 70
  3020
  9
$DWGCODEPAGE
  3
dos850
  0
ENDSEC
  0
SECTION
  2
TABLES
  0
TABLE
  2
VPORT
 70
     1
  0
VPORT
  2
*ACTIVE
 70
     0
 10
0.0
 20
0.0
 11
1.0
 21
1.0
 12
420.0
 22
297.0
 13
0.0
 23
0.0
 14
1.0
 24
1.0
 15
0.0
 25
0.0
 16
0.0
 26
0.0
 36
1.0
 17
0.0
 27
0.0
 37
0.0
 40
594.0
 41
1.604229
 42
50.0
 43
0.0
 44
0.0
 50
0.0
 51
0.0
 71
     0
 72
   100
 73
     1
 74
     1
 75
     0
 76
     0
 77
     0
 78
     0
  0
ENDTAB
  0
TABLE
  2
LTYPE
 70
     4
  0
LTYPE
  2
CONTINUOUS
 70
    64
  3
Solid line
 72
    65
 73
     0
 40
0.0
  0
LTYPE
  2
DASHED
 70
    64
  3
__ __ __ __ __
 72
    65
 73
     2
 40
6.25
 49
5.0
 49
-1.25
  0
LTYPE
  2
DASHDOT
 70
    64
  3
__ . __ . __ . __ . __
 72
    65
 73
     4
 40
7.5
 49
5.0
 49
-1.25
 49
0.0
 49
-1.25
  0
LTYPE
  2
CENTER
 70
    64
  3
__ . __ . __ . __ . __
 72
    65
 73
     4
 40
7.5
 49
5.0
 49
-1.25
 49
0.0
 49
-1.25
  0
ENDTAB
  0
TABLE
  2
LAYER
 70
    13
  0
LAYER
  2
0
 70
     0
 62
     7
  6
CONTINUOUS
  0
LAYER
  2
LC-INFO-1-2-MM-A3-0
 70
     1
 62
    -1
  6
CONTINUOUS
  0
LAYER
  2
LC-005-003-MTH-0
 70
     0
 62
     2
  6
CONTINUOUS
  0
LAYER
  2
LC-006-003-MTG-0
 70
     0
 62
     2
  6
CONTINUOUS
  0
LAYER
  2
LC-004-003-----0
 70
     0
 62
     2
  6
CONTINUOUS
  0
LAYER
  2
LC-003-005-----0
 70
     0
 62
     2
  6
CONTINUOUS
  0
LAYER
  2
LC-001-000-----0
 70
     0
 62
     7
  6
CONTINUOUS
  0
LAYER
  2
LC-010-000-----0
 70
     0
 62
     7
  6
CONTINUOUS
  0
LAYER
  2
LC-002-002-----0
 70
     0
 62
     1
  6
CONTINUOUS
  0
LAYER
  2
LC-007-002-RND-0
 70
     0
 62
     1
  6
CONTINUOUS
  0
LAYER
  2
LC-008-006-MLN-0
 70
     0
 62
     2
  6
CENTER
  0
LAYER
  2
LC-009-004-----0
 70
     0
 62
     1
  6
CONTINUOUS
  0
LAYER
  2
LC-000
 70
     0
 62
     7
  6
CONTINUOUS
  0
ENDTAB
  0
TABLE
  2
STYLE
 70
     4
  0
STYLE
  2
STANDARD
 70
     0
 40
0.0
 41
1.0
 50
0.0
 71
     0
 42
0.0
  3
txt
  4

  0
STYLE
  2
LC-STANDARD
 70
    64
 40
0.0
 41
1.0
 50
0.0
 71
     0
 42
3.5
  3
MONOTXT
  4

  0
STYLE
  2
LC-TXTSTYLE-150-400-0-0-D2
 70
    64
 40
0.0
 41
1.0
 50
15.0
 71
     0
 42
3.5
  3
MONOTXT
  4

  0
STYLE
  2
LC-TXTSTYLE-150-400-0-0-D3
 70
    64
 40
0.0
 41
1.0
 50
15.0
 71
     0
 42
3.5
  3
LC-STANDARD
  4

  0
ENDTAB
  0
TABLE
  2
VIEW
 70
     0
  0
ENDTAB
  0
TABLE
  2
UCS
 70
     0
  0
ENDTAB
  0
TABLE
  2
APPID
 70
     1
  0
APPID
  2
ACAD
 70
     0
  0
ENDTAB
  0
TABLE
  2
DIMSTYLE
 70
     3
  0
DIMSTYLE
  2
STANDARD
 70
     0
  3

  4

  5

  6

  7

 40
1.0
 41
0.18
 42
0.0625
 43
0.38
 44
0.18
 45
0.0
 46
0.0
 47
0.0
 48
0.0
 71
     0
 72
     0
 73
     1
 74
     1
 75
     0
 76
     0
 77
     0
 78
     0
140
0.18
141
0.09
142
0.0
143
25.4
144
1.0
145
0.0
146
1.0
147
0.09
170
     0
171
     2
172
     0
173
     0
174
     0
175
     0
176
     0
177
     0
178
     0
  0
DIMSTYLE
  2
LC-STANDARD
 70
     0
  3

  4

  5

  6

  7

 40
1.0
 41
3.5
 42
0.0
 43
7.5
 44
1.8
 45
0.0
 46
0.0
 47
0.0
 48
0.0
 71
     0
 72
     0
 73
     0
 74
     0
 75
     0
 76
     0
 77
     1
 78
     8
140
3.5
141
0.0
142
0.0
143
25.4
144
1.0
145
0.0
146
0.71
147
1.5
170
     0
171
     2
172
     1
173
     0
174
     0
175
     0
176
     0
177
     0
178
     3
  0
DIMSTYLE
  2
LC-DIM-L-0090-02-02
 70
     0
  3

  4

  5

  6

  7

 40
2.0
 41
3.5
 42
0.0
 43
7.5
 44
1.8
 45
0.0
 46
0.0
 47
0.0
 48
0.0
 71
     0
 72
     0
 73
     0
 74
     0
 75
     0
 76
     0
 77
     1
 78
     8
140
9.0
141
0.0
142
0.0
143
25.4
144
1.0
145
0.0
146
0.71
147
1.5
170
     0
171
     2
172
     0
173
     0
174
     0
175
     0
176
     2
177
     2
178
     6
  0
ENDTAB
  0
ENDSEC
  0
SECTION
  2
BLOCKS
  0
BLOCK
  8
0
  5
23
  2
BLK1
 70
    64
 10
0.0
 20
0.0
 30
0.0
  3
BLK1
  0
ENDBLK
  8
0
  5
24
  0
BLOCK
  8
0
  5
26
  2
*D1
 70
    65
 10
0.0
 20
0.0
 30
0.0
  3
*D1
  0
LINE
  8
LC-005-003-MTH-0
  6
CONTINUOUS
  5
28
 10
339.280529
 20
121.152737
 30
0.0
 11
339.280529
 21
69.2
 31
0.0
  0
LINE
  8
LC-005-003-MTH-0
  6
CONTINUOUS
  5
29
 10
449.280529
 20
121.152737
 30
0.0
 11
449.280529
 21
69.2
 31
0.0
  0
LINE
  8
LC-006-003-MTG-0
  6
CONTINUOUS
  5
2B
 10
339.280529
 20
80.0
 30
0.0
 11
449.280529
 21
80.0
 31
0.0
  0
LINE
  8
LC-004-003-----0
  6
CONTINUOUS
  5
2D
 10
357.126536
 20
82.349471
 30
0.0
 11
339.280529
 21
80.0
 31
0.0
  0
LINE
  8
LC-004-003-----0
  6
CONTINUOUS
  5
2E
 10
339.280529
 20
80.0
 30
0.0
 11
357.126536
 21
77.650529
 31
0.0
  0
LINE
  8
LC-004-003-----0
  6
CONTINUOUS
  5
2F
 10
357.126536
 20
77.650529
 30
0.0
 11
357.126536
 21
82.349471
 31
0.0
  0
LINE
  8
LC-004-003-----0
  6
CONTINUOUS
  5
30
 10
357.166574
 20
81.738609
 30
0.0
 11
343.960529
 21
80.0
 31
0.0
  0
LINE
  8
LC-004-003-----0
  6
CONTINUOUS
  5
31
 10
343.960529
 20
80.0
 30
0.0
 11
357.166574
 21
78.261391
 31
0.0
  0
LINE
  8
LC-004-003-----0
  6
CONTINUOUS
  5
32
 10
357.206612
 20
81.127746
 30
0.0
 11
348.640529
 21
80.0
 31
0.0
  0
LINE
  8
LC-004-003-----0
  6
CONTINUOUS
  5
33
 10
348.640529
 20
80.0
 30
0.0
 11
357.206612
 21
78.872254
 31
0.0
  0
LINE
  8
LC-004-003-----0
  6
CONTINUOUS
  5
34
 10
357.24665
 20
80.516884
 30
0.0
 11
353.320529
 21
80.0
 31
0.0
  0
LINE
  8
LC-004-003-----0
  6
CONTINUOUS
  5
35
 10
353.320529
 20
80.0
 30
0.0
 11
357.24665
 21
79.483116
 31
0.0
  0
LINE
  8
LC-004-003-----0
  6
CONTINUOUS
  5
36
 10
431.434521
 20
77.650529
 30
0.0
 11
449.280529
 21
80.0
 31
0.0
  0
LINE
  8
LC-004-003-----0
  6
CONTINUOUS
  5
37
 10
449.280529
 20
80.0
 30
0.0
 11
431.434521
 21
82.349471
 31
0.0
  0
LINE
  8
LC-004-003-----0
  6
CONTINUOUS
  5
38
 10
431.434521
 20
82.349471
 30
0.0
 11
431.434521
 21
77.650529
 31
0.0
  0
LINE
  8
LC-004-003-----0
  6
CONTINUOUS
  5
39
 10
431.394483
 20
78.261391
 30
0.0
 11
444.600529
 21
80.0
 31
0.0
  0
LINE
  8
LC-004-003-----0
  6
CONTINUOUS
  5
3A
 10
444.600529
 20
80.0
 30
0.0
 11
431.394483
 21
81.738609
 31
0.0
  0
LINE
  8
LC-004-003-----0
  6
CONTINUOUS
  5
3B
 10
431.354445
 20
78.872254
 30
0.0
 11
439.920529
 21
80.0
 31
0.0
  0
LINE
  8
LC-004-003-----0
  6
CONTINUOUS
  5
3C
 10
439.920529
 20
80.0
 30
0.0
 11
431.354445
 21
81.127746
 31
0.0
  0
LINE
  8
LC-004-003-----0
  6
CONTINUOUS
  5
3D
 10
431.314407
 20
79.483116
 30
0.0
 11
435.240529
 21
80.0
 31
0.0
  0
LINE
  8
LC-004-003-----0
  6
CONTINUOUS
  5
3E
 10
435.240529
 20
80.0
 30
0.0
 11
431.314407
 21
80.516884
 31
0.0
  0
TEXT
  8
LC-004-003-----0
  6
CONTINUOUS
 62
     6
  5
40
 10
363.400184
 20
90.431999
 30
0.0
 40
18.0
  1
DN100
 41
0.9
 51
15.0
  7
LC-TXTSTYLE-150-400-0-0-D0
 72
     1
 11
397.075774
 21
90.431999
 31
0.0
  0
ENDBLK
  8
0
  5
41
  0
BLOCK
  8
0
  5
43
  2
*D2
 70
    65
 10
0.0
 20
0.0
 30
0.0
  3
*D2
  0
LINE
  8
LC-005-003-MTH-0
  6
CONTINUOUS
  5
44
 10
448.074757
 20
116.652737
 30
0.0
 11
530.8
 21
116.652737
 31
0.0
  0
LINE
  8
LC-005-003-MTH-0
  6
CONTINUOUS
  5
45
 10
470.28105
 20
316.652737
 30
0.0
 11
530.8
 21
316.652737
 31
0.0
  0
LINE
  8
LC-006-003-MTG-0
  6
CONTINUOUS
  5
46
 10
520.0
 20
116.652737
 30
0.0
 11
520.0
 21
316.652737
 31
0.0
  0
LINE
  8
LC-004-003-----0
  6
CONTINUOUS
  5
47
 10
517.650529
 20
134.498745
 30
0.0
 11
520.0
 21
116.652737
 31
0.0
  0
LINE
  8
LC-004-003-----0
  6
CONTINUOUS
  5
48
 10
520.0
 20
116.652737
 30
0.0
 11
522.349471
 21
134.498745
 31
0.0
  0
LINE
  8
LC-004-003-----0
  6
CONTINUOUS
  5
49
 10
522.349471
 20
134.498745
 30
0.0
 11
517.650529
 21
134.498745
 31
0.0
  0
LINE
  8
LC-004-003-----0
  6
CONTINUOUS
  5
4A
 10
518.261391
 20
134.538783
 30
0.0
 11
520.0
 21
121.332737
 31
0.0
  0
LINE
  8
LC-004-003-----0
  6
CONTINUOUS
  5
4B
 10
520.0
 20
121.332737
 30
0.0
 11
521.738609
 21
134.538783
 31
0.0
  0
LINE
  8
LC-004-003-----0
  6
CONTINUOUS
  5
4C
 10
518.872254
 20
134.578821
 30
0.0
 11
520.0
 21
126.012737
 31
0.0
  0
LINE
  8
LC-004-003-----0
  6
CONTINUOUS
  5
4D
 10
520.0
 20
126.012737
 30
0.0
 11
521.127746
 21
134.578821
 31
0.0
  0
LINE
  8
LC-004-003-----0
  6
CONTINUOUS
  5
4E
 10
519.483116
 20
134.618859
 30
0.0
 11
520.0
 21
130.692737
 31
0.0
  0
LINE
  8
LC-004-003-----0
  6
CONTINUOUS
  5
4F
 10
520.0
 20
130.692737
 30
0.0
 11
520.516884
 21
134.618859
 31
0.0
  0
LINE
  8
LC-004-003-----0
  6
CONTINUOUS
  5
50
 10
522.349471
 20
298.80673
 30
0.0
 11
520.0
 21
316.652737
 31
0.0
  0
LINE
  8
LC-004-003-----0
  6
CONTINUOUS
  5
51
 10
520.0
 20
316.652737
 30
0.0
 11
517.650529
 21
298.80673
 31
0.0
  0
LINE
  8
LC-004-003-----0
  6
CONTINUOUS
  5
52
 10
517.650529
 20
298.80673
 30
0.0
 11
522.349471
 21
298.80673
 31
0.0
  0
LINE
  8
LC-004-003-----0
  6
CONTINUOUS
  5
53
 10
521.738609
 20
298.766691
 30
0.0
 11
520.0
 21
311.972737
 31
0.0
  0
LINE
  8
LC-004-003-----0
  6
CONTINUOUS
  5
54
 10
520.0
 20
311.972737
 30
0.0
 11
518.261391
 21
298.766691
 31
0.0
  0
LINE
  8
LC-004-003-----0
  6
CONTINUOUS
  5
55
 10
521.127746
 20
298.726653
 30
0.0
 11
520.0
 21
307.292737
 31
0.0
  0
LINE
  8
LC-004-003-----0
  6
CONTINUOUS
  5
56
 10
520.0
 20
307.292737
 30
0.0
 11
518.872254
 21
298.726653
 31
0.0
  0
LINE
  8
LC-004-003-----0
  6
CONTINUOUS
  5
57
 10
520.516884
 20
298.686615
 30
0.0
 11
520.0
 21
302.612737
 31
0.0
  0
LINE
  8
LC-004-003-----0
  6
CONTINUOUS
  5
58
 10
520.0
 20
302.612737
 30
0.0
 11
519.483116
 21
298.686615
 31
0.0
  0
TEXT
  8
LC-004-003-----0
  6
CONTINUOUS
 62
     6
  5
59
 10
509.568001
 20
200.314124
 30
0.0
 40
18.0
  1
200
 50
90.0
 51
15.0
  7
LC-TXTSTYLE-150-400-0-0-D0
 72
     1
 11
509.568001
 21
219.447983
 31
0.0
  0
ENDBLK
  8
0
  5
5A
  0
BLOCK
  8
0
  5
5C
  2
*D3
 70
    65
 10
0.0
 20
0.0
 30
0.0
  3
*D3
  0
LINE
  8
LC-005-003-MTH-0
  6
CONTINUOUS
  5
5D
 10
448.074757
 20
116.652737
 30
0.0
 11
570.8
 21
116.652737
 31
0.0
  0
LINE
  8
LC-005-003-MTH-0
  6
CONTINUOUS
  5
5E
 10
499.906179
 20
332.772704
 30
0.0
 11
544.607614
 21
332.772704
 31
0.0
  0
LINE
  8
LC-005-003-MTH-0
  6
CONTINUOUS
  5
5F
 10
550.607614
 20
332.772704
 30
0.0
 11
570.8
 21
332.772704
 31
0.0
  0
LINE
  8
LC-006-003-MTG-0
  6
CONTINUOUS
  5
60
 10
560.0
 20
116.652737
 30
0.0
 11
560.0
 21
332.772704
 31
0.0
  0
LINE
  8
LC-004-003-----0
  6
CONTINUOUS
  5
61
 10
557.650529
 20
134.498745
 30
0.0
 11
560.0
 21
116.652737
 31
0.0
  0
LINE
  8
LC-004-003-----0
  6
CONTINUOUS
  5
62
 10
560.0
 20
116.652737
 30
0.0
 11
562.349471
 21
134.498745
 31
0.0
  0
LINE
  8
LC-004-003-----0
  6
CONTINUOUS
  5
63
 10
562.349471
 20
134.498745
 30
0.0
 11
557.650529
 21
134.498745
 31
0.0
  0
LINE
  8
LC-004-003-----0
  6
CONTINUOUS
  5
64
 10
558.261391
 20
134.538783
 30
0.0
 11
560.0
 21
121.332737
 31
0.0
  0
LINE
  8
LC-004-003-----0
  6
CONTINUOUS
  5
65
 10
560.0
 20
121.332737
 30
0.0
 11
561.738609
 21
134.538783
 31
0.0
  0
LINE
  8
LC-004-003-----0
  6
CONTINUOUS
  5
66
 10
558.872254
 20
134.578821
 30
0.0
 11
560.0
 21
126.012737
 31
0.0
  0
LINE
  8
LC-004-003-----0
  6
CONTINUOUS
  5
67
 10
560.0
 20
126.012737
 30
0.0
 11
561.127746
 21
134.578821
 31
0.0
  0
LINE
  8
LC-004-003-----0
  6
CONTINUOUS
  5
68
 10
559.483116
 20
134.618859
 30
0.0
 11
560.0
 21
130.692737
 31
0.0
  0
LINE
  8
LC-004-003-----0
  6
CONTINUOUS
  5
69
 10
560.0
 20
130.692737
 30
0.0
 11
560.516884
 21
134.618859
 31
0.0
  0
LINE
  8
LC-004-003-----0
  6
CONTINUOUS
  5
6A
 10
562.349471
 20
314.926696
 30
0.0
 11
560.0
 21
332.772704
 31
0.0
  0
LINE
  8
LC-004-003-----0
  6
CONTINUOUS
  5
6B
 10
560.0
 20
332.772704
 30
0.0
 11
557.650529
 21
314.926696
 31
0.0
  0
LINE
  8
LC-004-003-----0
  6
CONTINUOUS
  5
6C
 10
557.650529
 20
314.926696
 30
0.0
 11
562.349471
 21
314.926696
 31
0.0
  0
LINE
  8
LC-004-003-----0
  6
CONTINUOUS
  5
6D
 10
561.738609
 20
314.886658
 30
0.0
 11
560.0
 21
328.092704
 31
0.0
  0
LINE
  8
LC-004-003-----0
  6
CONTINUOUS
  5
6E
 10
560.0
 20
328.092704
 30
0.0
 11
558.261391
 21
314.886658
 31
0.0
  0
LINE
  8
LC-004-003-----0
  6
CONTINUOUS
  5
6F
 10
561.127746
 20
314.84662
 30
0.0
 11
560.0
 21
323.412704
 31
0.0
  0
LINE
  8
LC-004-003-----0
  6
CONTINUOUS
  5
70
 10
560.0
 20
323.412704
 30
0.0
 11
558.872254
 21
314.84662
 31
0.0
  0
LINE
  8
LC-004-003-----0
  6
CONTINUOUS
  5
71
 10
560.516884
 20
314.806582
 30
0.0
 11
560.0
 21
318.732704
 31
0.0
  0
LINE
  8
LC-004-003-----0
  6
CONTINUOUS
  5
72
 10
560.0
 20
318.732704
 30
0.0
 11
559.483116
 21
314.806582
 31
0.0
  0
TEXT
  8
LC-004-003-----0
  6
CONTINUOUS
 62
     6
  5
73
 10
549.568001
 20
208.374108
 30
0.0
 40
18.0
  1
216
 50
90.0
 51
15.0
  7
LC-TXTSTYLE-150-400-0-0-D0
 72
     1
 11
549.568001
 21
227.507966
 31
0.0
  0
ENDBLK
  8
0
  5
74
  0
BLOCK
  8
0
  5
76
  2
BLK2
 70
    64
 10
0.0
 20
0.0
 30
0.0
  3
BLK2
  0
ENDBLK
  8
0
  5
77
  0
BLOCK
  8
0
  5
79
  2
BLK3
 70
    64
 10
0.0
 20
0.0
 30
0.0
  3
BLK3
  0
ENDBLK
  8
0
  5
7A
  0
BLOCK
  8
0
  5
7C
  2
*D6
 70
    65
 10
0.0
 20
0.0
 30
0.0
  3
*D6
  0
LINE
  8
LC-005-003-MTH-0
  6
CONTINUOUS
  5
7D
 10
279.280529
 20
334.61046
 30
0.0
 11
279.280529
 21
442.8
 31
0.0
  0
LINE
  8
LC-005-003-MTH-0
  6
CONTINUOUS
  5
7E
 10
509.280529
 20
334.61046
 30
0.0
 11
509.280529
 21
442.8
 31
0.0
  0
LINE
  8
LC-006-003-MTG-0
  6
CONTINUOUS
  5
7F
 10
279.280529
 20
432.0
 30
0.0
 11
509.280529
 21
432.0
 31
0.0
  0
LINE
  8
LC-004-003-----0
  6
CONTINUOUS
  5
80
 10
297.126536
 20
434.349471
 30
0.0
 11
279.280529
 21
432.0
 31
0.0
  0
LINE
  8
LC-004-003-----0
  6
CONTINUOUS
  5
81
 10
279.280529
 20
432.0
 30
0.0
 11
297.126536
 21
429.650529
 31
0.0
  0
LINE
  8
LC-004-003-----0
  6
CONTINUOUS
  5
82
 10
297.126536
 20
429.650529
 30
0.0
 11
297.126536
 21
434.349471
 31
0.0
  0
LINE
  8
LC-004-003-----0
  6
CONTINUOUS
  5
83
 10
297.166574
 20
433.738609
 30
0.0
 11
283.960529
 21
432.0
 31
0.0
  0
LINE
  8
LC-004-003-----0
  6
CONTINUOUS
  5
84
 10
283.960529
 20
432.0
 30
0.0
 11
297.166574
 21
430.261391
 31
0.0
  0
LINE
  8
LC-004-003-----0
  6
CONTINUOUS
  5
85
 10
297.206612
 20
433.127746
 30
0.0
 11
288.640529
 21
432.0
 31
0.0
  0
LINE
  8
LC-004-003-----0
  6
CONTINUOUS
  5
86
 10
288.640529
 20
432.0
 30
0.0
 11
297.206612
 21
430.872254
 31
0.0
  0
LINE
  8
LC-004-003-----0
  6
CONTINUOUS
  5
87
 10
297.24665
 20
432.516884
 30
0.0
 11
293.320529
 21
432.0
 31
0.0
  0
LINE
  8
LC-004-003-----0
  6
CONTINUOUS
  5
88
 10
293.320529
 20
432.0
 30
0.0
 11
297.24665
 21
431.483116
 31
0.0
  0
LINE
  8
LC-004-003-----0
  6
CONTINUOUS
  5
89
 10
491.434521
 20
429.650529
 30
0.0
 11
509.280529
 21
432.0
 31
0.0
  0
LINE
  8
LC-004-003-----0
  6
CONTINUOUS
  5
8A
 10
509.280529
 20
432.0
 30
0.0
 11
491.434521
 21
434.349471
 31
0.0
  0
LINE
  8
LC-004-003-----0
  6
CONTINUOUS
  5
8B
 10
491.434521
 20
434.349471
 30
0.0
 11
491.434521
 21
429.650529
 31
0.0
  0
LINE
  8
LC-004-003-----0
  6
CONTINUOUS
  5
8C
 10
491.394483
 20
430.261391
 30
0.0
 11
504.600529
 21
432.0
 31
0.0
  0
LINE
  8
LC-004-003-----0
  6
CONTINUOUS
  5
8D
 10
504.600529
 20
432.0
 30
0.0
 11
491.394483
 21
433.738609
 31
0.0
  0
LINE
  8
LC-004-003-----0
  6
CONTINUOUS
  5
8E
 10
491.354445
 20
430.872254
 30
0.0
 11
499.920529
 21
432.0
 31
0.0
  0
LINE
  8
LC-004-003-----0
  6
CONTINUOUS
  5
8F
 10
499.920529
 20
432.0
 30
0.0
 11
491.354445
 21
433.127746
 31
0.0
  0
LINE
  8
LC-004-003-----0
  6
CONTINUOUS
  5
90
 10
491.314407
 20
431.483116
 30
0.0
 11
495.240529
 21
432.0
 31
0.0
  0
LINE
  8
LC-004-003-----0
  6
CONTINUOUS
  5
91
 10
495.240529
 20
432.0
 30
0.0
 11
491.314407
 21
432.516884
 31
0.0
  0
TEXT
  8
LC-004-003-----0
  6
CONTINUOUS
 62
     6
  5
92
 10
369.651451
 20
442.431999
 30
0.0
 40
18.0
  1
Ø230
 51
15.0
  7
LC-TXTSTYLE-150-400-0-0-D0
 72
     1
 11
394.142789
 21
442.431999
 31
0.0
  0
ENDBLK
  8
0
  5
93
  0
BLOCK
  8
0
  5
95
  2
*X7
 70
    65
 10
451.280522
 20
331.451759
 30
0.0
  3
*X7
  0
LINE
  8
LC-003-005-----0
  6
CONTINUOUS
  5
97
 10
496.847559
 20
335.627213
 30
0.0
 11
497.794958
 21
336.574612
 31
0.0
  0
LINE
  8
LC-003-005-----0
  6
CONTINUOUS
  5
98
 10
493.255627
 20
334.863708
 30
0.0
 11
494.164432
 21
335.772513
 31
0.0
  0
LINE
  8
LC-003-005-----0
  6
CONTINUOUS
  5
99
 10
489.663695
 20
334.100203
 30
0.0
 11
490.572503
 21
335.009011
 31
0.0
  0
LINE
  8
LC-003-005-----0
  6
CONTINUOUS
  5
9A
 10
486.071763
 20
333.336698
 30
0.0
 11
486.980574
 21
334.245509
 31
0.0
  0
LINE
  8
LC-003-005-----0
  6
CONTINUOUS
  5
9B
 10
482.479831
 20
332.573193
 30
0.0
 11
483.388645
 21
333.482007
 31
0.0
  0
LINE
  8
LC-003-005-----0
  6
CONTINUOUS
  5
9C
 10
478.887899
 20
331.809689
 30
0.0
 11
479.796715
 21
332.718505
 31
0.0
  0
LINE
  8
LC-003-005-----0
  6
CONTINUOUS
  5
9D
 10
475.701545
 20
331.451762
 30
0.0
 11
476.401544
 21
332.151761
 31
0.0
  0
LINE
  8
LC-003-005-----0
  6
CONTINUOUS
  5
9E
 10
472.873125
 20
331.451768
 30
0.0
 11
473.573123
 21
332.151767
 31
0.0
  0
LINE
  8
LC-003-005-----0
  6
CONTINUOUS
  5
9F
 10
470.902196
 20
332.309267
 30
0.0
 11
471.397171
 21
332.804242
 31
0.0
  0
LINE
  8
LC-003-005-----0
  6
CONTINUOUS
  5
A0
 10
469.487982
 20
333.72348
 30
0.0
 11
469.982957
 21
334.218455
 31
0.0
  0
LINE
  8
LC-003-005-----0
  6
CONTINUOUS
  5
A1
 10
457.460873
 20
333.01008
 30
0.0
 11
457.91658
 21
333.465786
 31
0.0
  0
LINE
  8
LC-003-005-----0
  6
CONTINUOUS
  5
A2
 10
458.402489
 20
333.951695
 30
0.0
 11
459.102484
 21
334.651691
 31
0.0
  0
LINE
  8
LC-003-005-----0
  6
CONTINUOUS
  5
A3
 10
453.274094
 20
331.651727
 30
0.0
 11
453.780522
 21
332.158155
 31
0.0
  0
LINE
  8
LC-003-005-----0
  6
CONTINUOUS
  5
A4
 10
454.574085
 20
332.951719
 30
0.0
 11
455.274081
 21
333.651715
 31
0.0
  0
LINE
  8
LC-003-005-----0
  6
CONTINUOUS
  5
A5
 10
451.292346
 20
332.498407
 30
0.0
 11
452.445672
 21
333.651732
 31
0.0
  0
ENDBLK
  8
0
  5
A6
  0
BLOCK
  8
0
  5
A8
  2
*X8
 70
    65
 10
288.594788
 20
331.451759
 30
0.0
  3
*X8
  0
LINE
  8
LC-003-005-----0
  6
CONTINUOUS
  5
A9
 10
334.780535
 20
331.952108
 30
0.0
 11
335.180154
 21
332.351726
 31
0.0
  0
LINE
  8
LC-003-005-----0
  6
CONTINUOUS
  5
AA
 10
335.780157
 20
332.95173
 30
0.0
 11
336.463315
 21
333.634887
 31
0.0
  0
LINE
  8
LC-003-005-----0
  6
CONTINUOUS
  5
AB
 10
332.951713
 20
332.951713
 30
0.0
 11
333.651717
 21
333.651717
 31
0.0
  0
LINE
  8
LC-003-005-----0
  6
CONTINUOUS
  5
AC
 10
330.641427
 20
333.469854
 30
0.0
 11
331.141427
 21
333.969854
 31
0.0
  0
LINE
  8
LC-003-005-----0
  6
CONTINUOUS
  5
AD
 10
328.294829
 20
333.951683
 30
0.0
 11
328.994834
 21
334.651688
 31
0.0
  0
LINE
  8
LC-003-005-----0
  6
CONTINUOUS
  5
AE
 10
319.809495
 20
333.95163
 30
0.0
 11
320.509499
 21
334.651635
 31
0.0
  0
LINE
  8
LC-003-005-----0
  6
CONTINUOUS
  5
AF
 10
314.481203
 20
331.451766
 30
0.0
 11
315.181204
 21
332.151767
 31
0.0
  0
LINE
  8
LC-003-005-----0
  6
CONTINUOUS
  5
B0
 10
311.65277
 20
331.451759
 30
0.0
 11
312.352771
 21
332.151761
 31
0.0
  0
LINE
  8
LC-003-005-----0
  6
CONTINUOUS
  5
B1
 10
309.268324
 20
331.895741
 30
0.0
 11
309.858511
 21
332.485928
 31
0.0
  0
LINE
  8
LC-003-005-----0
  6
CONTINUOUS
  5
B2
 10
306.935718
 20
332.391562
 30
0.0
 11
307.525904
 21
332.981748
 31
0.0
  0
LINE
  8
LC-003-005-----0
  6
CONTINUOUS
  5
B3
 10
304.603112
 20
332.887383
 30
0.0
 11
305.193297
 21
333.477568
 31
0.0
  0
LINE
  8
LC-003-005-----0
  6
CONTINUOUS
  5
B4
 10
302.270506
 20
333.383204
 30
0.0
 11
302.860689
 21
333.973388
 31
0.0
  0
LINE
  8
LC-003-005-----0
  6
CONTINUOUS
  5
B5
 10
299.9379
 20
333.879026
 30
0.0
 11
300.528082
 21
334.469208
 31
0.0
  0
LINE
  8
LC-003-005-----0
  6
CONTINUOUS
  5
B6
 10
297.605294
 20
334.374847
 30
0.0
 11
298.195475
 21
334.965028
 31
0.0
  0
LINE
  8
LC-003-005-----0
  6
CONTINUOUS
  5
B7
 10
295.272688
 20
334.870668
 30
0.0
 11
295.862868
 21
335.460848
 31
0.0
  0
LINE
  8
LC-003-005-----0
  6
CONTINUOUS
  5
B8
 10
292.940082
 20
335.366489
 30
0.0
 11
293.530261
 21
335.956668
 31
0.0
  0
LINE
  8
LC-003-005-----0
  6
CONTINUOUS
  5
B9
 10
290.615219
 20
335.870053
 30
0.0
 11
291.197654
 21
336.452488
 31
0.0
  0
LINE
  8
LC-003-005-----0
  6
CONTINUOUS
  5
BA
 10
289.043726
 20
337.126987
 30
0.0
 11
289.566641
 21
337.649902
 31
0.0
  0
ENDBLK
  8
0
  5
BB
  0
BLOCK
  8
0
  5
BD
  2
BLK4
 70
    64
 10
0.0
 20
0.0
 30
0.0
  3
BLK4
  0
ENDBLK
  8
0
  5
BE
  0
BLOCK
  8
0
  5
C0
  2
BLK5
 70
    64
 10
0.0
 20
0.0
 30
0.0
  3
BLK5
  0
ENDBLK
  8
0
  5
C1
  0
BLOCK
  8
0
  5
C3
  2
BLK6
 70
    64
 10
0.0
 20
0.0
 30
0.0
  3
BLK6
  0
ENDBLK
  8
0
  5
C4
  0
BLOCK
  8
0
  5
C6
  2
BLK7
 70
    64
 10
0.0
 20
0.0
 30
0.0
  3
BLK7
  0
ENDBLK
  8
0
  5
C7
  0
BLOCK
  8
0
  5
C9
  2
*X13
 70
    65
 10
311.780268
 20
326.652414
 30
0.0
  3
*X13
  0
LINE
  8
LC-003-005-----0
  6
DASHED
  5
CB
 10
317.379619
 20
327.501766
 30
0.0
 11
313.97897
 21
330.902414
 31
0.0
  0
LINE
  8
LC-003-005-----0
  6
DASHED
  5
CC
 10
316.564756
 20
326.902414
 30
0.0
 11
312.672512
 21
330.794659
 31
0.0
  0
LINE
  8
LC-003-005-----0
  6
CONTINUOUS
  5
CD
 10
313.736329
 20
326.902414
 30
0.0
 11
311.780268
 21
328.858476
 31
0.0
  0
ENDBLK
  8
0
  5
CE
  0
BLOCK
  8
0
  5
D0
  2
*X14
 70
    65
 10
336.280535
 20
323.651733
 30
0.0
  3
*X14
  0
LINE
  8
LC-003-005-----0
  6
CONTINUOUS
  5
D1
 10
448.780529
 20
324.329735
 30
0.0
 11
450.780529
 21
326.329735
 31
0.0
  0
LINE
  8
LC-003-005-----0
  6
CONTINUOUS
  5
D2
 10
448.780529
 20
327.158162
 30
0.0
 11
451.98441
 21
330.362044
 31
0.0
  0
LINE
  8
LC-003-005-----0
  6
CONTINUOUS
  5
D3
 10
448.780529
 20
329.986589
 30
0.0
 11
450.780529
 21
331.986589
 31
0.0
  0
LINE
  8
LC-003-005-----0
  6
CONTINUOUS
  5
D4
 10
448.780529
 20
332.815016
 30
0.0
 11
449.617245
 21
333.651733
 31
0.0
  0
LINE
  8
LC-003-005-----0
  6
CONTINUOUS
  5
D5
 10
435.213207
 20
370.159383
 30
0.0
 11
435.750202
 21
370.696378
 31
0.0
  0
LINE
  8
LC-003-005-----0
  6
CONTINUOUS
  5
D6
 10
433.561734
 20
371.336338
 30
0.0
 11
435.132559
 21
372.907162
 31
0.0
  0
LINE
  8
LC-003-005-----0
  6
CONTINUOUS
  5
D7
 10
433.387968
 20
373.990999
 30
0.0
 11
434.514916
 21
375.117947
 31
0.0
  0
LINE
  8
LC-003-005-----0
  6
CONTINUOUS
  5
D8
 10
433.387968
 20
376.819426
 30
0.0
 11
433.897274
 21
377.328731
 31
0.0
  0
LINE
  8
LC-003-005-----0
  6
CONTINUOUS
  5
D9
 10
424.450723
 20
404.651733
 30
0.0
 11
426.280529
 21
406.481539
 31
0.0
  0
LINE
  8
LC-003-005-----0
  6
CONTINUOUS
  5
DA
 10
424.280529
 20
407.309966
 30
0.0
 11
425.622296
 21
408.651733
 31
0.0
  0
LINE
  8
LC-003-005-----0
  6
CONTINUOUS
  5
DB
 10
337.793869
 20
323.651733
 30
0.0
 11
339.780529
 21
325.638393
 31
0.0
  0
LINE
  8
LC-003-005-----0
  6
CONTINUOUS
  5
DC
 10
337.780529
 20
326.46682
 30
0.0
 11
339.780529
 21
328.46682
 31
0.0
  0
LINE
  8
LC-003-005-----0
  6
CONTINUOUS
  5
DD
 10
337.208775
 20
328.723494
 30
0.0
 11
339.780529
 21
331.295247
 31
0.0
  0
LINE
  8
LC-003-005-----0
  6
CONTINUOUS
  5
DE
 10
337.780529
 20
332.123674
 30
0.0
 11
339.308587
 21
333.651733
 31
0.0
  0
LINE
  8
LC-003-005-----0
  6
CONTINUOUS
  5
DF
 10
398.994879
 20
404.651733
 30
0.0
 11
399.280529
 21
404.937383
 31
0.0
  0
LINE
  8
LC-003-005-----0
  6
CONTINUOUS
  5
E0
 10
396.166452
 20
404.651733
 30
0.0
 11
399.280529
 21
407.76581
 31
0.0
  0
LINE
  8
LC-003-005-----0
  6
CONTINUOUS
  5
E1
 10
393.338025
 20
404.651733
 30
0.0
 11
397.338025
 21
408.651733
 31
0.0
  0
LINE
  8
LC-003-005-----0
  6
CONTINUOUS
  5
E2
 10
390.509598
 20
404.651733
 30
0.0
 11
394.509598
 21
408.651733
 31
0.0
  0
LINE
  8
LC-003-005-----0
  6
CONTINUOUS
  5
E3
 10
353.181187
 20
370.15175
 30
0.0
 11
355.173073
 21
372.143635
 31
0.0
  0
LINE
  8
LC-003-005-----0
  6
CONTINUOUS
  5
E4
 10
389.280529
 20
406.251091
 30
0.0
 11
391.681171
 21
408.651733
 31
0.0
  0
LINE
  8
LC-003-005-----0
  6
CONTINUOUS
  5
E5
 10
353.552685
 20
373.351674
 30
0.0
 11
355.173089
 21
374.972079
 31
0.0
  0
LINE
  8
LC-003-005-----0
  6
CONTINUOUS
  5
E6
 10
354.649234
 20
377.276651
 30
0.0
 11
355.173089
 21
377.800506
 31
0.0
  0
LINE
  8
LC-003-005-----0
  6
CONTINUOUS
  5
E7
 10
362.280529
 20
404.706935
 30
0.0
 11
364.280529
 21
406.706935
 31
0.0
  0
LINE
  8
LC-003-005-----0
  6
CONTINUOUS
  5
E8
 10
362.280529
 20
407.535363
 30
0.0
 11
363.396899
 21
408.651733
 31
0.0
  0
ENDBLK
  8
0
  5
E9
  0
BLOCK
  8
0
  5
EB
  2
*X15
 70
    65
 10
470.780789
 20
326.652414
 30
0.0
  3
*X15
  0
LINE
  8
LC-003-005-----0
  6
CONTINUOUS
  5
EC
 10
476.780789
 20
329.320941
 30
0.0
 11
475.159462
 21
330.942269
 31
0.0
  0
LINE
  8
LC-003-005-----0
  6
DASHED
  5
ED
 10
476.075839
 20
327.197464
 30
0.0
 11
472.222262
 21
331.051042
 31
0.0
  0
LINE
  8
LC-003-005-----0
  6
DASHED
  5
EE
 10
474.956675
 20
326.902414
 30
0.0
 11
471.368732
 21
330.490357
 31
0.0
  0
LINE
  8
LC-003-005-----0
  6
CONTINUOUS
  5
EF
 10
472.316462
 20
326.714201
 30
0.0
 11
472.147658
 21
326.883005
 31
0.0
  0
LINE
  8
LC-003-005-----0
  6
CONTINUOUS
  5
F0
 10
472.128248
 20
326.902414
 30
0.0
 11
470.780789
 21
328.249873
 31
0.0
  0
ENDBLK
  8
0
  5
F1
  0
BLOCK
  8
0
  5
F3
  2
BLK8
 70
    64
 10
0.0
 20
0.0
 30
0.0
  3
BLK8
  0
ENDBLK
  8
0
  5
F4
  0
BLOCK
  8
0
  5
F6
  2
BLK9
 70
    64
 10
0.0
 20
0.0
 30
0.0
  3
BLK9
  0
ENDBLK
  8
0
  5
F7
  0
BLOCK
  8
0
  5
F9
  2
BLK10
 70
    64
 10
0.0
 20
0.0
 30
0.0
  3
BLK10
  0
ENDBLK
  8
0
  5
FA
  0
BLOCK
  8
0
  5
FC
  2
BLK11
 70
    64
 10
0.0
 20
0.0
 30
0.0
  3
BLK11
  0
ENDBLK
  8
0
  5
FD
  0
BLOCK
  8
0
  5
FF
  2
BLK12
 70
    64
 10
0.0
 20
0.0
 30
0.0
  3
BLK12
  0
ENDBLK
  8
0
  5
100
  0
BLOCK
  8
0
  5
102
  2
BLK13
 70
    64
 10
0.0
 20
0.0
 30
0.0
  3
BLK13
  0
ENDBLK
  8
0
  5
103
  0
BLOCK
  8
0
  5
105
  2
BLK14
 70
    64
 10
0.0
 20
0.0
 30
0.0
  3
BLK14
  0
ENDBLK
  8
0
  5
106
  0
BLOCK
  8
0
  5
108
  2
BLK15
 70
    64
 10
0.0
 20
0.0
 30
0.0
  3
BLK15
  0
ENDBLK
  8
0
  5
109
  0
BLOCK
  8
0
  5
10B
  2
BLK16
 70
    64
 10
0.0
 20
0.0
 30
0.0
  3
BLK16
  0
ENDBLK
  8
0
  5
10C
  0
BLOCK
  8
0
  5
10E
  2
BLK17
 70
    64
 10
0.0
 20
0.0
 30
0.0
  3
BLK17
  0
ENDBLK
  8
0
  5
10F
  0
BLOCK
  8
0
  5
111
  2
BLK18
 70
    64
 10
0.0
 20
0.0
 30
0.0
  3
BLK18
  0
ENDBLK
  8
0
  5
112
  0
BLOCK
  8
0
  5
114
  2
BLK19
 70
    64
 10
0.0
 20
0.0
 30
0.0
  3
BLK19
  0
ENDBLK
  8
0
  5
115
  0
BLOCK
  8
0
  5
117
  2
BLK20
 70
    64
 10
0.0
 20
0.0
 30
0.0
  3
BLK20
  0
ENDBLK
  8
0
  5
118
  0
BLOCK
  8
0
  5
11A
  2
BLK21
 70
    64
 10
0.0
 20
0.0
 30
0.0
  3
BLK21
  0
ENDBLK
  8
0
  5
11B
  0
BLOCK
  8
0
  5
11D
  2
BLK22
 70
    64
 10
0.0
 20
0.0
 30
0.0
  3
BLK22
  0
ENDBLK
  8
0
  5
11E
  0
BLOCK
  8
0
  5
120
  2
BLK23
 70
    64
 10
0.0
 20
0.0
 30
0.0
  3
BLK23
  0
ENDBLK
  8
0
  5
121
  0
BLOCK
  8
0
  5
123
  2
BLK24
 70
    64
 10
0.0
 20
0.0
 30
0.0
  3
BLK24
  0
ENDBLK
  8
0
  5
124
  0
BLOCK
  8
0
  5
126
  2
BLK25
 70
    64
 10
0.0
 20
0.0
 30
0.0
  3
BLK25
  0
ENDBLK
  8
0
  5
127
  0
BLOCK
  8
0
  5
129
  2
BLK26
 70
    64
 10
0.0
 20
0.0
 30
0.0
  3
BLK26
  0
ENDBLK
  8
0
  5
12A
  0
BLOCK
  8
0
  5
12C
  2
BLK27
 70
    64
 10
0.0
 20
0.0
 30
0.0
  3
BLK27
  0
ENDBLK
  8
0
  5
12D
  0
BLOCK
  8
0
  5
12F
  2
BLK28
 70
    64
 10
0.0
 20
0.0
 30
0.0
  3
BLK28
  0
ENDBLK
  8
0
  5
130
  0
BLOCK
  8
0
  5
132
  2
BLK29
 70
    64
 10
0.0
 20
0.0
 30
0.0
  3
BLK29
  0
ENDBLK
  8
0
  5
133
  0
BLOCK
  8
0
  5
135
  2
BLK30
 70
    64
 10
0.0
 20
0.0
 30
0.0
  3
BLK30
  0
ENDBLK
  8
0
  5
136
  0
BLOCK
  8
0
  5
138
  2
BLK31
 70
    64
 10
0.0
 20
0.0
 30
0.0
  3
BLK31
  0
ENDBLK
  8
0
  5
139
  0
BLOCK
  8
0
  5
13B
  2
BLK32
 70
    64
 10
0.0
 20
0.0
 30
0.0
  3
BLK32
  0
ENDBLK
  8
0
  5
13C
  0
BLOCK
  8
0
  5
13E
  2
BLK33
 70
    64
 10
0.0
 20
0.0
 30
0.0
  3
BLK33
  0
ENDBLK
  8
0
  5
13F
  0
BLOCK
  8
0
  5
141
  2
BLK34
 70
    64
 10
0.0
 20
0.0
 30
0.0
  3
BLK34
  0
ENDBLK
  8
0
  5
142
  0
BLOCK
  8
0
  5
144
  2
BLK35
 70
    64
 10
0.0
 20
0.0
 30
0.0
  3
BLK35
  0
ENDBLK
  8
0
  5
145
  0
BLOCK
  8
0
  5
147
  2
BLK36
 70
    64
 10
0.0
 20
0.0
 30
0.0
  3
BLK36
  0
ENDBLK
  8
0
  5
148
  0
BLOCK
  8
0
  5
14A
  2
BLK37
 70
    64
 10
0.0
 20
0.0
 30
0.0
  3
BLK37
  0
ENDBLK
  8
0
  5
14B
  0
BLOCK
  8
0
  5
14D
  2
BLK38
 70
    64
 10
0.0
 20
0.0
 30
0.0
  3
BLK38
  0
ENDBLK
  8
0
  5
14E
  0
BLOCK
  8
0
  5
150
  2
BLK39
 70
    64
 10
0.0
 20
0.0
 30
0.0
  3
BLK39
  0
ENDBLK
  8
0
  5
151
  0
BLOCK
  8
0
  5
153
  2
BLK40
 70
    64
 10
0.0
 20
0.0
 30
0.0
  3
BLK40
  0
ENDBLK
  8
0
  5
154
  0
BLOCK
  8
0
  5
156
  2
BLK41
 70
    64
 10
0.0
 20
0.0
 30
0.0
  3
BLK41
  0
ENDBLK
  8
0
  5
157
  0
BLOCK
  8
0
  5
159
  2
BLK42
 70
    64
 10
0.0
 20
0.0
 30
0.0
  3
BLK42
  0
ENDBLK
  8
0
  5
15A
  0
BLOCK
  8
0
  5
15C
  2
BLK43
 70
    64
 10
0.0
 20
0.0
 30
0.0
  3
BLK43
  0
ENDBLK
  8
0
  5
15D
  0
BLOCK
  8
0
  5
15F
  2
BLK44
 70
    64
 10
0.0
 20
0.0
 30
0.0
  3
BLK44
  0
ENDBLK
  8
0
  5
160
  0
BLOCK
  8
0
  5
162
  2
BLK45
 70
    64
 10
0.0
 20
0.0
 30
0.0
  3
BLK45
  0
ENDBLK
  8
0
  5
163
  0
ENDSEC
  0
SECTION
  2
ENTITIES
  0
VIEWPORT
  8
LC-000
  5
3D1
 67
     1
 68
     1
 10
420.0
 20
297.0
 30
0.0
 40
840.0
 41
594.0
 69
     1
1001
ACAD
1000
MVIEW
1002
{
1070
    16
1010
0.0
1020
0.0
1030
0.0
1010
0.0
1020
0.0
1030
1.0
1040
0.0
1040
594.0
1040
420.0
1040
297.0
1040
50.0
1040
0.0
1040
0.0
1070
     0
1070
   100
1070
     1
1070
     1
1070
     0
1070
     0
1070
     0
1070
     0
1040
0.0
1040
0.0
1040
0.0
1040
1.0
1040
1.0
1040
0.0
1040
0.0
1070
     0
1002
{
1002
}
1002
}
  0
VIEWPORT
  8
0
  5
3D2
 67
     1
 68
     1
 10
0.0
 20
0.0
 30
0.0
 40
0.0
 41
0.0
 69
     1
1001
ACAD
1000
MVIEW
1002
{
1070
    16
1010
0.0
1020
0.0
1030
0.0
1010
0.0
1020
0.0
1030
1.0
1040
0.0
1040
594.0
1040
0.0
1040
0.0
1040
50.0
1040
0.0
1040
0.0
1070
     0
1070
   100
1070
     0
1070
     1
1070
     0
1070
     0
1070
     0
1070
     0
1040
0.0
1040
0.0
1040
0.0
1040
0.5
1040
0.5
1040
0.5
1040
0.5
1070
     0
1002
{
1002
}
1002
}
  0
INSERT
  8
0
  5
165
  2
BLK1
 10
0.0
 20
0.0
 30
0.0
  0
DIMENSION
  8
0
  5
166
  2
*D1
 10
394.280529
 20
80.0
 30
0.0
 11
394.280529
 21
80.0
 31
0.0
  1
DN100
 13
339.280529
 23
121.152737
 33
0.0
 14
449.280529
 24
121.152737
 34
0.0
  3
LC-DIM-L-0090-02-02
  0
DIMENSION
  8
0
  5
167
  2
*D2
 10
520.0
 20
216.652737
 30
0.0
 11
520.0
 21
216.652737
 31
0.0
 13
470.28105
 23
316.652737
 33
0.0
 14
448.074757
 24
116.652737
 34
0.0
 50
90.0
  3
LC-DIM-L-0090-02-02
  0
DIMENSION
  8
0
  5
168
  2
*D3
 10
560.0
 20
224.71272
 30
0.0
 11
560.0
 21
224.71272
 31
0.0
  1
216
 13
499.906179
 23
332.772704
 33
0.0
 14
448.074757
 24
116.652737
 34
0.0
 50
90.0
  3
LC-DIM-L-0090-02-02
  0
INSERT
  8
0
  5
169
  2
BLK2
 10
0.0
 20
0.0
 30
0.0
  0
INSERT
  8
0
  5
16A
  2
BLK3
 10
0.0
 20
0.0
 30
0.0
  0
DIMENSION
  8
0
  5
16B
  2
*D6
 10
391.347544
 20
432.0
 30
0.0
 11
391.347544
 21
432.0
 31
0.0
  1
%%c<>
 13
279.280529
 23
334.61046
 33
0.0
 14
509.280529
 24
334.61046
 34
0.0
  3
LC-DIM-L-0090-02-02
  0
INSERT
  8
0
  5
16C
  2
*X7
 10
451.280522
 20
331.451759
 30
0.0
  0
INSERT
  8
0
  5
16D
  2
*X8
 10
288.594788
 20
331.451759
 30
0.0
  0
INSERT
  8
0
  5
16E
  2
BLK4
 10
0.0
 20
0.0
 30
0.0
  0
INSERT
  8
0
  5
16F
  2
BLK5
 10
0.0
 20
0.0
 30
0.0
  0
INSERT
  8
0
  5
170
  2
BLK6
 10
0.0
 20
0.0
 30
0.0
  0
INSERT
  8
0
  5
171
  2
BLK7
 10
0.0
 20
0.0
 30
0.0
  0
INSERT
  8
0
  5
172
  2
*X13
 10
311.780268
 20
326.652414
 30
0.0
  0
INSERT
  8
0
  5
173
  2
*X14
 10
336.280535
 20
323.651733
 30
0.0
  0
INSERT
  8
0
  5
174
  2
*X15
 10
470.780789
 20
326.652414
 30
0.0
  0
INSERT
  8
0
  5
175
  2
BLK8
 10
0.0
 20
0.0
 30
0.0
  0
INSERT
  8
0
  5
177
  2
BLK9
 10
0.0
 20
0.0
 30
0.0
  0
INSERT
  8
0
  5
178
  2
BLK10
 10
0.0
 20
0.0
 30
0.0
  0
INSERT
  8
0
  5
179
  2
BLK11
 10
0.0
 20
0.0
 30
0.0
  0
INSERT
  8
0
  5
17A
  2
BLK12
 10
0.0
 20
0.0
 30
0.0
  0
INSERT
  8
0
  5
17B
  2
BLK13
 10
0.0
 20
0.0
 30
0.0
  0
INSERT
  8
0
  5
17C
  2
BLK14
 10
0.0
 20
0.0
 30
0.0
  0
INSERT
  8
0
  5
17D
  2
BLK15
 10
0.0
 20
0.0
 30
0.0
  0
INSERT
  8
0
  5
17E
  2
BLK16
 10
0.0
 20
0.0
 30
0.0
  0
INSERT
  8
0
  5
17F
  2
BLK17
 10
0.0
 20
0.0
 30
0.0
  0
INSERT
  8
0
  5
180
  2
BLK18
 10
0.0
 20
0.0
 30
0.0
  0
INSERT
  8
0
  5
181
  2
BLK19
 10
0.0
 20
0.0
 30
0.0
  0
INSERT
  8
0
  5
182
  2
BLK20
 10
0.0
 20
0.0
 30
0.0
  0
INSERT
  8
0
  5
183
  2
BLK21
 10
0.0
 20
0.0
 30
0.0
  0
INSERT
  8
0
  5
184
  2
BLK22
 10
0.0
 20
0.0
 30
0.0
  0
INSERT
  8
0
  5
185
  2
BLK23
 10
0.0
 20
0.0
 30
0.0
  0
INSERT
  8
0
  5
186
  2
BLK24
 10
0.0
 20
0.0
 30
0.0
  0
INSERT
  8
0
  5
187
  2
BLK25
 10
0.0
 20
0.0
 30
0.0
  0
INSERT
  8
0
  5
188
  2
BLK26
 10
0.0
 20
0.0
 30
0.0
  0
INSERT
  8
0
  5
189
  2
BLK27
 10
0.0
 20
0.0
 30
0.0
  0
INSERT
  8
0
  5
18A
  2
BLK28
 10
0.0
 20
0.0
 30
0.0
  0
INSERT
  8
0
  5
18B
  2
BLK29
 10
0.0
 20
0.0
 30
0.0
  0
INSERT
  8
0
  5
18C
  2
BLK30
 10
0.0
 20
0.0
 30
0.0
  0
INSERT
  8
0
  5
18D
  2
BLK31
 10
0.0
 20
0.0
 30
0.0
  0
INSERT
  8
0
  5
18E
  2
BLK32
 10
0.0
 20
0.0
 30
0.0
  0
INSERT
  8
0
  5
18F
  2
BLK33
 10
0.0
 20
0.0
 30
0.0
  0
INSERT
  8
0
  5
190
  2
BLK34
 10
0.0
 20
0.0
 30
0.0
  0
INSERT
  8
0
  5
191
  2
BLK35
 10
0.0
 20
0.0
 30
0.0
  0
INSERT
  8
0
  5
192
  2
BLK36
 10
0.0
 20
0.0
 30
0.0
  0
INSERT
  8
0
  5
193
  2
BLK37
 10
0.0
 20
0.0
 30
0.0
  0
INSERT
  8
0
  5
194
  2
BLK38
 10
0.0
 20
0.0
 30
0.0
  0
INSERT
  8
0
  5
195
  2
BLK39
 10
0.0
 20
0.0
 30
0.0
  0
INSERT
  8
0
  5
196
  2
BLK40
 10
0.0
 20
0.0
 30
0.0
  0
INSERT
  8
0
  5
197
  2
BLK41
 10
0.0
 20
0.0
 30
0.0
  0
INSERT
  8
0
  5
198
  2
BLK42
 10
0.0
 20
0.0
 30
0.0
  0
INSERT
  8
0
  5
199
  2
BLK43
 10
0.0
 20
0.0
 30
0.0
  0
INSERT
  8
0
  5
19A
  2
BLK44
 10
0.0
 20
0.0
 30
0.0
  0
INSERT
  8
0
  5
19B
  2
BLK45
 10
0.0
 20
0.0
 30
0.0
  0
LINE
  8
LC-002-002-----0
  6
CONTINUOUS
  5
19D
 10
320.280039
 20
330.154118
 30
0.0
 11
320.280039
 21
331.653427
 31
0.0
  0
LINE
  8
LC-002-002-----0
  6
CONTINUOUS
  5
19E
 10
468.281018
 20
330.154118
 30
0.0
 11
468.281018
 21
331.653427
 31
0.0
  0
LINE
  8
LC-002-002-----0
  6
CONTINUOUS
  5
19F
 10
279.280529
 20
333.129316
 30
0.0
 11
279.280529
 21
334.61046
 31
0.0
  0
LINE
  8
LC-003-005-----0
  6
CONTINUOUS
  5
1A0
 10
340.404344
 20
116.958601
 30
0.0
 11
342.280529
 21
118.834786
 31
0.0
  0
LINE
  8
LC-002-002-----0
  6
CONTINUOUS
  5
1A1
 10
509.280529
 20
333.129316
 30
0.0
 11
509.280529
 21
334.61046
 31
0.0
  0
ARC
  8
LC-002-002-----0
  6
CONTINUOUS
  5
1A2
 10
324.280039
 20
325.653438
 30
0.0
 40
10.0
 50
244.158193
 51
295.842059
  0
LINE
  8
LC-003-005-----0
  6
CONTINUOUS
  5
1A3
 10
339.806627
 20
119.189311
 30
0.0
 11
342.280529
 21
121.663213
 31
0.0
  0
LINE
  8
LC-003-005-----0
  6
CONTINUOUS
  5
1A4
 10
339.280529
 20
121.49164
 30
0.0
 11
342.280529
 21
124.49164
 31
0.0
  0
LINE
  8
LC-003-005-----0
  6
CONTINUOUS
  5
1A5
 10
339.280529
 20
124.320067
 30
0.0
 11
342.280529
 21
127.320067
 31
0.0
  0
LINE
  8
LC-003-005-----0
  6
CONTINUOUS
  5
1A6
 10
339.280529
 20
127.148494
 30
0.0
 11
342.280529
 21
130.148494
 31
0.0
  0
LINE
  8
LC-002-002-----0
  6
CONTINUOUS
  5
1A7
 10
340.4863
 20
116.652737
 30
0.0
 11
339.280529
 21
121.152737
 31
0.0
  0
LINE
  8
LC-003-005-----0
  6
CONTINUOUS
  5
1A8
 10
339.280529
 20
129.976921
 30
0.0
 11
342.280529
 21
132.976921
 31
0.0
  0
LINE
  8
LC-002-002-----0
  6
CONTINUOUS
  5
1A9
 10
320.280039
 20
331.653427
 30
0.0
 11
321.28131
 21
331.653427
 31
0.0
  0
LINE
  8
LC-003-005-----0
  6
CONTINUOUS
  5
1AA
 10
339.280529
 20
132.805348
 30
0.0
 11
342.280529
 21
135.805348
 31
0.0
  0
LINE
  8
LC-002-002-----0
  6
CONTINUOUS
  5
1AB
 10
328.280039
 20
331.653427
 30
0.0
 11
328.280039
 21
330.154118
 31
0.0
  0
LINE
  8
LC-002-002-----0
  6
CONTINUOUS
  5
1AC
 10
328.280039
 20
331.653427
 30
0.0
 11
327.280056
 21
331.653427
 31
0.0
  0
LINE
  8
LC-002-002-----0
  6
CONTINUOUS
  5
1AD
 10
318.280007
 20
316.652737
 30
0.0
 11
319.922587
 21
316.652737
 31
0.0
  0
LINE
  8
LC-003-005-----0
  6
CONTINUOUS
  5
1AE
 10
339.280529
 20
135.633776
 30
0.0
 11
342.280529
 21
138.633776
 31
0.0
  0
LINE
  8
LC-003-005-----0
  6
CONTINUOUS
  5
1AF
 10
339.280529
 20
138.462203
 30
0.0
 11
342.280529
 21
141.462203
 31
0.0
  0
LINE
  8
LC-002-002-----0
  6
CONTINUOUS
  5
1B0
 10
320.280039
 20
330.154118
 30
0.0
 11
319.569204
 21
330.154118
 31
0.0
  0
LINE
  8
LC-003-005-----0
  6
CONTINUOUS
  5
1B1
 10
339.280529
 20
141.29063
 30
0.0
 11
342.280529
 21
144.29063
 31
0.0
  0
LINE
  8
LC-003-005-----0
  6
CONTINUOUS
  5
1B2
 10
339.280529
 20
144.119057
 30
0.0
 11
342.280529
 21
147.119057
 31
0.0
  0
LINE
  8
LC-003-005-----0
  6
CONTINUOUS
  5
1B3
 10
339.280529
 20
146.947484
 30
0.0
 11
342.280529
 21
149.947484
 31
0.0
  0
LINE
  8
LC-002-002-----0
  6
CONTINUOUS
  5
1B4
 10
328.637491
 20
316.652737
 30
0.0
 11
339.280529
 21
316.652737
 31
0.0
  0
LINE
  8
LC-003-005-----0
  6
CONTINUOUS
  5
1B5
 10
339.280529
 20
149.775911
 30
0.0
 11
342.280529
 21
152.775911
 31
0.0
  0
LINE
  8
LC-002-002-----0
  6
CONTINUOUS
  5
1B6
 10
446.280529
 20
319.654118
 30
0.0
 11
342.280529
 21
319.654118
 31
0.0
  0
LINE
  8
LC-003-005-----0
  6
CONTINUOUS
  5
1B7
 10
339.280529
 20
152.604338
 30
0.0
 11
342.280529
 21
155.604338
 31
0.0
  0
LINE
  8
LC-002-002-----0
  6
CONTINUOUS
  5
1B8
 10
288.995599
 20
336.355843
 30
0.0
 11
281.280565
 21
336.611557
 31
0.0
  0
LINE
  8
LC-002-002-----0
  6
CONTINUOUS
  5
1B9
 10
342.280529
 20
319.654118
 30
0.0
 11
334.280503
 21
319.654118
 31
0.0
  0
LINE
  8
LC-003-005-----0
  6
CONTINUOUS
  5
1BA
 10
339.280529
 20
155.432765
 30
0.0
 11
342.280529
 21
158.432765
 31
0.0
  0
LINE
  8
LC-003-005-----0
  6
CONTINUOUS
  5
1BB
 10
339.280529
 20
158.261193
 30
0.0
 11
342.280529
 21
161.261193
 31
0.0
  0
ARC
  8
LC-007-002-RND-0
  6
CONTINUOUS
  5
1BD
 10
507.280529
 20
334.61046
 30
0.0
 40
2.0
 50
360.0
 51
91.898364
  0
LINE
  8
LC-003-005-----0
  6
CONTINUOUS
  5
1BE
 10
339.280529
 20
161.08962
 30
0.0
 11
342.280529
 21
164.08962
 31
0.0
  0
LINE
  8
LC-002-002-----0
  6
CONTINUOUS
  5
1BF
 10
394.280529
 20
116.652737
 30
0.0
 11
446.280529
 21
116.652737
 31
0.0
  0
LINE
  8
LC-003-005-----0
  6
CONTINUOUS
  5
1C0
 10
339.280529
 20
163.918047
 30
0.0
 11
342.280529
 21
166.918047
 31
0.0
  0
LINE
  8
LC-003-005-----0
  6
CONTINUOUS
  5
1C1
 10
339.280529
 20
166.746474
 30
0.0
 11
342.280529
 21
169.746474
 31
0.0
  0
ARC
  8
LC-002-002-----0
  6
CONTINUOUS
  5
1C2
 10
464.281018
 20
325.653438
 30
0.0
 40
10.0
 50
244.157941
 51
295.841807
  0
LINE
  8
LC-008-006-MLN-0
  6
DASHDOT
  5
1C6
 10
394.280529
 20
418.651733
 30
0.0
 11
394.280529
 21
106.652737
 31
0.0
  0
LINE
  8
LC-002-002-----0
  6
CONTINUOUS
  5
1C7
 10
309.280529
 20
330.154118
 30
0.0
 11
288.995599
 21
336.355843
 31
0.0
  0
LINE
  8
LC-003-005-----0
  6
CONTINUOUS
  5
1C8
 10
339.280529
 20
169.574901
 30
0.0
 11
342.280529
 21
172.574901
 31
0.0
  0
LINE
  8
LC-003-005-----0
  6
CONTINUOUS
  5
1C9
 10
339.280529
 20
172.403328
 30
0.0
 11
342.280529
 21
175.403328
 31
0.0
  0
LINE
  8
LC-002-002-----0
  6
CONTINUOUS
  5
1CA
 10
308.83138
 20
326.602745
 30
0.0
 11
288.654878
 21
332.772704
 31
0.0
  0
LINE
  8
LC-003-005-----0
  6
CONTINUOUS
  5
1CB
 10
339.280529
 20
175.231755
 30
0.0
 11
342.280529
 21
178.231755
 31
0.0
  0
LINE
  8
LC-002-002-----0
  6
CONTINUOUS
  5
1CC
 10
454.280641
 20
319.654118
 30
0.0
 11
446.380529
 21
319.654118
 31
0.0
  0
LINE
  8
LC-003-005-----0
  6
CONTINUOUS
  5
1CD
 10
339.280529
 20
178.060182
 30
0.0
 11
342.280529
 21
181.060182
 31
0.0
  0
LINE
  8
LC-003-005-----0
  6
CONTINUOUS
  5
1CE
 10
339.280529
 20
180.88861
 30
0.0
 11
342.280529
 21
183.88861
 31
0.0
  0
LINE
  8
LC-003-005-----0
  6
CONTINUOUS
  5
1CF
 10
339.280529
 20
183.717037
 30
0.0
 11
342.280529
 21
186.717037
 31
0.0
  0
LINE
  8
LC-002-002-----0
  6
CONTINUOUS
  5
1D0
 10
288.654878
 20
332.772704
 30
0.0
 11
279.385218
 21
333.125334
 31
0.0
  0
LINE
  8
LC-003-005-----0
  6
CONTINUOUS
  5
1D1
 10
339.280529
 20
186.545464
 30
0.0
 11
342.280529
 21
189.545464
 31
0.0
  0
LINE
  8
LC-002-002-----0
  6
CONTINUOUS
  5
1D2
 10
468.281018
 20
331.653427
 30
0.0
 11
467.281026
 21
331.653427
 31
0.0
  0
LINE
  8
LC-003-005-----0
  6
CONTINUOUS
  5
1D3
 10
339.280529
 20
189.373891
 30
0.0
 11
342.280529
 21
192.373891
 31
0.0
  0
LINE
  8
LC-003-005-----0
  6
CONTINUOUS
  5
1D4
 10
339.280529
 20
192.202318
 30
0.0
 11
342.280529
 21
195.202318
 31
0.0
  0
LINE
  8
LC-002-002-----0
  6
CONTINUOUS
  5
1D5
 10
394.280529
 20
116.652737
 30
0.0
 11
342.280529
 21
116.652737
 31
0.0
  0
LINE
  8
LC-002-002-----0
  6
CONTINUOUS
  5
1D6
 10
499.906179
 20
332.772704
 30
0.0
 11
509.280529
 21
333.129316
 31
0.0
  0
LINE
  8
LC-002-002-----0
  6
CONTINUOUS
  5
1D7
 10
479.729677
 20
326.602745
 30
0.0
 11
499.906179
 21
332.772704
 31
0.0
  0
LINE
  8
LC-003-005-----0
  6
CONTINUOUS
  5
1D8
 10
339.280529
 20
195.030745
 30
0.0
 11
342.280529
 21
198.030745
 31
0.0
  0
LINE
  8
LC-003-005-----0
  6
CONTINUOUS
  5
1D9
 10
339.280529
 20
197.859172
 30
0.0
 11
342.280529
 21
200.859172
 31
0.0
  0
LINE
  8
LC-002-002-----0
  6
CONTINUOUS
  5
1DA
 10
479.280529
 20
330.154118
 30
0.0
 11
499.565458
 21
336.355843
 31
0.0
  0
LINE
  8
LC-002-002-----0
  6
CONTINUOUS
  5
1DB
 10
499.565458
 20
336.355843
 30
0.0
 11
507.335924
 21
336.609692
 31
0.0
  0
ARC
  8
LC-007-002-RND-0
  6
CONTINUOUS
  5
1DC
 10
281.280529
 20
334.61046
 30
0.0
 40
2.0
 50
88.101636
 51
180.0
  0
LINE
  8
LC-003-005-----0
  6
CONTINUOUS
  5
1DD
 10
339.280529
 20
200.687599
 30
0.0
 11
342.280529
 21
203.687599
 31
0.0
  0
LINE
  8
LC-002-002-----0
  6
CONTINUOUS
  5
1DE
 10
446.280529
 20
319.654118
 30
0.0
 11
446.380529
 21
319.654118
 31
0.0
  0
LINE
  8
LC-002-002-----0
  6
CONTINUOUS
  5
1DF
 10
449.280529
 20
316.653427
 30
0.0
 11
449.280529
 21
316.653402
 31
0.0
  0
LINE
  8
LC-003-005-----0
  6
CONTINUOUS
  5
1E0
 10
339.280529
 20
203.516027
 30
0.0
 11
342.280529
 21
206.516027
 31
0.0
  0
LINE
  8
LC-003-005-----0
  6
CONTINUOUS
  5
1E1
 10
447.578711
 20
116.652737
 30
0.0
 11
448.256323
 21
117.330349
 31
0.0
  0
LINE
  8
LC-002-002-----0
  6
CONTINUOUS
  5
1E2
 10
339.280529
 20
316.652737
 30
0.0
 11
339.280529
 21
121.152737
 31
0.0
  0
LINE
  8
LC-002-002-----0
  6
CONTINUOUS
  5
1E3
 10
449.280538
 20
316.653428
 30
0.0
 11
449.280529
 21
121.152737
 31
0.0
  0
LINE
  8
LC-002-002-----0
  6
CONTINUOUS
  5
1E4
 10
342.280529
 20
319.654118
 30
0.0
 11
342.280529
 21
116.652737
 31
0.0
  0
LINE
  8
LC-002-002-----0
  6
CONTINUOUS
  5
1E5
 10
446.280538
 20
319.654118
 30
0.0
 11
446.280529
 21
116.652737
 31
0.0
  0
LINE
  8
LC-002-002-----0
  6
CONTINUOUS
  5
1E6
 10
448.074757
 20
116.652737
 30
0.0
 11
449.280529
 21
121.152737
 31
0.0
  0
LINE
  8
LC-003-005-----0
  6
CONTINUOUS
  5
1E7
 10
339.280529
 20
206.344454
 30
0.0
 11
342.280529
 21
209.344454
 31
0.0
  0
LINE
  8
LC-002-002-----0
  6
CONTINUOUS
  5
1E8
 10
467.28102
 20
333.95164
 30
0.0
 11
468.031014
 21
333.951635
 31
0.0
  0
LINE
  8
LC-003-005-----0
  6
CONTINUOUS
  5
1E9
 10
446.280529
 20
118.182982
 30
0.0
 11
449.280529
 21
121.182982
 31
0.0
  0
LINE
  8
LC-003-005-----0
  6
CONTINUOUS
  5
1EA
 10
339.280529
 20
209.172881
 30
0.0
 11
342.280529
 21
212.172881
 31
0.0
  0
LINE
  8
LC-003-005-----0
  6
CONTINUOUS
  5
1EB
 10
339.280529
 20
212.001308
 30
0.0
 11
342.280529
 21
215.001308
 31
0.0
  0
LINE
  8
LC-003-005-----0
  6
CONTINUOUS
  5
1EC
 10
339.280529
 20
214.829735
 30
0.0
 11
342.280529
 21
217.829735
 31
0.0
  0
LINE
  8
LC-003-005-----0
  6
CONTINUOUS
  5
1ED
 10
339.280529
 20
217.658162
 30
0.0
 11
342.280529
 21
220.658162
 31
0.0
  0
LINE
  8
LC-003-005-----0
  6
CONTINUOUS
  5
1EE
 10
339.280529
 20
220.486589
 30
0.0
 11
342.280529
 21
223.486589
 31
0.0
  0
LINE
  8
LC-002-002-----0
  6
CONTINUOUS
  5
1EF
 10
460.281018
 20
331.653427
 30
0.0
 11
460.281018
 21
330.154118
 31
0.0
  0
LINE
  8
LC-002-002-----0
  6
CONTINUOUS
  5
1F0
 10
460.281018
 20
331.653427
 30
0.0
 11
461.282281
 21
331.653427
 31
0.0
  0
LINE
  8
LC-002-002-----0
  6
CONTINUOUS
  5
1F1
 10
470.28105
 20
316.652737
 30
0.0
 11
468.63847
 21
316.652737
 31
0.0
  0
LINE
  8
LC-003-005-----0
  6
CONTINUOUS
  5
1F2
 10
339.280529
 20
223.315016
 30
0.0
 11
342.280529
 21
226.315016
 31
0.0
  0
LINE
  8
LC-002-002-----0
  6
CONTINUOUS
  5
1F3
 10
330.280529
 20
331.654118
 30
0.0
 11
330.280529
 21
330.154118
 31
0.0
  0
LINE
  8
LC-002-002-----0
  6
CONTINUOUS
  5
1F4
 10
318.280529
 20
330.154118
 30
0.0
 11
318.280529
 21
326.654118
 31
0.0
  0
LINE
  8
LC-002-002-----0
  6
CONTINUOUS
  5
1F5
 10
342.280529
 20
116.652737
 30
0.0
 11
340.4863
 21
116.652737
 31
0.0
  0
LINE
  8
LC-002-002-----0
  6
CONTINUOUS
  5
1F6
 10
330.280529
 20
330.154118
 30
0.0
 11
329.569204
 21
330.154118
 31
0.0
  0
LINE
  8
LC-002-002-----0
  6
CONTINUOUS
  5
1F7
 10
446.280529
 20
116.652737
 30
0.0
 11
448.074757
 21
116.652737
 31
0.0
  0
LINE
  8
LC-002-002-----0
  6
CONTINUOUS
  5
1F8
 10
318.280007
 20
326.654118
 30
0.0
 11
311.280007
 21
326.654118
 31
0.0
  0
LINE
  8
LC-002-002-----0
  6
CONTINUOUS
  5
1F9
 10
311.280007
 20
326.654118
 30
0.0
 11
311.280007
 21
330.154118
 31
0.0
  0
LINE
  8
LC-002-002-----0
  6
CONTINUOUS
  5
1FA
 10
318.280007
 20
324.154118
 30
0.0
 11
311.280007
 21
324.154118
 31
0.0
  0
LINE
  8
LC-002-002-----0
  6
CONTINUOUS
  5
1FB
 10
311.280007
 20
324.154118
 30
0.0
 11
308.83138
 21
326.602745
 31
0.0
  0
LINE
  8
LC-003-005-----0
  6
CONTINUOUS
  5
1FC
 10
339.280529
 20
226.143444
 30
0.0
 11
342.280529
 21
229.143444
 31
0.0
  0
LINE
  8
LC-003-005-----0
  6
CONTINUOUS
  5
1FD
 10
339.280529
 20
228.971871
 30
0.0
 11
342.280529
 21
231.971871
 31
0.0
  0
LINE
  8
LC-003-005-----0
  6
CONTINUOUS
  5
1FE
 10
339.280529
 20
231.800298
 30
0.0
 11
342.280529
 21
234.800298
 31
0.0
  0
LINE
  8
LC-003-005-----0
  6
CONTINUOUS
  5
1FF
 10
339.280529
 20
234.628725
 30
0.0
 11
342.280529
 21
237.628725
 31
0.0
  0
LINE
  8
LC-003-005-----0
  6
CONTINUOUS
  5
200
 10
339.280529
 20
237.457152
 30
0.0
 11
342.280529
 21
240.457152
 31
0.0
  0
LINE
  8
LC-003-005-----0
  6
CONTINUOUS
  5
201
 10
339.280529
 20
240.285579
 30
0.0
 11
342.280529
 21
243.285579
 31
0.0
  0
LINE
  8
LC-003-005-----0
  6
CONTINUOUS
  5
202
 10
339.280529
 20
243.114006
 30
0.0
 11
342.280529
 21
246.114006
 31
0.0
  0
LINE
  8
LC-003-005-----0
  6
CONTINUOUS
  5
203
 10
339.280529
 20
245.942433
 30
0.0
 11
342.280529
 21
248.942433
 31
0.0
  0
LINE
  8
LC-003-005-----0
  6
CONTINUOUS
  5
204
 10
339.280529
 20
248.770861
 30
0.0
 11
342.280529
 21
251.770861
 31
0.0
  0
LINE
  8
LC-003-005-----0
  6
CONTINUOUS
  5
205
 10
339.280529
 20
251.599288
 30
0.0
 11
342.280529
 21
254.599288
 31
0.0
  0
LINE
  8
LC-003-005-----0
  6
CONTINUOUS
  5
206
 10
339.280529
 20
254.427715
 30
0.0
 11
342.280529
 21
257.427715
 31
0.0
  0
LINE
  8
LC-003-005-----0
  6
CONTINUOUS
  5
207
 10
339.280529
 20
257.256142
 30
0.0
 11
342.280529
 21
260.256142
 31
0.0
  0
LINE
  8
LC-003-005-----0
  6
CONTINUOUS
  5
208
 10
339.280529
 20
260.084569
 30
0.0
 11
342.280529
 21
263.084569
 31
0.0
  0
LINE
  8
LC-003-005-----0
  6
CONTINUOUS
  5
209
 10
339.280529
 20
262.912996
 30
0.0
 11
342.280529
 21
265.912996
 31
0.0
  0
LINE
  8
LC-003-005-----0
  6
CONTINUOUS
  5
20A
 10
339.280529
 20
265.741423
 30
0.0
 11
342.280529
 21
268.741423
 31
0.0
  0
LINE
  8
LC-003-005-----0
  6
CONTINUOUS
  5
20B
 10
339.280529
 20
268.56985
 30
0.0
 11
342.280529
 21
271.56985
 31
0.0
  0
LINE
  8
LC-003-005-----0
  6
CONTINUOUS
  5
20C
 10
339.280529
 20
271.398278
 30
0.0
 11
342.280529
 21
274.398278
 31
0.0
  0
LINE
  8
LC-003-005-----0
  6
CONTINUOUS
  5
20D
 10
339.280529
 20
274.226705
 30
0.0
 11
342.280529
 21
277.226705
 31
0.0
  0
LINE
  8
LC-003-005-----0
  6
CONTINUOUS
  5
20E
 10
339.280529
 20
277.055132
 30
0.0
 11
342.280529
 21
280.055132
 31
0.0
  0
LINE
  8
LC-003-005-----0
  6
CONTINUOUS
  5
20F
 10
339.280529
 20
279.883559
 30
0.0
 11
342.280529
 21
282.883559
 31
0.0
  0
LINE
  8
LC-003-005-----0
  6
CONTINUOUS
  5
210
 10
339.280529
 20
282.711986
 30
0.0
 11
342.280529
 21
285.711986
 31
0.0
  0
LINE
  8
LC-003-005-----0
  6
CONTINUOUS
  5
211
 10
339.280529
 20
285.540413
 30
0.0
 11
342.280529
 21
288.540413
 31
0.0
  0
LINE
  8
LC-003-005-----0
  6
CONTINUOUS
  5
212
 10
339.280529
 20
288.36884
 30
0.0
 11
342.280529
 21
291.36884
 31
0.0
  0
LINE
  8
LC-003-005-----0
  6
CONTINUOUS
  5
213
 10
339.280529
 20
291.197267
 30
0.0
 11
342.280529
 21
294.197267
 31
0.0
  0
LINE
  8
LC-003-005-----0
  6
CONTINUOUS
  5
214
 10
339.280529
 20
294.025695
 30
0.0
 11
342.280529
 21
297.025695
 31
0.0
  0
LINE
  8
LC-003-005-----0
  6
CONTINUOUS
  5
215
 10
339.280529
 20
296.854122
 30
0.0
 11
342.280529
 21
299.854122
 31
0.0
  0
LINE
  8
LC-003-005-----0
  6
CONTINUOUS
  5
216
 10
339.280529
 20
299.682549
 30
0.0
 11
342.280529
 21
302.682549
 31
0.0
  0
LINE
  8
LC-003-005-----0
  6
CONTINUOUS
  5
217
 10
339.280529
 20
302.510976
 30
0.0
 11
342.280529
 21
305.510976
 31
0.0
  0
LINE
  8
LC-003-005-----0
  6
CONTINUOUS
  5
218
 10
339.280529
 20
305.339403
 30
0.0
 11
342.280529
 21
308.339403
 31
0.0
  0
LINE
  8
LC-003-005-----0
  6
CONTINUOUS
  5
219
 10
339.280529
 20
308.16783
 30
0.0
 11
342.280529
 21
311.16783
 31
0.0
  0
LINE
  8
LC-003-005-----0
  6
CONTINUOUS
  5
21A
 10
339.280529
 20
310.996257
 30
0.0
 11
342.280529
 21
313.996257
 31
0.0
  0
LINE
  8
LC-003-005-----0
  6
CONTINUOUS
  5
21B
 10
339.280529
 20
313.824684
 30
0.0
 11
342.280529
 21
316.824684
 31
0.0
  0
LINE
  8
LC-003-005-----0
  6
CONTINUOUS
  5
21C
 10
339.280154
 20
316.652737
 30
0.0
 11
342.280529
 21
319.653112
 31
0.0
  0
LINE
  8
LC-003-005-----0
  6
CONTINUOUS
  5
21D
 10
336.451727
 20
316.652737
 30
0.0
 11
339.453108
 21
319.654118
 31
0.0
  0
LINE
  8
LC-003-005-----0
  6
CONTINUOUS
  5
21E
 10
333.6233
 20
316.652737
 30
0.0
 11
336.624681
 21
319.654118
 31
0.0
  0
LINE
  8
LC-003-005-----0
  6
CONTINUOUS
  5
21F
 10
330.794873
 20
316.652737
 30
0.0
 11
334.280416
 21
320.138281
 31
0.0
  0
LINE
  8
LC-003-005-----0
  6
CONTINUOUS
  5
220
 10
327.4996
 20
316.185892
 30
0.0
 11
334.280416
 21
322.966708
 31
0.0
  0
LINE
  8
LC-003-005-----0
  6
CONTINUOUS
  5
221
 10
324.139704
 20
315.654422
 30
0.0
 11
325.638709
 21
317.153427
 31
0.0
  0
LINE
  8
LC-003-005-----0
  6
CONTINUOUS
  5
222
 10
326.780039
 20
318.294758
 30
0.0
 11
334.280416
 21
325.795135
 31
0.0
  0
LINE
  8
LC-003-005-----0
  6
CONTINUOUS
  5
223
 10
321.659704
 20
316.00285
 30
0.0
 11
322.810282
 21
317.153427
 31
0.0
  0
LINE
  8
LC-003-005-----0
  6
CONTINUOUS
  5
224
 10
326.780039
 20
321.123185
 30
0.0
 11
334.280416
 21
328.623562
 31
0.0
  0
LINE
  8
LC-003-005-----0
  6
CONTINUOUS
  5
225
 10
319.481164
 20
316.652737
 30
0.0
 11
321.780039
 21
318.951612
 31
0.0
  0
LINE
  8
LC-003-005-----0
  6
CONTINUOUS
  5
226
 10
326.780039
 20
323.951612
 30
0.0
 11
334.280416
 21
331.451989
 31
0.0
  0
LINE
  8
LC-003-005-----0
  6
CONTINUOUS
  5
227
 10
318.280007
 20
318.280007
 30
0.0
 11
321.780039
 21
321.780039
 31
0.0
  0
LINE
  8
LC-003-005-----0
  6
CONTINUOUS
  5
228
 10
326.780039
 20
326.780039
 30
0.0
 11
330.154118
 21
330.154118
 31
0.0
  0
LINE
  8
LC-003-005-----0
  6
CONTINUOUS
  5
229
 10
330.280529
 20
330.280529
 30
0.0
 11
331.653139
 21
331.653139
 31
0.0
  0
LINE
  8
LC-002-002-----0
  6
CONTINUOUS
  5
22A
 10
334.780535
 20
331.651724
 30
0.0
 11
336.280518
 21
331.651733
 31
0.0
  0
LINE
  8
LC-003-005-----0
  6
CONTINUOUS
  5
22B
 10
318.280007
 20
321.108434
 30
0.0
 11
321.780039
 21
324.608466
 31
0.0
  0
LINE
  8
LC-003-005-----0
  6
CONTINUOUS
  5
22C
 10
326.780039
 20
329.608466
 30
0.0
 11
328.280039
 21
331.108466
 31
0.0
  0
LINE
  8
LC-002-002-----0
  6
DASHDOT
 62
     2
  5
22D
 10
464.281018
 20
337.972479
 30
0.0
 11
464.281018
 21
317.151724
 31
0.0
  0
LINE
  8
LC-003-005-----0
  6
CONTINUOUS
  5
22E
 10
318.280007
 20
323.936861
 30
0.0
 11
321.780039
 21
327.436893
 31
0.0
  0
LINE
  8
LC-003-005-----0
  6
CONTINUOUS
  5
22F
 10
315.668836
 20
324.154118
 30
0.0
 11
318.168836
 21
326.654118
 31
0.0
  0
LINE
  8
LC-003-005-----0
  6
CONTINUOUS
  5
230
 10
318.280529
 20
326.76581
 30
0.0
 11
321.780039
 21
330.265321
 31
0.0
  0
LINE
  8
LC-003-005-----0
  6
CONTINUOUS
  5
231
 10
312.840409
 20
324.154118
 30
0.0
 11
315.340409
 21
326.654118
 31
0.0
  0
LINE
  8
LC-003-005-----0
  6
CONTINUOUS
  5
232
 10
318.280529
 20
329.594237
 30
0.0
 11
318.840409
 21
330.154118
 31
0.0
  0
LINE
  8
LC-003-005-----0
  6
CONTINUOUS
  5
233
 10
319.19873
 20
330.512438
 30
0.0
 11
319.302446
 21
330.616155
 31
0.0
  0
LINE
  8
LC-003-005-----0
  6
CONTINUOUS
  5
234
 10
320.280039
 20
331.593748
 30
0.0
 11
320.339719
 21
331.653427
 31
0.0
  0
LINE
  8
LC-003-005-----0
  6
CONTINUOUS
  5
235
 10
310.645995
 20
324.78813
 30
0.0
 11
312.511982
 21
326.654118
 31
0.0
  0
LINE
  8
LC-003-005-----0
  6
CONTINUOUS
  5
236
 10
309.231781
 20
326.202344
 30
0.0
 11
311.280007
 21
328.25057
 31
0.0
  0
LINE
  8
LC-003-005-----0
  6
CONTINUOUS
  5
237
 10
307.278595
 20
327.077585
 30
0.0
 11
310.355128
 21
330.154118
 31
0.0
  0
LINE
  8
LC-003-005-----0
  6
CONTINUOUS
  5
238
 10
305.112545
 20
327.739962
 30
0.0
 11
307.937351
 21
330.564768
 31
0.0
  0
LINE
  8
LC-003-005-----0
  6
CONTINUOUS
  5
239
 10
302.946494
 20
328.402338
 30
0.0
 11
305.771187
 21
331.227031
 31
0.0
  0
LINE
  8
LC-003-005-----0
  6
CONTINUOUS
  5
23A
 10
300.780444
 20
329.064715
 30
0.0
 11
303.605023
 21
331.889294
 31
0.0
  0
LINE
  8
LC-003-005-----0
  6
CONTINUOUS
  5
23B
 10
298.614393
 20
329.727091
 30
0.0
 11
301.438859
 21
332.551557
 31
0.0
  0
LINE
  8
LC-003-005-----0
  6
CONTINUOUS
  5
23C
 10
296.448343
 20
330.389468
 30
0.0
 11
299.272694
 21
333.21382
 31
0.0
  0
LINE
  8
LC-003-005-----0
  6
CONTINUOUS
  5
23D
 10
294.282292
 20
331.051845
 30
0.0
 11
297.10653
 21
333.876083
 31
0.0
  0
LINE
  8
LC-003-005-----0
  6
CONTINUOUS
  5
23E
 10
292.116241
 20
331.714221
 30
0.0
 11
294.940366
 21
334.538346
 31
0.0
  0
LINE
  8
LC-003-005-----0
  6
CONTINUOUS
  5
23F
 10
289.950191
 20
332.376598
 30
0.0
 11
292.774202
 21
335.200608
 31
0.0
  0
LINE
  8
LC-003-005-----0
  6
CONTINUOUS
  5
240
 10
287.559538
 20
332.814372
 30
0.0
 11
290.608037
 21
335.862871
 31
0.0
  0
LINE
  8
LC-003-005-----0
  6
CONTINUOUS
  5
241
 10
284.834765
 20
332.918026
 30
0.0
 11
288.295778
 21
336.379039
 31
0.0
  0
LINE
  8
LC-003-005-----0
  6
CONTINUOUS
  5
242
 10
282.109992
 20
333.02168
 30
0.0
 11
285.558091
 21
336.469779
 31
0.0
  0
LINE
  8
LC-003-005-----0
  6
CONTINUOUS
  5
243
 10
279.385218
 20
333.125334
 30
0.0
 11
282.820404
 21
336.560519
 31
0.0
  0
LINE
  8
LC-003-005-----0
  6
CONTINUOUS
  5
244
 10
446.280529
 20
121.011409
 30
0.0
 11
449.280529
 21
124.011409
 31
0.0
  0
LINE
  8
LC-003-005-----0
  6
CONTINUOUS
  5
245
 10
446.280529
 20
123.839836
 30
0.0
 11
449.280529
 21
126.839836
 31
0.0
  0
LINE
  8
LC-003-005-----0
  6
CONTINUOUS
  5
246
 10
446.280529
 20
126.668264
 30
0.0
 11
449.280529
 21
129.668264
 31
0.0
  0
LINE
  8
LC-003-005-----0
  6
CONTINUOUS
  5
247
 10
446.280529
 20
129.496691
 30
0.0
 11
449.280529
 21
132.496691
 31
0.0
  0
LINE
  8
LC-003-005-----0
  6
CONTINUOUS
  5
248
 10
446.280529
 20
132.325118
 30
0.0
 11
449.280529
 21
135.325118
 31
0.0
  0
LINE
  8
LC-002-002-----0
  6
CONTINUOUS
  5
249
 10
333.280416
 20
331.654118
 30
0.0
 11
334.280416
 21
331.654118
 31
0.0
  0
LINE
  8
LC-003-005-----0
  6
CONTINUOUS
  5
24A
 10
446.280529
 20
135.153545
 30
0.0
 11
449.280529
 21
138.153545
 31
0.0
  0
LINE
  8
LC-003-005-----0
  6
CONTINUOUS
  5
24B
 10
446.280529
 20
137.981972
 30
0.0
 11
449.280529
 21
140.981972
 31
0.0
  0
LINE
  8
LC-003-005-----0
  6
CONTINUOUS
  5
24C
 10
446.280529
 20
140.810399
 30
0.0
 11
449.280529
 21
143.810399
 31
0.0
  0
LINE
  8
LC-003-005-----0
  6
CONTINUOUS
  5
24D
 10
446.280529
 20
143.638826
 30
0.0
 11
449.280529
 21
146.638826
 31
0.0
  0
LINE
  8
LC-003-005-----0
  6
CONTINUOUS
  5
24E
 10
446.280529
 20
146.467253
 30
0.0
 11
449.280529
 21
149.467253
 31
0.0
  0
LINE
  8
LC-003-005-----0
  6
CONTINUOUS
  5
24F
 10
446.280529
 20
149.29568
 30
0.0
 11
449.280529
 21
152.29568
 31
0.0
  0
LINE
  8
LC-003-005-----0
  6
CONTINUOUS
  5
250
 10
446.280529
 20
152.124108
 30
0.0
 11
449.280529
 21
155.124108
 31
0.0
  0
LINE
  8
LC-002-002-----0
  6
CONTINUOUS
  5
251
 10
453.780522
 20
331.651724
 30
0.0
 11
452.280539
 21
331.651733
 31
0.0
  0
LINE
  8
LC-003-005-----0
  6
CONTINUOUS
  5
252
 10
446.280529
 20
154.952535
 30
0.0
 11
449.280529
 21
157.952535
 31
0.0
  0
LINE
  8
LC-003-005-----0
  6
CONTINUOUS
  5
253
 10
446.280529
 20
157.780962
 30
0.0
 11
449.280529
 21
160.780962
 31
0.0
  0
LINE
  8
LC-003-005-----0
  6
CONTINUOUS
  5
254
 10
446.280529
 20
160.609389
 30
0.0
 11
449.280529
 21
163.609389
 31
0.0
  0
LINE
  8
LC-003-005-----0
  6
CONTINUOUS
  5
255
 10
446.280529
 20
163.437816
 30
0.0
 11
449.280529
 21
166.437816
 31
0.0
  0
ARC
  8
LC-007-002-RND-0
  6
CONTINUOUS
  5
256
 10
469.259835
 20
333.951627
 30
0.0
 40
0.7
 50
45.0
 51
89.999642
  0
LINE
  8
LC-003-005-----0
  6
CONTINUOUS
  5
257
 10
446.280529
 20
166.266243
 30
0.0
 11
449.280529
 21
169.266243
 31
0.0
  0
LINE
  8
LC-003-005-----0
  6
CONTINUOUS
  5
258
 10
446.280529
 20
169.09467
 30
0.0
 11
449.280529
 21
172.09467
 31
0.0
  0
LINE
  8
LC-003-005-----0
  6
CONTINUOUS
  5
259
 10
446.280529
 20
171.923097
 30
0.0
 11
449.280529
 21
174.923097
 31
0.0
  0
LINE
  8
LC-003-005-----0
  6
CONTINUOUS
  5
25A
 10
446.280529
 20
174.751525
 30
0.0
 11
449.280529
 21
177.751525
 31
0.0
  0
LINE
  8
LC-003-005-----0
  6
CONTINUOUS
  5
25B
 10
446.280529
 20
177.579952
 30
0.0
 11
449.280529
 21
180.579952
 31
0.0
  0
LINE
  8
LC-002-002-----0
  6
DASHDOT
 62
     2
  5
25C
 10
324.280039
 20
338.119652
 30
0.0
 11
324.280039
 21
317.151724
 31
0.0
  0
LINE
  8
LC-003-005-----0
  6
CONTINUOUS
  5
25D
 10
446.280529
 20
180.408379
 30
0.0
 11
449.280529
 21
183.408379
 31
0.0
  0
LINE
  8
LC-003-005-----0
  6
CONTINUOUS
  5
25E
 10
446.280529
 20
183.236806
 30
0.0
 11
449.280529
 21
186.236806
 31
0.0
  0
LINE
  8
LC-003-005-----0
  6
CONTINUOUS
  5
25F
 10
446.280529
 20
186.065233
 30
0.0
 11
449.280529
 21
189.065233
 31
0.0
  0
LINE
  8
LC-002-002-----0
  6
CONTINUOUS
  5
260
 10
321.281316
 20
333.95164
 30
0.0
 11
320.530044
 21
333.951635
 31
0.0
  0
ARC
  8
LC-007-002-RND-0
  6
CONTINUOUS
  5
261
 10
458.281014
 20
333.951696
 30
0.0
 40
0.7
 50
89.999642
 51
143.129973
  0
LINE
  8
LC-003-005-----0
  6
CONTINUOUS
  5
262
 10
446.280529
 20
188.89366
 30
0.0
 11
449.280529
 21
191.89366
 31
0.0
  0
ARC
  8
LC-007-002-RND-0
  6
CONTINUOUS
  5
263
 10
457.181016
 20
333.651703
 30
0.0
 40
0.7
 50
269.999642
 51
323.129973
  0
LINE
  8
LC-002-002-----0
  6
CONTINUOUS
  5
264
 10
470.281018
 20
336.151675
 30
0.0
 11
458.282278
 21
336.151642
 31
0.0
  0
LINE
  8
LC-003-005-----0
  6
CONTINUOUS
  5
265
 10
446.280529
 20
191.722087
 30
0.0
 11
449.280529
 21
194.722087
 31
0.0
  0
LINE
  8
LC-003-005-----0
  6
CONTINUOUS
  5
266
 10
446.280529
 20
194.550514
 30
0.0
 11
449.280529
 21
197.550514
 31
0.0
  0
LINE
  8
LC-009-004-----0
  6
CONTINUOUS
  5
268
 10
470.281018
 20
334.651675
 30
0.0
 11
464.281018
 21
334.651658
 31
0.0
  0
LINE
  8
LC-003-005-----0
  6
CONTINUOUS
  5
269
 10
446.280529
 20
197.378942
 30
0.0
 11
449.280529
 21
200.378942
 31
0.0
  0
LINE
  8
LC-003-005-----0
  6
CONTINUOUS
  5
26A
 10
446.280529
 20
200.207369
 30
0.0
 11
449.280529
 21
203.207369
 31
0.0
  0
LINE
  8
LC-003-005-----0
  6
CONTINUOUS
  5
26B
 10
446.280529
 20
203.035796
 30
0.0
 11
449.280529
 21
206.035796
 31
0.0
  0
LINE
  8
LC-009-004-----0
  6
CONTINUOUS
  5
26C
 10
467.281018
 20
334.651666
 30
0.0
 11
467.28105
 21
322.651667
 31
0.0
  0
LINE
  8
LC-009-004-----0
  6
CONTINUOUS
  5
26D
 10
467.28105
 20
322.651667
 30
0.0
 11
464.281064
 21
317.651659
 31
0.0
  0
LINE
  8
LC-009-004-----0
  6
CONTINUOUS
 62
     2
  5
26E
 10
467.281022
 20
333.151666
 30
0.0
 11
466.281022
 21
333.151664
 31
0.0
  0
LINE
  8
LC-003-005-----0
  6
CONTINUOUS
  5
26F
 10
446.280529
 20
205.864223
 30
0.0
 11
449.280529
 21
208.864223
 31
0.0
  0
LINE
  8
LC-003-005-----0
  6
CONTINUOUS
  5
270
 10
446.280529
 20
208.69265
 30
0.0
 11
449.280529
 21
211.69265
 31
0.0
  0
ARC
  8
LC-007-002-RND-0
  6
CONTINUOUS
  5
271
 10
319.301222
 20
333.951627
 30
0.0
 40
0.7
 50
90.000358
 51
135.0
  0
LINE
  8
LC-003-005-----0
  6
CONTINUOUS
  5
272
 10
446.280529
 20
211.521077
 30
0.0
 11
449.280529
 21
214.521077
 31
0.0
  0
LINE
  8
LC-003-005-----0
  6
CONTINUOUS
  5
273
 10
446.280529
 20
214.349504
 30
0.0
 11
449.280529
 21
217.349504
 31
0.0
  0
LINE
  8
LC-003-005-----0
  6
CONTINUOUS
  5
274
 10
446.280529
 20
217.177931
 30
0.0
 11
449.280529
 21
220.177931
 31
0.0
  0
LINE
  8
LC-003-005-----0
  6
CONTINUOUS
  5
275
 10
446.280529
 20
220.006359
 30
0.0
 11
449.280529
 21
223.006359
 31
0.0
  0
LINE
  8
LC-003-005-----0
  6
CONTINUOUS
  5
276
 10
446.280529
 20
222.834786
 30
0.0
 11
449.280529
 21
225.834786
 31
0.0
  0
LINE
  8
LC-003-005-----0
  6
CONTINUOUS
  5
277
 10
446.280529
 20
225.663213
 30
0.0
 11
449.280529
 21
228.663213
 31
0.0
  0
LINE
  8
LC-002-002-----0
  6
CONTINUOUS
  5
278
 10
457.181016
 20
333.651703
 30
0.0
 11
457.721015
 21
334.371697
 31
0.0
  0
LINE
  8
LC-003-005-----0
  6
CONTINUOUS
  5
279
 10
446.280529
 20
228.49164
 30
0.0
 11
449.280529
 21
231.49164
 31
0.0
  0
LINE
  8
LC-003-005-----0
  6
CONTINUOUS
  5
27A
 10
446.280529
 20
231.320067
 30
0.0
 11
449.280529
 21
234.320067
 31
0.0
  0
LINE
  8
LC-003-005-----0
  6
CONTINUOUS
  5
27B
 10
446.280529
 20
234.148494
 30
0.0
 11
449.280529
 21
237.148494
 31
0.0
  0
LINE
  8
LC-003-005-----0
  6
CONTINUOUS
  5
27C
 10
446.280529
 20
236.976921
 30
0.0
 11
449.280529
 21
239.976921
 31
0.0
  0
LINE
  8
LC-002-002-----0
  6
CONTINUOUS
  5
27D
 10
471.780789
 20
330.902414
 30
0.0
 11
470.780789
 21
329.902414
 31
0.0
  0
LINE
  8
LC-003-005-----0
  6
CONTINUOUS
  5
27E
 10
446.280529
 20
239.805348
 30
0.0
 11
449.280529
 21
242.805348
 31
0.0
  0
LINE
  8
LC-003-005-----0
  6
CONTINUOUS
  5
27F
 10
446.280529
 20
242.633776
 30
0.0
 11
449.280529
 21
245.633776
 31
0.0
  0
LINE
  8
LC-003-005-----0
  6
CONTINUOUS
  5
280
 10
446.280529
 20
245.462203
 30
0.0
 11
449.280529
 21
248.462203
 31
0.0
  0
LINE
  8
LC-003-005-----0
  6
CONTINUOUS
  5
281
 10
446.280529
 20
248.29063
 30
0.0
 11
449.280529
 21
251.29063
 31
0.0
  0
LINE
  8
LC-003-005-----0
  6
CONTINUOUS
  5
282
 10
446.280529
 20
251.119057
 30
0.0
 11
449.280529
 21
254.119057
 31
0.0
  0
LINE
  8
LC-003-005-----0
  6
CONTINUOUS
  5
283
 10
446.280529
 20
253.947484
 30
0.0
 11
449.280529
 21
256.947484
 31
0.0
  0
LINE
  8
LC-003-005-----0
  6
CONTINUOUS
  5
284
 10
446.280529
 20
256.775911
 30
0.0
 11
449.280529
 21
259.775911
 31
0.0
  0
LINE
  8
LC-002-002-----0
  6
CONTINUOUS
  5
285
 10
471.780789
 20
326.902414
 30
0.0
 11
470.780789
 21
327.902414
 31
0.0
  0
LINE
  8
LC-002-002-----0
  6
CONTINUOUS
  5
286
 10
329.569204
 20
330.154118
 30
0.0
 11
329.280529
 21
330.654118
 31
0.0
  0
LINE
  8
LC-002-002-----0
  6
CONTINUOUS
  5
287
 10
329.280529
 20
330.654118
 30
0.0
 11
328.991853
 21
330.154118
 31
0.0
  0
LINE
  8
LC-002-002-----0
  6
CONTINUOUS
  5
288
 10
476.780789
 20
329.902414
 30
0.0
 11
475.780789
 21
330.902414
 31
0.0
  0
LINE
  8
LC-002-002-----0
  6
CONTINUOUS
  5
289
 10
328.991853
 20
330.154118
 30
0.0
 11
328.280039
 21
330.154118
 31
0.0
  0
LINE
  8
LC-002-002-----0
  6
CONTINUOUS
  5
28A
 10
319.280529
 20
330.654118
 30
0.0
 11
318.991853
 21
330.154118
 31
0.0
  0
LINE
  8
LC-002-002-----0
  6
CONTINUOUS
  5
28B
 10
319.569204
 20
330.154118
 30
0.0
 11
319.280529
 21
330.654118
 31
0.0
  0
LINE
  8
LC-002-002-----0
  6
CONTINUOUS
  5
28C
 10
318.991853
 20
330.154118
 30
0.0
 11
318.280529
 21
330.154118
 31
0.0
  0
LINE
  8
LC-002-002-----0
  6
CONTINUOUS
  5
28D
 10
468.281018
 20
330.154118
 30
0.0
 11
468.991853
 21
330.154118
 31
0.0
  0
LINE
  8
LC-002-002-----0
  6
CONTINUOUS
  5
28E
 10
475.780789
 20
330.902414
 30
0.0
 11
475.425127
 21
330.902414
 31
0.0
  0
LINE
  8
LC-002-002-----0
  6
CONTINUOUS
  5
28F
 10
321.780039
 20
317.153427
 30
0.0
 11
326.780039
 21
317.153427
 31
0.0
  0
ARC
  8
LC-007-002-RND-0
  6
CONTINUOUS
  5
290
 10
330.280044
 20
333.951696
 30
0.0
 40
0.7
 50
36.870027
 51
90.000358
  0
LINE
  8
LC-002-002-----0
  6
CONTINUOUS
  5
291
 10
457.181012
 20
332.951703
 30
0.0
 11
452.280524
 21
332.951733
 31
0.0
  0
LINE
  8
LC-002-002-----0
  6
CONTINUOUS
  5
292
 10
460.531014
 20
333.951682
 30
0.0
 11
461.282279
 21
333.951677
 31
0.0
  0
LINE
  8
LC-002-002-----0
  6
CONTINUOUS
  5
293
 10
477.204008
 20
331.451759
 30
0.0
 11
472.173896
 21
331.45177
 31
0.0
  0
LINE
  8
LC-002-002-----0
  6
CONTINUOUS
  5
294
 10
477.204008
 20
331.451759
 30
0.0
 11
497.595712
 21
335.786241
 31
0.0
  0
LINE
  8
LC-002-002-----0
  6
CONTINUOUS
  5
295
 10
454.280641
 20
319.654118
 30
0.0
 11
446.280529
 21
319.654118
 31
0.0
  0
LINE
  8
LC-002-002-----0
  6
CONTINUOUS
  5
296
 10
468.031014
 20
334.651635
 30
0.0
 11
460.531014
 21
334.651682
 31
0.0
  0
LINE
  8
LC-002-002-----0
  6
CONTINUOUS
  5
297
 10
449.280529
 20
316.653427
 30
0.0
 11
449.280529
 21
316.653427
 31
0.0
  0
ARC
  8
LC-007-002-RND-0
  6
CONTINUOUS
  5
298
 10
331.380041
 20
333.651703
 30
0.0
 40
0.7
 50
216.870027
 51
270.000358
  0
LINE
  8
LC-002-002-----0
  6
CONTINUOUS
  5
299
 10
446.280529
 20
319.654118
 30
0.0
 11
446.380529
 21
319.654118
 31
0.0
  0
LINE
  8
LC-002-002-----0
  6
CONTINUOUS
  5
29A
 10
458.280529
 20
331.654118
 30
0.0
 11
458.280529
 21
330.154118
 31
0.0
  0
LINE
  8
LC-002-002-----0
  6
CONTINUOUS
  5
29B
 10
470.280529
 20
330.154118
 30
0.0
 11
470.280529
 21
326.654118
 31
0.0
  0
LINE
  8
LC-002-002-----0
  6
CONTINUOUS
  5
29C
 10
458.280529
 20
330.154118
 30
0.0
 11
458.991853
 21
330.154118
 31
0.0
  0
LINE
  8
LC-002-002-----0
  6
CONTINUOUS
  5
29D
 10
470.28105
 20
326.654118
 30
0.0
 11
477.28105
 21
326.654118
 31
0.0
  0
LINE
  8
LC-002-002-----0
  6
CONTINUOUS
  5
29E
 10
477.28105
 20
326.654118
 30
0.0
 11
477.28105
 21
330.154118
 31
0.0
  0
LINE
  8
LC-002-002-----0
  6
CONTINUOUS
  5
29F
 10
470.28105
 20
324.154118
 30
0.0
 11
477.28105
 21
324.154118
 31
0.0
  0
LINE
  8
LC-002-002-----0
  6
CONTINUOUS
  5
2A0
 10
477.28105
 20
324.154118
 30
0.0
 11
479.729677
 21
326.602745
 31
0.0
  0
ARC
  8
LC-007-002-RND-0
  6
CONTINUOUS
  5
2A1
 10
472.173906
 20
332.45177
 30
0.0
 40
1.0
 50
225.0
 51
269.999425
  0
ARC
  8
LC-007-002-RND-0
  6
CONTINUOUS
  5
2A2
 10
479.29094
 20
330.865795
 30
0.0
 40
1.0
 50
101.228794
 51
108.020284
  0
LINE
  8
LC-002-002-----0
  6
CONTINUOUS
  5
2A3
 10
455.280641
 20
331.654118
 30
0.0
 11
454.280641
 21
331.654118
 31
0.0
  0
LINE
  8
LC-009-004-----0
  6
CONTINUOUS
 62
     2
  5
2A4
 10
466.281022
 20
333.151664
 30
0.0
 11
466.281054
 21
321.151664
 31
0.0
  0
LINE
  8
LC-002-002-----0
  6
CONTINUOUS
  5
2A5
 10
469.259835
 20
333.951627
 30
0.0
 11
471.4668
 21
331.744663
 31
0.0
  0
LINE
  8
LC-002-002-----0
  6
CONTINUOUS
  5
2A6
 10
470.780789
 20
327.902414
 30
0.0
 11
470.780789
 21
329.902414
 31
0.0
  0
LINE
  8
LC-002-002-----0
  6
CONTINUOUS
  5
2A7
 10
476.780789
 20
329.902414
 30
0.0
 11
476.780789
 21
327.902414
 31
0.0
  0
LINE
  8
LC-002-002-----0
  6
CONTINUOUS
  5
2A8
 10
476.780789
 20
327.902414
 30
0.0
 11
475.780789
 21
326.902414
 31
0.0
  0
LINE
  8
LC-002-002-----0
  6
CONTINUOUS
  5
2A9
 10
472.280789
 20
331.152414
 30
0.0
 11
472.425127
 21
330.902414
 31
0.0
  0
LINE
  8
LC-002-002-----0
  6
CONTINUOUS
  5
2AA
 10
472.136452
 20
330.902414
 30
0.0
 11
472.280789
 21
331.152414
 31
0.0
  0
LINE
  8
LC-002-002-----0
  6
CONTINUOUS
  5
2AB
 10
473.636452
 20
330.902414
 30
0.0
 11
473.780789
 21
331.152414
 31
0.0
  0
LINE
  8
LC-002-002-----0
  6
CONTINUOUS
  5
2AC
 10
499.775239
 20
337.652202
 30
0.0
 11
498.995611
 21
337.652201
 31
0.0
  0
ARC
  8
LC-002-002-----0
  6
CONTINUOUS
  5
2AD
 10
452.280522
 20
332.651733
 30
0.0
 40
1.0
 50
89.998287
 51
270.000997
  0
ARC
  8
LC-002-002-----0
  6
CONTINUOUS
  5
2AE
 10
496.96627
 20
338.705621
 30
0.0
 40
3.0
 50
282.000248
 51
339.442977
  0
LINE
  8
LC-002-002-----0
  6
CONTINUOUS
  5
2AF
 10
475.136452
 20
330.902414
 30
0.0
 11
475.280789
 21
331.152414
 31
0.0
  0
LINE
  8
LC-002-002-----0
  6
CONTINUOUS
  5
2B0
 10
475.280789
 20
326.652414
 30
0.0
 11
475.425127
 21
326.902414
 31
0.0
  0
LINE
  8
LC-002-002-----0
  6
CONTINUOUS
  5
2B1
 10
457.741015
 20
333.231701
 30
0.0
 11
458.281014
 21
333.951696
 31
0.0
  0
LINE
  8
LC-002-002-----0
  6
CONTINUOUS
  5
2B2
 10
473.780789
 20
326.652414
 30
0.0
 11
473.925127
 21
326.902414
 31
0.0
  0
LINE
  8
LC-002-002-----0
  6
CONTINUOUS
  5
2B3
 10
472.280789
 20
326.652414
 30
0.0
 11
472.425127
 21
326.902414
 31
0.0
  0
LINE
  8
LC-002-002-----0
  6
CONTINUOUS
  5
2B4
 10
452.28052
 20
332.351733
 30
0.0
 11
453.780522
 21
332.351724
 31
0.0
  0
LINE
  8
LC-002-002-----0
  6
CONTINUOUS
  5
2B5
 10
453.780522
 20
332.351724
 30
0.0
 11
453.780522
 21
331.651724
 31
0.0
  0
ARC
  8
LC-002-002-----0
  6
CONTINUOUS
  5
2B6
 10
452.280522
 20
332.651733
 30
0.0
 40
0.3
 50
89.990988
 51
270.008296
  0
LINE
  8
LC-002-002-----0
  6
CONTINUOUS
  5
2B7
 10
326.780039
 20
321.817398
 30
0.0
 11
326.780039
 21
317.153427
 31
0.0
  0
LINE
  8
LC-002-002-----0
  6
CONTINUOUS
  5
2B8
 10
321.780039
 20
321.780039
 30
0.0
 11
321.780039
 21
317.153427
 31
0.0
  0
LINE
  8
LC-002-002-----0
  6
CONTINUOUS
  5
2B9
 10
318.280007
 20
324.154118
 30
0.0
 11
318.280007
 21
316.652737
 31
0.0
  0
LINE
  8
LC-002-002-----0
  6
CONTINUOUS
  5
2BA
 10
330.280529
 20
331.654118
 30
0.0
 11
333.280416
 21
331.654118
 31
0.0
  0
LINE
  8
LC-002-002-----0
  6
CONTINUOUS
  5
2BB
 10
311.280007
 20
330.154118
 30
0.0
 11
309.280529
 21
330.154118
 31
0.0
  0
LINE
  8
LC-002-002-----0
  6
CONTINUOUS
  5
2BC
 10
473.780789
 20
331.152414
 30
0.0
 11
473.925127
 21
330.902414
 31
0.0
  0
LINE
  8
LC-002-002-----0
  6
CONTINUOUS
  5
2BD
 10
458.991853
 20
330.154118
 30
0.0
 11
459.280529
 21
330.654118
 31
0.0
  0
LINE
  8
LC-002-002-----0
  6
CONTINUOUS
  5
2BE
 10
459.280529
 20
330.654118
 30
0.0
 11
459.569204
 21
330.154118
 31
0.0
  0
LINE
  8
LC-002-002-----0
  6
CONTINUOUS
  5
2BF
 10
459.569204
 20
330.154118
 30
0.0
 11
460.281018
 21
330.154118
 31
0.0
  0
LINE
  8
LC-002-002-----0
  6
CONTINUOUS
  5
2C0
 10
459.922099
 20
316.653447
 30
0.0
 11
449.280538
 21
316.653471
 31
0.0
  0
LINE
  8
LC-002-002-----0
  6
CONTINUOUS
  5
2C1
 10
475.280789
 20
331.152414
 30
0.0
 11
475.425127
 21
330.902414
 31
0.0
  0
LINE
  8
LC-003-005-----0
  6
CONTINUOUS
  5
2C2
 10
446.280529
 20
259.604338
 30
0.0
 11
449.280529
 21
262.604338
 31
0.0
  0
LINE
  8
LC-002-002-----0
  6
CONTINUOUS
  5
2C3
 10
331.380041
 20
333.651703
 30
0.0
 11
330.840043
 21
334.371697
 31
0.0
  0
LINE
  8
LC-002-002-----0
  6
CONTINUOUS
  5
2C4
 10
458.281014
 20
333.951696
 30
0.0
 11
460.531014
 21
333.951682
 31
0.0
  0
LINE
  8
LC-002-002-----0
  6
CONTINUOUS
  5
2C5
 10
460.531014
 20
333.951682
 30
0.0
 11
460.531014
 21
334.651682
 31
0.0
  0
LINE
  8
LC-002-002-----0
  6
CONTINUOUS
  5
2C6
 10
475.136452
 20
326.902414
 30
0.0
 11
475.280789
 21
326.652414
 31
0.0
  0
LINE
  8
LC-002-002-----0
  6
CONTINUOUS
  5
2C7
 10
473.636452
 20
326.902414
 30
0.0
 11
473.780789
 21
326.652414
 31
0.0
  0
LINE
  8
LC-009-004-----0
  6
CONTINUOUS
  5
2C8
 10
465.081009
 20
338.119652
 30
0.0
 11
465.081011
 21
337.15075
 31
0.0
  0
LINE
  8
LC-009-004-----0
  6
CONTINUOUS
  5
2C9
 10
467.28105
 20
322.651667
 30
0.0
 11
464.28105
 21
322.651658
 31
0.0
  0
LINE
  8
LC-009-004-----0
  6
CONTINUOUS
  5
2CA
 10
458.282279
 20
334.650745
 30
0.0
 11
464.282279
 21
334.650749
 31
0.0
  0
LINE
  8
LC-002-002-----0
  6
CONTINUOUS
  5
2CB
 10
472.136452
 20
326.902414
 30
0.0
 11
472.280789
 21
326.652414
 31
0.0
  0
LINE
  8
LC-002-002-----0
  6
CONTINUOUS
  5
2CC
 10
472.136452
 20
326.902414
 30
0.0
 11
471.780789
 21
326.902414
 31
0.0
  0
LINE
  8
LC-002-002-----0
  6
CONTINUOUS
  5
2CD
 10
460.531014
 20
334.651682
 30
0.0
 11
458.281018
 21
334.651696
 31
0.0
  0
LINE
  8
LC-009-004-----0
  6
CONTINUOUS
  5
2CE
 10
461.282279
 20
334.650747
 30
0.0
 11
461.282286
 21
322.650748
 31
0.0
  0
LINE
  8
LC-009-004-----0
  6
CONTINUOUS
  5
2CF
 10
461.282286
 20
322.650748
 30
0.0
 11
464.28229
 21
317.65075
 31
0.0
  0
LINE
  8
LC-002-002-----0
  6
CONTINUOUS
  5
2D0
 10
473.636452
 20
326.902414
 30
0.0
 11
472.425127
 21
326.902414
 31
0.0
  0
LINE
  8
LC-002-002-----0
  6
CONTINUOUS
  5
2D1
 10
475.136452
 20
326.902414
 30
0.0
 11
473.925127
 21
326.902414
 31
0.0
  0
LINE
  8
LC-009-004-----0
  6
CONTINUOUS
 62
     2
  5
2D2
 10
461.28228
 20
333.150747
 30
0.0
 11
466.281022
 21
333.150751
 31
0.0
  0
LINE
  8
LC-002-002-----0
  6
CONTINUOUS
  5
2D3
 10
318.281318
 20
336.151675
 30
0.0
 11
330.280059
 21
336.151642
 31
0.0
  0
LINE
  8
LC-009-004-----0
  6
CONTINUOUS
 62
     2
  5
2D4
 10
462.28228
 20
333.150748
 30
0.0
 11
462.282287
 21
321.150748
 31
0.0
  0
LINE
  8
LC-002-002-----0
  6
CONTINUOUS
  5
2D5
 10
475.136452
 20
330.902414
 30
0.0
 11
473.925127
 21
330.902414
 31
0.0
  0
LINE
  8
LC-002-002-----0
  6
CONTINUOUS
  5
2D6
 10
473.636452
 20
330.902414
 30
0.0
 11
472.425127
 21
330.902414
 31
0.0
  0
LINE
  8
LC-002-002-----0
  6
CONTINUOUS
  5
2D7
 10
334.280416
 20
331.654118
 30
0.0
 11
334.280416
 21
319.654118
 31
0.0
  0
LINE
  8
LC-002-002-----0
  6
CONTINUOUS
  5
2D8
 10
469.280529
 20
330.654118
 30
0.0
 11
469.569204
 21
330.154118
 31
0.0
  0
LINE
  8
LC-002-002-----0
  6
CONTINUOUS
  5
2D9
 10
468.991853
 20
330.154118
 30
0.0
 11
469.280529
 21
330.654118
 31
0.0
  0
LINE
  8
LC-002-002-----0
  6
CONTINUOUS
  5
2DA
 10
469.569204
 20
330.154118
 30
0.0
 11
470.280529
 21
330.154118
 31
0.0
  0
LINE
  8
LC-002-002-----0
  6
CONTINUOUS
  5
2DB
 10
466.781018
 20
317.153427
 30
0.0
 11
461.781018
 21
317.153427
 31
0.0
  0
LINE
  8
LC-002-002-----0
  6
CONTINUOUS
  5
2DC
 10
461.781018
 20
321.81953
 30
0.0
 11
461.781018
 21
317.153427
 31
0.0
  0
LINE
  8
LC-002-002-----0
  6
CONTINUOUS
  5
2DD
 10
466.781018
 20
321.818274
 30
0.0
 11
466.781018
 21
317.153427
 31
0.0
  0
LINE
  8
LC-002-002-----0
  6
CONTINUOUS
  5
2DE
 10
470.28105
 20
324.154118
 30
0.0
 11
470.28105
 21
316.652737
 31
0.0
  0
LINE
  8
LC-002-002-----0
  6
CONTINUOUS
  5
2DF
 10
458.280529
 20
331.654118
 30
0.0
 11
457.280641
 21
331.654118
 31
0.0
  0
LINE
  8
LC-002-002-----0
  6
CONTINUOUS
  5
2E0
 10
477.28105
 20
330.154118
 30
0.0
 11
479.280529
 21
330.154118
 31
0.0
  0
LINE
  8
LC-002-002-----0
  6
CONTINUOUS
  5
2E1
 10
454.280641
 20
331.654118
 30
0.0
 11
454.280641
 21
319.654118
 31
0.0
  0
LINE
  8
LC-002-002-----0
  6
CONTINUOUS
  5
2E2
 10
455.280641
 20
331.654118
 30
0.0
 11
457.280641
 21
331.654118
 31
0.0
  0
LINE
  8
LC-009-004-----0
  6
CONTINUOUS
  5
2E3
 10
463.482276
 20
338.119648
 30
0.0
 11
463.482277
 21
337.150749
 31
0.0
  0
LINE
  8
LC-009-004-----0
  6
CONTINUOUS
  5
2E4
 10
461.282286
 20
322.650748
 30
0.0
 11
464.282286
 21
322.65075
 31
0.0
  0
LINE
  8
LC-002-002-----0
  6
CONTINUOUS
  5
2E5
 10
472.136452
 20
330.902414
 30
0.0
 11
471.780789
 21
330.902414
 31
0.0
  0
LINE
  8
LC-009-004-----0
  6
CONTINUOUS
  5
2E6
 10
470.281014
 20
336.151675
 30
0.0
 11
470.281018
 21
334.651675
 31
0.0
  0
LINE
  8
LC-002-002-----0
  6
CONTINUOUS
  5
2E7
 10
469.259835
 20
333.951627
 30
0.0
 11
468.031014
 21
333.951635
 31
0.0
  0
LINE
  8
LC-002-002-----0
  6
CONTINUOUS
  5
2E8
 10
468.031014
 20
333.951635
 30
0.0
 11
468.031014
 21
334.651635
 31
0.0
  0
ARC
  8
LC-002-002-----0
  6
CONTINUOUS
  5
2E9
 10
464.281667
 20
328.153547
 30
0.0
 40
9.99811
 50
53.126659
 51
85.414352
  0
LINE
  8
LC-002-002-----0
  6
CONTINUOUS
  5
2EA
 10
463.482277
 20
337.150749
 30
0.0
 11
465.081011
 21
337.15075
 31
0.0
  0
LINE
  8
LC-009-004-----0
  6
CONTINUOUS
  5
2EB
 10
458.282278
 20
336.151642
 30
0.0
 11
458.282279
 21
334.650745
 31
0.0
  0
ARC
  8
LC-002-002-----0
  6
CONTINUOUS
  5
2EC
 10
464.281667
 20
328.153547
 30
0.0
 40
9.99811
 50
94.585934
 51
126.87365
  0
LINE
  8
LC-009-004-----0
  6
CONTINUOUS
  5
2ED
 10
318.281318
 20
334.651675
 30
0.0
 11
324.281318
 21
334.651658
 31
0.0
  0
LINE
  8
LC-009-004-----0
  6
CONTINUOUS
  5
2EE
 10
321.281318
 20
334.651666
 30
0.0
 11
321.281286
 21
322.651667
 31
0.0
  0
LINE
  8
LC-009-004-----0
  6
CONTINUOUS
  5
2EF
 10
321.281286
 20
322.651667
 30
0.0
 11
324.281272
 21
317.651659
 31
0.0
  0
LINE
  8
LC-009-004-----0
  6
CONTINUOUS
 62
     2
  5
2F0
 10
321.281314
 20
333.151666
 30
0.0
 11
322.281314
 21
333.151664
 31
0.0
  0
LINE
  8
LC-009-004-----0
  6
CONTINUOUS
 62
     2
  5
2F1
 10
322.281314
 20
333.151664
 30
0.0
 11
322.281282
 21
321.151664
 31
0.0
  0
LINE
  8
LC-009-004-----0
  6
CONTINUOUS
  5
2F2
 10
323.481327
 20
338.119652
 30
0.0
 11
323.481325
 21
337.15075
 31
0.0
  0
LINE
  8
LC-009-004-----0
  6
CONTINUOUS
  5
2F3
 10
321.281286
 20
322.651667
 30
0.0
 11
324.281286
 21
322.651658
 31
0.0
  0
LINE
  8
LC-009-004-----0
  6
CONTINUOUS
  5
2F4
 10
330.280058
 20
334.650745
 30
0.0
 11
324.280058
 21
334.650749
 31
0.0
  0
LINE
  8
LC-009-004-----0
  6
CONTINUOUS
  5
2F5
 10
327.280058
 20
334.650747
 30
0.0
 11
327.28005
 21
322.650748
 31
0.0
  0
LINE
  8
LC-009-004-----0
  6
CONTINUOUS
  5
2F6
 10
327.28005
 20
322.650748
 30
0.0
 11
324.280047
 21
317.65075
 31
0.0
  0
LINE
  8
LC-009-004-----0
  6
CONTINUOUS
 62
     2
  5
2F7
 10
327.280057
 20
333.150747
 30
0.0
 11
322.281314
 21
333.150751
 31
0.0
  0
LINE
  8
LC-009-004-----0
  6
CONTINUOUS
 62
     2
  5
2F8
 10
326.280057
 20
333.150748
 30
0.0
 11
326.280049
 21
321.150748
 31
0.0
  0
LINE
  8
LC-009-004-----0
  6
CONTINUOUS
  5
2F9
 10
325.08006
 20
338.119648
 30
0.0
 11
325.080059
 21
337.150749
 31
0.0
  0
LINE
  8
LC-009-004-----0
  6
CONTINUOUS
  5
2FA
 10
327.28005
 20
322.650748
 30
0.0
 11
324.28005
 21
322.65075
 31
0.0
  0
LINE
  8
LC-009-004-----0
  6
CONTINUOUS
  5
2FB
 10
318.281322
 20
336.151675
 30
0.0
 11
318.281318
 21
334.651675
 31
0.0
  0
ARC
  8
LC-002-002-----0
  6
CONTINUOUS
  5
2FC
 10
324.280669
 20
328.153547
 30
0.0
 40
9.99811
 50
94.585648
 51
126.873341
  0
LINE
  8
LC-002-002-----0
  6
CONTINUOUS
  5
2FD
 10
325.080059
 20
337.150749
 30
0.0
 11
323.481325
 21
337.15075
 31
0.0
  0
LINE
  8
LC-009-004-----0
  6
CONTINUOUS
  5
2FE
 10
330.280059
 20
336.151642
 30
0.0
 11
330.280058
 21
334.650745
 31
0.0
  0
ARC
  8
LC-002-002-----0
  6
CONTINUOUS
  5
2FF
 10
324.280669
 20
328.153547
 30
0.0
 40
9.99811
 50
53.12635
 51
85.414066
  0
LINE
  8
LC-003-005-----0
  6
CONTINUOUS
  5
300
 10
446.280529
 20
262.432765
 30
0.0
 11
449.280529
 21
265.432765
 31
0.0
  0
LINE
  8
LC-003-005-----0
  6
CONTINUOUS
  5
301
 10
446.280529
 20
265.261193
 30
0.0
 11
449.280529
 21
268.261193
 31
0.0
  0
LINE
  8
LC-003-005-----0
  6
CONTINUOUS
  5
302
 10
446.280529
 20
268.08962
 30
0.0
 11
449.280529
 21
271.08962
 31
0.0
  0
LINE
  8
LC-002-002-----0
  6
CONTINUOUS
  5
303
 10
316.780268
 20
330.902414
 30
0.0
 11
317.780268
 21
329.902414
 31
0.0
  0
LINE
  8
LC-003-005-----0
  6
CONTINUOUS
  5
304
 10
446.280529
 20
270.918047
 30
0.0
 11
449.280529
 21
273.918047
 31
0.0
  0
LINE
  8
LC-003-005-----0
  6
CONTINUOUS
  5
305
 10
508.460607
 20
333.098125
 30
0.0
 11
509.280529
 21
333.918047
 31
0.0
  0
LINE
  8
LC-003-005-----0
  6
CONTINUOUS
  5
306
 10
446.280529
 20
273.746474
 30
0.0
 11
449.280529
 21
276.746474
 31
0.0
  0
LINE
  8
LC-003-005-----0
  6
CONTINUOUS
  5
307
 10
505.520328
 20
332.986273
 30
0.0
 11
508.625099
 21
336.091044
 31
0.0
  0
LINE
  8
LC-003-005-----0
  6
CONTINUOUS
  5
308
 10
446.280529
 20
276.574901
 30
0.0
 11
449.280529
 21
279.574901
 31
0.0
  0
LINE
  8
LC-003-005-----0
  6
CONTINUOUS
  5
309
 10
502.580049
 20
332.874421
 30
0.0
 11
506.284161
 21
336.578533
 31
0.0
  0
LINE
  8
LC-003-005-----0
  6
CONTINUOUS
  5
30A
 10
446.280529
 20
279.403328
 30
0.0
 11
449.280529
 21
282.403328
 31
0.0
  0
LINE
  8
LC-003-005-----0
  6
CONTINUOUS
  5
30B
 10
499.537013
 20
332.659813
 30
0.0
 11
503.358772
 21
336.481572
 31
0.0
  0
LINE
  8
LC-003-005-----0
  6
CONTINUOUS
  5
30C
 10
446.280529
 20
282.231755
 30
0.0
 11
449.280529
 21
285.231755
 31
0.0
  0
LINE
  8
LC-003-005-----0
  6
CONTINUOUS
  5
30D
 10
495.462648
 20
331.413875
 30
0.0
 11
500.433384
 21
336.38461
 31
0.0
  0
LINE
  8
LC-003-005-----0
  6
CONTINUOUS
  5
30E
 10
446.280529
 20
285.060182
 30
0.0
 11
449.280529
 21
288.060182
 31
0.0
  0
LINE
  8
LC-003-005-----0
  6
CONTINUOUS
  5
30F
 10
491.388284
 20
330.167938
 30
0.0
 11
496.700188
 21
335.479842
 31
0.0
  0
LINE
  8
LC-003-005-----0
  6
CONTINUOUS
  5
310
 10
446.280529
 20
287.88861
 30
0.0
 11
449.280529
 21
290.88861
 31
0.0
  0
LINE
  8
LC-003-005-----0
  6
CONTINUOUS
  5
311
 10
487.313919
 20
328.922
 30
0.0
 11
492.626226
 21
334.234307
 31
0.0
  0
LINE
  8
LC-002-002-----0
  6
CONTINUOUS
  5
312
 10
316.780268
 20
326.902414
 30
0.0
 11
317.780268
 21
327.902414
 31
0.0
  0
LINE
  8
LC-002-002-----0
  6
CONTINUOUS
  5
313
 10
311.780268
 20
329.902414
 30
0.0
 11
312.780268
 21
330.902414
 31
0.0
  0
LINE
  8
LC-002-002-----0
  6
CONTINUOUS
  5
314
 10
312.780268
 20
326.902414
 30
0.0
 11
313.13593
 21
326.902414
 31
0.0
  0
LINE
  8
LC-003-005-----0
  6
CONTINUOUS
  5
315
 10
446.280529
 20
290.717037
 30
0.0
 11
449.280529
 21
293.717037
 31
0.0
  0
LINE
  8
LC-003-005-----0
  6
CONTINUOUS
  5
316
 10
483.239554
 20
327.676063
 30
0.0
 11
488.552264
 21
332.988772
 31
0.0
  0
LINE
  8
LC-003-005-----0
  6
CONTINUOUS
  5
317
 10
446.280529
 20
293.545464
 30
0.0
 11
449.280529
 21
296.545464
 31
0.0
  0
LINE
  8
LC-003-005-----0
  6
CONTINUOUS
  5
318
 10
469.387802
 20
316.652737
 30
0.0
 11
470.28105
 21
317.545986
 31
0.0
  0
LINE
  8
LC-003-005-----0
  6
CONTINUOUS
  5
319
 10
476.889183
 20
324.154118
 30
0.0
 11
484.478301
 21
331.743236
 31
0.0
  0
LINE
  8
LC-002-002-----0
  6
CONTINUOUS
  5
31A
 10
331.380045
 20
332.951703
 30
0.0
 11
336.280534
 21
332.951733
 31
0.0
  0
LINE
  8
LC-003-005-----0
  6
CONTINUOUS
  5
31B
 10
446.280529
 20
296.373891
 30
0.0
 11
449.280529
 21
299.373891
 31
0.0
  0
LINE
  8
LC-003-005-----0
  6
CONTINUOUS
  5
31C
 10
465.654903
 20
315.748265
 30
0.0
 11
470.28105
 21
320.374413
 31
0.0
  0
LINE
  8
LC-003-005-----0
  6
CONTINUOUS
  5
31D
 10
474.060755
 20
324.154118
 30
0.0
 11
476.560755
 21
326.654118
 31
0.0
  0
LINE
  8
LC-003-005-----0
  6
CONTINUOUS
  5
31E
 10
477.28105
 20
327.374413
 30
0.0
 11
480.404339
 21
330.497701
 31
0.0
  0
LINE
  8
LC-002-002-----0
  6
CONTINUOUS
  5
31F
 10
328.030044
 20
333.951682
 30
0.0
 11
327.346319
 21
333.951678
 31
0.0
  0
LINE
  8
LC-002-002-----0
  6
CONTINUOUS
  5
320
 10
468.031014
 20
334.651635
 30
0.0
 11
469.25984
 21
334.651627
 31
0.0
  0
LINE
  8
LC-002-002-----0
  6
CONTINUOUS
  5
321
 10
477.130434
 20
332.151759
 30
0.0
 11
497.441662
 21
336.469123
 31
0.0
  0
ARC
  8
LC-002-002-----0
  6
CONTINUOUS
  5
322
 10
496.96627
 20
338.705621
 30
0.0
 40
2.286465
 50
282.000248
 51
332.56643
  0
LINE
  8
LC-002-002-----0
  6
CONTINUOUS
  5
323
 10
311.357049
 20
331.451759
 30
0.0
 11
316.387161
 21
331.45177
 31
0.0
  0
LINE
  8
LC-002-002-----0
  6
CONTINUOUS
  5
324
 10
311.357049
 20
331.451759
 30
0.0
 11
290.965346
 21
335.786241
 31
0.0
  0
LINE
  8
LC-002-002-----0
  6
CONTINUOUS
  5
325
 10
320.530044
 20
334.651635
 30
0.0
 11
328.030044
 21
334.651682
 31
0.0
  0
ARC
  8
LC-007-002-RND-0
  6
CONTINUOUS
  5
326
 10
316.387151
 20
332.45177
 30
0.0
 40
1.0
 50
270.000575
 51
315.0
  0
ARC
  8
LC-007-002-RND-0
  6
CONTINUOUS
  5
327
 10
309.270117
 20
330.865795
 30
0.0
 40
1.0
 50
71.979716
 51
78.771206
  0
LINE
  8
LC-002-002-----0
  6
CONTINUOUS
  5
328
 10
319.301222
 20
333.951627
 30
0.0
 11
317.094258
 21
331.744663
 31
0.0
  0
LINE
  8
LC-002-002-----0
  6
CONTINUOUS
  5
329
 10
288.785818
 20
337.652202
 30
0.0
 11
289.565446
 21
337.652201
 31
0.0
  0
ARC
  8
LC-002-002-----0
  6
CONTINUOUS
  5
32A
 10
336.280535
 20
332.651733
 30
0.0
 40
1.0
 50
269.999003
 51
90.001713
  0
ARC
  8
LC-002-002-----0
  6
CONTINUOUS
  5
32B
 10
291.594788
 20
338.705621
 30
0.0
 40
3.0
 50
200.557023
 51
257.999752
  0
LINE
  8
LC-003-005-----0
  6
CONTINUOUS
  5
32C
 10
446.280529
 20
299.202318
 30
0.0
 11
449.280529
 21
302.202318
 31
0.0
  0
LINE
  8
LC-003-005-----0
  6
CONTINUOUS
  5
32D
 10
462.836526
 20
315.758315
 30
0.0
 11
464.231638
 21
317.153427
 31
0.0
  0
LINE
  8
LC-003-005-----0
  6
CONTINUOUS
  5
32E
 10
466.781018
 20
319.702808
 30
0.0
 11
470.28105
 21
323.20284
 31
0.0
  0
LINE
  8
LC-003-005-----0
  6
CONTINUOUS
  5
32F
 10
471.232328
 20
324.154118
 30
0.0
 11
473.732328
 21
326.654118
 31
0.0
  0
LINE
  8
LC-003-005-----0
  6
CONTINUOUS
  5
330
 10
446.280529
 20
302.030745
 30
0.0
 11
449.280529
 21
305.030745
 31
0.0
  0
LINE
  8
LC-003-005-----0
  6
CONTINUOUS
  5
331
 10
460.603845
 20
316.354061
 30
0.0
 11
461.781018
 21
317.531235
 31
0.0
  0
LINE
  8
LC-003-005-----0
  6
CONTINUOUS
  5
332
 10
466.781018
 20
322.531235
 30
0.0
 11
470.903901
 21
326.654118
 31
0.0
  0
LINE
  8
LC-003-005-----0
  6
CONTINUOUS
  5
333
 10
446.280529
 20
304.859172
 30
0.0
 11
449.280529
 21
307.859172
 31
0.0
  0
LINE
  8
LC-003-005-----0
  6
CONTINUOUS
  5
334
 10
458.074093
 20
316.652737
 30
0.0
 11
461.781018
 21
320.359662
 31
0.0
  0
LINE
  8
LC-003-005-----0
  6
CONTINUOUS
  5
335
 10
466.781018
 20
325.359662
 30
0.0
 11
470.280529
 21
328.859172
 31
0.0
  0
LINE
  8
LC-003-005-----0
  6
CONTINUOUS
  5
336
 10
446.280529
 20
307.687599
 30
0.0
 11
449.280529
 21
310.687599
 31
0.0
  0
LINE
  8
LC-003-005-----0
  6
CONTINUOUS
  5
337
 10
455.245666
 20
316.652737
 30
0.0
 11
461.781018
 21
323.188089
 31
0.0
  0
LINE
  8
LC-002-002-----0
  6
CONTINUOUS
  5
338
 10
469.75481
 20
334.446602
 30
0.0
 11
471.961774
 21
332.239638
 31
0.0
  0
ARC
  8
LC-002-002-----0
  6
CONTINUOUS
  5
339
 10
472.173906
 20
332.45177
 30
0.0
 40
0.3
 50
225.0
 51
269.999874
  0
LINE
  8
LC-002-002-----0
  6
CONTINUOUS
  5
33A
 10
472.173906
 20
332.15177
 30
0.0
 11
477.130434
 21
332.151759
 31
0.0
  0
LINE
  8
LC-002-002-----0
  6
CONTINUOUS
  5
33B
 10
330.820042
 20
333.231701
 30
0.0
 11
330.280044
 21
333.951696
 31
0.0
  0
LINE
  8
LC-002-002-----0
  6
CONTINUOUS
  5
33C
 10
336.280537
 20
332.351733
 30
0.0
 11
334.780535
 21
332.351724
 31
0.0
  0
LINE
  8
LC-002-002-----0
  6
CONTINUOUS
  5
33D
 10
334.780535
 20
332.351724
 30
0.0
 11
334.780535
 21
331.651724
 31
0.0
  0
ARC
  8
LC-002-002-----0
  6
CONTINUOUS
  5
33E
 10
336.280535
 20
332.651733
 30
0.0
 40
0.3
 50
269.991704
 51
90.009012
  0
LINE
  8
LC-002-002-----0
  6
CONTINUOUS
  5
33F
 10
330.280044
 20
333.951696
 30
0.0
 11
328.030044
 21
333.951682
 31
0.0
  0
LINE
  8
LC-003-005-----0
  6
CONTINUOUS
  5
340
 10
466.781018
 20
328.188089
 30
0.0
 11
468.747047
 21
330.154118
 31
0.0
  0
LINE
  8
LC-003-005-----0
  6
CONTINUOUS
  5
341
 10
446.280529
 20
310.516027
 30
0.0
 11
449.280529
 21
313.516027
 31
0.0
  0
LINE
  8
LC-002-002-----0
  6
CONTINUOUS
  5
342
 10
328.030044
 20
333.951682
 30
0.0
 11
328.030044
 21
334.651682
 31
0.0
  0
LINE
  8
LC-003-005-----0
  6
CONTINUOUS
  5
343
 10
452.417239
 20
316.652737
 30
0.0
 11
461.781018
 21
326.016516
 31
0.0
  0
LINE
  8
LC-002-002-----0
  6
CONTINUOUS
  5
344
 10
328.030044
 20
334.651682
 30
0.0
 11
330.280039
 21
334.651696
 31
0.0
  0
LINE
  8
LC-002-002-----0
  6
CONTINUOUS
  5
345
 10
452.280528
 20
333.651733
 30
0.0
 11
457.181016
 21
333.651703
 31
0.0
  0
LINE
  8
LC-002-002-----0
  6
CONTINUOUS
  5
346
 10
319.301222
 20
333.951627
 30
0.0
 11
320.530044
 21
333.951635
 31
0.0
  0
LINE
  8
LC-002-002-----0
  6
CONTINUOUS
  5
347
 10
320.530044
 20
333.951635
 30
0.0
 11
320.530044
 21
334.651635
 31
0.0
  0
LINE
  8
LC-002-002-----0
  6
CONTINUOUS
  5
348
 10
320.530044
 20
334.651635
 30
0.0
 11
319.301217
 21
334.651627
 31
0.0
  0
LINE
  8
LC-002-002-----0
  6
CONTINUOUS
  5
349
 10
311.430623
 20
332.151759
 30
0.0
 11
291.119395
 21
336.469123
 31
0.0
  0
LINE
  8
LC-003-005-----0
  6
CONTINUOUS
  5
34A
 10
466.781018
 20
331.016516
 30
0.0
 11
467.417929
 21
331.653427
 31
0.0
  0
ARC
  8
LC-002-002-----0
  6
CONTINUOUS
  5
34B
 10
291.594788
 20
338.705621
 30
0.0
 40
2.286465
 50
207.43357
 51
257.999752
  0
LINE
  8
LC-003-005-----0
  6
CONTINUOUS
  5
34C
 10
446.280529
 20
313.344454
 30
0.0
 11
449.280529
 21
316.344454
 31
0.0
  0
LINE
  8
LC-002-002-----0
  6
CONTINUOUS
  5
34D
 10
318.806247
 20
334.446602
 30
0.0
 11
316.599283
 21
332.239638
 31
0.0
  0
ARC
  8
LC-002-002-----0
  6
CONTINUOUS
  5
34E
 10
316.387151
 20
332.45177
 30
0.0
 40
0.3
 50
270.000126
 51
315.0
  0
LINE
  8
LC-003-005-----0
  6
CONTINUOUS
  5
34F
 10
449.588812
 20
316.652737
 30
0.0
 11
452.590193
 21
319.654118
 31
0.0
  0
LINE
  8
LC-003-005-----0
  6
CONTINUOUS
  5
350
 10
454.280641
 20
321.344566
 30
0.0
 11
461.781018
 21
328.844943
 31
0.0
  0
LINE
  8
LC-002-002-----0
  6
CONTINUOUS
  5
351
 10
316.387152
 20
332.15177
 30
0.0
 11
311.430623
 21
332.151759
 31
0.0
  0
LINE
  8
LC-002-002-----0
  6
CONTINUOUS
  5
352
 10
336.280529
 20
333.651733
 30
0.0
 11
331.380041
 21
333.651703
 31
0.0
  0
LINE
  8
LC-003-005-----0
  6
CONTINUOUS
  5
353
 10
446.280529
 20
316.172881
 30
0.0
 11
449.761766
 21
319.654118
 31
0.0
  0
LINE
  8
LC-003-005-----0
  6
CONTINUOUS
  5
354
 10
454.280641
 20
324.172993
 30
0.0
 11
460.261766
 21
330.154118
 31
0.0
  0
LINE
  8
LC-003-005-----0
  6
CONTINUOUS
  5
355
 10
460.281018
 20
330.17337
 30
0.0
 11
461.761075
 21
331.653427
 31
0.0
  0
LINE
  8
LC-002-002-----0
  6
CONTINUOUS
  5
356
 10
317.780268
 20
327.902414
 30
0.0
 11
317.780268
 21
329.902414
 31
0.0
  0
LINE
  8
LC-002-002-----0
  6
CONTINUOUS
  5
357
 10
312.780268
 20
330.902414
 30
0.0
 11
313.13593
 21
330.902414
 31
0.0
  0
LINE
  8
LC-002-002-----0
  6
CONTINUOUS
  5
358
 10
311.780268
 20
329.902414
 30
0.0
 11
311.780268
 21
327.902414
 31
0.0
  0
LINE
  8
LC-003-005-----0
  6
CONTINUOUS
  5
359
 10
446.280529
 20
319.001308
 30
0.0
 11
446.933338
 21
319.654118
 31
0.0
  0
LINE
  8
LC-002-002-----0
  6
CONTINUOUS
  5
35A
 10
311.780268
 20
327.902414
 30
0.0
 11
312.780268
 21
326.902414
 31
0.0
  0
LINE
  8
LC-002-002-----0
  6
CONTINUOUS
  5
35B
 10
316.280268
 20
331.152414
 30
0.0
 11
316.13593
 21
330.902414
 31
0.0
  0
LINE
  8
LC-002-002-----0
  6
CONTINUOUS
  5
35C
 10
316.424605
 20
330.902414
 30
0.0
 11
316.280268
 21
331.152414
 31
0.0
  0
LINE
  8
LC-002-002-----0
  6
CONTINUOUS
  5
35D
 10
314.924605
 20
330.902414
 30
0.0
 11
314.780268
 21
331.152414
 31
0.0
  0
LINE
  8
LC-002-002-----0
  6
CONTINUOUS
  5
35E
 10
313.424605
 20
330.902414
 30
0.0
 11
313.280268
 21
331.152414
 31
0.0
  0
LINE
  8
LC-002-002-----0
  6
CONTINUOUS
  5
35F
 10
313.280268
 20
326.652414
 30
0.0
 11
313.13593
 21
326.902414
 31
0.0
  0
LINE
  8
LC-002-002-----0
  6
CONTINUOUS
  5
360
 10
314.780268
 20
326.652414
 30
0.0
 11
314.63593
 21
326.902414
 31
0.0
  0
LINE
  8
LC-002-002-----0
  6
CONTINUOUS
  5
361
 10
316.280268
 20
326.652414
 30
0.0
 11
316.13593
 21
326.902414
 31
0.0
  0
LINE
  8
LC-002-002-----0
  6
CONTINUOUS
  5
362
 10
314.780268
 20
331.152414
 30
0.0
 11
314.63593
 21
330.902414
 31
0.0
  0
LINE
  8
LC-002-002-----0
  6
CONTINUOUS
  5
363
 10
313.280268
 20
331.152414
 30
0.0
 11
313.13593
 21
330.902414
 31
0.0
  0
LINE
  8
LC-002-002-----0
  6
CONTINUOUS
  5
364
 10
313.424605
 20
326.902414
 30
0.0
 11
313.280268
 21
326.652414
 31
0.0
  0
LINE
  8
LC-002-002-----0
  6
CONTINUOUS
  5
365
 10
314.924605
 20
326.902414
 30
0.0
 11
314.780268
 21
326.652414
 31
0.0
  0
LINE
  8
LC-002-002-----0
  6
CONTINUOUS
  5
366
 10
316.424605
 20
326.902414
 30
0.0
 11
316.280268
 21
326.652414
 31
0.0
  0
LINE
  8
LC-002-002-----0
  6
CONTINUOUS
  5
367
 10
316.424605
 20
326.902414
 30
0.0
 11
316.780268
 21
326.902414
 31
0.0
  0
LINE
  8
LC-002-002-----0
  6
CONTINUOUS
  5
368
 10
314.924605
 20
326.902414
 30
0.0
 11
316.13593
 21
326.902414
 31
0.0
  0
LINE
  8
LC-002-002-----0
  6
CONTINUOUS
  5
369
 10
313.424605
 20
326.902414
 30
0.0
 11
314.63593
 21
326.902414
 31
0.0
  0
LINE
  8
LC-002-002-----0
  6
CONTINUOUS
  5
36A
 10
313.424605
 20
330.902414
 30
0.0
 11
314.63593
 21
330.902414
 31
0.0
  0
LINE
  8
LC-002-002-----0
  6
CONTINUOUS
  5
36B
 10
314.924605
 20
330.902414
 30
0.0
 11
316.13593
 21
330.902414
 31
0.0
  0
LINE
  8
LC-002-002-----0
  6
CONTINUOUS
  5
36C
 10
316.424605
 20
330.902414
 30
0.0
 11
316.780268
 21
330.902414
 31
0.0
  0
LINE
  8
LC-003-005-----0
  6
CONTINUOUS
  5
36D
 10
454.280641
 20
327.00142
 30
0.0
 11
458.280529
 21
331.001308
 31
0.0
  0
LINE
  8
LC-002-002-----0
  6
CONTINUOUS
  5
36E
 10
352.658694
 20
370.151733
 30
0.0
 11
435.902363
 21
370.151733
 31
0.0
  0
LINE
  8
LC-002-002-----0
  6
CONTINUOUS
  5
36F
 10
339.780529
 20
333.651733
 30
0.0
 11
394.280529
 21
333.651733
 31
0.0
  0
LINE
  8
LC-002-002-----0
  6
CONTINUOUS
  5
370
 10
342.461425
 20
333.651733
 30
0.0
 11
362.297209
 21
404.651733
 31
0.0
  0
LINE
  8
LC-002-002-----0
  6
CONTINUOUS
  5
371
 10
433.387968
 20
379.151733
 30
0.0
 11
355.173089
 21
379.151733
 31
0.0
  0
LINE
  8
LC-002-002-----0
  6
CONTINUOUS
  5
372
 10
400.525298
 20
379.151733
 30
0.0
 11
399.446772
 21
404.651733
 31
0.0
  0
ARC
  8
LC-002-002-----0
  6
CONTINUOUS
  5
373
 10
337.280535
 20
329.651733
 30
0.0
 40
1.0
 50
90.0
 51
180.0
  0
LINE
  8
LC-002-002-----0
  6
CONTINUOUS
  5
374
 10
362.280529
 20
408.651733
 30
0.0
 11
362.138776
 21
408.651733
 31
0.0
  0
LINE
  8
LC-002-002-----0
  6
CONTINUOUS
  5
375
 10
364.280529
 20
408.651733
 30
0.0
 11
394.280529
 21
408.651733
 31
0.0
  0
LINE
  8
LC-002-002-----0
  6
CONTINUOUS
  5
376
 10
398.923065
 20
370.151733
 30
0.0
 11
400.466837
 21
333.651733
 31
0.0
  0
LINE
  8
LC-002-002-----0
  6
CONTINUOUS
  5
377
 10
388.035759
 20
379.151733
 30
0.0
 11
389.114286
 21
404.651733
 31
0.0
  0
LINE
  8
LC-002-002-----0
  6
CONTINUOUS
  5
378
 10
389.637993
 20
370.151733
 30
0.0
 11
388.09422
 21
333.651733
 31
0.0
  0
LINE
  8
LC-002-002-----0
  6
CONTINUOUS
  5
379
 10
378.686412
 20
370.151733
 30
0.0
 11
374.160299
 21
333.651733
 31
0.0
  0
LINE
  8
LC-002-002-----0
  6
CONTINUOUS
  5
37A
 10
364.280529
 20
404.651733
 30
0.0
 11
394.280529
 21
404.651733
 31
0.0
  0
ARC
  8
LC-007-002-RND-0
  6
CONTINUOUS
  5
37B
 10
361.851965
 20
395.651733
 30
0.0
 40
13.0
 50
88.110819
 51
165.0
  0
LINE
  8
LC-002-002-----0
  6
CONTINUOUS
  5
37C
 10
376.838653
 20
370.151733
 30
0.0
 11
372.31254
 21
333.651733
 31
0.0
  0
LINE
  8
LC-002-002-----0
  6
CONTINUOUS
  5
37D
 10
368.797545
 20
370.151733
 30
0.0
 11
361.597539
 21
333.651733
 31
0.0
  0
LINE
  8
LC-002-002-----0
  6
CONTINUOUS
  5
37E
 10
367.284854
 20
370.151733
 30
0.0
 11
360.010832
 21
333.651733
 31
0.0
  0
LINE
  8
LC-002-002-----0
  6
CONTINUOUS
  5
37F
 10
336.280535
 20
329.651733
 30
0.0
 11
337.780535
 21
328.151733
 31
0.0
  0
LINE
  8
LC-002-002-----0
  6
CONTINUOUS
  5
380
 10
339.780529
 20
323.651733
 30
0.0
 11
448.780529
 21
323.651733
 31
0.0
  0
LINE
  8
LC-002-002-----0
  6
CONTINUOUS
  5
381
 10
359.427778
 20
370.151733
 30
0.0
 11
350.044548
 21
333.651733
 31
0.0
  0
LINE
  8
LC-002-002-----0
  6
CONTINUOUS
  5
382
 10
450.780529
 20
330.651733
 30
0.0
 11
450.780529
 21
333.651732
 31
0.0
  0
LINE
  8
LC-002-002-----0
  6
CONTINUOUS
  5
383
 10
337.780529
 20
333.651732
 30
0.0
 11
331.780529
 21
333.651749
 31
0.0
  0
LINE
  8
LC-002-002-----0
  6
CONTINUOUS
  5
384
 10
360.645301
 20
370.151733
 30
0.0
 11
351.26207
 21
333.651733
 31
0.0
  0
LINE
  8
LC-002-002-----0
  6
CONTINUOUS
  5
385
 10
354.785242
 20
370.151733
 30
0.0
 11
343.858239
 21
333.651733
 31
0.0
  0
LINE
  8
LC-002-002-----0
  6
CONTINUOUS
  5
386
 10
433.775815
 20
370.151733
 30
0.0
 11
444.702819
 21
333.651733
 31
0.0
  0
LINE
  8
LC-002-002-----0
  6
CONTINUOUS
  5
387
 10
399.280529
 20
408.651733
 30
0.0
 11
399.280529
 21
404.651733
 31
0.0
  0
LINE
  8
LC-002-002-----0
  6
CONTINUOUS
  5
388
 10
349.294929
 20
399.016381
 30
0.0
 11
331.780529
 21
333.651749
 31
0.0
  0
LINE
  8
LC-002-002-----0
  6
CONTINUOUS
  5
389
 10
426.280529
 20
408.651733
 30
0.0
 11
426.422281
 21
408.651733
 31
0.0
  0
LINE
  8
LC-002-002-----0
  6
CONTINUOUS
  5
38A
 10
424.280529
 20
408.651733
 30
0.0
 11
424.280529
 21
404.651733
 31
0.0
  0
LINE
  8
LC-002-002-----0
  6
CONTINUOUS
  5
38B
 10
426.280529
 20
408.651733
 30
0.0
 11
424.280529
 21
408.651733
 31
0.0
  0
LINE
  8
LC-002-002-----0
  6
CONTINUOUS
  5
38C
 10
426.280529
 20
404.592029
 30
0.0
 11
426.280529
 21
408.651733
 31
0.0
  0
LINE
  8
LC-002-002-----0
  6
CONTINUOUS
  5
38D
 10
362.280529
 20
404.651733
 30
0.0
 11
362.280529
 21
408.651733
 31
0.0
  0
LINE
  8
LC-002-002-----0
  6
CONTINUOUS
  5
38E
 10
362.280529
 20
408.651733
 30
0.0
 11
364.280529
 21
408.651733
 31
0.0
  0
LINE
  8
LC-002-002-----0
  6
CONTINUOUS
  5
38F
 10
364.280529
 20
408.651733
 30
0.0
 11
364.280529
 21
404.651733
 31
0.0
  0
LINE
  8
LC-002-002-----0
  6
CONTINUOUS
  5
390
 10
389.280529
 20
408.651733
 30
0.0
 11
389.280529
 21
404.651733
 31
0.0
  0
LINE
  8
LC-002-002-----0
  6
CONTINUOUS
  5
391
 10
382.964519
 20
404.651733
 30
0.0
 11
379.80244
 21
379.151733
 31
0.0
  0
LINE
  8
LC-002-002-----0
  6
CONTINUOUS
  5
392
 10
381.11676
 20
404.651733
 30
0.0
 11
377.954681
 21
379.151733
 31
0.0
  0
LINE
  8
LC-002-002-----0
  6
CONTINUOUS
  5
393
 10
386.11133
 20
333.651733
 30
0.0
 11
387.655103
 21
370.151733
 31
0.0
  0
LINE
  8
LC-002-002-----0
  6
CONTINUOUS
  5
394
 10
391.097175
 20
404.651733
 30
0.0
 11
390.018649
 21
379.151733
 31
0.0
  0
LINE
  8
LC-002-002-----0
  6
CONTINUOUS
  5
395
 10
375.60303
 20
404.651733
 30
0.0
 11
370.572889
 21
379.151733
 31
0.0
  0
LINE
  8
LC-002-002-----0
  6
CONTINUOUS
  5
396
 10
374.160299
 20
404.651733
 30
0.0
 11
369.078448
 21
379.151733
 31
0.0
  0
LINE
  8
LC-002-002-----0
  6
CONTINUOUS
  5
397
 10
369.514382
 20
404.651733
 30
0.0
 11
362.958975
 21
379.151733
 31
0.0
  0
LINE
  8
LC-002-002-----0
  6
CONTINUOUS
  5
398
 10
368.296859
 20
404.651733
 30
0.0
 11
361.741452
 21
379.151733
 31
0.0
  0
LINE
  8
LC-002-002-----0
  6
CONTINUOUS
  5
399
 10
365.113506
 20
404.651733
 30
0.0
 11
357.479572
 21
379.151733
 31
0.0
  0
LINE
  8
LC-002-002-----0
  6
CONTINUOUS
  5
39A
 10
343.092872
 20
333.651733
 30
0.0
 11
354.019876
 21
370.151733
 31
0.0
  0
LINE
  8
LC-002-002-----0
  6
CONTINUOUS
  5
39B
 10
429.133279
 20
370.151733
 30
0.0
 11
438.51651
 21
333.651733
 31
0.0
  0
LINE
  8
LC-002-002-----0
  6
CONTINUOUS
  5
39C
 10
448.780529
 20
333.651733
 30
0.0
 11
394.280529
 21
333.651733
 31
0.0
  0
LINE
  8
LC-002-002-----0
  6
CONTINUOUS
  5
39D
 10
446.099633
 20
333.651733
 30
0.0
 11
435.902363
 21
370.151733
 31
0.0
  0
LINE
  8
LC-002-002-----0
  6
CONTINUOUS
  5
39E
 10
427.915756
 20
370.151733
 30
0.0
 11
437.298987
 21
333.651733
 31
0.0
  0
LINE
  8
LC-002-002-----0
  6
CONTINUOUS
  5
39F
 10
421.276203
 20
370.151733
 30
0.0
 11
428.550225
 21
333.651733
 31
0.0
  0
LINE
  8
LC-002-002-----0
  6
CONTINUOUS
  5
3A0
 10
419.763512
 20
370.151733
 30
0.0
 11
426.963518
 21
333.651733
 31
0.0
  0
LINE
  8
LC-002-002-----0
  6
CONTINUOUS
  5
3A1
 10
339.780529
 20
328.151733
 30
0.0
 11
339.780529
 21
323.651733
 31
0.0
  0
LINE
  8
LC-002-002-----0
  6
CONTINUOUS
  5
3A2
 10
426.709093
 20
408.651733
 30
0.0
 11
394.280529
 21
408.651733
 31
0.0
  0
LINE
  8
LC-002-002-----0
  6
CONTINUOUS
  5
3A3
 10
411.722404
 20
370.151733
 30
0.0
 11
416.248517
 21
333.651733
 31
0.0
  0
LINE
  8
LC-002-002-----0
  6
CONTINUOUS
  5
3A4
 10
409.874645
 20
370.151733
 30
0.0
 11
414.400758
 21
333.651733
 31
0.0
  0
LINE
  8
LC-002-002-----0
  6
CONTINUOUS
  5
3A5
 10
448.780529
 20
328.151733
 30
0.0
 11
448.780529
 21
333.651733
 31
0.0
  0
LINE
  8
LC-002-002-----0
  6
CONTINUOUS
  5
3A6
 10
426.263849
 20
404.651733
 30
0.0
 11
394.280529
 21
404.651733
 31
0.0
  0
ARC
  8
LC-007-002-RND-0
  6
CONTINUOUS
  5
3A7
 10
426.709093
 20
395.651733
 30
0.0
 40
13.0
 50
15.0
 51
90.0
  0
LINE
  8
LC-002-002-----0
  6
CONTINUOUS
  5
3A8
 10
452.280522
 20
329.651733
 30
0.0
 11
450.780522
 21
328.151733
 31
0.0
  0
LINE
  8
LC-002-002-----0
  6
CONTINUOUS
  5
3A9
 10
451.280522
 20
330.651733
 30
0.0
 11
450.780529
 21
330.651733
 31
0.0
  0
LINE
  8
LC-002-002-----0
  6
CONTINUOUS
  5
3AA
 10
337.780529
 20
323.651733
 30
0.0
 11
339.780529
 21
323.651733
 31
0.0
  0
LINE
  8
LC-002-002-----0
  6
CONTINUOUS
  5
3AB
 10
450.780529
 20
333.651732
 30
0.0
 11
448.780529
 21
333.651733
 31
0.0
  0
LINE
  8
LC-002-002-----0
  6
CONTINUOUS
  5
3AC
 10
450.780529
 20
333.651732
 30
0.0
 11
456.780529
 21
333.651749
 31
0.0
  0
LINE
  8
LC-002-002-----0
  6
CONTINUOUS
  5
3AD
 10
445.468185
 20
333.651733
 30
0.0
 11
434.541182
 21
370.151733
 31
0.0
  0
LINE
  8
LC-002-002-----0
  6
CONTINUOUS
  5
3AE
 10
423.447551
 20
404.651733
 30
0.0
 11
431.081485
 21
379.151733
 31
0.0
  0
LINE
  8
LC-002-002-----0
  6
CONTINUOUS
  5
3AF
 10
420.264198
 20
404.651733
 30
0.0
 11
426.819606
 21
379.151733
 31
0.0
  0
LINE
  8
LC-002-002-----0
  6
CONTINUOUS
  5
3B0
 10
419.046675
 20
404.651733
 30
0.0
 11
425.602083
 21
379.151733
 31
0.0
  0
LINE
  8
LC-002-002-----0
  6
CONTINUOUS
  5
3B1
 10
414.400758
 20
404.651733
 30
0.0
 11
419.482609
 21
379.151733
 31
0.0
  0
LINE
  8
LC-002-002-----0
  6
CONTINUOUS
  5
3B2
 10
412.958027
 20
404.651733
 30
0.0
 11
417.988168
 21
379.151733
 31
0.0
  0
LINE
  8
LC-002-002-----0
  6
CONTINUOUS
  5
3B3
 10
397.463882
 20
404.651733
 30
0.0
 11
398.542408
 21
379.151733
 31
0.0
  0
LINE
  8
LC-002-002-----0
  6
CONTINUOUS
  5
3B4
 10
402.449727
 20
333.651733
 30
0.0
 11
400.905954
 21
370.151733
 31
0.0
  0
LINE
  8
LC-002-002-----0
  6
CONTINUOUS
  5
3B5
 10
407.444297
 20
404.651733
 30
0.0
 11
410.606376
 21
379.151733
 31
0.0
  0
LINE
  8
LC-002-002-----0
  6
CONTINUOUS
  5
3B6
 10
405.596538
 20
404.651733
 30
0.0
 11
408.758617
 21
379.151733
 31
0.0
  0
LINE
  8
LC-002-002-----0
  6
CONTINUOUS
  5
3B7
 10
433.387968
 20
379.151733
 30
0.0
 11
433.387968
 21
372.151733
 31
0.0
  0
LINE
  8
LC-002-002-----0
  6
CONTINUOUS
  5
3B8
 10
435.387968
 20
370.151733
 30
0.0
 11
435.902363
 21
370.151733
 31
0.0
  0
LINE
  8
LC-002-002-----0
  6
CONTINUOUS
  5
3B9
 10
439.266128
 20
399.016381
 30
0.0
 11
456.780529
 21
333.651749
 31
0.0
  0
LINE
  8
LC-002-002-----0
  6
CONTINUOUS
  5
3BA
 10
431.846852
 20
379.151733
 30
0.0
 11
424.212918
 21
404.651733
 31
0.0
  0
ARC
  8
LC-007-002-RND-0
  6
CONTINUOUS
  5
3BB
 10
435.387968
 20
372.151733
 30
0.0
 40
2.0
 50
180.0
 51
270.0
  0
LINE
  8
LC-002-002-----0
  6
CONTINUOUS
  5
3BC
 10
337.780529
 20
330.651733
 30
0.0
 11
337.780529
 21
333.651732
 31
0.0
  0
LINE
  8
LC-002-002-----0
  6
CONTINUOUS
  5
3BD
 10
448.780529
 20
328.151733
 30
0.0
 11
448.780529
 21
323.651733
 31
0.0
  0
LINE
  8
LC-002-002-----0
  6
CONTINUOUS
  5
3BE
 10
450.780529
 20
328.151733
 30
0.0
 11
450.780529
 21
323.651733
 31
0.0
  0
LINE
  8
LC-002-002-----0
  6
CONTINUOUS
  5
3BF
 10
450.780529
 20
323.651733
 30
0.0
 11
448.780529
 21
323.651733
 31
0.0
  0
LINE
  8
LC-002-002-----0
  6
CONTINUOUS
  5
3C0
 10
339.780529
 20
328.151733
 30
0.0
 11
339.780529
 21
333.651733
 31
0.0
  0
LINE
  8
LC-002-002-----0
  6
CONTINUOUS
  5
3C1
 10
337.780529
 20
328.151733
 30
0.0
 11
337.780529
 21
323.651733
 31
0.0
  0
ARC
  8
LC-002-002-----0
  6
CONTINUOUS
  5
3C2
 10
451.280522
 20
329.651733
 30
0.0
 40
1.0
 50
0.0
 51
90.0
  0
LINE
  8
LC-002-002-----0
  6
CONTINUOUS
  5
3C3
 10
337.280535
 20
330.651733
 30
0.0
 11
337.780529
 21
330.651733
 31
0.0
  0
LINE
  8
LC-002-002-----0
  6
CONTINUOUS
  5
3C4
 10
337.780529
 20
333.651732
 30
0.0
 11
339.780529
 21
333.651733
 31
0.0
  0
LINE
  8
LC-002-002-----0
  6
CONTINUOUS
  5
3C5
 10
364.280529
 20
404.651733
 30
0.0
 11
362.297209
 21
404.651733
 31
0.0
  0
LINE
  8
LC-002-002-----0
  6
CONTINUOUS
  5
3C6
 10
433.387968
 20
379.151733
 30
0.0
 11
426.280529
 21
404.592029
 31
0.0
  0
LINE
  8
LC-002-002-----0
  6
CONTINUOUS
  5
3C7
 10
433.387968
 20
379.151733
 30
0.0
 11
435.902363
 21
370.151733
 31
0.0
  0
LINE
  8
LC-002-002-----0
  6
CONTINUOUS
  5
3C8
 10
355.173089
 20
379.151733
 30
0.0
 11
355.173089
 21
372.151733
 31
0.0
  0
LINE
  8
LC-002-002-----0
  6
CONTINUOUS
  5
3C9
 10
353.173089
 20
370.151733
 30
0.0
 11
352.658694
 21
370.151733
 31
0.0
  0
ARC
  8
LC-007-002-RND-0
  6
CONTINUOUS
  5
3CA
 10
353.173089
 20
372.151733
 30
0.0
 40
2.0
 50
270.0
 51
0.0
  0
LINE
  8
LC-002-002-----0
  6
CONTINUOUS
  5
3CB
 10
355.173089
 20
379.151733
 30
0.0
 11
352.658694
 21
370.151733
 31
0.0
  0
LINE
  8
LC-002-002-----0
  6
CONTINUOUS
  5
3CC
 10
356.714205
 20
379.151733
 30
0.0
 11
364.348139
 21
404.651733
 31
0.0
  0
LINE
  8
LC-002-002-----0
  6
CONTINUOUS
  5
3CD
 10
475.780789
 20
326.902414
 30
0.0
 11
475.425127
 21
326.902414
 31
0.0
  0
LINE
  8
LC-003-005-----0
  6
CONTINUOUS
  5
3CE
 10
454.280641
 20
329.829847
 30
0.0
 11
456.104117
 21
331.653324
 31
0.0
  0
LINE
  8
LC-003-005-----0
  6
CONTINUOUS
  5
3CF
 10
-108.93267
 20
117.466967
 30
0.0
 11
-106.957479
 21
119.442158
 31
0.0
  0
ENDSEC
  0
EOF
