  0
SECTION
  2
HEADER
  9
$ACADVER
  1
AC1015
  9
$ACADMAINTVER
 70
     6
  9
$DWGCODEPAGE
  3
ANSI_1252
  9
$INSBASE
 10
0.0
 20
0.0
 30
0.0
  9
$EXTMIN
 10
-209.760318
 20
-147.978432
 30
0.0
  9
$EXTMAX
 10
630.239682
 20
446.021568
 30
0.0
  9
$LIMMIN
 10
-209.760318
 20
-147.978432
  9
$LIMMAX
 10
630.239682
 20
446.021568
  9
$ORTHOMODE
 70
     0
  9
$REGENMODE
 70
     1
  9
$FILLMODE
 70
     1
  9
$QTEXTMODE
 70
     0
  9
$MIRRTEXT
 70
     1
  9
$LTSCALE
 40
2.0
  9
$ATTMODE
 70
     1
  9
$TEXTSIZE
 40
2.5
  9
$TRACEWID
 40
1.0
  9
$TEXTSTYLE
  7
Standard
  9
$CLAYER
  8
0
  9
$CELTYPE
  6
ByLayer
  9
$CECOLOR
 62
     7
  9
$CELTSCALE
 40
1.0
  9
$DISPSILH
 70
     0
  9
$DIMSCALE
 40
2.0
  9
$DIMASZ
 40
3.5
  9
$DIMEXO
 40
0.625
  9
$DIMDLI
 40
3.75
  9
$DIMRND
 40
0.0
  9
$DIMDLE
 40
0.0
  9
$DIMEXE
 40
1.25
  9
$DIMTP
 40
0.0
  9
$DIMTM
 40
0.0
  9
$DIMTXT
 40
3.5
  9
$DIMCEN
 40
2.5
  9
$DIMTSZ
 40
0.0
  9
$DIMTOL
 70
     0
  9
$DIMLIM
 70
     0
  9
$DIMTIH
 70
     0
  9
$DIMTOH
 70
     0
  9
$DIMSE1
 70
     0
  9
$DIMSE2
 70
     0
  9
$DIMTAD
 70
     1
  9
$DIMZIN
 70
     8
  9
$DIMBLK
  1

  9
$DIMASO
 70
     1
  9
$DIMSHO
 70
     1
  9
$DIMPOST
  1

  9
$DIMAPOST
  1

  9
$DIMALT
 70
     0
  9
$DIMALTD
 70
     3
  9
$DIMALTF
 40
0.03937
  9
$DIMLFAC
 40
1.0
  9
$DIMTOFL
 70
     1
  9
$DIMTVP
 40
0.0
  9
$DIMTIX
 70
     0
  9
$DIMSOXD
 70
     0
  9
$DIMSAH
 70
     0
  9
$DIMBLK1
  1

  9
$DIMBLK2
  1

  9
$DIMSTYLE
  2
ISO-25
  9
$DIMCLRD
 70
     0
  9
$DIMCLRE
 70
     0
  9
$DIMCLRT
 70
     0
  9
$DIMTFAC
 40
1.0
  9
$DIMGAP
 40
0.625
  9
$DIMJUST
 70
     0
  9
$DIMSD1
 70
     0
  9
$DIMSD2
 70
     0
  9
$DIMTOLJ
 70
     0
  9
$DIMTZIN
 70
     8
  9
$DIMALTZ
 70
     0
  9
$DIMALTTZ
 70
     0
  9
$DIMUPT
 70
     0
  9
$DIMDEC
 70
     2
  9
$DIMTDEC
 70
     2
  9
$DIMALTU
 70
     2
  9
$DIMALTTD
 70
     3
  9
$DIMTXSTY
  7
Standard
  9
$DIMAUNIT
 70
     0
  9
$DIMADEC
 70
     0
  9
$DIMALTRND
 40
0.0
  9
$DIMAZIN
 70
     0
  9
$DIMDSEP
 70
    44
  9
$DIMATFIT
 70
     3
  9
$DIMFRAC
 70
     0
  9
$DIMLDRBLK
  1

  9
$DIMLUNIT
 70
     2
  9
$DIMLWD
 70
    -2
  9
$DIMLWE
 70
    -2
  9
$DIMTMOVE
 70
     0
  9
$LUNITS
 70
     2
  9
$LUPREC
 70
     4
  9
$SKETCHINC
 40
1.0
  9
$FILLETRAD
 40
10.0
  9
$AUNITS
 70
     0
  9
$AUPREC
 70
     0
  9
$MENU
  1
.
  9
$ELEVATION
 40
0.0
  9
$PELEVATION
 40
0.0
  9
$THICKNESS
 40
0.0
  9
$LIMCHECK
 70
     0
  9
$CHAMFERA
 40
10.0
  9
$CHAMFERB
 40
10.0
  9
$CHAMFERC
 40
20.0
  9
$CHAMFERD
 40
0.0
  9
$SKPOLY
 70
     0
  9
$TDCREATE
 40
2455657.350837558
  9
$TDUCREATE
 40
2455657.267504225
  9
$TDUPDATE
 40
2455657.350837569
  9
$TDUUPDATE
 40
2455657.267504236
  9
$TDINDWG
 40
0.0000000116
  9
$TDUSRTIMER
 40
0.0000000116
  9
$USRTIMER
 70
     1
  9
$ANGBASE
 50
0.0
  9
$ANGDIR
 70
     0
  9
$PDMODE
 70
     0
  9
$PDSIZE
 40
0.0
  9
$PLINEWID
 40
0.0
  9
$SPLFRAME
 70
     0
  9
$SPLINETYPE
 70
     6
  9
$SPLINESEGS
 70
     8
  9
$HANDSEED
  5
18D
  9
$SURFTAB1
 70
     6
  9
$SURFTAB2
 70
     6
  9
$SURFTYPE
 70
     6
  9
$SURFU
 70
     6
  9
$SURFV
 70
     6
  9
$UCSBASE
  2

  9
$UCSNAME
  2

  9
$UCSORG
 10
0.0
 20
0.0
 30
0.0
  9
$UCSXDIR
 10
1.0
 20
0.0
 30
0.0
  9
$UCSYDIR
 10
0.0
 20
1.0
 30
0.0
  9
$UCSORTHOREF
  2

  9
$UCSORTHOVIEW
 70
     0
  9
$UCSORGTOP
 10
0.0
 20
0.0
 30
0.0
  9
$UCSORGBOTTOM
 10
0.0
 20
0.0
 30
0.0
  9
$UCSORGLEFT
 10
0.0
 20
0.0
 30
0.0
  9
$UCSORGRIGHT
 10
0.0
 20
0.0
 30
0.0
  9
$UCSORGFRONT
 10
0.0
 20
0.0
 30
0.0
  9
$UCSORGBACK
 10
0.0
 20
0.0
 30
0.0
  9
$PUCSBASE
  2

  9
$PUCSNAME
  2

  9
$PUCSORG
 10
0.0
 20
0.0
 30
0.0
  9
$PUCSXDIR
 10
1.0
 20
0.0
 30
0.0
  9
$PUCSYDIR
 10
0.0
 20
1.0
 30
0.0
  9
$PUCSORTHOREF
  2

  9
$PUCSORTHOVIEW
 70
     0
  9
$PUCSORGTOP
 10
0.0
 20
0.0
 30
0.0
  9
$PUCSORGBOTTOM
 10
0.0
 20
0.0
 30
0.0
  9
$PUCSORGLEFT
 10
0.0
 20
0.0
 30
0.0
  9
$PUCSORGRIGHT
 10
0.0
 20
0.0
 30
0.0
  9
$PUCSORGFRONT
 10
0.0
 20
0.0
 30
0.0
  9
$PUCSORGBACK
 10
0.0
 20
0.0
 30
0.0
  9
$USERI1
 70
     0
  9
$USERI2
 70
     0
  9
$USERI3
 70
     0
  9
$USERI4
 70
     0
  9
$USERI5
 70
     0
  9
$USERR1
 40
0.0
  9
$USERR2
 40
0.0
  9
$USERR3
 40
0.0
  9
$USERR4
 40
0.0
  9
$USERR5
 40
0.0
  9
$WORLDVIEW
 70
     1
  9
$SHADEDGE
 70
     3
  9
$SHADEDIF
 70
    70
  9
$TILEMODE
 70
     1
  9
$MAXACTVP
 70
    64
  9
$PINSBASE
 10
0.0
 20
0.0
 30
0.0
  9
$PLIMCHECK
 70
     0
  9
$PEXTMIN
 10
-209.760318
 20
-147.978432
 30
0.0
  9
$PEXTMAX
 10
630.239682
 20
446.021568
 30
0.0
  9
$PLIMMIN
 10
-209.760318
 20
-147.978432
  9
$PLIMMAX
 10
630.239682
 20
446.021568
  9
$UNITMODE
 70
     0
  9
$VISRETAIN
 70
     1
  9
$PLINEGEN
 70
     0
  9
$PSLTSCALE
 70
     1
  9
$TREEDEPTH
 70
  3020
  9
$CMLSTYLE
  2
Standard
  9
$CMLJUST
 70
     0
  9
$CMLSCALE
 40
20.0
  9
$PROXYGRAPHICS
 70
     1
  9
$MEASUREMENT
 70
     1
  9
$CELWEIGHT
370
    -1
  9
$ENDCAPS
280
     0
  9
$JOINSTYLE
280
     0
  9
$LWDISPLAY
290
     0
  9
$INSUNITS
 70
     4
  9
$HYPERLINKBASE
  1

  9
$STYLESHEET
  1

  9
$XEDIT
290
     1
  9
$CEPSNTYPE
380
     0
  9
$PSTYLEMODE
290
     1
  9
$FINGERPRINTGUID
  2
{FAEB1C30-E019-11D5-929B-00C0DF256EC4}
  9
$VERSIONGUID
  2
{FAEB1C32-E019-11D5-929B-00C0DF256EC4}
  9
$EXTNAMES
290
     1
  9
$PSVPSCALE
 40
0.0
  9
$OLESTARTUP
290
     0
  0
ENDSEC
  0
SECTION
  2
CLASSES
  0
CLASS
  1
ACDBDICTIONARYWDFLT
  2
AcDbDictionaryWithDefault
  3
ObjectDBX Classes
 90
        0
280
     0
281
     0
  0
CLASS
  1
ACDBPLACEHOLDER
  2
AcDbPlaceHolder
  3
ObjectDBX Classes
 90
        0
280
     0
281
     0
  0
CLASS
  1
LAYOUT
  2
AcDbLayout
  3
ObjectDBX Classes
 90
        0
280
     0
281
     0
  0
ENDSEC
  0
SECTION
  2
TABLES
  0
TABLE
  2
VPORT
  5
8
330
0
100
AcDbSymbolTable
 70
     2
  0
VPORT
  5
29
330
8
100
AcDbSymbolTableRecord
100
AcDbViewportTableRecord
  2
*ACTIVE
 70
     0
 10
0.0
 20
0.0
 11
1.0
 21
1.0
 12
210.239682
 22
149.021568
 13
0.0
 23
0.0
 14
1.0
 24
1.0
 15
0.0
 25
0.0
 16
0.0
 26
0.0
 36
1.0
 17
0.0
 27
0.0
 37
0.0
 40
594.0
 41
1.414141
 42
50.0
 43
0.0
 44
0.0
 50
0.0
 51
0.0
 71
    16
 72
   100
 73
     1
 74
     0
 75
     0
 76
     0
 77
     0
 78
     0
281
     0
 65
     0
110
0.0
120
0.0
130
0.0
111
1.0
121
0.0
131
0.0
112
0.0
122
1.0
132
0.0
 79
     0
146
0.0
  0
ENDTAB
  0
TABLE
  2
LTYPE
  5
5
330
0
100
AcDbSymbolTable
 70
     2
  0
LTYPE
  5
14
330
5
100
AcDbSymbolTableRecord
100
AcDbLinetypeTableRecord
  2
ByBlock
 70
     0
  3

 72
    65
 73
     0
 40
0.0
  0
LTYPE
  5
15
330
5
100
AcDbSymbolTableRecord
100
AcDbLinetypeTableRecord
  2
ByLayer
 70
     0
  3

 72
    65
 73
     0
 40
0.0
  0
LTYPE
  5
16
330
5
100
AcDbSymbolTableRecord
100
AcDbLinetypeTableRecord
  2
Continuous
 70
     0
  3
Solid line
 72
    65
 73
     0
 40
0.0
  0
LTYPE
  5
2A
330
5
100
AcDbSymbolTableRecord
100
AcDbLinetypeTableRecord
  2
DASHED
 70
     0
  3
__ __ __ __ __
 72
    65
 73
     2
 40
6.25
 49
5.0
 74
     4
 75
     0
340
0
 46
1.0
 50
0.0
 44
0.0
 45
0.0
 49
-1.25
 74
     4
 75
     0
340
0
 46
1.0
 50
0.0
 44
0.0
 45
0.0
  0
ENDTAB
  0
TABLE
  2
LAYER
  5
2
330
0
100
AcDbSymbolTable
 70
     8
  0
LAYER
  5
10
330
2
100
AcDbSymbolTableRecord
100
AcDbLayerTableRecord
  2
0
 70
     0
 62
     7
  6
Continuous
370
    -3
390
F
  0
LAYER
  5
2B
330
2
100
AcDbSymbolTableRecord
100
AcDbLayerTableRecord
  2
LC-INFO-1-2-mm-A3-0
 70
     1
 62
     7
  6
ByBlock
370
    -3
390
F
  0
LAYER
  5
2C
330
2
100
AcDbSymbolTableRecord
100
AcDbLayerTableRecord
  2
LC-CUT-HIDDEN
 70
     0
 62
     7
  6
DASHED
370
    -3
390
F
  0
LAYER
  5
2D
330
2
100
AcDbSymbolTableRecord
100
AcDbLayerTableRecord
  2
LC-VIEWPORT
 70
     0
 62
     7
  6
ByBlock
370
    -3
390
F
  0
LAYER
  5
2E
330
2
100
AcDbSymbolTableRecord
100
AcDbLayerTableRecord
  2
LC-3D-HIDDEN
 70
     0
 62
     9
  6
DASHED
370
    -3
390
F
  0
LAYER
  5
31
330
2
100
AcDbSymbolTableRecord
100
AcDbLayerTableRecord
  2
LC-001-100-D00-0
 70
     0
 62
     1
  6
ByBlock
370
    -3
390
F
  0
LAYER
  5
17E
330
2
100
AcDbSymbolTableRecord
100
AcDbLayerTableRecord
  2
LC-002-003-----0
 70
     0
 62
     2
  6
ByBlock
370
    -3
390
F
  0
LAYER
  5
180
330
2
100
AcDbSymbolTableRecord
100
AcDbLayerTableRecord
  2
Defpoints
 70
     0
 62
     7
  6
Continuous
290
     0
370
    -3
390
F
  0
ENDTAB
  0
TABLE
  2
STYLE
  5
3
330
0
100
AcDbSymbolTable
 70
     4
  0
STYLE
  5
11
330
3
100
AcDbSymbolTableRecord
100
AcDbTextStyleTableRecord
  2
Standard
 70
     0
 40
0.0
 41
1.0
 50
0.0
 71
     0
 42
2.5
  3
txt
  4

  0
STYLE
  5
2F
330
3
100
AcDbSymbolTableRecord
100
AcDbTextStyleTableRecord
  2
LCTX0-400-0-0pDIN-Schrift
 70
     0
 40
0.0
 41
0.75
 50
0.0
 71
     0
 42
3.5
  3
TXT
  4

  0
STYLE
  5
30
330
3
100
AcDbSymbolTableRecord
100
AcDbTextStyleTableRecord
  2
LCTX15-400-0-0-Arial
 70
     0
 40
0.0
 41
0.8
 50
0.0
 71
     0
 42
3.5
  3

  4

1001
ACAD
1000
Arial
1071
 16777218
  0
STYLE
  5
17C
330
3
100
AcDbSymbolTableRecord
100
AcDbTextStyleTableRecord
  2
LCTX15-400-0-0pDIN-Schrift
 70
     0
 40
2.5
 41
0.8
 50
15.0
 71
     0
 42
3.5
  3
STANDARD
  4

  0
ENDTAB
  0
TABLE
  2
VIEW
  5
6
330
0
100
AcDbSymbolTable
 70
     0
  0
ENDTAB
  0
TABLE
  2
UCS
  5
7
330
0
100
AcDbSymbolTable
 70
     0
  0
ENDTAB
  0
TABLE
  2
APPID
  5
9
330
0
100
AcDbSymbolTable
 70
     1
  0
APPID
  5
12
330
9
100
AcDbSymbolTableRecord
100
AcDbRegAppTableRecord
  2
ACAD
 70
     0
  0
ENDTAB
  0
TABLE
  2
DIMSTYLE
  5
A
330
0
100
AcDbSymbolTable
 70
     2
100
AcDbDimStyleTable
  0
DIMSTYLE
105
27
330
A
100
AcDbSymbolTableRecord
100
AcDbDimStyleTableRecord
  2
ISO-25
 70
     0
 41
2.5
 42
0.625
 43
3.75
 44
1.25
 73
     0
 74
     0
 77
     1
 78
     8
140
2.5
141
2.5
143
0.03937
147
0.625
171
     3
172
     1
271
     2
272
     2
274
     3
278
    44
283
     0
284
     8
340
11
  0
DIMSTYLE
105
17D
102
{ACAD_REACTORS
330
17F
102
}
330
A
100
AcDbSymbolTableRecord
100
AcDbDimStyleTableRecord
  2
LC-DIM-L-0140-02-02
 70
     0
 40
2.0
 41
14.0
 42
0.0
 43
7.5
 44
1.8
 73
     0
 74
     0
 77
     1
 78
     8
 79
     2
140
14.0
141
0.0
146
0.71
147
1.5
176
     2
177
     2
178
     2
179
     2
271
     2
278
    44
289
     1
340
17C
  0
ENDTAB
  0
TABLE
  2
BLOCK_RECORD
  5
1
330
0
100
AcDbSymbolTable
 70
     2
  0
BLOCK_RECORD
  5
1F
330
1
100
AcDbSymbolTableRecord
100
AcDbBlockTableRecord
  2
*Model_Space
340
22
  0
BLOCK_RECORD
  5
1B
330
1
100
AcDbSymbolTableRecord
100
AcDbBlockTableRecord
  2
*Paper_Space
340
1E
  0
BLOCK_RECORD
  5
23
330
1
100
AcDbSymbolTableRecord
100
AcDbBlockTableRecord
  2
*Paper_Space0
340
26
  0
BLOCK_RECORD
  5
181
330
1
100
AcDbSymbolTableRecord
100
AcDbBlockTableRecord
  2
*D1
340
0
  0
ENDTAB
  0
ENDSEC
  0
SECTION
  2
BLOCKS
  0
BLOCK
  5
20
330
1F
100
AcDbEntity
  8
0
100
AcDbBlockBegin
  2
*Model_Space
 70
     0
 71
     0
 10
0.0
 20
0.0
 30
0.0
  3
*Model_Space
  1

  0
ENDBLK
  5
21
330
1F
100
AcDbEntity
  8
0
100
AcDbBlockEnd
  0
BLOCK
  5
1C
330
1B
100
AcDbEntity
 67
     1
  8
0
100
AcDbBlockBegin
  2
*Paper_Space
 70
     0
 71
     0
 10
0.0
 20
0.0
 30
0.0
  3
*Paper_Space
  1

  0
ENDBLK
  5
1D
330
1B
100
AcDbEntity
 67
     1
  8
0
100
AcDbBlockEnd
  0
BLOCK
  5
24
330
23
100
AcDbEntity
  8
0
100
AcDbBlockBegin
  2
*Paper_Space0
 70
     0
 71
     0
 10
0.0
 20
0.0
 30
0.0
  3
*Paper_Space0
  1

  0
ENDBLK
  5
25
330
23
100
AcDbEntity
  8
0
100
AcDbBlockEnd
  0
BLOCK
  5
18B
330
181
100
AcDbEntity
  8
0
100
AcDbBlockBegin
  2
*D1
 70
     1
 71
     0
 10
0.0
 20
0.0
 30
0.0
  3
*D1
  1

  0
LINE
  5
182
330
181
100
AcDbEntity
  8
LC-002-003-----0
 62
     2
370
    -2
100
AcDbLine
 10
246.841824
 20
248.023025
 30
0.0
 11
246.841824
 21
269.045568
 31
0.0
  0
LINE
  5
183
330
181
100
AcDbEntity
  8
LC-002-003-----0
 62
     2
370
    -2
100
AcDbLine
 10
337.841824
 20
248.023025
 30
0.0
 11
337.841824
 21
269.045568
 31
0.0
  0
LINE
  5
184
330
181
100
AcDbEntity
  8
LC-002-003-----0
 62
     2
370
    -2
100
AcDbLine
 10
274.841824
 20
265.445568
 30
0.0
 11
309.841824
 21
265.445568
 31
0.0
  0
SOLID
  5
185
330
181
100
AcDbEntity
  8
LC-002-003-----0
 62
     2
100
AcDbTrace
 10
274.841824
 20
270.112235
 30
0.0
 11
274.841824
 21
260.778902
 31
0.0
 12
246.841824
 22
265.445568
 32
0.0
 13
246.841824
 23
265.445568
 33
0.0
  0
SOLID
  5
186
330
181
100
AcDbEntity
  8
LC-002-003-----0
 62
     2
100
AcDbTrace
 10
309.841824
 20
260.778902
 30
0.0
 11
309.841824
 21
270.112235
 31
0.0
 12
337.841824
 22
265.445568
 32
0.0
 13
337.841824
 23
265.445568
 33
0.0
  0
MTEXT
  5
187
330
181
100
AcDbEntity
  8
LC-002-003-----0
 62
     2
100
AcDbMText
 10
293.372444
 20
296.245568
 30
0.0
 40
28.0
 41
0.0
 71
     5
 72
     1
  1
\A1;90
  7
LCTX15-400-0-0pDIN-Schrift
 73
     1
 44
1.0
  0
POINT
  5
188
330
181
100
AcDbEntity
  8
Defpoints
 62
     0
100
AcDbPoint
 10
246.841824
 20
248.023025
 30
0.0
  0
POINT
  5
189
330
181
100
AcDbEntity
  8
Defpoints
 62
     0
100
AcDbPoint
 10
337.841824
 20
248.023025
 30
0.0
  0
POINT
  5
18A
330
181
100
AcDbEntity
  8
Defpoints
 62
     0
100
AcDbPoint
 10
337.841824
 20
265.445568
 30
0.0
  0
ENDBLK
  5
18C
330
181
100
AcDbEntity
  8
0
100
AcDbBlockEnd
  0
ENDSEC
  0
SECTION
  2
ENTITIES
  0
LINE
  5
32
330
1F
100
AcDbEntity
  8
LC-001-100-D00-0
 62
     7
370
    50
100
AcDbLine
 10
263.341825
 20
225.523024
 30
0.0
 11
259.341824
 21
225.523024
 31
0.0
  0
LINE
  5
33
330
1F
100
AcDbEntity
  8
LC-001-100-D00-0
 62
     7
370
    50
100
AcDbLine
 10
272.341824
 20
238.523024
 30
0.0
 11
272.341824
 21
234.523024
 31
0.0
  0
LINE
  5
34
330
1F
100
AcDbEntity
  8
LC-001-100-D00-0
 62
     7
370
    50
100
AcDbLine
 10
259.341824
 20
223.523024
 30
0.0
 11
263.341825
 21
223.523024
 31
0.0
  0
LINE
  5
35
330
1F
100
AcDbEntity
  8
LC-001-100-D00-0
 62
     7
370
    50
100
AcDbLine
 10
272.341824
 20
214.523024
 30
0.0
 11
272.341824
 21
210.523024
 31
0.0
  0
LINE
  5
36
330
1F
100
AcDbEntity
  8
LC-001-100-D00-0
 62
     7
370
    50
100
AcDbLine
 10
301.341824
 20
225.523024
 30
0.0
 11
297.341824
 21
225.523024
 31
0.0
  0
LINE
  5
37
330
1F
100
AcDbEntity
  8
LC-001-100-D00-0
 62
     7
370
    50
100
AcDbLine
 10
310.341823
 20
238.523024
 30
0.0
 11
310.341823
 21
234.523024
 31
0.0
  0
LINE
  5
38
330
1F
100
AcDbEntity
  8
LC-001-100-D00-0
 62
     7
370
    50
100
AcDbLine
 10
297.341824
 20
223.523024
 30
0.0
 11
301.341824
 21
223.523024
 31
0.0
  0
LINE
  5
39
330
1F
100
AcDbEntity
  8
LC-001-100-D00-0
 62
     7
370
    50
100
AcDbLine
 10
310.341823
 20
214.523024
 30
0.0
 11
310.341823
 21
210.523024
 31
0.0
  0
LINE
  5
3A
330
1F
100
AcDbEntity
  8
LC-001-100-D00-0
 62
     7
370
    50
100
AcDbLine
 10
321.341823
 20
185.523025
 30
0.0
 11
325.341824
 21
185.523025
 31
0.0
  0
LINE
  5
3B
330
1F
100
AcDbEntity
  8
LC-001-100-D00-0
 62
     7
370
    50
100
AcDbLine
 10
312.341824
 20
172.523025
 30
0.0
 11
312.341824
 21
176.523025
 31
0.0
  0
LINE
  5
3C
330
1F
100
AcDbEntity
  8
LC-001-100-D00-0
 62
     7
370
    50
100
AcDbLine
 10
325.341824
 20
187.523025
 30
0.0
 11
321.341823
 21
187.523025
 31
0.0
  0
LINE
  5
3D
330
1F
100
AcDbEntity
  8
LC-001-100-D00-0
 62
     7
370
    50
100
AcDbLine
 10
312.341824
 20
196.523025
 30
0.0
 11
312.341824
 21
200.523025
 31
0.0
  0
LINE
  5
3E
330
1F
100
AcDbEntity
  8
LC-001-100-D00-0
 62
     7
370
    50
100
AcDbLine
 10
283.341824
 20
185.523025
 30
0.0
 11
287.341824
 21
185.523025
 31
0.0
  0
LINE
  5
3F
330
1F
100
AcDbEntity
  8
LC-001-100-D00-0
 62
     7
370
    50
100
AcDbLine
 10
274.341825
 20
172.523025
 30
0.0
 11
274.341825
 21
176.523025
 31
0.0
  0
LINE
  5
40
330
1F
100
AcDbEntity
  8
LC-001-100-D00-0
 62
     7
370
    50
100
AcDbLine
 10
272.341824
 20
200.523025
 30
0.0
 11
272.341824
 21
196.523025
 31
0.0
  0
LINE
  5
41
330
1F
100
AcDbEntity
  8
LC-001-100-D00-0
 62
     7
370
    50
100
AcDbLine
 10
263.341825
 20
187.523025
 30
0.0
 11
259.341824
 21
187.523025
 31
0.0
  0
LINE
  5
42
330
1F
100
AcDbEntity
  8
LC-001-100-D00-0
 62
     7
370
    50
100
AcDbLine
 10
272.341824
 20
176.523025
 30
0.0
 11
272.341824
 21
172.523025
 31
0.0
  0
LINE
  5
43
330
1F
100
AcDbEntity
  8
LC-001-100-D00-0
 62
     7
370
    50
100
AcDbLine
 10
259.341824
 20
185.523025
 30
0.0
 11
263.341825
 21
185.523025
 31
0.0
  0
LINE
  5
44
330
1F
100
AcDbEntity
  8
LC-001-100-D00-0
 62
     7
370
    50
100
AcDbLine
 10
274.341825
 20
196.523025
 30
0.0
 11
274.341825
 21
200.523025
 31
0.0
  0
LINE
  5
45
330
1F
100
AcDbEntity
  8
LC-001-100-D00-0
 62
     7
370
    50
100
AcDbLine
 10
287.341824
 20
187.523025
 30
0.0
 11
283.341824
 21
187.523025
 31
0.0
  0
LINE
  5
46
330
1F
100
AcDbEntity
  8
LC-001-100-D00-0
 62
     7
370
    50
100
AcDbLine
 10
301.341824
 20
187.523025
 30
0.0
 11
297.341824
 21
187.523025
 31
0.0
  0
LINE
  5
47
330
1F
100
AcDbEntity
  8
LC-001-100-D00-0
 62
     7
370
    50
100
AcDbLine
 10
310.341823
 20
200.523025
 30
0.0
 11
310.341823
 21
196.523025
 31
0.0
  0
LINE
  5
48
330
1F
100
AcDbEntity
  8
LC-001-100-D00-0
 62
     7
370
    50
100
AcDbLine
 10
297.341824
 20
185.523025
 30
0.0
 11
301.341824
 21
185.523025
 31
0.0
  0
LINE
  5
49
330
1F
100
AcDbEntity
  8
LC-001-100-D00-0
 62
     7
370
    50
100
AcDbLine
 10
310.341823
 20
176.523025
 30
0.0
 11
310.341823
 21
172.523025
 31
0.0
  0
LINE
  5
4A
330
1F
100
AcDbEntity
  8
LC-001-100-D00-0
 62
     7
370
    50
100
AcDbLine
 10
312.341824
 20
234.523024
 30
0.0
 11
312.341824
 21
238.523024
 31
0.0
  0
LINE
  5
4B
330
1F
100
AcDbEntity
  8
LC-001-100-D00-0
 62
     7
370
    50
100
AcDbLine
 10
325.341824
 20
225.523024
 30
0.0
 11
321.341823
 21
225.523024
 31
0.0
  0
LINE
  5
4C
330
1F
100
AcDbEntity
  8
LC-001-100-D00-0
 62
     7
370
    50
100
AcDbLine
 10
312.341824
 20
210.523024
 30
0.0
 11
312.341824
 21
214.523024
 31
0.0
  0
LINE
  5
4D
330
1F
100
AcDbEntity
  8
LC-001-100-D00-0
 62
     7
370
    50
100
AcDbLine
 10
321.341823
 20
223.523024
 30
0.0
 11
325.341824
 21
223.523024
 31
0.0
  0
LINE
  5
4E
330
1F
100
AcDbEntity
  8
LC-001-100-D00-0
 62
     7
370
    50
100
AcDbLine
 10
283.341824
 20
223.523024
 30
0.0
 11
287.341824
 21
223.523024
 31
0.0
  0
LINE
  5
4F
330
1F
100
AcDbEntity
  8
LC-001-100-D00-0
 62
     7
370
    50
100
AcDbLine
 10
274.341825
 20
210.523024
 30
0.0
 11
274.341825
 21
214.523024
 31
0.0
  0
LINE
  5
50
330
1F
100
AcDbEntity
  8
LC-001-100-D00-0
 62
     7
370
    50
100
AcDbLine
 10
287.341824
 20
225.523024
 30
0.0
 11
283.341824
 21
225.523024
 31
0.0
  0
LINE
  5
51
330
1F
100
AcDbEntity
  8
LC-001-100-D00-0
 62
     7
370
    50
100
AcDbLine
 10
274.341825
 20
234.523024
 30
0.0
 11
274.341825
 21
238.523024
 31
0.0
  0
LINE
  5
52
330
1F
100
AcDbEntity
  8
LC-001-100-D00-0
 62
     7
370
    25
100
AcDbLine
 10
312.951385
 20
165.887627
 30
0.0
 11
312.951385
 21
168.276849
 31
0.0
  0
LINE
  5
53
330
1F
100
AcDbEntity
  8
LC-001-100-D00-0
 62
     7
370
    25
100
AcDbLine
 10
313.882384
 20
165.887627
 30
0.0
 11
312.951385
 21
165.887627
 31
0.0
  0
LINE
  5
54
330
1F
100
AcDbEntity
  8
LC-001-100-D00-0
 62
     7
370
    25
100
AcDbLine
 10
313.882384
 20
165.329027
 30
0.0
 11
313.882384
 21
165.887627
 31
0.0
  0
LINE
  5
55
330
1F
100
AcDbEntity
  8
LC-001-100-D00-0
 62
     7
370
    25
100
AcDbLine
 10
312.392784
 20
165.329027
 30
0.0
 11
313.882384
 21
165.329027
 31
0.0
  0
LINE
  5
56
330
1F
100
AcDbEntity
  8
LC-001-100-D00-0
 62
     7
370
    25
100
AcDbLine
 10
312.392784
 20
168.276849
 30
0.0
 11
312.392784
 21
165.329027
 31
0.0
  0
LINE
  5
57
330
1F
100
AcDbEntity
  8
LC-001-100-D00-0
 62
     7
370
    25
100
AcDbLine
 10
312.951385
 20
168.276849
 30
0.0
 11
312.392784
 21
168.276849
 31
0.0
  0
ARC
  5
58
330
1F
100
AcDbEntity
  8
LC-001-100-D00-0
 62
     7
370
    25
100
AcDbCircle
 10
300.112461
 20
166.448434
 30
0.0
 40
0.0931014500765978
100
AcDbArc
 50
200.0
 51
19.999675
  0
LINE
  5
59
330
1F
100
AcDbEntity
  8
LC-001-100-D00-0
 62
     7
370
    25
100
AcDbLine
 10
300.136262
 20
166.655245
 30
0.0
 11
300.199948
 21
166.480276
 31
0.0
  0
LINE
  5
5A
330
1F
100
AcDbEntity
  8
LC-001-100-D00-0
 62
     7
370
    25
100
AcDbLine
 10
300.136262
 20
166.655245
 30
0.0
 11
300.072578
 21
166.830219
 31
0.0
  0
ARC
  5
5B
330
1F
100
AcDbEntity
  8
LC-001-100-D00-0
 62
     7
370
    25
100
AcDbCircle
 10
299.985093
 20
166.798375
 30
0.0
 40
0.0931000000000053
100
AcDbArc
 50
20.0
 51
200.0
  0
LINE
  5
5C
330
1F
100
AcDbEntity
  8
LC-001-100-D00-0
 62
     7
370
    25
100
AcDbLine
 10
299.961292
 20
166.591562
 30
0.0
 11
299.897607
 21
166.766535
 31
0.0
  0
LINE
  5
5D
330
1F
100
AcDbEntity
  8
LC-001-100-D00-0
 62
     7
370
    25
100
AcDbLine
 10
299.961292
 20
166.591562
 30
0.0
 11
300.024975
 21
166.416592
 31
0.0
  0
ARC
  5
5E
330
1F
100
AcDbEntity
  8
LC-001-100-D00-0
 62
     7
370
    25
100
AcDbCircle
 10
302.101145
 20
165.884281
 30
0.0
 40
0.0930999999999689
100
AcDbArc
 50
290.0
 51
110.0
  0
LINE
  5
5F
330
1F
100
AcDbEntity
  8
LC-001-100-D00-0
 62
     7
370
    25
100
AcDbLine
 10
302.069302
 20
165.971766
 30
0.0
 11
300.144624
 21
165.271241
 31
0.0
  0
ARC
  5
60
330
1F
100
AcDbEntity
  8
LC-001-100-D00-0
 62
     7
370
    25
100
AcDbCircle
 10
300.176467
 20
165.183756
 30
0.0
 40
0.0930999999999956
100
AcDbArc
 50
110.0
 51
290.0
  0
LINE
  5
61
330
1F
100
AcDbEntity
  8
LC-001-100-D00-0
 62
     7
370
    25
100
AcDbLine
 10
302.132987
 20
165.796797
 30
0.0
 11
300.208308
 21
165.096271
 31
0.0
  0
ARC
  5
62
330
1F
100
AcDbEntity
  8
LC-001-100-D00-0
 62
     7
370
    25
100
AcDbCircle
 10
300.613251
 20
167.522381
 30
0.0
 40
0.0930999999999956
100
AcDbArc
 50
290.0
 51
110.000096
  0
LINE
  5
63
330
1F
100
AcDbEntity
  8
LC-001-100-D00-0
 62
     7
370
    25
100
AcDbLine
 10
300.581408
 20
167.609866
 30
0.0
 11
300.231467
 21
167.482498
 31
0.0
  0
ARC
  5
64
330
1F
100
AcDbEntity
  8
LC-001-100-D00-0
 62
     7
370
    25
100
AcDbCircle
 10
300.26331
 20
167.395013
 30
0.0
 40
0.0930999999999956
100
AcDbArc
 50
110.0
 51
290.0
  0
LINE
  5
65
330
1F
100
AcDbEntity
  8
LC-001-100-D00-0
 62
     7
370
    25
100
AcDbLine
 10
300.470122
 20
167.371213
 30
0.0
 11
300.295151
 21
167.307529
 31
0.0
  0
LINE
  5
66
330
1F
100
AcDbEntity
  8
LC-001-100-D00-0
 62
     7
370
    25
100
AcDbLine
 10
300.470122
 20
167.371213
 30
0.0
 11
300.645093
 21
167.434897
 31
0.0
  0
LINE
  5
67
330
1F
100
AcDbEntity
  8
LC-001-100-D00-0
 62
     7
370
    25
100
AcDbLine
 10
299.579347
 20
167.096532
 30
0.0
 11
299.993294
 21
165.959223
 31
0.0
  0
ARC
  5
68
330
1F
100
AcDbEntity
  8
LC-001-100-D00-0
 62
     7
370
    25
100
AcDbCircle
 10
299.491862
 20
167.064691
 30
0.0
 40
0.0931000000001218
100
AcDbArc
 50
20.0
 51
200.0
  0
LINE
  5
69
330
1F
100
AcDbEntity
  8
LC-001-100-D00-0
 62
     7
370
    25
100
AcDbLine
 10
299.404376
 20
167.032848
 30
0.0
 11
299.818323
 21
165.89554
 31
0.0
  0
ARC
  5
6A
330
1F
100
AcDbEntity
  8
LC-001-100-D00-0
 62
     7
370
    25
100
AcDbCircle
 10
299.905809
 20
165.927381
 30
0.0
 40
0.0931000000000587
100
AcDbArc
 50
200.0
 51
20.0
  0
LINE
  5
6B
330
1F
100
AcDbEntity
  8
LC-001-100-D00-0
 62
     7
370
    25
100
AcDbLine
 10
302.060941
 20
167.355771
 30
0.0
 11
301.710678
 21
168.318111
 31
0.0
  0
ARC
  5
6C
330
1F
100
AcDbEntity
  8
LC-001-100-D00-0
 62
     7
370
    25
100
AcDbCircle
 10
301.623193
 20
168.28627
 30
0.0
 40
0.0930999999999956
100
AcDbArc
 50
20.0
 51
200.0
  0
LINE
  5
6D
330
1F
100
AcDbEntity
  8
LC-001-100-D00-0
 62
     7
370
    25
100
AcDbLine
 10
301.885969
 20
167.292088
 30
0.0
 11
301.535707
 21
168.254427
 31
0.0
  0
LINE
  5
6E
330
1F
100
AcDbEntity
  8
LC-001-100-D00-0
 62
     7
370
    25
100
AcDbLine
 10
301.885969
 20
167.292088
 30
0.0
 11
302.236233
 21
166.329748
 31
0.0
  0
ARC
  5
6F
330
1F
100
AcDbEntity
  8
LC-001-100-D00-0
 62
     7
370
    25
100
AcDbCircle
 10
302.323719
 20
166.361591
 30
0.0
 40
0.093100000000185
100
AcDbArc
 50
200.0
 51
20.0
  0
LINE
  5
70
330
1F
100
AcDbEntity
  8
LC-001-100-D00-0
 62
     7
370
    25
100
AcDbLine
 10
302.060941
 20
167.355771
 30
0.0
 11
302.411204
 21
166.393432
 31
0.0
  0
LINE
  5
71
330
1F
100
AcDbEntity
  8
LC-001-100-D00-0
 62
     7
370
    25
100
AcDbLine
 10
301.743002
 20
166.596066
 30
0.0
 11
301.329055
 21
167.733374
 31
0.0
  0
ARC
  5
72
330
1F
100
AcDbEntity
  8
LC-001-100-D00-0
 62
     7
370
    25
100
AcDbCircle
 10
301.830488
 20
166.627907
 30
0.0
 40
0.0931000000000587
100
AcDbArc
 50
200.0
 51
20.0
  0
LINE
  5
73
330
1F
100
AcDbEntity
  8
LC-001-100-D00-0
 62
     7
370
    25
100
AcDbLine
 10
301.917973
 20
166.659749
 30
0.0
 11
301.504026
 21
167.797058
 31
0.0
  0
ARC
  5
74
330
1F
100
AcDbEntity
  8
LC-001-100-D00-0
 62
     7
370
    25
100
AcDbCircle
 10
301.416541
 20
167.765217
 30
0.0
 40
0.0931000000000587
100
AcDbArc
 50
20.0
 51
200.0
  0
LINE
  5
75
330
1F
100
AcDbEntity
  8
LC-001-100-D00-0
 62
     7
370
    25
100
AcDbLine
 10
300.215385
 20
168.071094
 30
0.0
 11
301.177725
 21
168.421357
 31
0.0
  0
ARC
  5
76
330
1F
100
AcDbEntity
  8
LC-001-100-D00-0
 62
     7
370
    25
100
AcDbCircle
 10
301.145883
 20
168.508843
 30
0.0
 40
0.0931000000000223
100
AcDbArc
 50
290.0
 51
110.0
  0
LINE
  5
77
330
1F
100
AcDbEntity
  8
LC-001-100-D00-0
 62
     7
370
    25
100
AcDbLine
 10
300.151701
 20
168.246064
 30
0.0
 11
301.114041
 21
168.59633
 31
0.0
  0
LINE
  5
78
330
1F
100
AcDbEntity
  8
LC-001-100-D00-0
 62
     7
370
    25
100
AcDbLine
 10
300.151701
 20
168.246064
 30
0.0
 11
299.189363
 21
167.895804
 31
0.0
  0
ARC
  5
79
330
1F
100
AcDbEntity
  8
LC-001-100-D00-0
 62
     7
370
    25
100
AcDbCircle
 10
299.221205
 20
167.808317
 30
0.0
 40
0.0931000000001218
100
AcDbArc
 50
110.0
 51
290.0
  0
LINE
  5
7A
330
1F
100
AcDbEntity
  8
LC-001-100-D00-0
 62
     7
370
    25
100
AcDbLine
 10
300.215385
 20
168.071094
 30
0.0
 11
299.253046
 21
167.720831
 31
0.0
  0
LINE
  5
7B
330
1F
100
AcDbEntity
  8
LC-001-100-D00-0
 62
     7
370
    25
100
AcDbLine
 10
301.234331
 20
165.271561
 30
0.0
 11
302.809068
 21
165.844719
 31
0.0
  0
LINE
  5
7C
330
1F
100
AcDbEntity
  8
LC-001-100-D00-0
 62
     7
370
    25
100
AcDbLine
 10
301.234331
 20
165.271561
 30
0.0
 11
299.659594
 21
164.698406
 31
0.0
  0
LINE
  5
7D
330
1F
100
AcDbEntity
  8
LC-001-100-D00-0
 62
     7
370
    25
100
AcDbLine
 10
298.513281
 20
167.847879
 30
0.0
 11
299.659594
 21
164.698406
 31
0.0
  0
LINE
  5
7E
330
1F
100
AcDbEntity
  8
LC-001-100-D00-0
 62
     7
370
    25
100
AcDbLine
 10
301.662755
 20
168.994195
 30
0.0
 11
298.513281
 21
167.847879
 31
0.0
  0
LINE
  5
7F
330
1F
100
AcDbEntity
  8
LC-001-100-D00-0
 62
     7
370
    25
100
AcDbLine
 10
302.809068
 20
165.844719
 30
0.0
 11
301.662755
 21
168.994195
 31
0.0
  0
ARC
  5
80
330
1F
100
AcDbEntity
  8
LC-001-100-D00-0
 62
     7
370
    25
100
AcDbCircle
 10
299.742257
 20
167.601665
 30
0.0
 40
0.0931000000000684
100
AcDbArc
 50
110.0
 51
290.0
  0
LINE
  5
81
330
1F
100
AcDbEntity
  8
LC-001-100-D00-0
 62
     7
370
    25
100
AcDbLine
 10
300.911408
 20
167.928129
 30
0.0
 11
299.774099
 21
167.514178
 31
0.0
  0
ARC
  5
82
330
1F
100
AcDbEntity
  8
LC-001-100-D00-0
 62
     7
370
    25
100
AcDbCircle
 10
300.879567
 20
168.015612
 30
0.0
 40
0.0930999999999956
100
AcDbArc
 50
290.0
 51
110.0
  0
LINE
  5
83
330
1F
100
AcDbEntity
  8
LC-001-100-D00-0
 62
     7
370
    25
100
AcDbLine
 10
299.710414
 20
167.689151
 30
0.0
 11
300.847724
 21
168.103098
 31
0.0
  0
LINE
  5
84
330
1F
100
AcDbEntity
  8
LC-001-100-D00-0
 62
     7
370
    25
100
AcDbLine
 10
301.04328
 20
165.796477
 30
0.0
 11
301.611934
 21
166.003446
 31
0.0
  0
ARC
  5
85
330
1F
100
AcDbEntity
  8
LC-001-100-D00-0
 62
     7
370
    25
100
AcDbCircle
 10
301.580093
 20
166.090933
 30
0.0
 40
0.0930999999999956
100
AcDbArc
 50
290.0
 51
110.0
  0
LINE
  5
86
330
1F
100
AcDbEntity
  8
LC-001-100-D00-0
 62
     7
370
    25
100
AcDbLine
 10
300.410941
 20
165.764473
 30
0.0
 11
301.54825
 21
166.17842
 31
0.0
  0
ARC
  5
87
330
1F
100
AcDbEntity
  8
LC-001-100-D00-0
 62
     7
370
    25
100
AcDbCircle
 10
300.442783
 20
165.676986
 30
0.0
 40
0.0931000000000684
100
AcDbArc
 50
110.0
 51
290.0
  0
LINE
  5
88
330
1F
100
AcDbEntity
  8
LC-001-100-D00-0
 62
     7
370
    25
100
AcDbLine
 10
301.04328
 20
165.796477
 30
0.0
 11
300.474624
 21
165.5895
 31
0.0
  0
LINE
  5
89
330
1F
100
AcDbEntity
  8
LC-001-100-D00-0
 62
     7
370
    25
100
AcDbLine
 10
299.261409
 20
166.336826
 30
0.0
 11
299.611671
 21
165.374487
 31
0.0
  0
ARC
  5
8A
330
1F
100
AcDbEntity
  8
LC-001-100-D00-0
 62
     7
370
    25
100
AcDbCircle
 10
299.699157
 20
165.406329
 30
0.0
 40
0.0931000000000587
100
AcDbArc
 50
200.0
 51
20.0
  0
LINE
  5
8B
330
1F
100
AcDbEntity
  8
LC-001-100-D00-0
 62
     7
370
    25
100
AcDbLine
 10
299.43638
 20
166.40051
 30
0.0
 11
299.786642
 21
165.438171
 31
0.0
  0
LINE
  5
8C
330
1F
100
AcDbEntity
  8
LC-001-100-D00-0
 62
     7
370
    25
100
AcDbLine
 10
299.43638
 20
166.40051
 30
0.0
 11
299.086116
 21
167.362849
 31
0.0
  0
ARC
  5
8D
330
1F
100
AcDbEntity
  8
LC-001-100-D00-0
 62
     7
370
    25
100
AcDbCircle
 10
298.998631
 20
167.331007
 30
0.0
 40
0.0930999999999422
100
AcDbArc
 50
20.0
 51
200.0
  0
LINE
  5
8E
330
1F
100
AcDbEntity
  8
LC-001-100-D00-0
 62
     7
370
    25
100
AcDbLine
 10
299.261409
 20
166.336826
 30
0.0
 11
298.911145
 21
167.299166
 31
0.0
  0
ARC
  5
8F
330
1F
100
AcDbEntity
  8
LC-001-100-D00-0
 62
     7
370
    25
100
AcDbCircle
 10
301.05904
 20
166.297586
 30
0.0
 40
0.0931005103827224
100
AcDbArc
 50
290.0
 51
109.999886
  0
LINE
  5
90
330
1F
100
AcDbEntity
  8
LC-001-100-D00-0
 62
     7
370
    25
100
AcDbLine
 10
300.852226
 20
166.321389
 30
0.0
 11
301.027198
 21
166.385073
 31
0.0
  0
LINE
  5
91
330
1F
100
AcDbEntity
  8
LC-001-100-D00-0
 62
     7
370
    25
100
AcDbLine
 10
300.852226
 20
166.321389
 30
0.0
 11
300.677256
 21
166.257701
 31
0.0
  0
ARC
  5
92
330
1F
100
AcDbEntity
  8
LC-001-100-D00-0
 62
     7
370
    25
100
AcDbCircle
 10
300.709099
 20
166.170217
 30
0.0
 40
0.0931000000000223
100
AcDbArc
 50
110.0
 51
290.0
  0
LINE
  5
93
330
1F
100
AcDbEntity
  8
LC-001-100-D00-0
 62
     7
370
    25
100
AcDbLine
 10
300.915911
 20
166.146416
 30
0.0
 11
300.740941
 21
166.082732
 31
0.0
  0
LINE
  5
94
330
1F
100
AcDbEntity
  8
LC-001-100-D00-0
 62
     7
370
    25
100
AcDbLine
 10
300.915911
 20
166.146416
 30
0.0
 11
301.090882
 21
166.210099
 31
0.0
  0
ARC
  5
95
330
1F
100
AcDbEntity
  8
LC-001-100-D00-0
 62
     7
370
    25
100
AcDbCircle
 10
301.337257
 20
166.894223
 30
0.0
 40
0.0931000000000587
100
AcDbArc
 50
200.0
 51
20.000096
  0
LINE
  5
96
330
1F
100
AcDbEntity
  8
LC-001-100-D00-0
 62
     7
370
    25
100
AcDbLine
 10
301.424741
 20
166.926067
 30
0.0
 11
301.297373
 21
167.276006
 31
0.0
  0
ARC
  5
97
330
1F
100
AcDbEntity
  8
LC-001-100-D00-0
 62
     7
370
    25
100
AcDbCircle
 10
301.209889
 20
167.244164
 30
0.0
 40
0.0931000000000587
100
AcDbArc
 50
20.0
 51
200.0
  0
LINE
  5
98
330
1F
100
AcDbEntity
  8
LC-001-100-D00-0
 62
     7
370
    25
100
AcDbLine
 10
301.186087
 20
167.037352
 30
0.0
 11
301.122403
 21
167.212322
 31
0.0
  0
LINE
  5
99
330
1F
100
AcDbEntity
  8
LC-001-100-D00-0
 62
     7
370
    25
100
AcDbLine
 10
301.186087
 20
167.037352
 30
0.0
 11
301.249771
 21
166.862383
 31
0.0
  0
ARC
  5
9A
330
1F
100
AcDbEntity
  8
LC-001-100-D00-0
 62
     7
370
    25
100
AcDbCircle
 10
323.611335
 20
167.2993
 30
0.0
 40
0.418950000000109
100
AcDbArc
 50
0.0
 51
90.0
  0
LINE
  5
9B
330
1F
100
AcDbEntity
  8
LC-001-100-D00-0
 62
     7
370
    25
100
AcDbLine
 10
322.726884
 20
167.71825
 30
0.0
 11
323.611333
 21
167.71825
 31
0.0
  0
LINE
  5
9C
330
1F
100
AcDbEntity
  8
LC-001-100-D00-0
 62
     7
370
    25
100
AcDbLine
 10
322.726884
 20
166.818626
 30
0.0
 11
322.726884
 21
167.71825
 31
0.0
  0
LINE
  5
9D
330
1F
100
AcDbEntity
  8
LC-001-100-D00-0
 62
     7
370
    25
100
AcDbLine
 10
323.611333
 20
166.818626
 30
0.0
 11
322.726884
 21
166.818626
 31
0.0
  0
ARC
  5
9E
330
1F
100
AcDbEntity
  8
LC-001-100-D00-0
 62
     7
370
    25
100
AcDbCircle
 10
323.611335
 20
167.237576
 30
0.0
 40
0.4189499999999669
100
AcDbArc
 50
270.0
 51
0.0
  0
LINE
  5
9F
330
1F
100
AcDbEntity
  8
LC-001-100-D00-0
 62
     7
370
    25
100
AcDbLine
 10
324.030283
 20
167.2993
 30
0.0
 11
324.030283
 21
167.237575
 31
0.0
  0
ARC
  5
A0
330
1F
100
AcDbEntity
  8
LC-001-100-D00-0
 62
     7
370
    25
100
AcDbCircle
 10
323.611335
 20
165.841076
 30
0.0
 40
0.4189500000000521
100
AcDbArc
 50
0.0
 51
90.0
  0
LINE
  5
A1
330
1F
100
AcDbEntity
  8
LC-001-100-D00-0
 62
     7
370
    25
100
AcDbLine
 10
322.726884
 20
166.260026
 30
0.0
 11
323.611333
 21
166.260026
 31
0.0
  0
LINE
  5
A2
330
1F
100
AcDbEntity
  8
LC-001-100-D00-0
 62
     7
370
    25
100
AcDbLine
 10
322.726884
 20
165.329027
 30
0.0
 11
322.726884
 21
166.260026
 31
0.0
  0
LINE
  5
A3
330
1F
100
AcDbEntity
  8
LC-001-100-D00-0
 62
     7
370
    25
100
AcDbLine
 10
322.168284
 20
165.329027
 30
0.0
 11
322.726884
 21
165.329027
 31
0.0
  0
LINE
  5
A4
330
1F
100
AcDbEntity
  8
LC-001-100-D00-0
 62
     7
370
    25
100
AcDbLine
 10
322.168284
 20
168.276849
 30
0.0
 11
322.168284
 21
165.329027
 31
0.0
  0
LINE
  5
A5
330
1F
100
AcDbEntity
  8
LC-001-100-D00-0
 62
     7
370
    25
100
AcDbLine
 10
324.123386
 20
168.276849
 30
0.0
 11
322.168284
 21
168.276849
 31
0.0
  0
ARC
  5
A6
330
1F
100
AcDbEntity
  8
LC-001-100-D00-0
 62
     7
370
    25
100
AcDbCircle
 10
324.123385
 20
167.81135
 30
0.0
 40
0.4654999999999632
100
AcDbArc
 50
0.0
 51
90.0
  0
LINE
  5
A7
330
1F
100
AcDbEntity
  8
LC-001-100-D00-0
 62
     7
370
    25
100
AcDbLine
 10
324.588883
 20
166.99542
 30
0.0
 11
324.588883
 21
167.811352
 31
0.0
  0
ARC
  5
A8
330
1F
100
AcDbEntity
  8
LC-001-100-D00-0
 62
     7
370
    25
100
AcDbCircle
 10
324.123385
 20
166.995421
 30
0.0
 40
0.465500000000122
100
AcDbArc
 50
281.536959
 51
0.0
  0
ARC
  5
A9
330
1F
100
AcDbEntity
  8
LC-001-100-D00-0
 62
     7
370
    25
100
AcDbCircle
 10
324.123385
 20
166.083231
 30
0.0
 40
0.4655000000002478
100
AcDbArc
 50
359.999998
 51
78.463041
  0
LINE
  5
AA
330
1F
100
AcDbEntity
  8
LC-001-100-D00-0
 62
     7
370
    25
100
AcDbLine
 10
324.588883
 20
165.329027
 30
0.0
 11
324.588883
 21
166.083231
 31
0.0
  0
LINE
  5
AB
330
1F
100
AcDbEntity
  8
LC-001-100-D00-0
 62
     7
370
    25
100
AcDbLine
 10
324.030283
 20
165.329027
 30
0.0
 11
324.588883
 21
165.329027
 31
0.0
  0
LINE
  5
AC
330
1F
100
AcDbEntity
  8
LC-001-100-D00-0
 62
     7
370
    25
100
AcDbLine
 10
324.030283
 20
165.841076
 30
0.0
 11
324.030283
 21
165.329027
 31
0.0
  0
ARC
  5
AD
330
1F
100
AcDbEntity
  8
LC-001-100-D00-0
 62
     7
370
    25
100
AcDbCircle
 10
324.123385
 20
167.81135
 30
0.0
 40
0.6517000000457074
100
AcDbArc
 50
0.0
 51
90.0
  0
LINE
  5
AE
330
1F
100
AcDbEntity
  8
LC-001-100-D00-0
 62
     7
370
    25
100
AcDbLine
 10
321.982085
 20
168.463051
 30
0.0
 11
324.123386
 21
168.463051
 31
0.0
  0
LINE
  5
AF
330
1F
100
AcDbEntity
  8
LC-001-100-D00-0
 62
     7
370
    25
100
AcDbLine
 10
321.982085
 20
168.463051
 30
0.0
 11
321.982085
 21
165.142826
 31
0.0
  0
LINE
  5
B0
330
1F
100
AcDbEntity
  8
LC-001-100-D00-0
 62
     7
370
    25
100
AcDbLine
 10
321.982085
 20
165.142826
 30
0.0
 11
322.913084
 21
165.142826
 31
0.0
  0
LINE
  5
B1
330
1F
100
AcDbEntity
  8
LC-001-100-D00-0
 62
     7
370
    25
100
AcDbLine
 10
322.913084
 20
166.073825
 30
0.0
 11
322.913084
 21
165.142826
 31
0.0
  0
LINE
  5
B2
330
1F
100
AcDbEntity
  8
LC-001-100-D00-0
 62
     7
370
    25
100
AcDbLine
 10
322.913084
 20
166.073825
 30
0.0
 11
323.611333
 21
166.073825
 31
0.0
  0
ARC
  5
B3
330
1F
100
AcDbEntity
  8
LC-001-100-D00-0
 62
     7
370
    25
100
AcDbCircle
 10
323.611335
 20
165.841076
 30
0.0
 40
0.2327500000001237
100
AcDbArc
 50
0.0
 51
90.0
  0
LINE
  5
B4
330
1F
100
AcDbEntity
  8
LC-001-100-D00-0
 62
     7
370
    25
100
AcDbLine
 10
323.844086
 20
165.841076
 30
0.0
 11
323.844086
 21
165.142826
 31
0.0
  0
LINE
  5
B5
330
1F
100
AcDbEntity
  8
LC-001-100-D00-0
 62
     7
370
    25
100
AcDbLine
 10
323.844086
 20
165.142826
 30
0.0
 11
324.775084
 21
165.142826
 31
0.0
  0
LINE
  5
B6
330
1F
100
AcDbEntity
  8
LC-001-100-D00-0
 62
     7
370
    25
100
AcDbLine
 10
324.775084
 20
166.083231
 30
0.0
 11
324.775084
 21
165.142826
 31
0.0
  0
ARC
  5
B7
330
1F
100
AcDbEntity
  8
LC-001-100-D00-0
 62
     7
370
    25
100
AcDbCircle
 10
324.123385
 20
166.083231
 30
0.0
 40
0.6516999977470736
100
AcDbArc
 50
359.999998
 51
44.415309
  0
ARC
  5
B8
330
1F
100
AcDbEntity
  8
LC-001-100-D00-0
 62
     7
370
    25
100
AcDbCircle
 10
324.123385
 20
166.995421
 30
0.0
 40
0.6517000000458075
100
AcDbArc
 50
315.584691
 51
0.0
  0
LINE
  5
B9
330
1F
100
AcDbEntity
  8
LC-001-100-D00-0
 62
     7
370
    25
100
AcDbLine
 10
324.775084
 20
167.811352
 30
0.0
 11
324.775084
 21
166.99542
 31
0.0
  0
ARC
  5
BA
330
1F
100
AcDbEntity
  8
LC-001-100-D00-0
 62
     7
370
    25
100
AcDbCircle
 10
318.071885
 20
167.81135
 30
0.0
 40
0.6516999954940275
100
AcDbArc
 50
0.0
 51
90.0
  0
LINE
  5
BB
330
1F
100
AcDbEntity
  8
LC-001-100-D00-0
 62
     7
370
    25
100
AcDbLine
 10
317.08493
 20
168.463051
 30
0.0
 11
318.071884
 21
168.463051
 31
0.0
  0
ARC
  5
BC
330
1F
100
AcDbEntity
  8
LC-001-100-D00-0
 62
     7
370
    25
100
AcDbCircle
 10
317.084929
 20
167.81135
 30
0.0
 40
0.6516999954940846
100
AcDbArc
 50
89.999998
 51
134.415309
  0
ARC
  5
BD
330
1F
100
AcDbEntity
  8
LC-001-100-D00-0
 62
     7
370
    25
100
AcDbCircle
 10
316.17274
 20
167.81135
 30
0.0
 40
0.6517000000005353
100
AcDbArc
 50
45.584691
 51
90.0
  0
LINE
  5
BE
330
1F
100
AcDbEntity
  8
LC-001-100-D00-0
 62
     7
370
    25
100
AcDbLine
 10
315.185785
 20
168.463051
 30
0.0
 11
316.172739
 21
168.463051
 31
0.0
  0
ARC
  5
BF
330
1F
100
AcDbEntity
  8
LC-001-100-D00-0
 62
     7
370
    25
100
AcDbCircle
 10
315.185785
 20
167.81135
 30
0.0
 40
0.6517000000005169
100
AcDbArc
 50
90.0
 51
180.0
  0
LINE
  5
C0
330
1F
100
AcDbEntity
  8
LC-001-100-D00-0
 62
     7
370
    25
100
AcDbLine
 10
314.534084
 20
167.811352
 30
0.0
 11
314.534084
 21
165.142826
 31
0.0
  0
LINE
  5
C1
330
1F
100
AcDbEntity
  8
LC-001-100-D00-0
 62
     7
370
    25
100
AcDbLine
 10
314.534084
 20
165.142826
 30
0.0
 11
315.465085
 21
165.142826
 31
0.0
  0
LINE
  5
C2
330
1F
100
AcDbEntity
  8
LC-001-100-D00-0
 62
     7
370
    25
100
AcDbLine
 10
315.465085
 20
167.2993
 30
0.0
 11
315.465085
 21
165.142826
 31
0.0
  0
ARC
  5
C3
330
1F
100
AcDbEntity
  8
LC-001-100-D00-0
 62
     7
370
    25
100
AcDbCircle
 10
315.697835
 20
167.2993
 30
0.0
 40
0.23275000000001
100
AcDbArc
 50
90.0
 51
180.0
  0
LINE
  5
C4
330
1F
100
AcDbEntity
  8
LC-001-100-D00-0
 62
     7
370
    25
100
AcDbLine
 10
315.697835
 20
167.532052
 30
0.0
 11
315.930584
 21
167.532052
 31
0.0
  0
ARC
  5
C5
330
1F
100
AcDbEntity
  8
LC-001-100-D00-0
 62
     7
370
    25
100
AcDbCircle
 10
315.930585
 20
167.2993
 30
0.0
 40
0.23275000000001
100
AcDbArc
 50
0.0
 51
90.0
  0
LINE
  5
C6
330
1F
100
AcDbEntity
  8
LC-001-100-D00-0
 62
     7
370
    25
100
AcDbLine
 10
316.163334
 20
167.2993
 30
0.0
 11
316.163334
 21
165.142826
 31
0.0
  0
LINE
  5
C7
330
1F
100
AcDbEntity
  8
LC-001-100-D00-0
 62
     7
370
    25
100
AcDbLine
 10
316.163334
 20
165.142826
 30
0.0
 11
317.094335
 21
165.142826
 31
0.0
  0
LINE
  5
C8
330
1F
100
AcDbEntity
  8
LC-001-100-D00-0
 62
     7
370
    25
100
AcDbLine
 10
317.094335
 20
167.2993
 30
0.0
 11
317.094335
 21
165.142826
 31
0.0
  0
ARC
  5
C9
330
1F
100
AcDbEntity
  8
LC-001-100-D00-0
 62
     7
370
    25
100
AcDbCircle
 10
317.327085
 20
167.2993
 30
0.0
 40
0.2327499999998963
100
AcDbArc
 50
90.0
 51
180.0
  0
LINE
  5
CA
330
1F
100
AcDbEntity
  8
LC-001-100-D00-0
 62
     7
370
    25
100
AcDbLine
 10
317.327085
 20
167.532052
 30
0.0
 11
317.559834
 21
167.532052
 31
0.0
  0
ARC
  5
CB
330
1F
100
AcDbEntity
  8
LC-001-100-D00-0
 62
     7
370
    25
100
AcDbCircle
 10
317.559835
 20
167.2993
 30
0.0
 40
0.23275000000001
100
AcDbArc
 50
0.0
 51
90.0
  0
LINE
  5
CC
330
1F
100
AcDbEntity
  8
LC-001-100-D00-0
 62
     7
370
    25
100
AcDbLine
 10
317.792585
 20
167.2993
 30
0.0
 11
317.792585
 21
165.142826
 31
0.0
  0
LINE
  5
CD
330
1F
100
AcDbEntity
  8
LC-001-100-D00-0
 62
     7
370
    25
100
AcDbLine
 10
317.792585
 20
165.142826
 30
0.0
 11
318.723585
 21
165.142826
 31
0.0
  0
LINE
  5
CE
330
1F
100
AcDbEntity
  8
LC-001-100-D00-0
 62
     7
370
    25
100
AcDbLine
 10
318.723585
 20
167.811352
 30
0.0
 11
318.723585
 21
165.142826
 31
0.0
  0
LINE
  5
CF
330
1F
100
AcDbEntity
  8
LC-001-100-D00-0
 62
     7
370
    25
100
AcDbLine
 10
309.879084
 20
168.463051
 30
0.0
 11
309.879084
 21
165.142826
 31
0.0
  0
LINE
  5
D0
330
1F
100
AcDbEntity
  8
LC-001-100-D00-0
 62
     7
370
    25
100
AcDbLine
 10
309.879084
 20
165.142826
 30
0.0
 11
311.741085
 21
165.142826
 31
0.0
  0
LINE
  5
D1
330
1F
100
AcDbEntity
  8
LC-001-100-D00-0
 62
     7
370
    25
100
AcDbLine
 10
311.741085
 20
166.073825
 30
0.0
 11
311.741085
 21
165.142826
 31
0.0
  0
LINE
  5
D2
330
1F
100
AcDbEntity
  8
LC-001-100-D00-0
 62
     7
370
    25
100
AcDbLine
 10
310.810085
 20
166.073825
 30
0.0
 11
311.741085
 21
166.073825
 31
0.0
  0
LINE
  5
D3
330
1F
100
AcDbEntity
  8
LC-001-100-D00-0
 62
     7
370
    25
100
AcDbLine
 10
310.810085
 20
168.463051
 30
0.0
 11
310.810085
 21
166.073825
 31
0.0
  0
LINE
  5
D4
330
1F
100
AcDbEntity
  8
LC-001-100-D00-0
 62
     7
370
    25
100
AcDbLine
 10
309.879084
 20
168.463051
 30
0.0
 11
310.810085
 21
168.463051
 31
0.0
  0
LINE
  5
D5
330
1F
100
AcDbEntity
  8
LC-001-100-D00-0
 62
     7
370
    50
100
AcDbLine
 10
297.341824
 20
200.523025
 30
0.0
 11
325.341824
 21
200.523025
 31
0.0
  0
LINE
  5
D6
330
1F
100
AcDbEntity
  8
LC-001-100-D00-0
 62
     7
370
    50
100
AcDbLine
 10
297.341824
 20
172.523025
 30
0.0
 11
297.341824
 21
200.523025
 31
0.0
  0
LINE
  5
D7
330
1F
100
AcDbEntity
  8
LC-001-100-D00-0
 62
     7
370
    50
100
AcDbLine
 10
325.341824
 20
172.523025
 30
0.0
 11
297.341824
 21
172.523025
 31
0.0
  0
LINE
  5
D8
330
1F
100
AcDbEntity
  8
LC-001-100-D00-0
 62
     7
370
    50
100
AcDbLine
 10
325.341824
 20
200.523025
 30
0.0
 11
325.341824
 21
172.523025
 31
0.0
  0
LINE
  5
D9
330
1F
100
AcDbEntity
  8
LC-001-100-D00-0
 62
     7
370
    50
100
AcDbLine
 10
287.341824
 20
172.523025
 30
0.0
 11
287.341824
 21
200.523025
 31
0.0
  0
LINE
  5
DA
330
1F
100
AcDbEntity
  8
LC-001-100-D00-0
 62
     7
370
    50
100
AcDbLine
 10
287.341824
 20
200.523025
 30
0.0
 11
259.341824
 21
200.523025
 31
0.0
  0
LINE
  5
DB
330
1F
100
AcDbEntity
  8
LC-001-100-D00-0
 62
     7
370
    50
100
AcDbLine
 10
259.341824
 20
200.523025
 30
0.0
 11
259.341824
 21
172.523025
 31
0.0
  0
LINE
  5
DC
330
1F
100
AcDbEntity
  8
LC-001-100-D00-0
 62
     7
370
    50
100
AcDbLine
 10
259.341824
 20
172.523025
 30
0.0
 11
287.341824
 21
172.523025
 31
0.0
  0
ARC
  5
DD
330
1F
100
AcDbEntity
  8
LC-001-100-D00-0
 62
     7
370
    50
100
AcDbCircle
 10
334.841824
 20
163.023025
 30
0.0
 40
3.0
100
AcDbArc
 50
270.0
 51
0.0
  0
LINE
  5
DE
330
1F
100
AcDbEntity
  8
LC-001-100-D00-0
 62
     7
370
    50
100
AcDbLine
 10
249.841824
 20
160.023025
 30
0.0
 11
334.841824
 21
160.023025
 31
0.0
  0
ARC
  5
DF
330
1F
100
AcDbEntity
  8
LC-001-100-D00-0
 62
     7
370
    50
100
AcDbCircle
 10
249.841824
 20
163.023025
 30
0.0
 40
3.0
100
AcDbArc
 50
180.0
 51
270.0
  0
LINE
  5
E0
330
1F
100
AcDbEntity
  8
LC-001-100-D00-0
 62
     7
370
    50
100
AcDbLine
 10
246.841825
 20
248.023025
 30
0.0
 11
246.841825
 21
163.023024
 31
0.0
  0
ARC
  5
E1
330
1F
100
AcDbEntity
  8
LC-001-100-D00-0
 62
     7
370
    50
100
AcDbCircle
 10
249.841824
 20
248.023025
 30
0.0
 40
3.000000000000028
100
AcDbArc
 50
90.0
 51
180.0
  0
LINE
  5
E2
330
1F
100
AcDbEntity
  8
LC-001-100-D00-0
 62
     7
370
    50
100
AcDbLine
 10
334.841824
 20
251.023024
 30
0.0
 11
249.841824
 21
251.023024
 31
0.0
  0
ARC
  5
E3
330
1F
100
AcDbEntity
  8
LC-001-100-D00-0
 62
     7
370
    50
100
AcDbCircle
 10
334.841824
 20
248.023025
 30
0.0
 40
3.0
100
AcDbArc
 50
0.0
 51
90.0
  0
LINE
  5
E4
330
1F
100
AcDbEntity
  8
LC-001-100-D00-0
 62
     7
370
    50
100
AcDbLine
 10
337.841823
 20
163.023024
 30
0.0
 11
337.841823
 21
248.023025
 31
0.0
  0
LINE
  5
E5
330
1F
100
AcDbEntity
  8
LC-001-100-D00-0
 62
     7
370
    50
100
AcDbLine
 10
297.341824
 20
238.523024
 30
0.0
 11
297.341824
 21
210.523024
 31
0.0
  0
LINE
  5
E6
330
1F
100
AcDbEntity
  8
LC-001-100-D00-0
 62
     7
370
    50
100
AcDbLine
 10
297.341824
 20
210.523024
 30
0.0
 11
325.341824
 21
210.523024
 31
0.0
  0
LINE
  5
E7
330
1F
100
AcDbEntity
  8
LC-001-100-D00-0
 62
     7
370
    50
100
AcDbLine
 10
325.341824
 20
210.523024
 30
0.0
 11
325.341824
 21
238.523024
 31
0.0
  0
LINE
  5
E8
330
1F
100
AcDbEntity
  8
LC-001-100-D00-0
 62
     7
370
    50
100
AcDbLine
 10
325.341824
 20
238.523024
 30
0.0
 11
297.341824
 21
238.523024
 31
0.0
  0
LINE
  5
E9
330
1F
100
AcDbEntity
  8
LC-001-100-D00-0
 62
     7
370
    50
100
AcDbLine
 10
287.341824
 20
210.523024
 30
0.0
 11
259.341824
 21
210.523024
 31
0.0
  0
LINE
  5
EA
330
1F
100
AcDbEntity
  8
LC-001-100-D00-0
 62
     7
370
    50
100
AcDbLine
 10
287.341824
 20
238.523024
 30
0.0
 11
287.341824
 21
210.523024
 31
0.0
  0
LINE
  5
EB
330
1F
100
AcDbEntity
  8
LC-001-100-D00-0
 62
     7
370
    50
100
AcDbLine
 10
259.341824
 20
238.523024
 30
0.0
 11
287.341824
 21
238.523024
 31
0.0
  0
LINE
  5
EC
330
1F
100
AcDbEntity
  8
LC-001-100-D00-0
 62
     7
370
    50
100
AcDbLine
 10
259.341824
 20
210.523024
 30
0.0
 11
259.341824
 21
238.523024
 31
0.0
  0
LINE
  5
ED
330
1F
100
AcDbEntity
  8
LC-001-100-D00-0
 62
     7
370
    25
100
AcDbLine
 10
302.410882
 20
167.483143
 30
0.0
 11
301.77404
 21
169.232848
 31
0.0
  0
LINE
  5
EE
330
1F
100
AcDbEntity
  8
LC-001-100-D00-0
 62
     7
370
    25
100
AcDbLine
 10
300.024332
 20
168.596006
 30
0.0
 11
301.77404
 21
169.232848
 31
0.0
  0
LINE
  5
EF
330
1F
100
AcDbEntity
  8
LC-001-100-D00-0
 62
     7
370
    25
100
AcDbLine
 10
300.024332
 20
168.596006
 30
0.0
 11
298.274625
 21
167.959164
 31
0.0
  0
LINE
  5
F0
330
1F
100
AcDbEntity
  8
LC-001-100-D00-0
 62
     7
370
    25
100
AcDbLine
 10
298.911467
 20
166.209459
 30
0.0
 11
298.274625
 21
167.959164
 31
0.0
  0
LINE
  5
F1
330
1F
100
AcDbEntity
  8
LC-001-100-D00-0
 62
     7
370
    25
100
AcDbLine
 10
298.911467
 20
166.209459
 30
0.0
 11
299.548309
 21
164.459749
 31
0.0
  0
LINE
  5
F2
330
1F
100
AcDbEntity
  8
LC-001-100-D00-0
 62
     7
370
    25
100
AcDbLine
 10
301.298016
 20
165.096591
 30
0.0
 11
299.548309
 21
164.459749
 31
0.0
  0
LINE
  5
F3
330
1F
100
AcDbEntity
  8
LC-001-100-D00-0
 62
     7
370
    25
100
AcDbLine
 10
301.298016
 20
165.096591
 30
0.0
 11
303.047725
 21
165.733434
 31
0.0
  0
LINE
  5
F4
330
1F
100
AcDbEntity
  8
LC-001-100-D00-0
 62
     7
370
    25
100
AcDbLine
 10
302.410882
 20
167.483143
 30
0.0
 11
303.047725
 21
165.733434
 31
0.0
  0
LINE
  5
F5
330
1F
100
AcDbEntity
  8
LC-001-100-D00-0
 62
     7
370
    25
100
AcDbLine
 10
306.155085
 20
167.811352
 30
0.0
 11
306.155085
 21
165.856249
 31
0.0
  0
ARC
  5
F6
330
1F
100
AcDbEntity
  8
LC-001-100-D00-0
 62
     7
370
    25
100
AcDbCircle
 10
305.503385
 20
167.81135
 30
0.0
 40
0.6517000000002327
100
AcDbArc
 50
0.0
 51
90.0
  0
LINE
  5
F7
330
1F
100
AcDbEntity
  8
LC-001-100-D00-0
 62
     7
370
    25
100
AcDbLine
 10
303.827584
 20
168.463051
 30
0.0
 11
305.503385
 21
168.463051
 31
0.0
  0
LINE
  5
F8
330
1F
100
AcDbEntity
  8
LC-001-100-D00-0
 62
     7
370
    25
100
AcDbLine
 10
303.827584
 20
168.463051
 30
0.0
 11
303.827584
 21
165.20455
 31
0.0
  0
LINE
  5
F9
330
1F
100
AcDbEntity
  8
LC-001-100-D00-0
 62
     7
370
    25
100
AcDbLine
 10
303.827584
 20
165.20455
 30
0.0
 11
305.503385
 21
165.20455
 31
0.0
  0
ARC
  5
FA
330
1F
100
AcDbEntity
  8
LC-001-100-D00-0
 62
     7
370
    25
100
AcDbCircle
 10
305.503385
 20
165.85625
 30
0.0
 40
0.6517000000000053
100
AcDbArc
 50
270.0
 51
0.0
  0
ARC
  5
FB
330
1F
100
AcDbEntity
  8
LC-001-100-D00-0
 62
     7
370
    25
100
AcDbCircle
 10
307.272285
 20
167.81135
 30
0.0
 40
0.6517000000000053
100
AcDbArc
 50
90.0
 51
180.0
  0
LINE
  5
FC
330
1F
100
AcDbEntity
  8
LC-001-100-D00-0
 62
     7
370
    25
100
AcDbLine
 10
306.620584
 20
167.811352
 30
0.0
 11
306.620584
 21
165.142826
 31
0.0
  0
LINE
  5
FD
330
1F
100
AcDbEntity
  8
LC-001-100-D00-0
 62
     7
370
    25
100
AcDbLine
 10
306.620584
 20
165.142826
 30
0.0
 11
307.551585
 21
165.142826
 31
0.0
  0
LINE
  5
FE
330
1F
100
AcDbEntity
  8
LC-001-100-D00-0
 62
     7
370
    25
100
AcDbLine
 10
307.551585
 20
166.073825
 30
0.0
 11
307.551585
 21
165.142826
 31
0.0
  0
LINE
  5
FF
330
1F
100
AcDbEntity
  8
LC-001-100-D00-0
 62
     7
370
    25
100
AcDbLine
 10
307.551585
 20
166.073825
 30
0.0
 11
308.482585
 21
166.073825
 31
0.0
  0
LINE
  5
100
330
1F
100
AcDbEntity
  8
LC-001-100-D00-0
 62
     7
370
    25
100
AcDbLine
 10
308.482585
 20
166.073825
 30
0.0
 11
308.482585
 21
165.142826
 31
0.0
  0
LINE
  5
101
330
1F
100
AcDbEntity
  8
LC-001-100-D00-0
 62
     7
370
    25
100
AcDbLine
 10
308.482585
 20
165.142826
 30
0.0
 11
309.413585
 21
165.142826
 31
0.0
  0
LINE
  5
102
330
1F
100
AcDbEntity
  8
LC-001-100-D00-0
 62
     7
370
    25
100
AcDbLine
 10
309.413585
 20
167.811352
 30
0.0
 11
309.413585
 21
165.142826
 31
0.0
  0
ARC
  5
103
330
1F
100
AcDbEntity
  8
LC-001-100-D00-0
 62
     7
370
    25
100
AcDbCircle
 10
308.761885
 20
167.81135
 30
0.0
 40
0.6517000000000053
100
AcDbArc
 50
360.0
 51
90.0
  0
LINE
  5
104
330
1F
100
AcDbEntity
  8
LC-001-100-D00-0
 62
     7
370
    25
100
AcDbLine
 10
307.272285
 20
168.463051
 30
0.0
 11
308.761885
 21
168.463051
 31
0.0
  0
LINE
  5
105
330
1F
100
AcDbEntity
  8
LC-001-100-D00-0
 62
     7
370
    25
100
AcDbLine
 10
312.206584
 20
165.142826
 30
0.0
 11
314.068585
 21
165.142826
 31
0.0
  0
LINE
  5
106
330
1F
100
AcDbEntity
  8
LC-001-100-D00-0
 62
     7
370
    25
100
AcDbLine
 10
314.068585
 20
166.073825
 30
0.0
 11
314.068585
 21
165.142826
 31
0.0
  0
LINE
  5
107
330
1F
100
AcDbEntity
  8
LC-001-100-D00-0
 62
     7
370
    25
100
AcDbLine
 10
313.137585
 20
166.073825
 30
0.0
 11
314.068585
 21
166.073825
 31
0.0
  0
LINE
  5
108
330
1F
100
AcDbEntity
  8
LC-001-100-D00-0
 62
     7
370
    25
100
AcDbLine
 10
313.137585
 20
168.463051
 30
0.0
 11
313.137585
 21
166.073825
 31
0.0
  0
LINE
  5
109
330
1F
100
AcDbEntity
  8
LC-001-100-D00-0
 62
     7
370
    25
100
AcDbLine
 10
312.206584
 20
168.463051
 30
0.0
 11
313.137585
 21
168.463051
 31
0.0
  0
LINE
  5
10A
330
1F
100
AcDbEntity
  8
LC-001-100-D00-0
 62
     7
370
    25
100
AcDbLine
 10
319.189084
 20
168.463051
 30
0.0
 11
319.189084
 21
165.142826
 31
0.0
  0
LINE
  5
10B
330
1F
100
AcDbEntity
  8
LC-001-100-D00-0
 62
     7
370
    25
100
AcDbLine
 10
319.189084
 20
165.142826
 30
0.0
 11
321.516584
 21
165.142826
 31
0.0
  0
LINE
  5
10C
330
1F
100
AcDbEntity
  8
LC-001-100-D00-0
 62
     7
370
    25
100
AcDbLine
 10
321.516584
 20
165.887627
 30
0.0
 11
321.516584
 21
165.142826
 31
0.0
  0
LINE
  5
10D
330
1F
100
AcDbEntity
  8
LC-001-100-D00-0
 62
     7
370
    25
100
AcDbLine
 10
320.120084
 20
165.887627
 30
0.0
 11
321.516584
 21
165.887627
 31
0.0
  0
LINE
  5
10E
330
1F
100
AcDbEntity
  8
LC-001-100-D00-0
 62
     7
370
    25
100
AcDbLine
 10
320.120084
 20
166.43054
 30
0.0
 11
320.120084
 21
165.887627
 31
0.0
  0
LINE
  5
10F
330
1F
100
AcDbEntity
  8
LC-001-100-D00-0
 62
     7
370
    25
100
AcDbLine
 10
321.516584
 20
166.43054
 30
0.0
 11
320.120084
 21
166.43054
 31
0.0
  0
LINE
  5
110
330
1F
100
AcDbEntity
  8
LC-001-100-D00-0
 62
     7
370
    25
100
AcDbLine
 10
321.516584
 20
167.175337
 30
0.0
 11
321.516584
 21
166.43054
 31
0.0
  0
LINE
  5
111
330
1F
100
AcDbEntity
  8
LC-001-100-D00-0
 62
     7
370
    25
100
AcDbLine
 10
321.516584
 20
167.175337
 30
0.0
 11
320.120084
 21
167.175337
 31
0.0
  0
LINE
  5
112
330
1F
100
AcDbEntity
  8
LC-001-100-D00-0
 62
     7
370
    25
100
AcDbLine
 10
320.120084
 20
167.71825
 30
0.0
 11
320.120084
 21
167.175337
 31
0.0
  0
LINE
  5
113
330
1F
100
AcDbEntity
  8
LC-001-100-D00-0
 62
     7
370
    25
100
AcDbLine
 10
320.120084
 20
167.71825
 30
0.0
 11
321.516584
 21
167.71825
 31
0.0
  0
LINE
  5
114
330
1F
100
AcDbEntity
  8
LC-001-100-D00-0
 62
     7
370
    25
100
AcDbLine
 10
321.516584
 20
168.463051
 30
0.0
 11
321.516584
 21
167.71825
 31
0.0
  0
LINE
  5
115
330
1F
100
AcDbEntity
  8
LC-001-100-D00-0
 62
     7
370
    25
100
AcDbLine
 10
319.189084
 20
168.463051
 30
0.0
 11
321.516584
 21
168.463051
 31
0.0
  0
LINE
  5
116
330
1F
100
AcDbEntity
  8
LC-001-100-D00-0
 62
     7
370
    25
100
AcDbLine
 10
312.206584
 20
168.463051
 30
0.0
 11
312.206584
 21
165.142826
 31
0.0
  0
ARC
  5
117
330
1F
100
AcDbEntity
  8
LC-001-100-D00-0
 62
     7
370
    25
100
AcDbCircle
 10
307.784335
 20
167.2993
 30
0.0
 40
0.4189500000000237
100
AcDbArc
 50
90.0
 51
180.0
  0
LINE
  5
118
330
1F
100
AcDbEntity
  8
LC-001-100-D00-0
 62
     7
370
    25
100
AcDbLine
 10
307.365384
 20
166.818626
 30
0.0
 11
307.365384
 21
167.2993
 31
0.0
  0
LINE
  5
119
330
1F
100
AcDbEntity
  8
LC-001-100-D00-0
 62
     7
370
    25
100
AcDbLine
 10
308.668784
 20
166.818626
 30
0.0
 11
307.365384
 21
166.818626
 31
0.0
  0
LINE
  5
11A
330
1F
100
AcDbEntity
  8
LC-001-100-D00-0
 62
     7
370
    25
100
AcDbLine
 10
308.668784
 20
167.2993
 30
0.0
 11
308.668784
 21
166.818626
 31
0.0
  0
ARC
  5
11B
330
1F
100
AcDbEntity
  8
LC-001-100-D00-0
 62
     7
370
    25
100
AcDbCircle
 10
308.249835
 20
167.2993
 30
0.0
 40
0.4189499999999953
100
AcDbArc
 50
0.0
 51
90.0
  0
LINE
  5
11C
330
1F
100
AcDbEntity
  8
LC-001-100-D00-0
 62
     7
370
    25
100
AcDbLine
 10
307.784334
 20
167.71825
 30
0.0
 11
308.249834
 21
167.71825
 31
0.0
  0
LINE
  5
11D
330
1F
100
AcDbEntity
  8
LC-001-100-D00-0
 62
     7
370
    25
100
AcDbLine
 10
309.227384
 20
165.329027
 30
0.0
 11
309.227384
 21
167.811352
 31
0.0
  0
LINE
  5
11E
330
1F
100
AcDbEntity
  8
LC-001-100-D00-0
 62
     7
370
    25
100
AcDbLine
 10
308.668784
 20
165.329027
 30
0.0
 11
309.227384
 21
165.329027
 31
0.0
  0
LINE
  5
11F
330
1F
100
AcDbEntity
  8
LC-001-100-D00-0
 62
     7
370
    25
100
AcDbLine
 10
308.668784
 20
166.260026
 30
0.0
 11
308.668784
 21
165.329027
 31
0.0
  0
LINE
  5
120
330
1F
100
AcDbEntity
  8
LC-001-100-D00-0
 62
     7
370
    25
100
AcDbLine
 10
307.365384
 20
166.260026
 30
0.0
 11
308.668784
 21
166.260026
 31
0.0
  0
LINE
  5
121
330
1F
100
AcDbEntity
  8
LC-001-100-D00-0
 62
     7
370
    25
100
AcDbLine
 10
307.365384
 20
165.329027
 30
0.0
 11
307.365384
 21
166.260026
 31
0.0
  0
LINE
  5
122
330
1F
100
AcDbEntity
  8
LC-001-100-D00-0
 62
     7
370
    25
100
AcDbLine
 10
306.806784
 20
165.329027
 30
0.0
 11
307.365384
 21
165.329027
 31
0.0
  0
LINE
  5
123
330
1F
100
AcDbEntity
  8
LC-001-100-D00-0
 62
     7
370
    25
100
AcDbLine
 10
306.806784
 20
167.811352
 30
0.0
 11
306.806784
 21
165.329027
 31
0.0
  0
ARC
  5
124
330
1F
100
AcDbEntity
  8
LC-001-100-D00-0
 62
     7
370
    25
100
AcDbCircle
 10
307.272285
 20
167.81135
 30
0.0
 40
0.46550000000002
100
AcDbArc
 50
90.0
 51
180.0
  0
LINE
  5
125
330
1F
100
AcDbEntity
  8
LC-001-100-D00-0
 62
     7
370
    25
100
AcDbLine
 10
308.761885
 20
168.276849
 30
0.0
 11
307.272285
 21
168.276849
 31
0.0
  0
ARC
  5
126
330
1F
100
AcDbEntity
  8
LC-001-100-D00-0
 62
     7
370
    25
100
AcDbCircle
 10
308.761885
 20
167.81135
 30
0.0
 40
0.4655000000000769
100
AcDbArc
 50
360.0
 51
90.0
  0
ARC
  5
127
330
1F
100
AcDbEntity
  8
LC-001-100-D00-0
 62
     7
370
    25
100
AcDbCircle
 10
304.991335
 20
167.2993
 30
0.0
 40
0.4189499999999953
100
AcDbArc
 50
0.0
 51
90.0
  0
LINE
  5
128
330
1F
100
AcDbEntity
  8
LC-001-100-D00-0
 62
     7
370
    25
100
AcDbLine
 10
304.572384
 20
167.71825
 30
0.0
 11
304.991334
 21
167.71825
 31
0.0
  0
LINE
  5
129
330
1F
100
AcDbEntity
  8
LC-001-100-D00-0
 62
     7
370
    25
100
AcDbLine
 10
304.572384
 20
165.949351
 30
0.0
 11
304.572384
 21
167.71825
 31
0.0
  0
LINE
  5
12A
330
1F
100
AcDbEntity
  8
LC-001-100-D00-0
 62
     7
370
    25
100
AcDbLine
 10
304.991334
 20
165.949351
 30
0.0
 11
304.572384
 21
165.949351
 31
0.0
  0
ARC
  5
12B
330
1F
100
AcDbEntity
  8
LC-001-100-D00-0
 62
     7
370
    25
100
AcDbCircle
 10
304.991335
 20
166.3683
 30
0.0
 40
0.4189500000000521
100
AcDbArc
 50
270.0
 51
0.0
  0
LINE
  5
12C
330
1F
100
AcDbEntity
  8
LC-001-100-D00-0
 62
     7
370
    25
100
AcDbLine
 10
305.410285
 20
167.2993
 30
0.0
 11
305.410285
 21
166.368301
 31
0.0
  0
LINE
  5
12D
330
1F
100
AcDbEntity
  8
LC-001-100-D00-0
 62
     7
370
    25
100
AcDbLine
 10
304.013784
 20
165.390752
 30
0.0
 11
305.503385
 21
165.390752
 31
0.0
  0
LINE
  5
12E
330
1F
100
AcDbEntity
  8
LC-001-100-D00-0
 62
     7
370
    25
100
AcDbLine
 10
304.013784
 20
168.276849
 30
0.0
 11
304.013784
 21
165.390752
 31
0.0
  0
LINE
  5
12F
330
1F
100
AcDbEntity
  8
LC-001-100-D00-0
 62
     7
370
    25
100
AcDbLine
 10
305.503385
 20
168.276849
 30
0.0
 11
304.013784
 21
168.276849
 31
0.0
  0
ARC
  5
130
330
1F
100
AcDbEntity
  8
LC-001-100-D00-0
 62
     7
370
    25
100
AcDbCircle
 10
305.503385
 20
167.81135
 30
0.0
 40
0.4655000000002474
100
AcDbArc
 50
0.0
 51
90.0
  0
ARC
  5
131
330
1F
100
AcDbEntity
  8
LC-001-100-D00-0
 62
     7
370
    25
100
AcDbCircle
 10
305.503385
 20
165.85625
 30
0.0
 40
0.4655000000000484
100
AcDbArc
 50
270.0
 51
0.0
  0
LINE
  5
132
330
1F
100
AcDbEntity
  8
LC-001-100-D00-0
 62
     7
370
    25
100
AcDbLine
 10
305.968885
 20
165.856249
 30
0.0
 11
305.968885
 21
167.811352
 31
0.0
  0
ARC
  5
133
330
1F
100
AcDbEntity
  8
LC-001-100-D00-0
 62
     7
370
    25
100
AcDbCircle
 10
315.697835
 20
167.2993
 30
0.0
 40
0.4189500000000521
100
AcDbArc
 50
90.0
 51
180.0
  0
LINE
  5
134
330
1F
100
AcDbEntity
  8
LC-001-100-D00-0
 62
     7
370
    25
100
AcDbLine
 10
315.278885
 20
165.329027
 30
0.0
 11
315.278885
 21
167.2993
 31
0.0
  0
LINE
  5
135
330
1F
100
AcDbEntity
  8
LC-001-100-D00-0
 62
     7
370
    25
100
AcDbLine
 10
314.720284
 20
167.811352
 30
0.0
 11
314.720284
 21
165.329027
 31
0.0
  0
ARC
  5
136
330
1F
100
AcDbEntity
  8
LC-001-100-D00-0
 62
     7
370
    25
100
AcDbCircle
 10
315.185785
 20
167.81135
 30
0.0
 40
0.4655000000000484
100
AcDbArc
 50
90.0
 51
180.0
  0
LINE
  5
137
330
1F
100
AcDbEntity
  8
LC-001-100-D00-0
 62
     7
370
    25
100
AcDbLine
 10
316.172739
 20
168.276849
 30
0.0
 11
315.185785
 21
168.276849
 31
0.0
  0
ARC
  5
138
330
1F
100
AcDbEntity
  8
LC-001-100-D00-0
 62
     7
370
    25
100
AcDbCircle
 10
316.17274
 20
167.81135
 30
0.0
 40
0.4655000000000663
100
AcDbArc
 50
11.536959
 51
90.0
  0
ARC
  5
139
330
1F
100
AcDbEntity
  8
LC-001-100-D00-0
 62
     7
370
    25
100
AcDbCircle
 10
317.084929
 20
167.81135
 30
0.0
 40
0.4655000000001057
100
AcDbArc
 50
89.999998
 51
168.463041
  0
LINE
  5
13A
330
1F
100
AcDbEntity
  8
LC-001-100-D00-0
 62
     7
370
    25
100
AcDbLine
 10
318.071884
 20
168.276849
 30
0.0
 11
317.08493
 21
168.276849
 31
0.0
  0
ARC
  5
13B
330
1F
100
AcDbEntity
  8
LC-001-100-D00-0
 62
     7
370
    25
100
AcDbCircle
 10
318.071885
 20
167.81135
 30
0.0
 40
0.4655000000001337
100
AcDbArc
 50
0.0
 51
90.0
  0
LINE
  5
13C
330
1F
100
AcDbEntity
  8
LC-001-100-D00-0
 62
     7
370
    25
100
AcDbLine
 10
318.537384
 20
165.329027
 30
0.0
 11
318.537384
 21
167.811352
 31
0.0
  0
LINE
  5
13D
330
1F
100
AcDbEntity
  8
LC-001-100-D00-0
 62
     7
370
    25
100
AcDbLine
 10
317.978784
 20
165.329027
 30
0.0
 11
318.537384
 21
165.329027
 31
0.0
  0
LINE
  5
13E
330
1F
100
AcDbEntity
  8
LC-001-100-D00-0
 62
     7
370
    25
100
AcDbLine
 10
317.978784
 20
167.2993
 30
0.0
 11
317.978784
 21
165.329027
 31
0.0
  0
ARC
  5
13F
330
1F
100
AcDbEntity
  8
LC-001-100-D00-0
 62
     7
370
    25
100
AcDbCircle
 10
317.559835
 20
167.2993
 30
0.0
 40
0.418950000000109
100
AcDbArc
 50
0.0
 51
90.0
  0
LINE
  5
140
330
1F
100
AcDbEntity
  8
LC-001-100-D00-0
 62
     7
370
    25
100
AcDbLine
 10
317.327085
 20
167.71825
 30
0.0
 11
317.559834
 21
167.71825
 31
0.0
  0
ARC
  5
141
330
1F
100
AcDbEntity
  8
LC-001-100-D00-0
 62
     7
370
    25
100
AcDbCircle
 10
317.327085
 20
167.2993
 30
0.0
 40
0.4189500000000521
100
AcDbArc
 50
90.0
 51
180.0
  0
LINE
  5
142
330
1F
100
AcDbEntity
  8
LC-001-100-D00-0
 62
     7
370
    25
100
AcDbLine
 10
316.908135
 20
165.329027
 30
0.0
 11
316.908135
 21
167.2993
 31
0.0
  0
LINE
  5
143
330
1F
100
AcDbEntity
  8
LC-001-100-D00-0
 62
     7
370
    25
100
AcDbLine
 10
316.349534
 20
165.329027
 30
0.0
 11
316.908135
 21
165.329027
 31
0.0
  0
LINE
  5
144
330
1F
100
AcDbEntity
  8
LC-001-100-D00-0
 62
     7
370
    25
100
AcDbLine
 10
316.349534
 20
167.2993
 30
0.0
 11
316.349534
 21
165.329027
 31
0.0
  0
ARC
  5
145
330
1F
100
AcDbEntity
  8
LC-001-100-D00-0
 62
     7
370
    25
100
AcDbCircle
 10
315.930585
 20
167.2993
 30
0.0
 40
0.418950000000109
100
AcDbArc
 50
0.0
 51
90.0
  0
LINE
  5
146
330
1F
100
AcDbEntity
  8
LC-001-100-D00-0
 62
     7
370
    25
100
AcDbLine
 10
315.697835
 20
167.71825
 30
0.0
 11
315.930584
 21
167.71825
 31
0.0
  0
LINE
  5
147
330
1F
100
AcDbEntity
  8
LC-001-100-D00-0
 62
     7
370
    25
100
AcDbLine
 10
314.720284
 20
165.329027
 30
0.0
 11
315.278885
 21
165.329027
 31
0.0
  0
LINE
  5
148
330
1F
100
AcDbEntity
  8
LC-001-100-D00-0
 62
     7
370
    25
100
AcDbLine
 10
305.224085
 20
167.2993
 30
0.0
 11
305.224085
 21
166.368301
 31
0.0
  0
ARC
  5
149
330
1F
100
AcDbEntity
  8
LC-001-100-D00-0
 62
     7
370
    25
100
AcDbCircle
 10
304.991335
 20
166.3683
 30
0.0
 40
0.2327500000000384
100
AcDbArc
 50
270.0
 51
0.0
  0
LINE
  5
14A
330
1F
100
AcDbEntity
  8
LC-001-100-D00-0
 62
     7
370
    25
100
AcDbLine
 10
304.758584
 20
166.135549
 30
0.0
 11
304.991334
 21
166.135549
 31
0.0
  0
LINE
  5
14B
330
1F
100
AcDbEntity
  8
LC-001-100-D00-0
 62
     7
370
    25
100
AcDbLine
 10
304.758584
 20
167.532052
 30
0.0
 11
304.758584
 21
166.135549
 31
0.0
  0
LINE
  5
14C
330
1F
100
AcDbEntity
  8
LC-001-100-D00-0
 62
     7
370
    25
100
AcDbLine
 10
304.758584
 20
167.532052
 30
0.0
 11
304.991334
 21
167.532052
 31
0.0
  0
ARC
  5
14D
330
1F
100
AcDbEntity
  8
LC-001-100-D00-0
 62
     7
370
    25
100
AcDbCircle
 10
304.991335
 20
167.2993
 30
0.0
 40
0.23275000000001
100
AcDbArc
 50
0.0
 51
90.0
  0
LINE
  5
14E
330
1F
100
AcDbEntity
  8
LC-001-100-D00-0
 62
     7
370
    25
100
AcDbLine
 10
308.482585
 20
167.2993
 30
0.0
 11
308.482585
 21
167.004827
 31
0.0
  0
LINE
  5
14F
330
1F
100
AcDbEntity
  8
LC-001-100-D00-0
 62
     7
370
    25
100
AcDbLine
 10
307.551585
 20
167.004827
 30
0.0
 11
308.482585
 21
167.004827
 31
0.0
  0
LINE
  5
150
330
1F
100
AcDbEntity
  8
LC-001-100-D00-0
 62
     7
370
    25
100
AcDbLine
 10
307.551585
 20
167.2993
 30
0.0
 11
307.551585
 21
167.004827
 31
0.0
  0
ARC
  5
151
330
1F
100
AcDbEntity
  8
LC-001-100-D00-0
 62
     7
370
    25
100
AcDbCircle
 10
307.784335
 20
167.2993
 30
0.0
 40
0.23275000000001
100
AcDbArc
 50
90.0
 51
180.0
  0
LINE
  5
152
330
1F
100
AcDbEntity
  8
LC-001-100-D00-0
 62
     7
370
    25
100
AcDbLine
 10
307.784334
 20
167.532052
 30
0.0
 11
308.249834
 21
167.532052
 31
0.0
  0
ARC
  5
153
330
1F
100
AcDbEntity
  8
LC-001-100-D00-0
 62
     7
370
    25
100
AcDbCircle
 10
308.249835
 20
167.2993
 30
0.0
 40
0.23275000000001
100
AcDbArc
 50
0.0
 51
90.0
  0
LINE
  5
154
330
1F
100
AcDbEntity
  8
LC-001-100-D00-0
 62
     7
370
    25
100
AcDbLine
 10
310.623884
 20
168.276849
 30
0.0
 11
310.065284
 21
168.276849
 31
0.0
  0
LINE
  5
155
330
1F
100
AcDbEntity
  8
LC-001-100-D00-0
 62
     7
370
    25
100
AcDbLine
 10
310.623884
 20
165.887627
 30
0.0
 11
310.623884
 21
168.276849
 31
0.0
  0
LINE
  5
156
330
1F
100
AcDbEntity
  8
LC-001-100-D00-0
 62
     7
370
    25
100
AcDbLine
 10
311.554884
 20
165.887627
 30
0.0
 11
310.623884
 21
165.887627
 31
0.0
  0
LINE
  5
157
330
1F
100
AcDbEntity
  8
LC-001-100-D00-0
 62
     7
370
    25
100
AcDbLine
 10
311.554884
 20
165.329027
 30
0.0
 11
311.554884
 21
165.887627
 31
0.0
  0
LINE
  5
158
330
1F
100
AcDbEntity
  8
LC-001-100-D00-0
 62
     7
370
    25
100
AcDbLine
 10
310.065284
 20
165.329027
 30
0.0
 11
311.554884
 21
165.329027
 31
0.0
  0
LINE
  5
159
330
1F
100
AcDbEntity
  8
LC-001-100-D00-0
 62
     7
370
    25
100
AcDbLine
 10
310.065284
 20
168.276849
 30
0.0
 11
310.065284
 21
165.329027
 31
0.0
  0
LINE
  5
15A
330
1F
100
AcDbEntity
  8
LC-001-100-D00-0
 62
     7
370
    25
100
AcDbLine
 10
321.330385
 20
168.276849
 30
0.0
 11
319.375285
 21
168.276849
 31
0.0
  0
LINE
  5
15B
330
1F
100
AcDbEntity
  8
LC-001-100-D00-0
 62
     7
370
    25
100
AcDbLine
 10
321.330385
 20
167.904451
 30
0.0
 11
321.330385
 21
168.276849
 31
0.0
  0
LINE
  5
15C
330
1F
100
AcDbEntity
  8
LC-001-100-D00-0
 62
     7
370
    25
100
AcDbLine
 10
319.933885
 20
167.904451
 30
0.0
 11
321.330385
 21
167.904451
 31
0.0
  0
LINE
  5
15D
330
1F
100
AcDbEntity
  8
LC-001-100-D00-0
 62
     7
370
    25
100
AcDbLine
 10
321.330385
 20
166.98914
 30
0.0
 11
319.933885
 21
166.98914
 31
0.0
  0
LINE
  5
15E
330
1F
100
AcDbEntity
  8
LC-001-100-D00-0
 62
     7
370
    25
100
AcDbLine
 10
321.330385
 20
166.616737
 30
0.0
 11
321.330385
 21
166.98914
 31
0.0
  0
LINE
  5
15F
330
1F
100
AcDbEntity
  8
LC-001-100-D00-0
 62
     7
370
    25
100
AcDbLine
 10
319.933885
 20
166.616737
 30
0.0
 11
321.330385
 21
166.616737
 31
0.0
  0
LINE
  5
160
330
1F
100
AcDbEntity
  8
LC-001-100-D00-0
 62
     7
370
    25
100
AcDbLine
 10
321.330385
 20
165.329027
 30
0.0
 11
321.330385
 21
165.701426
 31
0.0
  0
LINE
  5
161
330
1F
100
AcDbEntity
  8
LC-001-100-D00-0
 62
     7
370
    25
100
AcDbLine
 10
319.375285
 20
165.329027
 30
0.0
 11
321.330385
 21
165.329027
 31
0.0
  0
LINE
  5
162
330
1F
100
AcDbEntity
  8
LC-001-100-D00-0
 62
     7
370
    25
100
AcDbLine
 10
319.375285
 20
168.276849
 30
0.0
 11
319.375285
 21
165.329027
 31
0.0
  0
LINE
  5
163
330
1F
100
AcDbEntity
  8
LC-001-100-D00-0
 62
     7
370
    25
100
AcDbLine
 10
319.933885
 20
165.701426
 30
0.0
 11
319.933885
 21
166.616737
 31
0.0
  0
LINE
  5
164
330
1F
100
AcDbEntity
  8
LC-001-100-D00-0
 62
     7
370
    25
100
AcDbLine
 10
319.933885
 20
166.98914
 30
0.0
 11
319.933885
 21
167.904451
 31
0.0
  0
LINE
  5
165
330
1F
100
AcDbEntity
  8
LC-001-100-D00-0
 62
     7
370
    25
100
AcDbLine
 10
321.330385
 20
165.701426
 30
0.0
 11
319.933885
 21
165.701426
 31
0.0
  0
LINE
  5
166
330
1F
100
AcDbEntity
  8
LC-001-100-D00-0
 62
     7
370
    25
100
AcDbLine
 10
323.844086
 20
167.2993
 30
0.0
 11
323.844086
 21
167.237575
 31
0.0
  0
ARC
  5
167
330
1F
100
AcDbEntity
  8
LC-001-100-D00-0
 62
     7
370
    25
100
AcDbCircle
 10
323.611335
 20
167.237576
 30
0.0
 40
0.23275000000001
100
AcDbArc
 50
270.0
 51
0.0
  0
LINE
  5
168
330
1F
100
AcDbEntity
  8
LC-001-100-D00-0
 62
     7
370
    25
100
AcDbLine
 10
322.913084
 20
167.004827
 30
0.0
 11
323.611333
 21
167.004827
 31
0.0
  0
LINE
  5
169
330
1F
100
AcDbEntity
  8
LC-001-100-D00-0
 62
     7
370
    25
100
AcDbLine
 10
322.913084
 20
167.532052
 30
0.0
 11
323.611333
 21
167.532052
 31
0.0
  0
ARC
  5
16A
330
1F
100
AcDbEntity
  8
LC-001-100-D00-0
 62
     7
370
    25
100
AcDbCircle
 10
323.611335
 20
167.2993
 30
0.0
 40
0.23275000000001
100
AcDbArc
 50
0.0
 51
90.0
  0
LINE
  5
16B
330
1F
100
AcDbEntity
  8
LC-001-100-D00-0
 62
     7
370
    25
100
AcDbLine
 10
322.913084
 20
167.532052
 30
0.0
 11
322.913084
 21
167.004827
 31
0.0
  0
LINE
  5
16C
330
1F
100
AcDbEntity
  8
LC-001-100-D00-0
 62
     7
370
    50
100
AcDbLine
 10
263.341825
 20
234.523024
 30
0.0
 11
263.341825
 21
214.523024
 31
0.0
  0
LINE
  5
16D
330
1F
100
AcDbEntity
  8
LC-001-100-D00-0
 62
     7
370
    50
100
AcDbLine
 10
283.341824
 20
214.523024
 30
0.0
 11
283.341824
 21
234.523024
 31
0.0
  0
LINE
  5
16E
330
1F
100
AcDbEntity
  8
LC-001-100-D00-0
 62
     7
370
    50
100
AcDbLine
 10
283.341824
 20
234.523024
 30
0.0
 11
263.341825
 21
234.523024
 31
0.0
  0
LINE
  5
16F
330
1F
100
AcDbEntity
  8
LC-001-100-D00-0
 62
     7
370
    50
100
AcDbLine
 10
263.341825
 20
214.523024
 30
0.0
 11
283.341824
 21
214.523024
 31
0.0
  0
LINE
  5
170
330
1F
100
AcDbEntity
  8
LC-001-100-D00-0
 62
     7
370
    50
100
AcDbLine
 10
321.341823
 20
214.523024
 30
0.0
 11
321.341823
 21
234.523024
 31
0.0
  0
LINE
  5
171
330
1F
100
AcDbEntity
  8
LC-001-100-D00-0
 62
     7
370
    50
100
AcDbLine
 10
321.341823
 20
234.523024
 30
0.0
 11
301.341824
 21
234.523024
 31
0.0
  0
LINE
  5
172
330
1F
100
AcDbEntity
  8
LC-001-100-D00-0
 62
     7
370
    50
100
AcDbLine
 10
301.341824
 20
214.523024
 30
0.0
 11
321.341823
 21
214.523024
 31
0.0
  0
LINE
  5
173
330
1F
100
AcDbEntity
  8
LC-001-100-D00-0
 62
     7
370
    50
100
AcDbLine
 10
301.341824
 20
234.523024
 30
0.0
 11
301.341824
 21
214.523024
 31
0.0
  0
LINE
  5
174
330
1F
100
AcDbEntity
  8
LC-001-100-D00-0
 62
     7
370
    50
100
AcDbLine
 10
321.341823
 20
196.523025
 30
0.0
 11
301.341824
 21
196.523025
 31
0.0
  0
LINE
  5
175
330
1F
100
AcDbEntity
  8
LC-001-100-D00-0
 62
     7
370
    50
100
AcDbLine
 10
301.341824
 20
176.523025
 30
0.0
 11
321.341823
 21
176.523025
 31
0.0
  0
LINE
  5
176
330
1F
100
AcDbEntity
  8
LC-001-100-D00-0
 62
     7
370
    50
100
AcDbLine
 10
301.341824
 20
196.523025
 30
0.0
 11
301.341824
 21
176.523025
 31
0.0
  0
LINE
  5
177
330
1F
100
AcDbEntity
  8
LC-001-100-D00-0
 62
     7
370
    50
100
AcDbLine
 10
321.341823
 20
176.523025
 30
0.0
 11
321.341823
 21
196.523025
 31
0.0
  0
LINE
  5
178
330
1F
100
AcDbEntity
  8
LC-001-100-D00-0
 62
     7
370
    50
100
AcDbLine
 10
283.341824
 20
196.523025
 30
0.0
 11
263.341825
 21
196.523025
 31
0.0
  0
LINE
  5
179
330
1F
100
AcDbEntity
  8
LC-001-100-D00-0
 62
     7
370
    50
100
AcDbLine
 10
283.341824
 20
176.523025
 30
0.0
 11
283.341824
 21
196.523025
 31
0.0
  0
LINE
  5
17A
330
1F
100
AcDbEntity
  8
LC-001-100-D00-0
 62
     7
370
    50
100
AcDbLine
 10
263.341825
 20
176.523025
 30
0.0
 11
283.341824
 21
176.523025
 31
0.0
  0
LINE
  5
17B
330
1F
100
AcDbEntity
  8
LC-001-100-D00-0
 62
     7
370
    50
100
AcDbLine
 10
263.341825
 20
196.523025
 30
0.0
 11
263.341825
 21
176.523025
 31
0.0
  0
DIMENSION
  5
17F
330
1F
100
AcDbEntity
  8
LC-002-003-----0
 62
     7
370
    25
100
AcDbDimension
  2
*D1
 10
337.841824
 20
265.445568
 30
0.0
 11
293.372444
 21
296.245568
 31
0.0
 70
   160
  1
90
 71
     5
 42
91.0
  3
LC-DIM-L-0140-02-02
100
AcDbAlignedDimension
 13
246.841824
 23
248.023025
 33
0.0
 14
337.841824
 24
248.023025
 34
0.0
100
AcDbRotatedDimension
  0
ENDSEC
  0
SECTION
  2
OBJECTS
  0
DICTIONARY
  5
C
330
0
100
AcDbDictionary
281
     1
  3
ACAD_GROUP
350
D
  3
ACAD_LAYOUT
350
1A
  3
ACAD_MLINESTYLE
350
17
  3
ACAD_PLOTSETTINGS
350
19
  3
ACAD_PLOTSTYLENAME
350
E
  0
DICTIONARY
  5
D
102
{ACAD_REACTORS
330
C
102
}
330
C
100
AcDbDictionary
281
     1
  0
DICTIONARY
  5
1A
102
{ACAD_REACTORS
330
C
102
}
330
C
100
AcDbDictionary
281
     1
  3
Layout1
350
1E
  3
Layout2
350
26
  3
Model
350
22
  0
DICTIONARY
  5
17
102
{ACAD_REACTORS
330
C
102
}
330
C
100
AcDbDictionary
281
     1
  3
Standard
350
18
  0
DICTIONARY
  5
19
102
{ACAD_REACTORS
330
C
102
}
330
C
100
AcDbDictionary
281
     1
  0
ACDBDICTIONARYWDFLT
  5
E
102
{ACAD_REACTORS
330
C
102
}
330
C
100
AcDbDictionary
281
     1
  3
Normal
350
F
100
AcDbDictionaryWithDefault
340
F
  0
LAYOUT
  5
1E
102
{ACAD_REACTORS
330
1A
102
}
330
1A
100
AcDbPlotSettings
  1

  2

  4

  6

 40
0.0
 41
0.0
 42
0.0
 43
0.0
 44
0.0
 45
0.0
 46
0.0
 47
0.0
 48
0.0
 49
0.0
140
0.0
141
0.0
142
1.0
143
1.0
 70
   688
 72
     0
 73
     0
 74
     5
  7

 75
    16
147
1.0
148
0.0
149
0.0
100
AcDbLayout
  1
Layout1
 70
     1
 71
     1
 10
-209.760318
 20
-147.978432
 11
630.239682
 21
446.021568
 12
0.0
 22
0.0
 32
0.0
 14
-209.760318
 24
-147.978432
 34
0.0
 15
630.239682
 25
446.021568
 35
0.0
146
0.0
 13
0.0
 23
0.0
 33
0.0
 16
1.0
 26
0.0
 36
0.0
 17
0.0
 27
1.0
 37
0.0
 76
     0
330
1B
  0
LAYOUT
  5
26
102
{ACAD_REACTORS
330
1A
102
}
330
1A
100
AcDbPlotSettings
  1

  2

  4

  6

 40
0.0
 41
0.0
 42
0.0
 43
0.0
 44
0.0
 45
0.0
 46
0.0
 47
0.0
 48
0.0
 49
0.0
140
0.0
141
0.0
142
1.0
143
1.0
 70
   688
 72
     0
 73
     0
 74
     5
  7

 75
    16
147
1.0
148
0.0
149
0.0
100
AcDbLayout
  1
Layout2
 70
     1
 71
     2
 10
0.0
 20
0.0
 11
0.0
 21
0.0
 12
0.0
 22
0.0
 32
0.0
 14
0.0
 24
0.0
 34
0.0
 15
0.0
 25
0.0
 35
0.0
146
0.0
 13
0.0
 23
0.0
 33
0.0
 16
1.0
 26
0.0
 36
0.0
 17
0.0
 27
1.0
 37
0.0
 76
     0
330
23
  0
LAYOUT
  5
22
102
{ACAD_REACTORS
330
1A
102
}
330
1A
100
AcDbPlotSettings
  1

  2

  4

  6

 40
0.0
 41
0.0
 42
0.0
 43
0.0
 44
0.0
 45
0.0
 46
0.0
 47
0.0
 48
0.0
 49
0.0
140
0.0
141
0.0
142
1.0
143
1.0
 70
  1776
 72
     0
 73
     0
 74
     0
  7

 75
     0
147
1.0
148
0.0
149
0.0
100
AcDbLayout
  1
Model
 70
     1
 71
     0
 10
-209.760318
 20
-147.978432
 11
630.239682
 21
446.021568
 12
0.0
 22
0.0
 32
0.0
 14
-209.760318
 24
-147.978432
 34
0.0
 15
630.239682
 25
446.021568
 35
0.0
146
0.0
 13
0.0
 23
0.0
 33
0.0
 16
1.0
 26
0.0
 36
0.0
 17
0.0
 27
1.0
 37
0.0
 76
     0
330
1F
  0
MLINESTYLE
  5
18
102
{ACAD_REACTORS
330
17
102
}
330
17
100
AcDbMlineStyle
  2
Standard
 70
     0
  3

 62
   256
 51
90.0
 52
90.0
 71
     2
 49
0.5
 62
   256
  6
BYLAYER
 49
-0.5
 62
   256
  6
BYLAYER
  0
ACDBPLACEHOLDER
  5
F
102
{ACAD_REACTORS
330
E
102
}
330
E
  0
ENDSEC
  0
EOF
