  0
SECTION
  2
HEADER
  9
$ACADVER
  1
AC1009
  9
$INSBASE
 10
0.0
 20
0.0
 30
0.0
  9
$EXTMIN
 10
0.0
 20
0.0
 30
0.0
  9
$EXTMAX
 10
840.0
 20
594.0
 30
0.0
  9
$LIMMIN
 10
0.0
 20
0.0
  9
$LIMMAX
 10
840.0
 20
594.0
  9
$ORTHOMODE
 70
     0
  9
$REGENMODE
 70
     1
  9
$FILLMODE
 70
     1
  9
$QTEXTMODE
 70
     0
  9
$MIRRTEXT
 70
     1
  9
$DRAGMODE
 70
     2
  9
$LTSCALE
 40
2.0
  9
$OSMODE
 70
     0
  9
$ATTMODE
 70
     1
  9
$TEXTSIZE
 40
0.2
  9
$TRACEWID
 40
0.05
  9
$TEXTSTYLE
  7
STANDARD
  9
$CLAYER
  8
0
  9
$CELTYPE
  6
BYLAYER
  9
$CECOLOR
 62
     7
  9
$DIMSCALE
 40
2.0
  9
$DIMASZ
 40
3.5
  9
$DIMEXO
 40
0.0625
  9
$DIMDLI
 40
0.38
  9
$DIMRND
 40
0.0
  9
$DIMDLE
 40
0.0
  9
$DIMEXE
 40
0.18
  9
$DIMTP
 40
0.0
  9
$DIMTM
 40
0.0
  9
$DIMTXT
 40
3.5
  9
$DIMCEN
 40
0.09
  9
$DIMTSZ
 40
0.0
  9
$DIMTOL
 70
     0
  9
$DIMLIM
 70
     0
  9
$DIMTIH
 70
     1
  9
$DIMTOH
 70
     1
  9
$DIMSE1
 70
     0
  9
$DIMSE2
 70
     0
  9
$DIMTAD
 70
     1
  9
$DIMZIN
 70
     0
  9
$DIMBLK
  1

  9
$DIMASO
 70
     1
  9
$DIMSHO
 70
     1
  9
$DIMPOST
  1

  9
$DIMAPOST
  1

  9
$DIMALT
 70
     0
  9
$DIMALTD
 70
     2
  9
$DIMALTF
 40
25.4
  9
$DIMLFAC
 40
1.0
  9
$DIMTOFL
 70
     0
  9
$DIMTVP
 40
0.0
  9
$DIMTIX
 70
     0
  9
$DIMSOXD
 70
     0
  9
$DIMSAH
 70
     0
  9
$DIMBLK1
  1

  9
$DIMBLK2
  1

  9
$DIMSTYLE
  2
STANDARD
  9
$DIMCLRD
 70
     0
  9
$DIMCLRE
 70
     0
  9
$DIMCLRT
 70
     0
  9
$DIMTFAC
 40
1.0
  9
$DIMGAP
 40
0.09
  9
$LUNITS
 70
     2
  9
$LUPREC
 70
     2
  9
$AXISMODE
 70
     0
  9
$AXISUNIT
 10
0.0
 20
0.0
  9
$SKETCHINC
 40
0.1
  9
$FILLETRAD
 40
0.0
  9
$AUNITS
 70
     0
  9
$AUPREC
 70
     0
  9
$MENU
  1
acad
  9
$ELEVATION
 40
0.0
  9
$PELEVATION
 40
0.0
  9
$THICKNESS
 40
0.0
  9
$LIMCHECK
 70
     0
  9
$BLIPMODE
 70
     1
  9
$CHAMFERA
 40
0.0
  9
$CHAMFERB
 40
0.0
  9
$SKPOLY
 70
     0
  9
$TDCREATE
 40
0.000000000
  9
$TDUPDATE
 40
0.000000000
  9
$TDINDWG
 40
0.0000000000
  9
$TDUSRTIMER
 40
0.0000000000
  9
$USRTIMER
 70
     1
  9
$ANGBASE
 50
0.0
  9
$ANGDIR
 70
     0
  9
$PDMODE
 70
     0
  9
$PDSIZE
 40
0.0
  9
$PLINEWID
 40
0.0
  9
$COORDS
 70
     0
  9
$SPLFRAME
 70
     0
  9
$SPLINETYPE
 70
     6
  9
$SPLINESEGS
 70
     8
  9
$ATTDIA
 70
     0
  9
$ATTREQ
 70
     1
  9
$HANDLING
 70
     1
  9
$HANDSEED
  5
7E6
  9
$SURFTAB1
 70
     6
  9
$SURFTAB2
 70
     6
  9
$SURFTYPE
 70
     6
  9
$SURFU
 70
     6
  9
$SURFV
 70
     6
  9
$UCSNAME
  2

  9
$UCSORG
 10
0.0
 20
0.0
 30
0.0
  9
$UCSXDIR
 10
1.0
 20
0.0
 30
0.0
  9
$UCSYDIR
 10
0.0
 20
1.0
 30
0.0
  9
$PUCSNAME
  2

  9
$PUCSORG
 10
0.0
 20
0.0
 30
0.0
  9
$PUCSXDIR
 10
1.0
 20
0.0
 30
0.0
  9
$PUCSYDIR
 10
0.0
 20
1.0
 30
0.0
  9
$USERI1
 70
     0
  9
$USERI2
 70
     0
  9
$USERI3
 70
     0
  9
$USERI4
 70
     0
  9
$USERI5
 70
     0
  9
$USERR1
 40
0.0
  9
$USERR2
 40
0.0
  9
$USERR3
 40
0.0
  9
$USERR4
 40
0.0
  9
$USERR5
 40
0.0
  9
$WORLDVIEW
 70
     1
  9
$SHADEDGE
 70
     3
  9
$SHADEDIF
 70
    70
  9
$TILEMODE
 70
     1
  9
$MAXACTVP
 70
    16
  9
$PINSBASE
 10
0.0
 20
0.0
 30
0.0
  9
$PLIMCHECK
 70
     0
  9
$PEXTMIN
 10
1.000000E+20
 20
1.000000E+20
 30
1.000000E+20
  9
$PEXTMAX
 10
-1.000000E+20
 20
-1.000000E+20
 30
-1.000000E+20
  9
$PLIMMIN
 10
0.0
 20
0.0
  9
$PLIMMAX
 10
840.0
 20
594.0
  9
$UNITMODE
 70
     0
  9
$VISRETAIN
 70
     0
  9
$PLINEGEN
 70
     1
  9
$PSLTSCALE
 70
     0
  9
$TREEDEPTH
 70
  3020
  9
$DWGCODEPAGE
  3
dos850
  0
ENDSEC
  0
SECTION
  2
TABLES
  0
TABLE
  2
VPORT
 70
     1
  0
VPORT
  2
*ACTIVE
 70
     0
 10
0.0
 20
0.0
 11
1.0
 21
1.0
 12
420.0
 22
297.0
 13
0.0
 23
0.0
 14
1.0
 24
1.0
 15
0.0
 25
0.0
 16
0.0
 26
0.0
 36
1.0
 17
0.0
 27
0.0
 37
0.0
 40
594.0
 41
1.604229
 42
50.0
 43
0.0
 44
0.0
 50
0.0
 51
0.0
 71
     0
 72
   100
 73
     1
 74
     1
 75
     0
 76
     0
 77
     0
 78
     0
  0
ENDTAB
  0
TABLE
  2
LTYPE
 70
     3
  0
LTYPE
  2
CONTINUOUS
 70
    64
  3
Solid line
 72
    65
 73
     0
 40
0.0
  0
LTYPE
  2
DASHED
 70
    64
  3
__ __ __ __ __
 72
    65
 73
     2
 40
6.25
 49
5.0
 49
-1.25
  0
LTYPE
  2
DASHDOT
 70
    64
  3
__ . __ . __ . __ . __
 72
    65
 73
     4
 40
7.5
 49
5.0
 49
-1.25
 49
0.0
 49
-1.25
  0
ENDTAB
  0
TABLE
  2
LAYER
 70
    11
  0
LAYER
  2
0
 70
     0
 62
     7
  6
CONTINUOUS
  0
LAYER
  2
LC-INFO-1-2-MM-A3-0
 70
     1
 62
    -1
  6
CONTINUOUS
  0
LAYER
  2
LC-002-005-----0
 70
     0
 62
     2
  6
CONTINUOUS
  0
LAYER
  2
LC-004-003-MTH-0
 70
     0
 62
     2
  6
CONTINUOUS
  0
LAYER
  2
LC-003-003-----0
 70
     0
 62
     2
  6
CONTINUOUS
  0
LAYER
  2
LC-005-003-MTG-0
 70
     0
 62
     2
  6
CONTINUOUS
  0
LAYER
  2
LC-006-000-----0
 70
     0
 62
     7
  6
CONTINUOUS
  0
LAYER
  2
LC-008-000-----0
 70
     0
 62
     7
  6
CONTINUOUS
  0
LAYER
  2
LC-001-002-----0
 70
     0
 62
     1
  6
CONTINUOUS
  0
LAYER
  2
LC-007-002-RND-0
 70
     0
 62
     1
  6
CONTINUOUS
  0
LAYER
  2
LC-000
 70
     0
 62
     7
  6
CONTINUOUS
  0
ENDTAB
  0
TABLE
  2
STYLE
 70
     4
  0
STYLE
  2
STANDARD
 70
     0
 40
0.0
 41
1.0
 50
0.0
 71
     0
 42
0.0
  3
txt
  4

  0
STYLE
  2
LC-STANDARD
 70
    64
 40
0.0
 41
1.0
 50
0.0
 71
     0
 42
3.5
  3
MONOTXT
  4

  0
STYLE
  2
LC-TXTSTYLE-150-400-0-0-D2
 70
    64
 40
0.0
 41
1.0
 50
15.0
 71
     0
 42
3.5
  3
MONOTXT
  4

  0
STYLE
  2
LC-TXTSTYLE-150-400-0-0-D3
 70
    64
 40
0.0
 41
1.0
 50
15.0
 71
     0
 42
3.5
  3
LC-STANDARD
  4

  0
ENDTAB
  0
TABLE
  2
VIEW
 70
     0
  0
ENDTAB
  0
TABLE
  2
UCS
 70
     0
  0
ENDTAB
  0
TABLE
  2
APPID
 70
     1
  0
APPID
  2
ACAD
 70
     0
  0
ENDTAB
  0
TABLE
  2
DIMSTYLE
 70
     3
  0
DIMSTYLE
  2
STANDARD
 70
     0
  3

  4

  5

  6

  7

 40
1.0
 41
0.18
 42
0.0625
 43
0.38
 44
0.18
 45
0.0
 46
0.0
 47
0.0
 48
0.0
 71
     0
 72
     0
 73
     1
 74
     1
 75
     0
 76
     0
 77
     0
 78
     0
140
0.18
141
0.09
142
0.0
143
25.4
144
1.0
145
0.0
146
1.0
147
0.09
170
     0
171
     2
172
     0
173
     0
174
     0
175
     0
176
     0
177
     0
178
     0
  0
DIMSTYLE
  2
LC-STANDARD
 70
     0
  3

  4

  5

  6

  7

 40
1.0
 41
3.5
 42
0.0
 43
7.5
 44
1.8
 45
0.0
 46
0.0
 47
0.0
 48
0.0
 71
     0
 72
     0
 73
     0
 74
     0
 75
     0
 76
     0
 77
     1
 78
     8
140
3.5
141
0.0
142
0.0
143
25.4
144
1.0
145
0.0
146
0.71
147
1.5
170
     0
171
     2
172
     1
173
     0
174
     0
175
     0
176
     0
177
     0
178
     3
  0
DIMSTYLE
  2
LC-DIM-L-0090-02-02
 70
     0
  3

  4

  5

  6

  7

 40
2.0
 41
3.5
 42
0.0
 43
7.5
 44
1.8
 45
0.0
 46
0.0
 47
0.0
 48
0.0
 71
     0
 72
     0
 73
     0
 74
     0
 75
     0
 76
     0
 77
     1
 78
     8
140
9.0
141
0.0
142
0.0
143
25.4
144
1.0
145
0.0
146
0.71
147
1.5
170
     0
171
     2
172
     0
173
     0
174
     0
175
     0
176
     2
177
     2
178
     6
  0
ENDTAB
  0
ENDSEC
  0
SECTION
  2
BLOCKS
  0
BLOCK
  8
0
  5
23
  2
*X0
 70
    65
 10
356.458805
 20
241.906011
 30
0.0
  3
*X0
  0
LINE
  8
LC-002-005-----0
  6
CONTINUOUS
  5
25
 10
359.458805
 20
251.481454
 30
0.0
 11
357.034248
 21
253.906011
 31
0.0
  0
LINE
  8
LC-002-005-----0
  6
CONTINUOUS
  5
26
 10
359.458805
 20
248.653027
 30
0.0
 11
356.458805
 21
251.653027
 31
0.0
  0
LINE
  8
LC-002-005-----0
  6
CONTINUOUS
  5
27
 10
359.458805
 20
245.8246
 30
0.0
 11
356.458805
 21
248.8246
 31
0.0
  0
LINE
  8
LC-002-005-----0
  6
CONTINUOUS
  5
28
 10
359.458805
 20
242.996173
 30
0.0
 11
356.458805
 21
245.996173
 31
0.0
  0
ENDBLK
  8
0
  5
29
  0
BLOCK
  8
0
  5
2B
  2
*D1
 70
    65
 10
0.0
 20
0.0
 30
0.0
  3
*D1
  0
LINE
  8
LC-004-003-MTH-0
  6
CONTINUOUS
  5
2D
 10
196.604051
 20
512.844
 30
0.0
 11
196.604051
 21
429.2
 31
0.0
  0
LINE
  8
LC-004-003-MTH-0
  6
CONTINUOUS
  5
2E
 10
317.315333
 20
241.946018
 30
0.0
 11
317.315333
 21
450.8
 31
0.0
  0
LINE
  8
LC-003-003-----0
  6
CONTINUOUS
  5
30
 10
178.758044
 20
437.650529
 30
0.0
 11
196.604051
 21
440.0
 31
0.0
  0
LINE
  8
LC-003-003-----0
  6
CONTINUOUS
  5
31
 10
196.604051
 20
440.0
 30
0.0
 11
178.758044
 21
442.349471
 31
0.0
  0
LINE
  8
LC-003-003-----0
  6
CONTINUOUS
  5
32
 10
178.758044
 20
442.349471
 30
0.0
 11
178.758044
 21
437.650529
 31
0.0
  0
LINE
  8
LC-003-003-----0
  6
CONTINUOUS
  5
33
 10
178.718005
 20
438.261391
 30
0.0
 11
191.924051
 21
440.0
 31
0.0
  0
LINE
  8
LC-003-003-----0
  6
CONTINUOUS
  5
34
 10
191.924051
 20
440.0
 30
0.0
 11
178.718005
 21
441.738609
 31
0.0
  0
LINE
  8
LC-003-003-----0
  6
CONTINUOUS
  5
35
 10
178.677967
 20
438.872254
 30
0.0
 11
187.244051
 21
440.0
 31
0.0
  0
LINE
  8
LC-003-003-----0
  6
CONTINUOUS
  5
36
 10
187.244051
 20
440.0
 30
0.0
 11
178.677967
 21
441.127746
 31
0.0
  0
LINE
  8
LC-003-003-----0
  6
CONTINUOUS
  5
37
 10
178.637929
 20
439.483116
 30
0.0
 11
182.564051
 21
440.0
 31
0.0
  0
LINE
  8
LC-003-003-----0
  6
CONTINUOUS
  5
38
 10
182.564051
 20
440.0
 30
0.0
 11
178.637929
 21
440.516884
 31
0.0
  0
LINE
  8
LC-003-003-----0
  6
CONTINUOUS
  5
39
 10
335.161341
 20
442.349471
 30
0.0
 11
317.315333
 21
440.0
 31
0.0
  0
LINE
  8
LC-003-003-----0
  6
CONTINUOUS
  5
3A
 10
317.315333
 20
440.0
 30
0.0
 11
335.161341
 21
437.650529
 31
0.0
  0
LINE
  8
LC-003-003-----0
  6
CONTINUOUS
  5
3B
 10
335.161341
 20
437.650529
 30
0.0
 11
335.161341
 21
442.349471
 31
0.0
  0
LINE
  8
LC-003-003-----0
  6
CONTINUOUS
  5
3C
 10
335.201379
 20
441.738609
 30
0.0
 11
321.995333
 21
440.0
 31
0.0
  0
LINE
  8
LC-003-003-----0
  6
CONTINUOUS
  5
3D
 10
321.995333
 20
440.0
 30
0.0
 11
335.201379
 21
438.261391
 31
0.0
  0
LINE
  8
LC-003-003-----0
  6
CONTINUOUS
  5
3E
 10
335.241417
 20
441.127746
 30
0.0
 11
326.675333
 21
440.0
 31
0.0
  0
LINE
  8
LC-003-003-----0
  6
CONTINUOUS
  5
3F
 10
326.675333
 20
440.0
 30
0.0
 11
335.241417
 21
438.872254
 31
0.0
  0
LINE
  8
LC-003-003-----0
  6
CONTINUOUS
  5
40
 10
335.281455
 20
440.516884
 30
0.0
 11
331.355333
 21
440.0
 31
0.0
  0
LINE
  8
LC-003-003-----0
  6
CONTINUOUS
  5
41
 10
331.355333
 20
440.0
 30
0.0
 11
335.281455
 21
439.483116
 31
0.0
  0
LINE
  8
LC-005-003-MTG-0
  6
CONTINUOUS
  5
43
 10
171.404051
 20
440.0
 30
0.0
 11
456.317853
 21
440.0
 31
0.0
  0
TEXT
  8
LC-003-003-----0
  6
CONTINUOUS
 62
     6
  5
45
 10
344.590579
 20
450.431999
 30
0.0
 40
18.0
  1
MAX.225
 41
0.9
 51
15.0
  7
LC-TXTSTYLE-150-400-0-0-D0
  0
ENDBLK
  8
0
  5
46
  0
BLOCK
  8
0
  5
48
  2
*D2
 70
    65
 10
0.0
 20
0.0
 30
0.0
  3
*D2
  0
LINE
  8
LC-004-003-MTH-0
  6
CONTINUOUS
  5
49
 10
362.458805
 20
262.906011
 30
0.0
 11
362.458805
 21
330.8
 31
0.0
  0
LINE
  8
LC-004-003-MTH-0
  6
CONTINUOUS
  5
4A
 10
426.391543
 20
257.156017
 30
0.0
 11
426.391543
 21
330.8
 31
0.0
  0
LINE
  8
LC-005-003-MTG-0
  6
CONTINUOUS
  5
4B
 10
362.458805
 20
320.0
 30
0.0
 11
426.391543
 21
320.0
 31
0.0
  0
LINE
  8
LC-003-003-----0
  6
CONTINUOUS
  5
4C
 10
380.304812
 20
322.349471
 30
0.0
 11
362.458805
 21
320.0
 31
0.0
  0
LINE
  8
LC-003-003-----0
  6
CONTINUOUS
  5
4D
 10
362.458805
 20
320.0
 30
0.0
 11
380.304812
 21
317.650529
 31
0.0
  0
LINE
  8
LC-003-003-----0
  6
CONTINUOUS
  5
4E
 10
380.304812
 20
317.650529
 30
0.0
 11
380.304812
 21
322.349471
 31
0.0
  0
LINE
  8
LC-003-003-----0
  6
CONTINUOUS
  5
4F
 10
380.34485
 20
321.738609
 30
0.0
 11
367.138805
 21
320.0
 31
0.0
  0
LINE
  8
LC-003-003-----0
  6
CONTINUOUS
  5
50
 10
367.138805
 20
320.0
 30
0.0
 11
380.34485
 21
318.261391
 31
0.0
  0
LINE
  8
LC-003-003-----0
  6
CONTINUOUS
  5
51
 10
380.384888
 20
321.127746
 30
0.0
 11
371.818805
 21
320.0
 31
0.0
  0
LINE
  8
LC-003-003-----0
  6
CONTINUOUS
  5
52
 10
371.818805
 20
320.0
 30
0.0
 11
380.384888
 21
318.872254
 31
0.0
  0
LINE
  8
LC-003-003-----0
  6
CONTINUOUS
  5
53
 10
380.424926
 20
320.516884
 30
0.0
 11
376.498805
 21
320.0
 31
0.0
  0
LINE
  8
LC-003-003-----0
  6
CONTINUOUS
  5
54
 10
376.498805
 20
320.0
 30
0.0
 11
380.424926
 21
319.483116
 31
0.0
  0
LINE
  8
LC-003-003-----0
  6
CONTINUOUS
  5
55
 10
408.545535
 20
317.650529
 30
0.0
 11
426.391543
 21
320.0
 31
0.0
  0
LINE
  8
LC-003-003-----0
  6
CONTINUOUS
  5
56
 10
426.391543
 20
320.0
 30
0.0
 11
408.545535
 21
322.349471
 31
0.0
  0
LINE
  8
LC-003-003-----0
  6
CONTINUOUS
  5
57
 10
408.545535
 20
322.349471
 30
0.0
 11
408.545535
 21
317.650529
 31
0.0
  0
LINE
  8
LC-003-003-----0
  6
CONTINUOUS
  5
58
 10
408.505497
 20
318.261391
 30
0.0
 11
421.711543
 21
320.0
 31
0.0
  0
LINE
  8
LC-003-003-----0
  6
CONTINUOUS
  5
59
 10
421.711543
 20
320.0
 30
0.0
 11
408.505497
 21
321.738609
 31
0.0
  0
LINE
  8
LC-003-003-----0
  6
CONTINUOUS
  5
5A
 10
408.465459
 20
318.872254
 30
0.0
 11
417.031543
 21
320.0
 31
0.0
  0
LINE
  8
LC-003-003-----0
  6
CONTINUOUS
  5
5B
 10
417.031543
 20
320.0
 30
0.0
 11
408.465459
 21
321.127746
 31
0.0
  0
LINE
  8
LC-003-003-----0
  6
CONTINUOUS
  5
5C
 10
408.425421
 20
319.483116
 30
0.0
 11
412.351543
 21
320.0
 31
0.0
  0
LINE
  8
LC-003-003-----0
  6
CONTINUOUS
  5
5D
 10
412.351543
 20
320.0
 30
0.0
 11
408.425421
 21
320.516884
 31
0.0
  0
TEXT
  8
LC-003-003-----0
  6
CONTINUOUS
 62
     6
  5
5E
 10
385.357427
 20
330.431999
 30
0.0
 40
18.0
  1
64
 51
15.0
  7
LC-TXTSTYLE-150-400-0-0-D0
 72
     1
 11
397.220419
 21
330.431999
 31
0.0
  0
ENDBLK
  8
0
  5
5F
  0
BLOCK
  8
0
  5
61
  2
*D3
 70
    65
 10
0.0
 20
0.0
 30
0.0
  3
*D3
  0
LINE
  8
LC-004-003-MTH-0
  6
CONTINUOUS
  5
62
 10
212.354051
 20
225.350183
 30
0.0
 11
149.2
 21
225.350183
 31
0.0
  0
LINE
  8
LC-004-003-MTH-0
  6
CONTINUOUS
  5
63
 10
171.628554
 20
350.476095
 30
0.0
 11
149.2
 21
350.476095
 31
0.0
  0
LINE
  8
LC-005-003-MTG-0
  6
CONTINUOUS
  5
64
 10
160.0
 20
225.350183
 30
0.0
 11
160.0
 21
350.476095
 31
0.0
  0
LINE
  8
LC-003-003-----0
  6
CONTINUOUS
  5
65
 10
157.650529
 20
243.196191
 30
0.0
 11
160.0
 21
225.350183
 31
0.0
  0
LINE
  8
LC-003-003-----0
  6
CONTINUOUS
  5
66
 10
160.0
 20
225.350183
 30
0.0
 11
162.349471
 21
243.196191
 31
0.0
  0
LINE
  8
LC-003-003-----0
  6
CONTINUOUS
  5
67
 10
162.349471
 20
243.196191
 30
0.0
 11
157.650529
 21
243.196191
 31
0.0
  0
LINE
  8
LC-003-003-----0
  6
CONTINUOUS
  5
68
 10
158.261391
 20
243.236229
 30
0.0
 11
160.0
 21
230.030183
 31
0.0
  0
LINE
  8
LC-003-003-----0
  6
CONTINUOUS
  5
69
 10
160.0
 20
230.030183
 30
0.0
 11
161.738609
 21
243.236229
 31
0.0
  0
LINE
  8
LC-003-003-----0
  6
CONTINUOUS
  5
6A
 10
158.872254
 20
243.276267
 30
0.0
 11
160.0
 21
234.710183
 31
0.0
  0
LINE
  8
LC-003-003-----0
  6
CONTINUOUS
  5
6B
 10
160.0
 20
234.710183
 30
0.0
 11
161.127746
 21
243.276267
 31
0.0
  0
LINE
  8
LC-003-003-----0
  6
CONTINUOUS
  5
6C
 10
159.483116
 20
243.316305
 30
0.0
 11
160.0
 21
239.390183
 31
0.0
  0
LINE
  8
LC-003-003-----0
  6
CONTINUOUS
  5
6D
 10
160.0
 20
239.390183
 30
0.0
 11
160.516884
 21
243.316305
 31
0.0
  0
LINE
  8
LC-003-003-----0
  6
CONTINUOUS
  5
6E
 10
162.349471
 20
332.630087
 30
0.0
 11
160.0
 21
350.476095
 31
0.0
  0
LINE
  8
LC-003-003-----0
  6
CONTINUOUS
  5
6F
 10
160.0
 20
350.476095
 30
0.0
 11
157.650529
 21
332.630087
 31
0.0
  0
LINE
  8
LC-003-003-----0
  6
CONTINUOUS
  5
70
 10
157.650529
 20
332.630087
 30
0.0
 11
162.349471
 21
332.630087
 31
0.0
  0
LINE
  8
LC-003-003-----0
  6
CONTINUOUS
  5
71
 10
161.738609
 20
332.590049
 30
0.0
 11
160.0
 21
345.796095
 31
0.0
  0
LINE
  8
LC-003-003-----0
  6
CONTINUOUS
  5
72
 10
160.0
 20
345.796095
 30
0.0
 11
158.261391
 21
332.590049
 31
0.0
  0
LINE
  8
LC-003-003-----0
  6
CONTINUOUS
  5
73
 10
161.127746
 20
332.550011
 30
0.0
 11
160.0
 21
341.116095
 31
0.0
  0
LINE
  8
LC-003-003-----0
  6
CONTINUOUS
  5
74
 10
160.0
 20
341.116095
 30
0.0
 11
158.872254
 21
332.550011
 31
0.0
  0
LINE
  8
LC-003-003-----0
  6
CONTINUOUS
  5
75
 10
160.516884
 20
332.509973
 30
0.0
 11
160.0
 21
336.436095
 31
0.0
  0
LINE
  8
LC-003-003-----0
  6
CONTINUOUS
  5
76
 10
160.0
 20
336.436095
 30
0.0
 11
159.483116
 21
332.509973
 31
0.0
  0
TEXT
  8
LC-003-003-----0
  6
CONTINUOUS
 62
     6
  5
77
 10
149.568001
 20
248.932794
 30
0.0
 40
18.0
  1
70-275
 50
90.0
 51
15.0
  7
LC-TXTSTYLE-150-400-0-0-D0
 72
     1
 11
149.568001
 21
290.708385
 31
0.0
  0
ENDBLK
  8
0
  5
78
  0
BLOCK
  8
0
  5
7A
  2
*D4
 70
    65
 10
0.0
 20
0.0
 30
0.0
  3
*D4
  0
LINE
  8
LC-004-003-MTH-0
  6
CONTINUOUS
  5
7B
 10
426.391543
 20
109.463092
 30
0.0
 11
490.8
 21
109.463092
 31
0.0
  0
LINE
  8
LC-004-003-MTH-0
  6
CONTINUOUS
  5
7C
 10
426.391543
 20
255.455501
 30
0.0
 11
490.8
 21
255.455501
 31
0.0
  0
LINE
  8
LC-005-003-MTG-0
  6
CONTINUOUS
  5
7D
 10
480.0
 20
109.463092
 30
0.0
 11
480.0
 21
255.455501
 31
0.0
  0
LINE
  8
LC-003-003-----0
  6
CONTINUOUS
  5
7E
 10
477.650529
 20
127.3091
 30
0.0
 11
480.0
 21
109.463092
 31
0.0
  0
LINE
  8
LC-003-003-----0
  6
CONTINUOUS
  5
7F
 10
480.0
 20
109.463092
 30
0.0
 11
482.349471
 21
127.3091
 31
0.0
  0
LINE
  8
LC-003-003-----0
  6
CONTINUOUS
  5
80
 10
482.349471
 20
127.3091
 30
0.0
 11
477.650529
 21
127.3091
 31
0.0
  0
LINE
  8
LC-003-003-----0
  6
CONTINUOUS
  5
81
 10
478.261391
 20
127.349138
 30
0.0
 11
480.0
 21
114.143092
 31
0.0
  0
LINE
  8
LC-003-003-----0
  6
CONTINUOUS
  5
82
 10
480.0
 20
114.143092
 30
0.0
 11
481.738609
 21
127.349138
 31
0.0
  0
LINE
  8
LC-003-003-----0
  6
CONTINUOUS
  5
83
 10
478.872254
 20
127.389176
 30
0.0
 11
480.0
 21
118.823092
 31
0.0
  0
LINE
  8
LC-003-003-----0
  6
CONTINUOUS
  5
84
 10
480.0
 20
118.823092
 30
0.0
 11
481.127746
 21
127.389176
 31
0.0
  0
LINE
  8
LC-003-003-----0
  6
CONTINUOUS
  5
85
 10
479.483116
 20
127.429214
 30
0.0
 11
480.0
 21
123.503092
 31
0.0
  0
LINE
  8
LC-003-003-----0
  6
CONTINUOUS
  5
86
 10
480.0
 20
123.503092
 30
0.0
 11
480.516884
 21
127.429214
 31
0.0
  0
LINE
  8
LC-003-003-----0
  6
CONTINUOUS
  5
87
 10
482.349471
 20
237.609494
 30
0.0
 11
480.0
 21
255.455501
 31
0.0
  0
LINE
  8
LC-003-003-----0
  6
CONTINUOUS
  5
88
 10
480.0
 20
255.455501
 30
0.0
 11
477.650529
 21
237.609494
 31
0.0
  0
LINE
  8
LC-003-003-----0
  6
CONTINUOUS
  5
89
 10
477.650529
 20
237.609494
 30
0.0
 11
482.349471
 21
237.609494
 31
0.0
  0
LINE
  8
LC-003-003-----0
  6
CONTINUOUS
  5
8A
 10
481.738609
 20
237.569456
 30
0.0
 11
480.0
 21
250.775501
 31
0.0
  0
LINE
  8
LC-003-003-----0
  6
CONTINUOUS
  5
8B
 10
480.0
 20
250.775501
 30
0.0
 11
478.261391
 21
237.569456
 31
0.0
  0
LINE
  8
LC-003-003-----0
  6
CONTINUOUS
  5
8C
 10
481.127746
 20
237.529417
 30
0.0
 11
480.0
 21
246.095501
 31
0.0
  0
LINE
  8
LC-003-003-----0
  6
CONTINUOUS
  5
8D
 10
480.0
 20
246.095501
 30
0.0
 11
478.872254
 21
237.529417
 31
0.0
  0
LINE
  8
LC-003-003-----0
  6
CONTINUOUS
  5
8E
 10
480.516884
 20
237.489379
 30
0.0
 11
480.0
 21
241.415501
 31
0.0
  0
LINE
  8
LC-003-003-----0
  6
CONTINUOUS
  5
8F
 10
480.0
 20
241.415501
 30
0.0
 11
479.483116
 21
237.489379
 31
0.0
  0
TEXT
  8
LC-003-003-----0
  6
CONTINUOUS
 62
     6
  5
90
 10
474.968001
 20
168.246668
 30
0.0
 40
18.0
  1
146
 50
90.0
 51
15.0
  7
LC-TXTSTYLE-150-400-0-0-D0
 72
     1
 11
474.968001
 21
185.254542
 31
0.0
  0
ENDBLK
  8
0
  5
91
  0
BLOCK
  8
0
  5
93
  2
*X5
 70
    65
 10
160.604051
 20
342.111598
 30
0.0
  3
*X5
  0
LINE
  8
LC-002-005-----0
  6
CONTINUOUS
  5
94
 10
170.604051
 20
375.282384
 30
0.0
 11
169.774837
 21
376.111598
 31
0.0
  0
LINE
  8
LC-002-005-----0
  6
CONTINUOUS
  5
95
 10
170.604051
 20
372.453957
 30
0.0
 11
166.94641
 21
376.111598
 31
0.0
  0
LINE
  8
LC-002-005-----0
  6
CONTINUOUS
  5
96
 10
170.604051
 20
369.62553
 30
0.0
 11
168.104051
 21
372.12553
 31
0.0
  0
LINE
  8
LC-002-005-----0
  6
CONTINUOUS
  5
97
 10
167.117983
 20
373.111598
 30
0.0
 11
164.117983
 21
376.111598
 31
0.0
  0
LINE
  8
LC-002-005-----0
  6
CONTINUOUS
  5
98
 10
164.104051
 20
376.12553
 30
0.0
 11
162.117983
 21
378.111598
 31
0.0
  0
LINE
  8
LC-002-005-----0
  6
CONTINUOUS
  5
99
 10
177.375549
 20
360.025604
 30
0.0
 11
174.289556
 21
363.111598
 31
0.0
  0
LINE
  8
LC-002-005-----0
  6
CONTINUOUS
  5
9A
 10
170.604051
 20
366.797103
 30
0.0
 11
168.104051
 21
369.297103
 31
0.0
  0
LINE
  8
LC-002-005-----0
  6
CONTINUOUS
  5
9B
 10
164.289556
 20
373.111598
 30
0.0
 11
160.604051
 21
376.797103
 31
0.0
  0
LINE
  8
LC-002-005-----0
  6
CONTINUOUS
  5
9C
 10
178.318358
 20
356.254368
 30
0.0
 11
168.104051
 21
366.468676
 31
0.0
  0
LINE
  8
LC-002-005-----0
  6
CONTINUOUS
  5
9D
 10
179.261167
 20
352.483132
 30
0.0
 11
176.604051
 21
355.140248
 31
0.0
  0
LINE
  8
LC-002-005-----0
  6
CONTINUOUS
  5
9E
 10
180.604051
 20
348.311821
 30
0.0
 11
176.604051
 21
352.311821
 31
0.0
  0
LINE
  8
LC-002-005-----0
  6
CONTINUOUS
  5
9F
 10
180.604051
 20
345.483394
 30
0.0
 11
176.604051
 21
349.483394
 31
0.0
  0
LINE
  8
LC-002-005-----0
  6
CONTINUOUS
  5
A0
 10
180.604051
 20
342.654967
 30
0.0
 11
176.604051
 21
346.654967
 31
0.0
  0
LINE
  8
LC-002-005-----0
  6
CONTINUOUS
  5
A1
 10
178.318993
 20
342.111598
 30
0.0
 11
176.604051
 21
343.82654
 31
0.0
  0
ENDBLK
  8
0
  5
A2
  0
BLOCK
  8
0
  5
A4
  2
*X6
 70
    65
 10
212.604051
 20
342.111598
 30
0.0
  3
*X6
  0
LINE
  8
LC-002-005-----0
  6
CONTINUOUS
  5
A5
 10
232.552736
 20
375.559096
 30
0.0
 11
230.000234
 21
378.111598
 31
0.0
  0
LINE
  8
LC-002-005-----0
  6
CONTINUOUS
  5
A6
 10
231.498211
 20
373.785193
 30
0.0
 11
229.104051
 21
376.179354
 31
0.0
  0
LINE
  8
LC-002-005-----0
  6
CONTINUOUS
  5
A7
 10
229.34338
 20
373.111598
 30
0.0
 11
226.34338
 21
376.111598
 31
0.0
  0
LINE
  8
LC-002-005-----0
  6
CONTINUOUS
  5
A8
 10
226.514953
 20
373.111598
 30
0.0
 11
223.514953
 21
376.111598
 31
0.0
  0
LINE
  8
LC-002-005-----0
  6
CONTINUOUS
  5
A9
 10
225.104051
 20
371.694072
 30
0.0
 11
222.604051
 21
374.194072
 31
0.0
  0
LINE
  8
LC-002-005-----0
  6
CONTINUOUS
  5
AA
 10
225.104051
 20
368.865645
 30
0.0
 11
222.604051
 21
371.365645
 31
0.0
  0
LINE
  8
LC-002-005-----0
  6
CONTINUOUS
  5
AB
 10
225.104051
 20
366.037218
 30
0.0
 11
222.604051
 21
368.537218
 31
0.0
  0
LINE
  8
LC-002-005-----0
  6
CONTINUOUS
  5
AC
 10
224.402648
 20
363.910194
 30
0.0
 11
222.604051
 21
365.708791
 31
0.0
  0
LINE
  8
LC-002-005-----0
  6
CONTINUOUS
  5
AD
 10
222.988434
 20
362.495981
 30
0.0
 11
221.488434
 21
363.995981
 31
0.0
  0
LINE
  8
LC-002-005-----0
  6
CONTINUOUS
  5
AE
 10
221.574221
 20
361.081767
 30
0.0
 11
219.54439
 21
363.111598
 31
0.0
  0
LINE
  8
LC-002-005-----0
  6
CONTINUOUS
  5
AF
 10
220.160007
 20
359.667554
 30
0.0
 11
216.715963
 21
363.111598
 31
0.0
  0
LINE
  8
LC-002-005-----0
  6
CONTINUOUS
  5
B0
 10
218.745793
 20
358.25334
 30
0.0
 11
216.060748
 21
360.938385
 31
0.0
  0
LINE
  8
LC-002-005-----0
  6
CONTINUOUS
  5
B1
 10
217.059109
 20
357.111598
 30
0.0
 11
215.495063
 21
358.675644
 31
0.0
  0
LINE
  8
LC-002-005-----0
  6
CONTINUOUS
  5
B2
 10
216.604051
 20
354.738228
 30
0.0
 11
214.929377
 21
356.412902
 31
0.0
  0
LINE
  8
LC-002-005-----0
  6
CONTINUOUS
  5
B3
 10
216.604051
 20
351.909801
 30
0.0
 11
214.363692
 21
354.15016
 31
0.0
  0
LINE
  8
LC-002-005-----0
  6
CONTINUOUS
  5
B4
 10
216.604051
 20
349.081374
 30
0.0
 11
213.798006
 21
351.887419
 31
0.0
  0
LINE
  8
LC-002-005-----0
  6
CONTINUOUS
  5
B5
 10
216.604051
 20
346.252947
 30
0.0
 11
212.604051
 21
350.252947
 31
0.0
  0
LINE
  8
LC-002-005-----0
  6
CONTINUOUS
  5
B6
 10
216.604051
 20
343.42452
 30
0.0
 11
212.604051
 21
347.42452
 31
0.0
  0
LINE
  8
LC-002-005-----0
  6
CONTINUOUS
  5
B7
 10
215.088546
 20
342.111598
 30
0.0
 11
212.604051
 21
344.596093
 31
0.0
  0
ENDBLK
  8
0
  5
B8
  0
BLOCK
  8
0
  5
BA
  2
BLK1
 70
    64
 10
0.0
 20
0.0
 30
0.0
  3
BLK1
  0
ENDBLK
  8
0
  5
BB
  0
BLOCK
  8
0
  5
BD
  2
*X8
 70
    65
 10
317.357731
 20
109.043476
 30
0.0
  3
*X8
  0
LINE
  8
LC-002-005-----0
  6
CONTINUOUS
  5
BE
 10
325.110381
 20
178.03217
 30
0.0
 11
325.616545
 21
178.538334
 31
0.0
  0
LINE
  8
LC-002-005-----0
  6
CONTINUOUS
  5
BF
 10
323.225807
 20
178.976023
 30
0.0
 11
324.301455
 21
180.051672
 31
0.0
  0
LINE
  8
LC-002-005-----0
  6
CONTINUOUS
  5
C0
 10
321.844078
 20
180.422721
 30
0.0
 11
322.931053
 21
181.509697
 31
0.0
  0
LINE
  8
LC-002-005-----0
  6
CONTINUOUS
  5
C1
 10
320.976875
 20
182.383946
 30
0.0
 11
322.198982
 21
183.606053
 31
0.0
  0
LINE
  8
LC-002-005-----0
  6
CONTINUOUS
  5
C2
 10
320.385793
 20
184.621291
 30
0.0
 11
321.624816
 21
185.860314
 31
0.0
  0
LINE
  8
LC-002-005-----0
  6
CONTINUOUS
  5
C3
 10
319.839447
 20
186.903372
 30
0.0
 11
321.096826
 21
188.160751
 31
0.0
  0
LINE
  8
LC-002-005-----0
  6
CONTINUOUS
  5
C4
 10
319.339814
 20
189.232166
 30
0.0
 11
320.617142
 21
190.509494
 31
0.0
  0
LINE
  8
LC-002-005-----0
  6
CONTINUOUS
  5
C5
 10
318.889107
 20
191.609886
 30
0.0
 11
320.188155
 21
192.908934
 31
0.0
  0
LINE
  8
LC-002-005-----0
  6
CONTINUOUS
  5
C6
 10
318.489808
 20
194.039015
 30
0.0
 11
319.812558
 21
195.361765
 31
0.0
  0
LINE
  8
LC-002-005-----0
  6
CONTINUOUS
  5
C7
 10
318.14472
 20
196.522354
 30
0.0
 11
319.493403
 21
197.871037
 31
0.0
  0
LINE
  8
LC-002-005-----0
  6
CONTINUOUS
  5
C8
 10
317.857019
 20
199.06308
 30
0.0
 11
319.234166
 21
200.440226
 31
0.0
  0
LINE
  8
LC-002-005-----0
  6
CONTINUOUS
  5
C9
 10
317.630326
 20
201.664814
 30
0.0
 11
319.038826
 21
203.073313
 31
0.0
  0
LINE
  8
LC-002-005-----0
  6
CONTINUOUS
  5
CA
 10
317.468796
 20
204.331711
 30
0.0
 11
318.911978
 21
205.774893
 31
0.0
  0
LINE
  8
LC-002-005-----0
  6
CONTINUOUS
  5
CB
 10
321.043096
 20
207.906011
 30
0.0
 11
321.357046
 21
208.219961
 31
0.0
  0
LINE
  8
LC-002-005-----0
  6
CONTINUOUS
  5
CC
 10
317.377234
 20
207.068576
 30
0.0
 11
319.714669
 21
209.406011
 31
0.0
  0
ENDBLK
  8
0
  5
CD
  0
BLOCK
  8
0
  5
CF
  2
*X9
 70
    65
 10
327.458805
 20
248.45791
 30
0.0
  3
*X9
  0
LINE
  8
LC-002-005-----0
  6
CONTINUOUS
  5
D0
 10
380.263428
 20
250.15578
 30
0.0
 11
381.388527
 21
251.280879
 31
0.0
  0
LINE
  8
LC-002-005-----0
  6
CONTINUOUS
  5
D1
 10
382.563149
 20
252.455501
 30
0.0
 11
383.388524
 21
253.280876
 31
0.0
  0
LINE
  8
LC-002-005-----0
  6
CONTINUOUS
  5
D2
 10
377.435006
 20
250.155785
 30
0.0
 11
382.388524
 21
255.109303
 31
0.0
  0
LINE
  8
LC-002-005-----0
  6
CONTINUOUS
  5
D3
 10
374.606584
 20
250.155791
 30
0.0
 11
377.106579
 21
252.655786
 31
0.0
  0
LINE
  8
LC-002-005-----0
  6
CONTINUOUS
  5
D4
 10
371.778162
 20
250.155796
 30
0.0
 11
374.278158
 21
252.655791
 31
0.0
  0
LINE
  8
LC-002-005-----0
  6
CONTINUOUS
  5
D5
 10
368.949741
 20
250.155801
 30
0.0
 11
371.449736
 21
252.655797
 31
0.0
  0
LINE
  8
LC-002-005-----0
  6
CONTINUOUS
  5
D6
 10
366.121319
 20
250.155807
 30
0.0
 11
368.621314
 21
252.655802
 31
0.0
  0
LINE
  8
LC-002-005-----0
  6
CONTINUOUS
  5
D7
 10
363.292897
 20
250.155812
 30
0.0
 11
365.792893
 21
252.655808
 31
0.0
  0
LINE
  8
LC-002-005-----0
  6
CONTINUOUS
  5
D8
 10
360.464476
 20
250.155818
 30
0.0
 11
362.964471
 21
252.655813
 31
0.0
  0
LINE
  8
LC-002-005-----0
  6
CONTINUOUS
  5
D9
 10
359.458805
 20
251.978574
 30
0.0
 11
362.458805
 21
254.978574
 31
0.0
  0
LINE
  8
LC-002-005-----0
  6
CONTINUOUS
  5
DA
 10
359.458805
 20
254.807001
 30
0.0
 11
362.458805
 21
257.807001
 31
0.0
  0
LINE
  8
LC-002-005-----0
  6
CONTINUOUS
  5
DB
 10
359.458805
 20
257.635428
 30
0.0
 11
362.458805
 21
260.635428
 31
0.0
  0
LINE
  8
LC-002-005-----0
  6
CONTINUOUS
  5
DC
 10
359.458805
 20
260.463855
 30
0.0
 11
361.90096
 21
262.906011
 31
0.0
  0
LINE
  8
LC-002-005-----0
  6
CONTINUOUS
  5
DD
 10
358.072533
 20
261.906011
 30
0.0
 11
359.072533
 21
262.906011
 31
0.0
  0
LINE
  8
LC-002-005-----0
  6
CONTINUOUS
  5
DE
 10
355.244106
 20
261.906011
 30
0.0
 11
356.244106
 21
262.906011
 31
0.0
  0
LINE
  8
LC-002-005-----0
  6
CONTINUOUS
  5
DF
 10
352.415679
 20
261.906011
 30
0.0
 11
353.415679
 21
262.906011
 31
0.0
  0
LINE
  8
LC-002-005-----0
  6
CONTINUOUS
  5
E0
 10
349.587252
 20
261.906011
 30
0.0
 11
350.587252
 21
262.906011
 31
0.0
  0
LINE
  8
LC-002-005-----0
  6
CONTINUOUS
  5
E1
 10
346.758825
 20
261.906011
 30
0.0
 11
347.758825
 21
262.906011
 31
0.0
  0
LINE
  8
LC-002-005-----0
  6
CONTINUOUS
  5
E2
 10
343.930398
 20
261.906011
 30
0.0
 11
344.930398
 21
262.906011
 31
0.0
  0
LINE
  8
LC-002-005-----0
  6
CONTINUOUS
  5
E3
 10
341.101971
 20
261.906011
 30
0.0
 11
342.101971
 21
262.906011
 31
0.0
  0
LINE
  8
LC-002-005-----0
  6
CONTINUOUS
  5
E4
 10
338.273543
 20
261.906011
 30
0.0
 11
339.273543
 21
262.906011
 31
0.0
  0
LINE
  8
LC-002-005-----0
  6
CONTINUOUS
  5
E5
 10
335.445116
 20
261.906011
 30
0.0
 11
336.445116
 21
262.906011
 31
0.0
  0
LINE
  8
LC-002-005-----0
  6
CONTINUOUS
  5
E6
 10
332.616689
 20
261.906011
 30
0.0
 11
333.616689
 21
262.906011
 31
0.0
  0
LINE
  8
LC-002-005-----0
  6
CONTINUOUS
  5
E7
 10
329.788262
 20
261.906011
 30
0.0
 11
330.788262
 21
262.906011
 31
0.0
  0
LINE
  8
LC-002-005-----0
  6
CONTINUOUS
  5
E8
 10
327.458805
 20
262.404981
 30
0.0
 11
327.959835
 21
262.906011
 31
0.0
  0
ENDBLK
  8
0
  5
E9
  0
BLOCK
  8
0
  5
EB
  2
*X10
 70
    65
 10
327.458805
 20
109.463092
 30
0.0
  3
*X10
  0
LINE
  8
LC-002-005-----0
  6
CONTINUOUS
  5
EC
 10
381.08547
 20
109.556466
 30
0.0
 11
382.388524
 21
110.85952
 31
0.0
  0
LINE
  8
LC-002-005-----0
  6
CONTINUOUS
  5
ED
 10
382.450592
 20
110.921588
 30
0.0
 11
383.388524
 21
111.85952
 31
0.0
  0
LINE
  8
LC-002-005-----0
  6
CONTINUOUS
  5
EE
 10
379.303778
 20
110.603201
 30
0.0
 11
381.388524
 21
112.687947
 31
0.0
  0
LINE
  8
LC-002-005-----0
  6
CONTINUOUS
  5
EF
 10
378.413969
 20
112.54182
 30
0.0
 11
381.388524
 21
115.516374
 31
0.0
  0
LINE
  8
LC-002-005-----0
  6
CONTINUOUS
  5
F0
 10
378.388676
 20
115.344954
 30
0.0
 11
381.388524
 21
118.344801
 31
0.0
  0
LINE
  8
LC-002-005-----0
  6
CONTINUOUS
  5
F1
 10
378.388857
 20
118.173562
 30
0.0
 11
381.388524
 21
121.173228
 31
0.0
  0
LINE
  8
LC-002-005-----0
  6
CONTINUOUS
  5
F2
 10
378.389038
 20
121.00217
 30
0.0
 11
381.388524
 21
124.001656
 31
0.0
  0
LINE
  8
LC-002-005-----0
  6
CONTINUOUS
  5
F3
 10
378.389219
 20
123.830778
 30
0.0
 11
381.388524
 21
126.830083
 31
0.0
  0
LINE
  8
LC-002-005-----0
  6
CONTINUOUS
  5
F4
 10
378.3894
 20
126.659386
 30
0.0
 11
381.388524
 21
129.65851
 31
0.0
  0
LINE
  8
LC-002-005-----0
  6
CONTINUOUS
  5
F5
 10
378.38958
 20
129.487994
 30
0.0
 11
381.388524
 21
132.486937
 31
0.0
  0
LINE
  8
LC-002-005-----0
  6
CONTINUOUS
  5
F6
 10
381.472282
 20
132.570695
 30
0.0
 11
383.044838
 21
134.143251
 31
0.0
  0
LINE
  8
LC-002-005-----0
  6
CONTINUOUS
  5
F7
 10
378.389761
 20
132.316601
 30
0.0
 11
381.388524
 21
135.315364
 31
0.0
  0
LINE
  8
LC-002-005-----0
  6
CONTINUOUS
  5
F8
 10
378.389942
 20
135.145209
 30
0.0
 11
381.388524
 21
138.143791
 31
0.0
  0
LINE
  8
LC-002-005-----0
  6
CONTINUOUS
  5
F9
 10
378.390123
 20
137.973817
 30
0.0
 11
381.388524
 21
140.972218
 31
0.0
  0
LINE
  8
LC-002-005-----0
  6
CONTINUOUS
  5
FA
 10
378.390304
 20
140.802425
 30
0.0
 11
381.388524
 21
143.800645
 31
0.0
  0
LINE
  8
LC-002-005-----0
  6
CONTINUOUS
  5
FB
 10
378.390485
 20
143.631033
 30
0.0
 11
381.388524
 21
146.629073
 31
0.0
  0
LINE
  8
LC-002-005-----0
  6
CONTINUOUS
  5
FC
 10
378.390666
 20
146.459641
 30
0.0
 11
381.388524
 21
149.4575
 31
0.0
  0
LINE
  8
LC-002-005-----0
  6
CONTINUOUS
  5
FD
 10
378.390847
 20
149.288249
 30
0.0
 11
381.388524
 21
152.285927
 31
0.0
  0
LINE
  8
LC-002-005-----0
  6
CONTINUOUS
  5
FE
 10
378.391027
 20
152.116857
 30
0.0
 11
381.388524
 21
155.114354
 31
0.0
  0
LINE
  8
LC-002-005-----0
  6
CONTINUOUS
  5
FF
 10
378.391208
 20
154.945465
 30
0.0
 11
381.388524
 21
157.942781
 31
0.0
  0
LINE
  8
LC-002-005-----0
  6
CONTINUOUS
  5
100
 10
378.391389
 20
157.774073
 30
0.0
 11
381.388524
 21
160.771208
 31
0.0
  0
LINE
  8
LC-002-005-----0
  6
CONTINUOUS
  5
101
 10
378.39157
 20
160.602681
 30
0.0
 11
381.388524
 21
163.599635
 31
0.0
  0
LINE
  8
LC-002-005-----0
  6
CONTINUOUS
  5
102
 10
378.391751
 20
163.431289
 30
0.0
 11
381.388524
 21
166.428062
 31
0.0
  0
LINE
  8
LC-002-005-----0
  6
CONTINUOUS
  5
103
 10
378.391932
 20
166.259897
 30
0.0
 11
381.388524
 21
169.25649
 31
0.0
  0
LINE
  8
LC-002-005-----0
  6
CONTINUOUS
  5
104
 10
378.392113
 20
169.088505
 30
0.0
 11
381.388524
 21
172.084917
 31
0.0
  0
LINE
  8
LC-002-005-----0
  6
CONTINUOUS
  5
105
 10
378.392293
 20
171.917113
 30
0.0
 11
381.388524
 21
174.913344
 31
0.0
  0
LINE
  8
LC-002-005-----0
  6
CONTINUOUS
  5
106
 10
378.392474
 20
174.745721
 30
0.0
 11
381.388524
 21
177.741771
 31
0.0
  0
LINE
  8
LC-002-005-----0
  6
CONTINUOUS
  5
107
 10
378.392655
 20
177.574329
 30
0.0
 11
381.388524
 21
180.570198
 31
0.0
  0
LINE
  8
LC-002-005-----0
  6
CONTINUOUS
  5
108
 10
378.392836
 20
180.402937
 30
0.0
 11
381.388524
 21
183.398625
 31
0.0
  0
LINE
  8
LC-002-005-----0
  6
CONTINUOUS
  5
109
 10
378.393017
 20
183.231545
 30
0.0
 11
381.388524
 21
186.227052
 31
0.0
  0
LINE
  8
LC-002-005-----0
  6
CONTINUOUS
  5
10A
 10
378.393198
 20
186.060153
 30
0.0
 11
381.388524
 21
189.055479
 31
0.0
  0
LINE
  8
LC-002-005-----0
  6
CONTINUOUS
  5
10B
 10
378.393379
 20
188.888761
 30
0.0
 11
381.388524
 21
191.883907
 31
0.0
  0
LINE
  8
LC-002-005-----0
  6
CONTINUOUS
  5
10C
 10
378.393559
 20
191.717369
 30
0.0
 11
381.388524
 21
194.712334
 31
0.0
  0
LINE
  8
LC-002-005-----0
  6
CONTINUOUS
  5
10D
 10
378.39374
 20
194.545977
 30
0.0
 11
381.388524
 21
197.540761
 31
0.0
  0
LINE
  8
LC-002-005-----0
  6
CONTINUOUS
  5
10E
 10
378.393921
 20
197.374585
 30
0.0
 11
381.388524
 21
200.369188
 31
0.0
  0
LINE
  8
LC-002-005-----0
  6
CONTINUOUS
  5
10F
 10
376.847079
 20
198.65617
 30
0.0
 11
379.347074
 21
201.156166
 31
0.0
  0
LINE
  8
LC-002-005-----0
  6
CONTINUOUS
  5
110
 10
374.018658
 20
198.656176
 30
0.0
 11
376.518653
 21
201.156171
 31
0.0
  0
LINE
  8
LC-002-005-----0
  6
CONTINUOUS
  5
111
 10
360.440066
 20
187.906011
 30
0.0
 11
362.458805
 21
189.92475
 31
0.0
  0
LINE
  8
LC-002-005-----0
  6
CONTINUOUS
  5
112
 10
371.190236
 20
198.656181
 30
0.0
 11
373.690231
 21
201.156176
 31
0.0
  0
LINE
  8
LC-002-005-----0
  6
CONTINUOUS
  5
113
 10
357.611638
 20
187.906011
 30
0.0
 11
358.611638
 21
188.906011
 31
0.0
  0
LINE
  8
LC-002-005-----0
  6
CONTINUOUS
  5
114
 10
359.458795
 20
189.753168
 30
0.0
 11
362.458805
 21
192.753177
 31
0.0
  0
LINE
  8
LC-002-005-----0
  6
CONTINUOUS
  5
115
 10
368.361814
 20
198.656187
 30
0.0
 11
370.861809
 21
201.156182
 31
0.0
  0
LINE
  8
LC-002-005-----0
  6
CONTINUOUS
  5
116
 10
354.783211
 20
187.906011
 30
0.0
 11
355.783211
 21
188.906011
 31
0.0
  0
LINE
  8
LC-002-005-----0
  6
CONTINUOUS
  5
117
 10
359.458763
 20
192.581563
 30
0.0
 11
362.458805
 21
195.581604
 31
0.0
  0
LINE
  8
LC-002-005-----0
  6
CONTINUOUS
  5
118
 10
365.533392
 20
198.656192
 30
0.0
 11
368.033388
 21
201.156187
 31
0.0
  0
LINE
  8
LC-002-005-----0
  6
CONTINUOUS
  5
119
 10
351.954784
 20
187.906011
 30
0.0
 11
352.954784
 21
188.906011
 31
0.0
  0
LINE
  8
LC-002-005-----0
  6
CONTINUOUS
  5
11A
 10
359.458731
 20
195.409957
 30
0.0
 11
362.458752
 21
198.409979
 31
0.0
  0
LINE
  8
LC-002-005-----0
  6
CONTINUOUS
  5
11B
 10
362.704971
 20
198.656198
 30
0.0
 11
365.204966
 21
201.156193
 31
0.0
  0
LINE
  8
LC-002-005-----0
  6
CONTINUOUS
  5
11C
 10
349.126357
 20
187.906011
 30
0.0
 11
350.126357
 21
188.906011
 31
0.0
  0
LINE
  8
LC-002-005-----0
  6
CONTINUOUS
  5
11D
 10
359.458711
 20
198.238365
 30
0.0
 11
362.376544
 21
201.156198
 31
0.0
  0
LINE
  8
LC-002-005-----0
  6
CONTINUOUS
  5
11E
 10
346.29793
 20
187.906011
 30
0.0
 11
347.29793
 21
188.906011
 31
0.0
  0
LINE
  8
LC-002-005-----0
  6
CONTINUOUS
  5
11F
 10
359.458711
 20
201.066792
 30
0.0
 11
359.548123
 21
201.156204
 31
0.0
  0
LINE
  8
LC-002-005-----0
  6
CONTINUOUS
  5
120
 10
343.469503
 20
187.906011
 30
0.0
 11
344.469503
 21
188.906011
 31
0.0
  0
LINE
  8
LC-002-005-----0
  6
CONTINUOUS
  5
121
 10
340.641076
 20
187.906011
 30
0.0
 11
341.641076
 21
188.906011
 31
0.0
  0
LINE
  8
LC-002-005-----0
  6
CONTINUOUS
  5
122
 10
337.812649
 20
187.906011
 30
0.0
 11
338.812649
 21
188.906011
 31
0.0
  0
LINE
  8
LC-002-005-----0
  6
CONTINUOUS
  5
123
 10
334.984222
 20
187.906011
 30
0.0
 11
335.984222
 21
188.906011
 31
0.0
  0
LINE
  8
LC-002-005-----0
  6
CONTINUOUS
  5
124
 10
332.155794
 20
187.906011
 30
0.0
 11
333.155794
 21
188.906011
 31
0.0
  0
LINE
  8
LC-002-005-----0
  6
CONTINUOUS
  5
125
 10
329.327367
 20
187.906011
 30
0.0
 11
330.327367
 21
188.906011
 31
0.0
  0
LINE
  8
LC-002-005-----0
  6
CONTINUOUS
  5
126
 10
327.458805
 20
188.865876
 30
0.0
 11
327.49894
 21
188.906011
 31
0.0
  0
ENDBLK
  8
0
  5
127
  0
BLOCK
  8
0
  5
129
  2
*X11
 70
    65
 10
383.388524
 20
132.106973
 30
0.0
  3
*X11
  0
LINE
  8
LC-002-005-----0
  6
CONTINUOUS
  5
12A
 10
420.60654
 20
132.106973
 30
0.0
 11
423.10654
 21
134.606973
 31
0.0
  0
LINE
  8
LC-002-005-----0
  6
CONTINUOUS
  5
12B
 10
417.778113
 20
132.106973
 30
0.0
 11
420.278113
 21
134.606973
 31
0.0
  0
LINE
  8
LC-002-005-----0
  6
CONTINUOUS
  5
12C
 10
414.949686
 20
132.106973
 30
0.0
 11
417.449686
 21
134.606973
 31
0.0
  0
LINE
  8
LC-002-005-----0
  6
CONTINUOUS
  5
12D
 10
412.121258
 20
132.106973
 30
0.0
 11
414.621258
 21
134.606973
 31
0.0
  0
LINE
  8
LC-002-005-----0
  6
CONTINUOUS
  5
12E
 10
409.292831
 20
132.106973
 30
0.0
 11
411.792831
 21
134.606973
 31
0.0
  0
LINE
  8
LC-002-005-----0
  6
CONTINUOUS
  5
12F
 10
406.464404
 20
132.106973
 30
0.0
 11
408.964404
 21
134.606973
 31
0.0
  0
LINE
  8
LC-002-005-----0
  6
CONTINUOUS
  5
130
 10
403.635977
 20
132.106973
 30
0.0
 11
406.135977
 21
134.606973
 31
0.0
  0
LINE
  8
LC-002-005-----0
  6
CONTINUOUS
  5
131
 10
400.80755
 20
132.106973
 30
0.0
 11
403.30755
 21
134.606973
 31
0.0
  0
LINE
  8
LC-002-005-----0
  6
CONTINUOUS
  5
132
 10
397.979123
 20
132.106973
 30
0.0
 11
400.479123
 21
134.606973
 31
0.0
  0
LINE
  8
LC-002-005-----0
  6
CONTINUOUS
  5
133
 10
395.150696
 20
132.106973
 30
0.0
 11
397.650696
 21
134.606973
 31
0.0
  0
LINE
  8
LC-002-005-----0
  6
CONTINUOUS
  5
134
 10
392.322269
 20
132.106973
 30
0.0
 11
394.822269
 21
134.606973
 31
0.0
  0
LINE
  8
LC-002-005-----0
  6
CONTINUOUS
  5
135
 10
389.493841
 20
132.106973
 30
0.0
 11
391.993841
 21
134.606973
 31
0.0
  0
LINE
  8
LC-002-005-----0
  6
CONTINUOUS
  5
136
 10
386.665414
 20
132.106973
 30
0.0
 11
389.165414
 21
134.606973
 31
0.0
  0
LINE
  8
LC-002-005-----0
  6
CONTINUOUS
  5
137
 10
383.836987
 20
132.106973
 30
0.0
 11
386.336987
 21
134.606973
 31
0.0
  0
LINE
  8
LC-002-005-----0
  6
CONTINUOUS
  5
138
 10
383.388524
 20
134.486937
 30
0.0
 11
383.50856
 21
134.606973
 31
0.0
  0
ENDBLK
  8
0
  5
139
  0
BLOCK
  8
0
  5
13B
  2
BLK2
 70
    64
 10
0.0
 20
0.0
 30
0.0
  3
BLK2
  0
ENDBLK
  8
0
  5
13C
  0
BLOCK
  8
0
  5
13E
  2
BLK3
 70
    64
 10
0.0
 20
0.0
 30
0.0
  3
BLK3
  0
ENDBLK
  8
0
  5
13F
  0
BLOCK
  8
0
  5
141
  2
BLK4
 70
    64
 10
0.0
 20
0.0
 30
0.0
  3
BLK4
  0
ENDBLK
  8
0
  5
142
  0
BLOCK
  8
0
  5
144
  2
*X15
 70
    65
 10
317.357731
 20
141.768546
 30
0.0
  3
*X15
  0
LINE
  8
LC-002-005-----0
  6
CONTINUOUS
  5
145
 10
320.601971
 20
241.406011
 30
0.0
 11
321.357046
 21
242.161087
 31
0.0
  0
LINE
  8
LC-002-005-----0
  6
CONTINUOUS
  5
146
 10
317.779675
 20
241.412143
 30
0.0
 11
319.273543
 21
242.906011
 31
0.0
  0
LINE
  8
LC-002-005-----0
  6
CONTINUOUS
  5
147
 10
317.37919
 20
243.840084
 30
0.0
 11
318.924144
 21
245.385039
 31
0.0
  0
LINE
  8
LC-002-005-----0
  6
CONTINUOUS
  5
148
 10
317.482998
 20
246.77232
 30
0.0
 11
319.079087
 21
248.368409
 31
0.0
  0
LINE
  8
LC-002-005-----0
  6
CONTINUOUS
  5
149
 10
317.680645
 20
249.798394
 30
0.0
 11
319.334941
 21
251.45269
 31
0.0
  0
LINE
  8
LC-002-005-----0
  6
CONTINUOUS
  5
14A
 10
317.982415
 20
252.928591
 30
0.0
 11
319.703632
 21
254.649808
 31
0.0
  0
LINE
  8
LC-002-005-----0
  6
CONTINUOUS
  5
14B
 10
318.400988
 20
256.175591
 30
0.0
 11
320.200068
 21
257.974671
 31
0.0
  0
LINE
  8
LC-002-005-----0
  6
CONTINUOUS
  5
14C
 10
318.952291
 20
259.555321
 30
0.0
 11
320.843304
 21
261.446334
 31
0.0
  0
LINE
  8
LC-002-005-----0
  6
CONTINUOUS
  5
14D
 10
319.656813
 20
263.088271
 30
0.0
 11
321.658369
 21
265.089827
 31
0.0
  0
LINE
  8
LC-002-005-----0
  6
CONTINUOUS
  5
14E
 10
320.541678
 20
266.801563
 30
0.0
 11
322.797478
 21
269.057363
 31
0.0
  0
LINE
  8
LC-002-005-----0
  6
CONTINUOUS
  5
14F
 10
324.782356
 20
271.042241
 30
0.0
 11
325.616545
 21
271.87643
 31
0.0
  0
ENDBLK
  8
0
  5
150
  0
BLOCK
  8
0
  5
152
  2
BLK5
 70
    64
 10
0.0
 20
0.0
 30
0.0
  3
BLK5
  0
ENDBLK
  8
0
  5
153
  0
BLOCK
  8
0
  5
155
  2
*D17
 70
    65
 10
0.0
 20
0.0
 30
0.0
  3
*D17
  0
LINE
  8
LC-004-003-MTH-0
  6
CONTINUOUS
  5
156
 10
325.616545
 20
177.906011
 30
0.0
 11
277.2
 21
177.906011
 31
0.0
  0
LINE
  8
LC-004-003-MTH-0
  6
CONTINUOUS
  5
157
 10
325.616545
 20
272.906011
 30
0.0
 11
277.2
 21
272.906011
 31
0.0
  0
LINE
  8
LC-003-003-----0
  6
CONTINUOUS
  5
158
 10
290.349471
 20
160.060004
 30
0.0
 11
288.0
 21
177.906011
 31
0.0
  0
LINE
  8
LC-003-003-----0
  6
CONTINUOUS
  5
159
 10
288.0
 20
177.906011
 30
0.0
 11
285.650529
 21
160.060004
 31
0.0
  0
LINE
  8
LC-003-003-----0
  6
CONTINUOUS
  5
15A
 10
285.650529
 20
160.060004
 30
0.0
 11
290.349471
 21
160.060004
 31
0.0
  0
LINE
  8
LC-003-003-----0
  6
CONTINUOUS
  5
15B
 10
289.738609
 20
160.019965
 30
0.0
 11
288.0
 21
173.226011
 31
0.0
  0
LINE
  8
LC-003-003-----0
  6
CONTINUOUS
  5
15C
 10
288.0
 20
173.226011
 30
0.0
 11
286.261391
 21
160.019965
 31
0.0
  0
LINE
  8
LC-003-003-----0
  6
CONTINUOUS
  5
15D
 10
289.127746
 20
159.979927
 30
0.0
 11
288.0
 21
168.546011
 31
0.0
  0
LINE
  8
LC-003-003-----0
  6
CONTINUOUS
  5
15E
 10
288.0
 20
168.546011
 30
0.0
 11
286.872254
 21
159.979927
 31
0.0
  0
LINE
  8
LC-003-003-----0
  6
CONTINUOUS
  5
15F
 10
288.516884
 20
159.939889
 30
0.0
 11
288.0
 21
163.866011
 31
0.0
  0
LINE
  8
LC-003-003-----0
  6
CONTINUOUS
  5
160
 10
288.0
 20
163.866011
 30
0.0
 11
287.483116
 21
159.939889
 31
0.0
  0
LINE
  8
LC-003-003-----0
  6
CONTINUOUS
  5
161
 10
285.650529
 20
290.752019
 30
0.0
 11
288.0
 21
272.906011
 31
0.0
  0
LINE
  8
LC-003-003-----0
  6
CONTINUOUS
  5
162
 10
288.0
 20
272.906011
 30
0.0
 11
290.349471
 21
290.752019
 31
0.0
  0
LINE
  8
LC-003-003-----0
  6
CONTINUOUS
  5
163
 10
290.349471
 20
290.752019
 30
0.0
 11
285.650529
 21
290.752019
 31
0.0
  0
LINE
  8
LC-003-003-----0
  6
CONTINUOUS
  5
164
 10
286.261391
 20
290.792057
 30
0.0
 11
288.0
 21
277.586011
 31
0.0
  0
LINE
  8
LC-003-003-----0
  6
CONTINUOUS
  5
165
 10
288.0
 20
277.586011
 30
0.0
 11
289.738609
 21
290.792057
 31
0.0
  0
LINE
  8
LC-003-003-----0
  6
CONTINUOUS
  5
166
 10
286.872254
 20
290.832095
 30
0.0
 11
288.0
 21
282.266011
 31
0.0
  0
LINE
  8
LC-003-003-----0
  6
CONTINUOUS
  5
167
 10
288.0
 20
282.266011
 30
0.0
 11
289.127746
 21
290.832095
 31
0.0
  0
LINE
  8
LC-003-003-----0
  6
CONTINUOUS
  5
168
 10
287.483116
 20
290.872133
 30
0.0
 11
288.0
 21
286.946011
 31
0.0
  0
LINE
  8
LC-003-003-----0
  6
CONTINUOUS
  5
169
 10
288.0
 20
286.946011
 30
0.0
 11
288.516884
 21
290.872133
 31
0.0
  0
LINE
  8
LC-005-003-MTG-0
  6
CONTINUOUS
  5
16A
 10
288.0
 20
103.703491
 30
0.0
 11
288.0
 21
298.106011
 31
0.0
  0
TEXT
  8
LC-003-003-----0
  6
CONTINUOUS
 62
     6
  5
16B
 10
277.568001
 20
121.780312
 30
0.0
 40
18.0
  1
Ø95
 50
90.0
 51
15.0
  7
LC-TXTSTYLE-150-400-0-0-D0
 72
     2
 11
277.568001
 21
156.221257
 31
0.0
  0
ENDBLK
  8
0
  5
16C
  0
BLOCK
  8
0
  5
16E
  2
*X18
 70
    65
 10
322.458805
 20
261.906011
 30
0.0
  3
*X18
  0
LINE
  8
LC-002-005-----0
  6
CONTINUOUS
  5
16F
 10
326.959835
 20
261.906011
 30
0.0
 11
327.458805
 21
262.404981
 31
0.0
  0
LINE
  8
LC-002-005-----0
  6
CONTINUOUS
  5
170
 10
324.131408
 20
261.906011
 30
0.0
 11
325.131408
 21
262.906011
 31
0.0
  0
ENDBLK
  8
0
  5
171
  0
BLOCK
  8
0
  5
173
  2
*X19
 70
    65
 10
322.458805
 20
187.906011
 30
0.0
  3
*X19
  0
LINE
  8
LC-002-005-----0
  6
CONTINUOUS
  5
174
 10
326.49894
 20
187.906011
 30
0.0
 11
327.458805
 21
188.865876
 31
0.0
  0
LINE
  8
LC-002-005-----0
  6
CONTINUOUS
  5
175
 10
323.670513
 20
187.906011
 30
0.0
 11
324.670513
 21
188.906011
 31
0.0
  0
ENDBLK
  8
0
  5
176
  0
BLOCK
  8
0
  5
178
  2
*X20
 70
    65
 10
178.928945
 20
272.350183
 30
0.0
  3
*X20
  0
LINE
  8
LC-002-005-----0
  6
CONTINUOUS
  5
179
 10
180.426302
 20
272.350183
 30
0.0
 11
180.604051
 21
272.527933
 31
0.0
  0
LINE
  8
LC-002-005-----0
  6
CONTINUOUS
  5
17A
 10
180.143459
 20
272.350183
 30
0.0
 11
180.604051
 21
272.810775
 31
0.0
  0
LINE
  8
LC-002-005-----0
  6
CONTINUOUS
  5
17B
 10
179.860616
 20
272.350183
 30
0.0
 11
180.360616
 21
272.850183
 31
0.0
  0
LINE
  8
LC-002-005-----0
  6
CONTINUOUS
  5
17C
 10
179.577774
 20
272.350183
 30
0.0
 11
180.077774
 21
272.850183
 31
0.0
  0
LINE
  8
LC-002-005-----0
  6
CONTINUOUS
  5
17D
 10
179.294931
 20
272.350183
 30
0.0
 11
179.794931
 21
272.850183
 31
0.0
  0
LINE
  8
LC-002-005-----0
  6
CONTINUOUS
  5
17E
 10
179.012088
 20
272.350183
 30
0.0
 11
179.512088
 21
272.850183
 31
0.0
  0
LINE
  8
LC-002-005-----0
  6
CONTINUOUS
  5
17F
 10
178.928945
 20
272.549883
 30
0.0
 11
179.229246
 21
272.850183
 31
0.0
  0
LINE
  8
LC-002-005-----0
  6
CONTINUOUS
  5
180
 10
178.928945
 20
272.832725
 30
0.0
 11
178.946403
 21
272.850183
 31
0.0
  0
ENDBLK
  8
0
  5
181
  0
BLOCK
  8
0
  5
183
  2
*X21
 70
    65
 10
212.604051
 20
272.350183
 30
0.0
  3
*X21
  0
LINE
  8
LC-002-005-----0
  6
CONTINUOUS
  5
184
 10
214.084585
 20
272.350183
 30
0.0
 11
214.279157
 21
272.544756
 31
0.0
  0
LINE
  8
LC-002-005-----0
  6
CONTINUOUS
  5
185
 10
213.801742
 20
272.350183
 30
0.0
 11
214.279157
 21
272.827599
 31
0.0
  0
LINE
  8
LC-002-005-----0
  6
CONTINUOUS
  5
186
 10
213.518899
 20
272.350183
 30
0.0
 11
214.018899
 21
272.850183
 31
0.0
  0
LINE
  8
LC-002-005-----0
  6
CONTINUOUS
  5
187
 10
213.236057
 20
272.350183
 30
0.0
 11
213.736057
 21
272.850183
 31
0.0
  0
LINE
  8
LC-002-005-----0
  6
CONTINUOUS
  5
188
 10
212.953214
 20
272.350183
 30
0.0
 11
213.453214
 21
272.850183
 31
0.0
  0
LINE
  8
LC-002-005-----0
  6
CONTINUOUS
  5
189
 10
212.670371
 20
272.350183
 30
0.0
 11
213.170371
 21
272.850183
 31
0.0
  0
LINE
  8
LC-002-005-----0
  6
CONTINUOUS
  5
18A
 10
212.604051
 20
272.566706
 30
0.0
 11
212.887528
 21
272.850183
 31
0.0
  0
LINE
  8
LC-002-005-----0
  6
CONTINUOUS
  5
18B
 10
212.604051
 20
272.849549
 30
0.0
 11
212.604686
 21
272.850183
 31
0.0
  0
ENDBLK
  8
0
  5
18C
  0
BLOCK
  8
0
  5
18E
  2
*X22
 70
    65
 10
212.604051
 20
262.350183
 30
0.0
  3
*X22
  0
LINE
  8
LC-002-005-----0
  6
CONTINUOUS
  5
18F
 10
214.248345
 20
271.675435
 30
0.0
 11
214.073597
 21
271.850183
 31
0.0
  0
LINE
  8
LC-002-005-----0
  6
CONTINUOUS
  5
190
 10
214.205948
 20
271.43499
 30
0.0
 11
213.790754
 21
271.850183
 31
0.0
  0
LINE
  8
LC-002-005-----0
  6
CONTINUOUS
  5
191
 10
214.16355
 20
271.194544
 30
0.0
 11
213.507911
 21
271.850183
 31
0.0
  0
LINE
  8
LC-002-005-----0
  6
CONTINUOUS
  5
192
 10
214.121153
 20
270.954098
 30
0.0
 11
213.225068
 21
271.850183
 31
0.0
  0
LINE
  8
LC-002-005-----0
  6
CONTINUOUS
  5
193
 10
214.078756
 20
270.713653
 30
0.0
 11
212.942226
 21
271.850183
 31
0.0
  0
LINE
  8
LC-002-005-----0
  6
CONTINUOUS
  5
194
 10
214.036359
 20
270.473207
 30
0.0
 11
212.659383
 21
271.850183
 31
0.0
  0
LINE
  8
LC-002-005-----0
  6
CONTINUOUS
  5
195
 10
213.993962
 20
270.232762
 30
0.0
 11
212.604051
 21
271.622673
 31
0.0
  0
LINE
  8
LC-002-005-----0
  6
CONTINUOUS
  5
196
 10
213.951565
 20
269.992316
 30
0.0
 11
212.604051
 21
271.33983
 31
0.0
  0
LINE
  8
LC-002-005-----0
  6
CONTINUOUS
  5
197
 10
213.909168
 20
269.75187
 30
0.0
 11
212.604051
 21
271.056987
 31
0.0
  0
LINE
  8
LC-002-005-----0
  6
CONTINUOUS
  5
198
 10
213.866771
 20
269.511425
 30
0.0
 11
212.604051
 21
270.774145
 31
0.0
  0
LINE
  8
LC-002-005-----0
  6
CONTINUOUS
  5
199
 10
213.824374
 20
269.270979
 30
0.0
 11
212.604051
 21
270.491302
 31
0.0
  0
LINE
  8
LC-002-005-----0
  6
CONTINUOUS
  5
19A
 10
213.781977
 20
269.030533
 30
0.0
 11
212.604051
 21
270.208459
 31
0.0
  0
LINE
  8
LC-002-005-----0
  6
CONTINUOUS
  5
19B
 10
213.73958
 20
268.790088
 30
0.0
 11
212.604051
 21
269.925616
 31
0.0
  0
LINE
  8
LC-002-005-----0
  6
CONTINUOUS
  5
19C
 10
213.697183
 20
268.549642
 30
0.0
 11
212.604051
 21
269.642774
 31
0.0
  0
LINE
  8
LC-002-005-----0
  6
CONTINUOUS
  5
19D
 10
213.654786
 20
268.309196
 30
0.0
 11
212.604051
 21
269.359931
 31
0.0
  0
LINE
  8
LC-002-005-----0
  6
CONTINUOUS
  5
19E
 10
213.612389
 20
268.068751
 30
0.0
 11
212.604051
 21
269.077088
 31
0.0
  0
LINE
  8
LC-002-005-----0
  6
CONTINUOUS
  5
19F
 10
213.569992
 20
267.828305
 30
0.0
 11
212.604051
 21
268.794246
 31
0.0
  0
LINE
  8
LC-002-005-----0
  6
CONTINUOUS
  5
1A0
 10
213.527595
 20
267.587859
 30
0.0
 11
212.604051
 21
268.511403
 31
0.0
  0
LINE
  8
LC-002-005-----0
  6
CONTINUOUS
  5
1A1
 10
213.485198
 20
267.347414
 30
0.0
 11
212.604051
 21
268.22856
 31
0.0
  0
LINE
  8
LC-002-005-----0
  6
CONTINUOUS
  5
1A2
 10
213.442801
 20
267.106968
 30
0.0
 11
212.604051
 21
267.945717
 31
0.0
  0
LINE
  8
LC-002-005-----0
  6
CONTINUOUS
  5
1A3
 10
213.400403
 20
266.866522
 30
0.0
 11
212.604051
 21
267.662875
 31
0.0
  0
LINE
  8
LC-002-005-----0
  6
CONTINUOUS
  5
1A4
 10
213.358006
 20
266.626077
 30
0.0
 11
212.604051
 21
267.380032
 31
0.0
  0
LINE
  8
LC-002-005-----0
  6
CONTINUOUS
  5
1A5
 10
213.315609
 20
266.385631
 30
0.0
 11
212.604051
 21
267.097189
 31
0.0
  0
LINE
  8
LC-002-005-----0
  6
CONTINUOUS
  5
1A6
 10
213.273212
 20
266.145185
 30
0.0
 11
212.604051
 21
266.814347
 31
0.0
  0
LINE
  8
LC-002-005-----0
  6
CONTINUOUS
  5
1A7
 10
213.230815
 20
265.90474
 30
0.0
 11
212.604051
 21
266.531504
 31
0.0
  0
LINE
  8
LC-002-005-----0
  6
CONTINUOUS
  5
1A8
 10
213.188418
 20
265.664294
 30
0.0
 11
212.604051
 21
266.248661
 31
0.0
  0
LINE
  8
LC-002-005-----0
  6
CONTINUOUS
  5
1A9
 10
213.146021
 20
265.423848
 30
0.0
 11
212.604051
 21
265.965818
 31
0.0
  0
LINE
  8
LC-002-005-----0
  6
CONTINUOUS
  5
1AA
 10
213.103624
 20
265.183403
 30
0.0
 11
212.604051
 21
265.682976
 31
0.0
  0
LINE
  8
LC-002-005-----0
  6
CONTINUOUS
  5
1AB
 10
213.061227
 20
264.942957
 30
0.0
 11
212.604051
 21
265.400133
 31
0.0
  0
LINE
  8
LC-002-005-----0
  6
CONTINUOUS
  5
1AC
 10
213.01883
 20
264.702511
 30
0.0
 11
212.604051
 21
265.11729
 31
0.0
  0
LINE
  8
LC-002-005-----0
  6
CONTINUOUS
  5
1AD
 10
212.976433
 20
264.462066
 30
0.0
 11
212.604051
 21
264.834448
 31
0.0
  0
LINE
  8
LC-002-005-----0
  6
CONTINUOUS
  5
1AE
 10
212.934036
 20
264.22162
 30
0.0
 11
212.604051
 21
264.551605
 31
0.0
  0
LINE
  8
LC-002-005-----0
  6
CONTINUOUS
  5
1AF
 10
212.891639
 20
263.981174
 30
0.0
 11
212.604051
 21
264.268762
 31
0.0
  0
LINE
  8
LC-002-005-----0
  6
CONTINUOUS
  5
1B0
 10
212.849242
 20
263.740729
 30
0.0
 11
212.604051
 21
263.985919
 31
0.0
  0
LINE
  8
LC-002-005-----0
  6
CONTINUOUS
  5
1B1
 10
212.806845
 20
263.500283
 30
0.0
 11
212.604051
 21
263.703077
 31
0.0
  0
LINE
  8
LC-002-005-----0
  6
CONTINUOUS
  5
1B2
 10
212.764448
 20
263.259837
 30
0.0
 11
212.604051
 21
263.420234
 31
0.0
  0
LINE
  8
LC-002-005-----0
  6
CONTINUOUS
  5
1B3
 10
212.722051
 20
263.019392
 30
0.0
 11
212.604051
 21
263.137391
 31
0.0
  0
LINE
  8
LC-002-005-----0
  6
CONTINUOUS
  5
1B4
 10
212.679653
 20
262.778946
 30
0.0
 11
212.604051
 21
262.854549
 31
0.0
  0
LINE
  8
LC-002-005-----0
  6
CONTINUOUS
  5
1B5
 10
212.637256
 20
262.538501
 30
0.0
 11
212.604051
 21
262.571706
 31
0.0
  0
ENDBLK
  8
0
  5
1B6
  0
BLOCK
  8
0
  5
1B8
  2
*X23
 70
    65
 10
178.928945
 20
262.350183
 30
0.0
  3
*X23
  0
LINE
  8
LC-002-005-----0
  6
CONTINUOUS
  5
1B9
 10
180.604051
 20
271.661446
 30
0.0
 11
180.415314
 21
271.850183
 31
0.0
  0
LINE
  8
LC-002-005-----0
  6
CONTINUOUS
  5
1BA
 10
180.604051
 20
271.378603
 30
0.0
 11
180.132471
 21
271.850183
 31
0.0
  0
LINE
  8
LC-002-005-----0
  6
CONTINUOUS
  5
1BB
 10
180.604051
 20
271.095761
 30
0.0
 11
179.849628
 21
271.850183
 31
0.0
  0
LINE
  8
LC-002-005-----0
  6
CONTINUOUS
  5
1BC
 10
180.604051
 20
270.812918
 30
0.0
 11
179.566786
 21
271.850183
 31
0.0
  0
LINE
  8
LC-002-005-----0
  6
CONTINUOUS
  5
1BD
 10
180.604051
 20
270.530075
 30
0.0
 11
179.283943
 21
271.850183
 31
0.0
  0
LINE
  8
LC-002-005-----0
  6
CONTINUOUS
  5
1BE
 10
180.604051
 20
270.247233
 30
0.0
 11
179.0011
 21
271.850183
 31
0.0
  0
LINE
  8
LC-002-005-----0
  6
CONTINUOUS
  5
1BF
 10
180.604051
 20
269.96439
 30
0.0
 11
178.974047
 21
271.594394
 31
0.0
  0
LINE
  8
LC-002-005-----0
  6
CONTINUOUS
  5
1C0
 10
180.604051
 20
269.681547
 30
0.0
 11
179.034597
 21
271.251002
 31
0.0
  0
LINE
  8
LC-002-005-----0
  6
CONTINUOUS
  5
1C1
 10
180.604051
 20
269.398705
 30
0.0
 11
179.095146
 21
270.90761
 31
0.0
  0
LINE
  8
LC-002-005-----0
  6
CONTINUOUS
  5
1C2
 10
180.604051
 20
269.115862
 30
0.0
 11
179.155695
 21
270.564218
 31
0.0
  0
LINE
  8
LC-002-005-----0
  6
CONTINUOUS
  5
1C3
 10
180.604051
 20
268.833019
 30
0.0
 11
179.216244
 21
270.220826
 31
0.0
  0
LINE
  8
LC-002-005-----0
  6
CONTINUOUS
  5
1C4
 10
180.604051
 20
268.550176
 30
0.0
 11
179.276794
 21
269.877434
 31
0.0
  0
LINE
  8
LC-002-005-----0
  6
CONTINUOUS
  5
1C5
 10
180.604051
 20
268.267334
 30
0.0
 11
179.337343
 21
269.534042
 31
0.0
  0
LINE
  8
LC-002-005-----0
  6
CONTINUOUS
  5
1C6
 10
180.604051
 20
267.984491
 30
0.0
 11
179.397892
 21
269.19065
 31
0.0
  0
LINE
  8
LC-002-005-----0
  6
CONTINUOUS
  5
1C7
 10
180.604051
 20
267.701648
 30
0.0
 11
179.458442
 21
268.847258
 31
0.0
  0
LINE
  8
LC-002-005-----0
  6
CONTINUOUS
  5
1C8
 10
180.604051
 20
267.418806
 30
0.0
 11
179.518991
 21
268.503866
 31
0.0
  0
LINE
  8
LC-002-005-----0
  6
CONTINUOUS
  5
1C9
 10
180.604051
 20
267.135963
 30
0.0
 11
179.57954
 21
268.160474
 31
0.0
  0
LINE
  8
LC-002-005-----0
  6
CONTINUOUS
  5
1CA
 10
180.604051
 20
266.85312
 30
0.0
 11
179.640089
 21
267.817082
 31
0.0
  0
LINE
  8
LC-002-005-----0
  6
CONTINUOUS
  5
1CB
 10
180.604051
 20
266.570277
 30
0.0
 11
179.700639
 21
267.47369
 31
0.0
  0
LINE
  8
LC-002-005-----0
  6
CONTINUOUS
  5
1CC
 10
180.604051
 20
266.287435
 30
0.0
 11
179.761188
 21
267.130298
 31
0.0
  0
LINE
  8
LC-002-005-----0
  6
CONTINUOUS
  5
1CD
 10
180.604051
 20
266.004592
 30
0.0
 11
179.821737
 21
266.786906
 31
0.0
  0
LINE
  8
LC-002-005-----0
  6
CONTINUOUS
  5
1CE
 10
180.604051
 20
265.721749
 30
0.0
 11
179.882286
 21
266.443514
 31
0.0
  0
LINE
  8
LC-002-005-----0
  6
CONTINUOUS
  5
1CF
 10
180.604051
 20
265.438907
 30
0.0
 11
179.942836
 21
266.100122
 31
0.0
  0
LINE
  8
LC-002-005-----0
  6
CONTINUOUS
  5
1D0
 10
180.604051
 20
265.156064
 30
0.0
 11
180.003385
 21
265.75673
 31
0.0
  0
LINE
  8
LC-002-005-----0
  6
CONTINUOUS
  5
1D1
 10
180.604051
 20
264.873221
 30
0.0
 11
180.063934
 21
265.413338
 31
0.0
  0
LINE
  8
LC-002-005-----0
  6
CONTINUOUS
  5
1D2
 10
180.604051
 20
264.590378
 30
0.0
 11
180.124484
 21
265.069946
 31
0.0
  0
LINE
  8
LC-002-005-----0
  6
CONTINUOUS
  5
1D3
 10
180.604051
 20
264.307536
 30
0.0
 11
180.185033
 21
264.726554
 31
0.0
  0
LINE
  8
LC-002-005-----0
  6
CONTINUOUS
  5
1D4
 10
180.604051
 20
264.024693
 30
0.0
 11
180.245582
 21
264.383162
 31
0.0
  0
LINE
  8
LC-002-005-----0
  6
CONTINUOUS
  5
1D5
 10
180.604051
 20
263.74185
 30
0.0
 11
180.306131
 21
264.03977
 31
0.0
  0
LINE
  8
LC-002-005-----0
  6
CONTINUOUS
  5
1D6
 10
180.604051
 20
263.459008
 30
0.0
 11
180.366681
 21
263.696378
 31
0.0
  0
LINE
  8
LC-002-005-----0
  6
CONTINUOUS
  5
1D7
 10
180.604051
 20
263.176165
 30
0.0
 11
180.42723
 21
263.352986
 31
0.0
  0
LINE
  8
LC-002-005-----0
  6
CONTINUOUS
  5
1D8
 10
180.604051
 20
262.893322
 30
0.0
 11
180.487779
 21
263.009594
 31
0.0
  0
LINE
  8
LC-002-005-----0
  6
CONTINUOUS
  5
1D9
 10
180.604051
 20
262.610479
 30
0.0
 11
180.548328
 21
262.666202
 31
0.0
  0
ENDBLK
  8
0
  5
1DA
  0
BLOCK
  8
0
  5
1DC
  2
*X24
 70
    65
 10
171.604051
 20
261.350183
 30
0.0
  3
*X24
  0
LINE
  8
LC-002-005-----0
  6
CONTINUOUS
  5
1DD
 10
173.668943
 20
261.350183
 30
0.0
 11
175.604051
 21
263.285292
 31
0.0
  0
LINE
  8
LC-002-005-----0
  6
CONTINUOUS
  5
1DE
 10
171.604051
 20
262.113719
 30
0.0
 11
173.340515
 21
263.850183
 31
0.0
  0
LINE
  8
LC-002-005-----0
  6
CONTINUOUS
  5
1DF
 10
173.604051
 20
264.113719
 30
0.0
 11
175.604051
 21
266.113719
 31
0.0
  0
LINE
  8
LC-002-005-----0
  6
CONTINUOUS
  5
1E0
 10
173.604051
 20
266.942146
 30
0.0
 11
175.604051
 21
268.942146
 31
0.0
  0
LINE
  8
LC-002-005-----0
  6
CONTINUOUS
  5
1E1
 10
180.012088
 20
273.350183
 30
0.0
 11
180.438686
 21
273.776781
 31
0.0
  0
LINE
  8
LC-002-005-----0
  6
CONTINUOUS
  5
1E2
 10
173.604051
 20
269.770573
 30
0.0
 11
175.604051
 21
271.770573
 31
0.0
  0
LINE
  8
LC-002-005-----0
  6
CONTINUOUS
  5
1E3
 10
177.183661
 20
273.350183
 30
0.0
 11
180.089106
 21
276.255628
 31
0.0
  0
LINE
  8
LC-002-005-----0
  6
CONTINUOUS
  5
1E4
 10
173.604051
 20
272.599
 30
0.0
 11
178.614997
 21
277.609946
 31
0.0
  0
LINE
  8
LC-002-005-----0
  6
CONTINUOUS
  5
1E5
 10
173.674889
 20
275.498266
 30
0.0
 11
175.955969
 21
277.779345
 31
0.0
  0
ENDBLK
  8
0
  5
1E6
  0
BLOCK
  8
0
  5
1E8
  2
*X25
 70
    65
 10
212.793919
 20
333.976095
 30
0.0
  3
*X25
  0
LINE
  8
LC-002-005-----0
  6
CONTINUOUS
  5
1E9
 10
215.234731
 20
334.028671
 30
0.0
 11
219.628554
 21
338.422493
 31
0.0
  0
LINE
  8
LC-002-005-----0
  6
CONTINUOUS
  5
1EA
 10
213.463952
 20
335.086319
 30
0.0
 11
216.853729
 21
338.476095
 31
0.0
  0
LINE
  8
LC-002-005-----0
  6
CONTINUOUS
  5
1EB
 10
217.628554
 20
339.25092
 30
0.0
 11
219.628554
 21
341.25092
 31
0.0
  0
LINE
  8
LC-002-005-----0
  6
CONTINUOUS
  5
1EC
 10
212.793919
 20
337.244712
 30
0.0
 11
214.025301
 21
338.476095
 31
0.0
  0
LINE
  8
LC-002-005-----0
  6
CONTINUOUS
  5
1ED
 10
217.628554
 20
342.079347
 30
0.0
 11
219.628554
 21
344.079347
 31
0.0
  0
LINE
  8
LC-002-005-----0
  6
CONTINUOUS
  5
1EE
 10
217.628554
 20
344.907774
 30
0.0
 11
219.628554
 21
346.907774
 31
0.0
  0
LINE
  8
LC-002-005-----0
  6
CONTINUOUS
  5
1EF
 10
220.696874
 20
347.976095
 30
0.0
 11
221.628554
 21
348.907774
 31
0.0
  0
LINE
  8
LC-002-005-----0
  6
CONTINUOUS
  5
1F0
 10
217.628554
 20
347.736201
 30
0.0
 11
220.368447
 21
350.476095
 31
0.0
  0
ENDBLK
  8
0
  5
1F1
  0
BLOCK
  8
0
  5
1F3
  2
*X26
 70
    65
 10
178.928945
 20
341.611598
 30
0.0
  3
*X26
  0
LINE
  8
LC-002-005-----0
  6
CONTINUOUS
  5
1F4
 10
181.805465
 20
341.611598
 30
0.0
 11
182.305465
 21
342.111598
 31
0.0
  0
LINE
  8
LC-002-005-----0
  6
CONTINUOUS
  5
1F5
 10
180.391252
 20
341.611598
 30
0.0
 11
180.891252
 21
342.111598
 31
0.0
  0
LINE
  8
LC-002-005-----0
  6
CONTINUOUS
  5
1F6
 10
178.977038
 20
341.611598
 30
0.0
 11
179.477038
 21
342.111598
 31
0.0
  0
ENDBLK
  8
0
  5
1F7
  0
BLOCK
  8
0
  5
1F9
  2
*X27
 70
    65
 10
210.354051
 20
341.611598
 30
0.0
  3
*X27
  0
LINE
  8
LC-002-005-----0
  6
CONTINUOUS
  5
1FA
 10
212.918164
 20
341.611598
 30
0.0
 11
213.418164
 21
342.111598
 31
0.0
  0
LINE
  8
LC-002-005-----0
  6
CONTINUOUS
  5
1FB
 10
211.50395
 20
341.611598
 30
0.0
 11
212.00395
 21
342.111598
 31
0.0
  0
LINE
  8
LC-002-005-----0
  6
CONTINUOUS
  5
1FC
 10
210.372443
 20
341.894305
 30
0.0
 11
210.589736
 21
342.111598
 31
0.0
  0
ENDBLK
  8
0
  5
1FD
  0
BLOCK
  8
0
  5
1FF
  2
*X28
 70
    65
 10
171.628554
 20
333.976095
 30
0.0
  3
*X28
  0
LINE
  8
LC-002-005-----0
  6
CONTINUOUS
  5
200
 10
178.662956
 20
334.226448
 30
0.0
 11
180.212835
 21
335.776327
 31
0.0
  0
LINE
  8
LC-002-005-----0
  6
CONTINUOUS
  5
201
 10
175.723844
 20
334.115763
 30
0.0
 11
180.084176
 21
338.476095
 31
0.0
  0
LINE
  8
LC-002-005-----0
  6
CONTINUOUS
  5
202
 10
174.116205
 20
335.336551
 30
0.0
 11
177.255749
 21
338.476095
 31
0.0
  0
LINE
  8
LC-002-005-----0
  6
CONTINUOUS
  5
203
 10
173.628554
 20
337.677327
 30
0.0
 11
175.628554
 21
339.677327
 31
0.0
  0
LINE
  8
LC-002-005-----0
  6
CONTINUOUS
  5
204
 10
173.628554
 20
340.505754
 30
0.0
 11
175.628554
 21
342.505754
 31
0.0
  0
LINE
  8
LC-002-005-----0
  6
CONTINUOUS
  5
205
 10
173.628554
 20
343.334181
 30
0.0
 11
175.628554
 21
345.334181
 31
0.0
  0
LINE
  8
LC-002-005-----0
  6
CONTINUOUS
  5
206
 10
173.628554
 20
346.162608
 30
0.0
 11
175.628554
 21
348.162608
 31
0.0
  0
LINE
  8
LC-002-005-----0
  6
CONTINUOUS
  5
207
 10
172.613613
 20
347.976095
 30
0.0
 11
175.113613
 21
350.476095
 31
0.0
  0
LINE
  8
LC-002-005-----0
  6
CONTINUOUS
  5
208
 10
171.628554
 20
349.819462
 30
0.0
 11
172.285186
 21
350.476095
 31
0.0
  0
ENDBLK
  8
0
  5
209
  0
BLOCK
  8
0
  5
20B
  2
*X29
 70
    65
 10
212.769416
 20
261.350183
 30
0.0
  3
*X29
  0
LINE
  8
LC-002-005-----0
  6
CONTINUOUS
  5
20C
 10
218.923777
 20
261.350183
 30
0.0
 11
221.423777
 21
263.850183
 31
0.0
  0
LINE
  8
LC-002-005-----0
  6
CONTINUOUS
  5
20D
 10
217.604051
 20
262.858885
 30
0.0
 11
219.604051
 21
264.858885
 31
0.0
  0
LINE
  8
LC-002-005-----0
  6
CONTINUOUS
  5
20E
 10
217.604051
 20
265.687312
 30
0.0
 11
219.604051
 21
267.687312
 31
0.0
  0
LINE
  8
LC-002-005-----0
  6
CONTINUOUS
  5
20F
 10
217.604051
 20
268.515739
 30
0.0
 11
219.604051
 21
270.515739
 31
0.0
  0
LINE
  8
LC-002-005-----0
  6
CONTINUOUS
  5
210
 10
217.604051
 20
271.344166
 30
0.0
 11
219.604051
 21
273.344166
 31
0.0
  0
LINE
  8
LC-002-005-----0
  6
CONTINUOUS
  5
211
 10
216.781641
 20
273.350183
 30
0.0
 11
219.391287
 21
275.95983
 31
0.0
  0
LINE
  8
LC-002-005-----0
  6
CONTINUOUS
  5
212
 10
213.953214
 20
273.350183
 30
0.0
 11
218.070419
 21
277.467389
 31
0.0
  0
LINE
  8
LC-002-005-----0
  6
CONTINUOUS
  5
213
 10
212.773084
 20
274.998481
 30
0.0
 11
215.621119
 21
277.846516
 31
0.0
  0
ENDBLK
  8
0
  5
214
  0
BLOCK
  8
0
  5
216
  2
*X30
 70
    65
 10
210.354051
 20
309.748875
 30
0.0
  3
*X30
  0
LINE
  8
LC-002-005-----0
  6
CONTINUOUS
  5
217
 10
210.753925
 20
309.748875
 30
0.0
 11
212.354051
 21
311.349
 31
0.0
  0
LINE
  8
LC-002-005-----0
  6
CONTINUOUS
  5
218
 10
210.354051
 20
312.177428
 30
0.0
 11
212.354051
 21
314.177428
 31
0.0
  0
LINE
  8
LC-002-005-----0
  6
CONTINUOUS
  5
219
 10
210.354051
 20
315.005855
 30
0.0
 11
212.354051
 21
317.005855
 31
0.0
  0
LINE
  8
LC-002-005-----0
  6
CONTINUOUS
  5
21A
 10
210.354051
 20
317.834282
 30
0.0
 11
212.354051
 21
319.834282
 31
0.0
  0
LINE
  8
LC-002-005-----0
  6
CONTINUOUS
  5
21B
 10
210.354051
 20
320.662709
 30
0.0
 11
212.354051
 21
322.662709
 31
0.0
  0
LINE
  8
LC-002-005-----0
  6
CONTINUOUS
  5
21C
 10
210.354051
 20
323.491136
 30
0.0
 11
212.354051
 21
325.491136
 31
0.0
  0
LINE
  8
LC-002-005-----0
  6
CONTINUOUS
  5
21D
 10
210.354051
 20
326.319563
 30
0.0
 11
212.354051
 21
328.319563
 31
0.0
  0
LINE
  8
LC-002-005-----0
  6
CONTINUOUS
  5
21E
 10
210.354051
 20
329.14799
 30
0.0
 11
212.354051
 21
331.14799
 31
0.0
  0
LINE
  8
LC-002-005-----0
  6
CONTINUOUS
  5
21F
 10
210.354051
 20
331.976417
 30
0.0
 11
212.354051
 21
333.976417
 31
0.0
  0
LINE
  8
LC-002-005-----0
  6
CONTINUOUS
  5
220
 10
210.354051
 20
334.804845
 30
0.0
 11
212.354051
 21
336.804845
 31
0.0
  0
LINE
  8
LC-002-005-----0
  6
CONTINUOUS
  5
221
 10
214.511305
 20
338.962099
 30
0.0
 11
215.854051
 21
340.304845
 31
0.0
  0
LINE
  8
LC-002-005-----0
  6
CONTINUOUS
  5
222
 10
210.354051
 20
337.633272
 30
0.0
 11
214.182878
 21
341.462099
 31
0.0
  0
LINE
  8
LC-002-005-----0
  6
CONTINUOUS
  5
223
 10
210.354051
 20
340.461699
 30
0.0
 11
211.354451
 21
341.462099
 31
0.0
  0
ENDBLK
  8
0
  5
224
  0
BLOCK
  8
0
  5
226
  2
*X31
 70
    65
 10
177.354051
 20
309.748875
 30
0.0
  3
*X31
  0
LINE
  8
LC-002-005-----0
  6
CONTINUOUS
  5
227
 10
182.469654
 20
309.748875
 30
0.0
 11
182.854051
 21
310.133272
 31
0.0
  0
LINE
  8
LC-002-005-----0
  6
CONTINUOUS
  5
228
 10
180.854051
 20
310.961699
 30
0.0
 11
182.854051
 21
312.961699
 31
0.0
  0
LINE
  8
LC-002-005-----0
  6
CONTINUOUS
  5
229
 10
180.854051
 20
313.790126
 30
0.0
 11
182.854051
 21
315.790126
 31
0.0
  0
LINE
  8
LC-002-005-----0
  6
CONTINUOUS
  5
22A
 10
180.854051
 20
316.618553
 30
0.0
 11
182.854051
 21
318.618553
 31
0.0
  0
LINE
  8
LC-002-005-----0
  6
CONTINUOUS
  5
22B
 10
180.854051
 20
319.44698
 30
0.0
 11
182.854051
 21
321.44698
 31
0.0
  0
LINE
  8
LC-002-005-----0
  6
CONTINUOUS
  5
22C
 10
180.854051
 20
322.275407
 30
0.0
 11
182.854051
 21
324.275407
 31
0.0
  0
LINE
  8
LC-002-005-----0
  6
CONTINUOUS
  5
22D
 10
180.854051
 20
325.103834
 30
0.0
 11
182.854051
 21
327.103834
 31
0.0
  0
LINE
  8
LC-002-005-----0
  6
CONTINUOUS
  5
22E
 10
180.854051
 20
327.932262
 30
0.0
 11
182.854051
 21
329.932262
 31
0.0
  0
LINE
  8
LC-002-005-----0
  6
CONTINUOUS
  5
22F
 10
180.854051
 20
330.760689
 30
0.0
 11
182.854051
 21
332.760689
 31
0.0
  0
LINE
  8
LC-002-005-----0
  6
CONTINUOUS
  5
230
 10
180.854051
 20
333.589116
 30
0.0
 11
182.854051
 21
335.589116
 31
0.0
  0
LINE
  8
LC-002-005-----0
  6
CONTINUOUS
  5
231
 10
180.854051
 20
336.417543
 30
0.0
 11
182.854051
 21
338.417543
 31
0.0
  0
LINE
  8
LC-002-005-----0
  6
CONTINUOUS
  5
232
 10
180.57018
 20
338.962099
 30
0.0
 11
182.854051
 21
341.24597
 31
0.0
  0
LINE
  8
LC-002-005-----0
  6
CONTINUOUS
  5
233
 10
177.741753
 20
338.962099
 30
0.0
 11
180.241753
 21
341.462099
 31
0.0
  0
LINE
  8
LC-002-005-----0
  6
CONTINUOUS
  5
234
 10
177.354051
 20
341.402824
 30
0.0
 11
177.413326
 21
341.462099
 31
0.0
  0
ENDBLK
  8
0
  5
235
  0
BLOCK
  8
0
  5
237
  2
*X32
 70
    65
 10
210.354051
 20
244.976817
 30
0.0
  3
*X32
  0
LINE
  8
LC-002-005-----0
  6
CONTINUOUS
  5
238
 10
211.035692
 20
244.976817
 30
0.0
 11
212.354051
 21
246.295177
 31
0.0
  0
LINE
  8
LC-002-005-----0
  6
CONTINUOUS
  5
239
 10
210.354051
 20
247.123604
 30
0.0
 11
212.354051
 21
249.123604
 31
0.0
  0
LINE
  8
LC-002-005-----0
  6
CONTINUOUS
  5
23A
 10
210.354051
 20
249.952031
 30
0.0
 11
212.354051
 21
251.952031
 31
0.0
  0
LINE
  8
LC-002-005-----0
  6
CONTINUOUS
  5
23B
 10
210.354051
 20
252.780458
 30
0.0
 11
212.354051
 21
254.780458
 31
0.0
  0
LINE
  8
LC-002-005-----0
  6
CONTINUOUS
  5
23C
 10
210.354051
 20
255.608885
 30
0.0
 11
212.354051
 21
257.608885
 31
0.0
  0
LINE
  8
LC-002-005-----0
  6
CONTINUOUS
  5
23D
 10
210.354051
 20
258.437312
 30
0.0
 11
212.354051
 21
260.437312
 31
0.0
  0
LINE
  8
LC-002-005-----0
  6
CONTINUOUS
  5
23E
 10
210.354051
 20
261.265739
 30
0.0
 11
212.354051
 21
263.265739
 31
0.0
  0
LINE
  8
LC-002-005-----0
  6
CONTINUOUS
  5
23F
 10
210.354051
 20
264.094166
 30
0.0
 11
212.354051
 21
266.094166
 31
0.0
  0
LINE
  8
LC-002-005-----0
  6
CONTINUOUS
  5
240
 10
210.354051
 20
266.922594
 30
0.0
 11
212.354051
 21
268.922594
 31
0.0
  0
LINE
  8
LC-002-005-----0
  6
CONTINUOUS
  5
241
 10
210.354051
 20
269.751021
 30
0.0
 11
212.354051
 21
271.751021
 31
0.0
  0
LINE
  8
LC-002-005-----0
  6
CONTINUOUS
  5
242
 10
210.354051
 20
272.579448
 30
0.0
 11
212.354051
 21
274.579448
 31
0.0
  0
LINE
  8
LC-002-005-----0
  6
CONTINUOUS
  5
243
 10
210.354051
 20
275.407875
 30
0.0
 11
212.354051
 21
277.407875
 31
0.0
  0
LINE
  8
LC-002-005-----0
  6
CONTINUOUS
  5
244
 10
210.354051
 20
278.236302
 30
0.0
 11
212.354051
 21
280.236302
 31
0.0
  0
LINE
  8
LC-002-005-----0
  6
CONTINUOUS
  5
245
 10
210.354051
 20
281.064729
 30
0.0
 11
212.354051
 21
283.064729
 31
0.0
  0
LINE
  8
LC-002-005-----0
  6
CONTINUOUS
  5
246
 10
210.354051
 20
283.893156
 30
0.0
 11
212.354051
 21
285.893156
 31
0.0
  0
LINE
  8
LC-002-005-----0
  6
CONTINUOUS
  5
247
 10
210.354051
 20
286.721583
 30
0.0
 11
212.354051
 21
288.721583
 31
0.0
  0
LINE
  8
LC-002-005-----0
  6
CONTINUOUS
  5
248
 10
210.354051
 20
289.550011
 30
0.0
 11
212.354051
 21
291.550011
 31
0.0
  0
LINE
  8
LC-002-005-----0
  6
CONTINUOUS
  5
249
 10
210.354051
 20
292.378438
 30
0.0
 11
212.354051
 21
294.378438
 31
0.0
  0
LINE
  8
LC-002-005-----0
  6
CONTINUOUS
  5
24A
 10
210.354051
 20
295.206865
 30
0.0
 11
212.354051
 21
297.206865
 31
0.0
  0
LINE
  8
LC-002-005-----0
  6
CONTINUOUS
  5
24B
 10
210.354051
 20
298.035292
 30
0.0
 11
212.354051
 21
300.035292
 31
0.0
  0
LINE
  8
LC-002-005-----0
  6
CONTINUOUS
  5
24C
 10
210.354051
 20
300.863719
 30
0.0
 11
212.354051
 21
302.863719
 31
0.0
  0
LINE
  8
LC-002-005-----0
  6
CONTINUOUS
  5
24D
 10
210.354051
 20
303.692146
 30
0.0
 11
212.354051
 21
305.692146
 31
0.0
  0
LINE
  8
LC-002-005-----0
  6
CONTINUOUS
  5
24E
 10
210.354051
 20
306.520573
 30
0.0
 11
212.354051
 21
308.520573
 31
0.0
  0
ENDBLK
  8
0
  5
24F
  0
BLOCK
  8
0
  5
251
  2
*X33
 70
    65
 10
180.854051
 20
244.976817
 30
0.0
  3
*X33
  0
LINE
  8
LC-002-005-----0
  6
CONTINUOUS
  5
252
 10
182.751421
 20
244.976817
 30
0.0
 11
182.854051
 21
245.079448
 31
0.0
  0
LINE
  8
LC-002-005-----0
  6
CONTINUOUS
  5
253
 10
180.854051
 20
245.907875
 30
0.0
 11
182.854051
 21
247.907875
 31
0.0
  0
LINE
  8
LC-002-005-----0
  6
CONTINUOUS
  5
254
 10
180.854051
 20
248.736302
 30
0.0
 11
182.854051
 21
250.736302
 31
0.0
  0
LINE
  8
LC-002-005-----0
  6
CONTINUOUS
  5
255
 10
180.854051
 20
251.564729
 30
0.0
 11
182.854051
 21
253.564729
 31
0.0
  0
LINE
  8
LC-002-005-----0
  6
CONTINUOUS
  5
256
 10
180.854051
 20
254.393156
 30
0.0
 11
182.854051
 21
256.393156
 31
0.0
  0
LINE
  8
LC-002-005-----0
  6
CONTINUOUS
  5
257
 10
180.854051
 20
257.221583
 30
0.0
 11
182.854051
 21
259.221583
 31
0.0
  0
LINE
  8
LC-002-005-----0
  6
CONTINUOUS
  5
258
 10
180.854051
 20
260.050011
 30
0.0
 11
182.854051
 21
262.050011
 31
0.0
  0
LINE
  8
LC-002-005-----0
  6
CONTINUOUS
  5
259
 10
180.854051
 20
262.878438
 30
0.0
 11
182.854051
 21
264.878438
 31
0.0
  0
LINE
  8
LC-002-005-----0
  6
CONTINUOUS
  5
25A
 10
180.854051
 20
265.706865
 30
0.0
 11
182.854051
 21
267.706865
 31
0.0
  0
LINE
  8
LC-002-005-----0
  6
CONTINUOUS
  5
25B
 10
180.854051
 20
268.535292
 30
0.0
 11
182.854051
 21
270.535292
 31
0.0
  0
LINE
  8
LC-002-005-----0
  6
CONTINUOUS
  5
25C
 10
180.854051
 20
271.363719
 30
0.0
 11
182.854051
 21
273.363719
 31
0.0
  0
LINE
  8
LC-002-005-----0
  6
CONTINUOUS
  5
25D
 10
180.854051
 20
274.192146
 30
0.0
 11
182.854051
 21
276.192146
 31
0.0
  0
LINE
  8
LC-002-005-----0
  6
CONTINUOUS
  5
25E
 10
180.854051
 20
277.020573
 30
0.0
 11
182.854051
 21
279.020573
 31
0.0
  0
LINE
  8
LC-002-005-----0
  6
CONTINUOUS
  5
25F
 10
180.854051
 20
279.849
 30
0.0
 11
182.854051
 21
281.849
 31
0.0
  0
LINE
  8
LC-002-005-----0
  6
CONTINUOUS
  5
260
 10
180.854051
 20
282.677428
 30
0.0
 11
182.854051
 21
284.677428
 31
0.0
  0
LINE
  8
LC-002-005-----0
  6
CONTINUOUS
  5
261
 10
180.854051
 20
285.505855
 30
0.0
 11
182.854051
 21
287.505855
 31
0.0
  0
LINE
  8
LC-002-005-----0
  6
CONTINUOUS
  5
262
 10
180.854051
 20
288.334282
 30
0.0
 11
182.854051
 21
290.334282
 31
0.0
  0
LINE
  8
LC-002-005-----0
  6
CONTINUOUS
  5
263
 10
180.854051
 20
291.162709
 30
0.0
 11
182.854051
 21
293.162709
 31
0.0
  0
LINE
  8
LC-002-005-----0
  6
CONTINUOUS
  5
264
 10
180.854051
 20
293.991136
 30
0.0
 11
182.854051
 21
295.991136
 31
0.0
  0
LINE
  8
LC-002-005-----0
  6
CONTINUOUS
  5
265
 10
180.854051
 20
296.819563
 30
0.0
 11
182.854051
 21
298.819563
 31
0.0
  0
LINE
  8
LC-002-005-----0
  6
CONTINUOUS
  5
266
 10
180.854051
 20
299.64799
 30
0.0
 11
182.854051
 21
301.64799
 31
0.0
  0
LINE
  8
LC-002-005-----0
  6
CONTINUOUS
  5
267
 10
180.854051
 20
302.476417
 30
0.0
 11
182.854051
 21
304.476417
 31
0.0
  0
LINE
  8
LC-002-005-----0
  6
CONTINUOUS
  5
268
 10
180.854051
 20
305.304845
 30
0.0
 11
182.854051
 21
307.304845
 31
0.0
  0
LINE
  8
LC-002-005-----0
  6
CONTINUOUS
  5
269
 10
180.854051
 20
308.133272
 30
0.0
 11
181.469654
 21
308.748875
 31
0.0
  0
ENDBLK
  8
0
  5
26A
  0
BLOCK
  8
0
  5
26C
  2
*X34
 70
    65
 10
178.604051
 20
209.350183
 30
0.0
  3
*X34
  0
LINE
  8
LC-002-005-----0
  6
CONTINUOUS
  5
26D
 10
260.168719
 20
209.350183
 30
0.0
 11
258.168719
 21
211.350183
 31
0.0
  0
LINE
  8
LC-002-005-----0
  6
CONTINUOUS
  5
26E
 10
257.340292
 20
209.350183
 30
0.0
 11
255.340292
 21
211.350183
 31
0.0
  0
LINE
  8
LC-002-005-----0
  6
CONTINUOUS
  5
26F
 10
254.511865
 20
209.350183
 30
0.0
 11
252.511865
 21
211.350183
 31
0.0
  0
LINE
  8
LC-002-005-----0
  6
CONTINUOUS
  5
270
 10
251.683438
 20
209.350183
 30
0.0
 11
249.683438
 21
211.350183
 31
0.0
  0
LINE
  8
LC-002-005-----0
  6
CONTINUOUS
  5
271
 10
248.855011
 20
209.350183
 30
0.0
 11
246.855011
 21
211.350183
 31
0.0
  0
LINE
  8
LC-002-005-----0
  6
CONTINUOUS
  5
272
 10
246.026584
 20
209.350183
 30
0.0
 11
244.026584
 21
211.350183
 31
0.0
  0
LINE
  8
LC-002-005-----0
  6
CONTINUOUS
  5
273
 10
243.198157
 20
209.350183
 30
0.0
 11
241.198157
 21
211.350183
 31
0.0
  0
LINE
  8
LC-002-005-----0
  6
CONTINUOUS
  5
274
 10
240.369729
 20
209.350183
 30
0.0
 11
238.369729
 21
211.350183
 31
0.0
  0
LINE
  8
LC-002-005-----0
  6
CONTINUOUS
  5
275
 10
237.541302
 20
209.350183
 30
0.0
 11
235.541302
 21
211.350183
 31
0.0
  0
LINE
  8
LC-002-005-----0
  6
CONTINUOUS
  5
276
 10
179.761188
 20
267.130298
 30
0.0
 11
178.604051
 21
268.287435
 31
0.0
  0
LINE
  8
LC-002-005-----0
  6
CONTINUOUS
  5
277
 10
234.712875
 20
209.350183
 30
0.0
 11
232.712875
 21
211.350183
 31
0.0
  0
LINE
  8
LC-002-005-----0
  6
CONTINUOUS
  5
278
 10
180.366681
 20
263.696378
 30
0.0
 11
178.604051
 21
265.459008
 31
0.0
  0
LINE
  8
LC-002-005-----0
  6
CONTINUOUS
  5
279
 10
231.884448
 20
209.350183
 30
0.0
 11
229.884448
 21
211.350183
 31
0.0
  0
LINE
  8
LC-002-005-----0
  6
CONTINUOUS
  5
27A
 10
180.604051
 20
260.63058
 30
0.0
 11
178.604051
 21
262.63058
 31
0.0
  0
LINE
  8
LC-002-005-----0
  6
CONTINUOUS
  5
27B
 10
229.056021
 20
209.350183
 30
0.0
 11
227.056021
 21
211.350183
 31
0.0
  0
LINE
  8
LC-002-005-----0
  6
CONTINUOUS
  5
27C
 10
180.604051
 20
257.802153
 30
0.0
 11
178.604051
 21
259.802153
 31
0.0
  0
LINE
  8
LC-002-005-----0
  6
CONTINUOUS
  5
27D
 10
226.227594
 20
209.350183
 30
0.0
 11
224.227594
 21
211.350183
 31
0.0
  0
LINE
  8
LC-002-005-----0
  6
CONTINUOUS
  5
27E
 10
180.604051
 20
254.973726
 30
0.0
 11
178.604051
 21
256.973726
 31
0.0
  0
LINE
  8
LC-002-005-----0
  6
CONTINUOUS
  5
27F
 10
223.399167
 20
209.350183
 30
0.0
 11
221.399167
 21
211.350183
 31
0.0
  0
LINE
  8
LC-002-005-----0
  6
CONTINUOUS
  5
280
 10
180.604051
 20
252.145299
 30
0.0
 11
178.604051
 21
254.145299
 31
0.0
  0
LINE
  8
LC-002-005-----0
  6
CONTINUOUS
  5
281
 10
220.57074
 20
209.350183
 30
0.0
 11
218.57074
 21
211.350183
 31
0.0
  0
LINE
  8
LC-002-005-----0
  6
CONTINUOUS
  5
282
 10
180.604051
 20
249.316872
 30
0.0
 11
178.604051
 21
251.316872
 31
0.0
  0
LINE
  8
LC-002-005-----0
  6
CONTINUOUS
  5
283
 10
217.742312
 20
209.350183
 30
0.0
 11
215.742312
 21
211.350183
 31
0.0
  0
LINE
  8
LC-002-005-----0
  6
CONTINUOUS
  5
284
 10
180.604051
 20
246.488445
 30
0.0
 11
178.604051
 21
248.488445
 31
0.0
  0
LINE
  8
LC-002-005-----0
  6
CONTINUOUS
  5
285
 10
214.913885
 20
209.350183
 30
0.0
 11
212.913885
 21
211.350183
 31
0.0
  0
LINE
  8
LC-002-005-----0
  6
CONTINUOUS
  5
286
 10
180.604051
 20
243.660018
 30
0.0
 11
178.604051
 21
245.660018
 31
0.0
  0
LINE
  8
LC-002-005-----0
  6
CONTINUOUS
  5
287
 10
212.085458
 20
209.350183
 30
0.0
 11
210.080896
 21
211.354745
 31
0.0
  0
LINE
  8
LC-002-005-----0
  6
CONTINUOUS
  5
288
 10
180.608613
 20
240.827029
 30
0.0
 11
178.604051
 21
242.831591
 31
0.0
  0
LINE
  8
LC-002-005-----0
  6
CONTINUOUS
  5
289
 10
209.227406
 20
209.379809
 30
0.0
 11
207.045192
 21
211.562023
 31
0.0
  0
LINE
  8
LC-002-005-----0
  6
CONTINUOUS
  5
28A
 10
180.81589
 20
237.791324
 30
0.0
 11
178.633677
 21
239.973538
 31
0.0
  0
LINE
  8
LC-002-005-----0
  6
CONTINUOUS
  5
28B
 10
206.111704
 20
209.667084
 30
0.0
 11
203.599389
 21
212.179398
 31
0.0
  0
LINE
  8
LC-002-005-----0
  6
CONTINUOUS
  5
28C
 10
181.433266
 20
234.345522
 30
0.0
 11
178.920951
 21
236.857836
 31
0.0
  0
LINE
  8
LC-002-005-----0
  6
CONTINUOUS
  5
28D
 10
202.577063
 20
210.373298
 30
0.0
 11
199.449236
 21
213.501124
 31
0.0
  0
LINE
  8
LC-002-005-----0
  6
CONTINUOUS
  5
28E
 10
182.754992
 20
230.195368
 30
0.0
 11
179.627165
 21
233.323195
 31
0.0
  0
LINE
  8
LC-002-005-----0
  6
CONTINUOUS
  5
28F
 10
198.320087
 20
211.801846
 30
0.0
 11
193.225504
 21
216.896429
 31
0.0
  0
LINE
  8
LC-002-005-----0
  6
CONTINUOUS
  5
290
 10
186.150297
 20
223.971636
 30
0.0
 11
181.055714
 21
229.066219
 31
0.0
  0
LINE
  8
LC-002-005-----0
  6
CONTINUOUS
  5
291
 10
191.928113
 20
215.365393
 30
0.0
 11
184.61926
 21
222.674246
 31
0.0
  0
ENDBLK
  8
0
  5
292
  0
BLOCK
  8
0
  5
294
  2
*X35
 70
    65
 10
212.604051
 20
239.350183
 30
0.0
  3
*X35
  0
LINE
  8
LC-002-005-----0
  6
CONTINUOUS
  5
295
 10
260.852008
 20
239.779593
 30
0.0
 11
259.281418
 21
241.350183
 31
0.0
  0
LINE
  8
LC-002-005-----0
  6
CONTINUOUS
  5
296
 10
258.452991
 20
239.350183
 30
0.0
 11
256.452991
 21
241.350183
 31
0.0
  0
LINE
  8
LC-002-005-----0
  6
CONTINUOUS
  5
297
 10
255.624563
 20
239.350183
 30
0.0
 11
253.624563
 21
241.350183
 31
0.0
  0
LINE
  8
LC-002-005-----0
  6
CONTINUOUS
  5
298
 10
252.796136
 20
239.350183
 30
0.0
 11
250.796136
 21
241.350183
 31
0.0
  0
LINE
  8
LC-002-005-----0
  6
CONTINUOUS
  5
299
 10
249.967709
 20
239.350183
 30
0.0
 11
247.967709
 21
241.350183
 31
0.0
  0
LINE
  8
LC-002-005-----0
  6
CONTINUOUS
  5
29A
 10
247.139282
 20
239.350183
 30
0.0
 11
245.139282
 21
241.350183
 31
0.0
  0
LINE
  8
LC-002-005-----0
  6
CONTINUOUS
  5
29B
 10
244.310855
 20
239.350183
 30
0.0
 11
242.310855
 21
241.350183
 31
0.0
  0
LINE
  8
LC-002-005-----0
  6
CONTINUOUS
  5
29C
 10
241.482428
 20
239.350183
 30
0.0
 11
239.482428
 21
241.350183
 31
0.0
  0
LINE
  8
LC-002-005-----0
  6
CONTINUOUS
  5
29D
 10
214.604051
 20
266.22856
 30
0.0
 11
213.485198
 21
267.347414
 31
0.0
  0
LINE
  8
LC-002-005-----0
  6
CONTINUOUS
  5
29E
 10
238.654001
 20
239.350183
 30
0.0
 11
236.654001
 21
241.350183
 31
0.0
  0
LINE
  8
LC-002-005-----0
  6
CONTINUOUS
  5
29F
 10
214.604051
 20
263.400133
 30
0.0
 11
213.061227
 21
264.942957
 31
0.0
  0
LINE
  8
LC-002-005-----0
  6
CONTINUOUS
  5
2A0
 10
235.825574
 20
239.350183
 30
0.0
 11
233.825574
 21
241.350183
 31
0.0
  0
LINE
  8
LC-002-005-----0
  6
CONTINUOUS
  5
2A1
 10
214.604051
 20
260.571706
 30
0.0
 11
212.637256
 21
262.538501
 31
0.0
  0
LINE
  8
LC-002-005-----0
  6
CONTINUOUS
  5
2A2
 10
232.997146
 20
239.350183
 30
0.0
 11
230.997146
 21
241.350183
 31
0.0
  0
LINE
  8
LC-002-005-----0
  6
CONTINUOUS
  5
2A3
 10
214.604051
 20
257.743279
 30
0.0
 11
212.604051
 21
259.743279
 31
0.0
  0
LINE
  8
LC-002-005-----0
  6
CONTINUOUS
  5
2A4
 10
230.168719
 20
239.350183
 30
0.0
 11
228.168719
 21
241.350183
 31
0.0
  0
LINE
  8
LC-002-005-----0
  6
CONTINUOUS
  5
2A5
 10
214.604051
 20
254.914852
 30
0.0
 11
212.604051
 21
256.914852
 31
0.0
  0
LINE
  8
LC-002-005-----0
  6
CONTINUOUS
  5
2A6
 10
227.340292
 20
239.350183
 30
0.0
 11
225.340292
 21
241.350183
 31
0.0
  0
LINE
  8
LC-002-005-----0
  6
CONTINUOUS
  5
2A7
 10
214.604051
 20
252.086425
 30
0.0
 11
212.604051
 21
254.086425
 31
0.0
  0
LINE
  8
LC-002-005-----0
  6
CONTINUOUS
  5
2A8
 10
224.511865
 20
239.350183
 30
0.0
 11
222.511865
 21
241.350183
 31
0.0
  0
LINE
  8
LC-002-005-----0
  6
CONTINUOUS
  5
2A9
 10
214.604051
 20
249.257997
 30
0.0
 11
212.604051
 21
251.257997
 31
0.0
  0
LINE
  8
LC-002-005-----0
  6
CONTINUOUS
  5
2AA
 10
221.683438
 20
239.350183
 30
0.0
 11
219.683438
 21
241.350183
 31
0.0
  0
LINE
  8
LC-002-005-----0
  6
CONTINUOUS
  5
2AB
 10
214.604051
 20
246.42957
 30
0.0
 11
212.604051
 21
248.42957
 31
0.0
  0
LINE
  8
LC-002-005-----0
  6
CONTINUOUS
  5
2AC
 10
218.855011
 20
239.350183
 30
0.0
 11
216.855011
 21
241.350183
 31
0.0
  0
LINE
  8
LC-002-005-----0
  6
CONTINUOUS
  5
2AD
 10
214.604051
 20
243.601143
 30
0.0
 11
212.604051
 21
245.601143
 31
0.0
  0
LINE
  8
LC-002-005-----0
  6
CONTINUOUS
  5
2AE
 10
216.026584
 20
239.350183
 30
0.0
 11
212.604051
 21
242.772716
 31
0.0
  0
LINE
  8
LC-002-005-----0
  6
CONTINUOUS
  5
2AF
 10
213.198157
 20
239.350183
 30
0.0
 11
212.604051
 21
239.944289
 31
0.0
  0
ENDBLK
  8
0
  5
2B0
  0
BLOCK
  8
0
  5
2B2
  2
*X36
 70
    65
 10
261.852008
 20
239.406011
 30
0.0
  3
*X36
  0
LINE
  8
LC-002-005-----0
  6
CONTINUOUS
  5
2B3
 10
387.958805
 20
239.952017
 30
0.0
 11
387.253701
 21
240.657121
 31
0.0
  0
LINE
  8
LC-002-005-----0
  6
CONTINUOUS
  5
2B4
 10
385.676384
 20
239.406011
 30
0.0
 11
383.676384
 21
241.406011
 31
0.0
  0
LINE
  8
LC-002-005-----0
  6
CONTINUOUS
  5
2B5
 10
382.847956
 20
239.406011
 30
0.0
 11
380.847956
 21
241.406011
 31
0.0
  0
LINE
  8
LC-002-005-----0
  6
CONTINUOUS
  5
2B6
 10
380.019529
 20
239.406011
 30
0.0
 11
378.019529
 21
241.406011
 31
0.0
  0
LINE
  8
LC-002-005-----0
  6
CONTINUOUS
  5
2B7
 10
377.191102
 20
239.406011
 30
0.0
 11
375.191102
 21
241.406011
 31
0.0
  0
LINE
  8
LC-002-005-----0
  6
CONTINUOUS
  5
2B8
 10
374.362675
 20
239.406011
 30
0.0
 11
372.362675
 21
241.406011
 31
0.0
  0
LINE
  8
LC-002-005-----0
  6
CONTINUOUS
  5
2B9
 10
371.534248
 20
239.406011
 30
0.0
 11
369.534248
 21
241.406011
 31
0.0
  0
LINE
  8
LC-002-005-----0
  6
CONTINUOUS
  5
2BA
 10
368.705821
 20
239.406011
 30
0.0
 11
366.705821
 21
241.406011
 31
0.0
  0
LINE
  8
LC-002-005-----0
  6
CONTINUOUS
  5
2BB
 10
365.877394
 20
239.406011
 30
0.0
 11
363.877394
 21
241.406011
 31
0.0
  0
LINE
  8
LC-002-005-----0
  6
CONTINUOUS
  5
2BC
 10
363.048967
 20
239.406011
 30
0.0
 11
361.048967
 21
241.406011
 31
0.0
  0
LINE
  8
LC-002-005-----0
  6
CONTINUOUS
  5
2BD
 10
360.220539
 20
239.406011
 30
0.0
 11
358.220539
 21
241.406011
 31
0.0
  0
LINE
  8
LC-002-005-----0
  6
CONTINUOUS
  5
2BE
 10
357.392112
 20
239.406011
 30
0.0
 11
355.392112
 21
241.406011
 31
0.0
  0
LINE
  8
LC-002-005-----0
  6
CONTINUOUS
  5
2BF
 10
354.563685
 20
239.406011
 30
0.0
 11
352.563685
 21
241.406011
 31
0.0
  0
LINE
  8
LC-002-005-----0
  6
CONTINUOUS
  5
2C0
 10
351.735258
 20
239.406011
 30
0.0
 11
349.735258
 21
241.406011
 31
0.0
  0
LINE
  8
LC-002-005-----0
  6
CONTINUOUS
  5
2C1
 10
348.906831
 20
239.406011
 30
0.0
 11
346.906831
 21
241.406011
 31
0.0
  0
LINE
  8
LC-002-005-----0
  6
CONTINUOUS
  5
2C2
 10
346.078404
 20
239.406011
 30
0.0
 11
344.078404
 21
241.406011
 31
0.0
  0
LINE
  8
LC-002-005-----0
  6
CONTINUOUS
  5
2C3
 10
343.249977
 20
239.406011
 30
0.0
 11
341.249977
 21
241.406011
 31
0.0
  0
LINE
  8
LC-002-005-----0
  6
CONTINUOUS
  5
2C4
 10
340.42155
 20
239.406011
 30
0.0
 11
338.42155
 21
241.406011
 31
0.0
  0
LINE
  8
LC-002-005-----0
  6
CONTINUOUS
  5
2C5
 10
337.593122
 20
239.406011
 30
0.0
 11
335.593122
 21
241.406011
 31
0.0
  0
LINE
  8
LC-002-005-----0
  6
CONTINUOUS
  5
2C6
 10
334.764695
 20
239.406011
 30
0.0
 11
332.764695
 21
241.406011
 31
0.0
  0
LINE
  8
LC-002-005-----0
  6
CONTINUOUS
  5
2C7
 10
331.936268
 20
239.406011
 30
0.0
 11
329.936268
 21
241.406011
 31
0.0
  0
LINE
  8
LC-002-005-----0
  6
CONTINUOUS
  5
2C8
 10
329.107841
 20
239.406011
 30
0.0
 11
327.107841
 21
241.406011
 31
0.0
  0
LINE
  8
LC-002-005-----0
  6
CONTINUOUS
  5
2C9
 10
326.279414
 20
239.406011
 30
0.0
 11
324.279414
 21
241.406011
 31
0.0
  0
LINE
  8
LC-002-005-----0
  6
CONTINUOUS
  5
2CA
 10
323.450987
 20
239.406011
 30
0.0
 11
321.450987
 21
241.406011
 31
0.0
  0
LINE
  8
LC-002-005-----0
  6
CONTINUOUS
  5
2CB
 10
320.62256
 20
239.406011
 30
0.0
 11
318.62256
 21
241.406011
 31
0.0
  0
LINE
  8
LC-002-005-----0
  6
CONTINUOUS
  5
2CC
 10
317.794133
 20
239.406011
 30
0.0
 11
315.794133
 21
241.406011
 31
0.0
  0
LINE
  8
LC-002-005-----0
  6
CONTINUOUS
  5
2CD
 10
314.965705
 20
239.406011
 30
0.0
 11
312.965705
 21
241.406011
 31
0.0
  0
LINE
  8
LC-002-005-----0
  6
CONTINUOUS
  5
2CE
 10
312.137278
 20
239.406011
 30
0.0
 11
310.137278
 21
241.406011
 31
0.0
  0
LINE
  8
LC-002-005-----0
  6
CONTINUOUS
  5
2CF
 10
309.308851
 20
239.406011
 30
0.0
 11
307.308851
 21
241.406011
 31
0.0
  0
LINE
  8
LC-002-005-----0
  6
CONTINUOUS
  5
2D0
 10
306.480424
 20
239.406011
 30
0.0
 11
304.480424
 21
241.406011
 31
0.0
  0
LINE
  8
LC-002-005-----0
  6
CONTINUOUS
  5
2D1
 10
303.651997
 20
239.406011
 30
0.0
 11
301.651997
 21
241.406011
 31
0.0
  0
LINE
  8
LC-002-005-----0
  6
CONTINUOUS
  5
2D2
 10
300.82357
 20
239.406011
 30
0.0
 11
298.82357
 21
241.406011
 31
0.0
  0
LINE
  8
LC-002-005-----0
  6
CONTINUOUS
  5
2D3
 10
297.995143
 20
239.406011
 30
0.0
 11
295.995143
 21
241.406011
 31
0.0
  0
LINE
  8
LC-002-005-----0
  6
CONTINUOUS
  5
2D4
 10
295.166716
 20
239.406011
 30
0.0
 11
293.166716
 21
241.406011
 31
0.0
  0
LINE
  8
LC-002-005-----0
  6
CONTINUOUS
  5
2D5
 10
292.338288
 20
239.406011
 30
0.0
 11
290.338288
 21
241.406011
 31
0.0
  0
LINE
  8
LC-002-005-----0
  6
CONTINUOUS
  5
2D6
 10
289.509861
 20
239.406011
 30
0.0
 11
287.509861
 21
241.406011
 31
0.0
  0
LINE
  8
LC-002-005-----0
  6
CONTINUOUS
  5
2D7
 10
286.681434
 20
239.406011
 30
0.0
 11
284.681434
 21
241.406011
 31
0.0
  0
LINE
  8
LC-002-005-----0
  6
CONTINUOUS
  5
2D8
 10
283.853007
 20
239.406011
 30
0.0
 11
281.853007
 21
241.406011
 31
0.0
  0
LINE
  8
LC-002-005-----0
  6
CONTINUOUS
  5
2D9
 10
281.02458
 20
239.406011
 30
0.0
 11
279.02458
 21
241.406011
 31
0.0
  0
LINE
  8
LC-002-005-----0
  6
CONTINUOUS
  5
2DA
 10
278.196153
 20
239.406011
 30
0.0
 11
276.196153
 21
241.406011
 31
0.0
  0
LINE
  8
LC-002-005-----0
  6
CONTINUOUS
  5
2DB
 10
275.367726
 20
239.406011
 30
0.0
 11
273.367726
 21
241.406011
 31
0.0
  0
LINE
  8
LC-002-005-----0
  6
CONTINUOUS
  5
2DC
 10
272.539299
 20
239.406011
 30
0.0
 11
270.539299
 21
241.406011
 31
0.0
  0
LINE
  8
LC-002-005-----0
  6
CONTINUOUS
  5
2DD
 10
269.710871
 20
239.406011
 30
0.0
 11
267.710871
 21
241.406011
 31
0.0
  0
LINE
  8
LC-002-005-----0
  6
CONTINUOUS
  5
2DE
 10
266.882444
 20
239.406011
 30
0.0
 11
264.882444
 21
241.406011
 31
0.0
  0
LINE
  8
LC-002-005-----0
  6
CONTINUOUS
  5
2DF
 10
264.054017
 20
239.406011
 30
0.0
 11
262.054017
 21
241.406011
 31
0.0
  0
ENDBLK
  8
0
  5
2E0
  0
BLOCK
  8
0
  5
2E2
  2
*X37
 70
    65
 10
261.852008
 20
209.406011
 30
0.0
  3
*X37
  0
LINE
  8
LC-002-005-----0
  6
CONTINUOUS
  5
2E3
 10
386.772231
 20
210.025892
 30
0.0
 11
385.392112
 21
211.406011
 31
0.0
  0
LINE
  8
LC-002-005-----0
  6
CONTINUOUS
  5
2E4
 10
384.541521
 20
209.428175
 30
0.0
 11
382.563685
 21
211.406011
 31
0.0
  0
LINE
  8
LC-002-005-----0
  6
CONTINUOUS
  5
2E5
 10
381.735258
 20
209.406011
 30
0.0
 11
379.735258
 21
211.406011
 31
0.0
  0
LINE
  8
LC-002-005-----0
  6
CONTINUOUS
  5
2E6
 10
378.906831
 20
209.406011
 30
0.0
 11
376.906831
 21
211.406011
 31
0.0
  0
LINE
  8
LC-002-005-----0
  6
CONTINUOUS
  5
2E7
 10
376.078404
 20
209.406011
 30
0.0
 11
374.078404
 21
211.406011
 31
0.0
  0
LINE
  8
LC-002-005-----0
  6
CONTINUOUS
  5
2E8
 10
373.249977
 20
209.406011
 30
0.0
 11
371.249977
 21
211.406011
 31
0.0
  0
LINE
  8
LC-002-005-----0
  6
CONTINUOUS
  5
2E9
 10
370.42155
 20
209.406011
 30
0.0
 11
368.42155
 21
211.406011
 31
0.0
  0
LINE
  8
LC-002-005-----0
  6
CONTINUOUS
  5
2EA
 10
367.593122
 20
209.406011
 30
0.0
 11
365.593122
 21
211.406011
 31
0.0
  0
LINE
  8
LC-002-005-----0
  6
CONTINUOUS
  5
2EB
 10
364.764695
 20
209.406011
 30
0.0
 11
362.764695
 21
211.406011
 31
0.0
  0
LINE
  8
LC-002-005-----0
  6
CONTINUOUS
  5
2EC
 10
361.936268
 20
209.406011
 30
0.0
 11
359.936268
 21
211.406011
 31
0.0
  0
LINE
  8
LC-002-005-----0
  6
CONTINUOUS
  5
2ED
 10
359.107841
 20
209.406011
 30
0.0
 11
357.107841
 21
211.406011
 31
0.0
  0
LINE
  8
LC-002-005-----0
  6
CONTINUOUS
  5
2EE
 10
356.279414
 20
209.406011
 30
0.0
 11
354.279414
 21
211.406011
 31
0.0
  0
LINE
  8
LC-002-005-----0
  6
CONTINUOUS
  5
2EF
 10
353.450987
 20
209.406011
 30
0.0
 11
351.450987
 21
211.406011
 31
0.0
  0
LINE
  8
LC-002-005-----0
  6
CONTINUOUS
  5
2F0
 10
350.62256
 20
209.406011
 30
0.0
 11
348.62256
 21
211.406011
 31
0.0
  0
LINE
  8
LC-002-005-----0
  6
CONTINUOUS
  5
2F1
 10
347.794133
 20
209.406011
 30
0.0
 11
345.794133
 21
211.406011
 31
0.0
  0
LINE
  8
LC-002-005-----0
  6
CONTINUOUS
  5
2F2
 10
344.965705
 20
209.406011
 30
0.0
 11
342.965705
 21
211.406011
 31
0.0
  0
LINE
  8
LC-002-005-----0
  6
CONTINUOUS
  5
2F3
 10
342.137278
 20
209.406011
 30
0.0
 11
340.137278
 21
211.406011
 31
0.0
  0
LINE
  8
LC-002-005-----0
  6
CONTINUOUS
  5
2F4
 10
339.308851
 20
209.406011
 30
0.0
 11
337.308851
 21
211.406011
 31
0.0
  0
LINE
  8
LC-002-005-----0
  6
CONTINUOUS
  5
2F5
 10
336.480424
 20
209.406011
 30
0.0
 11
334.480424
 21
211.406011
 31
0.0
  0
LINE
  8
LC-002-005-----0
  6
CONTINUOUS
  5
2F6
 10
333.651997
 20
209.406011
 30
0.0
 11
331.651997
 21
211.406011
 31
0.0
  0
LINE
  8
LC-002-005-----0
  6
CONTINUOUS
  5
2F7
 10
330.82357
 20
209.406011
 30
0.0
 11
328.82357
 21
211.406011
 31
0.0
  0
LINE
  8
LC-002-005-----0
  6
CONTINUOUS
  5
2F8
 10
327.995143
 20
209.406011
 30
0.0
 11
325.995143
 21
211.406011
 31
0.0
  0
LINE
  8
LC-002-005-----0
  6
CONTINUOUS
  5
2F9
 10
325.166716
 20
209.406011
 30
0.0
 11
323.166716
 21
211.406011
 31
0.0
  0
LINE
  8
LC-002-005-----0
  6
CONTINUOUS
  5
2FA
 10
322.338288
 20
209.406011
 30
0.0
 11
320.338288
 21
211.406011
 31
0.0
  0
LINE
  8
LC-002-005-----0
  6
CONTINUOUS
  5
2FB
 10
319.509861
 20
209.406011
 30
0.0
 11
317.509861
 21
211.406011
 31
0.0
  0
LINE
  8
LC-002-005-----0
  6
CONTINUOUS
  5
2FC
 10
316.681434
 20
209.406011
 30
0.0
 11
314.681434
 21
211.406011
 31
0.0
  0
LINE
  8
LC-002-005-----0
  6
CONTINUOUS
  5
2FD
 10
313.853007
 20
209.406011
 30
0.0
 11
311.853007
 21
211.406011
 31
0.0
  0
LINE
  8
LC-002-005-----0
  6
CONTINUOUS
  5
2FE
 10
311.02458
 20
209.406011
 30
0.0
 11
309.02458
 21
211.406011
 31
0.0
  0
LINE
  8
LC-002-005-----0
  6
CONTINUOUS
  5
2FF
 10
308.196153
 20
209.406011
 30
0.0
 11
306.196153
 21
211.406011
 31
0.0
  0
LINE
  8
LC-002-005-----0
  6
CONTINUOUS
  5
300
 10
305.367726
 20
209.406011
 30
0.0
 11
303.367726
 21
211.406011
 31
0.0
  0
LINE
  8
LC-002-005-----0
  6
CONTINUOUS
  5
301
 10
302.539299
 20
209.406011
 30
0.0
 11
300.539299
 21
211.406011
 31
0.0
  0
LINE
  8
LC-002-005-----0
  6
CONTINUOUS
  5
302
 10
299.710871
 20
209.406011
 30
0.0
 11
297.710871
 21
211.406011
 31
0.0
  0
LINE
  8
LC-002-005-----0
  6
CONTINUOUS
  5
303
 10
296.882444
 20
209.406011
 30
0.0
 11
294.882444
 21
211.406011
 31
0.0
  0
LINE
  8
LC-002-005-----0
  6
CONTINUOUS
  5
304
 10
294.054017
 20
209.406011
 30
0.0
 11
292.054017
 21
211.406011
 31
0.0
  0
LINE
  8
LC-002-005-----0
  6
CONTINUOUS
  5
305
 10
291.22559
 20
209.406011
 30
0.0
 11
289.22559
 21
211.406011
 31
0.0
  0
LINE
  8
LC-002-005-----0
  6
CONTINUOUS
  5
306
 10
288.397163
 20
209.406011
 30
0.0
 11
286.397163
 21
211.406011
 31
0.0
  0
LINE
  8
LC-002-005-----0
  6
CONTINUOUS
  5
307
 10
285.568736
 20
209.406011
 30
0.0
 11
283.568736
 21
211.406011
 31
0.0
  0
LINE
  8
LC-002-005-----0
  6
CONTINUOUS
  5
308
 10
282.740309
 20
209.406011
 30
0.0
 11
280.740309
 21
211.406011
 31
0.0
  0
LINE
  8
LC-002-005-----0
  6
CONTINUOUS
  5
309
 10
279.911882
 20
209.406011
 30
0.0
 11
277.911882
 21
211.406011
 31
0.0
  0
LINE
  8
LC-002-005-----0
  6
CONTINUOUS
  5
30A
 10
277.083454
 20
209.406011
 30
0.0
 11
275.083454
 21
211.406011
 31
0.0
  0
LINE
  8
LC-002-005-----0
  6
CONTINUOUS
  5
30B
 10
274.255027
 20
209.406011
 30
0.0
 11
272.255027
 21
211.406011
 31
0.0
  0
LINE
  8
LC-002-005-----0
  6
CONTINUOUS
  5
30C
 10
271.4266
 20
209.406011
 30
0.0
 11
269.4266
 21
211.406011
 31
0.0
  0
LINE
  8
LC-002-005-----0
  6
CONTINUOUS
  5
30D
 10
268.598173
 20
209.406011
 30
0.0
 11
266.598173
 21
211.406011
 31
0.0
  0
LINE
  8
LC-002-005-----0
  6
CONTINUOUS
  5
30E
 10
265.769746
 20
209.406011
 30
0.0
 11
263.769746
 21
211.406011
 31
0.0
  0
LINE
  8
LC-002-005-----0
  6
CONTINUOUS
  5
30F
 10
262.941319
 20
209.406011
 30
0.0
 11
261.852008
 21
210.495322
 31
0.0
  0
ENDBLK
  8
0
  5
310
  0
BLOCK
  8
0
  5
312
  2
BLK6
 70
    64
 10
0.0
 20
0.0
 30
0.0
  3
BLK6
  0
ENDBLK
  8
0
  5
313
  0
BLOCK
  8
0
  5
315
  2
BLK7
 70
    64
 10
0.0
 20
0.0
 30
0.0
  3
BLK7
  0
ENDBLK
  8
0
  5
316
  0
BLOCK
  8
0
  5
318
  2
*D40
 70
    65
 10
0.0
 20
0.0
 30
0.0
  3
*D40
  0
LINE
  8
LC-004-003-MTH-0
  6
CONTINUOUS
  5
319
 10
172.104051
 20
389.844
 30
0.0
 11
149.2
 21
389.844
 31
0.0
  0
LINE
  8
LC-004-003-MTH-0
  6
CONTINUOUS
  5
31A
 10
177.604051
 20
489.844
 30
0.0
 11
149.2
 21
489.844
 31
0.0
  0
LINE
  8
LC-005-003-MTG-0
  6
CONTINUOUS
  5
31B
 10
160.0
 20
389.844
 30
0.0
 11
160.0
 21
489.844
 31
0.0
  0
LINE
  8
LC-003-003-----0
  6
CONTINUOUS
  5
31C
 10
157.650529
 20
407.690008
 30
0.0
 11
160.0
 21
389.844
 31
0.0
  0
LINE
  8
LC-003-003-----0
  6
CONTINUOUS
  5
31D
 10
160.0
 20
389.844
 30
0.0
 11
162.349471
 21
407.690008
 31
0.0
  0
LINE
  8
LC-003-003-----0
  6
CONTINUOUS
  5
31E
 10
162.349471
 20
407.690008
 30
0.0
 11
157.650529
 21
407.690008
 31
0.0
  0
LINE
  8
LC-003-003-----0
  6
CONTINUOUS
  5
31F
 10
158.261391
 20
407.730046
 30
0.0
 11
160.0
 21
394.524
 31
0.0
  0
LINE
  8
LC-003-003-----0
  6
CONTINUOUS
  5
320
 10
160.0
 20
394.524
 30
0.0
 11
161.738609
 21
407.730046
 31
0.0
  0
LINE
  8
LC-003-003-----0
  6
CONTINUOUS
  5
321
 10
158.872254
 20
407.770084
 30
0.0
 11
160.0
 21
399.204
 31
0.0
  0
LINE
  8
LC-003-003-----0
  6
CONTINUOUS
  5
322
 10
160.0
 20
399.204
 30
0.0
 11
161.127746
 21
407.770084
 31
0.0
  0
LINE
  8
LC-003-003-----0
  6
CONTINUOUS
  5
323
 10
159.483116
 20
407.810122
 30
0.0
 11
160.0
 21
403.884
 31
0.0
  0
LINE
  8
LC-003-003-----0
  6
CONTINUOUS
  5
324
 10
160.0
 20
403.884
 30
0.0
 11
160.516884
 21
407.810122
 31
0.0
  0
LINE
  8
LC-003-003-----0
  6
CONTINUOUS
  5
325
 10
162.349471
 20
471.997992
 30
0.0
 11
160.0
 21
489.844
 31
0.0
  0
LINE
  8
LC-003-003-----0
  6
CONTINUOUS
  5
326
 10
160.0
 20
489.844
 30
0.0
 11
157.650529
 21
471.997992
 31
0.0
  0
LINE
  8
LC-003-003-----0
  6
CONTINUOUS
  5
327
 10
157.650529
 20
471.997992
 30
0.0
 11
162.349471
 21
471.997992
 31
0.0
  0
LINE
  8
LC-003-003-----0
  6
CONTINUOUS
  5
328
 10
161.738609
 20
471.957954
 30
0.0
 11
160.0
 21
485.164
 31
0.0
  0
LINE
  8
LC-003-003-----0
  6
CONTINUOUS
  5
329
 10
160.0
 20
485.164
 30
0.0
 11
158.261391
 21
471.957954
 31
0.0
  0
LINE
  8
LC-003-003-----0
  6
CONTINUOUS
  5
32A
 10
161.127746
 20
471.917916
 30
0.0
 11
160.0
 21
480.484
 31
0.0
  0
LINE
  8
LC-003-003-----0
  6
CONTINUOUS
  5
32B
 10
160.0
 20
480.484
 30
0.0
 11
158.872254
 21
471.917916
 31
0.0
  0
LINE
  8
LC-003-003-----0
  6
CONTINUOUS
  5
32C
 10
160.516884
 20
471.877878
 30
0.0
 11
160.0
 21
475.804
 31
0.0
  0
LINE
  8
LC-003-003-----0
  6
CONTINUOUS
  5
32D
 10
160.0
 20
475.804
 30
0.0
 11
159.483116
 21
471.877878
 31
0.0
  0
TEXT
  8
LC-003-003-----0
  6
CONTINUOUS
 62
     6
  5
32E
 10
149.568001
 20
423.505387
 30
0.0
 40
18.0
  1
100
 50
90.0
 51
15.0
  7
LC-TXTSTYLE-150-400-0-0-D0
 72
     1
 11
149.568001
 21
442.639246
 31
0.0
  0
ENDBLK
  8
0
  5
32F
  0
BLOCK
  8
0
  5
331
  2
*X41
 70
    65
 10
169.104051
 20
371.844
 30
0.0
  3
*X41
  0
LINE
  8
LC-002-005-----0
  6
CONTINUOUS
  5
332
 10
176.682528
 20
371.844
 30
0.0
 11
179.114355
 21
374.275827
 31
0.0
  0
LINE
  8
LC-002-005-----0
  6
CONTINUOUS
  5
333
 10
175.604062
 20
373.593961
 30
0.0
 11
179.126391
 21
377.11629
 31
0.0
  0
LINE
  8
LC-002-005-----0
  6
CONTINUOUS
  5
334
 10
176.604051
 20
377.422377
 30
0.0
 11
179.138427
 21
379.956753
 31
0.0
  0
LINE
  8
LC-002-005-----0
  6
CONTINUOUS
  5
335
 10
175.197247
 20
378.844
 30
0.0
 11
179.150463
 21
382.797216
 31
0.0
  0
LINE
  8
LC-002-005-----0
  6
CONTINUOUS
  5
336
 10
175.104051
 20
381.579231
 30
0.0
 11
179.162499
 21
385.637679
 31
0.0
  0
LINE
  8
LC-002-005-----0
  6
CONTINUOUS
  5
337
 10
175.104051
 20
384.407658
 30
0.0
 11
179.174535
 21
388.478142
 31
0.0
  0
LINE
  8
LC-002-005-----0
  6
CONTINUOUS
  5
338
 10
174.711966
 20
386.844
 30
0.0
 11
179.186571
 21
391.318605
 31
0.0
  0
LINE
  8
LC-002-005-----0
  6
CONTINUOUS
  5
339
 10
171.883539
 20
386.844
 30
0.0
 11
174.883539
 21
389.844
 31
0.0
  0
LINE
  8
LC-002-005-----0
  6
CONTINUOUS
  5
33A
 10
177.604051
 20
392.564513
 30
0.0
 11
179.198606
 21
394.159068
 31
0.0
  0
LINE
  8
LC-002-005-----0
  6
CONTINUOUS
  5
33B
 10
169.104457
 20
386.893346
 30
0.0
 11
172.054706
 21
389.843594
 31
0.0
  0
LINE
  8
LC-002-005-----0
  6
CONTINUOUS
  5
33C
 10
177.604051
 20
395.39294
 30
0.0
 11
179.210642
 21
396.999531
 31
0.0
  0
LINE
  8
LC-002-005-----0
  6
CONTINUOUS
  5
33D
 10
177.604051
 20
398.221367
 30
0.0
 11
179.222678
 21
399.839994
 31
0.0
  0
LINE
  8
LC-002-005-----0
  6
CONTINUOUS
  5
33E
 10
177.604051
 20
401.049794
 30
0.0
 11
179.234714
 21
402.680457
 31
0.0
  0
LINE
  8
LC-002-005-----0
  6
CONTINUOUS
  5
33F
 10
177.604051
 20
403.878221
 30
0.0
 11
179.24675
 21
405.52092
 31
0.0
  0
LINE
  8
LC-002-005-----0
  6
CONTINUOUS
  5
340
 10
177.604051
 20
406.706648
 30
0.0
 11
179.258786
 21
408.361383
 31
0.0
  0
LINE
  8
LC-002-005-----0
  6
CONTINUOUS
  5
341
 10
177.604051
 20
409.535075
 30
0.0
 11
179.270822
 21
411.201846
 31
0.0
  0
LINE
  8
LC-002-005-----0
  6
CONTINUOUS
  5
342
 10
177.604051
 20
412.363502
 30
0.0
 11
179.282857
 21
414.042309
 31
0.0
  0
LINE
  8
LC-002-005-----0
  6
CONTINUOUS
  5
343
 10
177.604051
 20
415.19193
 30
0.0
 11
179.294893
 21
416.882772
 31
0.0
  0
LINE
  8
LC-002-005-----0
  6
CONTINUOUS
  5
344
 10
177.604051
 20
418.020357
 30
0.0
 11
179.306929
 21
419.723235
 31
0.0
  0
LINE
  8
LC-002-005-----0
  6
CONTINUOUS
  5
345
 10
177.604051
 20
420.848784
 30
0.0
 11
179.318965
 21
422.563698
 31
0.0
  0
LINE
  8
LC-002-005-----0
  6
CONTINUOUS
  5
346
 10
177.604051
 20
423.677211
 30
0.0
 11
179.331001
 21
425.404161
 31
0.0
  0
LINE
  8
LC-002-005-----0
  6
CONTINUOUS
  5
347
 10
177.604051
 20
426.505638
 30
0.0
 11
179.343037
 21
428.244624
 31
0.0
  0
LINE
  8
LC-002-005-----0
  6
CONTINUOUS
  5
348
 10
177.604051
 20
429.334065
 30
0.0
 11
179.355073
 21
431.085087
 31
0.0
  0
LINE
  8
LC-002-005-----0
  6
CONTINUOUS
  5
349
 10
177.604051
 20
432.162492
 30
0.0
 11
179.367108
 21
433.92555
 31
0.0
  0
LINE
  8
LC-002-005-----0
  6
CONTINUOUS
  5
34A
 10
177.604051
 20
434.990919
 30
0.0
 11
179.379144
 21
436.766013
 31
0.0
  0
LINE
  8
LC-002-005-----0
  6
CONTINUOUS
  5
34B
 10
177.604051
 20
437.819347
 30
0.0
 11
179.39118
 21
439.606476
 31
0.0
  0
LINE
  8
LC-002-005-----0
  6
CONTINUOUS
  5
34C
 10
177.604051
 20
440.647774
 30
0.0
 11
179.403216
 21
442.446939
 31
0.0
  0
LINE
  8
LC-002-005-----0
  6
CONTINUOUS
  5
34D
 10
177.604051
 20
443.476201
 30
0.0
 11
179.415252
 21
445.287402
 31
0.0
  0
LINE
  8
LC-002-005-----0
  6
CONTINUOUS
  5
34E
 10
177.604051
 20
446.304628
 30
0.0
 11
179.427288
 21
448.127865
 31
0.0
  0
LINE
  8
LC-002-005-----0
  6
CONTINUOUS
  5
34F
 10
177.604051
 20
449.133055
 30
0.0
 11
179.439324
 21
450.968328
 31
0.0
  0
LINE
  8
LC-002-005-----0
  6
CONTINUOUS
  5
350
 10
177.604051
 20
451.961482
 30
0.0
 11
179.451359
 21
453.808791
 31
0.0
  0
LINE
  8
LC-002-005-----0
  6
CONTINUOUS
  5
351
 10
177.604051
 20
454.789909
 30
0.0
 11
179.463395
 21
456.649254
 31
0.0
  0
LINE
  8
LC-002-005-----0
  6
CONTINUOUS
  5
352
 10
177.604051
 20
457.618336
 30
0.0
 11
179.475431
 21
459.489717
 31
0.0
  0
LINE
  8
LC-002-005-----0
  6
CONTINUOUS
  5
353
 10
177.604051
 20
460.446764
 30
0.0
 11
179.487467
 21
462.33018
 31
0.0
  0
LINE
  8
LC-002-005-----0
  6
CONTINUOUS
  5
354
 10
177.604051
 20
463.275191
 30
0.0
 11
179.499503
 21
465.170643
 31
0.0
  0
LINE
  8
LC-002-005-----0
  6
CONTINUOUS
  5
355
 10
177.604051
 20
466.103618
 30
0.0
 11
179.511539
 21
468.011106
 31
0.0
  0
LINE
  8
LC-002-005-----0
  6
CONTINUOUS
  5
356
 10
177.604051
 20
468.932045
 30
0.0
 11
179.523575
 21
470.851568
 31
0.0
  0
LINE
  8
LC-002-005-----0
  6
CONTINUOUS
  5
357
 10
177.604051
 20
471.760472
 30
0.0
 11
179.53561
 21
473.692031
 31
0.0
  0
LINE
  8
LC-002-005-----0
  6
CONTINUOUS
  5
358
 10
177.604051
 20
474.588899
 30
0.0
 11
179.547646
 21
476.532494
 31
0.0
  0
LINE
  8
LC-002-005-----0
  6
CONTINUOUS
  5
359
 10
177.604051
 20
477.417326
 30
0.0
 11
179.559682
 21
479.372957
 31
0.0
  0
LINE
  8
LC-002-005-----0
  6
CONTINUOUS
  5
35A
 10
177.604051
 20
480.245753
 30
0.0
 11
179.571718
 21
482.21342
 31
0.0
  0
LINE
  8
LC-002-005-----0
  6
CONTINUOUS
  5
35B
 10
177.604051
 20
483.074181
 30
0.0
 11
179.583754
 21
485.053883
 31
0.0
  0
LINE
  8
LC-002-005-----0
  6
CONTINUOUS
  5
35C
 10
177.604051
 20
485.902608
 30
0.0
 11
179.59579
 21
487.894346
 31
0.0
  0
LINE
  8
LC-002-005-----0
  6
CONTINUOUS
  5
35D
 10
177.604051
 20
488.731035
 30
0.0
 11
178.717016
 21
489.844
 31
0.0
  0
ENDBLK
  8
0
  5
35E
  0
BLOCK
  8
0
  5
360
  2
*X42
 70
    65
 10
213.604051
 20
371.844
 30
0.0
  3
*X42
  0
LINE
  8
LC-002-005-----0
  6
CONTINUOUS
  5
361
 10
216.280508
 20
371.844
 30
0.0
 11
217.433468
 21
372.99696
 31
0.0
  0
LINE
  8
LC-002-005-----0
  6
CONTINUOUS
  5
362
 10
214.1013
 20
372.493219
 30
0.0
 11
216.952081
 21
375.344
 31
0.0
  0
LINE
  8
LC-002-005-----0
  6
CONTINUOUS
  5
363
 10
214.089366
 20
375.309712
 30
0.0
 11
216.604051
 21
377.824397
 31
0.0
  0
LINE
  8
LC-002-005-----0
  6
CONTINUOUS
  5
364
 10
217.623654
 20
378.844
 30
0.0
 11
218.104051
 21
379.324397
 31
0.0
  0
LINE
  8
LC-002-005-----0
  6
CONTINUOUS
  5
365
 10
214.077432
 20
378.126205
 30
0.0
 11
218.104051
 21
382.152824
 31
0.0
  0
LINE
  8
LC-002-005-----0
  6
CONTINUOUS
  5
366
 10
222.795227
 20
386.844
 30
0.0
 11
223.895142
 21
387.943915
 31
0.0
  0
LINE
  8
LC-002-005-----0
  6
CONTINUOUS
  5
367
 10
214.065497
 20
380.942698
 30
0.0
 11
218.104051
 21
384.981251
 31
0.0
  0
LINE
  8
LC-002-005-----0
  6
CONTINUOUS
  5
368
 10
219.9668
 20
386.844
 30
0.0
 11
222.579114
 21
389.456315
 31
0.0
  0
LINE
  8
LC-002-005-----0
  6
CONTINUOUS
  5
369
 10
214.053563
 20
383.75919
 30
0.0
 11
220.138373
 21
389.844
 31
0.0
  0
LINE
  8
LC-002-005-----0
  6
CONTINUOUS
  5
36A
 10
214.041629
 20
386.575683
 30
0.0
 11
217.309945
 21
389.844
 31
0.0
  0
LINE
  8
LC-002-005-----0
  6
CONTINUOUS
  5
36B
 10
214.029694
 20
389.392176
 30
0.0
 11
215.604051
 21
390.966533
 31
0.0
  0
LINE
  8
LC-002-005-----0
  6
CONTINUOUS
  5
36C
 10
214.01776
 20
392.208669
 30
0.0
 11
215.604051
 21
393.79496
 31
0.0
  0
LINE
  8
LC-002-005-----0
  6
CONTINUOUS
  5
36D
 10
214.005826
 20
395.025162
 30
0.0
 11
215.604051
 21
396.623387
 31
0.0
  0
LINE
  8
LC-002-005-----0
  6
CONTINUOUS
  5
36E
 10
213.993891
 20
397.841655
 30
0.0
 11
215.604051
 21
399.451814
 31
0.0
  0
LINE
  8
LC-002-005-----0
  6
CONTINUOUS
  5
36F
 10
213.981957
 20
400.658147
 30
0.0
 11
215.604051
 21
402.280241
 31
0.0
  0
LINE
  8
LC-002-005-----0
  6
CONTINUOUS
  5
370
 10
213.970023
 20
403.47464
 30
0.0
 11
215.604051
 21
405.108668
 31
0.0
  0
LINE
  8
LC-002-005-----0
  6
CONTINUOUS
  5
371
 10
213.958089
 20
406.291133
 30
0.0
 11
215.604051
 21
407.937096
 31
0.0
  0
LINE
  8
LC-002-005-----0
  6
CONTINUOUS
  5
372
 10
213.946154
 20
409.107626
 30
0.0
 11
215.604051
 21
410.765523
 31
0.0
  0
LINE
  8
LC-002-005-----0
  6
CONTINUOUS
  5
373
 10
213.93422
 20
411.924119
 30
0.0
 11
215.604051
 21
413.59395
 31
0.0
  0
LINE
  8
LC-002-005-----0
  6
CONTINUOUS
  5
374
 10
213.922286
 20
414.740612
 30
0.0
 11
215.604051
 21
416.422377
 31
0.0
  0
LINE
  8
LC-002-005-----0
  6
CONTINUOUS
  5
375
 10
213.910351
 20
417.557104
 30
0.0
 11
215.604051
 21
419.250804
 31
0.0
  0
LINE
  8
LC-002-005-----0
  6
CONTINUOUS
  5
376
 10
213.898417
 20
420.373597
 30
0.0
 11
215.604051
 21
422.079231
 31
0.0
  0
LINE
  8
LC-002-005-----0
  6
CONTINUOUS
  5
377
 10
213.886483
 20
423.19009
 30
0.0
 11
215.604051
 21
424.907658
 31
0.0
  0
LINE
  8
LC-002-005-----0
  6
CONTINUOUS
  5
378
 10
213.874549
 20
426.006583
 30
0.0
 11
215.604051
 21
427.736085
 31
0.0
  0
LINE
  8
LC-002-005-----0
  6
CONTINUOUS
  5
379
 10
213.862614
 20
428.823076
 30
0.0
 11
215.604051
 21
430.564513
 31
0.0
  0
LINE
  8
LC-002-005-----0
  6
CONTINUOUS
  5
37A
 10
213.85068
 20
431.639569
 30
0.0
 11
215.604051
 21
433.39294
 31
0.0
  0
LINE
  8
LC-002-005-----0
  6
CONTINUOUS
  5
37B
 10
213.838746
 20
434.456061
 30
0.0
 11
215.604051
 21
436.221367
 31
0.0
  0
LINE
  8
LC-002-005-----0
  6
CONTINUOUS
  5
37C
 10
213.826811
 20
437.272554
 30
0.0
 11
215.604051
 21
439.049794
 31
0.0
  0
LINE
  8
LC-002-005-----0
  6
CONTINUOUS
  5
37D
 10
213.814877
 20
440.089047
 30
0.0
 11
215.604051
 21
441.878221
 31
0.0
  0
LINE
  8
LC-002-005-----0
  6
CONTINUOUS
  5
37E
 10
213.802943
 20
442.90554
 30
0.0
 11
215.604051
 21
444.706648
 31
0.0
  0
LINE
  8
LC-002-005-----0
  6
CONTINUOUS
  5
37F
 10
213.791009
 20
445.722033
 30
0.0
 11
215.604051
 21
447.535075
 31
0.0
  0
LINE
  8
LC-002-005-----0
  6
CONTINUOUS
  5
380
 10
213.779074
 20
448.538526
 30
0.0
 11
215.604051
 21
450.363502
 31
0.0
  0
LINE
  8
LC-002-005-----0
  6
CONTINUOUS
  5
381
 10
213.76714
 20
451.355018
 30
0.0
 11
215.604051
 21
453.19193
 31
0.0
  0
LINE
  8
LC-002-005-----0
  6
CONTINUOUS
  5
382
 10
213.755206
 20
454.171511
 30
0.0
 11
215.604051
 21
456.020357
 31
0.0
  0
LINE
  8
LC-002-005-----0
  6
CONTINUOUS
  5
383
 10
213.743271
 20
456.988004
 30
0.0
 11
215.604051
 21
458.848784
 31
0.0
  0
LINE
  8
LC-002-005-----0
  6
CONTINUOUS
  5
384
 10
213.731337
 20
459.804497
 30
0.0
 11
215.604051
 21
461.677211
 31
0.0
  0
LINE
  8
LC-002-005-----0
  6
CONTINUOUS
  5
385
 10
213.719403
 20
462.62099
 30
0.0
 11
215.604051
 21
464.505638
 31
0.0
  0
LINE
  8
LC-002-005-----0
  6
CONTINUOUS
  5
386
 10
213.707468
 20
465.437483
 30
0.0
 11
215.604051
 21
467.334065
 31
0.0
  0
LINE
  8
LC-002-005-----0
  6
CONTINUOUS
  5
387
 10
213.695534
 20
468.253975
 30
0.0
 11
215.604051
 21
470.162492
 31
0.0
  0
LINE
  8
LC-002-005-----0
  6
CONTINUOUS
  5
388
 10
213.6836
 20
471.070468
 30
0.0
 11
215.604051
 21
472.990919
 31
0.0
  0
LINE
  8
LC-002-005-----0
  6
CONTINUOUS
  5
389
 10
213.671666
 20
473.886961
 30
0.0
 11
215.604051
 21
475.819347
 31
0.0
  0
LINE
  8
LC-002-005-----0
  6
CONTINUOUS
  5
38A
 10
213.659731
 20
476.703454
 30
0.0
 11
215.604051
 21
478.647774
 31
0.0
  0
LINE
  8
LC-002-005-----0
  6
CONTINUOUS
  5
38B
 10
213.647797
 20
479.519947
 30
0.0
 11
215.604051
 21
481.476201
 31
0.0
  0
LINE
  8
LC-002-005-----0
  6
CONTINUOUS
  5
38C
 10
213.635863
 20
482.33644
 30
0.0
 11
215.604051
 21
484.304628
 31
0.0
  0
LINE
  8
LC-002-005-----0
  6
CONTINUOUS
  5
38D
 10
213.623928
 20
485.152932
 30
0.0
 11
215.604051
 21
487.133055
 31
0.0
  0
LINE
  8
LC-002-005-----0
  6
CONTINUOUS
  5
38E
 10
213.611994
 20
487.969425
 30
0.0
 11
215.486569
 21
489.844
 31
0.0
  0
ENDBLK
  8
0
  5
38F
  0
BLOCK
  8
0
  5
391
  2
*X43
 70
    65
 10
174.604051
 20
375.644
 30
0.0
  3
*X43
  0
LINE
  8
LC-002-005-----0
  6
CONTINUOUS
  5
392
 10
176.52273
 20
375.644
 30
0.0
 11
176.604051
 21
375.725321
 31
0.0
  0
LINE
  8
LC-002-005-----0
  6
CONTINUOUS
  5
393
 10
176.239888
 20
375.644
 30
0.0
 11
176.604051
 21
376.008163
 31
0.0
  0
LINE
  8
LC-002-005-----0
  6
CONTINUOUS
  5
394
 10
175.957045
 20
375.644
 30
0.0
 11
176.604051
 21
376.291006
 31
0.0
  0
LINE
  8
LC-002-005-----0
  6
CONTINUOUS
  5
395
 10
175.674202
 20
375.644
 30
0.0
 11
176.604051
 21
376.573849
 31
0.0
  0
LINE
  8
LC-002-005-----0
  6
CONTINUOUS
  5
396
 10
175.39136
 20
375.644
 30
0.0
 11
176.604051
 21
376.856691
 31
0.0
  0
LINE
  8
LC-002-005-----0
  6
CONTINUOUS
  5
397
 10
175.108517
 20
375.644
 30
0.0
 11
176.604051
 21
377.139534
 31
0.0
  0
LINE
  8
LC-002-005-----0
  6
CONTINUOUS
  5
398
 10
174.854051
 20
375.672377
 30
0.0
 11
176.604051
 21
377.422377
 31
0.0
  0
LINE
  8
LC-002-005-----0
  6
CONTINUOUS
  5
399
 10
174.854051
 20
375.95522
 30
0.0
 11
176.604051
 21
377.70522
 31
0.0
  0
LINE
  8
LC-002-005-----0
  6
CONTINUOUS
  5
39A
 10
174.854051
 20
376.238062
 30
0.0
 11
176.604051
 21
377.988062
 31
0.0
  0
LINE
  8
LC-002-005-----0
  6
CONTINUOUS
  5
39B
 10
174.854051
 20
376.520905
 30
0.0
 11
176.604051
 21
378.270905
 31
0.0
  0
LINE
  8
LC-002-005-----0
  6
CONTINUOUS
  5
39C
 10
174.854051
 20
376.803748
 30
0.0
 11
176.604051
 21
378.553748
 31
0.0
  0
LINE
  8
LC-002-005-----0
  6
CONTINUOUS
  5
39D
 10
174.854051
 20
377.08659
 30
0.0
 11
176.604051
 21
378.83659
 31
0.0
  0
LINE
  8
LC-002-005-----0
  6
CONTINUOUS
  5
39E
 10
174.854051
 20
377.369433
 30
0.0
 11
176.328618
 21
378.844
 31
0.0
  0
LINE
  8
LC-002-005-----0
  6
CONTINUOUS
  5
39F
 10
174.854051
 20
377.652276
 30
0.0
 11
176.045775
 21
378.844
 31
0.0
  0
LINE
  8
LC-002-005-----0
  6
CONTINUOUS
  5
3A0
 10
174.854051
 20
377.935119
 30
0.0
 11
175.762932
 21
378.844
 31
0.0
  0
LINE
  8
LC-002-005-----0
  6
CONTINUOUS
  5
3A1
 10
174.854051
 20
378.217961
 30
0.0
 11
175.48009
 21
378.844
 31
0.0
  0
LINE
  8
LC-002-005-----0
  6
CONTINUOUS
  5
3A2
 10
174.697247
 20
378.344
 30
0.0
 11
175.197247
 21
378.844
 31
0.0
  0
LINE
  8
LC-002-005-----0
  6
CONTINUOUS
  5
3A3
 10
174.604051
 20
378.533647
 30
0.0
 11
174.914404
 21
378.844
 31
0.0
  0
LINE
  8
LC-002-005-----0
  6
CONTINUOUS
  5
3A4
 10
174.604051
 20
378.816489
 30
0.0
 11
174.631562
 21
378.844
 31
0.0
  0
ENDBLK
  8
0
  5
3A5
  0
BLOCK
  8
0
  5
3A7
  2
*X44
 70
    65
 10
216.604051
 20
375.644
 30
0.0
  3
*X44
  0
LINE
  8
LC-002-005-----0
  6
CONTINUOUS
  5
3A8
 10
218.100609
 20
375.644
 30
0.0
 11
218.354051
 21
375.897442
 31
0.0
  0
LINE
  8
LC-002-005-----0
  6
CONTINUOUS
  5
3A9
 10
217.817766
 20
375.644
 30
0.0
 11
218.354051
 21
376.180285
 31
0.0
  0
LINE
  8
LC-002-005-----0
  6
CONTINUOUS
  5
3AA
 10
217.534924
 20
375.644
 30
0.0
 11
218.354051
 21
376.463127
 31
0.0
  0
LINE
  8
LC-002-005-----0
  6
CONTINUOUS
  5
3AB
 10
217.252081
 20
375.644
 30
0.0
 11
218.354051
 21
376.74597
 31
0.0
  0
LINE
  8
LC-002-005-----0
  6
CONTINUOUS
  5
3AC
 10
216.969238
 20
375.644
 30
0.0
 11
218.354051
 21
377.028813
 31
0.0
  0
LINE
  8
LC-002-005-----0
  6
CONTINUOUS
  5
3AD
 10
216.686396
 20
375.644
 30
0.0
 11
218.354051
 21
377.311655
 31
0.0
  0
LINE
  8
LC-002-005-----0
  6
CONTINUOUS
  5
3AE
 10
216.604051
 20
375.844498
 30
0.0
 11
218.354051
 21
377.594498
 31
0.0
  0
LINE
  8
LC-002-005-----0
  6
CONTINUOUS
  5
3AF
 10
216.604051
 20
376.127341
 30
0.0
 11
218.354051
 21
377.877341
 31
0.0
  0
LINE
  8
LC-002-005-----0
  6
CONTINUOUS
  5
3B0
 10
216.604051
 20
376.410184
 30
0.0
 11
218.354051
 21
378.160184
 31
0.0
  0
LINE
  8
LC-002-005-----0
  6
CONTINUOUS
  5
3B1
 10
218.537867
 20
378.344
 30
0.0
 11
218.604051
 21
378.410184
 31
0.0
  0
LINE
  8
LC-002-005-----0
  6
CONTINUOUS
  5
3B2
 10
216.604051
 20
376.693026
 30
0.0
 11
218.604051
 21
378.693026
 31
0.0
  0
LINE
  8
LC-002-005-----0
  6
CONTINUOUS
  5
3B3
 10
216.604051
 20
376.975869
 30
0.0
 11
218.472182
 21
378.844
 31
0.0
  0
LINE
  8
LC-002-005-----0
  6
CONTINUOUS
  5
3B4
 10
216.604051
 20
377.258712
 30
0.0
 11
218.189339
 21
378.844
 31
0.0
  0
LINE
  8
LC-002-005-----0
  6
CONTINUOUS
  5
3B5
 10
216.604051
 20
377.541554
 30
0.0
 11
217.906497
 21
378.844
 31
0.0
  0
LINE
  8
LC-002-005-----0
  6
CONTINUOUS
  5
3B6
 10
216.604051
 20
377.824397
 30
0.0
 11
217.623654
 21
378.844
 31
0.0
  0
LINE
  8
LC-002-005-----0
  6
CONTINUOUS
  5
3B7
 10
216.604051
 20
378.10724
 30
0.0
 11
217.340811
 21
378.844
 31
0.0
  0
LINE
  8
LC-002-005-----0
  6
CONTINUOUS
  5
3B8
 10
216.604051
 20
378.390083
 30
0.0
 11
217.057968
 21
378.844
 31
0.0
  0
LINE
  8
LC-002-005-----0
  6
CONTINUOUS
  5
3B9
 10
216.604051
 20
378.672925
 30
0.0
 11
216.775126
 21
378.844
 31
0.0
  0
ENDBLK
  8
0
  5
3BA
  0
BLOCK
  8
0
  5
3BC
  2
*X45
 70
    65
 10
164.300466
 20
376.058213
 30
0.0
  3
*X45
  0
LINE
  8
LC-002-005-----0
  6
CONTINUOUS
  5
3BD
 10
169.953833
 20
380.458085
 30
0.0
 11
168.700339
 21
381.711579
 31
0.0
  0
LINE
  8
LC-002-005-----0
  6
DASHED
  5
3BF
 10
170.299474
 20
378.981073
 30
0.0
 11
167.223327
 21
382.057221
 31
0.0
  0
LINE
  8
LC-002-005-----0
  6
DASHED
  5
3C0
 10
170.242672
 20
378.47219
 30
0.0
 11
166.714443
 21
382.000419
 31
0.0
  0
LINE
  8
LC-002-005-----0
  6
CONTINUOUS
  5
3C1
 10
169.943872
 20
377.639619
 30
0.0
 11
165.881873
 21
381.701618
 31
0.0
  0
LINE
  8
LC-002-005-----0
  6
CONTINUOUS
  5
3C2
 10
169.725594
 20
377.292212
 30
0.0
 11
165.534466
 21
381.48334
 31
0.0
  0
LINE
  8
LC-002-005-----0
  6
DASHED
  5
3C3
 10
169.172483
 20
376.713953
 30
0.0
 11
164.956206
 21
380.930229
 31
0.0
  0
LINE
  8
LC-002-005-----0
  6
DASHED
  5
3C4
 10
168.838362
 20
376.482387
 30
0.0
 11
164.724641
 21
380.596109
 31
0.0
  0
LINE
  8
LC-002-005-----0
  6
CONTINUOUS
  5
3C5
 10
168.038873
 20
376.150506
 30
0.0
 11
164.39276
 21
379.796619
 31
0.0
  0
LINE
  8
LC-002-005-----0
  6
CONTINUOUS
  5
3C6
 10
167.55469
 20
376.069004
 30
0.0
 11
164.311257
 21
379.312436
 31
0.0
  0
LINE
  8
LC-002-005-----0
  6
DASHED
  5
3C7
 10
166.240685
 20
376.251637
 30
0.0
 11
164.493891
 21
377.998432
 31
0.0
  0
ENDBLK
  8
0
  5
3C8
  0
BLOCK
  8
0
  5
3CA
  2
*X46
 70
    65
 10
222.907636
 20
376.058213
 30
0.0
  3
*X46
  0
LINE
  8
LC-002-005-----0
  6
DASHED
  5
3CB
 10
228.903897
 20
379.207934
 30
0.0
 11
226.057358
 21
382.054474
 31
0.0
  0
LINE
  8
LC-002-005-----0
  6
DASHED
  5
3CC
 10
228.881684
 20
378.664463
 30
0.0
 11
225.513886
 21
382.03226
 31
0.0
  0
LINE
  8
LC-002-005-----0
  6
CONTINUOUS
  5
3CD
 10
228.625878
 20
377.788898
 30
0.0
 11
224.638321
 21
381.776455
 31
0.0
  0
LINE
  8
LC-002-005-----0
  6
CONTINUOUS
  5
3CE
 10
228.424099
 20
377.424991
 30
0.0
 11
224.274414
 21
381.574676
 31
0.0
  0
LINE
  8
LC-002-005-----0
  6
DASHED
  5
3CF
 10
227.901261
 20
376.816459
 30
0.0
 11
223.665882
 21
381.051837
 31
0.0
  0
LINE
  8
LC-002-005-----0
  6
DASHED
  5
3D0
 10
227.582657
 20
376.569377
 30
0.0
 11
223.4188
 21
380.733234
 31
0.0
  0
LINE
  8
LC-002-005-----0
  6
CONTINUOUS
  5
3D1
 10
226.820266
 20
376.200397
 30
0.0
 11
223.049821
 21
379.970842
 31
0.0
  0
LINE
  8
LC-002-005-----0
  6
CONTINUOUS
  5
3D2
 10
226.362137
 20
376.092841
 30
0.0
 11
222.942264
 21
379.512713
 31
0.0
  0
LINE
  8
LC-002-005-----0
  6
DASHED
  5
3D3
 10
225.174412
 20
376.149195
 30
0.0
 11
222.998619
 21
378.324988
 31
0.0
  0
LINE
  8
LC-002-005-----0
  6
DASHED
  5
3D4
 10
224.074481
 20
376.68344
 30
0.0
 11
223.532864
 21
377.225057
 31
0.0
  0
ENDBLK
  8
0
  5
3D5
  0
BLOCK
  8
0
  5
3D7
  2
BLK8
 70
    64
 10
0.0
 20
0.0
 30
0.0
  3
BLK8
  0
ENDBLK
  8
0
  5
3D8
  0
BLOCK
  8
0
  5
3DA
  2
*X48
 70
    65
 10
161.604051
 20
365.881169
 30
0.0
  3
*X48
  0
LINE
  8
LC-002-005-----0
  6
CONTINUOUS
  5
3DB
 10
176.631166
 20
366.135784
 30
0.0
 11
177.174987
 21
366.679604
 31
0.0
  0
LINE
  8
LC-002-005-----0
  6
CONTINUOUS
  5
3DC
 10
175.173908
 20
367.506953
 30
0.0
 11
175.701961
 21
368.035005
 31
0.0
  0
LINE
  8
LC-002-005-----0
  6
CONTINUOUS
  5
3DD
 10
174.734583
 20
369.896055
 30
0.0
 11
175.378303
 21
370.539774
 31
0.0
  0
LINE
  8
LC-002-005-----0
  6
CONTINUOUS
  5
3DE
 10
174.496232
 20
372.486131
 30
0.0
 11
175.139952
 21
373.129851
 31
0.0
  0
LINE
  8
LC-002-005-----0
  6
CONTINUOUS
  5
3DF
 10
174.257882
 20
375.076208
 30
0.0
 11
174.901602
 21
375.719927
 31
0.0
  0
LINE
  8
LC-002-005-----0
  6
CONTINUOUS
  5
3E0
 10
174.019531
 20
377.666284
 30
0.0
 11
174.663251
 21
378.310004
 31
0.0
  0
LINE
  8
LC-002-005-----0
  6
CONTINUOUS
  5
3E1
 10
173.650233
 20
380.125414
 30
0.0
 11
174.179251
 21
380.654431
 31
0.0
  0
LINE
  8
LC-002-005-----0
  6
CONTINUOUS
  5
3E2
 10
172.363134
 20
381.666742
 30
0.0
 11
172.868088
 21
382.171695
 31
0.0
  0
LINE
  8
LC-002-005-----0
  6
CONTINUOUS
  5
3E3
 10
170.049135
 20
382.181169
 30
0.0
 11
170.746229
 21
382.878263
 31
0.0
  0
LINE
  8
LC-002-005-----0
  6
CONTINUOUS
  5
3E4
 10
167.220708
 20
382.181169
 30
0.0
 11
167.920708
 21
382.881169
 31
0.0
  0
LINE
  8
LC-002-005-----0
  6
CONTINUOUS
  5
3E5
 10
164.392281
 20
382.181169
 30
0.0
 11
165.092281
 21
382.881169
 31
0.0
  0
LINE
  8
LC-002-005-----0
  6
CONTINUOUS
  5
3E6
 10
161.604051
 20
382.221367
 30
0.0
 11
162.263853
 21
382.881169
 31
0.0
  0
ENDBLK
  8
0
  5
3E7
  0
BLOCK
  8
0
  5
3E9
  2
BLK9
 70
    64
 10
0.0
 20
0.0
 30
0.0
  3
BLK9
  0
ENDBLK
  8
0
  5
3EA
  0
BLOCK
  8
0
  5
3EC
  2
*X50
 70
    65
 10
199.630286
 20
360.581169
 30
0.0
  3
*X50
  0
LINE
  8
LC-002-005-----0
  6
CONTINUOUS
  5
3ED
 10
204.660823
 20
365.881169
 30
0.0
 11
204.854051
 21
366.074397
 31
0.0
  0
LINE
  8
LC-002-005-----0
  6
CONTINUOUS
  5
3EE
 10
200.032396
 20
364.081169
 30
0.0
 11
202.446667
 21
366.495441
 31
0.0
  0
ENDBLK
  8
0
  5
3EF
  0
BLOCK
  8
0
  5
3F1
  2
*X51
 70
    65
 10
212.367449
 20
365.881169
 30
0.0
  3
*X51
  0
LINE
  8
LC-002-005-----0
  6
CONTINUOUS
  5
3F2
 10
216.054192
 20
365.96083
 30
0.0
 11
218.287788
 21
368.194426
 31
0.0
  0
LINE
  8
LC-002-005-----0
  6
CONTINUOUS
  5
3F3
 10
217.832342
 20
370.567407
 30
0.0
 11
218.606546
 21
371.34161
 31
0.0
  0
LINE
  8
LC-002-005-----0
  6
CONTINUOUS
  5
3F4
 10
229.446104
 20
382.181169
 30
0.0
 11
230.146104
 21
382.881169
 31
0.0
  0
LINE
  8
LC-002-005-----0
  6
CONTINUOUS
  5
3F5
 10
218.119007
 20
373.682499
 30
0.0
 11
218.893211
 21
374.456702
 31
0.0
  0
LINE
  8
LC-002-005-----0
  6
CONTINUOUS
  5
3F6
 10
226.617677
 20
382.181169
 30
0.0
 11
227.317677
 21
382.881169
 31
0.0
  0
LINE
  8
LC-002-005-----0
  6
CONTINUOUS
  5
3F7
 10
218.405672
 20
376.797591
 30
0.0
 11
219.179875
 21
377.571794
 31
0.0
  0
LINE
  8
LC-002-005-----0
  6
CONTINUOUS
  5
3F8
 10
223.78925
 20
382.181169
 30
0.0
 11
224.48925
 21
382.881169
 31
0.0
  0
LINE
  8
LC-002-005-----0
  6
CONTINUOUS
  5
3F9
 10
218.77165
 20
379.991996
 30
0.0
 11
221.503487
 21
382.723833
 31
0.0
  0
ENDBLK
  8
0
  5
3FA
  0
BLOCK
  8
0
  5
3FC
  2
*X52
 70
    65
 10
187.04938
 20
360.581169
 30
0.0
  3
*X52
  0
LINE
  8
LC-002-005-----0
  6
CONTINUOUS
  5
3FD
 10
192.141886
 20
364.675941
 30
0.0
 11
192.638238
 21
365.172292
 31
0.0
  0
LINE
  8
LC-002-005-----0
  6
CONTINUOUS
  5
3FE
 10
190.478333
 20
365.840815
 30
0.0
 11
191.047706
 21
366.410188
 31
0.0
  0
LINE
  8
LC-002-005-----0
  6
CONTINUOUS
  5
3FF
 10
188.354051
 20
366.54496
 30
0.0
 11
188.39026
 21
366.581169
 31
0.0
  0
ENDBLK
  8
0
  5
400
  0
BLOCK
  8
0
  5
402
  2
BLK10
 70
    64
 10
0.0
 20
0.0
 30
0.0
  3
BLK10
  0
ENDBLK
  8
0
  5
403
  0
BLOCK
  8
0
  5
405
  2
BLK11
 70
    64
 10
0.0
 20
0.0
 30
0.0
  3
BLK11
  0
ENDBLK
  8
0
  5
406
  0
BLOCK
  8
0
  5
408
  2
BLK12
 70
    64
 10
0.0
 20
0.0
 30
0.0
  3
BLK12
  0
ENDBLK
  8
0
  5
409
  0
BLOCK
  8
0
  5
40B
  2
*X56
 70
    65
 10
382.691543
 20
54.463092
 30
0.0
  3
*X56
  0
LINE
  8
LC-002-005-----0
  6
CONTINUOUS
  5
40C
 10
386.051789
 20
55.125815
 30
0.0
 11
387.291543
 21
56.365569
 31
0.0
  0
LINE
  8
LC-002-005-----0
  6
CONTINUOUS
  5
40D
 10
385.454072
 20
57.356525
 30
0.0
 11
387.291543
 21
59.193996
 31
0.0
  0
LINE
  8
LC-002-005-----0
  6
CONTINUOUS
  5
40E
 10
385.291543
 20
60.022423
 30
0.0
 11
387.291543
 21
62.022423
 31
0.0
  0
LINE
  8
LC-002-005-----0
  6
CONTINUOUS
  5
40F
 10
385.291543
 20
62.85085
 30
0.0
 11
387.291543
 21
64.85085
 31
0.0
  0
LINE
  8
LC-002-005-----0
  6
CONTINUOUS
  5
410
 10
385.291543
 20
65.679278
 30
0.0
 11
387.291543
 21
67.679278
 31
0.0
  0
LINE
  8
LC-002-005-----0
  6
CONTINUOUS
  5
411
 10
385.291543
 20
68.507705
 30
0.0
 11
387.291543
 21
70.507705
 31
0.0
  0
LINE
  8
LC-002-005-----0
  6
CONTINUOUS
  5
412
 10
385.291543
 20
71.336132
 30
0.0
 11
387.291543
 21
73.336132
 31
0.0
  0
LINE
  8
LC-002-005-----0
  6
CONTINUOUS
  5
413
 10
385.291543
 20
74.164559
 30
0.0
 11
387.291543
 21
76.164559
 31
0.0
  0
LINE
  8
LC-002-005-----0
  6
CONTINUOUS
  5
414
 10
385.291543
 20
76.992986
 30
0.0
 11
387.291543
 21
78.992986
 31
0.0
  0
LINE
  8
LC-002-005-----0
  6
CONTINUOUS
  5
415
 10
385.291543
 20
79.821413
 30
0.0
 11
387.291543
 21
81.821413
 31
0.0
  0
LINE
  8
LC-002-005-----0
  6
CONTINUOUS
  5
416
 10
385.291543
 20
82.64984
 30
0.0
 11
387.291543
 21
84.64984
 31
0.0
  0
LINE
  8
LC-002-005-----0
  6
CONTINUOUS
  5
417
 10
385.291543
 20
85.478267
 30
0.0
 11
387.291543
 21
87.478267
 31
0.0
  0
LINE
  8
LC-002-005-----0
  6
CONTINUOUS
  5
418
 10
385.291543
 20
88.306695
 30
0.0
 11
387.291543
 21
90.306695
 31
0.0
  0
LINE
  8
LC-002-005-----0
  6
CONTINUOUS
  5
419
 10
385.291543
 20
91.135122
 30
0.0
 11
387.291543
 21
93.135122
 31
0.0
  0
LINE
  8
LC-002-005-----0
  6
CONTINUOUS
  5
41A
 10
385.291543
 20
93.963549
 30
0.0
 11
387.291543
 21
95.963549
 31
0.0
  0
LINE
  8
LC-002-005-----0
  6
CONTINUOUS
  5
41B
 10
385.291543
 20
96.791976
 30
0.0
 11
387.291543
 21
98.791976
 31
0.0
  0
LINE
  8
LC-002-005-----0
  6
CONTINUOUS
  5
41C
 10
385.291543
 20
99.620403
 30
0.0
 11
387.291543
 21
101.620403
 31
0.0
  0
LINE
  8
LC-002-005-----0
  6
CONTINUOUS
  5
41D
 10
385.291543
 20
102.44883
 30
0.0
 11
387.291543
 21
104.44883
 31
0.0
  0
LINE
  8
LC-002-005-----0
  6
CONTINUOUS
  5
41E
 10
385.291543
 20
105.277257
 30
0.0
 11
387.291543
 21
107.277257
 31
0.0
  0
LINE
  8
LC-002-005-----0
  6
CONTINUOUS
  5
41F
 10
385.291543
 20
108.105684
 30
0.0
 11
387.291543
 21
110.105684
 31
0.0
  0
LINE
  8
LC-002-005-----0
  6
CONTINUOUS
  5
420
 10
383.820523
 20
109.463092
 30
0.0
 11
386.820523
 21
112.463092
 31
0.0
  0
LINE
  8
LC-002-005-----0
  6
CONTINUOUS
  5
421
 10
382.691543
 20
111.162539
 30
0.0
 11
383.992096
 21
112.463092
 31
0.0
  0
ENDBLK
  8
0
  5
422
  0
BLOCK
  8
0
  5
424
  2
BLK13
 70
    64
 10
0.0
 20
0.0
 30
0.0
  3
BLK13
  0
ENDBLK
  8
0
  5
425
  0
BLOCK
  8
0
  5
427
  2
BLK14
 70
    64
 10
0.0
 20
0.0
 30
0.0
  3
BLK14
  0
ENDBLK
  8
0
  5
428
  0
BLOCK
  8
0
  5
42A
  2
BLK15
 70
    64
 10
0.0
 20
0.0
 30
0.0
  3
BLK15
  0
ENDBLK
  8
0
  5
42B
  0
BLOCK
  8
0
  5
42D
  2
*D60
 70
    65
 10
0.0
 20
0.0
 30
0.0
  3
*D60
  0
LINE
  8
LC-004-003-MTH-0
  6
CONTINUOUS
  5
42E
 10
385.291543
 20
57.963092
 30
0.0
 11
385.291543
 21
17.2
 31
0.0
  0
LINE
  8
LC-004-003-MTH-0
  6
CONTINUOUS
  5
42F
 10
425.391543
 20
57.963092
 30
0.0
 11
425.391543
 21
17.2
 31
0.0
  0
LINE
  8
LC-003-003-----0
  6
CONTINUOUS
  5
430
 10
367.445535
 20
25.650529
 30
0.0
 11
385.291543
 21
28.0
 31
0.0
  0
LINE
  8
LC-003-003-----0
  6
CONTINUOUS
  5
431
 10
385.291543
 20
28.0
 30
0.0
 11
367.445535
 21
30.349471
 31
0.0
  0
LINE
  8
LC-003-003-----0
  6
CONTINUOUS
  5
432
 10
367.445535
 20
30.349471
 30
0.0
 11
367.445535
 21
25.650529
 31
0.0
  0
LINE
  8
LC-003-003-----0
  6
CONTINUOUS
  5
433
 10
367.405497
 20
26.261391
 30
0.0
 11
380.611543
 21
28.0
 31
0.0
  0
LINE
  8
LC-003-003-----0
  6
CONTINUOUS
  5
434
 10
380.611543
 20
28.0
 30
0.0
 11
367.405497
 21
29.738609
 31
0.0
  0
LINE
  8
LC-003-003-----0
  6
CONTINUOUS
  5
435
 10
367.365459
 20
26.872254
 30
0.0
 11
375.931543
 21
28.0
 31
0.0
  0
LINE
  8
LC-003-003-----0
  6
CONTINUOUS
  5
436
 10
375.931543
 20
28.0
 30
0.0
 11
367.365459
 21
29.127746
 31
0.0
  0
LINE
  8
LC-003-003-----0
  6
CONTINUOUS
  5
437
 10
367.325421
 20
27.483116
 30
0.0
 11
371.251543
 21
28.0
 31
0.0
  0
LINE
  8
LC-003-003-----0
  6
CONTINUOUS
  5
438
 10
371.251543
 20
28.0
 30
0.0
 11
367.325421
 21
28.516884
 31
0.0
  0
LINE
  8
LC-003-003-----0
  6
CONTINUOUS
  5
439
 10
443.23755
 20
30.349471
 30
0.0
 11
425.391543
 21
28.0
 31
0.0
  0
LINE
  8
LC-003-003-----0
  6
CONTINUOUS
  5
43A
 10
425.391543
 20
28.0
 30
0.0
 11
443.23755
 21
25.650529
 31
0.0
  0
LINE
  8
LC-003-003-----0
  6
CONTINUOUS
  5
43B
 10
443.23755
 20
25.650529
 30
0.0
 11
443.23755
 21
30.349471
 31
0.0
  0
LINE
  8
LC-003-003-----0
  6
CONTINUOUS
  5
43C
 10
443.277588
 20
29.738609
 30
0.0
 11
430.071543
 21
28.0
 31
0.0
  0
LINE
  8
LC-003-003-----0
  6
CONTINUOUS
  5
43D
 10
430.071543
 20
28.0
 30
0.0
 11
443.277588
 21
26.261391
 31
0.0
  0
LINE
  8
LC-003-003-----0
  6
CONTINUOUS
  5
43E
 10
443.317626
 20
29.127746
 30
0.0
 11
434.751543
 21
28.0
 31
0.0
  0
LINE
  8
LC-003-003-----0
  6
CONTINUOUS
  5
43F
 10
434.751543
 20
28.0
 30
0.0
 11
443.317626
 21
26.872254
 31
0.0
  0
LINE
  8
LC-003-003-----0
  6
CONTINUOUS
  5
440
 10
443.357664
 20
28.516884
 30
0.0
 11
439.431543
 21
28.0
 31
0.0
  0
LINE
  8
LC-003-003-----0
  6
CONTINUOUS
  5
441
 10
439.431543
 20
28.0
 30
0.0
 11
443.357664
 21
27.483116
 31
0.0
  0
LINE
  8
LC-005-003-MTG-0
  6
CONTINUOUS
  5
442
 10
360.091543
 20
28.0
 30
0.0
 11
515.794062
 21
28.0
 31
0.0
  0
TEXT
  8
LC-003-003-----0
  6
CONTINUOUS
 62
     6
  5
443
 10
452.666788
 20
38.431999
 30
0.0
 40
18.0
  1
DN40
 51
15.0
  7
LC-TXTSTYLE-150-400-0-0-D0
  0
ENDBLK
  8
0
  5
444
  0
ENDSEC
  0
SECTION
  2
ENTITIES
  0
VIEWPORT
  8
LC-000
  5
7D4
 67
     1
 68
     1
 10
420.0
 20
297.0
 30
0.0
 40
840.0
 41
594.0
 69
     1
1001
ACAD
1000
MVIEW
1002
{
1070
    16
1010
0.0
1020
0.0
1030
0.0
1010
0.0
1020
0.0
1030
1.0
1040
0.0
1040
594.0
1040
420.0
1040
297.0
1040
50.0
1040
0.0
1040
0.0
1070
     0
1070
   100
1070
     1
1070
     1
1070
     0
1070
     0
1070
     0
1070
     0
1040
0.0
1040
0.0
1040
0.0
1040
1.0
1040
1.0
1040
0.0
1040
0.0
1070
     0
1002
{
1002
}
1002
}
  0
VIEWPORT
  8
0
  5
7D5
 67
     1
 68
     1
 10
0.0
 20
0.0
 30
0.0
 40
0.0
 41
0.0
 69
     1
1001
ACAD
1000
MVIEW
1002
{
1070
    16
1010
0.0
1020
0.0
1030
0.0
1010
0.0
1020
0.0
1030
1.0
1040
0.0
1040
594.0
1040
0.0
1040
0.0
1040
50.0
1040
0.0
1040
0.0
1070
     0
1070
   100
1070
     0
1070
     1
1070
     0
1070
     0
1070
     0
1070
     0
1040
0.0
1040
0.0
1040
0.0
1040
0.5
1040
0.5
1040
0.5
1040
0.5
1070
     0
1002
{
1002
}
1002
}
  0
INSERT
  8
0
  5
445
  2
*X0
 10
356.458805
 20
241.906011
 30
0.0
  0
DIMENSION
  8
0
  5
446
  2
*D1
 10
377.551917
 20
440.0
 30
0.0
 11
377.551917
 21
440.0
 31
0.0
  1
MAX.225
 13
196.604051
 23
512.844
 33
0.0
 14
317.315333
 24
241.946018
 34
0.0
  3
LC-DIM-L-0090-02-02
  0
DIMENSION
  8
0
  5
447
  2
*D2
 10
394.425174
 20
320.0
 30
0.0
 11
394.425174
 21
320.0
 31
0.0
  1
64
 13
362.458805
 23
262.906011
 33
0.0
 14
426.391543
 24
257.156017
 34
0.0
  3
LC-DIM-L-0090-02-02
  0
DIMENSION
  8
0
  5
448
  2
*D3
 10
160.0
 20
287.913139
 30
0.0
 11
160.0
 21
287.913139
 31
0.0
  1
70-275
 13
171.628554
 23
350.476095
 33
0.0
 14
212.354051
 24
225.350183
 34
0.0
 50
90.0
  3
LC-DIM-L-0090-02-02
  0
DIMENSION
  8
0
  5
449
  2
*D4
 10
480.0
 20
182.459297
 30
0.0
 11
480.0
 21
182.459297
 31
0.0
  1
146
 13
426.391543
 23
255.455501
 33
0.0
 14
426.391543
 24
109.463092
 34
0.0
 50
90.0
  3
LC-DIM-L-0090-02-02
  0
INSERT
  8
0
  5
44A
  2
*X5
 10
160.604051
 20
342.111598
 30
0.0
  0
INSERT
  8
0
  5
44B
  2
*X6
 10
212.604051
 20
342.111598
 30
0.0
  0
INSERT
  8
0
  5
44D
  2
BLK1
 10
0.0
 20
0.0
 30
0.0
  0
INSERT
  8
0
  5
44E
  2
*X8
 10
317.357731
 20
109.043476
 30
0.0
  0
INSERT
  8
0
  5
44F
  2
*X9
 10
327.458805
 20
248.45791
 30
0.0
  0
INSERT
  8
0
  5
450
  2
*X10
 10
327.458805
 20
109.463092
 30
0.0
  0
INSERT
  8
0
  5
451
  2
*X11
 10
383.388524
 20
132.106973
 30
0.0
  0
INSERT
  8
0
  5
452
  2
BLK2
 10
0.0
 20
0.0
 30
0.0
  0
INSERT
  8
0
  5
453
  2
BLK3
 10
0.0
 20
0.0
 30
0.0
  0
INSERT
  8
0
  5
454
  2
BLK4
 10
0.0
 20
0.0
 30
0.0
  0
INSERT
  8
0
  5
455
  2
*X15
 10
317.357731
 20
141.768546
 30
0.0
  0
INSERT
  8
0
  5
456
  2
BLK5
 10
0.0
 20
0.0
 30
0.0
  0
DIMENSION
  8
0
  5
457
  2
*D17
 10
288.0
 20
137.214
 30
0.0
 11
288.0
 21
137.214
 31
0.0
  1
%%c<>
 13
325.616545
 23
272.906011
 33
0.0
 14
325.616545
 24
177.906011
 34
0.0
 50
90.0
  3
LC-DIM-L-0090-02-02
  0
INSERT
  8
0
  5
458
  2
*X18
 10
322.458805
 20
261.906011
 30
0.0
  0
INSERT
  8
0
  5
459
  2
*X19
 10
322.458805
 20
187.906011
 30
0.0
  0
INSERT
  8
0
  5
45A
  2
*X20
 10
178.928945
 20
272.350183
 30
0.0
  0
INSERT
  8
0
  5
45B
  2
*X21
 10
212.604051
 20
272.350183
 30
0.0
  0
INSERT
  8
0
  5
45C
  2
*X22
 10
212.604051
 20
262.350183
 30
0.0
  0
INSERT
  8
0
  5
45D
  2
*X23
 10
178.928945
 20
262.350183
 30
0.0
  0
INSERT
  8
0
  5
45E
  2
*X24
 10
171.604051
 20
261.350183
 30
0.0
  0
INSERT
  8
0
  5
45F
  2
*X25
 10
212.793919
 20
333.976095
 30
0.0
  0
INSERT
  8
0
  5
460
  2
*X26
 10
178.928945
 20
341.611598
 30
0.0
  0
INSERT
  8
0
  5
461
  2
*X27
 10
210.354051
 20
341.611598
 30
0.0
  0
INSERT
  8
0
  5
462
  2
*X28
 10
171.628554
 20
333.976095
 30
0.0
  0
INSERT
  8
0
  5
463
  2
*X29
 10
212.769416
 20
261.350183
 30
0.0
  0
INSERT
  8
0
  5
464
  2
*X30
 10
210.354051
 20
309.748875
 30
0.0
  0
INSERT
  8
0
  5
465
  2
*X31
 10
177.354051
 20
309.748875
 30
0.0
  0
INSERT
  8
0
  5
466
  2
*X32
 10
210.354051
 20
244.976817
 30
0.0
  0
INSERT
  8
0
  5
467
  2
*X33
 10
180.854051
 20
244.976817
 30
0.0
  0
INSERT
  8
0
  5
468
  2
*X34
 10
178.604051
 20
209.350183
 30
0.0
  0
INSERT
  8
0
  5
469
  2
*X35
 10
212.604051
 20
239.350183
 30
0.0
  0
INSERT
  8
0
  5
46A
  2
*X36
 10
261.852008
 20
239.406011
 30
0.0
  0
INSERT
  8
0
  5
46B
  2
*X37
 10
261.852008
 20
209.406011
 30
0.0
  0
INSERT
  8
0
  5
46C
  2
BLK6
 10
0.0
 20
0.0
 30
0.0
  0
INSERT
  8
0
  5
46D
  2
BLK7
 10
0.0
 20
0.0
 30
0.0
  0
DIMENSION
  8
0
  5
46E
  2
*D40
 10
160.0
 20
439.844
 30
0.0
 11
160.0
 21
439.844
 31
0.0
 13
172.104051
 23
389.844
 33
0.0
 14
177.604051
 24
489.844
 34
0.0
 50
90.0
  3
LC-DIM-L-0090-02-02
  0
INSERT
  8
0
  5
46F
  2
*X41
 10
169.104051
 20
371.844
 30
0.0
  0
INSERT
  8
0
  5
470
  2
*X42
 10
213.604051
 20
371.844
 30
0.0
  0
INSERT
  8
0
  5
471
  2
*X43
 10
174.604051
 20
375.644
 30
0.0
  0
INSERT
  8
0
  5
472
  2
*X44
 10
216.604051
 20
375.644
 30
0.0
  0
INSERT
  8
0
  5
473
  2
*X45
 10
164.300466
 20
376.058213
 30
0.0
  0
INSERT
  8
0
  5
474
  2
*X46
 10
222.907636
 20
376.058213
 30
0.0
  0
INSERT
  8
0
  5
475
  2
BLK8
 10
0.0
 20
0.0
 30
0.0
  0
INSERT
  8
0
  5
476
  2
*X48
 10
161.604051
 20
365.881169
 30
0.0
  0
INSERT
  8
0
  5
477
  2
BLK9
 10
0.0
 20
0.0
 30
0.0
  0
INSERT
  8
0
  5
478
  2
*X50
 10
199.630286
 20
360.581169
 30
0.0
  0
INSERT
  8
0
  5
479
  2
*X51
 10
212.367449
 20
365.881169
 30
0.0
  0
INSERT
  8
0
  5
47A
  2
*X52
 10
187.04938
 20
360.581169
 30
0.0
  0
INSERT
  8
0
  5
47B
  2
BLK10
 10
0.0
 20
0.0
 30
0.0
  0
INSERT
  8
0
  5
47D
  2
BLK11
 10
0.0
 20
0.0
 30
0.0
  0
INSERT
  8
0
  5
47E
  2
BLK12
 10
0.0
 20
0.0
 30
0.0
  0
INSERT
  8
0
  5
47F
  2
*X56
 10
382.691543
 20
54.463092
 30
0.0
  0
INSERT
  8
0
  5
480
  2
BLK13
 10
0.0
 20
0.0
 30
0.0
  0
INSERT
  8
0
  5
481
  2
BLK14
 10
0.0
 20
0.0
 30
0.0
  0
INSERT
  8
0
  5
482
  2
BLK15
 10
0.0
 20
0.0
 30
0.0
  0
DIMENSION
  8
0
  5
483
  2
*D60
 10
405.341543
 20
28.0
 30
0.0
 11
405.341543
 21
28.0
 31
0.0
  1
DN40
 13
385.291543
 23
57.963092
 33
0.0
 14
425.391543
 24
57.963092
 34
0.0
  3
LC-DIM-L-0090-02-02
  0
LINE
  8
LC-001-002-----0
  6
CONTINUOUS
  5
485
 10
362.458805
 20
262.906011
 30
0.0
 11
362.458805
 21
252.655814
 31
0.0
  0
LINE
  8
LC-001-002-----0
  6
CONTINUOUS
  5
486
 10
384.391543
 20
109.463092
 30
0.0
 11
384.391543
 21
110.963092
 31
0.0
  0
LINE
  8
LC-001-002-----0
  6
CONTINUOUS
  5
487
 10
384.391543
 20
109.463092
 30
0.0
 11
385.291543
 21
109.463092
 31
0.0
  0
LINE
  8
LC-001-002-----0
  6
CONTINUOUS
  5
488
 10
322.458805
 20
262.906011
 30
0.0
 11
362.458805
 21
262.906011
 31
0.0
  0
LINE
  8
LC-001-002-----0
  6
CONTINUOUS
  5
489
 10
322.458805
 20
262.906011
 30
0.0
 11
322.458805
 21
241.469989
 31
0.0
  0
LINE
  8
LC-001-002-----0
  6
CONTINUOUS
  5
48A
 10
356.458805
 20
207.17396
 30
0.0
 11
356.458805
 21
196.906011
 31
0.0
  0
LINE
  8
LC-001-002-----0
  6
CONTINUOUS
  5
48B
 10
322.458805
 20
209.469989
 30
0.0
 11
322.458805
 21
187.906011
 31
0.0
  0
LINE
  8
LC-002-005-----0
  6
CONTINUOUS
  5
48C
 10
385.983997
 20
147.226011
 30
0.0
 11
385.458805
 21
147.751204
 31
0.0
  0
LINE
  8
LC-002-005-----0
  6
CONTINUOUS
  5
48D
 10
417.096696
 20
147.226011
 30
0.0
 11
414.958805
 21
149.363902
 31
0.0
  0
LINE
  8
LC-001-002-----0
  6
CONTINUOUS
  5
48E
 10
322.458805
 20
261.906011
 30
0.0
 11
359.458805
 21
261.906011
 31
0.0
  0
ARC
  8
LC-001-002-----0
  6
DASHED
 62
     2
  5
48F
 10
648.177089
 20
224.038219
 30
0.0
 40
30.924705
 50
7.786066
 51
102.425819
  0
LINE
  8
LC-001-002-----0
  6
DASHED
 62
     2
  5
490
 10
633.296357
 20
222.628406
 30
0.0
 11
646.591834
 21
147.226011
 31
0.0
  0
LINE
  8
LC-001-002-----0
  6
DASHED
 62
     2
  5
491
 10
665.202289
 20
225.96153
 30
0.0
 11
679.085486
 21
147.226011
 31
0.0
  0
LINE
  8
LC-001-002-----0
  6
DASHDOT
 62
     2
  5
493
 10
649.064526
 20
225.406011
 30
0.0
 11
662.849769
 21
147.226011
 31
0.0
  0
ARC
  8
LC-001-002-----0
  6
DASHED
 62
     2
  5
494
 10
649.054526
 20
225.406011
 30
0.0
 40
30.0
 50
178.585635
 51
201.659607
  0
LINE
  8
LC-001-002-----0
  6
DASHDOT
 62
     2
  5
495
 10
649.054526
 20
512.95654
 30
0.0
 11
649.054526
 21
54.463092
 31
0.0
  0
LINE
  8
LC-001-002-----0
  6
CONTINUOUS
  5
496
 10
174.604051
 20
378.844
 30
0.0
 11
174.604051
 21
378.344
 31
0.0
  0
ARC
  8
LC-001-002-----0
  6
CONTINUOUS
  5
497
 10
417.357731
 20
209.043476
 30
0.0
 40
98.5
 50
180.661659
 51
195.65621
  0
ARC
  8
LC-001-002-----0
  6
DASHED
 62
     2
  5
498
 10
657.654777
 20
195.410292
 30
0.0
 40
61.0
 50
105.334736
 51
156.154986
  0
ARC
  8
LC-001-002-----0
  6
CONTINUOUS
  5
499
 10
649.054526
 20
225.462723
 30
0.0
 40
47.5
 50
121.756864
 51
58.243136
  0
LINE
  8
LC-001-002-----0
  6
CONTINUOUS
  5
49A
 10
383.388524
 20
132.106973
 30
0.0
 11
423.391543
 21
132.106973
 31
0.0
  0
LINE
  8
LC-001-002-----0
  6
CONTINUOUS
  5
49B
 10
180.604051
 20
351.111598
 30
0.0
 11
188.604051
 21
347.111598
 31
0.0
  0
LINE
  8
LC-001-002-----0
  6
CONTINUOUS
  5
49C
 10
171.604051
 20
361.111598
 30
0.0
 11
175.604051
 21
357.111598
 31
0.0
  0
LINE
  8
LC-001-002-----0
  6
CONTINUOUS
  5
49D
 10
383.388524
 20
134.606973
 30
0.0
 11
423.391543
 21
134.606973
 31
0.0
  0
LINE
  8
LC-001-002-----0
  6
CONTINUOUS
  5
49E
 10
180.604051
 20
342.111598
 30
0.0
 11
199.604051
 21
342.111598
 31
0.0
  0
LINE
  8
LC-001-002-----0
  6
CONTINUOUS
  5
49F
 10
176.604051
 20
363.111598
 30
0.0
 11
189.604051
 21
363.111598
 31
0.0
  0
LINE
  8
LC-001-002-----0
  6
CONTINUOUS
  5
4A0
 10
212.604051
 20
351.111598
 30
0.0
 11
212.604051
 21
342.111598
 31
0.0
  0
LINE
  8
LC-001-002-----0
  6
CONTINUOUS
  5
4A1
 10
212.604051
 20
351.111598
 30
0.0
 11
204.604051
 21
347.111598
 31
0.0
  0
LINE
  8
LC-001-002-----0
  6
CONTINUOUS
  5
4A2
 10
216.604051
 20
363.111598
 30
0.0
 11
213.604051
 21
351.111598
 31
0.0
  0
LINE
  8
LC-001-002-----0
  6
CONTINUOUS
  5
4A3
 10
216.604051
 20
357.111598
 30
0.0
 11
216.604051
 21
342.111598
 31
0.0
  0
LINE
  8
LC-001-002-----0
  6
CONTINUOUS
  5
4A4
 10
217.604051
 20
357.111598
 30
0.0
 11
216.604051
 21
357.111598
 31
0.0
  0
LINE
  8
LC-001-002-----0
  6
CONTINUOUS
  5
4A5
 10
216.604051
 20
357.111598
 30
0.0
 11
217.604051
 21
356.111598
 31
0.0
  0
LINE
  8
LC-001-002-----0
  6
CONTINUOUS
  5
4A6
 10
217.604051
 20
343.111598
 30
0.0
 11
217.604051
 21
356.111598
 31
0.0
  0
LINE
  8
LC-001-002-----0
  6
CONTINUOUS
  5
4A7
 10
216.604051
 20
342.111598
 30
0.0
 11
217.604051
 21
343.111598
 31
0.0
  0
LINE
  8
LC-001-002-----0
  6
CONTINUOUS
  5
4A8
 10
221.604051
 20
361.111598
 30
0.0
 11
217.604051
 21
357.111598
 31
0.0
  0
LINE
  8
LC-001-002-----0
  6
CONTINUOUS
  5
4A9
 10
620.554526
 20
364.724138
 30
0.0
 11
677.554526
 21
364.724138
 31
0.0
  0
LINE
  8
LC-001-002-----0
  6
CONTINUOUS
  5
4AA
 10
624.054526
 20
361.224138
 30
0.0
 11
628.054526
 21
357.224138
 31
0.0
  0
LINE
  8
LC-001-002-----0
  6
CONTINUOUS
  5
4AB
 10
628.054526
 20
356.224138
 30
0.0
 11
670.054526
 21
356.224138
 31
0.0
  0
LINE
  8
LC-001-002-----0
  6
CONTINUOUS
  5
4AC
 10
624.054526
 20
348.088635
 30
0.0
 11
624.054526
 21
339.088635
 31
0.0
  0
LINE
  8
LC-001-002-----0
  6
CONTINUOUS
  5
4AD
 10
322.458805
 20
188.906011
 30
0.0
 11
359.458805
 21
188.906011
 31
0.0
  0
LINE
  8
LC-001-002-----0
  6
CONTINUOUS
  5
4AE
 10
322.458805
 20
187.906011
 30
0.0
 11
362.458805
 21
187.906011
 31
0.0
  0
LINE
  8
LC-001-002-----0
  6
CONTINUOUS
  5
4AF
 10
362.458805
 20
187.906011
 30
0.0
 11
362.458805
 21
198.156208
 31
0.0
  0
LINE
  8
LC-001-002-----0
  6
CONTINUOUS
  5
4B0
 10
359.458805
 20
188.906011
 30
0.0
 11
359.458805
 21
201.156204
 31
0.0
  0
LINE
  8
LC-001-002-----0
  6
CONTINUOUS
  5
4B1
 10
423.391543
 20
132.106973
 30
0.0
 11
423.391543
 21
103.876748
 31
0.0
  0
LINE
  8
LC-001-002-----0
  6
CONTINUOUS
  5
4B2
 10
359.458805
 20
200.906011
 30
0.0
 11
361.458805
 21
201.441909
 31
0.0
  0
ARC
  8
LC-007-002-RND-0
  6
CONTINUOUS
  5
4B4
 10
366.555305
 20
200.906011
 30
0.0
 40
0.5
 50
200.556045
 51
270.0
  0
LINE
  8
LC-001-002-----0
  6
CONTINUOUS
  5
4B5
 10
363.958805
 20
206.406011
 30
0.0
 11
366.08714
 21
200.730449
 31
0.0
  0
LINE
  8
LC-001-002-----0
  6
CONTINUOUS
  5
4B6
 10
367.330469
 20
200.730449
 30
0.0
 11
369.458805
 21
206.406011
 31
0.0
  0
ARC
  8
LC-007-002-RND-0
  6
CONTINUOUS
  5
4B7
 10
366.862305
 20
200.906011
 30
0.0
 40
0.5
 50
270.0
 51
339.443955
  0
LINE
  8
LC-001-002-----0
  6
CONTINUOUS
  5
4B8
 10
674.054526
 20
361.224138
 30
0.0
 11
670.054526
 21
357.224138
 31
0.0
  0
LINE
  8
LC-001-002-----0
  6
CONTINUOUS
  5
4B9
 10
366.555305
 20
200.406011
 30
0.0
 11
366.862305
 21
200.406011
 31
0.0
  0
LINE
  8
LC-001-002-----0
  6
CONTINUOUS
  5
4BA
 10
373.958805
 20
206.406011
 30
0.0
 11
376.08714
 21
200.730449
 31
0.0
  0
LINE
  8
LC-001-002-----0
  6
CONTINUOUS
  5
4BB
 10
377.330469
 20
200.730449
 30
0.0
 11
379.458805
 21
206.406011
 31
0.0
  0
ARC
  8
LC-007-002-RND-0
  6
CONTINUOUS
  5
4BC
 10
376.862305
 20
200.906011
 30
0.0
 40
0.5
 50
270.0
 51
339.443955
  0
ARC
  8
LC-007-002-RND-0
  6
CONTINUOUS
  5
4BD
 10
376.555305
 20
200.906011
 30
0.0
 40
0.5
 50
200.556045
 51
270.0
  0
ARC
  8
LC-007-002-RND-0
  6
CONTINUOUS
  5
4BE
 10
317.85774
 20
208.906011
 30
0.0
 40
0.5
 50
90.0
 51
180.003985
  0
LINE
  8
LC-001-002-----0
  6
DASHDOT
 62
     2
  5
4BF
 10
649.054526
 20
364.924138
 30
0.0
 11
649.054526
 21
355.224138
 31
0.0
  0
LINE
  8
LC-001-002-----0
  6
CONTINUOUS
  5
4C0
 10
321.357046
 20
209.406011
 30
0.0
 11
321.357046
 21
207.906011
 31
0.0
  0
LINE
  8
LC-001-002-----0
  6
CONTINUOUS
  5
4C1
 10
630.054526
 20
481.95654
 30
0.0
 11
630.054526
 21
489.95654
 31
0.0
  0
ARC
  8
LC-001-002-----0
  6
CONTINUOUS
  5
4C2
 10
326.813171
 20
183.785474
 30
0.0
 40
4.5
 50
197.106393
 51
254.578552
  0
LINE
  8
LC-001-002-----0
  6
CONTINUOUS
  5
4C3
 10
376.555305
 20
200.406011
 30
0.0
 11
376.862305
 21
200.406011
 31
0.0
  0
LINE
  8
LC-001-002-----0
  6
CONTINUOUS
  5
4C4
 10
321.357046
 20
209.406011
 30
0.0
 11
317.85774
 21
209.406011
 31
0.0
  0
LINE
  8
LC-001-002-----0
  6
DASHDOT
 62
     2
  5
4C5
 10
649.054526
 20
512.95654
 30
0.0
 11
649.054526
 21
371.95654
 31
0.0
  0
LINE
  8
LC-001-002-----0
  6
CONTINUOUS
  5
4C6
 10
383.388524
 20
132.570695
 30
0.0
 11
383.388524
 21
132.106973
 31
0.0
  0
LINE
  8
LC-001-002-----0
  6
CONTINUOUS
  5
4C7
 10
632.054526
 20
489.95654
 30
0.0
 11
666.054526
 21
489.95654
 31
0.0
  0
LINE
  8
LC-001-002-----0
  6
CONTINUOUS
  5
4C8
 10
668.054526
 20
481.95654
 30
0.0
 11
668.054526
 21
389.95654
 31
0.0
  0
LINE
  8
LC-001-002-----0
  6
DASHDOT
 62
     2
  5
4C9
 10
405.341543
 20
112.463092
 30
0.0
 11
405.341543
 21
54.463092
 31
0.0
  0
LINE
  8
LC-001-002-----0
  6
CONTINUOUS
  5
4CA
 10
630.054526
 20
481.95654
 30
0.0
 11
630.054526
 21
389.95654
 31
0.0
  0
LINE
  8
LC-001-002-----0
  6
DASHED
 62
     2
  5
4CB
 10
667.104526
 20
129.669396
 30
0.0
 11
656.880768
 21
129.669396
 31
0.0
  0
LINE
  8
LC-001-002-----0
  6
CONTINUOUS
  5
4CC
 10
321.357046
 20
207.906011
 30
0.0
 11
318.859412
 21
207.906011
 31
0.0
  0
LINE
  8
LC-001-002-----0
  6
CONTINUOUS
  5
4CD
 10
621.554526
 20
386.95654
 30
0.0
 11
621.554526
 21
386.95654
 31
0.0
  0
LINE
  8
LC-001-002-----0
  6
CONTINUOUS
  5
4CE
 10
624.554526
 20
389.95654
 30
0.0
 11
668.054526
 21
389.95654
 31
0.0
  0
LINE
  8
LC-001-002-----0
  6
CONTINUOUS
  5
4CF
 10
621.554526
 20
386.95654
 30
0.0
 11
670.554526
 21
386.95654
 31
0.0
  0
LINE
  8
LC-001-002-----0
  6
CONTINUOUS
  5
4D0
 10
692.470162
 20
150.795063
 30
0.0
 11
684.816604
 21
194.200546
 31
0.0
  0
LINE
  8
LC-001-002-----0
  6
DASHED
 62
     2
  5
4D1
 10
684.816604
 20
194.200546
 30
0.0
 11
678.609245
 21
229.404229
 31
0.0
  0
LINE
  8
LC-001-002-----0
  6
DASHDOT
 62
     2
  5
4D2
 10
210.604051
 20
225.406011
 30
0.0
 11
387.958805
 21
225.406011
 31
0.0
  0
LINE
  8
LC-001-002-----0
  6
DASHDOT
 62
     2
  5
4D3
 10
196.604051
 20
350.476095
 30
0.0
 11
196.604051
 21
239.350183
 31
0.0
  0
LINE
  8
LC-001-002-----0
  6
CONTINUOUS
  5
4D4
 10
214.604051
 20
241.350183
 30
0.0
 11
260.852008
 21
241.350183
 31
0.0
  0
LINE
  8
LC-001-002-----0
  6
CONTINUOUS
  5
4D5
 10
668.054526
 20
389.95654
 30
0.0
 11
673.554526
 21
389.95654
 31
0.0
  0
LINE
  8
LC-001-002-----0
  6
DASHED
 62
     2
  5
4D6
 10
621.474618
 20
197.222076
 30
0.0
 11
629.306151
 21
152.807247
 31
0.0
  0
ARC
  8
LC-007-002-RND-0
  6
DASHED
 62
     2
  5
4D7
 10
656.880768
 20
157.669396
 30
0.0
 40
28.0
 50
190.0
 51
270.0
  0
LINE
  8
LC-001-002-----0
  6
DASHED
 62
     2
  5
4D8
 10
600.826483
 20
183.666189
 30
0.0
 11
610.219924
 21
130.393342
 31
0.0
  0
LINE
  8
LC-001-002-----0
  6
DASHED
 62
     2
  5
4D9
 10
631.885694
 20
112.213602
 30
0.0
 11
667.104526
 21
112.213602
 31
0.0
  0
LINE
  8
LC-001-002-----0
  6
CONTINUOUS
  5
4DA
 10
210.604051
 20
209.350183
 30
0.0
 11
260.852008
 21
209.350183
 31
0.0
  0
LINE
  8
LC-001-002-----0
  6
DASHED
 62
     2
  5
4DB
 10
667.104526
 20
129.669396
 30
0.0
 11
667.104526
 21
112.213602
 31
0.0
  0
LINE
  8
LC-001-002-----0
  6
DASHED
 62
     2
  5
4DC
 10
674.743622
 20
132.669396
 30
0.0
 11
656.880768
 21
132.669396
 31
0.0
  0
LINE
  8
LC-001-002-----0
  6
DASHED
 62
     2
  5
4DD
 10
675.448477
 20
230.053525
 30
0.0
 11
689.515738
 21
150.274118
 31
0.0
  0
ARC
  8
LC-007-002-RND-0
  6
DASHED
 62
     2
  5
4DE
 10
674.743622
 20
147.669396
 30
0.0
 40
15.0
 50
270.0
 51
10.0
  0
LINE
  8
LC-001-002-----0
  6
DASHED
 62
     2
  5
4DF
 10
624.429042
 20
197.743021
 30
0.0
 11
632.260574
 21
153.328191
 31
0.0
  0
ARC
  8
LC-007-002-RND-0
  6
DASHED
 62
     2
  5
4E0
 10
656.880768
 20
157.669396
 30
0.0
 40
25.0
 50
190.0
 51
270.0
  0
ARC
  8
LC-007-002-RND-0
  6
DASHED
 62
     2
  5
4E1
 10
631.885694
 20
134.213602
 30
0.0
 40
22.0
 50
190.0
 51
270.0
  0
ARC
  8
LC-001-002-----0
  6
DASHED
 62
     2
  5
4E2
 10
649.054526
 20
225.342134
 30
0.0
 40
26.8
 50
10.120905
 51
107.829622
  0
LINE
  8
LC-001-002-----0
  6
DASHED
 62
     2
  5
4E3
 10
624.429042
 20
197.743021
 30
0.0
 11
621.474618
 21
197.222076
 31
0.0
  0
ARC
  8
LC-001-002-----0
  6
DASHED
 62
     2
  5
4E4
 10
657.654777
 20
195.410292
 30
0.0
 40
58.0
 50
106.862811
 51
191.676341
  0
LINE
  8
LC-001-002-----0
  6
CONTINUOUS
  5
4E5
 10
423.391543
 20
197.222076
 30
0.0
 11
417.458805
 21
197.222076
 31
0.0
  0
LINE
  8
LC-001-002-----0
  6
CONTINUOUS
  5
4E6
 10
385.458805
 20
197.222076
 30
0.0
 11
381.388524
 21
197.222076
 31
0.0
  0
LINE
  8
LC-001-002-----0
  6
DASHDOT
 62
     2
  5
4E7
 10
624.304526
 20
225.406011
 30
0.0
 11
673.804526
 21
225.406011
 31
0.0
  0
LINE
  8
LC-001-002-----0
  6
CONTINUOUS
  5
4E8
 10
385.458805
 20
147.226011
 30
0.0
 11
417.458805
 21
147.226011
 31
0.0
  0
LINE
  8
LC-002-005-----0
  6
CONTINUOUS
  5
4E9
 10
387.958805
 20
207.4766
 30
0.0
 11
386.529394
 21
208.906011
 31
0.0
  0
LINE
  8
LC-002-005-----0
  6
CONTINUOUS
  5
4EA
 10
387.958805
 20
204.648173
 30
0.0
 11
383.700967
 21
208.906011
 31
0.0
  0
LINE
  8
LC-002-005-----0
  6
CONTINUOUS
  5
4EB
 10
387.958805
 20
201.819746
 30
0.0
 11
384.458805
 21
205.319746
 31
0.0
  0
LINE
  8
LC-002-005-----0
  6
CONTINUOUS
  5
4EC
 10
383.37254
 20
206.406011
 30
0.0
 11
380.87254
 21
208.906011
 31
0.0
  0
LINE
  8
LC-002-005-----0
  6
CONTINUOUS
  5
4ED
 10
387.958805
 20
198.991319
 30
0.0
 11
385.458805
 21
201.491319
 31
0.0
  0
LINE
  8
LC-002-005-----0
  6
CONTINUOUS
  5
4EE
 10
380.544113
 20
206.406011
 30
0.0
 11
378.044113
 21
208.906011
 31
0.0
  0
LINE
  8
LC-002-005-----0
  6
CONTINUOUS
  5
4EF
 10
387.958805
 20
196.162892
 30
0.0
 11
385.458805
 21
198.662892
 31
0.0
  0
LINE
  8
LC-002-005-----0
  6
CONTINUOUS
  5
4F0
 10
378.983409
 20
205.138288
 30
0.0
 11
375.215686
 21
208.906011
 31
0.0
  0
LINE
  8
LC-002-005-----0
  6
CONTINUOUS
  5
4F1
 10
387.958805
 20
193.334465
 30
0.0
 11
385.458805
 21
195.834465
 31
0.0
  0
LINE
  8
LC-002-005-----0
  6
CONTINUOUS
  5
4F2
 10
378.212019
 20
203.08125
 30
0.0
 11
372.387259
 21
208.906011
 31
0.0
  0
LINE
  8
LC-002-005-----0
  6
CONTINUOUS
  5
4F3
 10
387.958805
 20
190.506038
 30
0.0
 11
385.458805
 21
193.006038
 31
0.0
  0
LINE
  8
LC-002-005-----0
  6
CONTINUOUS
  5
4F4
 10
377.44063
 20
201.024212
 30
0.0
 11
375.098789
 21
203.366054
 31
0.0
  0
LINE
  8
LC-001-002-----0
  6
CONTINUOUS
  5
4F5
 10
670.554526
 20
386.95654
 30
0.0
 11
670.554526
 21
382.993709
 31
0.0
  0
LINE
  8
LC-002-005-----0
  6
CONTINUOUS
  5
4F6
 10
372.058831
 20
206.406011
 30
0.0
 11
369.558831
 21
208.906011
 31
0.0
  0
LINE
  8
LC-001-002-----0
  6
CONTINUOUS
  5
4F7
 10
627.554526
 20
386.95654
 30
0.0
 11
627.554526
 21
382.993709
 31
0.0
  0
LINE
  8
LC-002-005-----0
  6
CONTINUOUS
  5
4F8
 10
387.958805
 20
187.677611
 30
0.0
 11
385.458805
 21
190.177611
 31
0.0
  0
LINE
  8
LC-002-005-----0
  6
CONTINUOUS
  5
4F9
 10
369.396514
 20
206.239902
 30
0.0
 11
366.730404
 21
208.906011
 31
0.0
  0
LINE
  8
LC-002-005-----0
  6
CONTINUOUS
  5
4FA
 10
387.958805
 20
184.849183
 30
0.0
 11
385.458805
 21
187.349183
 31
0.0
  0
LINE
  8
LC-002-005-----0
  6
CONTINUOUS
  5
4FB
 10
368.625125
 20
204.182864
 30
0.0
 11
363.901977
 21
208.906011
 31
0.0
  0
LINE
  8
LC-002-005-----0
  6
CONTINUOUS
  5
4FC
 10
387.958805
 20
182.020756
 30
0.0
 11
385.458805
 21
184.520756
 31
0.0
  0
LINE
  8
LC-002-005-----0
  6
CONTINUOUS
  5
4FD
 10
367.853735
 20
202.125826
 30
0.0
 11
364.189958
 21
205.789603
 31
0.0
  0
LINE
  8
LC-002-005-----0
  6
CONTINUOUS
  5
4FE
 10
363.57355
 20
206.406011
 30
0.0
 11
361.07355
 21
208.906011
 31
0.0
  0
LINE
  8
LC-002-005-----0
  6
CONTINUOUS
  5
4FF
 10
387.958805
 20
179.192329
 30
0.0
 11
385.458805
 21
181.692329
 31
0.0
  0
LINE
  8
LC-002-005-----0
  6
CONTINUOUS
  5
500
 10
366.745123
 20
200.406011
 30
0.0
 11
365.887014
 21
201.26412
 31
0.0
  0
LINE
  8
LC-002-005-----0
  6
CONTINUOUS
  5
501
 10
361.458805
 20
205.692329
 30
0.0
 11
358.689361
 21
208.461773
 31
0.0
  0
LINE
  8
LC-002-005-----0
  6
CONTINUOUS
  5
502
 10
387.958805
 20
176.363902
 30
0.0
 11
385.458805
 21
178.863902
 31
0.0
  0
ARC
  8
LC-001-002-----0
  6
CONTINUOUS
  5
503
 10
326.813171
 20
183.785474
 30
0.0
 40
6.0
 50
196.512636
 51
258.495918
  0
ARC
  8
LC-001-002-----0
  6
CONTINUOUS
  5
504
 10
417.357731
 20
209.043476
 30
0.0
 40
100.0
 50
180.079158
 51
195.642467
  0
LINE
  8
LC-002-005-----0
  6
CONTINUOUS
  5
505
 10
361.458805
 20
202.863902
 30
0.0
 11
356.89621
 21
207.426496
 31
0.0
  0
ARC
  8
LC-007-002-RND-0
  6
CONTINUOUS
  5
506
 10
624.554526
 20
386.95654
 30
0.0
 40
3.0
 50
90.0
 51
180.0
  0
LINE
  8
LC-001-002-----0
  6
CONTINUOUS
  5
507
 10
325.616545
 20
187.906011
 30
0.0
 11
325.616545
 21
177.906011
 31
0.0
  0
ARC
  8
LC-001-002-----0
  6
CONTINUOUS
  5
508
 10
673.554526
 20
386.95654
 30
0.0
 40
3.0
 50
0.0
 51
90.0
  0
ARC
  8
LC-001-002-----0
  6
CONTINUOUS
  5
509
 10
417.357731
 20
241.768546
 30
0.0
 40
98.5
 50
164.34379
 51
179.338341
  0
ARC
  8
LC-007-002-RND-0
  6
CONTINUOUS
  5
50A
 10
317.85774
 20
241.906011
 30
0.0
 40
0.5
 50
179.996015
 51
270.0
  0
LINE
  8
LC-001-002-----0
  6
CONTINUOUS
  5
50B
 10
321.357046
 20
241.406011
 30
0.0
 11
321.357046
 21
242.906011
 31
0.0
  0
ARC
  8
LC-001-002-----0
  6
CONTINUOUS
  5
50C
 10
326.813171
 20
267.026548
 30
0.0
 40
4.5
 50
105.421448
 51
162.893607
  0
LINE
  8
LC-001-002-----0
  6
CONTINUOUS
  5
50D
 10
321.357046
 20
241.406011
 30
0.0
 11
317.85774
 21
241.406011
 31
0.0
  0
LINE
  8
LC-001-002-----0
  6
CONTINUOUS
  5
50E
 10
321.357046
 20
242.906011
 30
0.0
 11
318.859412
 21
242.906011
 31
0.0
  0
ARC
  8
LC-001-002-----0
  6
CONTINUOUS
  5
50F
 10
326.813171
 20
267.026548
 30
0.0
 40
6.0
 50
101.504082
 51
163.487364
  0
ARC
  8
LC-001-002-----0
  6
CONTINUOUS
  5
510
 10
417.357731
 20
241.768546
 30
0.0
 40
100.0
 50
164.357533
 51
179.920842
  0
LINE
  8
LC-001-002-----0
  6
CONTINUOUS
  5
511
 10
670.554526
 20
386.95654
 30
0.0
 11
676.554526
 21
386.95654
 31
0.0
  0
LINE
  8
LC-001-002-----0
  6
CONTINUOUS
  5
512
 10
325.616545
 20
262.906011
 30
0.0
 11
325.616545
 21
272.906011
 31
0.0
  0
ARC
  8
LC-007-002-RND-0
  6
CONTINUOUS
  5
513
 10
649.054526
 20
491.95654
 30
0.0
 40
21.0
 50
0.0
 51
90.0
  0
LINE
  8
LC-001-002-----0
  6
CONTINUOUS
  5
514
 10
628.054526
 20
491.95654
 30
0.0
 11
628.054526
 21
483.45654
 31
0.0
  0
LINE
  8
LC-001-002-----0
  6
CONTINUOUS
  5
515
 10
629.554526
 20
481.95654
 30
0.0
 11
630.054526
 21
481.95654
 31
0.0
  0
ARC
  8
LC-007-002-RND-0
  6
CONTINUOUS
  5
516
 10
649.054526
 20
491.95654
 30
0.0
 40
21.0
 50
90.0
 51
180.0
  0
LINE
  8
LC-001-002-----0
  6
CONTINUOUS
  5
517
 10
670.054526
 20
491.95654
 30
0.0
 11
670.054526
 21
483.45654
 31
0.0
  0
LINE
  8
LC-001-002-----0
  6
CONTINUOUS
  5
518
 10
668.554526
 20
481.95654
 30
0.0
 11
668.054526
 21
481.95654
 31
0.0
  0
LINE
  8
LC-001-002-----0
  6
DASHDOT
 62
     2
  5
519
 10
196.604051
 20
364.811598
 30
0.0
 11
196.604051
 21
355.111598
 31
0.0
  0
LINE
  8
LC-001-002-----0
  6
CONTINUOUS
  5
51A
 10
632.054526
 20
491.95654
 30
0.0
 11
632.054526
 21
489.95654
 31
0.0
  0
ARC
  8
LC-001-002-----0
  6
CONTINUOUS
  5
51B
 10
649.054526
 20
491.95654
 30
0.0
 40
17.0
 50
0.0
 51
180.0
  0
ARC
  8
LC-007-002-RND-0
  6
CONTINUOUS
  5
51C
 10
629.554526
 20
483.45654
 30
0.0
 40
1.5
 50
180.0
 51
270.0
  0
ARC
  8
LC-007-002-RND-0
  6
CONTINUOUS
  5
51D
 10
668.554526
 20
483.45654
 30
0.0
 40
1.5
 50
270.0
 51
0.0
  0
LINE
  8
LC-001-002-----0
  6
CONTINUOUS
  5
51E
 10
666.054526
 20
491.95654
 30
0.0
 11
666.054526
 21
489.95654
 31
0.0
  0
LINE
  8
LC-001-002-----0
  6
CONTINUOUS
  5
51F
 10
630.054526
 20
489.95654
 30
0.0
 11
632.054526
 21
489.95654
 31
0.0
  0
LINE
  8
LC-001-002-----0
  6
CONTINUOUS
  5
520
 10
668.054526
 20
481.95654
 30
0.0
 11
668.054526
 21
489.95654
 31
0.0
  0
LINE
  8
LC-001-002-----0
  6
CONTINUOUS
  5
521
 10
668.054526
 20
489.95654
 30
0.0
 11
666.054526
 21
489.95654
 31
0.0
  0
ARC
  8
LC-001-002-----0
  6
CONTINUOUS
  5
522
 10
619.750941
 20
379.170752
 30
0.0
 40
3.0
 50
90.0
 51
198.393312
  0
ARC
  8
LC-001-002-----0
  6
CONTINUOUS
  5
523
 10
678.35811
 20
379.170752
 30
0.0
 40
3.0
 50
341.606688
 51
90.0
  0
LINE
  8
LC-002-005-----0
  6
CONTINUOUS
  5
524
 10
387.958805
 20
173.535475
 30
0.0
 11
385.458805
 21
176.035475
 31
0.0
  0
LINE
  8
LC-002-005-----0
  6
CONTINUOUS
  5
525
 10
360.349585
 20
201.144695
 30
0.0
 11
356.458805
 21
205.035475
 31
0.0
  0
LINE
  8
LC-002-005-----0
  6
CONTINUOUS
  5
526
 10
387.958805
 20
170.707048
 30
0.0
 11
385.458805
 21
173.207048
 31
0.0
  0
LINE
  8
LC-002-005-----0
  6
CONTINUOUS
  5
527
 10
359.458805
 20
199.207048
 30
0.0
 11
356.458805
 21
202.207048
 31
0.0
  0
LINE
  8
LC-002-005-----0
  6
CONTINUOUS
  5
528
 10
387.958805
 20
167.878621
 30
0.0
 11
385.458805
 21
170.378621
 31
0.0
  0
LINE
  8
LC-002-005-----0
  6
CONTINUOUS
  5
529
 10
358.931414
 20
196.906011
 30
0.0
 11
356.458805
 21
199.378621
 31
0.0
  0
LINE
  8
LC-002-005-----0
  6
CONTINUOUS
  5
52A
 10
387.958805
 20
165.050194
 30
0.0
 11
385.458805
 21
167.550194
 31
0.0
  0
LINE
  8
LC-002-005-----0
  6
CONTINUOUS
  5
52B
 10
387.958805
 20
162.221766
 30
0.0
 11
385.458805
 21
164.721766
 31
0.0
  0
LINE
  8
LC-002-005-----0
  6
CONTINUOUS
  5
52C
 10
387.958805
 20
159.393339
 30
0.0
 11
385.458805
 21
161.893339
 31
0.0
  0
LINE
  8
LC-002-005-----0
  6
CONTINUOUS
  5
52D
 10
387.958805
 20
156.564912
 30
0.0
 11
385.458805
 21
159.064912
 31
0.0
  0
LINE
  8
LC-002-005-----0
  6
CONTINUOUS
  5
52E
 10
387.958805
 20
153.736485
 30
0.0
 11
385.458805
 21
156.236485
 31
0.0
  0
LINE
  8
LC-002-005-----0
  6
CONTINUOUS
  5
52F
 10
387.958805
 20
150.908058
 30
0.0
 11
385.458805
 21
153.408058
 31
0.0
  0
LINE
  8
LC-002-005-----0
  6
CONTINUOUS
  5
530
 10
387.958805
 20
148.079631
 30
0.0
 11
385.458805
 21
150.579631
 31
0.0
  0
LINE
  8
LC-001-002-----0
  6
DASHED
 62
     2
  5
531
 10
646.591834
 20
147.226011
 30
0.0
 11
679.085486
 21
147.226011
 31
0.0
  0
LINE
  8
LC-001-002-----0
  6
CONTINUOUS
  5
532
 10
613.054526
 20
378.224138
 30
0.0
 11
681.554526
 21
378.224138
 31
0.0
  0
CIRCLE
  8
LC-001-002-----0
  6
DASHED
 62
     2
  5
533
 10
649.054526
 20
225.342134
 30
0.0
 40
24.75
  0
LINE
  8
LC-002-005-----0
  6
CONTINUOUS
  5
534
 10
416.589502
 20
232.586019
 30
0.0
 11
407.49104
 21
241.68448
 31
0.0
  0
LINE
  8
LC-002-005-----0
  6
CONTINUOUS
  5
535
 10
417.39333
 20
228.953763
 30
0.0
 11
403.558951
 21
242.788142
 31
0.0
  0
LINE
  8
LC-002-005-----0
  6
CONTINUOUS
  5
536
 10
417.458805
 20
226.059862
 30
0.0
 11
414.39234
 21
229.126327
 31
0.0
  0
LINE
  8
LC-002-005-----0
  6
CONTINUOUS
  5
537
 10
406.179121
 20
237.339546
 30
0.0
 11
399.695248
 21
243.823418
 31
0.0
  0
LINE
  8
LC-002-005-----0
  6
CONTINUOUS
  5
538
 10
417.458805
 20
223.231434
 30
0.0
 11
414.954454
 21
225.735785
 31
0.0
  0
LINE
  8
LC-002-005-----0
  6
CONTINUOUS
  5
539
 10
402.788579
 20
237.90166
 30
0.0
 11
395.831545
 21
244.858695
 31
0.0
  0
LINE
  8
LC-002-005-----0
  6
CONTINUOUS
  5
53A
 10
417.458805
 20
220.403007
 30
0.0
 11
414.958805
 21
222.903007
 31
0.0
  0
LINE
  8
LC-002-005-----0
  6
CONTINUOUS
  5
53B
 10
399.955801
 20
237.906011
 30
0.0
 11
391.967841
 21
245.893971
 31
0.0
  0
LINE
  8
LC-002-005-----0
  6
CONTINUOUS
  5
53C
 10
417.458805
 20
217.57458
 30
0.0
 11
414.958805
 21
220.07458
 31
0.0
  0
LINE
  8
LC-002-005-----0
  6
CONTINUOUS
  5
53D
 10
397.127374
 20
237.906011
 30
0.0
 11
388.104138
 21
246.929247
 31
0.0
  0
LINE
  8
LC-002-005-----0
  6
CONTINUOUS
  5
53E
 10
417.458805
 20
214.746153
 30
0.0
 11
414.958805
 21
217.246153
 31
0.0
  0
LINE
  8
LC-002-005-----0
  6
CONTINUOUS
  5
53F
 10
394.298947
 20
237.906011
 30
0.0
 11
384.458805
 21
247.746153
 31
0.0
  0
LINE
  8
LC-002-005-----0
  6
CONTINUOUS
  5
540
 10
417.458805
 20
211.917726
 30
0.0
 11
414.958805
 21
214.417726
 31
0.0
  0
LINE
  8
LC-002-005-----0
  6
CONTINUOUS
  5
541
 10
391.47052
 20
237.906011
 30
0.0
 11
387.958805
 21
241.417726
 31
0.0
  0
LINE
  8
LC-002-005-----0
  6
CONTINUOUS
  5
542
 10
387.47052
 20
241.906011
 30
0.0
 11
384.458805
 21
244.917726
 31
0.0
  0
LINE
  8
LC-002-005-----0
  6
CONTINUOUS
  5
543
 10
417.458805
 20
209.089299
 30
0.0
 11
414.958805
 21
211.589299
 31
0.0
  0
LINE
  8
LC-002-005-----0
  6
CONTINUOUS
  5
544
 10
388.642093
 20
237.906011
 30
0.0
 11
387.958805
 21
238.589299
 31
0.0
  0
LINE
  8
LC-002-005-----0
  6
CONTINUOUS
  5
545
 10
384.642093
 20
241.906011
 30
0.0
 11
382.142093
 21
244.406011
 31
0.0
  0
LINE
  8
LC-002-005-----0
  6
CONTINUOUS
  5
546
 10
377.848832
 20
248.699271
 30
0.0
 11
376.247819
 21
250.300285
 31
0.0
  0
LINE
  8
LC-002-005-----0
  6
CONTINUOUS
  5
547
 10
417.458805
 20
206.260872
 30
0.0
 11
414.958805
 21
208.760872
 31
0.0
  0
LINE
  8
LC-002-005-----0
  6
CONTINUOUS
  5
548
 10
381.813665
 20
241.906011
 30
0.0
 11
375.419221
 21
248.300455
 31
0.0
  0
LINE
  8
LC-002-005-----0
  6
CONTINUOUS
  5
549
 10
417.458805
 20
203.432445
 30
0.0
 11
414.958805
 21
205.932445
 31
0.0
  0
LINE
  8
LC-002-005-----0
  6
CONTINUOUS
  5
54A
 10
378.985238
 20
241.906011
 30
0.0
 11
374.647832
 21
246.243417
 31
0.0
  0
LINE
  8
LC-002-005-----0
  6
CONTINUOUS
  5
54B
 10
417.458805
 20
200.604017
 30
0.0
 11
414.958805
 21
203.104017
 31
0.0
  0
LINE
  8
LC-002-005-----0
  6
CONTINUOUS
  5
54C
 10
376.156811
 20
241.906011
 30
0.0
 11
373.656811
 21
244.406011
 31
0.0
  0
LINE
  8
LC-002-005-----0
  6
CONTINUOUS
  5
54D
 10
417.458805
 20
197.77559
 30
0.0
 11
414.958805
 21
200.27559
 31
0.0
  0
LINE
  8
LC-002-005-----0
  6
CONTINUOUS
  5
54E
 10
373.328384
 20
241.906011
 30
0.0
 11
370.828384
 21
244.406011
 31
0.0
  0
LINE
  8
LC-002-005-----0
  6
CONTINUOUS
  5
54F
 10
368.637057
 20
246.597338
 30
0.0
 11
365.832326
 21
249.402069
 31
0.0
  0
LINE
  8
LC-002-005-----0
  6
CONTINUOUS
  5
550
 10
417.458805
 20
194.947163
 30
0.0
 11
414.958805
 21
197.447163
 31
0.0
  0
LINE
  8
LC-002-005-----0
  6
CONTINUOUS
  5
551
 10
370.499957
 20
241.906011
 30
0.0
 11
365.060937
 21
247.345031
 31
0.0
  0
LINE
  8
LC-002-005-----0
  6
CONTINUOUS
  5
552
 10
417.458805
 20
192.118736
 30
0.0
 11
414.958805
 21
194.618736
 31
0.0
  0
LINE
  8
LC-002-005-----0
  6
CONTINUOUS
  5
553
 10
367.67153
 20
241.906011
 30
0.0
 11
364.289548
 21
245.287993
 31
0.0
  0
LINE
  8
LC-002-005-----0
  6
CONTINUOUS
  5
554
 10
361.458805
 20
248.118736
 30
0.0
 11
359.749393
 21
249.828148
 31
0.0
  0
LINE
  8
LC-002-005-----0
  6
CONTINUOUS
  5
555
 10
417.458805
 20
189.290309
 30
0.0
 11
414.958805
 21
191.790309
 31
0.0
  0
LINE
  8
LC-002-005-----0
  6
CONTINUOUS
  5
556
 10
364.843103
 20
241.906011
 30
0.0
 11
362.343103
 21
244.406011
 31
0.0
  0
LINE
  8
LC-002-005-----0
  6
CONTINUOUS
  5
557
 10
361.458805
 20
245.290309
 30
0.0
 11
359.458805
 21
247.290309
 31
0.0
  0
LINE
  8
LC-002-005-----0
  6
CONTINUOUS
  5
558
 10
417.458805
 20
186.461882
 30
0.0
 11
414.958805
 21
188.961882
 31
0.0
  0
LINE
  8
LC-002-005-----0
  6
CONTINUOUS
  5
559
 10
362.014676
 20
241.906011
 30
0.0
 11
359.458805
 21
244.461882
 31
0.0
  0
LINE
  8
LC-002-005-----0
  6
CONTINUOUS
  5
55A
 10
417.458805
 20
183.633455
 30
0.0
 11
414.958805
 21
186.133455
 31
0.0
  0
LINE
  8
LC-002-005-----0
  6
CONTINUOUS
  5
55B
 10
417.458805
 20
180.805028
 30
0.0
 11
414.958805
 21
183.305028
 31
0.0
  0
LINE
  8
LC-002-005-----0
  6
CONTINUOUS
  5
55C
 10
417.458805
 20
177.9766
 30
0.0
 11
414.958805
 21
180.4766
 31
0.0
  0
LINE
  8
LC-002-005-----0
  6
CONTINUOUS
  5
55D
 10
417.458805
 20
175.148173
 30
0.0
 11
414.958805
 21
177.648173
 31
0.0
  0
LINE
  8
LC-002-005-----0
  6
CONTINUOUS
  5
55E
 10
417.458805
 20
172.319746
 30
0.0
 11
414.958805
 21
174.819746
 31
0.0
  0
LINE
  8
LC-002-005-----0
  6
CONTINUOUS
  5
55F
 10
417.458805
 20
169.491319
 30
0.0
 11
414.958805
 21
171.991319
 31
0.0
  0
LINE
  8
LC-002-005-----0
  6
CONTINUOUS
  5
560
 10
417.458805
 20
166.662892
 30
0.0
 11
414.958805
 21
169.162892
 31
0.0
  0
LINE
  8
LC-002-005-----0
  6
CONTINUOUS
  5
561
 10
417.458805
 20
163.834465
 30
0.0
 11
414.958805
 21
166.334465
 31
0.0
  0
LINE
  8
LC-002-005-----0
  6
CONTINUOUS
  5
562
 10
417.458805
 20
161.006038
 30
0.0
 11
414.958805
 21
163.506038
 31
0.0
  0
LINE
  8
LC-002-005-----0
  6
CONTINUOUS
  5
563
 10
417.458805
 20
158.177611
 30
0.0
 11
414.958805
 21
160.677611
 31
0.0
  0
LINE
  8
LC-002-005-----0
  6
CONTINUOUS
  5
564
 10
417.458805
 20
155.349183
 30
0.0
 11
414.958805
 21
157.849183
 31
0.0
  0
LINE
  8
LC-002-005-----0
  6
CONTINUOUS
  5
565
 10
417.458805
 20
152.520756
 30
0.0
 11
414.958805
 21
155.020756
 31
0.0
  0
LINE
  8
LC-002-005-----0
  6
CONTINUOUS
  5
566
 10
417.458805
 20
149.692329
 30
0.0
 11
414.958805
 21
152.192329
 31
0.0
  0
LINE
  8
LC-001-002-----0
  6
DASHED
 62
     2
  5
567
 10
624.365712
 20
227.081389
 30
0.0
 11
619.063666
 21
226.146495
 31
0.0
  0
LINE
  8
LC-001-002-----0
  6
DASHED
 62
     2
  5
568
 10
626.449491
 20
215.263696
 30
0.0
 11
621.172735
 21
214.333262
 31
0.0
  0
LINE
  8
LC-001-002-----0
  6
CONTINUOUS
  5
569
 10
214.604051
 20
258.350183
 30
0.0
 11
214.604051
 21
241.350183
 31
0.0
  0
LINE
  8
LC-001-002-----0
  6
CONTINUOUS
  5
56A
 10
685.054526
 20
378.224138
 30
0.0
 11
685.054526
 21
376.224138
 31
0.0
  0
LINE
  8
LC-001-002-----0
  6
CONTINUOUS
  5
56B
 10
613.054526
 20
378.224138
 30
0.0
 11
613.054526
 21
376.224138
 31
0.0
  0
LINE
  8
LC-001-002-----0
  6
CONTINUOUS
  5
56C
 10
616.054526
 20
373.224138
 30
0.0
 11
677.554526
 21
373.224138
 31
0.0
  0
LINE
  8
LC-001-002-----0
  6
CONTINUOUS
  5
56D
 10
178.604051
 20
258.350183
 30
0.0
 11
178.604051
 21
241.350183
 31
0.0
  0
LINE
  8
LC-001-002-----0
  6
CONTINUOUS
  5
56E
 10
387.958805
 20
240.468189
 30
0.0
 11
387.958805
 21
210.343833
 31
0.0
  0
LINE
  8
LC-001-002-----0
  6
CONTINUOUS
  5
56F
 10
210.604051
 20
211.350183
 30
0.0
 11
260.852008
 21
211.350183
 31
0.0
  0
LINE
  8
LC-001-002-----0
  6
CONTINUOUS
  5
570
 10
212.604051
 20
239.350183
 30
0.0
 11
260.852008
 21
239.350183
 31
0.0
  0
LINE
  8
LC-001-002-----0
  6
CONTINUOUS
  5
571
 10
384.458805
 20
241.406011
 30
0.0
 11
387.958805
 21
240.468189
 31
0.0
  0
LINE
  8
LC-001-002-----0
  6
CONTINUOUS
  5
572
 10
384.458805
 20
209.406011
 30
0.0
 11
387.958805
 21
210.343833
 31
0.0
  0
LINE
  8
LC-001-002-----0
  6
CONTINUOUS
  5
573
 10
178.928945
 20
271.850183
 30
0.0
 11
180.604051
 21
271.850183
 31
0.0
  0
LINE
  8
LC-001-002-----0
  6
CONTINUOUS
  5
574
 10
178.604051
 20
268.350183
 30
0.0
 11
179.546089
 21
268.350183
 31
0.0
  0
LINE
  8
LC-001-002-----0
  6
CONTINUOUS
  5
575
 10
217.104051
 20
265.850183
 30
0.0
 11
217.104051
 21
260.850183
 31
0.0
  0
LINE
  8
LC-001-002-----0
  6
CONTINUOUS
  5
576
 10
176.104051
 20
265.850183
 30
0.0
 11
176.104051
 21
260.850183
 31
0.0
  0
LINE
  8
LC-001-002-----0
  6
CONTINUOUS
  5
577
 10
180.604051
 20
268.350183
 30
0.0
 11
180.604051
 21
268.350183
 31
0.0
  0
LINE
  8
LC-001-002-----0
  6
CONTINUOUS
  5
578
 10
212.604051
 20
268.350183
 30
0.0
 11
212.604051
 21
268.350183
 31
0.0
  0
ARC
  8
LC-007-002-RND-0
  6
CONTINUOUS
  5
579
 10
210.604051
 20
241.350183
 30
0.0
 40
32.0
 50
180.0
 51
270.0
  0
ARC
  8
LC-007-002-RND-0
  6
CONTINUOUS
  5
57A
 10
210.604051
 20
241.350183
 30
0.0
 40
30.0
 50
180.0
 51
270.0
  0
LINE
  8
LC-001-002-----0
  6
CONTINUOUS
  5
57B
 10
178.604051
 20
258.350183
 30
0.0
 11
176.104051
 21
260.850183
 31
0.0
  0
LINE
  8
LC-001-002-----0
  6
CONTINUOUS
  5
57C
 10
214.604051
 20
258.350183
 30
0.0
 11
217.104051
 21
260.850183
 31
0.0
  0
LINE
  8
LC-001-002-----0
  6
CONTINUOUS
  5
57D
 10
214.604051
 20
268.350183
 30
0.0
 11
217.104051
 21
265.850183
 31
0.0
  0
LINE
  8
LC-001-002-----0
  6
CONTINUOUS
  5
57E
 10
180.604051
 20
244.350183
 30
0.0
 11
182.104051
 21
244.350183
 31
0.0
  0
LINE
  8
LC-001-002-----0
  6
CONTINUOUS
  5
57F
 10
178.928945
 20
272.850183
 30
0.0
 11
180.604051
 21
272.850183
 31
0.0
  0
LINE
  8
LC-001-002-----0
  6
CONTINUOUS
  5
580
 10
180.604051
 20
262.350183
 30
0.0
 11
178.928945
 21
271.850183
 31
0.0
  0
LINE
  8
LC-001-002-----0
  6
CONTINUOUS
  5
581
 10
212.604051
 20
262.350183
 30
0.0
 11
214.279157
 21
271.850183
 31
0.0
  0
LINE
  8
LC-001-002-----0
  6
CONTINUOUS
  5
582
 10
180.604051
 20
262.350183
 30
0.0
 11
180.604051
 21
241.350183
 31
0.0
  0
LINE
  8
LC-001-002-----0
  6
CONTINUOUS
  5
583
 10
212.604051
 20
262.350183
 30
0.0
 11
212.604051
 21
239.350183
 31
0.0
  0
LINE
  8
LC-001-002-----0
  6
CONTINUOUS
  5
584
 10
213.662013
 20
268.350183
 30
0.0
 11
214.604051
 21
268.350183
 31
0.0
  0
LINE
  8
LC-001-002-----0
  6
CONTINUOUS
  5
585
 10
180.604051
 20
262.350183
 30
0.0
 11
180.604051
 21
271.850183
 31
0.0
  0
LINE
  8
LC-001-002-----0
  6
CONTINUOUS
  5
586
 10
212.604051
 20
262.350183
 30
0.0
 11
212.604051
 21
271.850183
 31
0.0
  0
LINE
  8
LC-001-002-----0
  6
CONTINUOUS
  5
587
 10
178.928945
 20
272.350183
 30
0.0
 11
180.604051
 21
272.350183
 31
0.0
  0
LINE
  8
LC-001-002-----0
  6
CONTINUOUS
  5
588
 10
212.604051
 20
272.850183
 30
0.0
 11
214.279157
 21
272.850183
 31
0.0
  0
LINE
  8
LC-001-002-----0
  6
CONTINUOUS
  5
589
 10
178.928945
 20
272.850183
 30
0.0
 11
178.928945
 21
272.350183
 31
0.0
  0
LINE
  8
LC-001-002-----0
  6
CONTINUOUS
  5
58A
 10
214.279157
 20
272.850183
 30
0.0
 11
214.279157
 21
272.350183
 31
0.0
  0
LINE
  8
LC-001-002-----0
  6
CONTINUOUS
  5
58B
 10
212.604051
 20
272.350183
 30
0.0
 11
212.604051
 21
272.850183
 31
0.0
  0
LINE
  8
LC-001-002-----0
  6
CONTINUOUS
  5
58C
 10
180.604051
 20
272.350183
 30
0.0
 11
180.604051
 21
272.850183
 31
0.0
  0
LINE
  8
LC-001-002-----0
  6
CONTINUOUS
  5
58D
 10
180.604051
 20
241.350183
 30
0.0
 11
182.104051
 21
241.350183
 31
0.0
  0
LINE
  8
LC-001-002-----0
  6
CONTINUOUS
  5
58E
 10
182.104051
 20
244.350183
 30
0.0
 11
182.104051
 21
241.350183
 31
0.0
  0
LINE
  8
LC-001-002-----0
  6
CONTINUOUS
  5
58F
 10
212.604051
 20
271.850183
 30
0.0
 11
214.279157
 21
271.850183
 31
0.0
  0
LINE
  8
LC-001-002-----0
  6
CONTINUOUS
  5
590
 10
212.604051
 20
262.350183
 30
0.0
 11
212.604051
 21
262.350183
 31
0.0
  0
LINE
  8
LC-001-002-----0
  6
CONTINUOUS
  5
591
 10
212.604051
 20
272.350183
 30
0.0
 11
214.279157
 21
272.350183
 31
0.0
  0
LINE
  8
LC-001-002-----0
  6
CONTINUOUS
  5
592
 10
212.354051
 20
338.962099
 30
0.0
 11
212.354051
 21
309.748875
 31
0.0
  0
LINE
  8
LC-001-002-----0
  6
CONTINUOUS
  5
593
 10
180.854051
 20
338.962099
 30
0.0
 11
180.854051
 21
309.748875
 31
0.0
  0
LINE
  8
LC-001-002-----0
  6
CONTINUOUS
  5
594
 10
180.854051
 20
244.976817
 30
0.0
 11
212.354051
 21
244.976817
 31
0.0
  0
LINE
  8
LC-001-002-----0
  6
CONTINUOUS
  5
595
 10
212.354051
 20
225.350183
 30
0.0
 11
212.354051
 21
225.350183
 31
0.0
  0
ARC
  8
LC-007-002-RND-0
  6
CONTINUOUS
  5
596
 10
210.604051
 20
241.350183
 30
0.0
 40
30.0
 50
180.0
 51
270.0
  0
LINE
  8
LC-001-002-----0
  6
CONTINUOUS
  5
597
 10
177.354051
 20
341.462099
 30
0.0
 11
199.604051
 21
341.462099
 31
0.0
  0
LINE
  8
LC-001-002-----0
  6
CONTINUOUS
  5
598
 10
177.354051
 20
338.962099
 30
0.0
 11
180.854051
 21
338.962099
 31
0.0
  0
LINE
  8
LC-001-002-----0
  6
CONTINUOUS
  5
599
 10
215.854051
 20
341.462099
 30
0.0
 11
215.854051
 21
338.962099
 31
0.0
  0
LINE
  8
LC-001-002-----0
  6
CONTINUOUS
  5
59A
 10
177.354051
 20
341.462099
 30
0.0
 11
177.354051
 21
338.962099
 31
0.0
  0
LINE
  8
LC-001-002-----0
  6
CONTINUOUS
  5
59B
 10
212.354051
 20
338.962099
 30
0.0
 11
215.854051
 21
338.962099
 31
0.0
  0
LINE
  8
LC-001-002-----0
  6
CONTINUOUS
  5
59C
 10
182.854051
 20
341.462099
 30
0.0
 11
182.854051
 21
309.748875
 31
0.0
  0
LINE
  8
LC-001-002-----0
  6
CONTINUOUS
  5
59D
 10
210.354051
 20
341.462099
 30
0.0
 11
210.354051
 21
309.748875
 31
0.0
  0
LINE
  8
LC-001-002-----0
  6
CONTINUOUS
  5
59E
 10
178.604051
 20
268.350183
 30
0.0
 11
176.104051
 21
265.850183
 31
0.0
  0
ARC
  8
LC-007-002-RND-0
  6
DASHDOT
 62
     2
  5
59F
 10
210.604051
 20
239.350183
 30
0.0
 40
14.0
 50
180.0
 51
270.0
  0
LINE
  8
LC-001-002-----0
  6
CONTINUOUS
 62
     2
  5
5A0
 10
178.604051
 20
258.350183
 30
0.0
 11
178.604051
 21
268.350183
 31
0.0
  0
LINE
  8
LC-001-002-----0
  6
CONTINUOUS
 62
     2
  5
5A1
 10
214.604051
 20
258.350183
 30
0.0
 11
214.604051
 21
268.350183
 31
0.0
  0
LINE
  8
LC-001-002-----0
  6
CONTINUOUS
  5
5A2
 10
180.438686
 20
273.350183
 30
0.0
 11
180.438686
 21
274.850183
 31
0.0
  0
LINE
  8
LC-001-002-----0
  6
CONTINUOUS
  5
5A3
 10
173.604051
 20
274.850183
 30
0.0
 11
173.604051
 21
263.850183
 31
0.0
  0
ARC
  8
LC-007-002-RND-0
  6
CONTINUOUS
  5
5A4
 10
177.438686
 20
274.850183
 30
0.0
 40
3.0
 50
0.0
 51
90.0
  0
LINE
  8
LC-001-002-----0
  6
CONTINUOUS
  5
5A5
 10
171.604051
 20
263.850183
 30
0.0
 11
171.604051
 21
261.350183
 31
0.0
  0
LINE
  8
LC-001-002-----0
  6
CONTINUOUS
  5
5A6
 10
175.604051
 20
261.350183
 30
0.0
 11
171.604051
 21
261.350183
 31
0.0
  0
LINE
  8
LC-001-002-----0
  6
CONTINUOUS
  5
5A7
 10
177.438686
 20
277.850183
 30
0.0
 11
176.604051
 21
277.850183
 31
0.0
  0
LINE
  8
LC-001-002-----0
  6
CONTINUOUS
  5
5A8
 10
173.604051
 20
263.850183
 30
0.0
 11
171.604051
 21
263.850183
 31
0.0
  0
LINE
  8
LC-001-002-----0
  6
CONTINUOUS
  5
5A9
 10
175.604051
 20
273.350183
 30
0.0
 11
175.604051
 21
261.350183
 31
0.0
  0
ARC
  8
LC-007-002-RND-0
  6
CONTINUOUS
  5
5AA
 10
176.604051
 20
274.850183
 30
0.0
 40
3.0
 50
90.0
 51
180.0
  0
LINE
  8
LC-001-002-----0
  6
CONTINUOUS
  5
5AB
 10
670.104526
 20
127.669396
 30
0.0
 11
670.104526
 21
109.213602
 31
0.0
  0
ARC
  8
LC-007-002-RND-0
  6
CONTINUOUS
  5
5AC
 10
672.104526
 20
127.669396
 30
0.0
 40
2.0
 50
90.0
 51
180.0
  0
LINE
  8
LC-001-002-----0
  6
CONTINUOUS
  5
5AD
 10
631.508099
 20
109.213602
 30
0.0
 11
670.104526
 21
109.213602
 31
0.0
  0
LINE
  8
LC-001-002-----0
  6
CONTINUOUS
  5
5AE
 10
180.438686
 20
273.350183
 30
0.0
 11
175.604051
 21
273.350183
 31
0.0
  0
LINE
  8
LC-001-002-----0
  6
CONTINUOUS
  5
5AF
 10
175.604051
 20
273.350183
 30
0.0
 11
178.115508
 21
270.838727
 31
0.0
  0
LINE
  8
LC-001-002-----0
  6
CONTINUOUS
  5
5B0
 10
597.87206
 20
183.145244
 30
0.0
 11
607.331069
 21
129.500539
 31
0.0
  0
LINE
  8
LC-001-002-----0
  6
CONTINUOUS
  5
5B1
 10
674.743622
 20
129.669396
 30
0.0
 11
672.104526
 21
129.669396
 31
0.0
  0
ARC
  8
LC-007-002-RND-0
  6
CONTINUOUS
  5
5B2
 10
674.743622
 20
147.669396
 30
0.0
 40
18.0
 50
270.0
 51
10.0
  0
ARC
  8
LC-001-002-----0
  6
CONTINUOUS
  5
5B3
 10
631.508099
 20
133.763602
 30
0.0
 40
24.55
 50
190.0
 51
270.0
  0
LINE
  8
LC-001-002-----0
  6
CONTINUOUS
  5
5B4
 10
178.115508
 20
270.838727
 30
0.0
 11
178.115508
 21
267.86164
 31
0.0
  0
LINE
  8
LC-001-002-----0
  6
CONTINUOUS
  5
5B5
 10
175.604051
 20
261.350183
 30
0.0
 11
176.104051
 21
261.850183
 31
0.0
  0
LINE
  8
LC-001-002-----0
  6
CONTINUOUS
  5
5B6
 10
171.604051
 20
263.850183
 30
0.0
 11
171.604051
 21
272.850183
 31
0.0
  0
LINE
  8
LC-001-002-----0
  6
CONTINUOUS
  5
5B7
 10
173.604051
 20
274.850183
 30
0.0
 11
173.604051
 21
274.850183
 31
0.0
  0
LINE
  8
LC-001-002-----0
  6
CONTINUOUS
  5
5B8
 10
677.554526
 20
373.224138
 30
0.0
 11
677.554526
 21
364.724138
 31
0.0
  0
LINE
  8
LC-001-002-----0
  6
CONTINUOUS
  5
5B9
 10
620.554526
 20
373.224138
 30
0.0
 11
620.554526
 21
364.724138
 31
0.0
  0
ARC
  8
LC-001-002-----0
  6
CONTINUOUS
  5
5BA
 10
657.654777
 20
195.410292
 30
0.0
 40
61.0
 50
156.154986
 51
191.594677
  0
LINE
  8
LC-001-002-----0
  6
CONTINUOUS
  5
5BB
 10
597.871925
 20
183.146009
 30
0.0
 11
607.331069
 21
129.500539
 31
0.0
  0
LINE
  8
LC-001-002-----0
  6
CONTINUOUS
  5
5BC
 10
173.604051
 20
274.850183
 30
0.0
 11
171.604051
 21
272.850183
 31
0.0
  0
LINE
  8
LC-001-002-----0
  6
CONTINUOUS
  5
5BD
 10
217.604051
 20
261.350183
 30
0.0
 11
221.604051
 21
261.350183
 31
0.0
  0
LINE
  8
LC-001-002-----0
  6
CONTINUOUS
  5
5BE
 10
221.604051
 20
263.850183
 30
0.0
 11
221.604051
 21
261.350183
 31
0.0
  0
LINE
  8
LC-001-002-----0
  6
CONTINUOUS
  5
5BF
 10
221.604051
 20
263.850183
 30
0.0
 11
221.604051
 21
272.850183
 31
0.0
  0
LINE
  8
LC-001-002-----0
  6
CONTINUOUS
  5
5C0
 10
219.604051
 20
274.850183
 30
0.0
 11
219.604051
 21
263.850183
 31
0.0
  0
LINE
  8
LC-001-002-----0
  6
CONTINUOUS
  5
5C1
 10
219.604051
 20
263.850183
 30
0.0
 11
221.604051
 21
263.850183
 31
0.0
  0
LINE
  8
LC-001-002-----0
  6
CONTINUOUS
  5
5C2
 10
219.604051
 20
274.850183
 30
0.0
 11
221.604051
 21
272.850183
 31
0.0
  0
ARC
  8
LC-007-002-RND-0
  6
CONTINUOUS
  5
5C3
 10
216.604051
 20
274.850183
 30
0.0
 40
3.0
 50
0.0
 51
90.0
  0
LINE
  8
LC-001-002-----0
  6
CONTINUOUS
  5
5C4
 10
215.769416
 20
277.850183
 30
0.0
 11
216.604051
 21
277.850183
 31
0.0
  0
ARC
  8
LC-007-002-RND-0
  6
CONTINUOUS
  5
5C5
 10
215.769416
 20
274.850183
 30
0.0
 40
3.0
 50
90.0
 51
180.0
  0
LINE
  8
LC-001-002-----0
  6
CONTINUOUS
  5
5C6
 10
217.604051
 20
273.350183
 30
0.0
 11
217.604051
 21
261.350183
 31
0.0
  0
LINE
  8
LC-001-002-----0
  6
CONTINUOUS
  5
5C7
 10
217.604051
 20
273.350183
 30
0.0
 11
215.092594
 21
270.838727
 31
0.0
  0
LINE
  8
LC-001-002-----0
  6
CONTINUOUS
  5
5C8
 10
215.092594
 20
270.838727
 30
0.0
 11
215.092594
 21
267.86164
 31
0.0
  0
LINE
  8
LC-001-002-----0
  6
CONTINUOUS
  5
5C9
 10
212.769416
 20
273.350183
 30
0.0
 11
217.604051
 21
273.350183
 31
0.0
  0
LINE
  8
LC-001-002-----0
  6
CONTINUOUS
  5
5CA
 10
212.769416
 20
273.350183
 30
0.0
 11
212.769416
 21
274.850183
 31
0.0
  0
LINE
  8
LC-001-002-----0
  6
CONTINUOUS
  5
5CB
 10
182.854051
 20
342.111598
 30
0.0
 11
182.854051
 21
341.611598
 31
0.0
  0
LINE
  8
LC-001-002-----0
  6
CONTINUOUS
  5
5CC
 10
210.38658
 20
342.111598
 30
0.0
 11
210.354051
 21
341.611598
 31
0.0
  0
LINE
  8
LC-001-002-----0
  6
CONTINUOUS
  5
5CD
 10
620.554526
 20
364.724138
 30
0.0
 11
624.054526
 21
361.224138
 31
0.0
  0
LINE
  8
LC-001-002-----0
  6
CONTINUOUS
  5
5CE
 10
178.928945
 20
341.611598
 30
0.0
 11
182.854051
 21
341.611598
 31
0.0
  0
LINE
  8
LC-001-002-----0
  6
CONTINUOUS
  5
5CF
 10
178.928945
 20
342.111598
 30
0.0
 11
182.854051
 21
342.111598
 31
0.0
  0
LINE
  8
LC-001-002-----0
  6
CONTINUOUS
  5
5D0
 10
210.354051
 20
341.611598
 30
0.0
 11
214.279157
 21
341.611598
 31
0.0
  0
LINE
  8
LC-001-002-----0
  6
CONTINUOUS
  5
5D1
 10
178.928945
 20
341.611598
 30
0.0
 11
178.928945
 21
342.111598
 31
0.0
  0
LINE
  8
LC-001-002-----0
  6
CONTINUOUS
  5
5D2
 10
214.279157
 20
341.611598
 30
0.0
 11
214.279157
 21
342.111598
 31
0.0
  0
LINE
  8
LC-001-002-----0
  6
CONTINUOUS
  5
5D3
 10
210.38658
 20
342.111598
 30
0.0
 11
214.279157
 21
342.111598
 31
0.0
  0
LINE
  8
LC-001-002-----0
  6
DASHDOT
 62
     2
  5
5D4
 10
177.872488
 20
309.748875
 30
0.0
 11
215.83418
 21
309.748875
 31
0.0
  0
LINE
  8
LC-001-002-----0
  6
CONTINUOUS
  5
5D5
 10
180.463188
 20
338.476095
 30
0.0
 11
180.463188
 21
336.976095
 31
0.0
  0
LINE
  8
LC-001-002-----0
  6
CONTINUOUS
  5
5D6
 10
173.628554
 20
336.976095
 30
0.0
 11
173.628554
 21
347.976095
 31
0.0
  0
ARC
  8
LC-007-002-RND-0
  6
CONTINUOUS
  5
5D7
 10
177.463188
 20
336.976095
 30
0.0
 40
3.0
 50
270.0
 51
0.0
  0
LINE
  8
LC-001-002-----0
  6
CONTINUOUS
  5
5D8
 10
171.628554
 20
347.976095
 30
0.0
 11
171.628554
 21
350.476095
 31
0.0
  0
LINE
  8
LC-001-002-----0
  6
CONTINUOUS
  5
5D9
 10
674.054526
 20
361.224138
 30
0.0
 11
677.554526
 21
364.724138
 31
0.0
  0
LINE
  8
LC-001-002-----0
  6
CONTINUOUS
  5
5DA
 10
177.463188
 20
333.976095
 30
0.0
 11
176.628554
 21
333.976095
 31
0.0
  0
LINE
  8
LC-001-002-----0
  6
CONTINUOUS
  5
5DB
 10
173.628554
 20
347.976095
 30
0.0
 11
171.628554
 21
347.976095
 31
0.0
  0
LINE
  8
LC-001-002-----0
  6
CONTINUOUS
  5
5DC
 10
175.628554
 20
338.476095
 30
0.0
 11
175.628554
 21
350.505774
 31
0.0
  0
ARC
  8
LC-007-002-RND-0
  6
CONTINUOUS
  5
5DD
 10
176.628554
 20
336.976095
 30
0.0
 40
3.0
 50
180.0
 51
270.0
  0
LINE
  8
LC-001-002-----0
  6
CONTINUOUS
  5
5DE
 10
180.463188
 20
338.476095
 30
0.0
 11
175.628554
 21
338.476095
 31
0.0
  0
LINE
  8
LC-001-002-----0
  6
CONTINUOUS
  5
5DF
 10
175.628554
 20
338.476095
 30
0.0
 11
177.354051
 21
340.201592
 31
0.0
  0
LINE
  8
LC-001-002-----0
  6
CONTINUOUS
  5
5E0
 10
171.628554
 20
347.976095
 30
0.0
 11
171.628554
 21
338.976095
 31
0.0
  0
LINE
  8
LC-001-002-----0
  6
CONTINUOUS
  5
5E1
 10
173.628554
 20
336.976095
 30
0.0
 11
171.628554
 21
338.976095
 31
0.0
  0
LINE
  8
LC-001-002-----0
  6
CONTINUOUS
  5
5E2
 10
217.628554
 20
350.476095
 30
0.0
 11
221.628554
 21
350.476095
 31
0.0
  0
LINE
  8
LC-001-002-----0
  6
CONTINUOUS
  5
5E3
 10
221.628554
 20
347.976095
 30
0.0
 11
221.628554
 21
350.476095
 31
0.0
  0
LINE
  8
LC-001-002-----0
  6
CONTINUOUS
  5
5E4
 10
221.628554
 20
347.976095
 30
0.0
 11
221.628554
 21
338.976095
 31
0.0
  0
LINE
  8
LC-001-002-----0
  6
CONTINUOUS
  5
5E5
 10
219.628554
 20
336.976095
 30
0.0
 11
219.628554
 21
347.976095
 31
0.0
  0
LINE
  8
LC-001-002-----0
  6
CONTINUOUS
  5
5E6
 10
219.628554
 20
347.976095
 30
0.0
 11
221.628554
 21
347.976095
 31
0.0
  0
LINE
  8
LC-001-002-----0
  6
CONTINUOUS
  5
5E7
 10
219.628554
 20
336.976095
 30
0.0
 11
221.628554
 21
338.976095
 31
0.0
  0
ARC
  8
LC-007-002-RND-0
  6
CONTINUOUS
  5
5E8
 10
216.628554
 20
336.976095
 30
0.0
 40
3.0
 50
270.0
 51
0.0
  0
LINE
  8
LC-001-002-----0
  6
CONTINUOUS
  5
5E9
 10
215.793919
 20
333.976095
 30
0.0
 11
216.628554
 21
333.976095
 31
0.0
  0
ARC
  8
LC-007-002-RND-0
  6
CONTINUOUS
  5
5EA
 10
215.793919
 20
336.976095
 30
0.0
 40
3.0
 50
180.0
 51
270.0
  0
LINE
  8
LC-001-002-----0
  6
CONTINUOUS
  5
5EB
 10
217.628554
 20
338.476095
 30
0.0
 11
217.628554
 21
350.600141
 31
0.0
  0
LINE
  8
LC-001-002-----0
  6
CONTINUOUS
  5
5EC
 10
217.628554
 20
338.476095
 30
0.0
 11
215.854051
 21
340.250597
 31
0.0
  0
LINE
  8
LC-001-002-----0
  6
CONTINUOUS
  5
5ED
 10
212.793919
 20
338.476095
 30
0.0
 11
217.628554
 21
338.476095
 31
0.0
  0
LINE
  8
LC-001-002-----0
  6
CONTINUOUS
  5
5EE
 10
212.793919
 20
338.476095
 30
0.0
 11
212.793919
 21
336.976095
 31
0.0
  0
LINE
  8
LC-001-002-----0
  6
DASHDOT
 62
     2
  5
5EF
 10
177.872488
 20
308.748875
 30
0.0
 11
215.83418
 21
308.748875
 31
0.0
  0
LINE
  8
LC-001-002-----0
  6
DASHDOT
 62
     2
  5
5F0
 10
260.852008
 20
243.996638
 30
0.0
 11
260.852008
 21
206.718171
 31
0.0
  0
LINE
  8
LC-001-002-----0
  6
DASHDOT
 62
     2
  5
5F1
 10
261.852008
 20
243.996638
 30
0.0
 11
261.852008
 21
206.718171
 31
0.0
  0
LINE
  8
LC-001-002-----0
  6
CONTINUOUS
  5
5F2
 10
180.854051
 20
308.748875
 30
0.0
 11
180.854051
 21
244.976817
 31
0.0
  0
LINE
  8
LC-001-002-----0
  6
CONTINUOUS
  5
5F3
 10
182.854051
 20
308.748875
 30
0.0
 11
182.854051
 21
244.976817
 31
0.0
  0
LINE
  8
LC-001-002-----0
  6
CONTINUOUS
  5
5F4
 10
210.354051
 20
308.748875
 30
0.0
 11
210.354051
 21
244.976817
 31
0.0
  0
LINE
  8
LC-001-002-----0
  6
CONTINUOUS
  5
5F5
 10
212.354051
 20
308.748875
 30
0.0
 11
212.354051
 21
244.976817
 31
0.0
  0
LINE
  8
LC-001-002-----0
  6
CONTINUOUS
  5
5F6
 10
261.852008
 20
241.406011
 30
0.0
 11
384.458805
 21
241.406011
 31
0.0
  0
LINE
  8
LC-001-002-----0
  6
CONTINUOUS
  5
5F7
 10
261.852008
 20
239.406011
 30
0.0
 11
387.958805
 21
239.406011
 31
0.0
  0
LINE
  8
LC-001-002-----0
  6
CONTINUOUS
  5
5F8
 10
261.852008
 20
211.406011
 30
0.0
 11
387.958805
 21
211.406011
 31
0.0
  0
LINE
  8
LC-001-002-----0
  6
CONTINUOUS
  5
5F9
 10
261.852008
 20
209.406011
 30
0.0
 11
384.458805
 21
209.406011
 31
0.0
  0
ARC
  8
LC-001-002-----0
  6
CONTINUOUS
  5
5FA
 10
649.054526
 20
225.462723
 30
0.0
 40
16.0
 50
180.0
 51
0.0
  0
LINE
  8
LC-001-002-----0
  6
CONTINUOUS
  5
5FB
 10
633.054526
 20
261.462723
 30
0.0
 11
633.054526
 21
225.462723
 31
0.0
  0
LINE
  8
LC-001-002-----0
  6
CONTINUOUS
  5
5FC
 10
665.054526
 20
225.462723
 30
0.0
 11
665.054526
 21
261.462723
 31
0.0
  0
LINE
  8
LC-001-002-----0
  6
CONTINUOUS
  5
5FD
 10
629.88916
 20
277.962723
 30
0.0
 11
669.054526
 21
277.962723
 31
0.0
  0
LINE
  8
LC-001-002-----0
  6
CONTINUOUS
  5
5FE
 10
632.054526
 20
334.088635
 30
0.0
 11
632.054526
 21
309.861415
 31
0.0
  0
LINE
  8
LC-001-002-----0
  6
CONTINUOUS
  5
5FF
 10
624.054526
 20
263.962723
 30
0.0
 11
631.391552
 21
263.962723
 31
0.0
  0
LINE
  8
LC-001-002-----0
  6
CONTINUOUS
  5
600
 10
650.554526
 20
274.962723
 30
0.0
 11
650.554526
 21
263.962723
 31
0.0
  0
LINE
  8
LC-001-002-----0
  6
CONTINUOUS
  5
601
 10
647.554526
 20
274.962723
 30
0.0
 11
647.554526
 21
263.962723
 31
0.0
  0
LINE
  8
LC-001-002-----0
  6
CONTINUOUS
  5
602
 10
674.054526
 20
261.462723
 30
0.0
 11
624.054526
 21
261.462723
 31
0.0
  0
LINE
  8
LC-001-002-----0
  6
CONTINUOUS
  5
603
 10
624.054526
 20
272.962723
 30
0.0
 11
624.054526
 21
261.462723
 31
0.0
  0
LINE
  8
LC-001-002-----0
  6
CONTINUOUS
  5
604
 10
626.054526
 20
274.962723
 30
0.0
 11
624.054526
 21
272.962723
 31
0.0
  0
LINE
  8
LC-001-002-----0
  6
CONTINUOUS
  5
605
 10
626.054526
 20
274.962723
 30
0.0
 11
626.054526
 21
263.962723
 31
0.0
  0
ARC
  8
LC-007-002-RND-0
  6
CONTINUOUS
  5
606
 10
629.054526
 20
274.962723
 30
0.0
 40
3.0
 50
90.0
 51
180.0
  0
LINE
  8
LC-001-002-----0
  6
CONTINUOUS
  5
607
 10
629.88916
 20
277.962723
 30
0.0
 11
629.054526
 21
277.962723
 31
0.0
  0
ARC
  8
LC-007-002-RND-0
  6
CONTINUOUS
  5
608
 10
669.054526
 20
274.962723
 30
0.0
 40
3.0
 50
0.0
 51
90.0
  0
LINE
  8
LC-001-002-----0
  6
CONTINUOUS
  5
609
 10
672.054526
 20
274.962723
 30
0.0
 11
674.054526
 21
272.962723
 31
0.0
  0
LINE
  8
LC-001-002-----0
  6
CONTINUOUS
  5
60A
 10
672.054526
 20
274.962723
 30
0.0
 11
672.054526
 21
263.962723
 31
0.0
  0
LINE
  8
LC-001-002-----0
  6
CONTINUOUS
  5
60B
 10
674.054526
 20
263.962723
 30
0.0
 11
674.054526
 21
272.962723
 31
0.0
  0
LINE
  8
LC-001-002-----0
  6
CONTINUOUS
  5
60C
 10
674.054526
 20
263.962723
 30
0.0
 11
674.054526
 21
261.462723
 31
0.0
  0
LINE
  8
LC-001-002-----0
  6
CONTINUOUS
  5
60D
 10
650.554526
 20
263.962723
 30
0.0
 11
658.042801
 21
263.962723
 31
0.0
  0
LINE
  8
LC-001-002-----0
  6
CONTINUOUS
  5
60E
 10
647.554526
 20
274.962723
 30
0.0
 11
650.554526
 21
274.962723
 31
0.0
  0
LINE
  8
LC-001-002-----0
  6
CONTINUOUS
  5
60F
 10
647.554526
 20
272.962723
 30
0.0
 11
650.554526
 21
272.962723
 31
0.0
  0
LINE
  8
LC-001-002-----0
  6
CONTINUOUS
  5
610
 10
666.054526
 20
277.962723
 30
0.0
 11
666.054526
 21
308.861415
 31
0.0
  0
LINE
  8
LC-001-002-----0
  6
CONTINUOUS
  5
611
 10
658.042801
 20
274.962723
 30
0.0
 11
660.042801
 21
274.962723
 31
0.0
  0
LINE
  8
LC-001-002-----0
  6
CONTINUOUS
  5
612
 10
660.042801
 20
274.962723
 30
0.0
 11
660.042801
 21
263.962723
 31
0.0
  0
LINE
  8
LC-001-002-----0
  6
CONTINUOUS
  5
613
 10
658.042801
 20
274.962723
 30
0.0
 11
658.042801
 21
263.962723
 31
0.0
  0
LINE
  8
LC-001-002-----0
  6
CONTINUOUS
  5
614
 10
658.042801
 20
272.962723
 30
0.0
 11
660.042801
 21
272.962723
 31
0.0
  0
LINE
  8
LC-001-002-----0
  6
CONTINUOUS
  5
615
 10
660.042801
 20
263.962723
 30
0.0
 11
665.01201
 21
263.962723
 31
0.0
  0
LINE
  8
LC-001-002-----0
  6
CONTINUOUS
  5
616
 10
666.717499
 20
274.962723
 30
0.0
 11
666.717499
 21
263.962723
 31
0.0
  0
LINE
  8
LC-001-002-----0
  6
CONTINUOUS
  5
617
 10
665.01201
 20
274.962723
 30
0.0
 11
665.01201
 21
263.962723
 31
0.0
  0
LINE
  8
LC-001-002-----0
  6
CONTINUOUS
  5
618
 10
665.01201
 20
274.962723
 30
0.0
 11
666.717499
 21
274.962723
 31
0.0
  0
LINE
  8
LC-001-002-----0
  6
CONTINUOUS
  5
619
 10
665.01201
 20
272.962723
 30
0.0
 11
666.717499
 21
272.962723
 31
0.0
  0
ARC
  8
LC-007-002-RND-0
  6
CONTINUOUS
  5
61A
 10
616.054526
 20
376.224138
 30
0.0
 40
3.0
 50
180.0
 51
270.0
  0
ARC
  8
LC-007-002-RND-0
  6
CONTINUOUS
  5
61B
 10
682.054526
 20
376.224138
 30
0.0
 40
3.0
 50
270.0
 51
0.0
  0
LINE
  8
LC-001-002-----0
  6
CONTINUOUS
  5
61C
 10
640.06625
 20
274.962723
 30
0.0
 11
638.06625
 21
274.962723
 31
0.0
  0
LINE
  8
LC-001-002-----0
  6
CONTINUOUS
  5
61D
 10
638.06625
 20
274.962723
 30
0.0
 11
638.06625
 21
263.962723
 31
0.0
  0
LINE
  8
LC-001-002-----0
  6
CONTINUOUS
  5
61E
 10
640.06625
 20
274.962723
 30
0.0
 11
640.06625
 21
263.962723
 31
0.0
  0
LINE
  8
LC-001-002-----0
  6
CONTINUOUS
  5
61F
 10
640.06625
 20
272.962723
 30
0.0
 11
638.06625
 21
272.962723
 31
0.0
  0
LINE
  8
LC-001-002-----0
  6
CONTINUOUS
  5
620
 10
631.391552
 20
274.962723
 30
0.0
 11
631.391552
 21
263.962723
 31
0.0
  0
LINE
  8
LC-001-002-----0
  6
CONTINUOUS
  5
621
 10
633.097041
 20
274.962723
 30
0.0
 11
633.097041
 21
263.962723
 31
0.0
  0
LINE
  8
LC-001-002-----0
  6
CONTINUOUS
  5
622
 10
633.097041
 20
274.962723
 30
0.0
 11
631.391552
 21
274.962723
 31
0.0
  0
LINE
  8
LC-001-002-----0
  6
CONTINUOUS
  5
623
 10
633.097041
 20
272.962723
 30
0.0
 11
631.391552
 21
272.962723
 31
0.0
  0
LINE
  8
LC-001-002-----0
  6
CONTINUOUS
  5
624
 10
633.097041
 20
263.962723
 30
0.0
 11
638.06625
 21
263.962723
 31
0.0
  0
LINE
  8
LC-001-002-----0
  6
CONTINUOUS
  5
625
 10
640.06625
 20
263.962723
 30
0.0
 11
647.554526
 21
263.962723
 31
0.0
  0
LINE
  8
LC-001-002-----0
  6
CONTINUOUS
  5
626
 10
666.717499
 20
263.962723
 30
0.0
 11
674.054526
 21
263.962723
 31
0.0
  0
LINE
  8
LC-001-002-----0
  6
DASHDOT
 62
     2
  5
627
 10
630.789795
 20
309.861415
 30
0.0
 11
667.146905
 21
309.861415
 31
0.0
  0
LINE
  8
LC-001-002-----0
  6
DASHDOT
 62
     2
  5
628
 10
631.084185
 20
308.861415
 30
0.0
 11
667.588489
 21
308.861415
 31
0.0
  0
LINE
  8
LC-001-002-----0
  6
CONTINUOUS
  5
629
 10
632.054526
 20
308.861415
 30
0.0
 11
632.054526
 21
277.962723
 31
0.0
  0
LINE
  8
LC-001-002-----0
  6
CONTINUOUS
  5
62A
 10
666.054526
 20
309.861415
 30
0.0
 11
666.054526
 21
334.088635
 31
0.0
  0
LINE
  8
LC-001-002-----0
  6
CONTINUOUS
  5
62B
 10
629.88916
 20
334.088635
 30
0.0
 11
669.054526
 21
334.088635
 31
0.0
  0
LINE
  8
LC-001-002-----0
  6
CONTINUOUS
  5
62C
 10
624.054526
 20
348.088635
 30
0.0
 11
634.375556
 21
348.088635
 31
0.0
  0
LINE
  8
LC-001-002-----0
  6
CONTINUOUS
  5
62D
 10
650.554526
 20
337.088635
 30
0.0
 11
650.554526
 21
348.088635
 31
0.0
  0
LINE
  8
LC-001-002-----0
  6
CONTINUOUS
  5
62E
 10
647.554526
 20
337.088635
 30
0.0
 11
647.554526
 21
348.088635
 31
0.0
  0
LINE
  8
LC-001-002-----0
  6
CONTINUOUS
  5
62F
 10
626.054526
 20
337.088635
 30
0.0
 11
624.054526
 21
339.088635
 31
0.0
  0
LINE
  8
LC-001-002-----0
  6
CONTINUOUS
  5
630
 10
626.054526
 20
337.088635
 30
0.0
 11
626.054526
 21
348.088635
 31
0.0
  0
ARC
  8
LC-007-002-RND-0
  6
CONTINUOUS
  5
631
 10
629.054526
 20
337.088635
 30
0.0
 40
3.0
 50
180.0
 51
270.0
  0
LINE
  8
LC-001-002-----0
  6
CONTINUOUS
  5
632
 10
629.88916
 20
334.088635
 30
0.0
 11
629.054526
 21
334.088635
 31
0.0
  0
ARC
  8
LC-007-002-RND-0
  6
CONTINUOUS
  5
633
 10
669.054526
 20
337.088635
 30
0.0
 40
3.0
 50
270.0
 51
0.0
  0
LINE
  8
LC-001-002-----0
  6
CONTINUOUS
  5
634
 10
672.054526
 20
337.088635
 30
0.0
 11
674.054526
 21
339.088635
 31
0.0
  0
LINE
  8
LC-001-002-----0
  6
CONTINUOUS
  5
635
 10
672.054526
 20
337.088635
 30
0.0
 11
672.054526
 21
348.088635
 31
0.0
  0
LINE
  8
LC-001-002-----0
  6
CONTINUOUS
  5
636
 10
674.054526
 20
348.088635
 30
0.0
 11
674.054526
 21
339.088635
 31
0.0
  0
LINE
  8
LC-001-002-----0
  6
CONTINUOUS
  5
637
 10
650.554526
 20
348.088635
 30
0.0
 11
661.024463
 21
348.088635
 31
0.0
  0
LINE
  8
LC-001-002-----0
  6
CONTINUOUS
  5
638
 10
647.554526
 20
337.088635
 30
0.0
 11
650.554526
 21
337.088635
 31
0.0
  0
LINE
  8
LC-001-002-----0
  6
CONTINUOUS
  5
639
 10
647.554526
 20
339.088635
 30
0.0
 11
650.554526
 21
339.088635
 31
0.0
  0
LINE
  8
LC-001-002-----0
  6
CONTINUOUS
  5
63A
 10
658.042801
 20
337.088635
 30
0.0
 11
660.042801
 21
337.088635
 31
0.0
  0
LINE
  8
LC-001-002-----0
  6
CONTINUOUS
  5
63B
 10
660.042801
 20
337.088635
 30
0.0
 11
660.042801
 21
348.088635
 31
0.0
  0
LINE
  8
LC-001-002-----0
  6
CONTINUOUS
  5
63C
 10
658.042801
 20
337.088635
 30
0.0
 11
658.042801
 21
348.088635
 31
0.0
  0
LINE
  8
LC-001-002-----0
  6
CONTINUOUS
  5
63D
 10
658.042801
 20
339.088635
 30
0.0
 11
660.042801
 21
339.088635
 31
0.0
  0
LINE
  8
LC-001-002-----0
  6
CONTINUOUS
  5
63E
 10
660.042801
 20
348.088635
 30
0.0
 11
667.412899
 21
348.088635
 31
0.0
  0
LINE
  8
LC-001-002-----0
  6
CONTINUOUS
  5
63F
 10
666.717499
 20
337.088635
 30
0.0
 11
666.717499
 21
348.088635
 31
0.0
  0
LINE
  8
LC-001-002-----0
  6
CONTINUOUS
  5
640
 10
665.01201
 20
337.088635
 30
0.0
 11
665.01201
 21
348.088635
 31
0.0
  0
LINE
  8
LC-001-002-----0
  6
CONTINUOUS
  5
641
 10
665.01201
 20
337.088635
 30
0.0
 11
666.717499
 21
337.088635
 31
0.0
  0
LINE
  8
LC-001-002-----0
  6
CONTINUOUS
  5
642
 10
665.01201
 20
339.088635
 30
0.0
 11
666.717499
 21
339.088635
 31
0.0
  0
LINE
  8
LC-001-002-----0
  6
CONTINUOUS
  5
643
 10
640.06625
 20
337.088635
 30
0.0
 11
638.06625
 21
337.088635
 31
0.0
  0
LINE
  8
LC-001-002-----0
  6
CONTINUOUS
  5
644
 10
638.06625
 20
337.088635
 30
0.0
 11
638.06625
 21
348.088635
 31
0.0
  0
LINE
  8
LC-001-002-----0
  6
CONTINUOUS
  5
645
 10
640.06625
 20
337.088635
 30
0.0
 11
640.06625
 21
348.088635
 31
0.0
  0
LINE
  8
LC-001-002-----0
  6
CONTINUOUS
  5
646
 10
640.06625
 20
339.088635
 30
0.0
 11
638.06625
 21
339.088635
 31
0.0
  0
LINE
  8
LC-001-002-----0
  6
CONTINUOUS
  5
647
 10
631.391552
 20
337.088635
 30
0.0
 11
631.391552
 21
348.088635
 31
0.0
  0
LINE
  8
LC-001-002-----0
  6
CONTINUOUS
  5
648
 10
633.097041
 20
337.088635
 30
0.0
 11
633.097041
 21
348.088635
 31
0.0
  0
LINE
  8
LC-001-002-----0
  6
CONTINUOUS
  5
649
 10
633.097041
 20
337.088635
 30
0.0
 11
631.391552
 21
337.088635
 31
0.0
  0
LINE
  8
LC-001-002-----0
  6
CONTINUOUS
  5
64A
 10
633.097041
 20
339.088635
 30
0.0
 11
631.391552
 21
339.088635
 31
0.0
  0
LINE
  8
LC-001-002-----0
  6
CONTINUOUS
  5
64B
 10
633.097041
 20
348.088635
 30
0.0
 11
640.946519
 21
348.088635
 31
0.0
  0
LINE
  8
LC-001-002-----0
  6
CONTINUOUS
  5
64C
 10
640.06625
 20
348.088635
 30
0.0
 11
650.554526
 21
348.088635
 31
0.0
  0
LINE
  8
LC-001-002-----0
  6
CONTINUOUS
  5
64D
 10
666.717499
 20
348.088635
 30
0.0
 11
674.054526
 21
348.088635
 31
0.0
  0
LINE
  8
LC-001-002-----0
  6
CONTINUOUS
  5
64E
 10
177.604051
 20
481.844
 30
0.0
 11
177.604051
 21
489.844
 31
0.0
  0
LINE
  8
LC-001-002-----0
  6
DASHDOT
 62
     2
  5
64F
 10
196.604051
 20
512.844
 30
0.0
 11
196.604051
 21
371.844
 31
0.0
  0
LINE
  8
LC-001-002-----0
  6
CONTINUOUS
  5
650
 10
179.604051
 20
489.844
 30
0.0
 11
213.604051
 21
489.844
 31
0.0
  0
LINE
  8
LC-001-002-----0
  6
CONTINUOUS
  5
651
 10
215.604051
 20
481.844
 30
0.0
 11
215.604051
 21
389.844
 31
0.0
  0
LINE
  8
LC-001-002-----0
  6
CONTINUOUS
  5
652
 10
177.604051
 20
481.844
 30
0.0
 11
177.604051
 21
389.844
 31
0.0
  0
LINE
  8
LC-001-002-----0
  6
CONTINUOUS
  5
653
 10
174.854051
 20
378.344
 30
0.0
 11
174.854051
 21
375.644
 31
0.0
  0
LINE
  8
LC-001-002-----0
  6
CONTINUOUS
  5
654
 10
169.104051
 20
386.844
 30
0.0
 11
169.104051
 21
386.844
 31
0.0
  0
LINE
  8
LC-001-002-----0
  6
CONTINUOUS
  5
655
 10
172.104051
 20
389.844
 30
0.0
 11
177.604051
 21
389.844
 31
0.0
  0
LINE
  8
LC-001-002-----0
  6
CONTINUOUS
  5
656
 10
169.104051
 20
386.844
 30
0.0
 11
175.104051
 21
386.844
 31
0.0
  0
LINE
  8
LC-001-002-----0
  6
CONTINUOUS
  5
657
 10
215.604051
 20
389.844
 30
0.0
 11
221.104051
 21
389.844
 31
0.0
  0
LINE
  8
LC-001-002-----0
  6
CONTINUOUS
  5
658
 10
218.104051
 20
386.844
 30
0.0
 11
218.104051
 21
378.844
 31
0.0
  0
LINE
  8
LC-001-002-----0
  6
CONTINUOUS
  5
659
 10
175.104051
 20
386.844
 30
0.0
 11
175.104051
 21
378.844
 31
0.0
  0
LINE
  8
LC-001-002-----0
  6
CONTINUOUS
  5
65A
 10
174.604051
 20
378.844
 30
0.0
 11
176.604051
 21
378.844
 31
0.0
  0
LINE
  8
LC-001-002-----0
  6
CONTINUOUS
  5
65B
 10
176.104051
 20
371.844
 30
0.0
 11
217.104051
 21
371.844
 31
0.0
  0
ARC
  8
LC-007-002-RND-0
  6
CONTINUOUS
  5
65C
 10
172.104051
 20
386.844
 30
0.0
 40
3.0
 50
90.0
 51
180.0
  0
LINE
  8
LC-001-002-----0
  6
CONTINUOUS
  5
65D
 10
218.104051
 20
375.344
 30
0.0
 11
217.104051
 21
371.844
 31
0.0
  0
LINE
  8
LC-001-002-----0
  6
CONTINUOUS
  5
65E
 10
175.104051
 20
375.344
 30
0.0
 11
176.604051
 21
375.344
 31
0.0
  0
ARC
  8
LC-001-002-----0
  6
CONTINUOUS
  5
65F
 10
221.104051
 20
386.844
 30
0.0
 40
3.0
 50
0.0
 51
90.0
  0
LINE
  8
LC-001-002-----0
  6
CONTINUOUS
  5
660
 10
175.104051
 20
375.344
 30
0.0
 11
176.104051
 21
371.844
 31
0.0
  0
LINE
  8
LC-001-002-----0
  6
CONTINUOUS
  5
661
 10
176.604051
 20
378.844
 30
0.0
 11
176.604051
 21
375.344
 31
0.0
  0
LINE
  8
LC-001-002-----0
  6
CONTINUOUS
  5
662
 10
216.604051
 20
375.344
 30
0.0
 11
216.604051
 21
378.844
 31
0.0
  0
LINE
  8
LC-001-002-----0
  6
CONTINUOUS
  5
663
 10
174.604051
 20
378.344
 30
0.0
 11
174.854051
 21
378.344
 31
0.0
  0
LINE
  8
LC-001-002-----0
  6
CONTINUOUS
  5
664
 10
174.854051
 20
375.644
 30
0.0
 11
176.604051
 21
375.644
 31
0.0
  0
LINE
  8
LC-001-002-----0
  6
CONTINUOUS
  5
665
 10
218.354051
 20
375.644
 30
0.0
 11
216.604051
 21
375.644
 31
0.0
  0
LINE
  8
LC-001-002-----0
  6
CONTINUOUS
  5
666
 10
218.354051
 20
378.344
 30
0.0
 11
218.354051
 21
375.644
 31
0.0
  0
LINE
  8
LC-001-002-----0
  6
CONTINUOUS
  5
667
 10
218.604051
 20
378.844
 30
0.0
 11
218.604051
 21
378.344
 31
0.0
  0
LINE
  8
LC-001-002-----0
  6
CONTINUOUS
  5
668
 10
218.604051
 20
378.344
 30
0.0
 11
218.354051
 21
378.344
 31
0.0
  0
LINE
  8
LC-001-002-----0
  6
CONTINUOUS
  5
669
 10
218.104051
 20
386.844
 30
0.0
 11
224.104051
 21
386.844
 31
0.0
  0
LINE
  8
LC-001-002-----0
  6
CONTINUOUS
  5
66A
 10
216.604051
 20
378.844
 30
0.0
 11
218.604051
 21
378.844
 31
0.0
  0
LINE
  8
LC-001-002-----0
  6
CONTINUOUS
  5
66B
 10
216.604051
 20
375.344
 30
0.0
 11
218.104051
 21
375.344
 31
0.0
  0
ARC
  8
LC-007-002-RND-0
  6
CONTINUOUS
  5
66C
 10
196.604051
 20
491.844
 30
0.0
 40
21.0
 50
0.0
 51
90.0
  0
LINE
  8
LC-001-002-----0
  6
CONTINUOUS
  5
66D
 10
175.604051
 20
491.844
 30
0.0
 11
175.604051
 21
483.344
 31
0.0
  0
LINE
  8
LC-001-002-----0
  6
CONTINUOUS
  5
66E
 10
177.104051
 20
481.844
 30
0.0
 11
177.604051
 21
481.844
 31
0.0
  0
ARC
  8
LC-007-002-RND-0
  6
CONTINUOUS
  5
66F
 10
196.604051
 20
491.844
 30
0.0
 40
21.0
 50
90.0
 51
180.0
  0
LINE
  8
LC-001-002-----0
  6
CONTINUOUS
  5
670
 10
217.604051
 20
491.844
 30
0.0
 11
217.604051
 21
483.344
 31
0.0
  0
LINE
  8
LC-001-002-----0
  6
CONTINUOUS
  5
671
 10
216.104051
 20
481.844
 30
0.0
 11
215.604051
 21
481.844
 31
0.0
  0
LINE
  8
LC-001-002-----0
  6
CONTINUOUS
  5
672
 10
179.604051
 20
491.844
 30
0.0
 11
179.604051
 21
489.844
 31
0.0
  0
ARC
  8
LC-001-002-----0
  6
CONTINUOUS
  5
673
 10
196.604051
 20
491.844
 30
0.0
 40
17.0
 50
0.0
 51
180.0
  0
ARC
  8
LC-007-002-RND-0
  6
CONTINUOUS
  5
674
 10
177.104051
 20
483.344
 30
0.0
 40
1.5
 50
180.0
 51
270.0
  0
ARC
  8
LC-007-002-RND-0
  6
CONTINUOUS
  5
675
 10
216.104051
 20
483.344
 30
0.0
 40
1.5
 50
270.0
 51
0.0
  0
LINE
  8
LC-001-002-----0
  6
CONTINUOUS
  5
676
 10
213.604051
 20
491.844
 30
0.0
 11
213.604051
 21
489.844
 31
0.0
  0
LINE
  8
LC-001-002-----0
  6
CONTINUOUS
  5
677
 10
179.604051
 20
489.844
 30
0.0
 11
179.104051
 21
371.844
 31
0.0
  0
LINE
  8
LC-001-002-----0
  6
CONTINUOUS
  5
678
 10
213.604051
 20
489.844
 30
0.0
 11
214.104051
 21
371.844
 31
0.0
  0
LINE
  8
LC-001-002-----0
  6
CONTINUOUS
  5
679
 10
177.604051
 20
489.844
 30
0.0
 11
179.604051
 21
489.844
 31
0.0
  0
LINE
  8
LC-001-002-----0
  6
CONTINUOUS
  5
67A
 10
215.604051
 20
481.844
 30
0.0
 11
215.604051
 21
489.844
 31
0.0
  0
LINE
  8
LC-001-002-----0
  6
CONTINUOUS
  5
67B
 10
215.604051
 20
489.844
 30
0.0
 11
213.604051
 21
489.844
 31
0.0
  0
LINE
  8
LC-001-002-----0
  6
CONTINUOUS
  5
67C
 10
175.628554
 20
350.476095
 30
0.0
 11
171.628554
 21
350.476095
 31
0.0
  0
LINE
  8
LC-001-002-----0
  6
CONTINUOUS
  5
67D
 10
677.554526
 20
373.224138
 30
0.0
 11
682.054526
 21
373.224138
 31
0.0
  0
LINE
  8
LC-001-002-----0
  6
CONTINUOUS
  5
67E
 10
614.054526
 20
382.293709
 30
0.0
 11
675.064788
 21
382.293709
 31
0.0
  0
LINE
  8
LC-001-002-----0
  6
CONTINUOUS
  5
67F
 10
614.054526
 20
382.993709
 30
0.0
 11
675.064788
 21
382.993709
 31
0.0
  0
LINE
  8
LC-001-002-----0
  6
CONTINUOUS
  5
680
 10
614.054526
 20
382.993709
 30
0.0
 11
614.054526
 21
382.293709
 31
0.0
  0
LINE
  8
LC-001-002-----0
  6
CONTINUOUS
  5
681
 10
199.604051
 20
341.462099
 30
0.0
 11
215.854051
 21
341.462099
 31
0.0
  0
CIRCLE
  8
LC-001-002-----0
  6
CONTINUOUS
  5
682
 10
167.300466
 20
379.058213
 30
0.0
 40
3.0
  0
CIRCLE
  8
LC-001-002-----0
  6
CONTINUOUS
  5
683
 10
225.907636
 20
379.058213
 30
0.0
 40
3.0
  0
LINE
  8
LC-001-002-----0
  6
CONTINUOUS
  5
684
 10
675.064788
 20
382.293709
 30
0.0
 11
684.054526
 21
382.293709
 31
0.0
  0
LINE
  8
LC-001-002-----0
  6
CONTINUOUS
  5
685
 10
160.604051
 20
378.111598
 30
0.0
 11
164.104051
 21
378.111598
 31
0.0
  0
LINE
  8
LC-001-002-----0
  6
CONTINUOUS
  5
686
 10
232.604051
 20
378.111598
 30
0.0
 11
232.604051
 21
376.111598
 31
0.0
  0
LINE
  8
LC-001-002-----0
  6
CONTINUOUS
  5
687
 10
160.604051
 20
378.111598
 30
0.0
 11
160.604051
 21
376.111598
 31
0.0
  0
LINE
  8
LC-001-002-----0
  6
CONTINUOUS
  5
688
 10
684.054526
 20
382.993709
 30
0.0
 11
684.054526
 21
382.293709
 31
0.0
  0
LINE
  8
LC-001-002-----0
  6
CONTINUOUS
  5
689
 10
681.554526
 20
378.224138
 30
0.0
 11
685.054526
 21
378.224138
 31
0.0
  0
LINE
  8
LC-001-002-----0
  6
CONTINUOUS
  5
68A
 10
675.064788
 20
382.993709
 30
0.0
 11
684.054526
 21
382.993709
 31
0.0
  0
LINE
  8
LC-001-002-----0
  6
CONTINUOUS
  5
68B
 10
194.104051
 20
342.581169
 30
0.0
 11
199.104051
 21
342.581169
 31
0.0
  0
LINE
  8
LC-001-002-----0
  6
CONTINUOUS
  5
68C
 10
163.604051
 20
373.111598
 30
0.0
 11
168.104051
 21
373.111598
 31
0.0
  0
LINE
  8
LC-001-002-----0
  6
CONTINUOUS
  5
68D
 10
225.104051
 20
373.111598
 30
0.0
 11
225.104051
 21
364.611598
 31
0.0
  0
LINE
  8
LC-001-002-----0
  6
CONTINUOUS
  5
68E
 10
168.104051
 20
373.111598
 30
0.0
 11
168.104051
 21
364.611598
 31
0.0
  0
LINE
  8
LC-001-002-----0
  6
CONTINUOUS
  5
68F
 10
170.604051
 20
365.111598
 30
0.0
 11
191.792248
 21
365.111598
 31
0.0
  0
LINE
  8
LC-001-002-----0
  6
CONTINUOUS
  5
690
 10
170.604051
 20
365.111598
 30
0.0
 11
172.604051
 21
363.111598
 31
0.0
  0
LINE
  8
LC-001-002-----0
  6
CONTINUOUS
  5
691
 10
175.604051
 20
343.111598
 30
0.0
 11
175.604051
 21
356.111598
 31
0.0
  0
LINE
  8
LC-001-002-----0
  6
CONTINUOUS
  5
692
 10
168.104051
 20
364.611598
 30
0.0
 11
171.604051
 21
361.111598
 31
0.0
  0
LINE
  8
LC-001-002-----0
  6
CONTINUOUS
  5
693
 10
221.604051
 20
361.111598
 30
0.0
 11
225.104051
 21
364.611598
 31
0.0
  0
LINE
  8
LC-001-002-----0
  6
CONTINUOUS
  5
694
 10
229.104051
 20
378.111598
 30
0.0
 11
229.104051
 21
376.111598
 31
0.0
  0
LINE
  8
LC-001-002-----0
  6
CONTINUOUS
  5
695
 10
164.104051
 20
378.111598
 30
0.0
 11
164.104051
 21
376.111598
 31
0.0
  0
LINE
  8
LC-001-002-----0
  6
CONTINUOUS
  5
696
 10
164.104051
 20
376.111598
 30
0.0
 11
174.162601
 21
376.111598
 31
0.0
  0
ARC
  8
LC-007-002-RND-0
  6
CONTINUOUS
  5
697
 10
163.604051
 20
376.111598
 30
0.0
 40
3.0
 50
180.0
 51
270.0
  0
ARC
  8
LC-007-002-RND-0
  6
CONTINUOUS
  5
698
 10
229.604051
 20
376.111598
 30
0.0
 40
3.0
 50
270.0
 51
0.0
  0
LINE
  8
LC-001-002-----0
  6
CONTINUOUS
  5
699
 10
222.604051
 20
376.111598
 30
0.0
 11
222.604051
 21
365.111598
 31
0.0
  0
LINE
  8
LC-001-002-----0
  6
CONTINUOUS
  5
69A
 10
170.604051
 20
376.111598
 30
0.0
 11
170.604051
 21
365.111598
 31
0.0
  0
LINE
  8
LC-001-002-----0
  6
CONTINUOUS
  5
69B
 10
225.104051
 20
373.111598
 30
0.0
 11
229.604051
 21
373.111598
 31
0.0
  0
LINE
  8
LC-001-002-----0
  6
CONTINUOUS
  5
69C
 10
172.604051
 20
363.111598
 30
0.0
 11
176.604051
 21
363.111598
 31
0.0
  0
LINE
  8
LC-001-002-----0
  6
CONTINUOUS
  5
69D
 10
220.604051
 20
363.111598
 30
0.0
 11
222.604051
 21
365.111598
 31
0.0
  0
LINE
  8
LC-001-002-----0
  6
CONTINUOUS
  5
69E
 10
362.458805
 20
252.655814
 30
0.0
 11
378.458805
 21
252.655783
 31
0.0
  0
LINE
  8
LC-001-002-----0
  6
CONTINUOUS
  5
69F
 10
176.604051
 20
357.111598
 30
0.0
 11
176.604051
 21
342.111598
 31
0.0
  0
LINE
  8
LC-001-002-----0
  6
CONTINUOUS
  5
6A0
 10
176.604051
 20
342.111598
 30
0.0
 11
175.604051
 21
343.111598
 31
0.0
  0
LINE
  8
LC-001-002-----0
  6
CONTINUOUS
  5
6A1
 10
179.604051
 20
351.111598
 30
0.0
 11
180.604051
 21
351.111598
 31
0.0
  0
LINE
  8
LC-001-002-----0
  6
CONTINUOUS
  5
6A2
 10
180.604051
 20
351.111598
 30
0.0
 11
180.604051
 21
342.111598
 31
0.0
  0
LINE
  8
LC-001-002-----0
  6
CONTINUOUS
  5
6A3
 10
161.604051
 20
382.181169
 30
0.0
 11
170.593788
 21
382.181169
 31
0.0
  0
LINE
  8
LC-001-002-----0
  6
CONTINUOUS
  5
6A4
 10
161.604051
 20
382.881169
 30
0.0
 11
175.104051
 21
382.881169
 31
0.0
  0
LINE
  8
LC-001-002-----0
  6
CONTINUOUS
  5
6A5
 10
161.604051
 20
382.881169
 30
0.0
 11
161.604051
 21
382.181169
 31
0.0
  0
ARC
  8
LC-007-002-RND-0
  6
CONTINUOUS
  5
6A6
 10
170.593788
 20
378.881169
 30
0.0
 40
3.3
 50
5.257809
 51
90.0
  0
ARC
  8
LC-007-002-RND-0
  6
CONTINUOUS
  5
6A7
 10
170.593788
 20
378.881169
 30
0.0
 40
4.0
 50
5.257809
 51
90.0
  0
LINE
  8
LC-001-002-----0
  6
CONTINUOUS
  5
6A8
 10
173.879904
 20
379.183572
 30
0.0
 11
174.853276
 21
368.606257
 31
0.0
  0
LINE
  8
LC-001-002-----0
  6
CONTINUOUS
  5
6A9
 10
174.576958
 20
379.247719
 30
0.0
 11
175.550331
 21
368.670403
 31
0.0
  0
ARC
  8
LC-007-002-RND-0
  6
CONTINUOUS
  5
6AA
 10
177.840653
 20
368.881169
 30
0.0
 40
3.0
 50
185.257809
 51
270.0
  0
ARC
  8
LC-007-002-RND-0
  6
CONTINUOUS
  5
6AB
 10
177.840653
 20
368.881169
 30
0.0
 40
2.3
 50
185.257809
 51
270.0
  0
LINE
  8
LC-001-002-----0
  6
CONTINUOUS
  5
6AC
 10
178.104051
 20
366.581169
 30
0.0
 11
178.104051
 21
365.881169
 31
0.0
  0
LINE
  8
LC-001-002-----0
  6
CONTINUOUS
  5
6AD
 10
177.840653
 20
366.581169
 30
0.0
 11
190.04938
 21
366.581169
 31
0.0
  0
LINE
  8
LC-001-002-----0
  6
CONTINUOUS
  5
6AE
 10
177.840653
 20
365.881169
 30
0.0
 11
190.04938
 21
365.881169
 31
0.0
  0
LINE
  8
LC-001-002-----0
  6
CONTINUOUS
  5
6AF
 10
188.354051
 20
366.581169
 30
0.0
 11
188.354051
 21
365.881169
 31
0.0
  0
ARC
  8
LC-007-002-RND-0
  6
CONTINUOUS
  5
6B0
 10
190.04938
 20
363.581169
 30
0.0
 40
3.0
 50
40.732107
 51
90.0
  0
ARC
  8
LC-007-002-RND-0
  6
CONTINUOUS
  5
6B1
 10
190.04938
 20
363.581169
 30
0.0
 40
2.3
 50
40.732107
 51
90.0
  0
LINE
  8
LC-001-002-----0
  6
CONTINUOUS
  5
6B2
 10
192.654051
 20
364.081169
 30
0.0
 11
198.733504
 21
364.081169
 31
0.0
  0
LINE
  8
LC-001-002-----0
  6
CONTINUOUS
  5
6B3
 10
175.604051
 20
357.111598
 30
0.0
 11
176.604051
 21
357.111598
 31
0.0
  0
LINE
  8
LC-001-002-----0
  6
CONTINUOUS
  5
6B4
 10
191.596208
 20
367.845875
 30
0.0
 11
193.604051
 21
364.081169
 31
0.0
  0
ARC
  8
LC-007-002-RND-0
  6
CONTINUOUS
  5
6B5
 10
192.037384
 20
368.081169
 30
0.0
 40
0.5
 50
90.0
 51
208.072487
  0
LINE
  8
LC-001-002-----0
  6
CONTINUOUS
  5
6B6
 10
176.604051
 20
342.111598
 30
0.0
 11
180.604051
 21
342.111598
 31
0.0
  0
LINE
  8
LC-001-002-----0
  6
CONTINUOUS
  5
6B7
 10
192.037384
 20
368.581169
 30
0.0
 11
196.104051
 21
368.581169
 31
0.0
  0
LINE
  8
LC-001-002-----0
  6
CONTINUOUS
  5
6B8
 10
196.104051
 20
368.581169
 30
0.0
 11
196.104051
 21
367.581169
 31
0.0
  0
LINE
  8
LC-001-002-----0
  6
CONTINUOUS
  5
6B9
 10
196.104051
 20
367.581169
 30
0.0
 11
197.104051
 21
367.581169
 31
0.0
  0
LINE
  8
LC-001-002-----0
  6
CONTINUOUS
  5
6BA
 10
197.104051
 20
368.581169
 30
0.0
 11
197.104051
 21
367.581169
 31
0.0
  0
LINE
  8
LC-001-002-----0
  6
CONTINUOUS
  5
6BB
 10
197.104051
 20
368.581169
 30
0.0
 11
201.170718
 21
368.581169
 31
0.0
  0
ARC
  8
LC-007-002-RND-0
  6
CONTINUOUS
  5
6BC
 10
201.170718
 20
368.081169
 30
0.0
 40
0.5
 50
331.927513
 51
90.0
  0
LINE
  8
LC-001-002-----0
  6
CONTINUOUS
  5
6BD
 10
201.611894
 20
367.845875
 30
0.0
 11
199.604051
 21
364.081169
 31
0.0
  0
LINE
  8
LC-001-002-----0
  6
CONTINUOUS
  5
6BE
 10
192.654051
 20
364.081169
 30
0.0
 11
198.733504
 21
364.081169
 31
0.0
  0
LINE
  8
LC-001-002-----0
  6
CONTINUOUS
  5
6BF
 10
198.733504
 20
364.081169
 30
0.0
 11
200.554051
 21
364.081169
 31
0.0
  0
LINE
  8
LC-001-002-----0
  6
CONTINUOUS
  5
6C0
 10
200.554051
 20
364.081169
 30
0.0
 11
201.415854
 21
365.081972
 31
0.0
  0
LINE
  8
LC-001-002-----0
  6
CONTINUOUS
  5
6C1
 10
192.654051
 20
364.081169
 30
0.0
 11
191.792248
 21
365.081972
 31
0.0
  0
ARC
  8
LC-007-002-RND-0
  6
CONTINUOUS
  5
6C2
 10
203.158722
 20
363.581169
 30
0.0
 40
2.3
 50
90.0
 51
139.267893
  0
LINE
  8
LC-001-002-----0
  6
CONTINUOUS
  5
6C3
 10
203.158722
 20
366.581169
 30
0.0
 11
215.367449
 21
366.581169
 31
0.0
  0
LINE
  8
LC-001-002-----0
  6
CONTINUOUS
  5
6C4
 10
203.158722
 20
365.881169
 30
0.0
 11
215.367449
 21
365.881169
 31
0.0
  0
LINE
  8
LC-001-002-----0
  6
CONTINUOUS
  5
6C5
 10
204.854051
 20
366.581169
 30
0.0
 11
204.854051
 21
365.881169
 31
0.0
  0
LINE
  8
LC-001-002-----0
  6
CONTINUOUS
  5
6C6
 10
215.104051
 20
366.581169
 30
0.0
 11
215.104051
 21
365.881169
 31
0.0
  0
ARC
  8
LC-007-002-RND-0
  6
CONTINUOUS
  5
6C7
 10
215.367449
 20
368.881169
 30
0.0
 40
3.0
 50
270.0
 51
354.742191
  0
ARC
  8
LC-007-002-RND-0
  6
CONTINUOUS
  5
6C8
 10
215.367449
 20
368.881169
 30
0.0
 40
2.3
 50
270.0
 51
354.742191
  0
LINE
  8
LC-001-002-----0
  6
CONTINUOUS
  5
6C9
 10
217.657771
 20
368.670403
 30
0.0
 11
218.631144
 21
379.247719
 31
0.0
  0
LINE
  8
LC-001-002-----0
  6
CONTINUOUS
  5
6CA
 10
218.354826
 20
368.606257
 30
0.0
 11
219.328199
 21
379.183572
 31
0.0
  0
ARC
  8
LC-007-002-RND-0
  6
CONTINUOUS
  5
6CB
 10
222.614314
 20
378.881169
 30
0.0
 40
4.0
 50
90.0
 51
174.742191
  0
ARC
  8
LC-007-002-RND-0
  6
CONTINUOUS
  5
6CC
 10
222.614314
 20
378.881169
 30
0.0
 40
3.3
 50
90.0
 51
174.742191
  0
LINE
  8
LC-001-002-----0
  6
CONTINUOUS
  5
6CD
 10
176.604051
 20
363.111598
 30
0.0
 11
179.604051
 21
351.111598
 31
0.0
  0
LINE
  8
LC-001-002-----0
  6
CONTINUOUS
  5
6CE
 10
629.054526
 20
357.224138
 30
0.0
 11
628.054526
 21
356.224138
 31
0.0
  0
LINE
  8
LC-001-002-----0
  6
CONTINUOUS
  5
6CF
 10
188.604051
 20
347.111598
 30
0.0
 11
193.604051
 21
347.111598
 31
0.0
  0
LINE
  8
LC-001-002-----0
  6
CONTINUOUS
  5
6D0
 10
204.354051
 20
351.111598
 30
0.0
 11
213.604051
 21
351.111598
 31
0.0
  0
LINE
  8
LC-001-002-----0
  6
CONTINUOUS
  5
6D1
 10
628.054526
 20
348.088635
 30
0.0
 11
628.054526
 21
356.224138
 31
0.0
  0
LINE
  8
LC-001-002-----0
  6
CONTINUOUS
  5
6D2
 10
192.354051
 20
359.111598
 30
0.0
 11
193.604051
 21
359.111598
 31
0.0
  0
LINE
  8
LC-001-002-----0
  6
CONTINUOUS
  5
6D3
 10
200.604051
 20
363.111598
 30
0.0
 11
200.604051
 21
359.111598
 31
0.0
  0
LINE
  8
LC-001-002-----0
  6
CONTINUOUS
  5
6D4
 10
188.604051
 20
347.111598
 30
0.0
 11
189.604051
 21
363.111598
 31
0.0
  0
LINE
  8
LC-001-002-----0
  6
CONTINUOUS
  5
6D5
 10
204.604051
 20
347.111598
 30
0.0
 11
203.604051
 21
363.111598
 31
0.0
  0
LINE
  8
LC-001-002-----0
  6
CONTINUOUS
  5
6D6
 10
192.604051
 20
363.111598
 30
0.0
 11
192.604051
 21
359.111598
 31
0.0
  0
LINE
  8
LC-001-002-----0
  6
CONTINUOUS
  5
6D7
 10
192.354051
 20
353.611598
 30
0.0
 11
193.604051
 21
353.611598
 31
0.0
  0
LINE
  8
LC-001-002-----0
  6
CONTINUOUS
  5
6D8
 10
199.604051
 20
359.111598
 30
0.0
 11
200.854051
 21
359.111598
 31
0.0
  0
LINE
  8
LC-001-002-----0
  6
CONTINUOUS
  5
6D9
 10
199.604051
 20
364.081169
 30
0.0
 11
199.604051
 21
349.611598
 31
0.0
  0
LINE
  8
LC-001-002-----0
  6
CONTINUOUS
  5
6DA
 10
199.604051
 20
349.611598
 30
0.0
 11
199.604051
 21
343.081169
 31
0.0
  0
LINE
  8
LC-001-002-----0
  6
CONTINUOUS
  5
6DB
 10
193.604051
 20
349.611598
 30
0.0
 11
193.604051
 21
343.081169
 31
0.0
  0
LINE
  8
LC-001-002-----0
  6
CONTINUOUS
  5
6DC
 10
199.604051
 20
363.111598
 30
0.0
 11
220.604051
 21
363.111598
 31
0.0
  0
LINE
  8
LC-001-002-----0
  6
CONTINUOUS
  5
6DD
 10
201.44181
 20
365.111598
 30
0.0
 11
222.604051
 21
365.111598
 31
0.0
  0
LINE
  8
LC-001-002-----0
  6
CONTINUOUS
  5
6DE
 10
222.614314
 20
382.181169
 30
0.0
 11
231.604051
 21
382.181169
 31
0.0
  0
LINE
  8
LC-001-002-----0
  6
CONTINUOUS
  5
6DF
 10
199.604051
 20
342.111598
 30
0.0
 11
216.604051
 21
342.111598
 31
0.0
  0
LINE
  8
LC-001-002-----0
  6
CONTINUOUS
  5
6E0
 10
199.604051
 20
353.611598
 30
0.0
 11
200.854051
 21
353.611598
 31
0.0
  0
LINE
  8
LC-001-002-----0
  6
CONTINUOUS
  5
6E1
 10
199.604051
 20
347.111598
 30
0.0
 11
204.604051
 21
347.111598
 31
0.0
  0
LINE
  8
LC-001-002-----0
  6
CONTINUOUS
  5
6E2
 10
202.104051
 20
358.611598
 30
0.0
 11
202.104051
 21
354.111598
 31
0.0
  0
LINE
  8
LC-001-002-----0
  6
CONTINUOUS
  5
6E3
 10
191.104051
 20
358.611598
 30
0.0
 11
191.104051
 21
354.111598
 31
0.0
  0
LINE
  8
LC-001-002-----0
  6
CONTINUOUS
  5
6E4
 10
191.104051
 20
354.111598
 30
0.0
 11
191.104051
 21
347.111598
 31
0.0
  0
ARC
  8
LC-001-002-----0
  6
CONTINUOUS
  5
6E5
 10
200.854051
 20
357.299098
 30
0.0
 40
1.8125
 50
46.397181
 51
133.602819
  0
ARC
  8
LC-001-002-----0
  6
CONTINUOUS
  5
6E6
 10
192.354051
 20
357.299098
 30
0.0
 40
1.8125
 50
46.397181
 51
133.602819
  0
LINE
  8
LC-001-002-----0
  6
CONTINUOUS
  5
6E7
 10
231.604051
 20
382.881169
 30
0.0
 11
231.604051
 21
382.181169
 31
0.0
  0
ARC
  8
LC-001-002-----0
  6
CONTINUOUS
  5
6E8
 10
192.354051
 20
355.424098
 30
0.0
 40
1.8125
 50
226.397181
 51
313.602819
  0
ARC
  8
LC-001-002-----0
  6
CONTINUOUS
  5
6E9
 10
200.854051
 20
355.424098
 30
0.0
 40
1.8125
 50
226.397181
 51
313.602819
  0
LINE
  8
LC-001-002-----0
  6
CONTINUOUS
  5
6EA
 10
202.104051
 20
354.111598
 30
0.0
 11
202.104051
 21
347.111598
 31
0.0
  0
LINE
  8
LC-001-002-----0
  6
CONTINUOUS
  5
6EB
 10
670.054526
 20
348.088635
 30
0.0
 11
670.054526
 21
356.224138
 31
0.0
  0
LINE
  8
LC-001-002-----0
  6
CONTINUOUS
  5
6EC
 10
669.054526
 20
357.224138
 30
0.0
 11
670.054526
 21
356.224138
 31
0.0
  0
LINE
  8
LC-001-002-----0
  6
CONTINUOUS
  5
6ED
 10
229.104051
 20
378.111598
 30
0.0
 11
232.604051
 21
378.111598
 31
0.0
  0
LINE
  8
LC-001-002-----0
  6
CONTINUOUS
  5
6EE
 10
219.045502
 20
376.111598
 30
0.0
 11
229.104051
 21
376.111598
 31
0.0
  0
LINE
  8
LC-001-002-----0
  6
CONTINUOUS
  5
6EF
 10
628.054526
 20
357.224138
 30
0.0
 11
669.054526
 21
357.224138
 31
0.0
  0
LINE
  8
LC-001-002-----0
  6
CONTINUOUS
  5
6F0
 10
670.054526
 20
357.224138
 30
0.0
 11
669.054526
 21
357.224138
 31
0.0
  0
LINE
  8
LC-001-002-----0
  6
CONTINUOUS
  5
6F1
 10
193.577816
 20
364.081169
 30
0.0
 11
192.322686
 21
365.538739
 31
0.0
  0
ARC
  8
LC-007-002-RND-0
  6
CONTINUOUS
  5
6F2
 10
203.158722
 20
363.581169
 30
0.0
 40
3.0
 50
90.0
 51
139.267893
  0
LINE
  8
LC-001-002-----0
  6
CONTINUOUS
  5
6F3
 10
199.630286
 20
364.081169
 30
0.0
 11
200.885416
 21
365.538739
 31
0.0
  0
LINE
  8
LC-001-002-----0
  6
CONTINUOUS
  5
6F4
 10
218.104051
 20
382.881169
 30
0.0
 11
231.604051
 21
382.881169
 31
0.0
  0
LINE
  8
LC-001-002-----0
  6
CONTINUOUS
  5
6F5
 10
176.604051
 20
357.111598
 30
0.0
 11
175.604051
 21
356.111598
 31
0.0
  0
LINE
  8
LC-001-002-----0
  6
CONTINUOUS
  5
6F6
 10
189.604051
 20
363.111598
 30
0.0
 11
193.604051
 21
363.111598
 31
0.0
  0
LINE
  8
LC-002-005-----0
  6
CONTINUOUS
  5
6F7
 10
202.1055
 20
347.111598
 30
0.0
 11
204.457077
 21
349.463176
 31
0.0
  0
LINE
  8
LC-002-005-----0
  6
CONTINUOUS
  5
6F8
 10
202.104051
 20
349.938576
 30
0.0
 11
204.290699
 21
352.125225
 31
0.0
  0
LINE
  8
LC-002-005-----0
  6
CONTINUOUS
  5
6F9
 10
202.104051
 20
352.767004
 30
0.0
 11
204.124321
 21
354.787274
 31
0.0
  0
LINE
  8
LC-002-005-----0
  6
CONTINUOUS
  5
6FA
 10
202.104051
 20
355.595431
 30
0.0
 11
203.957943
 21
357.449323
 31
0.0
  0
LINE
  8
LC-002-005-----0
  6
CONTINUOUS
  5
6FB
 10
202.104051
 20
358.423858
 30
0.0
 11
203.791565
 21
360.111372
 31
0.0
  0
LINE
  8
LC-002-005-----0
  6
CONTINUOUS
  5
6FC
 10
200.604051
 20
359.752285
 30
0.0
 11
203.625187
 21
362.773421
 31
0.0
  0
LINE
  8
LC-002-005-----0
  6
CONTINUOUS
  5
6FD
 10
200.604051
 20
362.580712
 30
0.0
 11
201.134937
 21
363.111598
 31
0.0
  0
LINE
  8
LC-002-005-----0
  6
CONTINUOUS
  5
6FE
 10
190.791791
 20
347.111598
 30
0.0
 11
191.104051
 21
347.423858
 31
0.0
  0
LINE
  8
LC-002-005-----0
  6
CONTINUOUS
  5
6FF
 10
188.646764
 20
347.794997
 30
0.0
 11
191.104051
 21
350.252285
 31
0.0
  0
LINE
  8
LC-002-005-----0
  6
CONTINUOUS
  5
700
 10
188.835325
 20
350.811986
 30
0.0
 11
191.104051
 21
353.080712
 31
0.0
  0
LINE
  8
LC-002-005-----0
  6
CONTINUOUS
  5
701
 10
189.023887
 20
353.828975
 30
0.0
 11
191.104051
 21
355.909139
 31
0.0
  0
LINE
  8
LC-002-005-----0
  6
CONTINUOUS
  5
702
 10
189.212449
 20
356.845964
 30
0.0
 11
192.604051
 21
360.237566
 31
0.0
  0
LINE
  8
LC-002-005-----0
  6
CONTINUOUS
  5
703
 10
189.401011
 20
359.862953
 30
0.0
 11
192.604051
 21
363.065993
 31
0.0
  0
LINE
  8
LC-002-005-----0
  6
CONTINUOUS
  5
704
 10
189.589573
 20
362.879942
 30
0.0
 11
189.821228
 21
363.111598
 31
0.0
  0
LINE
  8
LC-001-002-----0
  6
CONTINUOUS
  5
705
 10
193.604051
 20
364.081169
 30
0.0
 11
193.604051
 21
349.611598
 31
0.0
  0
LINE
  8
LC-001-002-----0
  6
CONTINUOUS
  5
706
 10
193.604051
 20
343.081169
 30
0.0
 11
199.604051
 21
343.081169
 31
0.0
  0
LINE
  8
LC-001-002-----0
  6
CONTINUOUS
  5
707
 10
193.604051
 20
343.081169
 30
0.0
 11
194.104051
 21
342.581169
 31
0.0
  0
LINE
  8
LC-001-002-----0
  6
CONTINUOUS
  5
708
 10
199.604051
 20
343.081169
 30
0.0
 11
199.104051
 21
342.581169
 31
0.0
  0
LINE
  8
LC-001-002-----0
  6
CONTINUOUS
  5
709
 10
359.458711
 20
201.156204
 30
0.0
 11
381.388524
 21
201.156162
 31
0.0
  0
LINE
  8
LC-001-002-----0
  6
CONTINUOUS
  5
70A
 10
359.458805
 20
250.15582
 30
0.0
 11
381.388618
 21
250.155778
 31
0.0
  0
LINE
  8
LC-001-002-----0
  6
CONTINUOUS
  5
70B
 10
359.458711
 20
201.156204
 30
0.0
 11
359.458711
 21
197.156207
 31
0.0
  0
LINE
  8
LC-001-002-----0
  6
CONTINUOUS
  5
70C
 10
362.458701
 20
198.656198
 30
0.0
 11
378.394003
 21
198.656167
 31
0.0
  0
LINE
  8
LC-001-002-----0
  6
CONTINUOUS
  5
70D
 10
362.458695
 20
197.156195
 30
0.0
 11
362.458701
 21
198.656198
 31
0.0
  0
LINE
  8
LC-001-002-----0
  6
CONTINUOUS
  5
70E
 10
404.391543
 20
257.156017
 30
0.0
 11
426.391543
 21
257.156017
 31
0.0
  0
LINE
  8
LC-001-002-----0
  6
DASHDOT
 62
     2
  5
70F
 10
387.958805
 20
225.406011
 30
0.0
 11
401.458805
 21
225.406011
 31
0.0
  0
LINE
  8
LC-001-002-----0
  6
CONTINUOUS
  5
710
 10
359.458805
 20
261.906011
 30
0.0
 11
359.458805
 21
249.906011
 31
0.0
  0
LINE
  8
LC-001-002-----0
  6
DASHDOT
 62
     2
  5
711
 10
401.458805
 20
225.406011
 30
0.0
 11
401.458805
 21
147.226011
 31
0.0
  0
LINE
  8
LC-001-002-----0
  6
CONTINUOUS
  5
712
 10
423.391543
 20
134.606973
 30
0.0
 11
423.391543
 21
252.455501
 31
0.0
  0
LINE
  8
LC-001-002-----0
  6
CONTINUOUS
  5
713
 10
417.458805
 20
227.553783
 30
0.0
 11
417.458805
 21
147.226011
 31
0.0
  0
LINE
  8
LC-001-002-----0
  6
CONTINUOUS
  5
714
 10
381.388527
 20
252.455501
 30
0.0
 11
423.391543
 21
252.455501
 31
0.0
  0
LINE
  8
LC-001-002-----0
  6
CONTINUOUS
  5
715
 10
385.458805
 20
202.906011
 30
0.0
 11
385.458805
 21
147.226011
 31
0.0
  0
ARC
  8
LC-007-002-RND-0
  6
CONTINUOUS
  5
716
 10
381.888524
 20
251.95791
 30
0.0
 40
3.5
 50
90.0
 51
168.498572
  0
LINE
  8
LC-001-002-----0
  6
CONTINUOUS
  5
717
 10
356.458805
 20
253.906011
 30
0.0
 11
356.458805
 21
243.638062
 31
0.0
  0
LINE
  8
LC-001-002-----0
  6
CONTINUOUS
  5
718
 10
356.458805
 20
253.906011
 30
0.0
 11
359.458805
 21
253.906011
 31
0.0
  0
LINE
  8
LC-001-002-----0
  6
CONTINUOUS
  5
719
 10
356.458805
 20
196.906011
 30
0.0
 11
359.458805
 21
196.906011
 31
0.0
  0
LINE
  8
LC-001-002-----0
  6
CONTINUOUS
  5
71A
 10
359.458805
 20
253.906011
 30
0.0
 11
359.458805
 21
249.906011
 31
0.0
  0
LINE
  8
LC-001-002-----0
  6
CONTINUOUS
  5
71B
 10
359.458805
 20
241.906011
 30
0.0
 11
387.958805
 21
241.906011
 31
0.0
  0
LINE
  8
LC-001-002-----0
  6
CONTINUOUS
  5
71C
 10
359.458805
 20
208.906011
 30
0.0
 11
387.958805
 21
208.906011
 31
0.0
  0
LINE
  8
LC-001-002-----0
  6
CONTINUOUS
  5
71D
 10
359.458805
 20
208.906011
 30
0.0
 11
356.458805
 21
207.17396
 31
0.0
  0
LINE
  8
LC-001-002-----0
  6
CONTINUOUS
  5
71E
 10
384.458805
 20
247.906011
 30
0.0
 11
384.458805
 21
244.406011
 31
0.0
  0
LINE
  8
LC-001-002-----0
  6
CONTINUOUS
  5
71F
 10
361.458805
 20
249.370113
 30
0.0
 11
361.458805
 21
244.406011
 31
0.0
  0
LINE
  8
LC-001-002-----0
  6
CONTINUOUS
  5
720
 10
359.458805
 20
241.906011
 30
0.0
 11
356.458805
 21
243.638062
 31
0.0
  0
LINE
  8
LC-001-002-----0
  6
CONTINUOUS
  5
721
 10
361.458805
 20
244.406011
 30
0.0
 11
363.958805
 21
244.406011
 31
0.0
  0
LINE
  8
LC-001-002-----0
  6
CONTINUOUS
  5
722
 10
359.458805
 20
200.906011
 30
0.0
 11
359.458805
 21
196.906011
 31
0.0
  0
LINE
  8
LC-001-002-----0
  6
CONTINUOUS
  5
723
 10
361.458805
 20
206.406011
 30
0.0
 11
363.958805
 21
206.406011
 31
0.0
  0
LINE
  8
LC-001-002-----0
  6
CONTINUOUS
  5
724
 10
361.458805
 20
206.406011
 30
0.0
 11
361.458805
 21
201.441909
 31
0.0
  0
LINE
  8
LC-001-002-----0
  6
CONTINUOUS
  5
725
 10
359.458805
 20
249.906011
 30
0.0
 11
361.458805
 21
249.370113
 31
0.0
  0
LINE
  8
LC-001-002-----0
  6
CONTINUOUS
  5
726
 10
384.458805
 20
206.406011
 30
0.0
 11
384.458805
 21
202.906011
 31
0.0
  0
LINE
  8
LC-001-002-----0
  6
CONTINUOUS
  5
727
 10
369.458805
 20
244.406011
 30
0.0
 11
373.958805
 21
244.406011
 31
0.0
  0
LINE
  8
LC-001-002-----0
  6
CONTINUOUS
  5
728
 10
381.388524
 20
201.156162
 30
0.0
 11
381.388524
 21
134.143251
 31
0.0
  0
LINE
  8
LC-001-002-----0
  6
CONTINUOUS
  5
729
 10
384.458805
 20
202.906011
 30
0.0
 11
385.458805
 21
202.906011
 31
0.0
  0
ARC
  8
LC-007-002-RND-0
  6
CONTINUOUS
  5
72A
 10
402.458805
 20
227.553783
 30
0.0
 40
15.0
 50
0.0
 51
75.0
  0
ARC
  8
LC-007-002-RND-0
  6
CONTINUOUS
  5
72B
 10
366.555305
 20
249.906011
 30
0.0
 40
0.5
 50
90.0
 51
159.443955
  0
LINE
  8
LC-001-002-----0
  6
CONTINUOUS
  5
72C
 10
366.555305
 20
250.406011
 30
0.0
 11
366.862305
 21
250.406011
 31
0.0
  0
LINE
  8
LC-001-002-----0
  6
CONTINUOUS
  5
72D
 10
363.958805
 20
244.406011
 30
0.0
 11
366.08714
 21
250.081573
 31
0.0
  0
LINE
  8
LC-001-002-----0
  6
CONTINUOUS
  5
72E
 10
366.555305
 20
250.406011
 30
0.0
 11
366.862305
 21
250.406011
 31
0.0
  0
ARC
  8
LC-007-002-RND-0
  6
CONTINUOUS
  5
72F
 10
366.862305
 20
249.906011
 30
0.0
 40
0.5
 50
20.556045
 51
90.0
  0
LINE
  8
LC-001-002-----0
  6
CONTINUOUS
  5
730
 10
367.330469
 20
250.081573
 30
0.0
 11
369.458805
 21
244.406011
 31
0.0
  0
ARC
  8
LC-007-002-RND-0
  6
CONTINUOUS
  5
731
 10
376.555305
 20
249.906011
 30
0.0
 40
0.5
 50
90.0
 51
159.443955
  0
LINE
  8
LC-001-002-----0
  6
CONTINUOUS
  5
732
 10
376.555305
 20
250.406011
 30
0.0
 11
376.862305
 21
250.406011
 31
0.0
  0
LINE
  8
LC-001-002-----0
  6
CONTINUOUS
  5
733
 10
373.958805
 20
244.406011
 30
0.0
 11
376.08714
 21
250.081573
 31
0.0
  0
LINE
  8
LC-001-002-----0
  6
CONTINUOUS
  5
734
 10
376.555305
 20
250.406011
 30
0.0
 11
376.862305
 21
250.406011
 31
0.0
  0
ARC
  8
LC-007-002-RND-0
  6
CONTINUOUS
  5
735
 10
376.862305
 20
249.906011
 30
0.0
 40
0.5
 50
20.556045
 51
90.0
  0
LINE
  8
LC-001-002-----0
  6
CONTINUOUS
  5
736
 10
377.330469
 20
250.081573
 30
0.0
 11
379.458805
 21
244.406011
 31
0.0
  0
LINE
  8
LC-001-002-----0
  6
CONTINUOUS
  5
737
 10
383.388524
 20
112.463092
 30
0.0
 11
383.388524
 21
110.963092
 31
0.0
  0
LINE
  8
LC-001-002-----0
  6
CONTINUOUS
  5
738
 10
382.388524
 20
110.918842
 30
0.0
 11
382.388524
 21
109.463092
 31
0.0
  0
ARC
  8
LC-007-002-RND-0
  6
CONTINUOUS
  5
739
 10
381.888524
 20
112.963092
 30
0.0
 40
3.5
 50
180.0
 51
270.0
  0
LINE
  8
LC-001-002-----0
  6
CONTINUOUS
  5
73A
 10
383.388524
 20
134.143251
 30
0.0
 11
381.388524
 21
134.143251
 31
0.0
  0
LINE
  8
LC-001-002-----0
  6
CONTINUOUS
  5
73B
 10
383.388524
 20
134.606973
 30
0.0
 11
383.388524
 21
132.570695
 31
0.0
  0
LINE
  8
LC-001-002-----0
  6
CONTINUOUS
  5
73C
 10
381.888524
 20
109.463092
 30
0.0
 11
382.388524
 21
109.463092
 31
0.0
  0
LINE
  8
LC-001-002-----0
  6
CONTINUOUS
  5
73D
 10
383.388524
 20
132.570695
 30
0.0
 11
381.388524
 21
132.570695
 31
0.0
  0
LINE
  8
LC-001-002-----0
  6
CONTINUOUS
  5
73E
 10
378.388524
 20
198.656167
 30
0.0
 11
378.388524
 21
112.963092
 31
0.0
  0
LINE
  8
LC-001-002-----0
  6
CONTINUOUS
  5
73F
 10
382.388524
 20
110.963092
 30
0.0
 11
383.388524
 21
110.963092
 31
0.0
  0
LINE
  8
LC-001-002-----0
  6
CONTINUOUS
  5
740
 10
381.388524
 20
132.570695
 30
0.0
 11
381.388524
 21
112.463092
 31
0.0
  0
LINE
  8
LC-001-002-----0
  6
CONTINUOUS
  5
741
 10
376.555305
 20
200.406011
 30
0.0
 11
376.862305
 21
200.406011
 31
0.0
  0
LINE
  8
LC-001-002-----0
  6
CONTINUOUS
  5
742
 10
379.458805
 20
244.406011
 30
0.0
 11
384.458805
 21
244.406011
 31
0.0
  0
LINE
  8
LC-001-002-----0
  6
CONTINUOUS
  5
743
 10
369.458805
 20
206.406011
 30
0.0
 11
373.958805
 21
206.406011
 31
0.0
  0
LINE
  8
LC-001-002-----0
  6
CONTINUOUS
  5
744
 10
379.458805
 20
206.406011
 30
0.0
 11
384.458805
 21
206.406011
 31
0.0
  0
LINE
  8
LC-001-002-----0
  6
CONTINUOUS
  5
745
 10
414.958805
 20
225.406011
 30
0.0
 11
414.958805
 21
147.226011
 31
0.0
  0
LINE
  8
LC-001-002-----0
  6
CONTINUOUS
  5
746
 10
387.958805
 20
241.906011
 30
0.0
 11
387.958805
 21
147.226011
 31
0.0
  0
LINE
  8
LC-001-002-----0
  6
CONTINUOUS
  5
747
 10
387.958805
 20
237.906011
 30
0.0
 11
402.458805
 21
237.906011
 31
0.0
  0
LINE
  8
LC-001-002-----0
  6
CONTINUOUS
  5
748
 10
384.458805
 20
247.906011
 30
0.0
 11
406.34109
 21
242.04267
 31
0.0
  0
ARC
  8
LC-007-002-RND-0
  6
CONTINUOUS
  5
749
 10
402.458805
 20
225.406011
 30
0.0
 40
12.5
 50
0.0
 51
90.0
  0
LINE
  8
LC-001-002-----0
  6
CONTINUOUS
  5
74A
 10
384.391543
 20
255.455501
 30
0.0
 11
426.391543
 21
255.455501
 31
0.0
  0
LINE
  8
LC-001-002-----0
  6
CONTINUOUS
  5
74B
 10
383.391543
 20
253.955501
 30
0.0
 11
384.391543
 21
253.955501
 31
0.0
  0
LINE
  8
LC-001-002-----0
  6
CONTINUOUS
  5
74C
 10
384.391543
 20
255.455501
 30
0.0
 11
384.391543
 21
253.955501
 31
0.0
  0
LINE
  8
LC-001-002-----0
  6
CONTINUOUS
  5
74D
 10
383.391543
 20
253.955501
 30
0.0
 11
383.391543
 21
252.45791
 31
0.0
  0
LINE
  8
LC-001-002-----0
  6
CONTINUOUS
  5
74E
 10
383.388524
 20
252.455501
 30
0.0
 11
383.388524
 21
253.95791
 31
0.0
  0
LINE
  8
LC-001-002-----0
  6
CONTINUOUS
  5
74F
 10
381.388527
 20
250.155778
 30
0.0
 11
381.388527
 21
252.455501
 31
0.0
  0
LINE
  8
LC-001-002-----0
  6
CONTINUOUS
  5
750
 10
383.391543
 20
253.955501
 30
0.0
 11
384.391543
 21
253.955501
 31
0.0
  0
LINE
  8
LC-001-002-----0
  6
CONTINUOUS
  5
751
 10
382.388524
 20
253.95791
 30
0.0
 11
383.388524
 21
253.95791
 31
0.0
  0
LINE
  8
LC-001-002-----0
  6
CONTINUOUS
  5
752
 10
382.388524
 20
254.00216
 30
0.0
 11
382.388524
 21
255.45791
 31
0.0
  0
LINE
  8
LC-001-002-----0
  6
CONTINUOUS
  5
753
 10
382.388524
 20
254.00216
 30
0.0
 11
382.388524
 21
255.45791
 31
0.0
  0
LINE
  8
LC-001-002-----0
  6
CONTINUOUS
  5
754
 10
381.888524
 20
255.45791
 30
0.0
 11
382.388524
 21
255.45791
 31
0.0
  0
LINE
  8
LC-001-002-----0
  6
CONTINUOUS
  5
755
 10
387.291543
 20
112.463092
 30
0.0
 11
387.291543
 21
103.876748
 31
0.0
  0
LINE
  8
LC-001-002-----0
  6
CONTINUOUS
  5
756
 10
425.391543
 20
109.463092
 30
0.0
 11
425.391543
 21
104.705175
 31
0.0
  0
LINE
  8
LC-001-002-----0
  6
CONTINUOUS
  5
757
 10
426.391543
 20
109.463092
 30
0.0
 11
425.391543
 21
109.463092
 31
0.0
  0
LINE
  8
LC-001-002-----0
  6
CONTINUOUS
  5
758
 10
426.391543
 20
210.86484
 30
0.0
 11
426.391543
 21
211.155501
 31
0.0
  0
LINE
  8
LC-001-002-----0
  6
CONTINUOUS
  5
759
 10
423.391543
 20
112.463092
 30
0.0
 11
381.388524
 21
112.463092
 31
0.0
  0
LINE
  8
LC-001-002-----0
  6
CONTINUOUS
  5
75A
 10
383.391543
 20
110.963092
 30
0.0
 11
384.391543
 21
110.963092
 31
0.0
  0
LINE
  8
LC-001-002-----0
  6
CONTINUOUS
  5
75B
 10
426.391543
 20
109.463092
 30
0.0
 11
426.391543
 21
257.156017
 31
0.0
  0
LINE
  8
LC-001-002-----0
  6
CONTINUOUS
  5
75C
 10
404.391543
 20
255.455501
 30
0.0
 11
404.391543
 21
257.156017
 31
0.0
  0
CIRCLE
  8
LC-001-002-----0
  6
DASHED
 62
     2
  5
75D
 10
687.054526
 20
215.462723
 30
0.0
 40
5.0
  0
CIRCLE
  8
LC-001-002-----0
  6
DASHED
 62
     2
  5
75E
 10
687.054526
 20
215.462723
 30
0.0
 40
4.5
  0
CIRCLE
  8
LC-001-002-----0
  6
DASHED
 62
     2
  5
75F
 10
687.054526
 20
215.462723
 30
0.0
 40
3.0
  0
LINE
  8
LC-001-002-----0
  6
DASHED
 62
     2
  5
760
 10
682.667043
 20
216.462723
 30
0.0
 11
680.891181
 21
216.462723
 31
0.0
  0
LINE
  8
LC-001-002-----0
  6
DASHED
 62
     2
  5
761
 10
682.667043
 20
214.462723
 30
0.0
 11
681.243835
 21
214.462723
 31
0.0
  0
ARC
  8
LC-001-002-----0
  6
DASHED
 62
     2
  5
762
 10
649.064526
 20
225.406011
 30
0.0
 40
32.436123
 50
119.556212
 51
60.443788
  0
CIRCLE
  8
LC-001-002-----0
  6
CONTINUOUS
  5
763
 10
593.177089
 20
214.158809
 30
0.0
 40
5.0
  0
CIRCLE
  8
LC-001-002-----0
  6
DASHED
 62
     2
  5
764
 10
593.177089
 20
214.158809
 30
0.0
 40
4.5
  0
CIRCLE
  8
LC-001-002-----0
  6
CONTINUOUS
  5
765
 10
593.177089
 20
214.158809
 30
0.0
 40
3.0
  0
LINE
  8
LC-001-002-----0
  6
CONTINUOUS
  5
766
 10
598.076068
 20
215.158809
 30
0.0
 11
599.939994
 21
215.158809
 31
0.0
  0
LINE
  8
LC-001-002-----0
  6
CONTINUOUS
  5
767
 10
598.030953
 20
213.158809
 30
0.0
 11
599.293915
 21
213.158809
 31
0.0
  0
CIRCLE
  8
LC-001-002-----0
  6
DASHED
 62
     2
  5
768
 10
621.177089
 20
251.158809
 30
0.0
 40
5.0
  0
CIRCLE
  8
LC-001-002-----0
  6
DASHED
 62
     2
  5
769
 10
621.177089
 20
251.158809
 30
0.0
 40
4.5
  0
CIRCLE
  8
LC-001-002-----0
  6
DASHED
 62
     2
  5
76A
 10
621.177089
 20
251.158809
 30
0.0
 40
3.0
  0
LINE
  8
LC-001-002-----0
  6
DASHED
 62
     2
  5
76B
 10
625.05036
 20
246.84537
 30
0.0
 11
624.349559
 21
247.967347
 31
0.0
  0
LINE
  8
LC-001-002-----0
  6
DASHED
 62
     2
  5
76C
 10
623.571979
 20
245.43697
 30
0.0
 11
622.653267
 21
246.907821
 31
0.0
  0
LINE
  8
LC-001-002-----0
  6
CONTINUOUS
  5
76D
 10
385.291543
 20
109.463092
 30
0.0
 11
385.291543
 21
57.963092
 31
0.0
  0
LINE
  8
LC-001-002-----0
  6
CONTINUOUS
  5
76E
 10
387.291543
 20
112.463092
 30
0.0
 11
387.291543
 21
54.463092
 31
0.0
  0
LINE
  8
LC-001-002-----0
  6
CONTINUOUS
  5
76F
 10
385.291543
 20
57.963092
 30
0.0
 11
386.229365
 21
54.463092
 31
0.0
  0
LINE
  8
LC-001-002-----0
  6
CONTINUOUS
  5
770
 10
424.453721
 20
54.463092
 30
0.0
 11
386.229365
 21
54.463092
 31
0.0
  0
LINE
  8
LC-001-002-----0
  6
CONTINUOUS
  5
771
 10
425.391543
 20
57.963092
 30
0.0
 11
424.453721
 21
54.463092
 31
0.0
  0
LINE
  8
LC-001-002-----0
  6
CONTINUOUS
  5
772
 10
423.391543
 20
131.00642
 30
0.0
 11
423.391543
 21
54.463092
 31
0.0
  0
LINE
  8
LC-001-002-----0
  6
CONTINUOUS
  5
773
 10
425.391543
 20
109.463092
 30
0.0
 11
425.391543
 21
57.963092
 31
0.0
  0
LINE
  8
LC-001-002-----0
  6
CONTINUOUS
  5
774
 10
629.004526
 20
57.963092
 30
0.0
 11
669.104526
 21
57.963092
 31
0.0
  0
LINE
  8
LC-001-002-----0
  6
CONTINUOUS
  5
775
 10
668.166703
 20
54.463092
 30
0.0
 11
629.942348
 21
54.463092
 31
0.0
  0
LINE
  8
LC-001-002-----0
  6
CONTINUOUS
  5
776
 10
629.004526
 20
57.963092
 30
0.0
 11
629.942348
 21
54.463092
 31
0.0
  0
LINE
  8
LC-001-002-----0
  6
CONTINUOUS
  5
777
 10
669.104526
 20
57.963092
 30
0.0
 11
668.166703
 21
54.463092
 31
0.0
  0
LINE
  8
LC-001-002-----0
  6
CONTINUOUS
  5
778
 10
669.104526
 20
109.213602
 30
0.0
 11
669.104526
 21
57.963092
 31
0.0
  0
LINE
  8
LC-001-002-----0
  6
CONTINUOUS
  5
779
 10
629.004526
 20
109.213602
 30
0.0
 11
629.004526
 21
57.963092
 31
0.0
  0
LINE
  8
LC-002-005-----0
  6
CONTINUOUS
  5
77A
 10
423.391543
 20
55.696016
 30
0.0
 11
425.293786
 21
57.59826
 31
0.0
  0
LINE
  8
LC-002-005-----0
  6
CONTINUOUS
  5
77B
 10
423.391543
 20
58.524444
 30
0.0
 11
425.391543
 21
60.524444
 31
0.0
  0
LINE
  8
LC-002-005-----0
  6
CONTINUOUS
  5
77C
 10
423.391543
 20
61.352871
 30
0.0
 11
425.391543
 21
63.352871
 31
0.0
  0
LINE
  8
LC-002-005-----0
  6
CONTINUOUS
  5
77D
 10
423.391543
 20
64.181298
 30
0.0
 11
425.391543
 21
66.181298
 31
0.0
  0
LINE
  8
LC-002-005-----0
  6
CONTINUOUS
  5
77E
 10
423.391543
 20
67.009725
 30
0.0
 11
425.391543
 21
69.009725
 31
0.0
  0
LINE
  8
LC-002-005-----0
  6
CONTINUOUS
  5
77F
 10
423.391543
 20
69.838152
 30
0.0
 11
425.391543
 21
71.838152
 31
0.0
  0
LINE
  8
LC-002-005-----0
  6
CONTINUOUS
  5
780
 10
423.391543
 20
72.666579
 30
0.0
 11
425.391543
 21
74.666579
 31
0.0
  0
LINE
  8
LC-002-005-----0
  6
CONTINUOUS
  5
781
 10
423.391543
 20
75.495006
 30
0.0
 11
425.391543
 21
77.495006
 31
0.0
  0
LINE
  8
LC-002-005-----0
  6
CONTINUOUS
  5
782
 10
423.391543
 20
78.323433
 30
0.0
 11
425.391543
 21
80.323433
 31
0.0
  0
LINE
  8
LC-002-005-----0
  6
CONTINUOUS
  5
783
 10
423.391543
 20
81.151861
 30
0.0
 11
425.391543
 21
83.151861
 31
0.0
  0
LINE
  8
LC-002-005-----0
  6
CONTINUOUS
  5
784
 10
423.391543
 20
83.980288
 30
0.0
 11
425.391543
 21
85.980288
 31
0.0
  0
LINE
  8
LC-002-005-----0
  6
CONTINUOUS
  5
785
 10
423.391543
 20
86.808715
 30
0.0
 11
425.391543
 21
88.808715
 31
0.0
  0
LINE
  8
LC-002-005-----0
  6
CONTINUOUS
  5
786
 10
423.391543
 20
89.637142
 30
0.0
 11
425.391543
 21
91.637142
 31
0.0
  0
LINE
  8
LC-002-005-----0
  6
CONTINUOUS
  5
787
 10
423.391543
 20
92.465569
 30
0.0
 11
425.391543
 21
94.465569
 31
0.0
  0
LINE
  8
LC-002-005-----0
  6
CONTINUOUS
  5
788
 10
423.391543
 20
95.293996
 30
0.0
 11
425.391543
 21
97.293996
 31
0.0
  0
LINE
  8
LC-002-005-----0
  6
CONTINUOUS
  5
789
 10
423.391543
 20
98.122423
 30
0.0
 11
425.391543
 21
100.122423
 31
0.0
  0
LINE
  8
LC-002-005-----0
  6
CONTINUOUS
  5
78A
 10
423.391543
 20
100.95085
 30
0.0
 11
425.391543
 21
102.95085
 31
0.0
  0
LINE
  8
LC-002-005-----0
  6
CONTINUOUS
  5
78B
 10
423.391543
 20
103.779278
 30
0.0
 11
425.391543
 21
105.779278
 31
0.0
  0
LINE
  8
LC-002-005-----0
  6
CONTINUOUS
  5
78C
 10
423.391543
 20
106.607705
 30
0.0
 11
425.391543
 21
108.607705
 31
0.0
  0
LINE
  8
LC-002-005-----0
  6
CONTINUOUS
  5
78D
 10
426.24693
 20
109.463092
 30
0.0
 11
426.391543
 21
109.607705
 31
0.0
  0
LINE
  8
LC-002-005-----0
  6
CONTINUOUS
  5
78E
 10
423.391543
 20
109.436132
 30
0.0
 11
426.391543
 21
112.436132
 31
0.0
  0
LINE
  8
LC-002-005-----0
  6
CONTINUOUS
  5
78F
 10
423.391543
 20
112.264559
 30
0.0
 11
426.391543
 21
115.264559
 31
0.0
  0
LINE
  8
LC-002-005-----0
  6
CONTINUOUS
  5
790
 10
423.391543
 20
115.092986
 30
0.0
 11
426.391543
 21
118.092986
 31
0.0
  0
LINE
  8
LC-002-005-----0
  6
CONTINUOUS
  5
791
 10
423.391543
 20
117.921413
 30
0.0
 11
426.391543
 21
120.921413
 31
0.0
  0
LINE
  8
LC-002-005-----0
  6
CONTINUOUS
  5
792
 10
423.391543
 20
120.74984
 30
0.0
 11
426.391543
 21
123.74984
 31
0.0
  0
LINE
  8
LC-002-005-----0
  6
CONTINUOUS
  5
793
 10
423.391543
 20
123.578267
 30
0.0
 11
426.391543
 21
126.578267
 31
0.0
  0
LINE
  8
LC-002-005-----0
  6
CONTINUOUS
  5
794
 10
423.391543
 20
126.406695
 30
0.0
 11
426.391543
 21
129.406695
 31
0.0
  0
LINE
  8
LC-002-005-----0
  6
CONTINUOUS
  5
795
 10
423.391543
 20
129.235122
 30
0.0
 11
426.391543
 21
132.235122
 31
0.0
  0
LINE
  8
LC-002-005-----0
  6
CONTINUOUS
  5
796
 10
423.391543
 20
132.063549
 30
0.0
 11
426.391543
 21
135.063549
 31
0.0
  0
LINE
  8
LC-002-005-----0
  6
CONTINUOUS
  5
797
 10
423.391543
 20
134.891976
 30
0.0
 11
426.391543
 21
137.891976
 31
0.0
  0
LINE
  8
LC-002-005-----0
  6
CONTINUOUS
  5
798
 10
423.391543
 20
137.720403
 30
0.0
 11
426.391543
 21
140.720403
 31
0.0
  0
LINE
  8
LC-002-005-----0
  6
CONTINUOUS
  5
799
 10
423.391543
 20
140.54883
 30
0.0
 11
426.391543
 21
143.54883
 31
0.0
  0
LINE
  8
LC-002-005-----0
  6
CONTINUOUS
  5
79A
 10
423.391543
 20
143.377257
 30
0.0
 11
426.391543
 21
146.377257
 31
0.0
  0
LINE
  8
LC-002-005-----0
  6
CONTINUOUS
  5
79B
 10
423.391543
 20
146.205684
 30
0.0
 11
426.391543
 21
149.205684
 31
0.0
  0
LINE
  8
LC-002-005-----0
  6
CONTINUOUS
  5
79C
 10
423.391543
 20
149.034112
 30
0.0
 11
426.391543
 21
152.034112
 31
0.0
  0
LINE
  8
LC-002-005-----0
  6
CONTINUOUS
  5
79D
 10
423.391543
 20
151.862539
 30
0.0
 11
426.391543
 21
154.862539
 31
0.0
  0
LINE
  8
LC-002-005-----0
  6
CONTINUOUS
  5
79E
 10
423.391543
 20
154.690966
 30
0.0
 11
426.391543
 21
157.690966
 31
0.0
  0
LINE
  8
LC-002-005-----0
  6
CONTINUOUS
  5
79F
 10
423.391543
 20
157.519393
 30
0.0
 11
426.391543
 21
160.519393
 31
0.0
  0
LINE
  8
LC-002-005-----0
  6
CONTINUOUS
  5
7A0
 10
423.391543
 20
160.34782
 30
0.0
 11
426.391543
 21
163.34782
 31
0.0
  0
LINE
  8
LC-002-005-----0
  6
CONTINUOUS
  5
7A1
 10
423.391543
 20
163.176247
 30
0.0
 11
426.391543
 21
166.176247
 31
0.0
  0
LINE
  8
LC-002-005-----0
  6
CONTINUOUS
  5
7A2
 10
423.391543
 20
166.004674
 30
0.0
 11
426.391543
 21
169.004674
 31
0.0
  0
LINE
  8
LC-002-005-----0
  6
CONTINUOUS
  5
7A3
 10
423.391543
 20
168.833101
 30
0.0
 11
426.391543
 21
171.833101
 31
0.0
  0
LINE
  8
LC-002-005-----0
  6
CONTINUOUS
  5
7A4
 10
423.391543
 20
171.661529
 30
0.0
 11
426.391543
 21
174.661529
 31
0.0
  0
LINE
  8
LC-002-005-----0
  6
CONTINUOUS
  5
7A5
 10
382.891543
 20
133.989956
 30
0.0
 11
382.907838
 21
134.006251
 31
0.0
  0
LINE
  8
LC-002-005-----0
  6
CONTINUOUS
  5
7A6
 10
423.391543
 20
174.489956
 30
0.0
 11
426.391543
 21
177.489956
 31
0.0
  0
LINE
  8
LC-002-005-----0
  6
CONTINUOUS
  5
7A7
 10
423.391543
 20
177.318383
 30
0.0
 11
426.391543
 21
180.318383
 31
0.0
  0
LINE
  8
LC-002-005-----0
  6
CONTINUOUS
  5
7A8
 10
423.391543
 20
180.14681
 30
0.0
 11
426.391543
 21
183.14681
 31
0.0
  0
LINE
  8
LC-002-005-----0
  6
CONTINUOUS
  5
7A9
 10
423.391543
 20
182.975237
 30
0.0
 11
426.391543
 21
185.975237
 31
0.0
  0
LINE
  8
LC-002-005-----0
  6
CONTINUOUS
  5
7AA
 10
423.391543
 20
185.803664
 30
0.0
 11
426.391543
 21
188.803664
 31
0.0
  0
LINE
  8
LC-002-005-----0
  6
CONTINUOUS
  5
7AB
 10
423.391543
 20
188.632091
 30
0.0
 11
426.391543
 21
191.632091
 31
0.0
  0
LINE
  8
LC-002-005-----0
  6
CONTINUOUS
  5
7AC
 10
423.391543
 20
191.460518
 30
0.0
 11
426.391543
 21
194.460518
 31
0.0
  0
LINE
  8
LC-002-005-----0
  6
CONTINUOUS
  5
7AD
 10
423.391543
 20
194.288946
 30
0.0
 11
426.391543
 21
197.288946
 31
0.0
  0
LINE
  8
LC-002-005-----0
  6
CONTINUOUS
  5
7AE
 10
423.391543
 20
197.117373
 30
0.0
 11
426.391543
 21
200.117373
 31
0.0
  0
LINE
  8
LC-002-005-----0
  6
CONTINUOUS
  5
7AF
 10
423.391543
 20
199.9458
 30
0.0
 11
426.391543
 21
202.9458
 31
0.0
  0
LINE
  8
LC-002-005-----0
  6
CONTINUOUS
  5
7B0
 10
423.391543
 20
202.774227
 30
0.0
 11
426.391543
 21
205.774227
 31
0.0
  0
LINE
  8
LC-002-005-----0
  6
CONTINUOUS
  5
7B1
 10
423.391543
 20
205.602654
 30
0.0
 11
426.391543
 21
208.602654
 31
0.0
  0
LINE
  8
LC-002-005-----0
  6
CONTINUOUS
  5
7B2
 10
423.391543
 20
208.431081
 30
0.0
 11
426.391543
 21
211.431081
 31
0.0
  0
LINE
  8
LC-002-005-----0
  6
CONTINUOUS
  5
7B3
 10
423.391543
 20
211.259508
 30
0.0
 11
426.391543
 21
214.259508
 31
0.0
  0
LINE
  8
LC-002-005-----0
  6
CONTINUOUS
  5
7B4
 10
423.391543
 20
214.087935
 30
0.0
 11
426.391543
 21
217.087935
 31
0.0
  0
LINE
  8
LC-002-005-----0
  6
CONTINUOUS
  5
7B5
 10
423.391543
 20
216.916363
 30
0.0
 11
426.391543
 21
219.916363
 31
0.0
  0
LINE
  8
LC-002-005-----0
  6
CONTINUOUS
  5
7B6
 10
423.391543
 20
219.74479
 30
0.0
 11
426.391543
 21
222.74479
 31
0.0
  0
LINE
  8
LC-002-005-----0
  6
CONTINUOUS
  5
7B7
 10
423.391543
 20
222.573217
 30
0.0
 11
426.391543
 21
225.573217
 31
0.0
  0
LINE
  8
LC-002-005-----0
  6
CONTINUOUS
  5
7B8
 10
423.391543
 20
225.401644
 30
0.0
 11
426.391543
 21
228.401644
 31
0.0
  0
LINE
  8
LC-002-005-----0
  6
CONTINUOUS
  5
7B9
 10
423.391543
 20
228.230071
 30
0.0
 11
426.391543
 21
231.230071
 31
0.0
  0
LINE
  8
LC-002-005-----0
  6
CONTINUOUS
  5
7BA
 10
423.391543
 20
231.058498
 30
0.0
 11
426.391543
 21
234.058498
 31
0.0
  0
LINE
  8
LC-002-005-----0
  6
CONTINUOUS
  5
7BB
 10
423.391543
 20
233.886925
 30
0.0
 11
426.391543
 21
236.886925
 31
0.0
  0
LINE
  8
LC-002-005-----0
  6
CONTINUOUS
  5
7BC
 10
423.391543
 20
236.715352
 30
0.0
 11
426.391543
 21
239.715352
 31
0.0
  0
LINE
  8
LC-002-005-----0
  6
CONTINUOUS
  5
7BD
 10
423.391543
 20
239.54378
 30
0.0
 11
426.391543
 21
242.54378
 31
0.0
  0
LINE
  8
LC-002-005-----0
  6
CONTINUOUS
  5
7BE
 10
423.391543
 20
242.372207
 30
0.0
 11
426.391543
 21
245.372207
 31
0.0
  0
LINE
  8
LC-002-005-----0
  6
CONTINUOUS
  5
7BF
 10
423.391543
 20
245.200634
 30
0.0
 11
426.391543
 21
248.200634
 31
0.0
  0
LINE
  8
LC-002-005-----0
  6
CONTINUOUS
  5
7C0
 10
423.391543
 20
248.029061
 30
0.0
 11
426.391543
 21
251.029061
 31
0.0
  0
LINE
  8
LC-002-005-----0
  6
CONTINUOUS
  5
7C1
 10
423.35742
 20
250.823366
 30
0.0
 11
426.391543
 21
253.857488
 31
0.0
  0
LINE
  8
LC-002-005-----0
  6
CONTINUOUS
  5
7C2
 10
422.049725
 20
252.344097
 30
0.0
 11
425.161129
 21
255.455501
 31
0.0
  0
LINE
  8
LC-002-005-----0
  6
CONTINUOUS
  5
7C3
 10
419.332701
 20
252.455501
 30
0.0
 11
422.332701
 21
255.455501
 31
0.0
  0
LINE
  8
LC-002-005-----0
  6
CONTINUOUS
  5
7C4
 10
416.504274
 20
252.455501
 30
0.0
 11
419.504274
 21
255.455501
 31
0.0
  0
LINE
  8
LC-002-005-----0
  6
CONTINUOUS
  5
7C5
 10
413.675847
 20
252.455501
 30
0.0
 11
416.675847
 21
255.455501
 31
0.0
  0
LINE
  8
LC-002-005-----0
  6
CONTINUOUS
  5
7C6
 10
410.84742
 20
252.455501
 30
0.0
 11
413.84742
 21
255.455501
 31
0.0
  0
LINE
  8
LC-002-005-----0
  6
CONTINUOUS
  5
7C7
 10
408.018993
 20
252.455501
 30
0.0
 11
411.018993
 21
255.455501
 31
0.0
  0
LINE
  8
LC-002-005-----0
  6
CONTINUOUS
  5
7C8
 10
405.190566
 20
252.455501
 30
0.0
 11
408.190566
 21
255.455501
 31
0.0
  0
LINE
  8
LC-002-005-----0
  6
CONTINUOUS
  5
7C9
 10
402.362139
 20
252.455501
 30
0.0
 11
405.362139
 21
255.455501
 31
0.0
  0
LINE
  8
LC-002-005-----0
  6
CONTINUOUS
  5
7CA
 10
399.533712
 20
252.455501
 30
0.0
 11
402.533712
 21
255.455501
 31
0.0
  0
LINE
  8
LC-002-005-----0
  6
CONTINUOUS
  5
7CB
 10
396.705284
 20
252.455501
 30
0.0
 11
399.705284
 21
255.455501
 31
0.0
  0
LINE
  8
LC-002-005-----0
  6
CONTINUOUS
  5
7CC
 10
393.876857
 20
252.455501
 30
0.0
 11
396.876857
 21
255.455501
 31
0.0
  0
LINE
  8
LC-002-005-----0
  6
CONTINUOUS
  5
7CD
 10
391.04843
 20
252.455501
 30
0.0
 11
394.04843
 21
255.455501
 31
0.0
  0
LINE
  8
LC-002-005-----0
  6
CONTINUOUS
  5
7CE
 10
388.220003
 20
252.455501
 30
0.0
 11
391.220003
 21
255.455501
 31
0.0
  0
LINE
  8
LC-002-005-----0
  6
CONTINUOUS
  5
7CF
 10
385.391576
 20
252.455501
 30
0.0
 11
388.391576
 21
255.455501
 31
0.0
  0
LINE
  8
LC-002-005-----0
  6
CONTINUOUS
  5
7D0
 10
382.891543
 20
252.783895
 30
0.0
 11
385.563149
 21
255.455501
 31
0.0
  0
LINE
  8
LC-001-002-----0
  6
DASHED
 62
     2
  5
7D1
 10
631.004526
 20
112.213602
 30
0.0
 11
631.004526
 21
54.463092
 31
0.0
  0
LINE
  8
LC-001-002-----0
  6
DASHED
 62
     2
  5
7D2
 10
667.104526
 20
112.213602
 30
0.0
 11
667.104526
 21
54.463092
 31
0.0
  0
ENDSEC
  0
EOF
