  0
SECTION
  2
HEADER
  9
$ACADVER
  1
AC1015
  9
$ACADMAINTVER
 70
     6
  9
$DWGCODEPAGE
  3
ANSI_1252
  9
$INSBASE
 10
265.204691
 20
256.501
 30
0.0
  9
$EXTMIN
 10
265.204691
 20
256.501
 30
0.0
  9
$EXTMAX
 10
1105.204691
 20
850.501
 30
0.0
  9
$LIMMIN
 10
265.204691
 20
256.501
  9
$LIMMAX
 10
1105.204691
 20
850.501
  9
$ORTHOMODE
 70
     0
  9
$REGENMODE
 70
     1
  9
$FILLMODE
 70
     1
  9
$QTEXTMODE
 70
     0
  9
$MIRRTEXT
 70
     1
  9
$LTSCALE
 40
2.0
  9
$ATTMODE
 70
     1
  9
$TEXTSIZE
 40
2.5
  9
$TRACEWID
 40
1.0
  9
$TEXTSTYLE
  7
Standard
  9
$CLAYER
  8
0
  9
$CELTYPE
  6
ByLayer
  9
$CECOLOR
 62
     7
  9
$CELTSCALE
 40
1.0
  9
$DISPSILH
 70
     0
  9
$DIMSCALE
 40
2.0
  9
$DIMASZ
 40
3.5
  9
$DIMEXO
 40
0.625
  9
$DIMDLI
 40
3.75
  9
$DIMRND
 40
0.0
  9
$DIMDLE
 40
0.0
  9
$DIMEXE
 40
1.25
  9
$DIMTP
 40
0.0
  9
$DIMTM
 40
0.0
  9
$DIMTXT
 40
3.5
  9
$DIMCEN
 40
2.5
  9
$DIMTSZ
 40
0.0
  9
$DIMTOL
 70
     0
  9
$DIMLIM
 70
     0
  9
$DIMTIH
 70
     0
  9
$DIMTOH
 70
     0
  9
$DIMSE1
 70
     0
  9
$DIMSE2
 70
     0
  9
$DIMTAD
 70
     1
  9
$DIMZIN
 70
     8
  9
$DIMBLK
  1

  9
$DIMASO
 70
     1
  9
$DIMSHO
 70
     1
  9
$DIMPOST
  1

  9
$DIMAPOST
  1

  9
$DIMALT
 70
     0
  9
$DIMALTD
 70
     3
  9
$DIMALTF
 40
0.03937
  9
$DIMLFAC
 40
1.0
  9
$DIMTOFL
 70
     1
  9
$DIMTVP
 40
0.0
  9
$DIMTIX
 70
     0
  9
$DIMSOXD
 70
     0
  9
$DIMSAH
 70
     0
  9
$DIMBLK1
  1

  9
$DIMBLK2
  1

  9
$DIMSTYLE
  2
ISO-25
  9
$DIMCLRD
 70
     0
  9
$DIMCLRE
 70
     0
  9
$DIMCLRT
 70
     0
  9
$DIMTFAC
 40
1.0
  9
$DIMGAP
 40
0.625
  9
$DIMJUST
 70
     0
  9
$DIMSD1
 70
     0
  9
$DIMSD2
 70
     0
  9
$DIMTOLJ
 70
     0
  9
$DIMTZIN
 70
     8
  9
$DIMALTZ
 70
     0
  9
$DIMALTTZ
 70
     0
  9
$DIMUPT
 70
     0
  9
$DIMDEC
 70
     2
  9
$DIMTDEC
 70
     2
  9
$DIMALTU
 70
     2
  9
$DIMALTTD
 70
     3
  9
$DIMTXSTY
  7
Standard
  9
$DIMAUNIT
 70
     0
  9
$DIMADEC
 70
     0
  9
$DIMALTRND
 40
0.0
  9
$DIMAZIN
 70
     0
  9
$DIMDSEP
 70
    44
  9
$DIMATFIT
 70
     3
  9
$DIMFRAC
 70
     0
  9
$DIMLDRBLK
  1

  9
$DIMLUNIT
 70
     2
  9
$DIMLWD
 70
    -2
  9
$DIMLWE
 70
    -2
  9
$DIMTMOVE
 70
     0
  9
$LUNITS
 70
     2
  9
$LUPREC
 70
     4
  9
$SKETCHINC
 40
1.0
  9
$FILLETRAD
 40
10.0
  9
$AUNITS
 70
     0
  9
$AUPREC
 70
     0
  9
$MENU
  1
.
  9
$ELEVATION
 40
0.0
  9
$PELEVATION
 40
0.0
  9
$THICKNESS
 40
0.0
  9
$LIMCHECK
 70
     0
  9
$CHAMFERA
 40
10.0
  9
$CHAMFERB
 40
10.0
  9
$CHAMFERC
 40
20.0
  9
$CHAMFERD
 40
0.0
  9
$SKPOLY
 70
     0
  9
$TDCREATE
 40
2455404.359912396
  9
$TDUCREATE
 40
2455404.276579063
  9
$TDUPDATE
 40
2455404.359912408
  9
$TDUUPDATE
 40
2455404.276579074
  9
$TDINDWG
 40
0.0000000116
  9
$TDUSRTIMER
 40
0.0000000116
  9
$USRTIMER
 70
     1
  9
$ANGBASE
 50
0.0
  9
$ANGDIR
 70
     0
  9
$PDMODE
 70
     0
  9
$PDSIZE
 40
0.0
  9
$PLINEWID
 40
0.0
  9
$SPLFRAME
 70
     0
  9
$SPLINETYPE
 70
     6
  9
$SPLINESEGS
 70
     8
  9
$HANDSEED
  5
4FE
  9
$SURFTAB1
 70
     6
  9
$SURFTAB2
 70
     6
  9
$SURFTYPE
 70
     6
  9
$SURFU
 70
     6
  9
$SURFV
 70
     6
  9
$UCSBASE
  2

  9
$UCSNAME
  2

  9
$UCSORG
 10
0.0
 20
0.0
 30
0.0
  9
$UCSXDIR
 10
1.0
 20
0.0
 30
0.0
  9
$UCSYDIR
 10
0.0
 20
1.0
 30
0.0
  9
$UCSORTHOREF
  2

  9
$UCSORTHOVIEW
 70
     0
  9
$UCSORGTOP
 10
0.0
 20
0.0
 30
0.0
  9
$UCSORGBOTTOM
 10
0.0
 20
0.0
 30
0.0
  9
$UCSORGLEFT
 10
0.0
 20
0.0
 30
0.0
  9
$UCSORGRIGHT
 10
0.0
 20
0.0
 30
0.0
  9
$UCSORGFRONT
 10
0.0
 20
0.0
 30
0.0
  9
$UCSORGBACK
 10
0.0
 20
0.0
 30
0.0
  9
$PUCSBASE
  2

  9
$PUCSNAME
  2

  9
$PUCSORG
 10
0.0
 20
0.0
 30
0.0
  9
$PUCSXDIR
 10
1.0
 20
0.0
 30
0.0
  9
$PUCSYDIR
 10
0.0
 20
1.0
 30
0.0
  9
$PUCSORTHOREF
  2

  9
$PUCSORTHOVIEW
 70
     0
  9
$PUCSORGTOP
 10
0.0
 20
0.0
 30
0.0
  9
$PUCSORGBOTTOM
 10
0.0
 20
0.0
 30
0.0
  9
$PUCSORGLEFT
 10
0.0
 20
0.0
 30
0.0
  9
$PUCSORGRIGHT
 10
0.0
 20
0.0
 30
0.0
  9
$PUCSORGFRONT
 10
0.0
 20
0.0
 30
0.0
  9
$PUCSORGBACK
 10
0.0
 20
0.0
 30
0.0
  9
$USERI1
 70
     0
  9
$USERI2
 70
     0
  9
$USERI3
 70
     0
  9
$USERI4
 70
     0
  9
$USERI5
 70
     0
  9
$USERR1
 40
0.0
  9
$USERR2
 40
0.0
  9
$USERR3
 40
0.0
  9
$USERR4
 40
0.0
  9
$USERR5
 40
0.0
  9
$WORLDVIEW
 70
     1
  9
$SHADEDGE
 70
     3
  9
$SHADEDIF
 70
    70
  9
$TILEMODE
 70
     1
  9
$MAXACTVP
 70
    64
  9
$PINSBASE
 10
0.0
 20
0.0
 30
0.0
  9
$PLIMCHECK
 70
     0
  9
$PEXTMIN
 10
265.204691
 20
256.501
 30
0.0
  9
$PEXTMAX
 10
1105.204691
 20
850.501
 30
0.0
  9
$PLIMMIN
 10
265.204691
 20
256.501
  9
$PLIMMAX
 10
1105.204691
 20
850.501
  9
$UNITMODE
 70
     0
  9
$VISRETAIN
 70
     1
  9
$PLINEGEN
 70
     0
  9
$PSLTSCALE
 70
     1
  9
$TREEDEPTH
 70
  3020
  9
$CMLSTYLE
  2
Standard
  9
$CMLJUST
 70
     0
  9
$CMLSCALE
 40
20.0
  9
$PROXYGRAPHICS
 70
     1
  9
$MEASUREMENT
 70
     1
  9
$CELWEIGHT
370
    -1
  9
$ENDCAPS
280
     0
  9
$JOINSTYLE
280
     0
  9
$LWDISPLAY
290
     0
  9
$INSUNITS
 70
     4
  9
$HYPERLINKBASE
  1

  9
$STYLESHEET
  1

  9
$XEDIT
290
     1
  9
$CEPSNTYPE
380
     0
  9
$PSTYLEMODE
290
     1
  9
$FINGERPRINTGUID
  2
{FAEB1C30-E019-11D5-929B-00C0DF256EC4}
  9
$VERSIONGUID
  2
{FAEB1C32-E019-11D5-929B-00C0DF256EC4}
  9
$EXTNAMES
290
     1
  9
$PSVPSCALE
 40
0.0
  9
$OLESTARTUP
290
     0
  0
ENDSEC
  0
SECTION
  2
CLASSES
  0
CLASS
  1
ACDBDICTIONARYWDFLT
  2
AcDbDictionaryWithDefault
  3
ObjectDBX Classes
 90
        0
280
     0
281
     0
  0
CLASS
  1
ACDBPLACEHOLDER
  2
AcDbPlaceHolder
  3
ObjectDBX Classes
 90
        0
280
     0
281
     0
  0
CLASS
  1
LAYOUT
  2
AcDbLayout
  3
ObjectDBX Classes
 90
        0
280
     0
281
     0
  0
ENDSEC
  0
SECTION
  2
TABLES
  0
TABLE
  2
VPORT
  5
8
330
0
100
AcDbSymbolTable
 70
     2
  0
VPORT
  5
29
330
8
100
AcDbSymbolTableRecord
100
AcDbViewportTableRecord
  2
*ACTIVE
 70
     0
 10
0.0
 20
0.0
 11
1.0
 21
1.0
 12
685.204691
 22
553.501
 13
0.0
 23
0.0
 14
1.0
 24
1.0
 15
0.0
 25
0.0
 16
0.0
 26
0.0
 36
1.0
 17
0.0
 27
0.0
 37
0.0
 40
594.0
 41
1.414141
 42
50.0
 43
0.0
 44
0.0
 50
0.0
 51
0.0
 71
    16
 72
   100
 73
     1
 74
     0
 75
     0
 76
     0
 77
     0
 78
     0
281
     0
 65
     0
110
0.0
120
0.0
130
0.0
111
1.0
121
0.0
131
0.0
112
0.0
122
1.0
132
0.0
 79
     0
146
0.0
  0
ENDTAB
  0
TABLE
  2
LTYPE
  5
5
330
0
100
AcDbSymbolTable
 70
     4
  0
LTYPE
  5
14
330
5
100
AcDbSymbolTableRecord
100
AcDbLinetypeTableRecord
  2
ByBlock
 70
     0
  3

 72
    65
 73
     0
 40
0.0
  0
LTYPE
  5
15
330
5
100
AcDbSymbolTableRecord
100
AcDbLinetypeTableRecord
  2
ByLayer
 70
     0
  3

 72
    65
 73
     0
 40
0.0
  0
LTYPE
  5
16
330
5
100
AcDbSymbolTableRecord
100
AcDbLinetypeTableRecord
  2
Continuous
 70
     0
  3
Solid line
 72
    65
 73
     0
 40
0.0
  0
LTYPE
  5
2A
330
5
100
AcDbSymbolTableRecord
100
AcDbLinetypeTableRecord
  2
DASHED
 70
     0
  3
__ __ __ __ __
 72
    65
 73
     2
 40
6.25
 49
5.0
 74
     4
 75
     0
340
0
 46
1.0
 50
0.0
 44
0.0
 45
0.0
 49
-1.25
 74
     4
 75
     0
340
0
 46
1.0
 50
0.0
 44
0.0
 45
0.0
  0
LTYPE
  5
92
330
5
100
AcDbSymbolTableRecord
100
AcDbLinetypeTableRecord
  2
CENTER
 70
     0
  3
__ . __ . __ . __ . __
 72
    65
 73
     4
 40
7.5
 49
5.0
 74
     4
 75
     0
340
0
 46
1.0
 50
0.0
 44
0.0
 45
0.0
 49
-1.25
 74
     4
 75
     0
340
0
 46
1.0
 50
0.0
 44
0.0
 45
0.0
 49
0.0
 74
     4
 75
     0
340
0
 46
1.0
 50
0.0
 44
0.0
 45
0.0
 49
-1.25
 74
     4
 75
     0
340
0
 46
1.0
 50
0.0
 44
0.0
 45
0.0
  0
LTYPE
  5
45E
330
5
100
AcDbSymbolTableRecord
100
AcDbLinetypeTableRecord
  2
DASHDOT
 70
     0
  3
__ . __ . __ . __ . __
 72
    65
 73
     4
 40
7.5
 49
5.0
 74
     4
 75
     0
340
0
 46
1.0
 50
0.0
 44
0.0
 45
0.0
 49
-1.25
 74
     4
 75
     0
340
0
 46
1.0
 50
0.0
 44
0.0
 45
0.0
 49
0.0
 74
     4
 75
     0
340
0
 46
1.0
 50
0.0
 44
0.0
 45
0.0
 49
-1.25
 74
     4
 75
     0
340
0
 46
1.0
 50
0.0
 44
0.0
 45
0.0
  0
ENDTAB
  0
TABLE
  2
LAYER
  5
2
330
0
100
AcDbSymbolTable
 70
    17
  0
LAYER
  5
10
330
2
100
AcDbSymbolTableRecord
100
AcDbLayerTableRecord
  2
0
 70
     0
 62
     7
  6
Continuous
370
    -3
390
F
  0
LAYER
  5
2B
330
2
100
AcDbSymbolTableRecord
100
AcDbLayerTableRecord
  2
LC-INFO-1-2-mm-A3-0
 70
     1
 62
     7
  6
ByBlock
370
    -3
390
F
  0
LAYER
  5
2C
330
2
100
AcDbSymbolTableRecord
100
AcDbLayerTableRecord
  2
LC-CUT-HIDDEN
 70
     0
 62
     7
  6
DASHED
370
    -3
390
F
  0
LAYER
  5
2D
330
2
100
AcDbSymbolTableRecord
100
AcDbLayerTableRecord
  2
LC-VIEWPORT
 70
     0
 62
     7
  6
ByBlock
370
    -3
390
F
  0
LAYER
  5
2E
330
2
100
AcDbSymbolTableRecord
100
AcDbLayerTableRecord
  2
LC-3D-HIDDEN
 70
     0
 62
     9
  6
DASHED
370
    -3
390
F
  0
LAYER
  5
33
330
2
100
AcDbSymbolTableRecord
100
AcDbLayerTableRecord
  2
LC-001-005-----0
 70
     0
 62
     2
  6
ByBlock
370
    -3
390
F
  0
LAYER
  5
45
330
2
100
AcDbSymbolTableRecord
100
AcDbLayerTableRecord
  2
LC-002-002-----0
 70
     0
 62
     1
  6
ByBlock
370
    -3
390
F
  0
LAYER
  5
4B
330
2
100
AcDbSymbolTableRecord
100
AcDbLayerTableRecord
  2
LC-003-002-RND-0
 70
     0
 62
     1
  6
ByBlock
370
    -3
390
F
  0
LAYER
  5
93
330
2
100
AcDbSymbolTableRecord
100
AcDbLayerTableRecord
  2
LC-004-006-MLN-0
 70
     0
 62
     2
  6
CENTER
370
    -3
390
F
  0
LAYER
  5
B3
330
2
100
AcDbSymbolTableRecord
100
AcDbLayerTableRecord
  2
LC-005-101-----0
 70
     0
 62
     1
  6
ByBlock
370
    -3
390
F
  0
LAYER
  5
131
330
2
100
AcDbSymbolTableRecord
100
AcDbLayerTableRecord
  2
LC-006-003-----0
 70
     0
 62
     2
  6
ByBlock
370
    -3
390
F
  0
LAYER
  5
133
330
2
100
AcDbSymbolTableRecord
100
AcDbLayerTableRecord
  2
Defpoints
 70
     0
 62
     7
  6
Continuous
290
     0
370
    -3
390
F
  0
LAYER
  5
152
330
2
100
AcDbSymbolTableRecord
100
AcDbLayerTableRecord
  2
LC-007-101-RND-0
 70
     0
 62
     1
  6
ByBlock
370
    -3
390
F
  0
LAYER
  5
1E1
330
2
100
AcDbSymbolTableRecord
100
AcDbLayerTableRecord
  2
LC-008-205-RND-0
 70
     0
 62
     1
  6
ByBlock
370
    -3
390
F
  0
LAYER
  5
212
330
2
100
AcDbSymbolTableRecord
100
AcDbLayerTableRecord
  2
LC-009-003-MTG-0
 70
     0
 62
     2
  6
ByBlock
370
    -3
390
F
  0
LAYER
  5
214
330
2
100
AcDbSymbolTableRecord
100
AcDbLayerTableRecord
  2
LC-010-003-MTH-0
 70
     0
 62
     2
  6
ByBlock
370
    -3
390
F
  0
LAYER
  5
3EC
330
2
100
AcDbSymbolTableRecord
100
AcDbLayerTableRecord
  2
LC-011-205-----0
 70
     0
 62
     1
  6
ByBlock
370
    -3
390
F
  0
ENDTAB
  0
TABLE
  2
STYLE
  5
3
330
0
100
AcDbSymbolTable
 70
     3
  0
STYLE
  5
11
330
3
100
AcDbSymbolTableRecord
100
AcDbTextStyleTableRecord
  2
Standard
 70
     0
 40
0.0
 41
1.0
 50
0.0
 71
     0
 42
2.5
  3
txt
  4

  0
STYLE
  5
2F
330
3
100
AcDbSymbolTableRecord
100
AcDbTextStyleTableRecord
  2
LCTX15-400-0-0-Arial
 70
     0
 40
0.0
 41
0.9
 50
0.0
 71
     0
 42
3.5
  3
ARIAL.TTF
  4

1001
ACAD
1000
Arial
1071
 16777218
  0
STYLE
  5
12F
330
3
100
AcDbSymbolTableRecord
100
AcDbTextStyleTableRecord
  2
LCTX15-400-0-0pDIN-Schrift
 70
     0
 40
2.5
 41
0.8
 50
15.0
 71
     0
 42
3.5
  3
STANDARD
  4

  0
ENDTAB
  0
TABLE
  2
VIEW
  5
6
330
0
100
AcDbSymbolTable
 70
     0
  0
ENDTAB
  0
TABLE
  2
UCS
  5
7
330
0
100
AcDbSymbolTable
 70
     0
  0
ENDTAB
  0
TABLE
  2
APPID
  5
9
330
0
100
AcDbSymbolTable
 70
     1
  0
APPID
  5
12
330
9
100
AcDbSymbolTableRecord
100
AcDbRegAppTableRecord
  2
ACAD
 70
     0
  0
ENDTAB
  0
TABLE
  2
DIMSTYLE
  5
A
330
0
100
AcDbSymbolTable
 70
     3
100
AcDbDimStyleTable
  0
DIMSTYLE
105
27
330
A
100
AcDbSymbolTableRecord
100
AcDbDimStyleTableRecord
  2
ISO-25
 70
     0
 41
2.5
 42
0.625
 43
3.75
 44
1.25
 73
     0
 74
     0
 77
     1
 78
     8
140
2.5
141
2.5
143
0.03937
147
0.625
171
     3
172
     1
271
     2
272
     2
274
     3
278
    44
283
     0
284
     8
340
11
  0
DIMSTYLE
105
130
102
{ACAD_REACTORS
330
132
330
1C2
330
1D0
330
1EB
330
218
330
228
330
2CA
330
2D8
330
2E6
330
4CC
330
4D9
102
}
330
A
100
AcDbSymbolTableRecord
100
AcDbDimStyleTableRecord
  2
LC-DIM-L-0140-02-02
 70
     0
 40
2.0
 41
14.0
 42
0.0
 43
7.5
 44
1.8
 73
     0
 74
     0
 77
     1
 78
     8
 79
     2
140
14.0
141
0.0
146
0.71
147
1.5
176
     2
177
     2
178
     2
179
     2
271
     2
278
    44
289
     1
340
12F
  0
DIMSTYLE
105
1FB
330
A
100
AcDbSymbolTableRecord
100
AcDbDimStyleTableRecord
  2
LC-DIM-W-0140-02-02
 70
     0
 40
2.0
 41
14.0
 42
0.0
 43
7.5
 44
1.8
 73
     0
 74
     0
 77
     1
 78
     8
 79
     2
140
14.0
141
0.0
146
0.71
147
1.5
176
     2
177
     2
178
     2
179
     2
271
     2
278
    44
289
     1
340
12F
  0
ENDTAB
  0
TABLE
  2
BLOCK_RECORD
  5
1
330
0
100
AcDbSymbolTable
 70
    27
  0
BLOCK_RECORD
  5
1F
330
1
100
AcDbSymbolTableRecord
100
AcDbBlockTableRecord
  2
*Model_Space
340
22
  0
BLOCK_RECORD
  5
1B
330
1
100
AcDbSymbolTableRecord
100
AcDbBlockTableRecord
  2
*Paper_Space
340
1E
  0
BLOCK_RECORD
  5
23
330
1
100
AcDbSymbolTableRecord
100
AcDbBlockTableRecord
  2
*Paper_Space0
340
26
  0
BLOCK_RECORD
  5
30
330
1
100
AcDbSymbolTableRecord
100
AcDbBlockTableRecord
  2
*X11
340
0
102
{BLKREFS
331
44
102
}
  0
BLOCK_RECORD
  5
5A
330
1
100
AcDbSymbolTableRecord
100
AcDbBlockTableRecord
  2
*X22
340
0
102
{BLKREFS
331
81
102
}
  0
BLOCK_RECORD
  5
B8
330
1
100
AcDbSymbolTableRecord
100
AcDbBlockTableRecord
  2
*X33
340
0
102
{BLKREFS
331
F8
102
}
  0
BLOCK_RECORD
  5
FB
330
1
100
AcDbSymbolTableRecord
100
AcDbBlockTableRecord
  2
*X44
340
0
102
{BLKREFS
331
106
102
}
  0
BLOCK_RECORD
  5
10A
330
1
100
AcDbSymbolTableRecord
100
AcDbBlockTableRecord
  2
*X55
340
0
102
{BLKREFS
331
115
102
}
  0
BLOCK_RECORD
  5
134
330
1
100
AcDbSymbolTableRecord
100
AcDbBlockTableRecord
  2
*D6
340
0
  0
BLOCK_RECORD
  5
174
330
1
100
AcDbSymbolTableRecord
100
AcDbBlockTableRecord
  2
*X67
340
0
102
{BLKREFS
331
18B
102
}
  0
BLOCK_RECORD
  5
193
330
1
100
AcDbSymbolTableRecord
100
AcDbBlockTableRecord
  2
*X78
340
0
102
{BLKREFS
331
19A
102
}
  0
BLOCK_RECORD
  5
19D
330
1
100
AcDbSymbolTableRecord
100
AcDbBlockTableRecord
  2
*X89
340
0
102
{BLKREFS
331
1A4
102
}
  0
BLOCK_RECORD
  5
1A6
330
1
100
AcDbSymbolTableRecord
100
AcDbBlockTableRecord
  2
*X910
340
0
102
{BLKREFS
331
1B2
102
}
  0
BLOCK_RECORD
  5
1B4
330
1
100
AcDbSymbolTableRecord
100
AcDbBlockTableRecord
  2
*X1011
340
0
102
{BLKREFS
331
1C0
102
}
  0
BLOCK_RECORD
  5
1C3
330
1
100
AcDbSymbolTableRecord
100
AcDbBlockTableRecord
  2
*D12
340
0
  0
BLOCK_RECORD
  5
1D1
330
1
100
AcDbSymbolTableRecord
100
AcDbBlockTableRecord
  2
*D13
340
0
  0
BLOCK_RECORD
  5
1EC
330
1
100
AcDbSymbolTableRecord
100
AcDbBlockTableRecord
  2
*D14
340
0
  0
BLOCK_RECORD
  5
1FC
330
1
100
AcDbSymbolTableRecord
100
AcDbBlockTableRecord
  2
LCDIM1
340
0
102
{BLKREFS
331
217
102
}
  0
BLOCK_RECORD
  5
219
330
1
100
AcDbSymbolTableRecord
100
AcDbBlockTableRecord
  2
*D16
340
0
  0
BLOCK_RECORD
  5
229
330
1
100
AcDbSymbolTableRecord
100
AcDbBlockTableRecord
  2
*D17
340
0
  0
BLOCK_RECORD
  5
237
330
1
100
AcDbSymbolTableRecord
100
AcDbBlockTableRecord
  2
*X1118
340
0
102
{BLKREFS
331
2C9
102
}
  0
BLOCK_RECORD
  5
2CB
330
1
100
AcDbSymbolTableRecord
100
AcDbBlockTableRecord
  2
*D19
340
0
  0
BLOCK_RECORD
  5
2D9
330
1
100
AcDbSymbolTableRecord
100
AcDbBlockTableRecord
  2
*D20
340
0
  0
BLOCK_RECORD
  5
2E7
330
1
100
AcDbSymbolTableRecord
100
AcDbBlockTableRecord
  2
*D21
340
0
  0
BLOCK_RECORD
  5
316
330
1
100
AcDbSymbolTableRecord
100
AcDbBlockTableRecord
  2
*X1222
340
0
102
{BLKREFS
331
326
102
}
  0
BLOCK_RECORD
  5
360
330
1
100
AcDbSymbolTableRecord
100
AcDbBlockTableRecord
  2
*X1323
340
0
102
{BLKREFS
331
38C
102
}
  0
BLOCK_RECORD
  5
41B
330
1
100
AcDbSymbolTableRecord
100
AcDbBlockTableRecord
  2
*X1424
340
0
102
{BLKREFS
331
446
102
}
  0
BLOCK_RECORD
  5
4CD
330
1
100
AcDbSymbolTableRecord
100
AcDbBlockTableRecord
  2
*D25
340
0
  0
BLOCK_RECORD
  5
4DA
330
1
100
AcDbSymbolTableRecord
100
AcDbBlockTableRecord
  2
*D26
340
0
  0
ENDTAB
  0
ENDSEC
  0
SECTION
  2
BLOCKS
  0
BLOCK
  5
20
330
1F
100
AcDbEntity
  8
0
100
AcDbBlockBegin
  2
*Model_Space
 70
     0
 71
     0
 10
0.0
 20
0.0
 30
0.0
  3
*Model_Space
  1

  0
ENDBLK
  5
21
330
1F
100
AcDbEntity
  8
0
100
AcDbBlockEnd
  0
BLOCK
  5
1C
330
1B
100
AcDbEntity
 67
     1
  8
0
100
AcDbBlockBegin
  2
*Paper_Space
 70
     0
 71
     0
 10
0.0
 20
0.0
 30
0.0
  3
*Paper_Space
  1

  0
ENDBLK
  5
1D
330
1B
100
AcDbEntity
 67
     1
  8
0
100
AcDbBlockEnd
  0
BLOCK
  5
24
330
23
100
AcDbEntity
  8
0
100
AcDbBlockBegin
  2
*Paper_Space0
 70
     0
 71
     0
 10
0.0
 20
0.0
 30
0.0
  3
*Paper_Space0
  1

  0
ENDBLK
  5
25
330
23
100
AcDbEntity
  8
0
100
AcDbBlockEnd
  0
BLOCK
  5
31
330
30
100
AcDbEntity
  8
0
100
AcDbBlockBegin
  2
*X11
 70
     1
 71
     0
 10
0.0
 20
0.0
 30
0.0
  3
*X11
  1

  4
*X1
  0
LINE
  5
34
330
30
100
AcDbEntity
  8
LC-001-005-----0
 62
     7
370
    25
100
AcDbLine
 10
636.921038
 20
613.243751
 30
0.0
 11
634.464948
 21
615.699841
 31
0.0
  0
LINE
  5
35
330
30
100
AcDbEntity
  8
LC-001-005-----0
 62
     7
370
    25
100
AcDbLine
 10
636.921038
 20
610.415324
 30
0.0
 11
635.421038
 21
611.915324
 31
0.0
  0
LINE
  5
36
330
30
100
AcDbEntity
  8
LC-001-005-----0
 62
     7
370
    25
100
AcDbLine
 10
634.636521
 20
612.699841
 30
0.0
 11
631.636521
 21
615.699841
 31
0.0
  0
LINE
  5
37
330
30
100
AcDbEntity
  8
LC-001-005-----0
 62
     7
370
    25
100
AcDbLine
 10
636.921038
 20
607.586897
 30
0.0
 11
635.421038
 21
609.086897
 31
0.0
  0
LINE
  5
38
330
30
100
AcDbEntity
  8
LC-001-005-----0
 62
     7
370
    25
100
AcDbLine
 10
631.808094
 20
612.699841
 30
0.0
 11
630.921038
 21
613.586897
 31
0.0
  0
LINE
  5
39
330
30
100
AcDbEntity
  8
LC-001-005-----0
 62
     7
370
    25
100
AcDbLine
 10
630.308094
 20
614.199841
 30
0.0
 11
628.808094
 21
615.699841
 31
0.0
  0
LINE
  5
3A
330
30
100
AcDbEntity
  8
LC-001-005-----0
 62
     7
370
    25
100
AcDbLine
 10
636.921038
 20
604.75847
 30
0.0
 11
635.421038
 21
606.25847
 31
0.0
  0
LINE
  5
3B
330
30
100
AcDbEntity
  8
LC-001-005-----0
 62
     7
370
    25
100
AcDbLine
 10
628.921038
 20
612.75847
 30
0.0
 11
627.476573
 21
614.202935
 31
0.0
  0
LINE
  5
3C
330
30
100
AcDbEntity
  8
LC-001-005-----0
 62
     7
370
    25
100
AcDbLine
 10
636.921038
 20
601.930043
 30
0.0
 11
635.421038
 21
603.430043
 31
0.0
  0
LINE
  5
3D
330
30
100
AcDbEntity
  8
LC-001-005-----0
 62
     7
370
    25
100
AcDbLine
 10
625.648713
 20
613.202367
 30
0.0
 11
624.65124
 21
614.199841
 31
0.0
  0
LINE
  5
3E
330
30
100
AcDbEntity
  8
LC-001-005-----0
 62
     7
370
    25
100
AcDbLine
 10
636.921038
 20
599.101615
 30
0.0
 11
635.421038
 21
600.601615
 31
0.0
  0
LINE
  5
3F
330
30
100
AcDbEntity
  8
LC-001-005-----0
 62
     7
370
    25
100
AcDbLine
 10
636.921038
 20
596.273188
 30
0.0
 11
635.421038
 21
597.773188
 31
0.0
  0
LINE
  5
40
330
30
100
AcDbEntity
  8
LC-001-005-----0
 62
     7
370
    25
100
AcDbLine
 10
636.921038
 20
593.444761
 30
0.0
 11
635.421038
 21
594.944761
 31
0.0
  0
LINE
  5
41
330
30
100
AcDbEntity
  8
LC-001-005-----0
 62
     7
370
    25
100
AcDbLine
 10
636.921038
 20
590.616334
 30
0.0
 11
635.421038
 21
592.116334
 31
0.0
  0
LINE
  5
42
330
30
100
AcDbEntity
  8
LC-001-005-----0
 62
     7
370
    25
100
AcDbLine
 10
636.921038
 20
587.787907
 30
0.0
 11
635.421038
 21
589.287907
 31
0.0
  0
LINE
  5
43
330
30
100
AcDbEntity
  8
LC-001-005-----0
 62
     7
370
    25
100
AcDbLine
 10
636.180677
 20
585.699841
 30
0.0
 11
635.421038
 21
586.45948
 31
0.0
  0
ENDBLK
  5
32
330
30
100
AcDbEntity
  8
0
100
AcDbBlockEnd
  0
BLOCK
  5
5B
330
5A
100
AcDbEntity
  8
0
100
AcDbBlockBegin
  2
*X22
 70
     1
 71
     0
 10
0.0
 20
0.0
 30
0.0
  3
*X22
  1

  4
*X2
  0
LINE
  5
5D
330
5A
100
AcDbEntity
  8
LC-001-005-----0
 62
     7
370
    25
100
AcDbLine
 10
656.698036
 20
635.89316
 30
0.0
 11
649.614357
 21
642.976839
 31
0.0
  0
LINE
  5
5E
330
5A
100
AcDbEntity
  8
LC-001-005-----0
 62
     7
370
    25
100
AcDbLine
 10
659.256275
 20
630.506493
 30
0.0
 11
656.468461
 21
633.294308
 31
0.0
  0
LINE
  5
5F
330
5A
100
AcDbEntity
  8
LC-001-005-----0
 62
     7
370
    25
100
AcDbLine
 10
647.015505
 20
642.747264
 30
0.0
 11
644.22769
 21
645.535078
 31
0.0
  0
LINE
  5
60
330
5A
100
AcDbEntity
  8
LC-001-005-----0
 62
     7
370
    25
100
AcDbLine
 10
660.145333
 20
626.789009
 30
0.0
 11
658.218242
 21
628.7161
 31
0.0
  0
LINE
  5
61
330
5A
100
AcDbEntity
  8
LC-001-005-----0
 62
     7
370
    25
100
AcDbLine
 10
642.437297
 20
644.497045
 30
0.0
 11
640.510206
 21
646.424136
 31
0.0
  0
LINE
  5
62
330
5A
100
AcDbEntity
  8
LC-001-005-----0
 62
     7
370
    25
100
AcDbLine
 10
660.415926
 20
623.689989
 30
0.0
 11
658.822114
 21
625.283801
 31
0.0
  0
LINE
  5
63
330
5A
100
AcDbEntity
  8
LC-001-005-----0
 62
     7
370
    25
100
AcDbLine
 10
639.004998
 20
645.100917
 30
0.0
 11
637.411186
 21
646.694729
 31
0.0
  0
LINE
  5
64
330
5A
100
AcDbEntity
  8
LC-001-005-----0
 62
     7
370
    25
100
AcDbLine
 10
632.421038
 20
651.684877
 30
0.0
 11
631.406074
 21
652.699841
 31
0.0
  0
LINE
  5
65
330
5A
100
AcDbEntity
  8
LC-001-005-----0
 62
     7
370
    25
100
AcDbLine
 10
660.421038
 20
620.856449
 30
0.0
 11
658.921038
 21
622.356449
 31
0.0
  0
LINE
  5
66
330
5A
100
AcDbEntity
  8
LC-001-005-----0
 62
     7
370
    25
100
AcDbLine
 10
636.077646
 20
645.199841
 30
0.0
 11
634.577646
 21
646.699841
 31
0.0
  0
LINE
  5
67
330
5A
100
AcDbEntity
  8
LC-001-005-----0
 62
     7
370
    25
100
AcDbLine
 10
632.421038
 20
648.856449
 30
0.0
 11
630.077646
 21
651.199841
 31
0.0
  0
LINE
  5
68
330
5A
100
AcDbEntity
  8
LC-001-005-----0
 62
     7
370
    25
100
AcDbLine
 10
628.921038
 20
652.356449
 30
0.0
 11
628.577646
 21
652.699841
 31
0.0
  0
LINE
  5
69
330
5A
100
AcDbEntity
  8
LC-001-005-----0
 62
     7
370
    25
100
AcDbLine
 10
660.421038
 20
618.028022
 30
0.0
 11
658.921038
 21
619.528022
 31
0.0
  0
LINE
  5
6A
330
5A
100
AcDbEntity
  8
LC-001-005-----0
 62
     7
370
    25
100
AcDbLine
 10
633.249219
 20
645.199841
 30
0.0
 11
630.921038
 21
647.528022
 31
0.0
  0
LINE
  5
6B
330
5A
100
AcDbEntity
  8
LC-001-005-----0
 62
     7
370
    25
100
AcDbLine
 10
628.749219
 20
649.699841
 30
0.0
 11
627.921038
 21
650.528022
 31
0.0
  0
LINE
  5
6C
330
5A
100
AcDbEntity
  8
LC-001-005-----0
 62
     7
370
    25
100
AcDbLine
 10
627.249219
 20
651.199841
 30
0.0
 11
626.03102
 21
652.41804
 31
0.0
  0
LINE
  5
6D
330
5A
100
AcDbEntity
  8
LC-001-005-----0
 62
     7
370
    25
100
AcDbLine
 10
660.421038
 20
615.199595
 30
0.0
 11
658.921038
 21
616.699595
 31
0.0
  0
LINE
  5
6E
330
5A
100
AcDbEntity
  8
LC-001-005-----0
 62
     7
370
    25
100
AcDbLine
 10
624.420792
 20
651.199841
 30
0.0
 11
624.237869
 21
651.382764
 31
0.0
  0
LINE
  5
6F
330
5A
100
AcDbEntity
  8
LC-001-005-----0
 62
     7
370
    25
100
AcDbLine
 10
660.421038
 20
612.371168
 30
0.0
 11
658.921038
 21
613.871168
 31
0.0
  0
LINE
  5
70
330
5A
100
AcDbEntity
  8
LC-001-005-----0
 62
     7
370
    25
100
AcDbLine
 10
660.421038
 20
609.542741
 30
0.0
 11
658.921038
 21
611.042741
 31
0.0
  0
LINE
  5
71
330
5A
100
AcDbEntity
  8
LC-001-005-----0
 62
     7
370
    25
100
AcDbLine
 10
660.421038
 20
606.714314
 30
0.0
 11
658.921038
 21
608.214314
 31
0.0
  0
LINE
  5
72
330
5A
100
AcDbEntity
  8
LC-001-005-----0
 62
     7
370
    25
100
AcDbLine
 10
660.421038
 20
603.885887
 30
0.0
 11
658.921038
 21
605.385887
 31
0.0
  0
LINE
  5
73
330
5A
100
AcDbEntity
  8
LC-001-005-----0
 62
     7
370
    25
100
AcDbLine
 10
660.421038
 20
601.05746
 30
0.0
 11
658.921038
 21
602.55746
 31
0.0
  0
LINE
  5
74
330
5A
100
AcDbEntity
  8
LC-001-005-----0
 62
     7
370
    25
100
AcDbLine
 10
660.421038
 20
598.229032
 30
0.0
 11
658.921038
 21
599.729032
 31
0.0
  0
LINE
  5
75
330
5A
100
AcDbEntity
  8
LC-001-005-----0
 62
     7
370
    25
100
AcDbLine
 10
660.421038
 20
595.400605
 30
0.0
 11
658.921038
 21
596.900605
 31
0.0
  0
LINE
  5
76
330
5A
100
AcDbEntity
  8
LC-001-005-----0
 62
     7
370
    25
100
AcDbLine
 10
660.421038
 20
592.572178
 30
0.0
 11
658.921038
 21
594.072178
 31
0.0
  0
LINE
  5
77
330
5A
100
AcDbEntity
  8
LC-001-005-----0
 62
     7
370
    25
100
AcDbLine
 10
660.421038
 20
589.743751
 30
0.0
 11
658.921038
 21
591.243751
 31
0.0
  0
LINE
  5
78
330
5A
100
AcDbEntity
  8
LC-001-005-----0
 62
     7
370
    25
100
AcDbLine
 10
660.421038
 20
586.915324
 30
0.0
 11
658.921038
 21
588.415324
 31
0.0
  0
LINE
  5
79
330
5A
100
AcDbEntity
  8
LC-001-005-----0
 62
     7
370
    25
100
AcDbLine
 10
660.421038
 20
584.086897
 30
0.0
 11
658.921038
 21
585.586897
 31
0.0
  0
LINE
  5
7A
330
5A
100
AcDbEntity
  8
LC-001-005-----0
 62
     7
370
    25
100
AcDbLine
 10
660.421038
 20
581.25847
 30
0.0
 11
658.921038
 21
582.75847
 31
0.0
  0
LINE
  5
7B
330
5A
100
AcDbEntity
  8
LC-001-005-----0
 62
     7
370
    25
100
AcDbLine
 10
660.421038
 20
578.430043
 30
0.0
 11
658.921038
 21
579.930043
 31
0.0
  0
LINE
  5
7C
330
5A
100
AcDbEntity
  8
LC-001-005-----0
 62
     7
370
    25
100
AcDbLine
 10
660.421038
 20
575.601615
 30
0.0
 11
658.921038
 21
577.101615
 31
0.0
  0
LINE
  5
7D
330
5A
100
AcDbEntity
  8
LC-001-005-----0
 62
     7
370
    25
100
AcDbLine
 10
660.421038
 20
572.773188
 30
0.0
 11
658.921038
 21
574.273188
 31
0.0
  0
LINE
  5
7E
330
5A
100
AcDbEntity
  8
LC-001-005-----0
 62
     7
370
    25
100
AcDbLine
 10
660.421038
 20
569.944761
 30
0.0
 11
658.921038
 21
571.444761
 31
0.0
  0
LINE
  5
7F
330
5A
100
AcDbEntity
  8
LC-001-005-----0
 62
     7
370
    25
100
AcDbLine
 10
660.421038
 20
567.116334
 30
0.0
 11
658.921038
 21
568.616334
 31
0.0
  0
LINE
  5
80
330
5A
100
AcDbEntity
  8
LC-001-005-----0
 62
     7
370
    25
100
AcDbLine
 10
660.421038
 20
564.287907
 30
0.0
 11
658.921038
 21
565.787907
 31
0.0
  0
ENDBLK
  5
5C
330
5A
100
AcDbEntity
  8
0
100
AcDbBlockEnd
  0
BLOCK
  5
B9
330
B8
100
AcDbEntity
  8
0
100
AcDbBlockBegin
  2
*X33
 70
     1
 71
     0
 10
0.0
 20
0.0
 30
0.0
  3
*X33
  1

  4
*X3
  0
LINE
  5
BB
330
B8
100
AcDbEntity
  8
LC-001-005-----0
 62
     7
370
    25
100
AcDbLine
 10
727.921038
 20
655.179826
 30
0.0
 11
727.148445
 21
655.952419
 31
0.0
  0
LINE
  5
BC
330
B8
100
AcDbEntity
  8
LC-001-005-----0
 62
     7
370
    25
100
AcDbLine
 10
725.931669
 20
654.340768
 30
0.0
 11
724.79887
 21
655.473567
 31
0.0
  0
LINE
  5
BD
330
B8
100
AcDbEntity
  8
LC-001-005-----0
 62
     7
370
    25
100
AcDbLine
 10
724.921039
 20
652.522971
 30
0.0
 11
723.115591
 21
654.328419
 31
0.0
  0
LINE
  5
BE
330
B8
100
AcDbEntity
  8
LC-001-005-----0
 62
     7
370
    25
100
AcDbLine
 10
726.093456
 20
648.522126
 30
0.0
 11
725.093456
 21
649.522126
 31
0.0
  0
LINE
  5
BF
330
B8
100
AcDbEntity
  8
LC-001-005-----0
 62
     7
370
    25
100
AcDbLine
 10
724.921039
 20
649.694544
 30
0.0
 11
721.452013
 21
653.163569
 31
0.0
  0
LINE
  5
C0
330
B8
100
AcDbEntity
  8
LC-001-005-----0
 62
     7
370
    25
100
AcDbLine
 10
720.865458
 20
650.921697
 30
0.0
 11
719.788436
 21
651.99872
 31
0.0
  0
LINE
  5
C1
330
B8
100
AcDbEntity
  8
LC-001-005-----0
 62
     7
370
    25
100
AcDbLine
 10
719.201881
 20
649.756848
 30
0.0
 11
718.124858
 21
650.83387
 31
0.0
  0
LINE
  5
C2
330
B8
100
AcDbEntity
  8
LC-001-005-----0
 62
     7
370
    25
100
AcDbLine
 10
717.538303
 20
648.591998
 30
0.0
 11
716.461281
 21
649.669021
 31
0.0
  0
LINE
  5
C3
330
B8
100
AcDbEntity
  8
LC-001-005-----0
 62
     7
370
    25
100
AcDbLine
 10
715.874726
 20
647.427148
 30
0.0
 11
714.797703
 21
648.504171
 31
0.0
  0
LINE
  5
C4
330
B8
100
AcDbEntity
  8
LC-001-005-----0
 62
     7
370
    25
100
AcDbLine
 10
714.211148
 20
646.262299
 30
0.0
 11
713.134126
 21
647.339321
 31
0.0
  0
LINE
  5
C5
330
B8
100
AcDbEntity
  8
LC-001-005-----0
 62
     7
370
    25
100
AcDbLine
 10
712.548582
 20
645.096438
 30
0.0
 11
711.520555
 21
646.124465
 31
0.0
  0
LINE
  5
C6
330
B8
100
AcDbEntity
  8
LC-001-005-----0
 62
     7
370
    25
100
AcDbLine
 10
711.053085
 20
643.763508
 30
0.0
 11
710.12996
 21
644.686633
 31
0.0
  0
LINE
  5
C7
330
B8
100
AcDbEntity
  8
LC-001-005-----0
 62
     7
370
    25
100
AcDbLine
 10
709.84414
 20
642.144025
 30
0.0
 11
708.980436
 21
643.007729
 31
0.0
  0
LINE
  5
C8
330
B8
100
AcDbEntity
  8
LC-001-005-----0
 62
     7
370
    25
100
AcDbLine
 10
708.949523
 20
640.210216
 30
0.0
 11
708.096975
 21
641.062763
 31
0.0
  0
LINE
  5
C9
330
B8
100
AcDbEntity
  8
LC-001-005-----0
 62
     7
370
    25
100
AcDbLine
 10
708.458955
 20
637.872356
 30
0.0
 11
707.541699
 21
638.789613
 31
0.0
  0
LINE
  5
CA
330
B8
100
AcDbEntity
  8
LC-001-005-----0
 62
     7
370
    25
100
AcDbLine
 10
708.421037
 20
635.081847
 30
0.0
 11
707.421037
 21
636.081847
 31
0.0
  0
LINE
  5
CB
330
B8
100
AcDbEntity
  8
LC-001-005-----0
 62
     7
370
    25
100
AcDbLine
 10
708.421037
 20
632.25342
 30
0.0
 11
707.421037
 21
633.25342
 31
0.0
  0
LINE
  5
CC
330
B8
100
AcDbEntity
  8
LC-001-005-----0
 62
     7
370
    25
100
AcDbLine
 10
708.421037
 20
629.424993
 30
0.0
 11
707.421038
 21
630.424992
 31
0.0
  0
LINE
  5
CD
330
B8
100
AcDbEntity
  8
LC-001-005-----0
 62
     7
370
    25
100
AcDbLine
 10
708.421038
 20
626.596565
 30
0.0
 11
707.421038
 21
627.596565
 31
0.0
  0
LINE
  5
CE
330
B8
100
AcDbEntity
  8
LC-001-005-----0
 62
     7
370
    25
100
AcDbLine
 10
708.421038
 20
623.768138
 30
0.0
 11
707.421038
 21
624.768138
 31
0.0
  0
LINE
  5
CF
330
B8
100
AcDbEntity
  8
LC-001-005-----0
 62
     7
370
    25
100
AcDbLine
 10
708.421038
 20
620.939711
 30
0.0
 11
707.421038
 21
621.939711
 31
0.0
  0
LINE
  5
D0
330
B8
100
AcDbEntity
  8
LC-001-005-----0
 62
     7
370
    25
100
AcDbLine
 10
708.421038
 20
618.111284
 30
0.0
 11
707.421038
 21
619.111284
 31
0.0
  0
LINE
  5
D1
330
B8
100
AcDbEntity
  8
LC-001-005-----0
 62
     7
370
    25
100
AcDbLine
 10
708.421038
 20
615.282857
 30
0.0
 11
707.421038
 21
616.282857
 31
0.0
  0
LINE
  5
D2
330
B8
100
AcDbEntity
  8
LC-001-005-----0
 62
     7
370
    25
100
AcDbLine
 10
708.421038
 20
612.45443
 30
0.0
 11
707.421038
 21
613.45443
 31
0.0
  0
LINE
  5
D3
330
B8
100
AcDbEntity
  8
LC-001-005-----0
 62
     7
370
    25
100
AcDbLine
 10
708.421038
 20
609.626002
 30
0.0
 11
707.421038
 21
610.626002
 31
0.0
  0
LINE
  5
D4
330
B8
100
AcDbEntity
  8
LC-001-005-----0
 62
     7
370
    25
100
AcDbLine
 10
708.421038
 20
606.797575
 30
0.0
 11
707.421038
 21
607.797575
 31
0.0
  0
LINE
  5
D5
330
B8
100
AcDbEntity
  8
LC-001-005-----0
 62
     7
370
    25
100
AcDbLine
 10
708.421038
 20
603.969148
 30
0.0
 11
707.421038
 21
604.969148
 31
0.0
  0
LINE
  5
D6
330
B8
100
AcDbEntity
  8
LC-001-005-----0
 62
     7
370
    25
100
AcDbLine
 10
708.421038
 20
601.140721
 30
0.0
 11
707.421038
 21
602.140721
 31
0.0
  0
LINE
  5
D7
330
B8
100
AcDbEntity
  8
LC-001-005-----0
 62
     7
370
    25
100
AcDbLine
 10
708.421038
 20
598.312294
 30
0.0
 11
707.421038
 21
599.312294
 31
0.0
  0
LINE
  5
D8
330
B8
100
AcDbEntity
  8
LC-001-005-----0
 62
     7
370
    25
100
AcDbLine
 10
667.162192
 20
639.571139
 30
0.0
 11
665.465852
 21
641.267479
 31
0.0
  0
LINE
  5
D9
330
B8
100
AcDbEntity
  8
LC-001-005-----0
 62
     7
370
    25
100
AcDbLine
 10
660.097575
 20
646.635757
 30
0.0
 11
653.989477
 21
652.743855
 31
0.0
  0
LINE
  5
DA
330
B8
100
AcDbEntity
  8
LC-001-005-----0
 62
     7
370
    25
100
AcDbLine
 10
708.421038
 20
595.483867
 30
0.0
 11
707.421038
 21
596.483867
 31
0.0
  0
LINE
  5
DB
330
B8
100
AcDbEntity
  8
LC-001-005-----0
 62
     7
370
    25
100
AcDbLine
 10
667.421038
 20
636.483867
 30
0.0
 11
666.408843
 21
637.496062
 31
0.0
  0
LINE
  5
DC
330
B8
100
AcDbEntity
  8
LC-001-005-----0
 62
     7
370
    25
100
AcDbLine
 10
652.111612
 20
651.793293
 30
0.0
 11
647.974823
 21
655.930082
 31
0.0
  0
LINE
  5
DD
330
B8
100
AcDbEntity
  8
LC-001-005-----0
 62
     7
370
    25
100
AcDbLine
 10
708.421038
 20
592.65544
 30
0.0
 11
707.421038
 21
593.65544
 31
0.0
  0
LINE
  5
DE
330
B8
100
AcDbEntity
  8
LC-001-005-----0
 62
     7
370
    25
100
AcDbLine
 10
667.421038
 20
633.65544
 30
0.0
 11
666.421038
 21
634.65544
 31
0.0
  0
LINE
  5
DF
330
B8
100
AcDbEntity
  8
LC-001-005-----0
 62
     7
370
    25
100
AcDbLine
 10
651.616001
 20
649.460477
 30
0.0
 11
649.921037
 21
651.15544
 31
0.0
  0
LINE
  5
E0
330
B8
100
AcDbEntity
  8
LC-001-005-----0
 62
     7
370
    25
100
AcDbLine
 10
708.421038
 20
589.827012
 30
0.0
 11
707.421038
 21
590.827012
 31
0.0
  0
LINE
  5
E1
330
B8
100
AcDbEntity
  8
LC-001-005-----0
 62
     7
370
    25
100
AcDbLine
 10
667.421038
 20
630.827012
 30
0.0
 11
666.421038
 21
631.827012
 31
0.0
  0
LINE
  5
E2
330
B8
100
AcDbEntity
  8
LC-001-005-----0
 62
     7
370
    25
100
AcDbLine
 10
649.725924
 20
648.522126
 30
0.0
 11
648.725924
 21
649.522126
 31
0.0
  0
LINE
  5
E3
330
B8
100
AcDbEntity
  8
LC-001-005-----0
 62
     7
370
    25
100
AcDbLine
 10
708.421038
 20
586.998585
 30
0.0
 11
707.421038
 21
587.998585
 31
0.0
  0
LINE
  5
E4
330
B8
100
AcDbEntity
  8
LC-001-005-----0
 62
     7
370
    25
100
AcDbLine
 10
667.421038
 20
627.998585
 30
0.0
 11
666.421038
 21
628.998585
 31
0.0
  0
LINE
  5
E5
330
B8
100
AcDbEntity
  8
LC-001-005-----0
 62
     7
370
    25
100
AcDbLine
 10
708.421038
 20
584.170158
 30
0.0
 11
707.421038
 21
585.170158
 31
0.0
  0
LINE
  5
E6
330
B8
100
AcDbEntity
  8
LC-001-005-----0
 62
     7
370
    25
100
AcDbLine
 10
667.421038
 20
625.170158
 30
0.0
 11
666.421038
 21
626.170158
 31
0.0
  0
LINE
  5
E7
330
B8
100
AcDbEntity
  8
LC-001-005-----0
 62
     7
370
    25
100
AcDbLine
 10
708.421038
 20
581.341731
 30
0.0
 11
707.421038
 21
582.341731
 31
0.0
  0
LINE
  5
E8
330
B8
100
AcDbEntity
  8
LC-001-005-----0
 62
     7
370
    25
100
AcDbLine
 10
667.421038
 20
622.341731
 30
0.0
 11
666.421038
 21
623.341731
 31
0.0
  0
LINE
  5
E9
330
B8
100
AcDbEntity
  8
LC-001-005-----0
 62
     7
370
    25
100
AcDbLine
 10
667.421038
 20
619.513304
 30
0.0
 11
666.421038
 21
620.513304
 31
0.0
  0
LINE
  5
EA
330
B8
100
AcDbEntity
  8
LC-001-005-----0
 62
     7
370
    25
100
AcDbLine
 10
667.421038
 20
616.684877
 30
0.0
 11
666.421038
 21
617.684877
 31
0.0
  0
LINE
  5
EB
330
B8
100
AcDbEntity
  8
LC-001-005-----0
 62
     7
370
    25
100
AcDbLine
 10
667.421038
 20
613.85645
 30
0.0
 11
666.421038
 21
614.85645
 31
0.0
  0
LINE
  5
EC
330
B8
100
AcDbEntity
  8
LC-001-005-----0
 62
     7
370
    25
100
AcDbLine
 10
667.421038
 20
611.028022
 30
0.0
 11
666.421038
 21
612.028022
 31
0.0
  0
LINE
  5
ED
330
B8
100
AcDbEntity
  8
LC-001-005-----0
 62
     7
370
    25
100
AcDbLine
 10
667.421038
 20
608.199595
 30
0.0
 11
666.421038
 21
609.199595
 31
0.0
  0
LINE
  5
EE
330
B8
100
AcDbEntity
  8
LC-001-005-----0
 62
     7
370
    25
100
AcDbLine
 10
667.421038
 20
605.371168
 30
0.0
 11
666.421038
 21
606.371168
 31
0.0
  0
LINE
  5
EF
330
B8
100
AcDbEntity
  8
LC-001-005-----0
 62
     7
370
    25
100
AcDbLine
 10
667.421038
 20
602.542741
 30
0.0
 11
666.421038
 21
603.542741
 31
0.0
  0
LINE
  5
F0
330
B8
100
AcDbEntity
  8
LC-001-005-----0
 62
     7
370
    25
100
AcDbLine
 10
667.421038
 20
599.714314
 30
0.0
 11
666.421038
 21
600.714314
 31
0.0
  0
LINE
  5
F1
330
B8
100
AcDbEntity
  8
LC-001-005-----0
 62
     7
370
    25
100
AcDbLine
 10
667.421038
 20
596.885887
 30
0.0
 11
666.421038
 21
597.885887
 31
0.0
  0
LINE
  5
F2
330
B8
100
AcDbEntity
  8
LC-001-005-----0
 62
     7
370
    25
100
AcDbLine
 10
667.421038
 20
594.05746
 30
0.0
 11
666.421038
 21
595.05746
 31
0.0
  0
LINE
  5
F3
330
B8
100
AcDbEntity
  8
LC-001-005-----0
 62
     7
370
    25
100
AcDbLine
 10
667.421038
 20
591.229033
 30
0.0
 11
666.421038
 21
592.229033
 31
0.0
  0
LINE
  5
F4
330
B8
100
AcDbEntity
  8
LC-001-005-----0
 62
     7
370
    25
100
AcDbLine
 10
667.421038
 20
588.400605
 30
0.0
 11
666.421038
 21
589.400605
 31
0.0
  0
LINE
  5
F5
330
B8
100
AcDbEntity
  8
LC-001-005-----0
 62
     7
370
    25
100
AcDbLine
 10
667.421038
 20
585.572178
 30
0.0
 11
666.421038
 21
586.572178
 31
0.0
  0
LINE
  5
F6
330
B8
100
AcDbEntity
  8
LC-001-005-----0
 62
     7
370
    25
100
AcDbLine
 10
667.421038
 20
582.743751
 30
0.0
 11
666.421038
 21
583.743751
 31
0.0
  0
LINE
  5
F7
330
B8
100
AcDbEntity
  8
LC-001-005-----0
 62
     7
370
    25
100
AcDbLine
 10
667.421038
 20
579.915324
 30
0.0
 11
666.421038
 21
580.915324
 31
0.0
  0
ENDBLK
  5
BA
330
B8
100
AcDbEntity
  8
0
100
AcDbBlockEnd
  0
BLOCK
  5
FC
330
FB
100
AcDbEntity
  8
0
100
AcDbBlockBegin
  2
*X44
 70
     1
 71
     0
 10
0.0
 20
0.0
 30
0.0
  3
*X44
  1

  4
*X4
  0
LINE
  5
FE
330
FB
100
AcDbEntity
  8
LC-001-005-----0
 62
     7
370
    25
100
AcDbLine
 10
648.905437
 20
650.602493
 30
0.0
 11
649.84067
 21
651.537727
 31
0.0
  0
LINE
  5
FF
330
FB
100
AcDbEntity
  8
LC-001-005-----0
 62
     7
370
    25
100
AcDbLine
 10
648.267285
 20
650.530027
 30
0.0
 11
649.913137
 21
652.175878
 31
0.0
  0
LINE
  5
100
330
FB
100
AcDbEntity
  8
LC-001-005-----0
 62
     7
370
    25
100
AcDbLine
 10
647.819568
 20
650.647995
 30
0.0
 11
649.795168
 21
652.623595
 31
0.0
  0
LINE
  5
101
330
FB
100
AcDbEntity
  8
LC-001-005-----0
 62
     7
370
    25
100
AcDbLine
 10
647.468926
 20
650.863039
 30
0.0
 11
649.580125
 21
652.974237
 31
0.0
  0
LINE
  5
102
330
FB
100
AcDbEntity
  8
LC-001-005-----0
 62
     7
370
    25
100
AcDbLine
 10
647.196297
 20
651.156095
 30
0.0
 11
649.287069
 21
653.246867
 31
0.0
  0
LINE
  5
103
330
FB
100
AcDbEntity
  8
LC-001-005-----0
 62
     7
370
    25
100
AcDbLine
 10
647.004181
 20
651.529665
 30
0.0
 11
648.913499
 21
653.438982
 31
0.0
  0
LINE
  5
104
330
FB
100
AcDbEntity
  8
LC-001-005-----0
 62
     7
370
    25
100
AcDbLine
 10
646.92107
 20
652.012239
 30
0.0
 11
648.430925
 21
653.522093
 31
0.0
  0
LINE
  5
105
330
FB
100
AcDbEntity
  8
LC-001-005-----0
 62
     7
370
    25
100
AcDbLine
 10
647.131512
 20
652.788366
 30
0.0
 11
647.654797
 21
653.311651
 31
0.0
  0
ENDBLK
  5
FD
330
FB
100
AcDbEntity
  8
0
100
AcDbBlockEnd
  0
BLOCK
  5
10B
330
10A
100
AcDbEntity
  8
0
100
AcDbBlockBegin
  2
*X55
 70
     1
 71
     0
 10
0.0
 20
0.0
 30
0.0
  3
*X55
  1

  4
*X5
  0
LINE
  5
10D
330
10A
100
AcDbEntity
  8
LC-001-005-----0
 62
     7
370
    25
100
AcDbLine
 10
727.01021
 20
650.642678
 30
0.0
 11
727.800487
 21
651.432954
 31
0.0
  0
LINE
  5
10E
330
10A
100
AcDbEntity
  8
LC-001-005-----0
 62
     7
370
    25
100
AcDbLine
 10
726.326928
 20
650.525081
 30
0.0
 11
727.918083
 21
652.116236
 31
0.0
  0
LINE
  5
10F
330
10A
100
AcDbEntity
  8
LC-001-005-----0
 62
     7
370
    25
100
AcDbLine
 10
725.86511
 20
650.628948
 30
0.0
 11
727.814216
 21
652.578055
 31
0.0
  0
LINE
  5
110
330
10A
100
AcDbEntity
  8
LC-001-005-----0
 62
     7
370
    25
100
AcDbLine
 10
725.504887
 20
650.834411
 30
0.0
 11
727.608753
 21
652.938277
 31
0.0
  0
LINE
  5
111
330
10A
100
AcDbEntity
  8
LC-001-005-----0
 62
     7
370
    25
100
AcDbLine
 10
725.223562
 20
651.118771
 30
0.0
 11
727.324393
 21
653.219603
 31
0.0
  0
LINE
  5
112
330
10A
100
AcDbEntity
  8
LC-001-005-----0
 62
     7
370
    25
100
AcDbLine
 10
725.021505
 20
651.482399
 30
0.0
 11
726.960765
 21
653.42166
 31
0.0
  0
LINE
  5
113
330
10A
100
AcDbEntity
  8
LC-001-005-----0
 62
     7
370
    25
100
AcDbLine
 10
724.922803
 20
651.949384
 30
0.0
 11
726.493781
 21
653.520361
 31
0.0
  0
LINE
  5
114
330
10A
100
AcDbEntity
  8
LC-001-005-----0
 62
     7
370
    25
100
AcDbLine
 10
725.05966
 20
652.651925
 30
0.0
 11
725.791239
 21
653.383505
 31
0.0
  0
ENDBLK
  5
10C
330
10A
100
AcDbEntity
  8
0
100
AcDbBlockEnd
  0
BLOCK
  5
13F
330
134
100
AcDbEntity
  8
0
100
AcDbBlockBegin
  2
*D6
 70
     1
 71
     0
 10
0.0
 20
0.0
 30
0.0
  3
*D6
  1

  0
LINE
  5
135
330
134
100
AcDbEntity
  8
LC-006-003-----0
 62
     2
370
    -2
100
AcDbLine
 10
581.795387
 20
669.819107
 30
0.0
 11
506.0
 21
669.819107
 31
0.0
  0
LINE
  5
136
330
134
100
AcDbEntity
  8
LC-006-003-----0
 62
     2
370
    -2
100
AcDbLine
 10
577.421038
 20
632.699841
 30
0.0
 11
506.0
 21
632.699841
 31
0.0
  0
LINE
  5
137
330
134
100
AcDbEntity
  8
LC-006-003-----0
 62
     2
370
    -2
100
AcDbLine
 10
509.6
 20
697.819107
 30
0.0
 11
509.6
 21
725.819107
 31
0.0
  0
LINE
  5
138
330
134
100
AcDbEntity
  8
LC-006-003-----0
 62
     2
370
    -2
100
AcDbLine
 10
509.6
 20
604.699841
 30
0.0
 11
509.6
 21
564.970909
 31
0.0
  0
SOLID
  5
139
330
134
100
AcDbEntity
  8
LC-006-003-----0
 62
     2
100
AcDbTrace
 10
504.933333
 20
697.819107
 30
0.0
 11
514.266667
 21
697.819107
 31
0.0
 12
509.6
 22
669.819107
 32
0.0
 13
509.6
 23
669.819107
 33
0.0
  0
SOLID
  5
13A
330
134
100
AcDbEntity
  8
LC-006-003-----0
 62
     2
100
AcDbTrace
 10
514.266667
 20
604.699841
 30
0.0
 11
504.933333
 21
604.699841
 31
0.0
 12
509.6
 22
632.699841
 32
0.0
 13
509.6
 23
632.699841
 33
0.0
  0
MTEXT
  5
13B
330
134
100
AcDbEntity
  8
LC-006-003-----0
 62
     2
100
AcDbMText
 10
478.8
 20
589.141
 30
0.0
 40
28.0
 41
0.0
 71
     5
 72
     1
  1
\A1;37
  7
LCTX15-400-0-0pDIN-Schrift
 11
6.123031769111886E-17
 21
1.0
 31
0.0
 73
     1
 44
1.0
  0
POINT
  5
13C
330
134
100
AcDbEntity
  8
Defpoints
 62
     0
100
AcDbPoint
 10
581.795387
 20
669.819107
 30
0.0
  0
POINT
  5
13D
330
134
100
AcDbEntity
  8
Defpoints
 62
     0
100
AcDbPoint
 10
577.421038
 20
632.699841
 30
0.0
  0
POINT
  5
13E
330
134
100
AcDbEntity
  8
Defpoints
 62
     0
100
AcDbPoint
 10
509.6
 20
632.699841
 30
0.0
  0
ENDBLK
  5
140
330
134
100
AcDbEntity
  8
0
100
AcDbBlockEnd
  0
BLOCK
  5
175
330
174
100
AcDbEntity
  8
0
100
AcDbBlockBegin
  2
*X67
 70
     1
 71
     0
 10
0.0
 20
0.0
 30
0.0
  3
*X67
  1

  4
*X6
  0
LINE
  5
177
330
174
100
AcDbEntity
  8
LC-001-005-----0
 62
     7
370
    25
100
AcDbLine
 10
589.993882
 20
613.784702
 30
0.0
 11
589.424197
 21
614.354387
 31
0.0
  0
LINE
  5
178
330
174
100
AcDbEntity
  8
LC-001-005-----0
  6
DASHED
 62
     7
370
    25
100
AcDbLine
 10
591.921036
 20
610.726178
 30
0.0
 11
591.422516
 21
611.224697
 31
0.0
  0
LINE
  5
179
330
174
100
AcDbEntity
  8
LC-001-005-----0
  6
DASHED
 62
     7
370
    25
100
AcDbLine
 10
589.690645
 20
612.956569
 30
0.0
 11
588.651928
 21
613.995286
 31
0.0
  0
LINE
  5
17A
330
174
100
AcDbEntity
  8
LC-001-005-----0
  6
DASHED
 62
     7
370
    25
100
AcDbLine
 10
591.921038
 20
610.16049
 30
0.0
 11
590.928417
 21
611.153111
 31
0.0
  0
LINE
  5
17B
330
174
100
AcDbEntity
  8
LC-001-005-----0
  6
DASHED
 62
     7
370
    25
100
AcDbLine
 10
589.534674
 20
612.546854
 30
0.0
 11
588.274804
 21
613.806724
 31
0.0
  0
LINE
  5
17C
330
174
100
AcDbEntity
  8
LC-001-005-----0
 62
     7
370
    25
100
AcDbLine
 10
591.747599
 20
609.202558
 30
0.0
 11
589.951324
 21
610.998834
 31
0.0
  0
LINE
  5
17D
330
174
100
AcDbEntity
  8
LC-001-005-----0
 62
     7
370
    25
100
AcDbLine
 10
589.222732
 20
611.727425
 30
0.0
 11
587.520557
 21
613.4296
 31
0.0
  0
LINE
  5
17E
330
174
100
AcDbEntity
  8
LC-001-005-----0
 62
     7
370
    25
100
AcDbLine
 10
591.613047
 20
608.771425
 30
0.0
 11
589.462777
 21
610.921695
 31
0.0
  0
LINE
  5
17F
330
174
100
AcDbEntity
  8
LC-001-005-----0
 62
     7
370
    25
100
AcDbLine
 10
589.066761
 20
611.317711
 30
0.0
 11
587.143433
 21
613.241039
 31
0.0
  0
LINE
  5
180
330
174
100
AcDbEntity
  8
LC-001-005-----0
  6
DASHED
 62
     7
370
    25
100
AcDbLine
 10
591.00121
 20
608.251891
 30
0.0
 11
590.561038
 21
608.692063
 31
0.0
  0
LINE
  5
181
330
174
100
AcDbEntity
  8
LC-001-005-----0
  6
DASHED
 62
     7
370
    25
100
AcDbLine
 10
590.52326
 20
608.729841
 30
0.0
 11
586.389186
 21
612.863915
 31
0.0
  0
LINE
  5
182
330
174
100
AcDbEntity
  8
LC-001-005-----0
  6
DASHED
 62
     7
370
    25
100
AcDbLine
 10
589.957574
 20
608.729841
 30
0.0
 11
586.012062
 21
612.675353
 31
0.0
  0
LINE
  5
183
330
174
100
AcDbEntity
  8
LC-001-005-----0
 62
     7
370
    25
100
AcDbLine
 10
589.393647
 20
608.162398
 30
0.0
 11
585.257815
 21
612.29823
 31
0.0
  0
LINE
  5
184
330
174
100
AcDbEntity
  8
LC-001-005-----0
 62
     7
370
    25
100
AcDbLine
 10
589.139452
 20
607.850907
 30
0.0
 11
588.876389
 21
608.11397
 31
0.0
  0
LINE
  5
185
330
174
100
AcDbEntity
  8
LC-001-005-----0
 62
     7
370
    25
100
AcDbLine
 10
588.780518
 20
608.209841
 30
0.0
 11
584.882168
 21
612.108191
 31
0.0
  0
LINE
  5
186
330
174
100
AcDbEntity
  8
LC-001-005-----0
  6
DASHED
 62
     7
370
    25
100
AcDbLine
 10
587.884917
 20
607.974072
 30
0.0
 11
584.316249
 21
611.542739
 31
0.0
  0
LINE
  5
187
330
174
100
AcDbEntity
  8
LC-001-005-----0
  6
DASHED
 62
     7
370
    25
100
AcDbLine
 10
587.083462
 20
608.209841
 30
0.0
 11
584.158291
 21
611.135012
 31
0.0
  0
LINE
  5
188
330
174
100
AcDbEntity
  8
LC-001-005-----0
 62
     7
370
    25
100
AcDbLine
 10
586.311825
 20
607.850107
 30
0.0
 11
586.115221
 21
608.046711
 31
0.0
  0
LINE
  5
189
330
174
100
AcDbEntity
  8
LC-001-005-----0
 62
     7
370
    25
100
AcDbLine
 10
585.952091
 20
608.209841
 30
0.0
 11
584.327629
 21
609.834303
 31
0.0
  0
LINE
  5
18A
330
174
100
AcDbEntity
  8
LC-001-005-----0
 62
     7
370
    25
100
AcDbLine
 10
585.37415
 20
608.222097
 30
0.0
 11
584.534684
 21
609.061562
 31
0.0
  0
ENDBLK
  5
176
330
174
100
AcDbEntity
  8
0
100
AcDbBlockEnd
  0
BLOCK
  5
194
330
193
100
AcDbEntity
  8
0
100
AcDbBlockBegin
  2
*X78
 70
     1
 71
     0
 10
0.0
 20
0.0
 30
0.0
  3
*X78
  1

  4
*X7
  0
LINE
  5
196
330
193
100
AcDbEntity
  8
LC-001-005-----0
 62
     7
370
    25
100
AcDbLine
 10
629.72695
 20
651.222996
 30
0.0
 11
630.722883
 21
652.218929
 31
0.0
  0
LINE
  5
197
330
193
100
AcDbEntity
  8
LC-001-005-----0
 62
     7
370
    25
100
AcDbLine
 10
629.35909
 20
651.420822
 30
0.0
 11
630.525057
 21
652.586789
 31
0.0
  0
LINE
  5
198
330
193
100
AcDbEntity
  8
LC-001-005-----0
 62
     7
370
    25
100
AcDbLine
 10
629.137916
 20
651.765333
 30
0.0
 11
630.180546
 21
652.807963
 31
0.0
  0
LINE
  5
199
330
193
100
AcDbEntity
  8
LC-001-005-----0
 62
     7
370
    25
100
AcDbLine
 10
629.167417
 20
652.360519
 30
0.0
 11
629.58536
 21
652.778463
 31
0.0
  0
ENDBLK
  5
195
330
193
100
AcDbEntity
  8
0
100
AcDbBlockEnd
  0
BLOCK
  5
19E
330
19D
100
AcDbEntity
  8
0
100
AcDbBlockBegin
  2
*X89
 70
     1
 71
     0
 10
0.0
 20
0.0
 30
0.0
  3
*X89
  1

  4
*X8
  0
LINE
  5
1A0
330
19D
100
AcDbEntity
  8
LC-001-005-----0
 62
     7
370
    25
100
AcDbLine
 10
630.107418
 20
612.57117
 30
0.0
 11
630.724709
 21
613.188461
 31
0.0
  0
LINE
  5
1A1
330
19D
100
AcDbEntity
  8
LC-001-005-----0
 62
     7
370
    25
100
AcDbLine
 10
629.589814
 20
612.619251
 30
0.0
 11
630.676628
 21
613.706065
 31
0.0
  0
LINE
  5
1A2
330
19D
100
AcDbEntity
  8
LC-001-005-----0
 62
     7
370
    25
100
AcDbLine
 10
629.27131
 20
612.866433
 30
0.0
 11
630.429446
 21
614.024569
 31
0.0
  0
LINE
  5
1A3
330
19D
100
AcDbEntity
  8
LC-001-005-----0
 62
     7
370
    25
100
AcDbLine
 10
629.103479
 20
613.264287
 30
0.0
 11
630.031592
 21
614.1924
 31
0.0
  0
ENDBLK
  5
19F
330
19D
100
AcDbEntity
  8
0
100
AcDbBlockEnd
  0
BLOCK
  5
1A7
330
1A6
100
AcDbEntity
  8
0
100
AcDbBlockBegin
  2
*X910
 70
     1
 71
     0
 10
0.0
 20
0.0
 30
0.0
  3
*X910
  1

  4
*X9
  0
LINE
  5
1A9
330
1A6
100
AcDbEntity
  8
LC-001-005-----0
 62
     7
370
    25
100
AcDbLine
 10
780.783218
 20
651.806941
 30
0.0
 11
781.943505
 21
652.967228
 31
0.0
  0
LINE
  5
1AA
330
1A6
100
AcDbEntity
  8
LC-001-005-----0
 62
     7
370
    25
100
AcDbLine
 10
780.145174
 20
651.734582
 30
0.0
 11
782.015863
 21
653.605272
 31
0.0
  0
LINE
  5
1AB
330
1A6
100
AcDbEntity
  8
LC-001-005-----0
 62
     7
370
    25
100
AcDbLine
 10
779.678224
 20
651.833318
 30
0.0
 11
781.917128
 21
654.072222
 31
0.0
  0
LINE
  5
1AC
330
1A6
100
AcDbEntity
  8
LC-001-005-----0
 62
     7
370
    25
100
AcDbLine
 10
779.301789
 20
652.022569
 30
0.0
 11
781.727877
 21
654.448657
 31
0.0
  0
LINE
  5
1AD
330
1A6
100
AcDbEntity
  8
LC-001-005-----0
 62
     7
370
    25
100
AcDbLine
 10
778.995148
 20
652.281613
 30
0.0
 11
781.468833
 21
654.755298
 31
0.0
  0
LINE
  5
1AE
330
1A6
100
AcDbEntity
  8
LC-001-005-----0
 62
     7
370
    25
100
AcDbLine
 10
778.754124
 20
652.606274
 30
0.0
 11
781.144172
 21
654.996322
 31
0.0
  0
LINE
  5
1AF
330
1A6
100
AcDbEntity
  8
LC-001-005-----0
 62
     7
370
    25
100
AcDbLine
 10
778.586312
 20
653.004148
 30
0.0
 11
780.746298
 21
655.164134
 31
0.0
  0
LINE
  5
1B0
330
1A6
100
AcDbEntity
  8
LC-001-005-----0
 62
     7
370
    25
100
AcDbLine
 10
778.520509
 20
653.50403
 30
0.0
 11
780.246415
 21
655.229936
 31
0.0
  0
LINE
  5
1B1
330
1A6
100
AcDbEntity
  8
LC-001-005-----0
 62
     7
370
    25
100
AcDbLine
 10
778.696898
 20
654.246105
 30
0.0
 11
779.504341
 21
655.053548
 31
0.0
  0
ENDBLK
  5
1A8
330
1A6
100
AcDbEntity
  8
0
100
AcDbBlockEnd
  0
BLOCK
  5
1B5
330
1B4
100
AcDbEntity
  8
0
100
AcDbBlockBegin
  2
*X1011
 70
     1
 71
     0
 10
0.0
 20
0.0
 30
0.0
  3
*X1011
  1

  4
*X10
  0
LINE
  5
1B7
330
1B4
100
AcDbEntity
  8
LC-001-005-----0
 62
     7
370
    25
100
AcDbLine
 10
781.239077
 20
598.522685
 30
0.0
 11
781.727761
 21
599.011369
 31
0.0
  0
LINE
  5
1B8
330
1B4
100
AcDbEntity
  8
LC-001-005-----0
 62
     7
370
    25
100
AcDbLine
 10
780.384536
 20
598.23383
 30
0.0
 11
782.016616
 21
599.865909
 31
0.0
  0
LINE
  5
1B9
330
1B4
100
AcDbEntity
  8
LC-001-005-----0
 62
     7
370
    25
100
AcDbLine
 10
779.863154
 20
598.278132
 30
0.0
 11
781.972314
 21
600.387292
 31
0.0
  0
LINE
  5
1BA
330
1B4
100
AcDbEntity
  8
LC-001-005-----0
 62
     7
370
    25
100
AcDbLine
 10
779.452369
 20
598.433034
 30
0.0
 11
781.817412
 21
600.798076
 31
0.0
  0
LINE
  5
1BB
330
1B4
100
AcDbEntity
  8
LC-001-005-----0
 62
     7
370
    25
100
AcDbLine
 10
779.117311
 20
598.663661
 30
0.0
 11
781.586785
 21
601.133134
 31
0.0
  0
LINE
  5
1BC
330
1B4
100
AcDbEntity
  8
LC-001-005-----0
 62
     7
370
    25
100
AcDbLine
 10
778.848225
 20
598.96026
 30
0.0
 11
781.290186
 21
601.40222
 31
0.0
  0
LINE
  5
1BD
330
1B4
100
AcDbEntity
  8
LC-001-005-----0
 62
     7
370
    25
100
AcDbLine
 10
778.647499
 20
599.325219
 30
0.0
 11
780.925226
 21
601.602947
 31
0.0
  0
LINE
  5
1BE
330
1B4
100
AcDbEntity
  8
LC-001-005-----0
 62
     7
370
    25
100
AcDbLine
 10
778.532321
 20
599.775726
 30
0.0
 11
780.474719
 21
601.718125
 31
0.0
  0
LINE
  5
1BF
330
1B4
100
AcDbEntity
  8
LC-001-005-----0
 62
     7
370
    25
100
AcDbLine
 10
778.565356
 20
600.374447
 30
0.0
 11
779.875999
 21
601.68509
 31
0.0
  0
ENDBLK
  5
1B6
330
1B4
100
AcDbEntity
  8
0
100
AcDbBlockEnd
  0
BLOCK
  5
1CD
330
1C3
100
AcDbEntity
  8
0
100
AcDbBlockBegin
  2
*D12
 70
     1
 71
     0
 10
0.0
 20
0.0
 30
0.0
  3
*D12
  1

  0
LINE
  5
1C4
330
1C3
100
AcDbEntity
  8
LC-006-003-----0
 62
     2
370
    -2
100
AcDbLine
 10
871.421482
 20
658.2301
 30
0.0
 11
944.4
 21
658.2301
 31
0.0
  0
LINE
  5
1C5
330
1C3
100
AcDbEntity
  8
LC-006-003-----0
 62
     2
370
    -2
100
AcDbLine
 10
871.421482
 20
595.2301
 30
0.0
 11
944.4
 21
595.2301
 31
0.0
  0
LINE
  5
1C6
330
1C3
100
AcDbEntity
  8
LC-006-003-----0
 62
     2
370
    -2
100
AcDbLine
 10
940.8
 20
630.2301
 30
0.0
 11
940.8
 21
623.2301
 31
0.0
  0
SOLID
  5
1C7
330
1C3
100
AcDbEntity
  8
LC-006-003-----0
 62
     2
100
AcDbTrace
 10
945.466667
 20
630.2301
 30
0.0
 11
936.133333
 21
630.2301
 31
0.0
 12
940.8
 22
658.2301
 32
0.0
 13
940.8
 23
658.2301
 33
0.0
  0
SOLID
  5
1C8
330
1C3
100
AcDbEntity
  8
LC-006-003-----0
 62
     2
100
AcDbTrace
 10
936.133333
 20
623.2301
 30
0.0
 11
945.466667
 21
623.2301
 31
0.0
 12
940.8
 22
595.2301
 32
0.0
 13
940.8
 23
595.2301
 33
0.0
  0
MTEXT
  5
1C9
330
1C3
100
AcDbEntity
  8
LC-006-003-----0
 62
     2
100
AcDbMText
 10
910.0
 20
626.7301
 30
0.0
 40
28.0
 41
0.0
 71
     5
 72
     1
  1
%%c\A1;63
  7
LCTX15-400-0-0pDIN-Schrift
 11
6.123031769111886E-17
 21
1.0
 31
0.0
 73
     1
 44
1.0
  0
POINT
  5
1CA
330
1C3
100
AcDbEntity
  8
Defpoints
 62
     0
100
AcDbPoint
 10
871.421482
 20
658.2301
 30
0.0
  0
POINT
  5
1CB
330
1C3
100
AcDbEntity
  8
Defpoints
 62
     0
100
AcDbPoint
 10
871.421482
 20
595.2301
 30
0.0
  0
POINT
  5
1CC
330
1C3
100
AcDbEntity
  8
Defpoints
 62
     0
100
AcDbPoint
 10
940.8
 20
595.2301
 30
0.0
  0
ENDBLK
  5
1CE
330
1C3
100
AcDbEntity
  8
0
100
AcDbBlockEnd
  0
BLOCK
  5
1DD
330
1D1
100
AcDbEntity
  8
0
100
AcDbBlockBegin
  2
*D13
 70
     1
 71
     0
 10
0.0
 20
0.0
 30
0.0
  3
*D13
  1

  0
LINE
  5
1D2
330
1D1
100
AcDbEntity
  8
LC-006-003-----0
 62
     2
370
    -2
100
AcDbLine
 10
827.921482
 20
654.7301
 30
0.0
 11
905.2
 21
654.7301
 31
0.0
  0
LINE
  5
1D3
330
1D1
100
AcDbEntity
  8
LC-006-003-----0
 62
     2
370
    -2
100
AcDbLine
 10
827.921482
 20
598.7301
 30
0.0
 11
905.2
 21
598.7301
 31
0.0
  0
LINE
  5
1D4
330
1D1
100
AcDbEntity
  8
LC-006-003-----0
 62
     2
370
    -2
100
AcDbLine
 10
901.6
 20
682.7301
 30
0.0
 11
901.6
 21
710.7301
 31
0.0
  0
LINE
  5
1D5
330
1D1
100
AcDbEntity
  8
LC-006-003-----0
 62
     2
370
    -2
100
AcDbLine
 10
901.6
 20
570.7301
 30
0.0
 11
901.6
 21
542.7301
 31
0.0
  0
LINE
  5
1D6
330
1D1
100
AcDbEntity
  8
LC-006-003-----0
 62
     2
370
    -2
100
AcDbLine
 10
901.6
 20
654.7301
 30
0.0
 11
901.6
 21
598.7301
 31
0.0
  0
SOLID
  5
1D7
330
1D1
100
AcDbEntity
  8
LC-006-003-----0
 62
     2
100
AcDbTrace
 10
896.933333
 20
682.7301
 30
0.0
 11
906.266667
 21
682.7301
 31
0.0
 12
901.6
 22
654.7301
 32
0.0
 13
901.6
 23
654.7301
 33
0.0
  0
SOLID
  5
1D8
330
1D1
100
AcDbEntity
  8
LC-006-003-----0
 62
     2
100
AcDbTrace
 10
906.266667
 20
570.7301
 30
0.0
 11
896.933333
 21
570.7301
 31
0.0
 12
901.6
 22
598.7301
 32
0.0
 13
901.6
 23
598.7301
 33
0.0
  0
MTEXT
  5
1D9
330
1D1
100
AcDbEntity
  8
LC-006-003-----0
 62
     2
100
AcDbMText
 10
870.8
 20
626.7301
 30
0.0
 40
28.0
 41
0.0
 71
     5
 72
     1
  1
%%c\A1;56
  7
LCTX15-400-0-0pDIN-Schrift
 11
6.123031769111886E-17
 21
1.0
 31
0.0
 73
     1
 44
1.0
  0
POINT
  5
1DA
330
1D1
100
AcDbEntity
  8
Defpoints
 62
     0
100
AcDbPoint
 10
827.921482
 20
654.7301
 30
0.0
  0
POINT
  5
1DB
330
1D1
100
AcDbEntity
  8
Defpoints
 62
     0
100
AcDbPoint
 10
827.921482
 20
598.7301
 30
0.0
  0
POINT
  5
1DC
330
1D1
100
AcDbEntity
  8
Defpoints
 62
     0
100
AcDbPoint
 10
901.6
 20
598.7301
 30
0.0
  0
ENDBLK
  5
1DE
330
1D1
100
AcDbEntity
  8
0
100
AcDbBlockEnd
  0
BLOCK
  5
1F7
330
1EC
100
AcDbEntity
  8
0
100
AcDbBlockBegin
  2
*D14
 70
     1
 71
     0
 10
0.0
 20
0.0
 30
0.0
  3
*D14
  1

  0
LINE
  5
1ED
330
1EC
100
AcDbEntity
  8
LC-006-003-----0
 62
     2
370
    -2
100
AcDbLine
 10
793.046689
 20
669.819107
 30
0.0
 11
843.6
 21
669.819107
 31
0.0
  0
LINE
  5
1EE
330
1EC
100
AcDbEntity
  8
LC-006-003-----0
 62
     2
370
    -2
100
AcDbLine
 10
801.555876
 20
626.7301
 30
0.0
 11
843.6
 21
626.7301
 31
0.0
  0
LINE
  5
1EF
330
1EC
100
AcDbEntity
  8
LC-006-003-----0
 62
     2
370
    -2
100
AcDbLine
 10
840.0
 20
598.7301
 30
0.0
 11
840.0
 21
570.7301
 31
0.0
  0
LINE
  5
1F0
330
1EC
100
AcDbEntity
  8
LC-006-003-----0
 62
     2
370
    -2
100
AcDbLine
 10
840.0
 20
697.819107
 30
0.0
 11
840.0
 21
700.153859
 31
0.0
  0
SOLID
  5
1F1
330
1EC
100
AcDbEntity
  8
LC-006-003-----0
 62
     2
100
AcDbTrace
 10
835.333333
 20
697.819107
 30
0.0
 11
844.666667
 21
697.819107
 31
0.0
 12
840.0
 22
669.819107
 32
0.0
 13
840.0
 23
669.819107
 33
0.0
  0
SOLID
  5
1F2
330
1EC
100
AcDbEntity
  8
LC-006-003-----0
 62
     2
100
AcDbTrace
 10
844.666667
 20
598.7301
 30
0.0
 11
835.333333
 21
598.7301
 31
0.0
 12
840.0
 22
626.7301
 32
0.0
 13
840.0
 23
626.7301
 33
0.0
  0
MTEXT
  5
1F3
330
1EC
100
AcDbEntity
  8
LC-006-003-----0
 62
     2
100
AcDbMText
 10
809.2
 20
677.053
 30
0.0
 40
28.0
 41
0.0
 71
     5
 72
     1
  1
\A1;43
  7
LCTX15-400-0-0pDIN-Schrift
 11
6.123031769111886E-17
 21
1.0
 31
0.0
 73
     1
 44
1.0
  0
POINT
  5
1F4
330
1EC
100
AcDbEntity
  8
Defpoints
 62
     0
100
AcDbPoint
 10
793.046689
 20
669.819107
 30
0.0
  0
POINT
  5
1F5
330
1EC
100
AcDbEntity
  8
Defpoints
 62
     0
100
AcDbPoint
 10
801.555876
 20
626.7301
 30
0.0
  0
POINT
  5
1F6
330
1EC
100
AcDbEntity
  8
Defpoints
 62
     0
100
AcDbPoint
 10
840.0
 20
626.7301
 30
0.0
  0
ENDBLK
  5
1F8
330
1EC
100
AcDbEntity
  8
0
100
AcDbBlockEnd
  0
BLOCK
  5
1FD
330
1FC
100
AcDbEntity
  8
0
100
AcDbBlockBegin
  2
LCDIM1
 70
     0
 71
     0
 10
0.0
 20
0.0
 30
0.0
  3
LCDIM1
  1

  4
LCDIM1
  0
TEXT
  5
1FF
330
1FC
100
AcDbEntity
  8
LC-006-003-----0
 62
     7
370
   140
100
AcDbText
 10
904.334389
 20
464.322672
 30
0.0
 40
28.0
  1
 15%%d
 50
46.649734
 41
0.9
 51
15.0
  7
LCTX15-400-0-0-Arial
 72
     1
 11
925.992368
 21
487.265202
 31
0.0
100
AcDbText
  0
LINE
  5
200
330
1FC
100
AcDbEntity
  8
LC-006-003-----0
 62
     7
370
    25
100
AcDbLine
 10
982.909601
 20
541.276215
 30
0.0
 11
988.288867
 21
568.754634
 31
0.0
  0
LINE
  5
201
330
1FC
100
AcDbEntity
  8
LC-006-003-----0
 62
     7
370
    25
100
AcDbLine
 10
988.288867
 20
568.754634
 30
0.0
 11
975.980957
 21
543.604776
 31
0.0
  0
LINE
  5
202
330
1FC
100
AcDbEntity
  8
LC-006-003-----0
 62
     7
370
    25
100
AcDbLine
 10
975.980957
 20
543.604776
 30
0.0
 11
982.909601
 21
541.276215
 31
0.0
  0
LINE
  5
203
330
1FC
100
AcDbEntity
  8
LC-006-003-----0
 62
     7
370
    25
100
AcDbLine
 10
981.989037
 20
541.519892
 30
0.0
 11
985.969693
 21
561.853921
 31
0.0
  0
LINE
  5
204
330
1FC
100
AcDbEntity
  8
LC-006-003-----0
 62
     7
370
    25
100
AcDbLine
 10
985.969693
 20
561.853921
 30
0.0
 11
976.86184
 21
543.243027
 31
0.0
  0
LINE
  5
205
330
1FC
100
AcDbEntity
  8
LC-006-003-----0
 62
     7
370
    25
100
AcDbLine
 10
981.068472
 20
541.763568
 30
0.0
 11
983.65052
 21
554.953209
 31
0.0
  0
LINE
  5
206
330
1FC
100
AcDbEntity
  8
LC-006-003-----0
 62
     7
370
    25
100
AcDbLine
 10
983.65052
 20
554.953209
 30
0.0
 11
977.742723
 21
542.881277
 31
0.0
  0
LINE
  5
207
330
1FC
100
AcDbEntity
  8
LC-006-003-----0
 62
     7
370
    25
100
AcDbLine
 10
980.147908
 20
542.007244
 30
0.0
 11
981.331346
 21
548.052496
 31
0.0
  0
LINE
  5
208
330
1FC
100
AcDbEntity
  8
LC-006-003-----0
 62
     7
370
    25
100
AcDbLine
 10
981.331346
 20
548.052496
 30
0.0
 11
978.623606
 21
542.519528
 31
0.0
  0
LINE
  5
209
330
1FC
100
AcDbEntity
  8
LC-006-003-----0
 62
     7
370
    25
100
AcDbLine
 10
990.542216
 20
654.208519
 30
0.0
 11
995.921482
 21
626.7301
 31
0.0
  0
LINE
  5
20A
330
1FC
100
AcDbEntity
  8
LC-006-003-----0
 62
     7
370
    25
100
AcDbLine
 10
995.921482
 20
626.7301
 30
0.0
 11
997.837448
 21
654.664471
 31
0.0
  0
LINE
  5
20B
330
1FC
100
AcDbEntity
  8
LC-006-003-----0
 62
     7
370
    25
100
AcDbLine
 10
997.837448
 20
654.664471
 30
0.0
 11
990.542216
 21
654.208519
 31
0.0
  0
LINE
  5
20C
330
1FC
100
AcDbEntity
  8
LC-006-003-----0
 62
     7
370
    25
100
AcDbLine
 10
991.486711
 20
654.329953
 30
0.0
 11
995.467368
 21
633.995923
 31
0.0
  0
LINE
  5
20D
330
1FC
100
AcDbEntity
  8
LC-006-003-----0
 62
     7
370
    25
100
AcDbLine
 10
995.467368
 20
633.995923
 30
0.0
 11
996.885183
 21
654.667357
 31
0.0
  0
LINE
  5
20E
330
1FC
100
AcDbEntity
  8
LC-006-003-----0
 62
     7
370
    25
100
AcDbLine
 10
992.431207
 20
654.451387
 30
0.0
 11
995.013254
 21
641.261746
 31
0.0
  0
LINE
  5
20F
330
1FC
100
AcDbEntity
  8
LC-006-003-----0
 62
     7
370
    25
100
AcDbLine
 10
995.013254
 20
641.261746
 30
0.0
 11
995.932918
 21
654.670244
 31
0.0
  0
LINE
  5
210
330
1FC
100
AcDbEntity
  8
LC-006-003-----0
 62
     7
370
    25
100
AcDbLine
 10
993.375702
 20
654.572821
 30
0.0
 11
994.55914
 21
648.527568
 31
0.0
  0
LINE
  5
211
330
1FC
100
AcDbEntity
  8
LC-006-003-----0
 62
     7
370
    25
100
AcDbLine
 10
994.55914
 20
648.527568
 30
0.0
 11
994.980653
 21
654.67313
 31
0.0
  0
ARC
  5
213
330
1FC
100
AcDbEntity
  8
LC-009-003-MTG-0
 62
     7
370
    25
100
AcDbCircle
 10
771.921482
 20
626.7301
 30
0.0
 40
224.0
100
AcDbArc
 50
306.567726
 51
9.926246
  0
LINE
  5
215
330
1FC
100
AcDbEntity
  8
LC-010-003-MTH-0
 62
     7
370
    25
100
AcDbLine
 10
868.031102
 20
600.977605
 30
0.0
 11
992.15257
 21
567.719358
 31
0.0
  0
LINE
  5
216
330
1FC
100
AcDbEntity
  8
LC-010-003-MTH-0
 62
     7
370
    25
100
AcDbLine
 10
801.555876
 20
626.7301
 30
0.0
 11
999.921482
 21
626.7301
 31
0.0
  0
ENDBLK
  5
1FE
330
1FC
100
AcDbEntity
  8
0
100
AcDbBlockEnd
  0
BLOCK
  5
223
330
219
100
AcDbEntity
  8
0
100
AcDbBlockBegin
  2
*D16
 70
     1
 71
     0
 10
0.0
 20
0.0
 30
0.0
  3
*D16
  1

  0
LINE
  5
21A
330
219
100
AcDbEntity
  8
LC-006-003-----0
 62
     2
370
    -2
100
AcDbLine
 10
577.421038
 20
608.699841
 30
0.0
 11
577.421038
 21
427.6
 31
0.0
  0
LINE
  5
21B
330
219
100
AcDbEntity
  8
LC-006-003-----0
 62
     2
370
    -2
100
AcDbLine
 10
871.421482
 20
595.2301
 30
0.0
 11
871.421482
 21
427.6
 31
0.0
  0
LINE
  5
21C
330
219
100
AcDbEntity
  8
LC-006-003-----0
 62
     2
370
    -2
100
AcDbLine
 10
605.421038
 20
431.2
 30
0.0
 11
843.421482
 21
431.2
 31
0.0
  0
SOLID
  5
21D
330
219
100
AcDbEntity
  8
LC-006-003-----0
 62
     2
100
AcDbTrace
 10
605.421038
 20
435.866667
 30
0.0
 11
605.421038
 21
426.533333
 31
0.0
 12
577.421038
 22
431.2
 32
0.0
 13
577.421038
 23
431.2
 33
0.0
  0
SOLID
  5
21E
330
219
100
AcDbEntity
  8
LC-006-003-----0
 62
     2
100
AcDbTrace
 10
843.421482
 20
426.533333
 30
0.0
 11
843.421482
 21
435.866667
 31
0.0
 12
871.421482
 22
431.2
 32
0.0
 13
871.421482
 23
431.2
 33
0.0
  0
MTEXT
  5
21F
330
219
100
AcDbEntity
  8
LC-006-003-----0
 62
     2
100
AcDbMText
 10
724.42126
 20
462.0
 30
0.0
 40
28.0
 41
0.0
 71
     5
 72
     1
  1
\A1;295
  7
LCTX15-400-0-0pDIN-Schrift
 73
     1
 44
1.0
  0
POINT
  5
220
330
219
100
AcDbEntity
  8
Defpoints
 62
     0
100
AcDbPoint
 10
577.421038
 20
608.699841
 30
0.0
  0
POINT
  5
221
330
219
100
AcDbEntity
  8
Defpoints
 62
     0
100
AcDbPoint
 10
871.421482
 20
595.2301
 30
0.0
  0
POINT
  5
222
330
219
100
AcDbEntity
  8
Defpoints
 62
     0
100
AcDbPoint
 10
871.421482
 20
431.2
 30
0.0
  0
ENDBLK
  5
224
330
219
100
AcDbEntity
  8
0
100
AcDbBlockEnd
  0
BLOCK
  5
233
330
229
100
AcDbEntity
  8
0
100
AcDbBlockBegin
  2
*D17
 70
     1
 71
     0
 10
0.0
 20
0.0
 30
0.0
  3
*D17
  1

  0
LINE
  5
22A
330
229
100
AcDbEntity
  8
LC-006-003-----0
 62
     2
370
    -2
100
AcDbLine
 10
645.421038
 20
555.699676
 30
0.0
 11
466.8
 21
555.699676
 31
0.0
  0
LINE
  5
22B
330
229
100
AcDbEntity
  8
LC-006-003-----0
 62
     2
370
    -2
100
AcDbLine
 10
581.795387
 20
669.819107
 30
0.0
 11
466.8
 21
669.819107
 31
0.0
  0
LINE
  5
22C
330
229
100
AcDbEntity
  8
LC-006-003-----0
 62
     2
370
    -2
100
AcDbLine
 10
470.4
 20
583.699676
 30
0.0
 11
470.4
 21
641.819107
 31
0.0
  0
SOLID
  5
22D
330
229
100
AcDbEntity
  8
LC-006-003-----0
 62
     2
100
AcDbTrace
 10
465.733333
 20
583.699676
 30
0.0
 11
475.066667
 21
583.699676
 31
0.0
 12
470.4
 22
555.699676
 32
0.0
 13
470.4
 23
555.699676
 33
0.0
  0
SOLID
  5
22E
330
229
100
AcDbEntity
  8
LC-006-003-----0
 62
     2
100
AcDbTrace
 10
475.066667
 20
641.819107
 30
0.0
 11
465.733333
 21
641.819107
 31
0.0
 12
470.4
 22
669.819107
 32
0.0
 13
470.4
 23
669.819107
 33
0.0
  0
MTEXT
  5
22F
330
229
100
AcDbEntity
  8
LC-006-003-----0
 62
     2
100
AcDbMText
 10
439.6
 20
612.759392
 30
0.0
 40
28.0
 41
0.0
 71
     5
 72
     1
  1
\A1;115
  7
LCTX15-400-0-0pDIN-Schrift
 11
6.123031769111886E-17
 21
1.0
 31
0.0
 73
     1
 44
1.0
  0
POINT
  5
230
330
229
100
AcDbEntity
  8
Defpoints
 62
     0
100
AcDbPoint
 10
645.421038
 20
555.699676
 30
0.0
  0
POINT
  5
231
330
229
100
AcDbEntity
  8
Defpoints
 62
     0
100
AcDbPoint
 10
581.795387
 20
669.819107
 30
0.0
  0
POINT
  5
232
330
229
100
AcDbEntity
  8
Defpoints
 62
     0
100
AcDbPoint
 10
470.4
 20
669.819107
 30
0.0
  0
ENDBLK
  5
234
330
229
100
AcDbEntity
  8
0
100
AcDbBlockEnd
  0
BLOCK
  5
238
330
237
100
AcDbEntity
  8
0
100
AcDbBlockBegin
  2
*X1118
 70
     1
 71
     0
 10
0.0
 20
0.0
 30
0.0
  3
*X1118
  1

  4
*X11
  0
LINE
  5
23A
330
237
100
AcDbEntity
  8
LC-001-005-----0
 62
     7
370
    25
100
AcDbLine
 10
742.375867
 20
555.699676
 30
0.0
 11
742.421038
 21
555.744848
 31
0.0
  0
LINE
  5
23B
330
237
100
AcDbEntity
  8
LC-001-005-----0
 62
     7
370
    25
100
AcDbLine
 10
739.547439
 20
555.699676
 30
0.0
 11
742.421038
 21
558.573275
 31
0.0
  0
LINE
  5
23C
330
237
100
AcDbEntity
  8
LC-001-005-----0
 62
     7
370
    25
100
AcDbLine
 10
783.218418
 20
599.370655
 30
0.0
 11
788.577863
 21
604.7301
 31
0.0
  0
LINE
  5
23D
330
237
100
AcDbEntity
  8
LC-001-005-----0
 62
     7
370
    25
100
AcDbLine
 10
739.421038
 20
558.401702
 30
0.0
 11
742.421038
 21
561.401702
 31
0.0
  0
LINE
  5
23E
330
237
100
AcDbEntity
  8
LC-001-005-----0
 62
     7
370
    25
100
AcDbLine
 10
782.469375
 20
601.450039
 30
0.0
 11
785.749436
 21
604.7301
 31
0.0
  0
LINE
  5
23F
330
237
100
AcDbEntity
  8
LC-001-005-----0
 62
     7
370
    25
100
AcDbLine
 10
739.421038
 20
561.230129
 30
0.0
 11
742.421038
 21
564.230129
 31
0.0
  0
LINE
  5
240
330
237
100
AcDbEntity
  8
LC-001-005-----0
 62
     7
370
    25
100
AcDbLine
 10
775.557959
 20
597.367051
 30
0.0
 11
778.020346
 21
599.829437
 31
0.0
  0
LINE
  5
241
330
237
100
AcDbEntity
  8
LC-001-005-----0
 62
     7
370
    25
100
AcDbLine
 10
779.921009
 20
601.7301
 30
0.0
 11
782.921009
 21
604.7301
 31
0.0
  0
LINE
  5
242
330
237
100
AcDbEntity
  8
LC-001-005-----0
 62
     7
370
    25
100
AcDbLine
 10
739.421038
 20
564.058556
 30
0.0
 11
742.421038
 21
567.058556
 31
0.0
  0
LINE
  5
243
330
237
100
AcDbEntity
  8
LC-001-005-----0
 62
     7
370
    25
100
AcDbLine
 10
772.511084
 20
597.148602
 30
0.0
 11
780.092582
 21
604.7301
 31
0.0
  0
LINE
  5
244
330
237
100
AcDbEntity
  8
LC-001-005-----0
 62
     7
370
    25
100
AcDbLine
 10
739.421038
 20
566.886983
 30
0.0
 11
742.421038
 21
569.886983
 31
0.0
  0
LINE
  5
245
330
237
100
AcDbEntity
  8
LC-001-005-----0
 62
     7
370
    25
100
AcDbLine
 10
769.756124
 20
597.22207
 30
0.0
 11
777.264155
 21
604.7301
 31
0.0
  0
LINE
  5
246
330
237
100
AcDbEntity
  8
LC-001-005-----0
 62
     7
370
    25
100
AcDbLine
 10
739.421038
 20
569.715411
 30
0.0
 11
742.421038
 21
572.715411
 31
0.0
  0
LINE
  5
247
330
237
100
AcDbEntity
  8
LC-001-005-----0
 62
     7
370
    25
100
AcDbLine
 10
767.223686
 20
597.518059
 30
0.0
 11
774.435728
 21
604.7301
 31
0.0
  0
LINE
  5
248
330
237
100
AcDbEntity
  8
LC-001-005-----0
 62
     7
370
    25
100
AcDbLine
 10
739.421038
 20
572.543838
 30
0.0
 11
742.421038
 21
575.543838
 31
0.0
  0
LINE
  5
249
330
237
100
AcDbEntity
  8
LC-001-005-----0
 62
     7
370
    25
100
AcDbLine
 10
764.872001
 20
597.9948
 30
0.0
 11
771.6073
 21
604.7301
 31
0.0
  0
LINE
  5
24A
330
237
100
AcDbEntity
  8
LC-001-005-----0
 62
     7
370
    25
100
AcDbLine
 10
739.421038
 20
575.372265
 30
0.0
 11
742.421038
 21
578.372265
 31
0.0
  0
LINE
  5
24B
330
237
100
AcDbEntity
  8
LC-001-005-----0
 62
     7
370
    25
100
AcDbLine
 10
762.673828
 20
598.625055
 30
0.0
 11
768.778873
 21
604.7301
 31
0.0
  0
LINE
  5
24C
330
237
100
AcDbEntity
  8
LC-001-005-----0
 62
     7
370
    25
100
AcDbLine
 10
739.421038
 20
578.200692
 30
0.0
 11
742.421038
 21
581.200692
 31
0.0
  0
LINE
  5
24D
330
237
100
AcDbEntity
  8
LC-001-005-----0
 62
     7
370
    25
100
AcDbLine
 10
760.610478
 20
599.390132
 30
0.0
 11
765.950446
 21
604.7301
 31
0.0
  0
LINE
  5
24E
330
237
100
AcDbEntity
  8
LC-001-005-----0
 62
     7
370
    25
100
AcDbLine
 10
739.421038
 20
581.029119
 30
0.0
 11
742.421038
 21
584.029119
 31
0.0
  0
LINE
  5
24F
330
237
100
AcDbEntity
  8
LC-001-005-----0
 62
     7
370
    25
100
AcDbLine
 10
758.668721
 20
600.276802
 30
0.0
 11
763.122019
 21
604.7301
 31
0.0
  0
LINE
  5
250
330
237
100
AcDbEntity
  8
LC-001-005-----0
 62
     7
370
    25
100
AcDbLine
 10
739.421038
 20
583.857546
 30
0.0
 11
742.421038
 21
586.857546
 31
0.0
  0
LINE
  5
251
330
237
100
AcDbEntity
  8
LC-001-005-----0
 62
     7
370
    25
100
AcDbLine
 10
754.793592
 20
599.2301
 30
0.0
 11
756.420346
 21
600.856854
 31
0.0
  0
LINE
  5
252
330
237
100
AcDbEntity
  8
LC-001-005-----0
 62
     7
370
    25
100
AcDbLine
 10
756.83906
 20
601.275568
 30
0.0
 11
760.293592
 21
604.7301
 31
0.0
  0
LINE
  5
253
330
237
100
AcDbEntity
  8
LC-001-005-----0
 62
     7
370
    25
100
AcDbLine
 10
739.421038
 20
586.685973
 30
0.0
 11
742.421038
 21
589.685973
 31
0.0
  0
LINE
  5
254
330
237
100
AcDbEntity
  8
LC-001-005-----0
 62
     7
370
    25
100
AcDbLine
 10
753.920346
 20
601.185281
 30
0.0
 11
757.465165
 21
604.7301
 31
0.0
  0
LINE
  5
255
330
237
100
AcDbEntity
  8
LC-001-005-----0
 62
     7
370
    25
100
AcDbLine
 10
739.421038
 20
589.5144
 30
0.0
 11
742.421038
 21
592.5144
 31
0.0
  0
LINE
  5
256
330
237
100
AcDbEntity
  8
LC-001-005-----0
 62
     7
370
    25
100
AcDbLine
 10
751.636738
 20
601.7301
 30
0.0
 11
754.636738
 21
604.7301
 31
0.0
  0
LINE
  5
257
330
237
100
AcDbEntity
  8
LC-001-005-----0
 62
     7
370
    25
100
AcDbLine
 10
703.405636
 20
556.327426
 30
0.0
 11
711.786971
 21
564.70876
 31
0.0
  0
LINE
  5
258
330
237
100
AcDbEntity
  8
LC-001-005-----0
 62
     7
370
    25
100
AcDbLine
 10
739.421038
 20
592.342828
 30
0.0
 11
742.421038
 21
595.342828
 31
0.0
  0
LINE
  5
259
330
237
100
AcDbEntity
  8
LC-001-005-----0
 62
     7
370
    25
100
AcDbLine
 10
748.808311
 20
601.7301
 30
0.0
 11
751.808311
 21
604.7301
 31
0.0
  0
LINE
  5
25A
330
237
100
AcDbEntity
  8
LC-001-005-----0
 62
     7
370
    25
100
AcDbLine
 10
699.96094
 20
555.711157
 30
0.0
 11
704.13204
 21
559.882256
 31
0.0
  0
LINE
  5
25B
330
237
100
AcDbEntity
  8
LC-001-005-----0
 62
     7
370
    25
100
AcDbLine
 10
708.23214
 20
563.982357
 30
0.0
 11
712.40324
 21
568.153456
 31
0.0
  0
LINE
  5
25C
330
237
100
AcDbEntity
  8
LC-001-005-----0
 62
     7
370
    25
100
AcDbLine
 10
739.421038
 20
595.171255
 30
0.0
 11
742.421038
 21
598.171255
 31
0.0
  0
LINE
  5
25D
330
237
100
AcDbEntity
  8
LC-001-005-----0
 62
     7
370
    25
100
AcDbLine
 10
746.019368
 20
601.769584
 30
0.0
 11
748.979883
 21
604.7301
 31
0.0
  0
LINE
  5
25E
330
237
100
AcDbEntity
  8
LC-001-005-----0
 62
     7
370
    25
100
AcDbLine
 10
697.121033
 20
555.699676
 30
0.0
 11
700.14795
 21
558.726594
 31
0.0
  0
LINE
  5
25F
330
237
100
AcDbEntity
  8
LC-001-005-----0
 62
     7
370
    25
100
AcDbLine
 10
709.387803
 20
567.966446
 30
0.0
 11
712.41472
 21
570.993364
 31
0.0
  0
LINE
  5
260
330
237
100
AcDbEntity
  8
LC-001-005-----0
 62
     7
370
    25
100
AcDbLine
 10
739.421038
 20
597.999682
 30
0.0
 11
742.421038
 21
600.999682
 31
0.0
  0
LINE
  5
261
330
237
100
AcDbEntity
  8
LC-001-005-----0
 62
     7
370
    25
100
AcDbLine
 10
743.620402
 20
602.199045
 30
0.0
 11
746.157376
 21
604.73602
 31
0.0
  0
LINE
  5
262
330
237
100
AcDbEntity
  8
LC-001-005-----0
 62
     7
370
    25
100
AcDbLine
 10
694.292606
 20
555.699676
 30
0.0
 11
697.292606
 21
558.699676
 31
0.0
  0
LINE
  5
263
330
237
100
AcDbEntity
  8
LC-001-005-----0
 62
     7
370
    25
100
AcDbLine
 10
709.41472
 20
570.821791
 30
0.0
 11
712.41472
 21
573.821791
 31
0.0
  0
LINE
  5
264
330
237
100
AcDbEntity
  8
LC-001-005-----0
 62
     7
370
    25
100
AcDbLine
 10
739.421038
 20
600.828109
 30
0.0
 11
743.718161
 21
605.125232
 31
0.0
  0
LINE
  5
265
330
237
100
AcDbEntity
  8
LC-001-005-----0
 62
     7
370
    25
100
AcDbLine
 10
691.464178
 20
555.699676
 30
0.0
 11
694.464178
 21
558.699676
 31
0.0
  0
LINE
  5
266
330
237
100
AcDbEntity
  8
LC-001-005-----0
 62
     7
370
    25
100
AcDbLine
 10
709.41472
 20
573.650218
 30
0.0
 11
712.41472
 21
576.650218
 31
0.0
  0
LINE
  5
267
330
237
100
AcDbEntity
  8
LC-001-005-----0
 62
     7
370
    25
100
AcDbLine
 10
739.421038
 20
603.656536
 30
0.0
 11
741.714676
 21
605.950174
 31
0.0
  0
LINE
  5
268
330
237
100
AcDbEntity
  8
LC-001-005-----0
 62
     7
370
    25
100
AcDbLine
 10
688.635751
 20
555.699676
 30
0.0
 11
691.635751
 21
558.699676
 31
0.0
  0
LINE
  5
269
330
237
100
AcDbEntity
  8
LC-001-005-----0
 62
     7
370
    25
100
AcDbLine
 10
709.41472
 20
576.478645
 30
0.0
 11
712.41472
 21
579.478645
 31
0.0
  0
LINE
  5
26A
330
237
100
AcDbEntity
  8
LC-001-005-----0
 62
     7
370
    25
100
AcDbLine
 10
738.248843
 20
605.312769
 30
0.0
 11
740.036752
 21
607.100677
 31
0.0
  0
LINE
  5
26B
330
237
100
AcDbEntity
  8
LC-001-005-----0
 62
     7
370
    25
100
AcDbLine
 10
685.807324
 20
555.699676
 30
0.0
 11
688.807324
 21
558.699676
 31
0.0
  0
LINE
  5
26C
330
237
100
AcDbEntity
  8
LC-001-005-----0
 62
     7
370
    25
100
AcDbLine
 10
709.41472
 20
579.307072
 30
0.0
 11
712.41472
 21
582.307072
 31
0.0
  0
LINE
  5
26D
330
237
100
AcDbEntity
  8
LC-001-005-----0
 62
     7
370
    25
100
AcDbLine
 10
736.666696
 20
606.559048
 30
0.0
 11
738.501306
 21
608.393658
 31
0.0
  0
LINE
  5
26E
330
237
100
AcDbEntity
  8
LC-001-005-----0
 62
     7
370
    25
100
AcDbLine
 10
682.978897
 20
555.699676
 30
0.0
 11
685.978897
 21
558.699676
 31
0.0
  0
LINE
  5
26F
330
237
100
AcDbEntity
  8
LC-001-005-----0
 62
     7
370
    25
100
AcDbLine
 10
709.41472
 20
582.135499
 30
0.0
 11
712.41472
 21
585.135499
 31
0.0
  0
LINE
  5
270
330
237
100
AcDbEntity
  8
LC-001-005-----0
 62
     7
370
    25
100
AcDbLine
 10
735.084549
 20
607.805328
 30
0.0
 11
736.93485
 21
609.65563
 31
0.0
  0
LINE
  5
271
330
237
100
AcDbEntity
  8
LC-001-005-----0
 62
     7
370
    25
100
AcDbLine
 10
680.15047
 20
555.699676
 30
0.0
 11
683.15047
 21
558.699676
 31
0.0
  0
LINE
  5
272
330
237
100
AcDbEntity
  8
LC-001-005-----0
 62
     7
370
    25
100
AcDbLine
 10
709.41472
 20
584.963927
 30
0.0
 11
712.41472
 21
587.963927
 31
0.0
  0
LINE
  5
273
330
237
100
AcDbEntity
  8
LC-001-005-----0
 62
     7
370
    25
100
AcDbLine
 10
733.502401
 20
609.051608
 30
0.0
 11
735.368395
 21
610.917601
 31
0.0
  0
LINE
  5
274
330
237
100
AcDbEntity
  8
LC-001-005-----0
 62
     7
370
    25
100
AcDbLine
 10
677.322043
 20
555.699676
 30
0.0
 11
680.322043
 21
558.699676
 31
0.0
  0
LINE
  5
275
330
237
100
AcDbEntity
  8
LC-001-005-----0
 62
     7
370
    25
100
AcDbLine
 10
709.41472
 20
587.792354
 30
0.0
 11
712.41472
 21
590.792354
 31
0.0
  0
LINE
  5
276
330
237
100
AcDbEntity
  8
LC-001-005-----0
 62
     7
370
    25
100
AcDbLine
 10
731.920254
 20
610.297887
 30
0.0
 11
733.801939
 21
612.179573
 31
0.0
  0
LINE
  5
277
330
237
100
AcDbEntity
  8
LC-001-005-----0
 62
     7
370
    25
100
AcDbLine
 10
674.493616
 20
555.699676
 30
0.0
 11
677.493616
 21
558.699676
 31
0.0
  0
LINE
  5
278
330
237
100
AcDbEntity
  8
LC-001-005-----0
 62
     7
370
    25
100
AcDbLine
 10
709.41472
 20
590.620781
 30
0.0
 11
712.41472
 21
593.620781
 31
0.0
  0
LINE
  5
279
330
237
100
AcDbEntity
  8
LC-001-005-----0
 62
     7
370
    25
100
AcDbLine
 10
730.338106
 20
611.544167
 30
0.0
 11
732.235484
 21
613.441544
 31
0.0
  0
LINE
  5
27A
330
237
100
AcDbEntity
  8
LC-001-005-----0
 62
     7
370
    25
100
AcDbLine
 10
671.665189
 20
555.699676
 30
0.0
 11
674.665189
 21
558.699676
 31
0.0
  0
LINE
  5
27B
330
237
100
AcDbEntity
  8
LC-001-005-----0
 62
     7
370
    25
100
AcDbLine
 10
709.41472
 20
593.449208
 30
0.0
 11
712.41472
 21
596.449208
 31
0.0
  0
LINE
  5
27C
330
237
100
AcDbEntity
  8
LC-001-005-----0
 62
     7
370
    25
100
AcDbLine
 10
728.755959
 20
612.790447
 30
0.0
 11
730.669028
 21
614.703516
 31
0.0
  0
LINE
  5
27D
330
237
100
AcDbEntity
  8
LC-001-005-----0
 62
     7
370
    25
100
AcDbLine
 10
668.836761
 20
555.699676
 30
0.0
 11
671.836761
 21
558.699676
 31
0.0
  0
LINE
  5
27E
330
237
100
AcDbEntity
  8
LC-001-005-----0
 62
     7
370
    25
100
AcDbLine
 10
709.41472
 20
596.277635
 30
0.0
 11
712.41472
 21
599.277635
 31
0.0
  0
LINE
  5
27F
330
237
100
AcDbEntity
  8
LC-001-005-----0
 62
     7
370
    25
100
AcDbLine
 10
727.173812
 20
614.036727
 30
0.0
 11
729.102572
 21
615.965487
 31
0.0
  0
LINE
  5
280
330
237
100
AcDbEntity
  8
LC-001-005-----0
 62
     7
370
    25
100
AcDbLine
 10
666.008334
 20
555.699676
 30
0.0
 11
669.008334
 21
558.699676
 31
0.0
  0
LINE
  5
281
330
237
100
AcDbEntity
  8
LC-001-005-----0
 62
     7
370
    25
100
AcDbLine
 10
709.41472
 20
599.106062
 30
0.0
 11
712.41472
 21
602.106062
 31
0.0
  0
LINE
  5
282
330
237
100
AcDbEntity
  8
LC-001-005-----0
 62
     7
370
    25
100
AcDbLine
 10
725.591664
 20
615.283006
 30
0.0
 11
727.536117
 21
617.227459
 31
0.0
  0
LINE
  5
283
330
237
100
AcDbEntity
  8
LC-001-005-----0
 62
     7
370
    25
100
AcDbLine
 10
663.179907
 20
555.699676
 30
0.0
 11
666.179907
 21
558.699676
 31
0.0
  0
LINE
  5
284
330
237
100
AcDbEntity
  8
LC-001-005-----0
 62
     7
370
    25
100
AcDbLine
 10
709.41472
 20
601.934489
 30
0.0
 11
712.41472
 21
604.934489
 31
0.0
  0
LINE
  5
285
330
237
100
AcDbEntity
  8
LC-001-005-----0
 62
     7
370
    25
100
AcDbLine
 10
724.009517
 20
616.529286
 30
0.0
 11
725.969661
 21
618.489431
 31
0.0
  0
LINE
  5
286
330
237
100
AcDbEntity
  8
LC-001-005-----0
 62
     7
370
    25
100
AcDbLine
 10
660.35148
 20
555.699676
 30
0.0
 11
663.35148
 21
558.699676
 31
0.0
  0
LINE
  5
287
330
237
100
AcDbEntity
  8
LC-001-005-----0
 62
     7
370
    25
100
AcDbLine
 10
709.41472
 20
604.762916
 30
0.0
 11
712.41472
 21
607.762916
 31
0.0
  0
LINE
  5
288
330
237
100
AcDbEntity
  8
LC-001-005-----0
 62
     7
370
    25
100
AcDbLine
 10
722.427369
 20
617.775566
 30
0.0
 11
724.403206
 21
619.751402
 31
0.0
  0
LINE
  5
289
330
237
100
AcDbEntity
  8
LC-001-005-----0
 62
     7
370
    25
100
AcDbLine
 10
657.523053
 20
555.699676
 30
0.0
 11
660.523053
 21
558.699676
 31
0.0
  0
LINE
  5
28A
330
237
100
AcDbEntity
  8
LC-001-005-----0
 62
     7
370
    25
100
AcDbLine
 10
709.41472
 20
607.591344
 30
0.0
 11
712.41472
 21
610.591344
 31
0.0
  0
LINE
  5
28B
330
237
100
AcDbEntity
  8
LC-001-005-----0
 62
     7
370
    25
100
AcDbLine
 10
720.845222
 20
619.021845
 30
0.0
 11
722.83675
 21
621.013374
 31
0.0
  0
LINE
  5
28C
330
237
100
AcDbEntity
  8
LC-001-005-----0
 62
     7
370
    25
100
AcDbLine
 10
654.694626
 20
555.699676
 30
0.0
 11
657.694626
 21
558.699676
 31
0.0
  0
LINE
  5
28D
330
237
100
AcDbEntity
  8
LC-001-005-----0
 62
     7
370
    25
100
AcDbLine
 10
709.41472
 20
610.419771
 30
0.0
 11
712.41472
 21
613.419771
 31
0.0
  0
LINE
  5
28E
330
237
100
AcDbEntity
  8
LC-001-005-----0
 62
     7
370
    25
100
AcDbLine
 10
719.263075
 20
620.268125
 30
0.0
 11
721.270295
 21
622.275345
 31
0.0
  0
LINE
  5
28F
330
237
100
AcDbEntity
  8
LC-001-005-----0
 62
     7
370
    25
100
AcDbLine
 10
651.866199
 20
555.699676
 30
0.0
 11
654.866199
 21
558.699676
 31
0.0
  0
LINE
  5
290
330
237
100
AcDbEntity
  8
LC-001-005-----0
 62
     7
370
    25
100
AcDbLine
 10
709.41472
 20
613.248198
 30
0.0
 11
712.41472
 21
616.248198
 31
0.0
  0
LINE
  5
291
330
237
100
AcDbEntity
  8
LC-001-005-----0
 62
     7
370
    25
100
AcDbLine
 10
717.680927
 20
621.514405
 30
0.0
 11
719.703839
 21
623.537317
 31
0.0
  0
LINE
  5
292
330
237
100
AcDbEntity
  8
LC-001-005-----0
 62
     7
370
    25
100
AcDbLine
 10
649.037772
 20
555.699676
 30
0.0
 11
652.037772
 21
558.699676
 31
0.0
  0
LINE
  5
293
330
237
100
AcDbEntity
  8
LC-001-005-----0
 62
     7
370
    25
100
AcDbLine
 10
709.41472
 20
616.076625
 30
0.0
 11
712.41472
 21
619.076625
 31
0.0
  0
LINE
  5
294
330
237
100
AcDbEntity
  8
LC-001-005-----0
 62
     7
370
    25
100
AcDbLine
 10
716.09878
 20
622.760685
 30
0.0
 11
718.137383
 21
624.799288
 31
0.0
  0
LINE
  5
295
330
237
100
AcDbEntity
  8
LC-001-005-----0
 62
     7
370
    25
100
AcDbLine
 10
646.209344
 20
555.699676
 30
0.0
 11
649.209344
 21
558.699676
 31
0.0
  0
LINE
  5
296
330
237
100
AcDbEntity
  8
LC-001-005-----0
 62
     7
370
    25
100
AcDbLine
 10
709.41472
 20
618.905052
 30
0.0
 11
712.41472
 21
621.905052
 31
0.0
  0
LINE
  5
297
330
237
100
AcDbEntity
  8
LC-001-005-----0
 62
     7
370
    25
100
AcDbLine
 10
714.516632
 20
624.006964
 30
0.0
 11
716.570928
 21
626.06126
 31
0.0
  0
LINE
  5
298
330
237
100
AcDbEntity
  8
LC-001-005-----0
 62
     7
370
    25
100
AcDbLine
 10
643.520581
 20
555.83934
 30
0.0
 11
646.380917
 21
558.699676
 31
0.0
  0
LINE
  5
299
330
237
100
AcDbEntity
  8
LC-001-005-----0
 62
     7
370
    25
100
AcDbLine
 10
709.41472
 20
621.733479
 30
0.0
 11
712.41472
 21
624.733479
 31
0.0
  0
LINE
  5
29A
330
237
100
AcDbEntity
  8
LC-001-005-----0
 62
     7
370
    25
100
AcDbLine
 10
712.934485
 20
625.253244
 30
0.0
 11
715.004472
 21
627.323232
 31
0.0
  0
LINE
  5
29B
330
237
100
AcDbEntity
  8
LC-001-005-----0
 62
     7
370
    25
100
AcDbLine
 10
641.24238
 20
556.389566
 30
0.0
 11
643.701449
 21
558.848635
 31
0.0
  0
LINE
  5
29C
330
237
100
AcDbEntity
  8
LC-001-005-----0
 62
     7
370
    25
100
AcDbLine
 10
709.41472
 20
624.561906
 30
0.0
 11
713.438017
 21
628.585203
 31
0.0
  0
LINE
  5
29D
330
237
100
AcDbEntity
  8
LC-001-005-----0
 62
     7
370
    25
100
AcDbLine
 10
639.270876
 20
557.246489
 30
0.0
 11
641.517439
 21
559.493053
 31
0.0
  0
LINE
  5
29E
330
237
100
AcDbEntity
  8
LC-001-005-----0
 62
     7
370
    25
100
AcDbLine
 10
709.41472
 20
627.390333
 30
0.0
 11
711.659226
 21
629.634839
 31
0.0
  0
LINE
  5
29F
330
237
100
AcDbEntity
  8
LC-001-005-----0
 62
     7
370
    25
100
AcDbLine
 10
637.5496
 20
558.35364
 30
0.0
 11
639.696362
 21
560.500403
 31
0.0
  0
LINE
  5
2A0
330
237
100
AcDbEntity
  8
LC-001-005-----0
 62
     7
370
    25
100
AcDbLine
 10
636.053438
 20
559.685905
 30
0.0
 11
638.175269
 21
561.807737
 31
0.0
  0
LINE
  5
2A1
330
237
100
AcDbEntity
  8
LC-001-005-----0
 62
     7
370
    25
100
AcDbLine
 10
634.776275
 20
561.237169
 30
0.0
 11
636.940185
 21
563.40108
 31
0.0
  0
LINE
  5
2A2
330
237
100
AcDbEntity
  8
LC-001-005-----0
 62
     7
370
    25
100
AcDbLine
 10
633.728469
 20
563.017791
 30
0.0
 11
636.015077
 21
565.304399
 31
0.0
  0
LINE
  5
2A3
330
237
100
AcDbEntity
  8
LC-001-005-----0
 62
     7
370
    25
100
AcDbLine
 10
632.941239
 20
565.058988
 30
0.0
 11
635.481743
 21
567.599492
 31
0.0
  0
LINE
  5
2A4
330
237
100
AcDbEntity
  8
LC-001-005-----0
 62
     7
370
    25
100
AcDbLine
 10
632.483246
 20
567.429422
 30
0.0
 11
635.421038
 21
570.367214
 31
0.0
  0
LINE
  5
2A5
330
237
100
AcDbEntity
  8
LC-001-005-----0
 62
     7
370
    25
100
AcDbLine
 10
632.421038
 20
570.195641
 30
0.0
 11
635.421038
 21
573.195641
 31
0.0
  0
LINE
  5
2A6
330
237
100
AcDbEntity
  8
LC-001-005-----0
 62
     7
370
    25
100
AcDbLine
 10
632.421038
 20
573.024068
 30
0.0
 11
635.421038
 21
576.024068
 31
0.0
  0
LINE
  5
2A7
330
237
100
AcDbEntity
  8
LC-001-005-----0
 62
     7
370
    25
100
AcDbLine
 10
632.421038
 20
575.852496
 30
0.0
 11
635.421038
 21
578.852496
 31
0.0
  0
LINE
  5
2A8
330
237
100
AcDbEntity
  8
LC-001-005-----0
 62
     7
370
    25
100
AcDbLine
 10
632.421038
 20
578.680923
 30
0.0
 11
635.421038
 21
581.680923
 31
0.0
  0
LINE
  5
2A9
330
237
100
AcDbEntity
  8
LC-001-005-----0
 62
     7
370
    25
100
AcDbLine
 10
632.421038
 20
581.50935
 30
0.0
 11
635.421038
 21
584.50935
 31
0.0
  0
LINE
  5
2AA
330
237
100
AcDbEntity
  8
LC-001-005-----0
 62
     7
370
    25
100
AcDbLine
 10
632.421038
 20
584.337777
 30
0.0
 11
635.421038
 21
587.337777
 31
0.0
  0
LINE
  5
2AB
330
237
100
AcDbEntity
  8
LC-001-005-----0
 62
     7
370
    25
100
AcDbLine
 10
632.421038
 20
587.166204
 30
0.0
 11
635.421038
 21
590.166204
 31
0.0
  0
LINE
  5
2AC
330
237
100
AcDbEntity
  8
LC-001-005-----0
 62
     7
370
    25
100
AcDbLine
 10
632.421038
 20
589.994631
 30
0.0
 11
635.421038
 21
592.994631
 31
0.0
  0
LINE
  5
2AD
330
237
100
AcDbEntity
  8
LC-001-005-----0
 62
     7
370
    25
100
AcDbLine
 10
632.421038
 20
592.823058
 30
0.0
 11
635.421038
 21
595.823058
 31
0.0
  0
LINE
  5
2AE
330
237
100
AcDbEntity
  8
LC-001-005-----0
 62
     7
370
    25
100
AcDbLine
 10
632.421038
 20
595.651485
 30
0.0
 11
635.421038
 21
598.651485
 31
0.0
  0
LINE
  5
2AF
330
237
100
AcDbEntity
  8
LC-001-005-----0
 62
     7
370
    25
100
AcDbLine
 10
632.421038
 20
598.479913
 30
0.0
 11
635.421038
 21
601.479913
 31
0.0
  0
LINE
  5
2B0
330
237
100
AcDbEntity
  8
LC-001-005-----0
 62
     7
370
    25
100
AcDbLine
 10
632.421038
 20
601.30834
 30
0.0
 11
635.421038
 21
604.30834
 31
0.0
  0
LINE
  5
2B1
330
237
100
AcDbEntity
  8
LC-001-005-----0
 62
     7
370
    25
100
AcDbLine
 10
632.421038
 20
604.136767
 30
0.0
 11
635.421038
 21
607.136767
 31
0.0
  0
LINE
  5
2B2
330
237
100
AcDbEntity
  8
LC-001-005-----0
 62
     7
370
    25
100
AcDbLine
 10
632.421038
 20
606.965194
 30
0.0
 11
635.421038
 21
609.965194
 31
0.0
  0
LINE
  5
2B3
330
237
100
AcDbEntity
  8
LC-001-005-----0
 62
     7
370
    25
100
AcDbLine
 10
632.421038
 20
609.793621
 30
0.0
 11
635.177258
 21
612.549841
 31
0.0
  0
LINE
  5
2B4
330
237
100
AcDbEntity
  8
LC-001-005-----0
 62
     7
370
    25
100
AcDbLine
 10
630.498831
 20
610.699841
 30
0.0
 11
632.348831
 21
612.549841
 31
0.0
  0
LINE
  5
2B5
330
237
100
AcDbEntity
  8
LC-001-005-----0
 62
     7
370
    25
100
AcDbLine
 10
627.670404
 20
610.699841
 30
0.0
 11
629.520404
 21
612.549841
 31
0.0
  0
LINE
  5
2B6
330
237
100
AcDbEntity
  8
LC-001-005-----0
 62
     7
370
    25
100
AcDbLine
 10
624.841977
 20
610.699841
 30
0.0
 11
626.691977
 21
612.549841
 31
0.0
  0
LINE
  5
2B7
330
237
100
AcDbEntity
  8
LC-001-005-----0
 62
     7
370
    25
100
AcDbLine
 10
622.01355
 20
610.699841
 30
0.0
 11
623.86355
 21
612.549841
 31
0.0
  0
LINE
  5
2B8
330
237
100
AcDbEntity
  8
LC-001-005-----0
 62
     7
370
    25
100
AcDbLine
 10
619.185122
 20
610.699841
 30
0.0
 11
621.035122
 21
612.549841
 31
0.0
  0
LINE
  5
2B9
330
237
100
AcDbEntity
  8
LC-001-005-----0
 62
     7
370
    25
100
AcDbLine
 10
616.356695
 20
610.699841
 30
0.0
 11
618.206695
 21
612.549841
 31
0.0
  0
LINE
  5
2BA
330
237
100
AcDbEntity
  8
LC-001-005-----0
 62
     7
370
    25
100
AcDbLine
 10
613.528268
 20
610.699841
 30
0.0
 11
615.378268
 21
612.549841
 31
0.0
  0
LINE
  5
2BB
330
237
100
AcDbEntity
  8
LC-001-005-----0
 62
     7
370
    25
100
AcDbLine
 10
610.699841
 20
610.699841
 30
0.0
 11
612.549841
 21
612.549841
 31
0.0
  0
LINE
  5
2BC
330
237
100
AcDbEntity
  8
LC-001-005-----0
 62
     7
370
    25
100
AcDbLine
 10
607.871414
 20
610.699841
 30
0.0
 11
609.721414
 21
612.549841
 31
0.0
  0
LINE
  5
2BD
330
237
100
AcDbEntity
  8
LC-001-005-----0
 62
     7
370
    25
100
AcDbLine
 10
605.042987
 20
610.699841
 30
0.0
 11
606.892987
 21
612.549841
 31
0.0
  0
LINE
  5
2BE
330
237
100
AcDbEntity
  8
LC-001-005-----0
 62
     7
370
    25
100
AcDbLine
 10
602.21456
 20
610.699841
 30
0.0
 11
604.06456
 21
612.549841
 31
0.0
  0
LINE
  5
2BF
330
237
100
AcDbEntity
  8
LC-001-005-----0
 62
     7
370
    25
100
AcDbLine
 10
599.386133
 20
610.699841
 30
0.0
 11
601.236133
 21
612.549841
 31
0.0
  0
LINE
  5
2C0
330
237
100
AcDbEntity
  8
LC-001-005-----0
 62
     7
370
    25
100
AcDbLine
 10
596.557705
 20
610.699841
 30
0.0
 11
598.407705
 21
612.549841
 31
0.0
  0
LINE
  5
2C1
330
237
100
AcDbEntity
  8
LC-001-005-----0
 62
     7
370
    25
100
AcDbLine
 10
588.729278
 20
605.699841
 30
0.0
 11
590.879278
 21
607.849841
 31
0.0
  0
LINE
  5
2C2
330
237
100
AcDbEntity
  8
LC-001-005-----0
 62
     7
370
    25
100
AcDbLine
 10
591.921038
 20
608.891601
 30
0.0
 11
595.579278
 21
612.549841
 31
0.0
  0
LINE
  5
2C3
330
237
100
AcDbEntity
  8
LC-001-005-----0
 62
     7
370
    25
100
AcDbLine
 10
585.900851
 20
605.699841
 30
0.0
 11
588.050851
 21
607.849841
 31
0.0
  0
LINE
  5
2C4
330
237
100
AcDbEntity
  8
LC-001-005-----0
 62
     7
370
    25
100
AcDbLine
 10
591.921038
 20
611.720028
 30
0.0
 11
592.750851
 21
612.549841
 31
0.0
  0
LINE
  5
2C5
330
237
100
AcDbEntity
  8
LC-001-005-----0
 62
     7
370
    25
100
AcDbLine
 10
583.292702
 20
605.920119
 30
0.0
 11
585.222424
 21
607.849841
 31
0.0
  0
LINE
  5
2C6
330
237
100
AcDbEntity
  8
LC-001-005-----0
 62
     7
370
    25
100
AcDbLine
 10
581.794469
 20
607.250313
 30
0.0
 11
583.582517
 21
609.038362
 31
0.0
  0
LINE
  5
2C7
330
237
100
AcDbEntity
  8
LC-001-005-----0
 62
     7
370
    25
100
AcDbLine
 10
580.41557
 20
608.699841
 30
0.0
 11
581.91557
 21
610.199841
 31
0.0
  0
LINE
  5
2C8
330
237
100
AcDbEntity
  8
LC-001-005-----0
 62
     7
370
    25
100
AcDbLine
 10
577.587143
 20
608.699841
 30
0.0
 11
579.087143
 21
610.199841
 31
0.0
  0
ENDBLK
  5
239
330
237
100
AcDbEntity
  8
0
100
AcDbBlockEnd
  0
BLOCK
  5
2D6
330
2CB
100
AcDbEntity
  8
0
100
AcDbBlockBegin
  2
*D19
 70
     1
 71
     0
 10
0.0
 20
0.0
 30
0.0
  3
*D19
  1

  0
LINE
  5
2CC
330
2CB
100
AcDbEntity
  8
LC-006-003-----0
 62
     2
370
    -2
100
AcDbLine
 10
591.921038
 20
652.849841
 30
0.0
 11
545.2
 21
652.849841
 31
0.0
  0
LINE
  5
2CD
330
2CB
100
AcDbEntity
  8
LC-006-003-----0
 62
     2
370
    -2
100
AcDbLine
 10
591.921038
 20
612.549841
 30
0.0
 11
545.2
 21
612.549841
 31
0.0
  0
LINE
  5
2CE
330
2CB
100
AcDbEntity
  8
LC-006-003-----0
 62
     2
370
    -2
100
AcDbLine
 10
548.8
 20
680.849841
 30
0.0
 11
548.8
 21
708.849841
 31
0.0
  0
LINE
  5
2CF
330
2CB
100
AcDbEntity
  8
LC-006-003-----0
 62
     2
370
    -2
100
AcDbLine
 10
548.8
 20
584.549841
 30
0.0
 11
548.8
 21
478.842672
 31
0.0
  0
SOLID
  5
2D0
330
2CB
100
AcDbEntity
  8
LC-006-003-----0
 62
     2
100
AcDbTrace
 10
544.133333
 20
680.849841
 30
0.0
 11
553.466667
 21
680.849841
 31
0.0
 12
548.8
 22
652.849841
 32
0.0
 13
548.8
 23
652.849841
 33
0.0
  0
SOLID
  5
2D1
330
2CB
100
AcDbEntity
  8
LC-006-003-----0
 62
     2
100
AcDbTrace
 10
553.466667
 20
584.549841
 30
0.0
 11
544.133333
 21
584.549841
 31
0.0
 12
548.8
 22
612.549841
 32
0.0
 13
548.8
 23
612.549841
 33
0.0
  0
MTEXT
  5
2D2
330
2CB
100
AcDbEntity
  8
LC-006-003-----0
 62
     2
100
AcDbMText
 10
518.0
 20
501.229
 30
0.0
 40
28.0
 41
0.0
 71
     5
 72
     1
  1
\A1;%%c40
  7
LCTX15-400-0-0pDIN-Schrift
 11
6.123031769111886E-17
 21
1.0
 31
0.0
 73
     1
 44
1.0
  0
POINT
  5
2D3
330
2CB
100
AcDbEntity
  8
Defpoints
 62
     0
100
AcDbPoint
 10
591.921038
 20
652.849841
 30
0.0
  0
POINT
  5
2D4
330
2CB
100
AcDbEntity
  8
Defpoints
 62
     0
100
AcDbPoint
 10
591.921038
 20
612.549841
 30
0.0
  0
POINT
  5
2D5
330
2CB
100
AcDbEntity
  8
Defpoints
 62
     0
100
AcDbPoint
 10
548.8
 20
612.549841
 30
0.0
  0
ENDBLK
  5
2D7
330
2CB
100
AcDbEntity
  8
0
100
AcDbBlockEnd
  0
BLOCK
  5
2E3
330
2D9
100
AcDbEntity
  8
0
100
AcDbBlockBegin
  2
*D20
 70
     1
 71
     0
 10
0.0
 20
0.0
 30
0.0
  3
*D20
  1

  0
LINE
  5
2DA
330
2D9
100
AcDbEntity
  8
LC-006-003-----0
 62
     2
370
    -2
100
AcDbLine
 10
572.421038
 20
671.656863
 30
0.0
 11
572.421038
 21
709.2
 31
0.0
  0
LINE
  5
2DB
330
2D9
100
AcDbEntity
  8
LC-006-003-----0
 62
     2
370
    -2
100
AcDbLine
 10
802.421038
 20
671.656863
 30
0.0
 11
802.421038
 21
709.2
 31
0.0
  0
LINE
  5
2DC
330
2D9
100
AcDbEntity
  8
LC-006-003-----0
 62
     2
370
    -2
100
AcDbLine
 10
600.421038
 20
705.6
 30
0.0
 11
774.421038
 21
705.6
 31
0.0
  0
SOLID
  5
2DD
330
2D9
100
AcDbEntity
  8
LC-006-003-----0
 62
     2
100
AcDbTrace
 10
600.421038
 20
710.266667
 30
0.0
 11
600.421038
 21
700.933333
 31
0.0
 12
572.421038
 22
705.6
 32
0.0
 13
572.421038
 23
705.6
 33
0.0
  0
SOLID
  5
2DE
330
2D9
100
AcDbEntity
  8
LC-006-003-----0
 62
     2
100
AcDbTrace
 10
774.421038
 20
700.933333
 30
0.0
 11
774.421038
 21
710.266667
 31
0.0
 12
802.421038
 22
705.6
 32
0.0
 13
802.421038
 23
705.6
 33
0.0
  0
MTEXT
  5
2DF
330
2D9
100
AcDbEntity
  8
LC-006-003-----0
 62
     2
100
AcDbMText
 10
687.421038
 20
736.4
 30
0.0
 40
28.0
 41
0.0
 71
     5
 72
     1
  1
%%c\A1;230
  7
LCTX15-400-0-0pDIN-Schrift
 73
     1
 44
1.0
  0
POINT
  5
2E0
330
2D9
100
AcDbEntity
  8
Defpoints
 62
     0
100
AcDbPoint
 10
572.421038
 20
671.656863
 30
0.0
  0
POINT
  5
2E1
330
2D9
100
AcDbEntity
  8
Defpoints
 62
     0
100
AcDbPoint
 10
802.421038
 20
671.656863
 30
0.0
  0
POINT
  5
2E2
330
2D9
100
AcDbEntity
  8
Defpoints
 62
     0
100
AcDbPoint
 10
802.421038
 20
705.6
 30
0.0
  0
ENDBLK
  5
2E4
330
2D9
100
AcDbEntity
  8
0
100
AcDbBlockEnd
  0
BLOCK
  5
2F2
330
2E7
100
AcDbEntity
  8
0
100
AcDbBlockBegin
  2
*D21
 70
     1
 71
     0
 10
0.0
 20
0.0
 30
0.0
  3
*D21
  1

  0
LINE
  5
2E8
330
2E7
100
AcDbEntity
  8
LC-006-003-----0
 62
     2
370
    -2
100
AcDbLine
 10
711.41472
 20
629.649841
 30
0.0
 11
787.6
 21
629.649841
 31
0.0
  0
LINE
  5
2E9
330
2E7
100
AcDbEntity
  8
LC-006-003-----0
 62
     2
370
    -2
100
AcDbLine
 10
707.421038
 20
579.522126
 30
0.0
 11
787.6
 21
579.522126
 31
0.0
  0
LINE
  5
2EA
330
2E7
100
AcDbEntity
  8
LC-006-003-----0
 62
     2
370
    -2
100
AcDbLine
 10
784.0
 20
657.649841
 30
0.0
 11
784.0
 21
685.649841
 31
0.0
  0
LINE
  5
2EB
330
2E7
100
AcDbEntity
  8
LC-006-003-----0
 62
     2
370
    -2
100
AcDbLine
 10
784.0
 20
551.522126
 30
0.0
 11
784.0
 21
524.044774
 31
0.0
  0
SOLID
  5
2EC
330
2E7
100
AcDbEntity
  8
LC-006-003-----0
 62
     2
100
AcDbTrace
 10
779.333333
 20
657.649841
 30
0.0
 11
788.666667
 21
657.649841
 31
0.0
 12
784.0
 22
629.649841
 32
0.0
 13
784.0
 23
629.649841
 33
0.0
  0
SOLID
  5
2ED
330
2E7
100
AcDbEntity
  8
LC-006-003-----0
 62
     2
100
AcDbTrace
 10
788.666667
 20
551.522126
 30
0.0
 11
779.333333
 21
551.522126
 31
0.0
 12
784.0
 22
579.522126
 32
0.0
 13
784.0
 23
579.522126
 33
0.0
  0
MTEXT
  5
2EE
330
2E7
100
AcDbEntity
  8
LC-006-003-----0
 62
     2
100
AcDbMText
 10
753.2
 20
546.967
 30
0.0
 40
28.0
 41
0.0
 71
     5
 72
     1
  1
\A1;50
  7
LCTX15-400-0-0pDIN-Schrift
 11
6.123031769111886E-17
 21
1.0
 31
0.0
 73
     1
 44
1.0
  0
POINT
  5
2EF
330
2E7
100
AcDbEntity
  8
Defpoints
 62
     0
100
AcDbPoint
 10
711.41472
 20
629.649841
 30
0.0
  0
POINT
  5
2F0
330
2E7
100
AcDbEntity
  8
Defpoints
 62
     0
100
AcDbPoint
 10
707.421038
 20
579.522126
 30
0.0
  0
POINT
  5
2F1
330
2E7
100
AcDbEntity
  8
Defpoints
 62
     0
100
AcDbPoint
 10
784.0
 20
579.522126
 30
0.0
  0
ENDBLK
  5
2F3
330
2E7
100
AcDbEntity
  8
0
100
AcDbBlockEnd
  0
BLOCK
  5
317
330
316
100
AcDbEntity
  8
0
100
AcDbBlockBegin
  2
*X1222
 70
     1
 71
     0
 10
0.0
 20
0.0
 30
0.0
  3
*X1222
  1

  4
*X12
  0
LINE
  5
319
330
316
100
AcDbEntity
  8
LC-001-005-----0
  6
DASHED
 62
     7
370
    25
100
AcDbLine
 10
591.921038
 20
655.415324
 30
0.0
 11
590.561038
 21
656.775324
 31
0.0
  0
LINE
  5
31A
330
316
100
AcDbEntity
  8
LC-001-005-----0
  6
DASHED
 62
     7
370
    25
100
AcDbLine
 10
591.921038
 20
654.849639
 30
0.0
 11
590.100836
 21
656.669841
 31
0.0
  0
LINE
  5
31B
330
316
100
AcDbEntity
  8
LC-001-005-----0
  6
DASHED
 62
     7
370
    25
100
AcDbLine
 10
589.761038
 20
657.009639
 30
0.0
 11
589.580836
 21
657.189841
 31
0.0
  0
LINE
  5
31C
330
316
100
AcDbEntity
  8
LC-001-005-----0
 62
     7
370
    25
100
AcDbLine
 10
591.462593
 20
654.176713
 30
0.0
 11
588.449465
 21
657.189841
 31
0.0
  0
LINE
  5
31D
330
316
100
AcDbEntity
  8
LC-001-005-----0
 62
     7
370
    25
100
AcDbLine
 10
590.808043
 20
654.265577
 30
0.0
 11
587.590932
 21
657.482689
 31
0.0
  0
LINE
  5
31E
330
316
100
AcDbEntity
  8
LC-001-005-----0
  6
DASHED
 62
     7
370
    25
100
AcDbLine
 10
589.46454
 20
654.477709
 30
0.0
 11
586.752408
 21
657.189841
 31
0.0
  0
LINE
  5
31F
330
316
100
AcDbEntity
  8
LC-001-005-----0
  6
DASHED
 62
     7
370
    25
100
AcDbLine
 10
589.068585
 20
654.307979
 30
0.0
 11
586.081683
 21
657.294881
 31
0.0
  0
LINE
  5
320
330
316
100
AcDbEntity
  8
LC-001-005-----0
 62
     7
370
    25
100
AcDbLine
 10
589.622148
 20
652.623045
 30
0.0
 11
585.136238
 21
657.108955
 31
0.0
  0
LINE
  5
321
330
316
100
AcDbEntity
  8
LC-001-005-----0
 62
     7
370
    25
100
AcDbLine
 10
589.969746
 20
651.709762
 30
0.0
 11
584.803132
 21
656.876376
 31
0.0
  0
LINE
  5
322
330
316
100
AcDbEntity
  8
LC-001-005-----0
  6
DASHED
 62
     7
370
    25
100
AcDbLine
 10
589.508481
 20
651.039656
 30
0.0
 11
584.466074
 21
656.082063
 31
0.0
  0
LINE
  5
323
330
316
100
AcDbEntity
  8
LC-001-005-----0
  6
DASHED
 62
     7
370
    25
100
AcDbLine
 10
588.504183
 20
651.478269
 30
0.0
 11
584.346531
 21
655.635921
 31
0.0
  0
LINE
  5
324
330
316
100
AcDbEntity
  8
LC-001-005-----0
 62
     7
370
    25
100
AcDbLine
 10
586.241441
 20
652.60964
 30
0.0
 11
584.126484
 21
654.724597
 31
0.0
  0
LINE
  5
325
330
316
100
AcDbEntity
  8
LC-001-005-----0
 62
     7
370
    25
100
AcDbLine
 10
585.11007
 20
653.175325
 30
0.0
 11
584.217361
 21
654.068034
 31
0.0
  0
ENDBLK
  5
318
330
316
100
AcDbEntity
  8
0
100
AcDbBlockEnd
  0
BLOCK
  5
361
330
360
100
AcDbEntity
  8
0
100
AcDbBlockBegin
  2
*X1323
 70
     1
 71
     0
 10
0.0
 20
0.0
 30
0.0
  3
*X1323
  1

  4
*X13
  0
LINE
  5
363
330
360
100
AcDbEntity
  8
LC-001-005-----0
 62
     7
370
    25
100
AcDbLine
 10
871.327973
 20
596.625705
 30
0.0
 11
869.709774
 21
598.243904
 31
0.0
  0
LINE
  5
364
330
360
100
AcDbEntity
  8
LC-001-005-----0
 62
     7
370
    25
100
AcDbLine
 10
869.848937
 20
595.276313
 30
0.0
 11
866.858353
 21
598.266898
 31
0.0
  0
LINE
  5
365
330
360
100
AcDbEntity
  8
LC-001-005-----0
 62
     7
370
    25
100
AcDbLine
 10
867.066723
 20
595.2301
 30
0.0
 11
864.006931
 21
598.289892
 31
0.0
  0
LINE
  5
366
330
360
100
AcDbEntity
  8
LC-001-005-----0
 62
     7
370
    25
100
AcDbLine
 10
864.238296
 20
595.2301
 30
0.0
 11
861.15551
 21
598.312886
 31
0.0
  0
LINE
  5
367
330
360
100
AcDbEntity
  8
LC-001-005-----0
 62
     7
370
    25
100
AcDbLine
 10
861.409869
 20
595.2301
 30
0.0
 11
858.304089
 21
598.335881
 31
0.0
  0
LINE
  5
368
330
360
100
AcDbEntity
  8
LC-001-005-----0
 62
     7
370
    25
100
AcDbLine
 10
858.581442
 20
595.2301
 30
0.0
 11
855.452667
 21
598.358875
 31
0.0
  0
LINE
  5
369
330
360
100
AcDbEntity
  8
LC-001-005-----0
 62
     7
370
    25
100
AcDbLine
 10
855.753015
 20
595.2301
 30
0.0
 11
852.601246
 21
598.381869
 31
0.0
  0
LINE
  5
36A
330
360
100
AcDbEntity
  8
LC-001-005-----0
 62
     7
370
    25
100
AcDbLine
 10
852.924588
 20
595.2301
 30
0.0
 11
849.749824
 21
598.404863
 31
0.0
  0
LINE
  5
36B
330
360
100
AcDbEntity
  8
LC-001-005-----0
 62
     7
370
    25
100
AcDbLine
 10
850.096161
 20
595.2301
 30
0.0
 11
846.898403
 21
598.427858
 31
0.0
  0
LINE
  5
36C
330
360
100
AcDbEntity
  8
LC-001-005-----0
 62
     7
370
    25
100
AcDbLine
 10
847.267734
 20
595.2301
 30
0.0
 11
844.046982
 21
598.450852
 31
0.0
  0
LINE
  5
36D
330
360
100
AcDbEntity
  8
LC-001-005-----0
 62
     7
370
    25
100
AcDbLine
 10
844.439306
 20
595.2301
 30
0.0
 11
841.19556
 21
598.473846
 31
0.0
  0
LINE
  5
36E
330
360
100
AcDbEntity
  8
LC-001-005-----0
 62
     7
370
    25
100
AcDbLine
 10
841.610879
 20
595.2301
 30
0.0
 11
838.344139
 21
598.49684
 31
0.0
  0
LINE
  5
36F
330
360
100
AcDbEntity
  8
LC-001-005-----0
 62
     7
370
    25
100
AcDbLine
 10
838.782452
 20
595.2301
 30
0.0
 11
835.492718
 21
598.519835
 31
0.0
  0
LINE
  5
370
330
360
100
AcDbEntity
  8
LC-001-005-----0
 62
     7
370
    25
100
AcDbLine
 10
835.954025
 20
595.2301
 30
0.0
 11
832.641296
 21
598.542829
 31
0.0
  0
LINE
  5
371
330
360
100
AcDbEntity
  8
LC-001-005-----0
 62
     7
370
    25
100
AcDbLine
 10
831.421482
 20
599.762643
 30
0.0
 11
829.436714
 21
601.747411
 31
0.0
  0
LINE
  5
372
330
360
100
AcDbEntity
  8
LC-001-005-----0
 62
     7
370
    25
100
AcDbLine
 10
833.125598
 20
595.2301
 30
0.0
 11
826.583401
 21
601.772297
 31
0.0
  0
LINE
  5
373
330
360
100
AcDbEntity
  8
LC-001-005-----0
 62
     7
370
    25
100
AcDbLine
 10
830.297171
 20
595.2301
 30
0.0
 11
828.421482
 21
597.105789
 31
0.0
  0
LINE
  5
374
330
360
100
AcDbEntity
  8
LC-001-005-----0
 62
     7
370
    25
100
AcDbLine
 10
826.797171
 20
598.7301
 30
0.0
 11
823.730087
 21
601.797184
 31
0.0
  0
LINE
  5
375
330
360
100
AcDbEntity
  8
LC-001-005-----0
 62
     7
370
    25
100
AcDbLine
 10
823.968744
 20
598.7301
 30
0.0
 11
820.876774
 21
601.82207
 31
0.0
  0
LINE
  5
376
330
360
100
AcDbEntity
  8
LC-001-005-----0
 62
     7
370
    25
100
AcDbLine
 10
821.140317
 20
598.7301
 30
0.0
 11
818.02346
 21
601.846957
 31
0.0
  0
LINE
  5
377
330
360
100
AcDbEntity
  8
LC-001-005-----0
 62
     7
370
    25
100
AcDbLine
 10
818.311889
 20
598.7301
 30
0.0
 11
815.170147
 21
601.871843
 31
0.0
  0
LINE
  5
378
330
360
100
AcDbEntity
  8
LC-001-005-----0
 62
     7
370
    25
100
AcDbLine
 10
815.483462
 20
598.7301
 30
0.0
 11
812.316833
 21
601.896729
 31
0.0
  0
LINE
  5
379
330
360
100
AcDbEntity
  8
LC-001-005-----0
 62
     7
370
    25
100
AcDbLine
 10
812.655035
 20
598.7301
 30
0.0
 11
809.46352
 21
601.921616
 31
0.0
  0
LINE
  5
37A
330
360
100
AcDbEntity
  8
LC-001-005-----0
 62
     7
370
    25
100
AcDbLine
 10
809.826608
 20
598.7301
 30
0.0
 11
806.610206
 21
601.946502
 31
0.0
  0
LINE
  5
37B
330
360
100
AcDbEntity
  8
LC-001-005-----0
 62
     7
370
    25
100
AcDbLine
 10
806.998181
 20
598.7301
 30
0.0
 11
803.756893
 21
601.971388
 31
0.0
  0
LINE
  5
37C
330
360
100
AcDbEntity
  8
LC-001-005-----0
 62
     7
370
    25
100
AcDbLine
 10
804.169754
 20
598.7301
 30
0.0
 11
800.903579
 21
601.996275
 31
0.0
  0
LINE
  5
37D
330
360
100
AcDbEntity
  8
LC-001-005-----0
 62
     7
370
    25
100
AcDbLine
 10
801.341327
 20
598.7301
 30
0.0
 11
798.050266
 21
602.021161
 31
0.0
  0
LINE
  5
37E
330
360
100
AcDbEntity
  8
LC-001-005-----0
 62
     7
370
    25
100
AcDbLine
 10
798.5129
 20
598.7301
 30
0.0
 11
795.196952
 21
602.046047
 31
0.0
  0
LINE
  5
37F
330
360
100
AcDbEntity
  8
LC-001-005-----0
 62
     7
370
    25
100
AcDbLine
 10
795.684472
 20
598.7301
 30
0.0
 11
790.807936
 21
603.606637
 31
0.0
  0
LINE
  5
380
330
360
100
AcDbEntity
  8
LC-001-005-----0
 62
     7
370
    25
100
AcDbLine
 10
792.856045
 20
598.7301
 30
0.0
 11
789.018836
 21
602.567309
 31
0.0
  0
LINE
  5
381
330
360
100
AcDbEntity
  8
LC-001-005-----0
 62
     7
370
    25
100
AcDbLine
 10
790.027618
 20
598.7301
 30
0.0
 11
787.311902
 21
601.445817
 31
0.0
  0
LINE
  5
382
330
360
100
AcDbEntity
  8
LC-001-005-----0
 62
     7
370
    25
100
AcDbLine
 10
787.64338
 20
598.285911
 30
0.0
 11
785.500643
 21
600.428648
 31
0.0
  0
LINE
  5
383
330
360
100
AcDbEntity
  8
LC-001-005-----0
 62
     7
370
    25
100
AcDbLine
 10
785.771774
 20
597.32909
 30
0.0
 11
783.578668
 21
599.522196
 31
0.0
  0
LINE
  5
384
330
360
100
AcDbEntity
  8
LC-001-005-----0
 62
     7
370
    25
100
AcDbLine
 10
783.795545
 20
596.476892
 30
0.0
 11
781.537009
 21
598.735428
 31
0.0
  0
LINE
  5
385
330
360
100
AcDbEntity
  8
LC-001-005-----0
 62
     7
370
    25
100
AcDbLine
 10
781.706043
 20
595.737966
 30
0.0
 11
779.363186
 21
598.080824
 31
0.0
  0
LINE
  5
386
330
360
100
AcDbEntity
  8
LC-001-005-----0
 62
     7
370
    25
100
AcDbLine
 10
779.491557
 20
595.124025
 30
0.0
 11
777.039634
 21
597.575949
 31
0.0
  0
LINE
  5
387
330
360
100
AcDbEntity
  8
LC-001-005-----0
 62
     7
370
    25
100
AcDbLine
 10
777.136002
 20
594.651154
 30
0.0
 11
774.540924
 21
597.246231
 31
0.0
  0
LINE
  5
388
330
360
100
AcDbEntity
  8
LC-001-005-----0
 62
     7
370
    25
100
AcDbLine
 10
774.61668
 20
594.342048
 30
0.0
 11
771.828482
 21
597.130246
 31
0.0
  0
LINE
  5
389
330
360
100
AcDbEntity
  8
LC-001-005-----0
 62
     7
370
    25
100
AcDbLine
 10
771.900201
 20
594.2301
 30
0.0
 11
768.839293
 21
597.291009
 31
0.0
  0
LINE
  5
38A
330
360
100
AcDbEntity
  8
LC-001-005-----0
 62
     7
370
    25
100
AcDbLine
 10
769.071774
 20
594.2301
 30
0.0
 11
765.457317
 21
597.844558
 31
0.0
  0
LINE
  5
38B
330
360
100
AcDbEntity
  8
LC-001-005-----0
 62
     7
370
    25
100
AcDbLine
 10
766.243347
 20
594.2301
 30
0.0
 11
763.421482
 21
597.051965
 31
0.0
  0
ENDBLK
  5
362
330
360
100
AcDbEntity
  8
0
100
AcDbBlockEnd
  0
BLOCK
  5
41C
330
41B
100
AcDbEntity
  8
0
100
AcDbBlockBegin
  2
*X1424
 70
     1
 71
     0
 10
0.0
 20
0.0
 30
0.0
  3
*X1424
  1

  4
*X14
  0
LINE
  5
41E
330
41B
100
AcDbEntity
  8
LC-001-005-----0
 62
     7
370
    25
100
AcDbLine
 10
871.421482
 20
655.929165
 30
0.0
 11
869.120547
 21
658.2301
 31
0.0
  0
LINE
  5
41F
330
41B
100
AcDbEntity
  8
LC-001-005-----0
 62
     7
370
    25
100
AcDbLine
 10
869.309154
 20
655.213066
 30
0.0
 11
866.29212
 21
658.2301
 31
0.0
  0
LINE
  5
420
330
41B
100
AcDbEntity
  8
LC-001-005-----0
 62
     7
370
    25
100
AcDbLine
 10
866.503354
 20
655.19044
 30
0.0
 11
863.463693
 21
658.2301
 31
0.0
  0
LINE
  5
421
330
41B
100
AcDbEntity
  8
LC-001-005-----0
 62
     7
370
    25
100
AcDbLine
 10
863.697553
 20
655.167813
 30
0.0
 11
860.635266
 21
658.2301
 31
0.0
  0
LINE
  5
422
330
41B
100
AcDbEntity
  8
LC-001-005-----0
 62
     7
370
    25
100
AcDbLine
 10
860.891752
 20
655.145187
 30
0.0
 11
857.806839
 21
658.2301
 31
0.0
  0
LINE
  5
423
330
41B
100
AcDbEntity
  8
LC-001-005-----0
 62
     7
370
    25
100
AcDbLine
 10
858.085951
 20
655.12256
 30
0.0
 11
854.978412
 21
658.2301
 31
0.0
  0
LINE
  5
424
330
41B
100
AcDbEntity
  8
LC-001-005-----0
 62
     7
370
    25
100
AcDbLine
 10
855.280151
 20
655.099934
 30
0.0
 11
852.149985
 21
658.2301
 31
0.0
  0
LINE
  5
425
330
41B
100
AcDbEntity
  8
LC-001-005-----0
 62
     7
370
    25
100
AcDbLine
 10
852.47435
 20
655.077308
 30
0.0
 11
849.321557
 21
658.2301
 31
0.0
  0
LINE
  5
426
330
41B
100
AcDbEntity
  8
LC-001-005-----0
 62
     7
370
    25
100
AcDbLine
 10
849.668549
 20
655.054681
 30
0.0
 11
846.49313
 21
658.2301
 31
0.0
  0
LINE
  5
427
330
41B
100
AcDbEntity
  8
LC-001-005-----0
 62
     7
370
    25
100
AcDbLine
 10
846.862748
 20
655.032055
 30
0.0
 11
843.664703
 21
658.2301
 31
0.0
  0
LINE
  5
428
330
41B
100
AcDbEntity
  8
LC-001-005-----0
 62
     7
370
    25
100
AcDbLine
 10
844.056947
 20
655.009429
 30
0.0
 11
840.836276
 21
658.2301
 31
0.0
  0
LINE
  5
429
330
41B
100
AcDbEntity
  8
LC-001-005-----0
 62
     7
370
    25
100
AcDbLine
 10
841.251147
 20
654.986802
 30
0.0
 11
838.007849
 21
658.2301
 31
0.0
  0
LINE
  5
42A
330
41B
100
AcDbEntity
  8
LC-001-005-----0
 62
     7
370
    25
100
AcDbLine
 10
838.445346
 20
654.964176
 30
0.0
 11
835.179422
 21
658.2301
 31
0.0
  0
LINE
  5
42B
330
41B
100
AcDbEntity
  8
LC-001-005-----0
 62
     7
370
    25
100
AcDbLine
 10
835.639545
 20
654.941549
 30
0.0
 11
832.350995
 21
658.2301
 31
0.0
  0
LINE
  5
42C
330
41B
100
AcDbEntity
  8
LC-001-005-----0
 62
     7
370
    25
100
AcDbLine
 10
831.421482
 20
659.159613
 30
0.0
 11
829.350995
 21
661.2301
 31
0.0
  0
LINE
  5
42D
330
41B
100
AcDbEntity
  8
LC-001-005-----0
 62
     7
370
    25
100
AcDbLine
 10
832.833744
 20
654.918923
 30
0.0
 11
828.421482
 21
659.331186
 31
0.0
  0
LINE
  5
42E
330
41B
100
AcDbEntity
  8
LC-001-005-----0
 62
     7
370
    25
100
AcDbLine
 10
831.421482
 20
653.502758
 30
0.0
 11
828.421482
 21
656.502758
 31
0.0
  0
LINE
  5
42F
330
41B
100
AcDbEntity
  8
LC-001-005-----0
 62
     7
370
    25
100
AcDbLine
 10
830.374842
 20
651.720971
 30
0.0
 11
827.365713
 21
654.7301
 31
0.0
  0
LINE
  5
430
330
41B
100
AcDbEntity
  8
LC-001-005-----0
 62
     7
370
    25
100
AcDbLine
 10
827.570871
 20
651.696515
 30
0.0
 11
824.537286
 21
654.7301
 31
0.0
  0
LINE
  5
431
330
41B
100
AcDbEntity
  8
LC-001-005-----0
 62
     7
370
    25
100
AcDbLine
 10
824.7669
 20
651.672059
 30
0.0
 11
821.708859
 21
654.7301
 31
0.0
  0
LINE
  5
432
330
41B
100
AcDbEntity
  8
LC-001-005-----0
 62
     7
370
    25
100
AcDbLine
 10
821.962929
 20
651.647603
 30
0.0
 11
818.880432
 21
654.7301
 31
0.0
  0
LINE
  5
433
330
41B
100
AcDbEntity
  8
LC-001-005-----0
 62
     7
370
    25
100
AcDbLine
 10
819.158958
 20
651.623147
 30
0.0
 11
816.052005
 21
654.7301
 31
0.0
  0
LINE
  5
434
330
41B
100
AcDbEntity
  8
LC-001-005-----0
 62
     7
370
    25
100
AcDbLine
 10
816.354986
 20
651.598691
 30
0.0
 11
813.223578
 21
654.7301
 31
0.0
  0
LINE
  5
435
330
41B
100
AcDbEntity
  8
LC-001-005-----0
 62
     7
370
    25
100
AcDbLine
 10
813.551015
 20
651.574235
 30
0.0
 11
810.395151
 21
654.7301
 31
0.0
  0
LINE
  5
436
330
41B
100
AcDbEntity
  8
LC-001-005-----0
 62
     7
370
    25
100
AcDbLine
 10
810.747044
 20
651.549779
 30
0.0
 11
807.566723
 21
654.7301
 31
0.0
  0
LINE
  5
437
330
41B
100
AcDbEntity
  8
LC-001-005-----0
 62
     7
370
    25
100
AcDbLine
 10
807.943073
 20
651.525323
 30
0.0
 11
804.738296
 21
654.7301
 31
0.0
  0
LINE
  5
438
330
41B
100
AcDbEntity
  8
LC-001-005-----0
 62
     7
370
    25
100
AcDbLine
 10
805.139102
 20
651.500867
 30
0.0
 11
801.909869
 21
654.7301
 31
0.0
  0
LINE
  5
439
330
41B
100
AcDbEntity
  8
LC-001-005-----0
 62
     7
370
    25
100
AcDbLine
 10
802.335131
 20
651.476411
 30
0.0
 11
799.081442
 21
654.7301
 31
0.0
  0
LINE
  5
43A
330
41B
100
AcDbEntity
  8
LC-001-005-----0
 62
     7
370
    25
100
AcDbLine
 10
799.53116
 20
651.451955
 30
0.0
 11
796.253015
 21
654.7301
 31
0.0
  0
LINE
  5
43B
330
41B
100
AcDbEntity
  8
LC-001-005-----0
 62
     7
370
    25
100
AcDbLine
 10
796.727189
 20
651.427499
 30
0.0
 11
793.424588
 21
654.7301
 31
0.0
  0
LINE
  5
43C
330
41B
100
AcDbEntity
  8
LC-001-005-----0
 62
     7
370
    25
100
AcDbLine
 10
794.001942
 20
651.324319
 30
0.0
 11
790.596161
 21
654.7301
 31
0.0
  0
LINE
  5
43D
330
41B
100
AcDbEntity
  8
LC-001-005-----0
 62
     7
370
    25
100
AcDbLine
 10
792.64427
 20
649.853563
 30
0.0
 11
786.95247
 21
655.545363
 31
0.0
  0
LINE
  5
43E
330
41B
100
AcDbEntity
  8
LC-001-005-----0
 62
     7
370
    25
100
AcDbLine
 10
788.251337
 20
651.41807
 30
0.0
 11
782.061714
 21
657.607692
 31
0.0
  0
LINE
  5
43F
330
41B
100
AcDbEntity
  8
LC-001-005-----0
 62
     7
370
    25
100
AcDbLine
 10
782.444571
 20
654.396408
 30
0.0
 11
778.228785
 21
658.612194
 31
0.0
  0
LINE
  5
440
330
41B
100
AcDbEntity
  8
LC-001-005-----0
 62
     7
370
    25
100
AcDbLine
 10
778.400162
 20
655.612391
 30
0.0
 11
774.921182
 21
659.09137
 31
0.0
  0
LINE
  5
441
330
41B
100
AcDbEntity
  8
LC-001-005-----0
 62
     7
370
    25
100
AcDbLine
 10
775.016254
 20
656.167872
 30
0.0
 11
771.954041
 21
659.230084
 31
0.0
  0
LINE
  5
442
330
41B
100
AcDbEntity
  8
LC-001-005-----0
 62
     7
370
    25
100
AcDbLine
 10
772.025782
 20
656.329916
 30
0.0
 11
769.125598
 21
659.2301
 31
0.0
  0
LINE
  5
443
330
41B
100
AcDbEntity
  8
LC-001-005-----0
 62
     7
370
    25
100
AcDbLine
 10
769.312385
 20
656.214886
 30
0.0
 11
766.297171
 21
659.2301
 31
0.0
  0
LINE
  5
444
330
41B
100
AcDbEntity
  8
LC-001-005-----0
 62
     7
370
    25
100
AcDbLine
 10
766.812912
 20
655.885932
 30
0.0
 11
763.468744
 21
659.2301
 31
0.0
  0
LINE
  5
445
330
41B
100
AcDbEntity
  8
LC-001-005-----0
 62
     7
370
    25
100
AcDbLine
 10
764.472373
 20
655.398044
 30
0.0
 11
763.421482
 21
656.448935
 31
0.0
  0
ENDBLK
  5
41D
330
41B
100
AcDbEntity
  8
0
100
AcDbBlockEnd
  0
BLOCK
  5
4D7
330
4CD
100
AcDbEntity
  8
0
100
AcDbBlockBegin
  2
*D25
 70
     1
 71
     0
 10
0.0
 20
0.0
 30
0.0
  3
*D25
  1

  0
LINE
  5
4CE
330
4CD
100
AcDbEntity
  8
LC-006-003-----0
 62
     2
370
    -2
100
AcDbLine
 10
632.421038
 20
568.699676
 30
0.0
 11
632.421038
 21
506.0
 31
0.0
  0
LINE
  5
4CF
330
4CD
100
AcDbEntity
  8
LC-006-003-----0
 62
     2
370
    -2
100
AcDbLine
 10
742.421038
 20
555.699676
 30
0.0
 11
742.421038
 21
506.0
 31
0.0
  0
LINE
  5
4D0
330
4CD
100
AcDbEntity
  8
LC-006-003-----0
 62
     2
370
    -2
100
AcDbLine
 10
660.421038
 20
509.6
 30
0.0
 11
714.421038
 21
509.6
 31
0.0
  0
SOLID
  5
4D1
330
4CD
100
AcDbEntity
  8
LC-006-003-----0
 62
     2
100
AcDbTrace
 10
660.421038
 20
514.266667
 30
0.0
 11
660.421038
 21
504.933333
 31
0.0
 12
632.421038
 22
509.6
 32
0.0
 13
632.421038
 23
509.6
 33
0.0
  0
SOLID
  5
4D2
330
4CD
100
AcDbEntity
  8
LC-006-003-----0
 62
     2
100
AcDbTrace
 10
714.421038
 20
504.933333
 30
0.0
 11
714.421038
 21
514.266667
 31
0.0
 12
742.421038
 22
509.6
 32
0.0
 13
742.421038
 23
509.6
 33
0.0
  0
MTEXT
  5
4D3
330
4CD
100
AcDbEntity
  8
LC-006-003-----0
 62
     2
100
AcDbMText
 10
687.421038
 20
540.4
 30
0.0
 40
28.0
 41
0.0
 71
     5
 72
     1
  1
%%c\A1;110
  7
LCTX15-400-0-0pDIN-Schrift
 73
     1
 44
1.0
  0
POINT
  5
4D4
330
4CD
100
AcDbEntity
  8
Defpoints
 62
     0
100
AcDbPoint
 10
632.421038
 20
568.699676
 30
0.0
  0
POINT
  5
4D5
330
4CD
100
AcDbEntity
  8
Defpoints
 62
     0
100
AcDbPoint
 10
742.421038
 20
555.699676
 30
0.0
  0
POINT
  5
4D6
330
4CD
100
AcDbEntity
  8
Defpoints
 62
     0
100
AcDbPoint
 10
742.421038
 20
509.6
 30
0.0
  0
ENDBLK
  5
4D8
330
4CD
100
AcDbEntity
  8
0
100
AcDbBlockEnd
  0
BLOCK
  5
4E4
330
4DA
100
AcDbEntity
  8
0
100
AcDbBlockBegin
  2
*D26
 70
     1
 71
     0
 10
0.0
 20
0.0
 30
0.0
  3
*D26
  1

  0
LINE
  5
4DB
330
4DA
100
AcDbEntity
  8
LC-006-003-----0
 62
     2
370
    -2
100
AcDbLine
 10
577.421038
 20
608.699841
 30
0.0
 11
577.421038
 21
458.4
 31
0.0
  0
LINE
  5
4DC
330
4DA
100
AcDbEntity
  8
LC-006-003-----0
 62
     2
370
    -2
100
AcDbLine
 10
687.421038
 20
498.259
 30
0.0
 11
687.421038
 21
458.4
 31
0.0
  0
LINE
  5
4DD
330
4DA
100
AcDbEntity
  8
LC-006-003-----0
 62
     2
370
    -2
100
AcDbLine
 10
605.421038
 20
462.0
 30
0.0
 11
659.421038
 21
462.0
 31
0.0
  0
SOLID
  5
4DE
330
4DA
100
AcDbEntity
  8
LC-006-003-----0
 62
     2
100
AcDbTrace
 10
605.421038
 20
466.666667
 30
0.0
 11
605.421038
 21
457.333333
 31
0.0
 12
577.421038
 22
462.0
 32
0.0
 13
577.421038
 23
462.0
 33
0.0
  0
SOLID
  5
4DF
330
4DA
100
AcDbEntity
  8
LC-006-003-----0
 62
     2
100
AcDbTrace
 10
659.421038
 20
457.333333
 30
0.0
 11
659.421038
 21
466.666667
 31
0.0
 12
687.421038
 22
462.0
 32
0.0
 13
687.421038
 23
462.0
 33
0.0
  0
MTEXT
  5
4E0
330
4DA
100
AcDbEntity
  8
LC-006-003-----0
 62
     2
100
AcDbMText
 10
632.421038
 20
492.8
 30
0.0
 40
28.0
 41
0.0
 71
     5
 72
     1
  1
\A1;110
  7
LCTX15-400-0-0pDIN-Schrift
 73
     1
 44
1.0
  0
POINT
  5
4E1
330
4DA
100
AcDbEntity
  8
Defpoints
 62
     0
100
AcDbPoint
 10
577.421038
 20
608.699841
 30
0.0
  0
POINT
  5
4E2
330
4DA
100
AcDbEntity
  8
Defpoints
 62
     0
100
AcDbPoint
 10
687.421038
 20
498.259
 30
0.0
  0
POINT
  5
4E3
330
4DA
100
AcDbEntity
  8
Defpoints
 62
     0
100
AcDbPoint
 10
687.421038
 20
462.0
 30
0.0
  0
ENDBLK
  5
4E5
330
4DA
100
AcDbEntity
  8
0
100
AcDbBlockEnd
  0
ENDSEC
  0
SECTION
  2
ENTITIES
  0
INSERT
  5
44
102
{ACAD_REACTORS
330
4F7
102
}
330
1F
100
AcDbEntity
  8
LC-001-005-----0
 62
     7
370
    25
100
AcDbBlockReference
  2
*X11
 10
0.0
 20
0.0
 30
0.0
  0
LINE
  5
46
102
{ACAD_REACTORS
330
4F7
102
}
330
1F
100
AcDbEntity
  8
LC-002-002-----0
 62
     7
370
    50
100
AcDbLine
 10
636.921038
 20
615.699841
 30
0.0
 11
636.921038
 21
645.199841
 31
0.0
  0
LINE
  5
47
102
{ACAD_REACTORS
330
4F7
102
}
330
1F
100
AcDbEntity
  8
LC-002-002-----0
 62
     7
370
    50
100
AcDbLine
 10
626.519114
 20
652.699841
 30
0.0
 11
628.921038
 21
652.699841
 31
0.0
  0
LINE
  5
48
102
{ACAD_REACTORS
330
4F7
102
}
330
1F
100
AcDbEntity
  8
LC-002-002-----0
 62
     7
370
    50
100
AcDbLine
 10
623.921038
 20
651.199841
 30
0.0
 11
623.921038
 21
614.199841
 31
0.0
  0
LINE
  5
49
102
{ACAD_REACTORS
330
4F7
102
}
330
1F
100
AcDbEntity
  8
LC-002-002-----0
 62
     7
370
    50
100
AcDbLine
 10
658.921038
 20
563.699841
 30
0.0
 11
660.421038
 21
563.699841
 31
0.0
  0
LINE
  5
4A
102
{ACAD_REACTORS
330
4F7
102
}
330
1F
100
AcDbEntity
  8
LC-002-002-----0
 62
     7
370
    50
100
AcDbLine
 10
660.421038
 20
623.199841
 30
0.0
 11
660.421038
 21
563.699841
 31
0.0
  0
ARC
  5
4C
102
{ACAD_REACTORS
330
4F7
102
}
330
1F
100
AcDbEntity
  8
LC-003-002-RND-0
 62
     7
370
    50
100
AcDbCircle
 10
632.921038
 20
647.199841
 30
0.0
 40
0.5
100
AcDbArc
 50
180.0
 51
270.0
  0
LINE
  5
4D
102
{ACAD_REACTORS
330
4F7
102
}
330
1F
100
AcDbEntity
  8
LC-002-002-----0
 62
     7
370
    50
100
AcDbLine
 10
623.921038
 20
651.199841
 30
0.0
 11
627.421038
 21
651.199841
 31
0.0
  0
LINE
  5
4E
102
{ACAD_REACTORS
330
4F7
102
}
330
1F
100
AcDbEntity
  8
LC-002-002-----0
 62
     7
370
    50
100
AcDbLine
 10
658.921038
 20
623.199841
 30
0.0
 11
658.921038
 21
563.699841
 31
0.0
  0
ARC
  5
4F
102
{ACAD_REACTORS
330
4F7
102
}
330
1F
100
AcDbEntity
  8
LC-003-002-RND-0
 62
     7
370
    50
100
AcDbCircle
 10
636.921038
 20
623.199841
 30
0.0
 40
22.0
100
AcDbArc
 50
0.0
 51
90.0
  0
LINE
  5
50
102
{ACAD_REACTORS
330
4F7
102
}
330
1F
100
AcDbEntity
  8
LC-002-002-----0
 62
     7
370
    50
100
AcDbLine
 10
628.421038
 20
649.699841
 30
0.0
 11
628.921038
 21
649.699841
 31
0.0
  0
LINE
  5
51
102
{ACAD_REACTORS
330
4F7
102
}
330
1F
100
AcDbEntity
  8
LC-002-002-----0
 62
     7
370
    50
100
AcDbLine
 10
627.921038
 20
650.699841
 30
0.0
 11
627.921038
 21
650.199841
 31
0.0
  0
LINE
  5
52
102
{ACAD_REACTORS
330
4F7
102
}
330
1F
100
AcDbEntity
  8
LC-002-002-----0
 62
     7
370
    50
100
AcDbLine
 10
623.921038
 20
614.199841
 30
0.0
 11
627.421038
 21
614.199841
 31
0.0
  0
LINE
  5
53
102
{ACAD_REACTORS
330
4F7
102
}
330
1F
100
AcDbEntity
  8
LC-002-002-----0
 62
     7
370
    50
100
AcDbLine
 10
628.421038
 20
615.699841
 30
0.0
 11
636.921038
 21
615.699841
 31
0.0
  0
LINE
  5
54
102
{ACAD_REACTORS
330
4F7
102
}
330
1F
100
AcDbEntity
  8
LC-002-002-----0
 62
     7
370
    50
100
AcDbLine
 10
627.921038
 20
614.699841
 30
0.0
 11
627.921038
 21
615.199841
 31
0.0
  0
ARC
  5
55
102
{ACAD_REACTORS
330
4F7
102
}
330
1F
100
AcDbEntity
  8
LC-003-002-RND-0
 62
     7
370
    50
100
AcDbCircle
 10
636.921038
 20
623.199841
 30
0.0
 40
23.5
100
AcDbArc
 50
0.0
 51
90.0
  0
ARC
  5
56
102
{ACAD_REACTORS
330
4F7
102
}
330
1F
100
AcDbEntity
  8
LC-003-002-RND-0
 62
     7
370
    50
100
AcDbCircle
 10
627.421038
 20
650.699841
 30
0.0
 40
0.5
100
AcDbArc
 50
0.0
 51
90.0
  0
ARC
  5
57
102
{ACAD_REACTORS
330
4F7
102
}
330
1F
100
AcDbEntity
  8
LC-003-002-RND-0
 62
     7
370
    50
100
AcDbCircle
 10
628.421038
 20
650.199841
 30
0.0
 40
0.5
100
AcDbArc
 50
180.0
 51
270.0
  0
ARC
  5
58
102
{ACAD_REACTORS
330
4F7
102
}
330
1F
100
AcDbEntity
  8
LC-003-002-RND-0
 62
     7
370
    50
100
AcDbCircle
 10
627.421038
 20
614.699841
 30
0.0
 40
0.5
100
AcDbArc
 50
270.0
 51
0.0
  0
ARC
  5
59
102
{ACAD_REACTORS
330
4F7
102
}
330
1F
100
AcDbEntity
  8
LC-003-002-RND-0
 62
     7
370
    50
100
AcDbCircle
 10
628.421038
 20
615.199841
 30
0.0
 40
0.5
100
AcDbArc
 50
90.0
 51
180.0
  0
INSERT
  5
81
102
{ACAD_REACTORS
330
4F7
102
}
330
1F
100
AcDbEntity
  8
LC-001-005-----0
 62
     7
370
    25
100
AcDbBlockReference
  2
*X22
 10
0.0
 20
0.0
 30
0.0
  0
LINE
  5
82
102
{ACAD_REACTORS
330
4F7
102
}
330
1F
100
AcDbEntity
  8
LC-002-002-----0
 62
     7
370
    50
100
AcDbLine
 10
628.921038
 20
652.699841
 30
0.0
 11
628.921038
 21
651.699841
 31
0.0
  0
LINE
  5
83
102
{ACAD_REACTORS
330
4F7
102
}
330
1F
100
AcDbEntity
  8
LC-002-002-----0
 62
     7
370
    50
100
AcDbLine
 10
630.921038
 20
612.699841
 30
0.0
 11
630.921038
 21
613.699841
 31
0.0
  0
LINE
  5
84
102
{ACAD_REACTORS
330
4F7
102
}
330
1F
100
AcDbEntity
  8
LC-002-002-----0
 62
     7
370
    50
100
AcDbLine
 10
629.421038
 20
614.199841
 30
0.0
 11
630.421038
 21
614.199841
 31
0.0
  0
LINE
  5
85
102
{ACAD_REACTORS
330
4F7
102
}
330
1F
100
AcDbEntity
  8
LC-002-002-----0
 62
     7
370
    50
100
AcDbLine
 10
629.421038
 20
651.199841
 30
0.0
 11
630.421038
 21
651.199841
 31
0.0
  0
LINE
  5
86
102
{ACAD_REACTORS
330
4F7
102
}
330
1F
100
AcDbEntity
  8
LC-002-002-----0
 62
     7
370
    50
100
AcDbLine
 10
630.921038
 20
652.699841
 30
0.0
 11
630.921038
 21
651.699841
 31
0.0
  0
LINE
  5
87
102
{ACAD_REACTORS
330
4F7
102
}
330
1F
100
AcDbEntity
  8
LC-002-002-----0
 62
     7
370
    50
100
AcDbLine
 10
630.921038
 20
652.699841
 30
0.0
 11
632.421038
 21
652.699841
 31
0.0
  0
LINE
  5
88
102
{ACAD_REACTORS
330
4F7
102
}
330
1F
100
AcDbEntity
  8
LC-002-002-----0
 62
     7
370
    50
100
AcDbLine
 10
628.921038
 20
612.699841
 30
0.0
 11
628.921038
 21
613.699841
 31
0.0
  0
LINE
  5
89
102
{ACAD_REACTORS
330
4F9
102
}
330
1F
100
AcDbEntity
  8
LC-002-002-----0
 62
     7
370
    50
100
AcDbLine
 10
649.921037
 20
648.522126
 30
0.0
 11
647.421037
 21
648.522126
 31
0.0
  0
LINE
  5
8A
102
{ACAD_REACTORS
330
4F7
102
}
330
1F
100
AcDbEntity
  8
LC-002-002-----0
 62
     7
370
    50
100
AcDbLine
 10
630.921038
 20
612.699841
 30
0.0
 11
635.421038
 21
612.699841
 31
0.0
  0
ARC
  5
8B
102
{ACAD_REACTORS
330
4F7
102
}
330
1F
100
AcDbEntity
  8
LC-003-002-RND-0
 62
     7
370
    50
100
AcDbCircle
 10
629.421038
 20
613.699841
 30
0.0
 40
0.5
100
AcDbArc
 50
90.0
 51
180.0
  0
ARC
  5
8C
102
{ACAD_REACTORS
330
4F7
102
}
330
1F
100
AcDbEntity
  8
LC-003-002-RND-0
 62
     7
370
    50
100
AcDbCircle
 10
630.421038
 20
613.699841
 30
0.0
 40
0.5
100
AcDbArc
 50
0.0
 51
90.0
  0
ARC
  5
8D
102
{ACAD_REACTORS
330
4F7
102
}
330
1F
100
AcDbEntity
  8
LC-003-002-RND-0
 62
     7
370
    50
100
AcDbCircle
 10
629.421038
 20
651.699841
 30
0.0
 40
0.5
100
AcDbArc
 50
180.0
 51
270.0
  0
ARC
  5
8E
102
{ACAD_REACTORS
330
4F7
102
}
330
1F
100
AcDbEntity
  8
LC-003-002-RND-0
 62
     7
370
    50
100
AcDbCircle
 10
630.421038
 20
651.699841
 30
0.0
 40
0.5
100
AcDbArc
 50
270.0
 51
0.0
  0
LINE
  5
8F
102
{ACAD_REACTORS
330
4F7
102
}
330
1F
100
AcDbEntity
  8
LC-002-002-----0
 62
     7
370
    50
100
AcDbLine
 10
635.421038
 20
612.699841
 30
0.0
 11
635.421038
 21
585.699841
 31
0.0
  0
LINE
  5
90
102
{ACAD_REACTORS
330
4F7
102
}
330
1F
100
AcDbEntity
  8
LC-002-002-----0
 62
     7
370
    50
100
AcDbLine
 10
636.921038
 20
615.699841
 30
0.0
 11
636.921038
 21
614.199841
 31
0.0
  0
LINE
  5
91
102
{ACAD_REACTORS
330
4F7
102
}
330
1F
100
AcDbEntity
  8
LC-002-002-----0
 62
     7
370
    50
100
AcDbLine
 10
636.921038
 20
614.199841
 30
0.0
 11
636.921038
 21
585.699841
 31
0.0
  0
LINE
  5
94
102
{ACAD_REACTORS
330
4F7
102
}
330
1F
100
AcDbEntity
  8
LC-004-006-MLN-0
 62
     7
370
    25
100
AcDbLine
 10
645.421038
 20
632.699841
 30
0.0
 11
572.421038
 21
632.699841
 31
0.0
  0
LINE
  5
95
102
{ACAD_REACTORS
330
4F7
102
}
330
1F
100
AcDbEntity
  8
LC-002-002-----0
 62
     7
370
    50
100
AcDbLine
 10
627.921038
 20
650.199841
 30
0.0
 11
627.921038
 21
615.199841
 31
0.0
  0
ARC
  5
96
102
{ACAD_REACTORS
330
4F7
102
}
330
1F
100
AcDbEntity
  8
LC-003-002-RND-0
 62
     7
370
    50
100
AcDbCircle
 10
632.921038
 20
647.199841
 30
0.0
 40
2.0
100
AcDbArc
 50
180.0
 51
270.0
  0
LINE
  5
97
102
{ACAD_REACTORS
330
4F7
102
}
330
1F
100
AcDbEntity
  8
LC-002-002-----0
 62
     7
370
    50
100
AcDbLine
 10
632.421038
 20
652.699841
 30
0.0
 11
632.421038
 21
647.199841
 31
0.0
  0
LINE
  5
98
102
{ACAD_REACTORS
330
4F7
102
}
330
1F
100
AcDbEntity
  8
LC-002-002-----0
 62
     7
370
    50
100
AcDbLine
 10
632.921038
 20
646.699841
 30
0.0
 11
636.921038
 21
646.699841
 31
0.0
  0
LINE
  5
99
102
{ACAD_REACTORS
330
4F7
102
}
330
1F
100
AcDbEntity
  8
LC-002-002-----0
 62
     7
370
    50
100
AcDbLine
 10
636.921038
 20
645.199841
 30
0.0
 11
632.921038
 21
645.199841
 31
0.0
  0
LINE
  5
9A
102
{ACAD_REACTORS
330
4F7
102
}
330
1F
100
AcDbEntity
  8
LC-002-002-----0
 62
     7
370
    50
100
AcDbLine
 10
630.921038
 20
647.199841
 30
0.0
 11
630.921038
 21
647.699841
 31
0.0
  0
ARC
  5
9B
102
{ACAD_REACTORS
330
4F7
102
}
330
1F
100
AcDbEntity
  8
LC-003-002-RND-0
 62
     7
370
    50
100
AcDbCircle
 10
628.921038
 20
647.699841
 30
0.0
 40
2.0
100
AcDbArc
 50
0.0
 51
90.0
  0
LINE
  5
9C
102
{ACAD_REACTORS
330
4F7
102
}
330
1F
100
AcDbEntity
  8
LC-002-002-----0
 62
     7
370
    50
100
AcDbLine
 10
626.519114
 20
612.699841
 30
0.0
 11
628.921038
 21
612.699841
 31
0.0
  0
LINE
  5
9D
102
{ACAD_REACTORS
330
4F7
102
}
330
1F
100
AcDbEntity
  8
LC-002-002-----0
 62
     7
370
    50
100
AcDbLine
 10
635.421038
 20
585.699841
 30
0.0
 11
658.921038
 21
585.699841
 31
0.0
  0
LINE
  5
9E
102
{ACAD_REACTORS
330
4F7
102
}
330
1F
100
AcDbEntity
  8
LC-002-002-----0
 62
     7
370
    50
100
AcDbLine
 10
623.921038
 20
651.199841
 30
0.0
 11
626.519114
 21
652.699841
 31
0.0
  0
LINE
  5
9F
102
{ACAD_REACTORS
330
4F7
102
}
330
1F
100
AcDbEntity
  8
LC-002-002-----0
 62
     7
370
    50
100
AcDbLine
 10
623.921038
 20
614.199841
 30
0.0
 11
626.519114
 21
612.699841
 31
0.0
  0
LINE
  5
A0
102
{ACAD_REACTORS
330
4F9
102
}
330
1F
100
AcDbEntity
  8
LC-002-002-----0
 62
     7
370
    50
100
AcDbLine
 10
649.921037
 20
648.522126
 30
0.0
 11
650.921037
 21
648.522126
 31
0.0
  0
LINE
  5
A1
330
1F
100
AcDbEntity
  8
LC-002-002-----0
 62
     7
370
    50
100
AcDbLine
 10
621.420549
 20
667.200521
 30
0.0
 11
613.420549
 21
667.200521
 31
0.0
  0
LINE
  5
A2
102
{ACAD_REACTORS
330
4F9
102
}
330
1F
100
AcDbEntity
  8
LC-002-002-----0
 62
     7
370
    50
100
AcDbLine
 10
722.921039
 20
651.400539
 30
0.0
 11
722.921039
 21
650.522126
 31
0.0
  0
LINE
  5
A3
102
{ACAD_REACTORS
330
4F9
102
}
330
1F
100
AcDbEntity
  8
LC-002-002-----0
 62
     7
370
    50
100
AcDbLine
 10
724.921039
 20
648.522126
 30
0.0
 11
723.921039
 21
648.522126
 31
0.0
  0
LINE
  5
A4
102
{ACAD_REACTORS
330
4F9
102
}
330
1F
100
AcDbEntity
  8
LC-002-002-----0
 62
     7
370
    50
100
AcDbLine
 10
724.921039
 20
653.794452
 30
0.0
 11
724.921039
 21
649.522126
 31
0.0
  0
LINE
  5
A5
102
{ACAD_REACTORS
330
4F9
102
}
330
1F
100
AcDbEntity
  8
LC-002-002-----0
 62
     7
370
    50
100
AcDbLine
 10
727.921038
 20
654.514028
 30
0.0
 11
725.370659
 21
654.291907
 31
0.0
  0
LINE
  5
A6
102
{ACAD_REACTORS
330
4F9
102
}
330
1F
100
AcDbEntity
  8
LC-002-002-----0
 62
     7
370
    50
100
AcDbLine
 10
727.921038
 20
654.514028
 30
0.0
 11
727.921038
 21
656.019706
 31
0.0
  0
LINE
  5
A7
102
{ACAD_REACTORS
330
4F9
102
}
330
1F
100
AcDbEntity
  8
LC-002-002-----0
 62
     7
370
    50
100
AcDbLine
 10
727.921038
 20
656.019706
 30
0.0
 11
726.115122
 21
655.862423
 31
0.0
  0
LINE
  5
A8
102
{ACAD_REACTORS
330
4F9
102
}
330
1F
100
AcDbEntity
  8
LC-002-002-----0
 62
     7
370
    50
100
AcDbLine
 10
712.53812
 20
646.921994
 30
0.0
 11
724.425948
 21
655.24594
 31
0.0
  0
LINE
  5
A9
102
{ACAD_REACTORS
330
4F9
102
}
330
1F
100
AcDbEntity
  8
LC-002-002-----0
 62
     7
370
    50
100
AcDbLine
 10
646.921038
 20
656.022126
 30
0.0
 11
727.921038
 21
656.019706
 31
0.0
  0
LINE
  5
AA
102
{ACAD_REACTORS
330
4F9
102
}
330
1F
100
AcDbEntity
  8
LC-002-002-----0
 62
     7
370
    50
100
AcDbLine
 10
662.303955
 20
646.921995
 30
0.0
 11
650.416129
 21
655.24594
 31
0.0
  0
LINE
  5
AB
102
{ACAD_REACTORS
330
4F9
102
}
330
1F
100
AcDbEntity
  8
LC-002-002-----0
 62
     7
370
    50
100
AcDbLine
 10
647.421037
 20
648.522126
 30
0.0
 11
647.421037
 21
649.522126
 31
0.0
  0
LINE
  5
AC
102
{ACAD_REACTORS
330
4F9
102
}
330
1F
100
AcDbEntity
  8
LC-002-002-----0
 62
     7
370
    50
100
AcDbLine
 10
647.421037
 20
649.522126
 30
0.0
 11
649.921037
 21
649.522126
 31
0.0
  0
ARC
  5
AD
102
{ACAD_REACTORS
330
4F9
102
}
330
1F
100
AcDbEntity
  8
LC-003-002-RND-0
 62
     7
370
    50
100
AcDbCircle
 10
724.921039
 20
650.522126
 30
0.0
 40
2.0
100
AcDbArc
 50
180.0
 51
270.0
  0
LINE
  5
AE
330
1F
100
AcDbEntity
  8
LC-002-002-----0
 62
     7
370
    50
100
AcDbLine
 10
614.715679
 20
667.200521
 30
0.0
 11
614.427004
 21
667.700521
 31
0.0
  0
LINE
  5
AF
330
1F
100
AcDbEntity
  8
LC-002-002-----0
 62
     7
370
    50
100
AcDbLine
 10
616.721645
 20
667.200521
 30
0.0
 11
616.43297
 21
667.700521
 31
0.0
  0
LINE
  5
B0
102
{ACAD_REACTORS
330
4F9
102
}
330
1F
100
AcDbEntity
  8
LC-002-002-----0
 62
     7
370
    50
100
AcDbLine
 10
724.921039
 20
648.522126
 30
0.0
 11
727.421039
 21
648.522126
 31
0.0
  0
LINE
  5
B1
102
{ACAD_REACTORS
330
4F9
102
}
330
1F
100
AcDbEntity
  8
LC-002-002-----0
 62
     7
370
    50
100
AcDbLine
 10
727.421039
 20
648.522126
 30
0.0
 11
727.421039
 21
649.522126
 31
0.0
  0
LINE
  5
B2
102
{ACAD_REACTORS
330
4F9
102
}
330
1F
100
AcDbEntity
  8
LC-002-002-----0
 62
     7
370
    50
100
AcDbLine
 10
727.421039
 20
649.522126
 30
0.0
 11
724.921039
 21
649.522126
 31
0.0
  0
LINE
  5
B4
102
{ACAD_REACTORS
330
4F9
102
}
330
1F
100
AcDbEntity
  8
LC-005-101-----0
 62
     7
370
    50
100
AcDbLine
 10
707.421038
 20
579.522126
 30
0.0
 11
708.421038
 21
579.522126
 31
0.0
  0
LINE
  5
B5
102
{ACAD_REACTORS
330
4F9
102
}
330
1F
100
AcDbEntity
  8
LC-002-002-----0
 62
     7
370
    50
100
AcDbLine
 10
712.685273
 20
645.19387
 30
0.0
 11
722.13425
 21
651.810115
 31
0.0
  0
LINE
  5
B6
330
1F
100
AcDbEntity
  8
LC-002-002-----0
 62
     7
370
    50
100
AcDbLine
 10
727.921038
 20
656.020916
 30
0.0
 11
727.921038
 21
647.199831
 31
0.0
  0
LINE
  5
B7
330
1F
100
AcDbEntity
  8
LC-002-002-----0
 62
     7
370
    50
100
AcDbLine
 10
636.671038
 20
656.199831
 30
0.0
 11
646.921038
 21
656.020916
 31
0.0
  0
INSERT
  5
F8
102
{ACAD_REACTORS
330
4F9
102
}
330
1F
100
AcDbEntity
  8
LC-001-005-----0
 62
     7
370
    25
100
AcDbBlockReference
  2
*X33
 10
0.0
 20
0.0
 30
0.0
  0
LINE
  5
F9
330
1F
100
AcDbEntity
  8
LC-002-002-----0
 62
     7
370
    50
100
AcDbLine
 10
760.132449
 20
667.200521
 30
0.0
 11
760.421124
 21
667.700521
 31
0.0
  0
LINE
  5
FA
330
1F
100
AcDbEntity
  8
LC-002-002-----0
 62
     7
370
    50
100
AcDbLine
 10
627.421012
 20
656.199831
 30
0.0
 11
636.671038
 21
656.199831
 31
0.0
  0
INSERT
  5
106
330
1F
100
AcDbEntity
  8
LC-001-005-----0
 62
     7
370
    25
100
AcDbBlockReference
  2
*X44
 10
0.0
 20
0.0
 30
0.0
  0
CIRCLE
  5
107
330
1F
100
AcDbEntity
  8
LC-002-002-----0
 62
     7
370
    50
100
AcDbCircle
 10
726.421039
 20
652.022126
 30
0.0
 40
1.5
  0
CIRCLE
  5
108
330
1F
100
AcDbEntity
  8
LC-002-002-----0
 62
     7
370
    50
100
AcDbCircle
 10
648.421037
 20
652.022126
 30
0.0
 40
1.499999999999948
  0
ARC
  5
109
102
{ACAD_REACTORS
330
4F9
102
}
330
1F
100
AcDbEntity
  8
LC-003-002-RND-0
 62
     7
370
    50
100
AcDbCircle
 10
655.421038
 20
637.09217
 30
0.0
 40
12.0
100
AcDbArc
 50
0.0
 51
55.0
  0
INSERT
  5
115
330
1F
100
AcDbEntity
  8
LC-001-005-----0
 62
     7
370
    25
100
AcDbBlockReference
  2
*X55
 10
0.0
 20
0.0
 30
0.0
  0
LINE
  5
116
330
1F
100
AcDbEntity
  8
LC-002-002-----0
 62
     7
370
    50
100
AcDbLine
 10
646.921038
 20
656.020916
 30
0.0
 11
646.921038
 21
647.199831
 31
0.0
  0
LINE
  5
117
330
1F
100
AcDbEntity
  8
LC-002-002-----0
 62
     7
370
    50
100
AcDbLine
 10
644.921038
 20
647.199831
 30
0.0
 11
646.921038
 21
647.199831
 31
0.0
  0
LINE
  5
118
330
1F
100
AcDbEntity
  8
LC-002-002-----0
 62
     7
370
    50
100
AcDbLine
 10
644.921038
 20
654.199831
 30
0.0
 11
644.921038
 21
647.199831
 31
0.0
  0
LINE
  5
119
330
1F
100
AcDbEntity
  8
LC-002-002-----0
 62
     7
370
    50
100
AcDbLine
 10
635.421038
 20
654.199831
 30
0.0
 11
644.921038
 21
654.199831
 31
0.0
  0
LINE
  5
11A
102
{ACAD_REACTORS
330
4F9
102
}
330
1F
100
AcDbEntity
  8
LC-002-002-----0
 62
     7
370
    50
100
AcDbLine
 10
662.156802
 20
645.19387
 30
0.0
 11
652.707826
 21
651.810115
 31
0.0
  0
LINE
  5
11B
102
{ACAD_REACTORS
330
4F9
102
}
330
1F
100
AcDbEntity
  8
LC-005-101-----0
 62
     7
370
    50
100
AcDbLine
 10
666.421038
 20
579.522126
 30
0.0
 11
666.421038
 21
637.00235
 31
0.0
  0
LINE
  5
11C
102
{ACAD_REACTORS
330
4F9
102
}
330
1F
100
AcDbEntity
  8
LC-005-101-----0
 62
     7
370
    50
100
AcDbLine
 10
667.421038
 20
579.522126
 30
0.0
 11
667.421038
 21
637.09217
 31
0.0
  0
LINE
  5
11D
102
{ACAD_REACTORS
330
4F9
102
}
330
1F
100
AcDbEntity
  8
LC-002-002-----0
 62
     7
370
    50
100
AcDbLine
 10
646.921038
 20
654.516415
 30
0.0
 11
646.921038
 21
656.022126
 31
0.0
  0
LINE
  5
11E
102
{ACAD_REACTORS
330
4F9
102
}
330
1F
100
AcDbEntity
  8
LC-002-002-----0
 62
     7
370
    50
100
AcDbLine
 10
646.921038
 20
654.516415
 30
0.0
 11
649.471875
 21
654.255707
 31
0.0
  0
LINE
  5
11F
102
{ACAD_REACTORS
330
4F9
102
}
330
1F
100
AcDbEntity
  8
LC-005-101-----0
 62
     7
370
    50
100
AcDbLine
 10
687.421038
 20
579.522126
 30
0.0
 11
666.421038
 21
579.522126
 31
0.0
  0
LINE
  5
120
102
{ACAD_REACTORS
330
4F9
102
}
330
1F
100
AcDbEntity
  8
LC-002-002-----0
 62
     7
370
    50
100
AcDbLine
 10
649.921037
 20
653.758298
 30
0.0
 11
649.921037
 21
649.522126
 31
0.0
  0
LINE
  5
121
330
1F
100
AcDbEntity
  8
LC-002-002-----0
 62
     7
370
    50
100
AcDbLine
 10
729.921038
 20
647.199831
 30
0.0
 11
727.921038
 21
647.199831
 31
0.0
  0
LINE
  5
122
102
{ACAD_REACTORS
330
4F9
102
}
330
1F
100
AcDbEntity
  8
LC-002-002-----0
 62
     7
370
    50
100
AcDbLine
 10
651.921037
 20
651.400539
 30
0.0
 11
651.921037
 21
650.522126
 31
0.0
  0
LINE
  5
123
330
1F
100
AcDbEntity
  8
LC-002-002-----0
 62
     7
370
    50
100
AcDbLine
 10
729.921038
 20
654.199831
 30
0.0
 11
729.921038
 21
647.199831
 31
0.0
  0
LINE
  5
124
330
1F
100
AcDbEntity
  8
LC-002-002-----0
 62
     7
370
    50
100
AcDbLine
 10
729.921038
 20
654.199831
 30
0.0
 11
745.42115
 21
654.200521
 31
0.0
  0
ARC
  5
125
102
{ACAD_REACTORS
330
4F9
102
}
330
1F
100
AcDbEntity
  8
LC-003-002-RND-0
 62
     7
370
    50
100
AcDbCircle
 10
656.421038
 20
637.00235
 30
0.0
 40
10.0
100
AcDbArc
 50
0.0
 51
55.0
  0
ARC
  5
126
330
1F
100
AcDbEntity
  8
LC-003-002-RND-0
 62
     7
370
    50
100
AcDbCircle
 10
800.421038
 20
671.656863
 30
0.0
 40
2.0
100
AcDbArc
 50
360.0
 51
91.898364
  0
ARC
  5
127
102
{ACAD_REACTORS
330
4F9
102
}
330
1F
100
AcDbEntity
  8
LC-003-002-RND-0
 62
     7
370
    50
100
AcDbCircle
 10
718.421037
 20
637.002349
 30
0.0
 40
10.0
100
AcDbArc
 50
125.0
 51
180.0
  0
LINE
  5
128
102
{ACAD_REACTORS
330
4F9
102
}
330
1F
100
AcDbEntity
  8
LC-005-101-----0
 62
     7
370
    50
100
AcDbLine
 10
708.421038
 20
579.522126
 30
0.0
 11
708.421037
 21
637.002349
 31
0.0
  0
LINE
  5
129
330
1F
100
AcDbEntity
  8
LC-002-002-----0
 62
     7
370
    50
100
AcDbLine
 10
738.171038
 20
656.199831
 30
0.0
 11
727.921038
 21
656.020916
 31
0.0
  0
LINE
  5
12A
330
1F
100
AcDbEntity
  8
LC-002-002-----0
 62
     7
370
    50
100
AcDbLine
 10
715.471561
 20
668.699831
 30
0.0
 11
715.471561
 21
671.699831
 31
0.0
  0
LINE
  5
12B
330
1F
100
AcDbEntity
  8
LC-002-002-----0
 62
     7
370
    50
100
AcDbLine
 10
715.471561
 20
671.699831
 30
0.0
 11
720.421051
 21
671.699831
 31
0.0
  0
LINE
  5
12C
330
1F
100
AcDbEntity
  8
LC-002-002-----0
 62
     7
370
    50
100
AcDbLine
 10
720.421051
 20
671.699831
 30
0.0
 11
720.421051
 21
668.699831
 31
0.0
  0
LINE
  5
12D
330
1F
100
AcDbEntity
  8
LC-002-002-----0
 62
     7
370
    50
100
AcDbLine
 10
747.421064
 20
656.199831
 30
0.0
 11
738.171038
 21
656.199831
 31
0.0
  0
LINE
  5
12E
330
1F
100
AcDbEntity
  8
LC-002-002-----0
 62
     7
370
    50
100
AcDbLine
 10
612.421038
 20
667.700521
 30
0.0
 11
621.420549
 21
667.700521
 31
0.0
  0
DIMENSION
  5
132
330
1F
100
AcDbEntity
  8
LC-006-003-----0
 62
     7
370
    25
100
AcDbDimension
  2
*D6
 10
509.6
 20
632.699841
 30
0.0
 11
478.8
 21
589.141
 31
0.0
 70
   160
  1
37
 71
     5
 42
37.119266
 53
90.0
  3
LC-DIM-L-0140-02-02
100
AcDbAlignedDimension
 13
581.795387
 23
669.819107
 33
0.0
 14
577.421038
 24
632.699841
 34
0.0
 50
90.0
100
AcDbRotatedDimension
  0
LINE
  5
141
330
1F
100
AcDbEntity
  8
LC-002-002-----0
 62
     7
370
    50
100
AcDbLine
 10
622.421038
 20
667.700521
 30
0.0
 11
621.420549
 21
667.700521
 31
0.0
  0
LINE
  5
142
102
{ACAD_REACTORS
330
4F9
102
}
330
1F
100
AcDbEntity
  8
LC-005-101-----0
 62
     7
370
    50
100
AcDbLine
 10
707.421038
 20
579.522126
 30
0.0
 11
707.421037
 21
637.092169
 31
0.0
  0
LINE
  5
143
330
1F
100
AcDbEntity
  8
LC-002-002-----0
 62
     7
370
    50
100
AcDbLine
 10
622.421038
 20
667.700521
 30
0.0
 11
623.421038
 21
667.700521
 31
0.0
  0
LINE
  5
144
330
1F
100
AcDbEntity
  8
LC-002-002-----0
 62
     7
370
    50
100
AcDbLine
 10
758.132449
 20
667.200521
 30
0.0
 11
758.421124
 21
667.700521
 31
0.0
  0
LINE
  5
145
330
1F
100
AcDbEntity
  8
LC-002-002-----0
 62
     7
370
    50
100
AcDbLine
 10
758.421124
 20
667.700521
 30
0.0
 11
758.709799
 21
667.200521
 31
0.0
  0
LINE
  5
146
330
1F
100
AcDbEntity
  8
LC-002-002-----0
 62
     7
370
    50
100
AcDbLine
 10
616.426918
 20
667.700521
 30
0.0
 11
616.138243
 21
667.200521
 31
0.0
  0
LINE
  5
147
330
1F
100
AcDbEntity
  8
LC-002-002-----0
 62
     7
370
    50
100
AcDbLine
 10
618.72761
 20
667.200521
 30
0.0
 11
618.438935
 21
667.700521
 31
0.0
  0
LINE
  5
148
102
{ACAD_REACTORS
330
4F9
102
}
330
1F
100
AcDbEntity
  8
LC-005-101-----0
 62
     7
370
    50
100
AcDbLine
 10
687.421038
 20
579.522126
 30
0.0
 11
707.421038
 21
579.522126
 31
0.0
  0
ARC
  5
149
102
{ACAD_REACTORS
330
4F9
102
}
330
1F
100
AcDbEntity
  8
LC-003-002-RND-0
 62
     7
370
    50
100
AcDbCircle
 10
652.421037
 20
651.400539
 30
0.0
 40
0.4999999999999033
100
AcDbArc
 50
55.0
 51
180.0
  0
LINE
  5
14A
102
{ACAD_REACTORS
330
4F9
102
}
330
1F
100
AcDbEntity
  8
LC-002-002-----0
 62
     7
370
    50
100
AcDbLine
 10
646.921038
 20
656.022126
 30
0.0
 11
648.727124
 21
655.864371
 31
0.0
  0
ARC
  5
14B
102
{ACAD_REACTORS
330
4F9
102
}
330
1F
100
AcDbEntity
  8
LC-003-002-RND-0
 62
     7
370
    50
100
AcDbCircle
 10
649.921037
 20
650.522126
 30
0.0
 40
2.0
100
AcDbArc
 50
270.0
 51
0.0
  0
LINE
  5
14C
330
1F
100
AcDbEntity
  8
LC-002-002-----0
 62
     7
370
    50
100
AcDbLine
 10
761.421527
 20
667.200521
 30
0.0
 11
762.132363
 21
667.200521
 31
0.0
  0
LINE
  5
14D
330
1F
100
AcDbEntity
  8
LC-002-002-----0
 62
     7
370
    50
100
AcDbLine
 10
762.421038
 20
667.700521
 30
0.0
 11
760.421124
 21
667.700521
 31
0.0
  0
LINE
  5
14E
330
1F
100
AcDbEntity
  8
LC-002-002-----0
 62
     7
370
    50
100
AcDbLine
 10
756.132449
 20
667.200521
 30
0.0
 11
756.421124
 21
667.700521
 31
0.0
  0
ARC
  5
14F
102
{ACAD_REACTORS
330
4F9
102
}
330
1F
100
AcDbEntity
  8
LC-003-002-RND-0
 62
     7
370
    50
100
AcDbCircle
 10
649.421037
 20
653.758298
 30
0.0
 40
0.5
100
AcDbArc
 50
0.0
 51
84.164355
  0
LINE
  5
150
330
1F
100
AcDbEntity
  8
LC-002-002-----0
 62
     7
370
    50
100
AcDbLine
 10
620.709627
 20
667.200521
 30
0.0
 11
620.420952
 21
667.700521
 31
0.0
  0
LINE
  5
151
330
1F
100
AcDbEntity
  8
LC-002-002-----0
 62
     7
370
    50
100
AcDbLine
 10
618.432883
 20
667.700521
 30
0.0
 11
618.144208
 21
667.200521
 31
0.0
  0
ARC
  5
153
102
{ACAD_REACTORS
330
4F9
102
}
330
1F
100
AcDbEntity
  8
LC-007-101-RND-0
 62
     7
370
    50
100
AcDbCircle
 10
719.421037
 20
637.092169
 30
0.0
 40
11.99999999999999
100
AcDbArc
 50
125.0
 51
180.0
  0
ARC
  5
154
102
{ACAD_REACTORS
330
4F9
102
}
330
1F
100
AcDbEntity
  8
LC-003-002-RND-0
 62
     7
370
    50
100
AcDbCircle
 10
725.421039
 20
653.794452
 30
0.0
 40
0.499999999999826
100
AcDbArc
 50
95.782875
 51
180.0
  0
ARC
  5
155
102
{ACAD_REACTORS
330
4F9
102
}
330
1F
100
AcDbEntity
  8
LC-003-002-RND-0
 62
     7
370
    50
100
AcDbCircle
 10
722.421039
 20
651.400539
 30
0.0
 40
0.5
100
AcDbArc
 50
0.0
 51
125.0
  0
LINE
  5
156
330
1F
100
AcDbEntity
  8
LC-002-002-----0
 62
     7
370
    50
100
AcDbLine
 10
754.132449
 20
667.200521
 30
0.0
 11
754.421124
 21
667.700521
 31
0.0
  0
LINE
  5
157
102
{ACAD_REACTORS
330
4F9
102
}
330
1F
100
AcDbEntity
  8
LC-002-002-----0
 62
     7
370
    50
100
AcDbLine
 10
649.921037
 20
648.522126
 30
0.0
 11
657.40356
 21
648.522126
 31
0.0
  0
LINE
  5
158
102
{ACAD_REACTORS
330
4F9
102
}
330
1F
100
AcDbEntity
  8
LC-002-002-----0
 62
     7
370
    50
100
AcDbLine
 10
723.921039
 20
648.522126
 30
0.0
 11
717.438516
 21
648.522126
 31
0.0
  0
LINE
  5
159
102
{ACAD_REACTORS
330
4FC
102
}
330
1F
100
AcDbEntity
  8
LC-002-002-----0
 62
     7
370
    50
100
AcDbLine
 10
591.921038
 20
609.874699
 30
0.0
 11
591.921038
 21
608.999841
 31
0.0
  0
LINE
  5
15A
102
{ACAD_REACTORS
330
4FC
102
}
330
1F
100
AcDbEntity
  8
LC-002-002-----0
 62
     7
370
    50
100
AcDbLine
 10
585.530229
 20
608.209841
 30
0.0
 11
586.021038
 21
608.209841
 31
0.0
  0
LINE
  5
15B
102
{ACAD_REACTORS
330
4FC
102
}
330
1F
100
AcDbEntity
  8
LC-002-002-----0
 62
     7
370
    50
100
AcDbLine
 10
589.421038
 20
608.209841
 30
0.0
 11
589.259269
 21
607.929649
 31
0.0
  0
ARC
  5
15C
102
{ACAD_REACTORS
330
4F9
102
}
330
1F
100
AcDbEntity
  8
LC-002-002-----0
 62
     7
370
    50
100
AcDbCircle
 10
648.421038
 20
652.396656
 30
0.0
 40
3.478334111086788
100
AcDbArc
 50
55.0
 51
84.955683
  0
ARC
  5
15D
102
{ACAD_REACTORS
330
4F9
102
}
330
1F
100
AcDbEntity
  8
LC-002-002-----0
 62
     7
370
    50
100
AcDbCircle
 10
726.421038
 20
652.396656
 30
0.0
 40
3.478334111086619
100
AcDbArc
 50
95.044317
 51
125.0
  0
LINE
  5
15E
102
{ACAD_REACTORS
330
4FC
102
}
330
1F
100
AcDbEntity
  8
LC-002-002-----0
 62
     7
370
    50
100
AcDbLine
 10
584.172149
 20
610.414561
 30
0.0
 11
584.564304
 21
608.951022
 31
0.0
  0
LINE
  5
15F
102
{ACAD_REACTORS
330
4FC
102
}
330
1F
100
AcDbEntity
  8
LC-002-002-----0
 62
     7
370
    50
100
AcDbLine
 10
584.950218
 20
612.144431
 30
0.0
 11
589.275993
 21
614.307319
 31
0.0
  0
LINE
  5
160
102
{ACAD_REACTORS
330
4FC
102
}
330
1F
100
AcDbEntity
  8
LC-002-002-----0
 62
     7
370
    50
100
AcDbLine
 10
590.561038
 20
608.729841
 30
0.0
 11
590.561038
 21
608.209841
 31
0.0
  0
LINE
  5
161
102
{ACAD_REACTORS
330
4FC
102
}
330
1F
100
AcDbEntity
  8
LC-002-002-----0
 62
     7
370
    50
100
AcDbLine
 10
588.021038
 20
608.209841
 30
0.0
 11
588.821038
 21
608.209841
 31
0.0
  0
LINE
  5
162
102
{ACAD_REACTORS
330
4FC
102
}
330
1F
100
AcDbEntity
  8
LC-002-002-----0
 62
     7
370
    50
100
AcDbLine
 10
586.621038
 20
608.209841
 30
0.0
 11
586.459269
 21
607.929649
 31
0.0
  0
ARC
  5
163
102
{ACAD_REACTORS
330
4FC
102
}
330
1F
100
AcDbEntity
  8
LC-002-002-----0
 62
     7
370
    50
100
AcDbCircle
 10
586.321038
 20
608.009456
 30
0.0
 40
0.1596152422705804
100
AcDbArc
 50
210.0
 51
330.0
  0
LINE
  5
164
102
{ACAD_REACTORS
330
4FC
102
}
330
1F
100
AcDbEntity
  8
LC-002-002-----0
 62
     7
370
    50
100
AcDbLine
 10
586.021038
 20
608.209841
 30
0.0
 11
586.182807
 21
607.929649
 31
0.0
  0
LINE
  5
165
102
{ACAD_REACTORS
330
4FC
102
}
330
1F
100
AcDbEntity
  8
LC-002-002-----0
 62
     7
370
    50
100
AcDbLine
 10
588.021038
 20
608.209841
 30
0.0
 11
587.859269
 21
607.929649
 31
0.0
  0
LINE
  5
166
330
1F
100
AcDbEntity
  8
LC-002-002-----0
 62
     7
370
    50
100
AcDbLine
 10
752.267801
 20
667.700521
 30
0.0
 11
753.110592
 21
667.700521
 31
0.0
  0
LINE
  5
167
330
1F
100
AcDbEntity
  8
LC-002-002-----0
 62
     7
370
    50
100
AcDbLine
 10
752.267801
 20
667.700521
 30
0.0
 11
751.421038
 21
667.700521
 31
0.0
  0
LINE
  5
168
102
{ACAD_REACTORS
330
4FC
102
}
330
1F
100
AcDbEntity
  8
LC-002-002-----0
 62
     7
370
    50
100
AcDbLine
 10
591.343057
 20
611.218581
 30
0.0
 11
589.392372
 21
610.910578
 31
0.0
  0
ARC
  5
169
102
{ACAD_REACTORS
330
4FC
102
}
330
1F
100
AcDbEntity
  8
LC-002-002-----0
 62
     7
370
    50
100
AcDbCircle
 10
587.721038
 20
608.009456
 30
0.0
 40
0.1596152422705804
100
AcDbArc
 50
210.0
 51
330.0
  0
ARC
  5
16A
102
{ACAD_REACTORS
330
4FC
102
}
330
1F
100
AcDbEntity
  8
LC-003-002-RND-0
 62
     7
370
    50
100
AcDbCircle
 10
589.345583
 20
611.206907
 30
0.0
 40
0.2999999999999508
100
AcDbArc
 50
159.159081
 51
278.972627
  0
LINE
  5
16B
102
{ACAD_REACTORS
330
4FC
102
}
330
1F
100
AcDbEntity
  8
LC-002-002-----0
 62
     7
370
    50
100
AcDbLine
 10
587.421038
 20
608.209841
 30
0.0
 11
587.582807
 21
607.929649
 31
0.0
  0
LINE
  5
16C
102
{ACAD_REACTORS
330
4FC
102
}
330
1F
100
AcDbEntity
  8
LC-002-002-----0
 62
     7
370
    50
100
AcDbLine
 10
591.921038
 20
609.849841
 30
0.0
 11
591.6802
 21
608.951022
 31
0.0
  0
LINE
  5
16D
102
{ACAD_REACTORS
330
4FC
102
}
330
1F
100
AcDbEntity
  8
LC-002-002-----0
 62
     7
370
    50
100
AcDbLine
 10
586.621038
 20
608.209841
 30
0.0
 11
587.421038
 21
608.209841
 31
0.0
  0
LINE
  5
16E
102
{ACAD_REACTORS
330
4FC
102
}
330
1F
100
AcDbEntity
  8
LC-002-002-----0
 62
     7
370
    50
100
AcDbLine
 10
589.421038
 20
608.209841
 30
0.0
 11
589.761038
 21
608.209841
 31
0.0
  0
ARC
  5
16F
102
{ACAD_REACTORS
330
4FC
102
}
330
1F
100
AcDbEntity
  8
LC-002-002-----0
 62
     7
370
    50
100
AcDbCircle
 10
589.121038
 20
608.009456
 30
0.0
 40
0.1596152422705804
100
AcDbArc
 50
210.0
 51
330.0
  0
LINE
  5
170
102
{ACAD_REACTORS
330
4FC
102
}
330
1F
100
AcDbEntity
  8
LC-002-002-----0
 62
     7
370
    50
100
AcDbLine
 10
590.561038
 20
608.209841
 30
0.0
 11
590.714274
 21
608.209841
 31
0.0
  0
ARC
  5
171
102
{ACAD_REACTORS
330
4FC
102
}
330
1F
100
AcDbEntity
  8
LC-003-002-RND-0
 62
     7
370
    50
100
AcDbCircle
 10
589.4996
 20
613.860105
 30
0.0
 40
0.4999999999999888
100
AcDbArc
 50
339.159081
 51
116.565051
  0
LINE
  5
172
102
{ACAD_REACTORS
330
4FC
102
}
330
1F
100
AcDbEntity
  8
LC-002-002-----0
 62
     7
370
    50
100
AcDbLine
 10
588.821038
 20
608.209841
 30
0.0
 11
588.982807
 21
607.929649
 31
0.0
  0
LINE
  5
173
102
{ACAD_REACTORS
330
4FC
102
}
330
1F
100
AcDbEntity
  8
LC-002-002-----0
 62
     7
370
    50
100
AcDbLine
 10
589.966886
 20
613.682218
 30
0.0
 11
589.065211
 21
611.313639
 31
0.0
  0
INSERT
  5
18B
102
{ACAD_REACTORS
330
4FC
102
}
330
1F
100
AcDbEntity
  8
LC-001-005-----0
 62
     7
370
    25
100
AcDbBlockReference
  2
*X67
 10
0.0
 20
0.0
 30
0.0
  0
LINE
  5
18C
102
{ACAD_REACTORS
330
4FC
102
}
330
1F
100
AcDbEntity
  8
LC-002-002-----0
 62
     7
370
    50
100
AcDbLine
 10
589.761038
 20
608.729841
 30
0.0
 11
590.561038
 21
608.729841
 31
0.0
  0
ARC
  5
18D
102
{ACAD_REACTORS
330
4FC
102
}
330
1F
100
AcDbEntity
  8
LC-003-002-RND-0
 62
     7
370
    50
100
AcDbCircle
 10
590.714274
 20
609.209841
 30
0.0
 40
1.0
100
AcDbArc
 50
270.0
 51
345.0
  0
ARC
  5
18E
102
{ACAD_REACTORS
330
4FC
102
}
330
1F
100
AcDbEntity
  8
LC-003-002-RND-0
 62
     7
370
    50
100
AcDbCircle
 10
585.621038
 20
610.80279
 30
0.0
 40
1.499999999999848
100
AcDbArc
 50
116.565051
 51
195.0
  0
ARC
  5
18F
102
{ACAD_REACTORS
330
4FC
102
}
330
1F
100
AcDbEntity
  8
LC-003-002-RND-0
 62
     7
370
    50
100
AcDbCircle
 10
585.530229
 20
609.209841
 30
0.0
 40
1.00000000000006
100
AcDbArc
 50
195.0
 51
270.0
  0
LINE
  5
190
102
{ACAD_REACTORS
330
4FC
102
}
330
1F
100
AcDbEntity
  8
LC-002-002-----0
 62
     7
370
    50
100
AcDbLine
 10
589.761038
 20
608.729841
 30
0.0
 11
589.761038
 21
608.209841
 31
0.0
  0
ARC
  5
191
102
{ACAD_REACTORS
330
4FC
102
}
330
1F
100
AcDbEntity
  8
LC-003-002-RND-0
 62
     7
370
    50
100
AcDbCircle
 10
591.421038
 20
610.724699
 30
0.0
 40
0.5
100
AcDbArc
 50
0.0
 51
98.972627
  0
LINE
  5
192
330
1F
100
AcDbEntity
  8
LC-002-002-----0
 62
     7
370
    50
100
AcDbLine
 10
792.705968
 20
673.402247
 30
0.0
 11
800.354316
 21
673.669193
 31
0.0
  0
INSERT
  5
19A
330
1F
100
AcDbEntity
  8
LC-001-005-----0
 62
     7
370
    25
100
AcDbBlockReference
  2
*X78
 10
0.0
 20
0.0
 30
0.0
  0
CIRCLE
  5
19B
330
1F
100
AcDbEntity
  8
LC-002-002-----0
 62
     7
370
    50
100
AcDbCircle
 10
629.921038
 20
613.374841
 30
0.0
 40
0.8250000000000455
  0
CIRCLE
  5
19C
330
1F
100
AcDbEntity
  8
LC-002-002-----0
 62
     7
370
    50
100
AcDbCircle
 10
629.921038
 20
652.024841
 30
0.0
 40
0.8250000000000455
  0
INSERT
  5
1A4
330
1F
100
AcDbEntity
  8
LC-001-005-----0
 62
     7
370
    25
100
AcDbBlockReference
  2
*X89
 10
0.0
 20
0.0
 30
0.0
  0
CIRCLE
  5
1A5
330
1F
100
AcDbEntity
  8
LC-002-002-----0
 62
     7
370
    50
100
AcDbCircle
 10
780.270346
 20
653.4801
 30
0.0
 40
1.75
  0
INSERT
  5
1B2
330
1F
100
AcDbEntity
  8
LC-001-005-----0
 62
     7
370
    25
100
AcDbBlockReference
  2
*X910
 10
0.0
 20
0.0
 30
0.0
  0
CIRCLE
  5
1B3
330
1F
100
AcDbEntity
  8
LC-002-002-----0
 62
     7
370
    50
100
AcDbCircle
 10
780.270346
 20
599.9801
 30
0.0
 40
1.75
  0
INSERT
  5
1C0
330
1F
100
AcDbEntity
  8
LC-001-005-----0
 62
     7
370
    25
100
AcDbBlockReference
  2
*X1011
 10
0.0
 20
0.0
 30
0.0
  0
LINE
  5
1C1
330
1F
100
AcDbEntity
  8
LC-002-002-----0
 62
     7
370
    50
100
AcDbLine
 10
635.421038
 20
612.549841
 30
0.0
 11
635.421038
 21
568.699676
 31
0.0
  0
DIMENSION
  5
1C2
330
1F
100
AcDbEntity
  8
LC-006-003-----0
 62
     7
370
    25
100
AcDbDimension
  2
*D12
 10
940.8
 20
595.2301
 30
0.0
 11
910.0
 21
626.7301
 31
0.0
 70
   160
  1
%%c<>
 71
     5
 42
63.0
 53
90.0
  3
LC-DIM-L-0140-02-02
100
AcDbAlignedDimension
 13
871.421482
 23
658.2301
 33
0.0
 14
871.421482
 24
595.2301
 34
0.0
 50
90.0
100
AcDbRotatedDimension
  0
LINE
  5
1CF
330
1F
100
AcDbEntity
  8
LC-002-002-----0
 62
     7
370
    50
100
AcDbLine
 10
802.421038
 20
670.17572
 30
0.0
 11
802.421038
 21
671.656863
 31
0.0
  0
DIMENSION
  5
1D0
330
1F
100
AcDbEntity
  8
LC-006-003-----0
 62
     7
370
    25
100
AcDbDimension
  2
*D13
 10
901.6
 20
598.7301
 30
0.0
 11
870.8
 21
626.7301
 31
0.0
 70
   160
  1
%%c<>
 71
     5
 42
56.0
 53
90.0
  3
LC-DIM-L-0140-02-02
100
AcDbAlignedDimension
 13
827.921482
 23
654.7301
 33
0.0
 14
827.921482
 24
598.7301
 34
0.0
 50
90.0
100
AcDbRotatedDimension
  0
LINE
  5
1DF
330
1F
100
AcDbEntity
  8
LC-002-002-----0
 62
     7
370
    50
100
AcDbLine
 10
756.421124
 20
667.700521
 30
0.0
 11
756.709799
 21
667.200521
 31
0.0
  0
LINE
  5
1E0
330
1F
100
AcDbEntity
  8
LC-002-002-----0
 62
     7
370
    50
100
AcDbLine
 10
754.421124
 20
667.700521
 30
0.0
 11
754.709799
 21
667.200521
 31
0.0
  0
ARC
  5
1E2
102
{ACAD_REACTORS
330
4F6
102
}
330
1F
100
AcDbEntity
  8
LC-008-205-RND-0
 62
     7
370
    50
100
AcDbCircle
 10
777.720346
 20
655.453993
 30
0.0
 40
0.2999999999999545
100
AcDbArc
 50
0.0
 51
78.586371
  0
LINE
  5
1E3
330
1F
100
AcDbEntity
  8
LC-002-002-----0
 62
     7
370
    50
100
AcDbLine
 10
754.921527
 20
667.200521
 30
0.0
 11
759.919146
 21
667.200521
 31
0.0
  0
LINE
  5
1E4
330
1F
100
AcDbEntity
  8
LC-002-002-----0
 62
     7
370
    50
100
AcDbLine
 10
620.438849
 20
667.700521
 30
0.0
 11
620.150174
 21
667.200521
 31
0.0
  0
LINE
  5
1E5
330
1F
100
AcDbEntity
  8
LC-002-002-----0
 62
     7
370
    50
100
AcDbLine
 10
760.421124
 20
667.700521
 30
0.0
 11
760.709799
 21
667.200521
 31
0.0
  0
LINE
  5
1E6
330
1F
100
AcDbEntity
  8
LC-002-002-----0
 62
     7
370
    50
100
AcDbLine
 10
763.651822
 20
661.200521
 30
0.0
 11
770.42156
 21
661.200521
 31
0.0
  0
LINE
  5
1E7
330
1F
100
AcDbEntity
  8
LC-002-002-----0
 62
     7
370
    50
100
AcDbLine
 10
753.421527
 20
667.200521
 30
0.0
 11
754.132449
 21
667.200521
 31
0.0
  0
LINE
  5
1E8
330
1F
100
AcDbEntity
  8
LC-002-002-----0
 62
     7
370
    50
100
AcDbLine
 10
754.709799
 20
667.200521
 30
0.0
 11
754.921527
 21
667.200521
 31
0.0
  0
LINE
  5
1E9
330
1F
100
AcDbEntity
  8
LC-002-002-----0
 62
     7
370
    50
100
AcDbLine
 10
760.709799
 20
667.200521
 30
0.0
 11
761.421527
 21
667.200521
 31
0.0
  0
LINE
  5
1EA
330
1F
100
AcDbEntity
  8
LC-002-002-----0
 62
     7
370
    50
100
AcDbLine
 10
759.921527
 20
667.200521
 30
0.0
 11
760.132449
 21
667.200521
 31
0.0
  0
DIMENSION
  5
1EB
330
1F
100
AcDbEntity
  8
LC-006-003-----0
 62
     7
370
    25
100
AcDbDimension
  2
*D14
 10
840.0
 20
626.7301
 30
0.0
 11
809.2
 21
677.053
 31
0.0
 70
   160
  1
43
 71
     5
 42
43.089007
 53
90.0
  3
LC-DIM-L-0140-02-02
100
AcDbAlignedDimension
 13
793.046689
 23
669.819107
 33
0.0
 14
801.555876
 24
626.7301
 34
0.0
 50
90.0
100
AcDbRotatedDimension
  0
LINE
  5
1F9
330
1F
100
AcDbEntity
  8
LC-002-002-----0
 62
     7
370
    50
100
AcDbLine
 10
572.421038
 20
670.17572
 30
0.0
 11
572.421038
 21
671.656863
 31
0.0
  0
ARC
  5
1FA
330
1F
100
AcDbEntity
  8
LC-008-205-RND-0
 62
     7
370
    50
100
AcDbCircle
 10
777.520346
 20
655.273541
 30
0.0
 40
0.5
100
AcDbArc
 50
0.0
 51
78.902197
  0
INSERT
  5
217
330
1F
100
AcDbEntity
  8
LC-006-003-----0
 62
     7
370
    25
100
AcDbBlockReference
  2
LCDIM1
 10
0.0
 20
0.0
 30
0.0
  0
DIMENSION
  5
218
330
1F
100
AcDbEntity
  8
LC-006-003-----0
 62
     7
370
    25
100
AcDbDimension
  2
*D16
 10
871.421482
 20
431.2
 30
0.0
 11
724.42126
 21
462.0
 31
0.0
 70
   160
  1
295
 71
     5
 42
294.000444
  3
LC-DIM-L-0140-02-02
100
AcDbAlignedDimension
 13
577.421038
 23
608.699841
 33
0.0
 14
871.421482
 24
595.2301
 34
0.0
100
AcDbRotatedDimension
  0
LINE
  5
225
330
1F
100
AcDbEntity
  8
LC-002-002-----0
 62
     7
370
    50
100
AcDbLine
 10
782.557728
 20
661.2301
 30
0.0
 11
782.557728
 21
657.440363
 31
0.0
  0
ARC
  5
226
330
1F
100
AcDbEntity
  8
LC-003-002-RND-0
 62
     7
370
    50
100
AcDbCircle
 10
574.421038
 20
671.656863
 30
0.0
 40
1.999999999999994
100
AcDbArc
 50
88.101636
 51
180.0
  0
LINE
  5
227
330
1F
100
AcDbEntity
  8
LC-002-002-----0
 62
     7
370
    50
100
AcDbLine
 10
581.795387
 20
669.819107
 30
0.0
 11
572.421038
 21
670.17572
 31
0.0
  0
DIMENSION
  5
228
330
1F
100
AcDbEntity
  8
LC-006-003-----0
 62
     7
370
    25
100
AcDbDimension
  2
*D17
 10
470.4
 20
669.819107
 30
0.0
 11
439.6
 21
612.759392
 31
0.0
 70
   160
  1
115
 71
     5
 42
114.119431
 53
90.0
  3
LC-DIM-L-0140-02-02
100
AcDbAlignedDimension
 13
645.421038
 23
555.699676
 33
0.0
 14
581.795387
 24
669.819107
 34
0.0
 50
90.0
100
AcDbRotatedDimension
  0
LINE
  5
235
330
1F
100
AcDbEntity
  8
LC-002-002-----0
 62
     7
370
    50
100
AcDbLine
 10
614.420952
 20
667.700521
 30
0.0
 11
614.132277
 21
667.200521
 31
0.0
  0
LINE
  5
236
330
1F
100
AcDbEntity
  8
LC-002-002-----0
 62
     7
370
    50
100
AcDbLine
 10
626.421012
 20
671.699831
 30
0.0
 11
624.421012
 21
671.699831
 31
0.0
  0
INSERT
  5
2C9
330
1F
100
AcDbEntity
  8
LC-001-005-----0
 62
     7
370
    25
100
AcDbBlockReference
  2
*X1118
 10
0.0
 20
0.0
 30
0.0
  0
DIMENSION
  5
2CA
330
1F
100
AcDbEntity
  8
LC-006-003-----0
 62
     7
370
    25
100
AcDbDimension
  2
*D19
 10
548.8
 20
612.549841
 30
0.0
 11
518.0
 21
501.229
 31
0.0
 70
   160
  1
%%c40
 71
     5
 42
40.3
 53
90.0
  3
LC-DIM-L-0140-02-02
100
AcDbAlignedDimension
 13
591.921038
 23
652.849841
 33
0.0
 14
591.921038
 24
612.549841
 34
0.0
 50
90.0
100
AcDbRotatedDimension
  0
DIMENSION
  5
2D8
330
1F
100
AcDbEntity
  8
LC-006-003-----0
 62
     7
370
    25
100
AcDbDimension
  2
*D20
 10
802.421038
 20
705.6
 30
0.0
 11
687.421038
 21
736.4
 31
0.0
 70
   160
  1
%%c<>
 71
     5
 42
230.0
  3
LC-DIM-L-0140-02-02
100
AcDbAlignedDimension
 13
572.421038
 23
671.656863
 33
0.0
 14
802.421038
 24
671.656863
 34
0.0
100
AcDbRotatedDimension
  0
LINE
  5
2E5
102
{ACAD_REACTORS
330
4FB
102
}
330
1F
100
AcDbEntity
  8
LC-001-005-----0
 62
     7
370
    25
100
AcDbLine
 10
644.999328
 20
647.199831
 30
0.0
 11
646.921038
 21
649.121541
 31
0.0
  0
DIMENSION
  5
2E6
330
1F
100
AcDbEntity
  8
LC-006-003-----0
 62
     7
370
    25
100
AcDbDimension
  2
*D21
 10
784.0
 20
579.522126
 30
0.0
 11
753.2
 21
546.967
 31
0.0
 70
   160
  1
50
 71
     5
 42
50.127715
 53
90.0
  3
LC-DIM-L-0140-02-02
100
AcDbAlignedDimension
 13
711.41472
 23
629.649841
 33
0.0
 14
707.421038
 24
579.522126
 34
0.0
 50
90.0
100
AcDbRotatedDimension
  0
LINE
  5
2F4
102
{ACAD_REACTORS
330
4FB
102
}
330
1F
100
AcDbEntity
  8
LC-001-005-----0
 62
     7
370
    25
100
AcDbLine
 10
644.921038
 20
649.949968
 30
0.0
 11
646.921038
 21
651.949968
 31
0.0
  0
LINE
  5
2F5
102
{ACAD_REACTORS
330
4FD
102
}
330
1F
100
AcDbEntity
  8
LC-002-002-----0
 62
     7
370
    50
100
AcDbLine
 10
591.921038
 20
655.524983
 30
0.0
 11
591.921038
 21
656.399841
 31
0.0
  0
ARC
  5
2F6
102
{ACAD_REACTORS
330
4F5
102
}
330
1F
100
AcDbEntity
  8
LC-002-002-----0
 62
     7
370
    50
100
AcDbCircle
 10
771.921482
 20
626.7301
 30
0.0
 40
29.58737299402673
100
AcDbArc
 50
238.40507
 51
281.647377
  0
LINE
  5
2F7
102
{ACAD_REACTORS
330
4FB
102
}
330
1F
100
AcDbEntity
  8
LC-001-005-----0
 62
     7
370
    25
100
AcDbLine
 10
644.921038
 20
652.778395
 30
0.0
 11
646.921038
 21
654.778395
 31
0.0
  0
LINE
  5
2F8
102
{ACAD_REACTORS
330
4FB
102
}
330
1F
100
AcDbEntity
  8
LC-001-005-----0
 62
     7
370
    25
100
AcDbLine
 10
643.514047
 20
654.199831
 30
0.0
 11
645.362339
 21
656.048124
 31
0.0
  0
LINE
  5
2F9
102
{ACAD_REACTORS
330
4FB
102
}
330
1F
100
AcDbEntity
  8
LC-001-005-----0
 62
     7
370
    25
100
AcDbLine
 10
640.685619
 20
654.199831
 30
0.0
 11
642.582436
 21
656.096647
 31
0.0
  0
LINE
  5
2FA
102
{ACAD_REACTORS
330
4FB
102
}
330
1F
100
AcDbEntity
  8
LC-001-005-----0
 62
     7
370
    25
100
AcDbLine
 10
637.857192
 20
654.199831
 30
0.0
 11
639.802532
 21
656.14517
 31
0.0
  0
LINE
  5
2FB
102
{ACAD_REACTORS
330
4FB
102
}
330
1F
100
AcDbEntity
  8
LC-001-005-----0
 62
     7
370
    25
100
AcDbLine
 10
633.678775
 20
652.849841
 30
0.0
 11
637.022628
 21
656.193694
 31
0.0
  0
LINE
  5
2FC
102
{ACAD_REACTORS
330
4FB
102
}
330
1F
100
AcDbEntity
  8
LC-001-005-----0
 62
     7
370
    25
100
AcDbLine
 10
630.850348
 20
652.849841
 30
0.0
 11
634.200338
 21
656.199831
 31
0.0
  0
LINE
  5
2FD
102
{ACAD_REACTORS
330
4FB
102
}
330
1F
100
AcDbEntity
  8
LC-001-005-----0
 62
     7
370
    25
100
AcDbLine
 10
628.021921
 20
652.849841
 30
0.0
 11
631.371911
 21
656.199831
 31
0.0
  0
LINE
  5
2FE
102
{ACAD_REACTORS
330
4FB
102
}
330
1F
100
AcDbEntity
  8
LC-001-005-----0
 62
     7
370
    25
100
AcDbLine
 10
625.193494
 20
652.849841
 30
0.0
 11
628.543484
 21
656.199831
 31
0.0
  0
LINE
  5
2FF
102
{ACAD_REACTORS
330
4FB
102
}
330
1F
100
AcDbEntity
  8
LC-001-005-----0
 62
     7
370
    25
100
AcDbLine
 10
622.365067
 20
652.849841
 30
0.0
 11
627.421012
 21
657.905786
 31
0.0
  0
LINE
  5
300
102
{ACAD_REACTORS
330
4FB
102
}
330
1F
100
AcDbEntity
  8
LC-001-005-----0
 62
     7
370
    25
100
AcDbLine
 10
619.53664
 20
652.849841
 30
0.0
 11
627.421012
 21
660.734213
 31
0.0
  0
LINE
  5
301
102
{ACAD_REACTORS
330
4FD
102
}
330
1F
100
AcDbEntity
  8
LC-002-002-----0
 62
     7
370
    50
100
AcDbLine
 10
585.530229
 20
657.189841
 30
0.0
 11
586.021038
 21
657.189841
 31
0.0
  0
LINE
  5
302
102
{ACAD_REACTORS
330
4FD
102
}
330
1F
100
AcDbEntity
  8
LC-002-002-----0
 62
     7
370
    50
100
AcDbLine
 10
589.421038
 20
657.189841
 30
0.0
 11
589.259269
 21
657.470033
 31
0.0
  0
LINE
  5
303
102
{ACAD_REACTORS
330
4FD
102
}
330
1F
100
AcDbEntity
  8
LC-002-002-----0
 62
     7
370
    50
100
AcDbLine
 10
584.172149
 20
654.985121
 30
0.0
 11
584.564304
 21
656.44866
 31
0.0
  0
LINE
  5
304
102
{ACAD_REACTORS
330
4FD
102
}
330
1F
100
AcDbEntity
  8
LC-002-002-----0
 62
     7
370
    50
100
AcDbLine
 10
590.561038
 20
656.669841
 30
0.0
 11
590.561038
 21
657.189841
 31
0.0
  0
LINE
  5
305
102
{ACAD_REACTORS
330
4FD
102
}
330
1F
100
AcDbEntity
  8
LC-002-002-----0
 62
     7
370
    50
100
AcDbLine
 10
588.021038
 20
657.189841
 30
0.0
 11
588.821038
 21
657.189841
 31
0.0
  0
LINE
  5
306
102
{ACAD_REACTORS
330
4FD
102
}
330
1F
100
AcDbEntity
  8
LC-002-002-----0
 62
     7
370
    50
100
AcDbLine
 10
586.621038
 20
657.189841
 30
0.0
 11
586.459269
 21
657.470033
 31
0.0
  0
ARC
  5
307
102
{ACAD_REACTORS
330
4FD
102
}
330
1F
100
AcDbEntity
  8
LC-002-002-----0
 62
     7
370
    50
100
AcDbCircle
 10
586.321038
 20
657.390226
 30
0.0
 40
0.1596152422703834
100
AcDbArc
 50
30.0
 51
150.0
  0
LINE
  5
308
102
{ACAD_REACTORS
330
4FD
102
}
330
1F
100
AcDbEntity
  8
LC-002-002-----0
 62
     7
370
    50
100
AcDbLine
 10
586.021038
 20
657.189841
 30
0.0
 11
586.182807
 21
657.470033
 31
0.0
  0
LINE
  5
309
102
{ACAD_REACTORS
330
4FD
102
}
330
1F
100
AcDbEntity
  8
LC-002-002-----0
 62
     7
370
    50
100
AcDbLine
 10
588.021038
 20
657.189841
 30
0.0
 11
587.859269
 21
657.470033
 31
0.0
  0
LINE
  5
30A
102
{ACAD_REACTORS
330
4FD
102
}
330
1F
100
AcDbEntity
  8
LC-002-002-----0
 62
     7
370
    50
100
AcDbLine
 10
591.343057
 20
654.181101
 30
0.0
 11
589.392372
 21
654.489104
 31
0.0
  0
ARC
  5
30B
102
{ACAD_REACTORS
330
4FD
102
}
330
1F
100
AcDbEntity
  8
LC-002-002-----0
 62
     7
370
    50
100
AcDbCircle
 10
587.721038
 20
657.390226
 30
0.0
 40
0.1596152422705804
100
AcDbArc
 50
30.0
 51
150.0
  0
ARC
  5
30C
102
{ACAD_REACTORS
330
4FD
102
}
330
1F
100
AcDbEntity
  8
LC-003-002-RND-0
 62
     7
370
    50
100
AcDbCircle
 10
589.345583
 20
654.192775
 30
0.0
 40
0.3000000000000149
100
AcDbArc
 50
81.027373
 51
200.840919
  0
LINE
  5
30D
102
{ACAD_REACTORS
330
4FD
102
}
330
1F
100
AcDbEntity
  8
LC-002-002-----0
 62
     7
370
    50
100
AcDbLine
 10
587.421038
 20
657.189841
 30
0.0
 11
587.582807
 21
657.470033
 31
0.0
  0
LINE
  5
30E
102
{ACAD_REACTORS
330
4FD
102
}
330
1F
100
AcDbEntity
  8
LC-002-002-----0
 62
     7
370
    50
100
AcDbLine
 10
591.921038
 20
655.549841
 30
0.0
 11
591.6802
 21
656.44866
 31
0.0
  0
LINE
  5
30F
102
{ACAD_REACTORS
330
4FD
102
}
330
1F
100
AcDbEntity
  8
LC-002-002-----0
 62
     7
370
    50
100
AcDbLine
 10
586.621038
 20
657.189841
 30
0.0
 11
587.421038
 21
657.189841
 31
0.0
  0
LINE
  5
310
102
{ACAD_REACTORS
330
4FD
102
}
330
1F
100
AcDbEntity
  8
LC-002-002-----0
 62
     7
370
    50
100
AcDbLine
 10
589.421038
 20
657.189841
 30
0.0
 11
589.761038
 21
657.189841
 31
0.0
  0
ARC
  5
311
102
{ACAD_REACTORS
330
4FD
102
}
330
1F
100
AcDbEntity
  8
LC-002-002-----0
 62
     7
370
    50
100
AcDbCircle
 10
589.121038
 20
657.390226
 30
0.0
 40
0.1596152422703834
100
AcDbArc
 50
30.0
 51
150.0
  0
LINE
  5
312
102
{ACAD_REACTORS
330
4FD
102
}
330
1F
100
AcDbEntity
  8
LC-002-002-----0
 62
     7
370
    50
100
AcDbLine
 10
590.561038
 20
657.189841
 30
0.0
 11
590.714274
 21
657.189841
 31
0.0
  0
ARC
  5
313
102
{ACAD_REACTORS
330
4FD
102
}
330
1F
100
AcDbEntity
  8
LC-003-002-RND-0
 62
     7
370
    50
100
AcDbCircle
 10
589.4996
 20
651.539577
 30
0.0
 40
0.500000000000085
100
AcDbArc
 50
243.434949
 51
20.840919
  0
LINE
  5
314
102
{ACAD_REACTORS
330
4FD
102
}
330
1F
100
AcDbEntity
  8
LC-002-002-----0
 62
     7
370
    50
100
AcDbLine
 10
588.821038
 20
657.189841
 30
0.0
 11
588.982807
 21
657.470033
 31
0.0
  0
LINE
  5
315
102
{ACAD_REACTORS
330
4FD
102
}
330
1F
100
AcDbEntity
  8
LC-002-002-----0
 62
     7
370
    50
100
AcDbLine
 10
589.966886
 20
651.717464
 30
0.0
 11
589.065211
 21
654.086043
 31
0.0
  0
INSERT
  5
326
102
{ACAD_REACTORS
330
4FD
102
}
330
1F
100
AcDbEntity
  8
LC-001-005-----0
 62
     7
370
    25
100
AcDbBlockReference
  2
*X1222
 10
0.0
 20
0.0
 30
0.0
  0
LINE
  5
327
102
{ACAD_REACTORS
330
4FD
102
}
330
1F
100
AcDbEntity
  8
LC-002-002-----0
 62
     7
370
    50
100
AcDbLine
 10
589.761038
 20
656.669841
 30
0.0
 11
590.561038
 21
656.669841
 31
0.0
  0
ARC
  5
328
102
{ACAD_REACTORS
330
4FD
102
}
330
1F
100
AcDbEntity
  8
LC-003-002-RND-0
 62
     7
370
    50
100
AcDbCircle
 10
590.714274
 20
656.189841
 30
0.0
 40
0.9999999999998402
100
AcDbArc
 50
15.0
 51
90.0
  0
ARC
  5
329
102
{ACAD_REACTORS
330
4FD
102
}
330
1F
100
AcDbEntity
  8
LC-003-002-RND-0
 62
     7
370
    50
100
AcDbCircle
 10
585.621038
 20
654.596892
 30
0.0
 40
1.500000000000061
100
AcDbArc
 50
165.0
 51
243.434949
  0
ARC
  5
32A
102
{ACAD_REACTORS
330
4FD
102
}
330
1F
100
AcDbEntity
  8
LC-003-002-RND-0
 62
     7
370
    50
100
AcDbCircle
 10
585.530229
 20
656.189841
 30
0.0
 40
1.0
100
AcDbArc
 50
90.0
 51
165.0
  0
LINE
  5
32B
102
{ACAD_REACTORS
330
4FD
102
}
330
1F
100
AcDbEntity
  8
LC-002-002-----0
 62
     7
370
    50
100
AcDbLine
 10
589.761038
 20
656.669841
 30
0.0
 11
589.761038
 21
657.189841
 31
0.0
  0
ARC
  5
32C
102
{ACAD_REACTORS
330
4FD
102
}
330
1F
100
AcDbEntity
  8
LC-003-002-RND-0
 62
     7
370
    50
100
AcDbCircle
 10
591.421038
 20
654.674983
 30
0.0
 40
0.4999999999998632
100
AcDbArc
 50
261.027373
 51
0.0
  0
LINE
  5
32D
102
{ACAD_REACTORS
330
4FD
102
}
330
1F
100
AcDbEntity
  8
LC-002-002-----0
 62
     7
370
    50
100
AcDbLine
 10
584.950218
 20
653.255251
 30
0.0
 11
589.275993
 21
651.092363
 31
0.0
  0
LINE
  5
32E
102
{ACAD_REACTORS
330
4FB
102
}
330
1F
100
AcDbEntity
  8
LC-001-005-----0
 62
     7
370
    25
100
AcDbLine
 10
616.708213
 20
652.849841
 30
0.0
 11
617.558202
 21
653.699831
 31
0.0
  0
LINE
  5
32F
102
{ACAD_REACTORS
330
4FB
102
}
330
1F
100
AcDbEntity
  8
LC-001-005-----0
 62
     7
370
    25
100
AcDbLine
 10
619.920549
 20
656.062177
 30
0.0
 11
627.421012
 21
663.56264
 31
0.0
  0
LINE
  5
330
102
{ACAD_REACTORS
330
4FB
102
}
330
1F
100
AcDbEntity
  8
LC-001-005-----0
 62
     7
370
    25
100
AcDbLine
 10
613.879785
 20
652.849841
 30
0.0
 11
614.920549
 21
653.890604
 31
0.0
  0
LINE
  5
331
102
{ACAD_REACTORS
330
4FB
102
}
330
1F
100
AcDbEntity
  8
LC-001-005-----0
 62
     7
370
    25
100
AcDbLine
 10
619.920549
 20
658.890604
 30
0.0
 11
627.421012
 21
666.391068
 31
0.0
  0
LINE
  5
332
102
{ACAD_REACTORS
330
4FB
102
}
330
1F
100
AcDbEntity
  8
LC-001-005-----0
 62
     7
370
    25
100
AcDbLine
 10
611.051358
 20
652.849841
 30
0.0
 11
614.920549
 21
656.719031
 31
0.0
  0
LINE
  5
333
102
{ACAD_REACTORS
330
4FB
102
}
330
1F
100
AcDbEntity
  8
LC-001-005-----0
 62
     7
370
    25
100
AcDbLine
 10
619.920549
 20
661.719031
 30
0.0
 11
626.901348
 21
668.699831
 31
0.0
  0
LINE
  5
334
102
{ACAD_REACTORS
330
4FB
102
}
330
1F
100
AcDbEntity
  8
LC-001-005-----0
 62
     7
370
    25
100
AcDbLine
 10
608.222931
 20
652.849841
 30
0.0
 11
610.072931
 21
654.699841
 31
0.0
  0
LINE
  5
335
102
{ACAD_REACTORS
330
4FB
102
}
330
1F
100
AcDbEntity
  8
LC-001-005-----0
 62
     7
370
    25
100
AcDbLine
 10
611.420516
 20
656.047426
 30
0.0
 11
614.920549
 21
659.547458
 31
0.0
  0
LINE
  5
336
102
{ACAD_REACTORS
330
4FB
102
}
330
1F
100
AcDbEntity
  8
LC-001-005-----0
 62
     7
370
    25
100
AcDbLine
 10
619.920549
 20
664.547458
 30
0.0
 11
622.659896
 21
667.286806
 31
0.0
  0
LINE
  5
337
102
{ACAD_REACTORS
330
4FB
102
}
330
1F
100
AcDbEntity
  8
LC-001-005-----0
 62
     7
370
    25
100
AcDbLine
 10
623.421038
 20
668.047948
 30
0.0
 11
624.072621
 21
668.699531
 31
0.0
  0
LINE
  5
338
102
{ACAD_REACTORS
330
4FB
102
}
330
1F
100
AcDbEntity
  8
LC-001-005-----0
 62
     7
370
    25
100
AcDbLine
 10
624.421012
 20
669.047922
 30
0.0
 11
626.421012
 21
671.047922
 31
0.0
  0
LINE
  5
339
102
{ACAD_REACTORS
330
4FB
102
}
330
1F
100
AcDbEntity
  8
LC-001-005-----0
 62
     7
370
    25
100
AcDbLine
 10
605.394504
 20
652.849841
 30
0.0
 11
607.244504
 21
654.699841
 31
0.0
  0
LINE
  5
33A
330
1F
100
AcDbEntity
  8
LC-002-002-----0
 62
     7
370
    50
100
AcDbLine
 10
752.421124
 20
667.700521
 30
0.0
 11
760.421124
 21
667.700521
 31
0.0
  0
LINE
  5
33B
102
{ACAD_REACTORS
330
4FB
102
}
330
1F
100
AcDbEntity
  8
LC-001-005-----0
 62
     7
370
    25
100
AcDbLine
 10
611.420516
 20
658.875853
 30
0.0
 11
614.920549
 21
662.375886
 31
0.0
  0
LINE
  5
33C
102
{ACAD_REACTORS
330
4FB
102
}
330
1F
100
AcDbEntity
  8
LC-001-005-----0
 62
     7
370
    25
100
AcDbLine
 10
602.566077
 20
652.849841
 30
0.0
 11
604.416077
 21
654.699841
 31
0.0
  0
LINE
  5
33D
102
{ACAD_REACTORS
330
4FB
102
}
330
1F
100
AcDbEntity
  8
LC-001-005-----0
 62
     7
370
    25
100
AcDbLine
 10
610.916757
 20
661.200521
 30
0.0
 11
614.920549
 21
665.204313
 31
0.0
  0
LINE
  5
33E
102
{ACAD_REACTORS
330
4FB
102
}
330
1F
100
AcDbEntity
  8
LC-001-005-----0
 62
     7
370
    25
100
AcDbLine
 10
599.73765
 20
652.849841
 30
0.0
 11
601.58765
 21
654.699841
 31
0.0
  0
LINE
  5
33F
102
{ACAD_REACTORS
330
4FB
102
}
330
1F
100
AcDbEntity
  8
LC-001-005-----0
 62
     7
370
    25
100
AcDbLine
 10
608.08833
 20
661.200521
 30
0.0
 11
610.58833
 21
663.700521
 31
0.0
  0
LINE
  5
340
102
{ACAD_REACTORS
330
4FB
102
}
330
1F
100
AcDbEntity
  8
LC-001-005-----0
 62
     7
370
    25
100
AcDbLine
 10
611.421038
 20
664.533229
 30
0.0
 11
614.08833
 21
667.200521
 31
0.0
  0
LINE
  5
341
102
{ACAD_REACTORS
330
4FB
102
}
330
1F
100
AcDbEntity
  8
LC-001-005-----0
 62
     7
370
    25
100
AcDbLine
 10
596.909223
 20
652.849841
 30
0.0
 11
598.759223
 21
654.699841
 31
0.0
  0
LINE
  5
342
330
1F
100
AcDbEntity
  8
LC-002-002-----0
 62
     7
370
    50
100
AcDbLine
 10
871.421482
 20
598.2301
 30
0.0
 11
871.421482
 21
658.2301
 31
0.0
  0
LINE
  5
343
102
{ACAD_REACTORS
330
4FB
102
}
330
1F
100
AcDbEntity
  8
LC-001-005-----0
 62
     7
370
    25
100
AcDbLine
 10
605.259903
 20
661.200521
 30
0.0
 11
607.759903
 21
663.700521
 31
0.0
  0
LINE
  5
344
102
{ACAD_REACTORS
330
4FB
102
}
330
1F
100
AcDbEntity
  8
LC-001-005-----0
 62
     7
370
    25
100
AcDbLine
 10
594.080796
 20
652.849841
 30
0.0
 11
595.930796
 21
654.699841
 31
0.0
  0
LINE
  5
345
102
{ACAD_REACTORS
330
4FB
102
}
330
1F
100
AcDbEntity
  8
LC-001-005-----0
 62
     7
370
    25
100
AcDbLine
 10
603.425996
 20
662.195042
 30
0.0
 11
604.931476
 21
663.700521
 31
0.0
  0
LINE
  5
346
102
{ACAD_REACTORS
330
4FB
102
}
330
1F
100
AcDbEntity
  8
LC-001-005-----0
 62
     7
370
    25
100
AcDbLine
 10
591.921038
 20
653.518511
 30
0.0
 11
594.390518
 21
655.987991
 31
0.0
  0
LINE
  5
347
330
1F
100
AcDbEntity
  8
LC-002-002-----0
 62
     7
370
    50
100
AcDbLine
 10
745.42115
 20
654.200521
 30
0.0
 11
745.42115
 21
648.7301
 31
0.0
  0
LINE
  5
348
102
{ACAD_REACTORS
330
4FB
102
}
330
1F
100
AcDbEntity
  8
LC-001-005-----0
 62
     7
370
    25
100
AcDbLine
 10
602.011782
 20
663.609255
 30
0.0
 11
604.420516
 21
666.017989
 31
0.0
  0
LINE
  5
349
102
{ACAD_REACTORS
330
4FB
102
}
330
1F
100
AcDbEntity
  8
LC-001-005-----0
 62
     7
370
    25
100
AcDbLine
 10
591.921038
 20
656.346938
 30
0.0
 11
593.13344
 21
657.559339
 31
0.0
  0
ARC
  5
34A
330
1F
100
AcDbEntity
  8
LC-002-002-----0
 62
     7
370
    50
100
AcDbCircle
 10
771.921482
 20
626.7301
 30
0.0
 40
29.60000000000012
100
AcDbArc
 50
75.423528
 51
104.187628
  0
LINE
  5
34B
330
1F
100
AcDbEntity
  8
LC-002-002-----0
 62
     7
370
    50
100
AcDbLine
 10
712.74219
 20
629.145776
 30
0.0
 11
739.505589
 21
607.584585
 31
0.0
  0
LINE
  5
34C
330
1F
100
AcDbEntity
  8
LC-002-002-----0
 62
     7
370
    50
100
AcDbLine
 10
712.41472
 20
625.66267
 30
0.0
 11
738.26733
 21
605.298206
 31
0.0
  0
ARC
  5
34D
330
1F
100
AcDbEntity
  8
LC-003-002-RND-0
 62
     7
370
    50
100
AcDbCircle
 10
746.501417
 20
614.7301
 30
0.0
 40
10.00000000000011
100
AcDbArc
 50
225.606456
 51
270.0
  0
ARC
  5
34E
330
1F
100
AcDbEntity
  8
LC-003-002-RND-0
 62
     7
370
    50
100
AcDbCircle
 10
747.012116
 20
614.2301
 30
0.0
 40
12.49999999999998
100
AcDbArc
 50
225.606456
 51
232.606464
  0
LINE
  5
34F
330
1F
100
AcDbEntity
  8
LC-002-002-----0
 62
     7
370
    50
100
AcDbLine
 10
739.421038
 20
604.299061
 30
0.0
 11
739.421038
 21
555.699676
 31
0.0
  0
LINE
  5
350
330
1F
100
AcDbEntity
  8
LC-002-002-----0
 62
     7
370
    50
100
AcDbLine
 10
742.421038
 20
602.60375
 30
0.0
 11
742.421038
 21
555.699676
 31
0.0
  0
LINE
  5
351
330
1F
100
AcDbEntity
  8
LC-002-002-----0
 62
     7
370
    50
100
AcDbLine
 10
739.421038
 20
555.699676
 30
0.0
 11
742.421038
 21
555.699676
 31
0.0
  0
LINE
  5
352
330
1F
100
AcDbEntity
  8
LC-002-002-----0
 62
     7
370
    50
100
AcDbLine
 10
739.421038
 20
555.699676
 30
0.0
 11
699.41472
 21
555.699676
 31
0.0
  0
ARC
  5
353
330
1F
100
AcDbEntity
  8
LC-002-002-----0
 62
     7
370
    50
100
AcDbCircle
 10
771.921482
 20
626.7301
 30
0.0
 40
29.60000000000019
100
AcDbArc
 50
290.717092
 51
308.629598
  0
ARC
  5
354
330
1F
100
AcDbEntity
  8
LC-003-002-RND-0
 62
     7
370
    50
100
AcDbCircle
 10
747.012116
 20
614.2301
 30
0.0
 40
12.50000000000001
100
AcDbArc
 50
248.451652
 51
270.0
  0
LINE
  5
355
330
1F
100
AcDbEntity
  8
LC-002-002-----0
  6
DASHED
 62
     7
370
    25
100
AcDbLine
 10
837.166708
 20
638.423259
 30
0.0
 11
875.407445
 21
628.506491
 31
0.0
  0
ARC
  5
356
330
1F
100
AcDbEntity
  8
LC-003-002-RND-0
  6
DASHED
 62
     7
370
    25
100
AcDbCircle
 10
756.998745
 20
600.015461
 30
0.0
 40
1.000000000000052
100
AcDbArc
 50
60.812372
 51
165.0
  0
LINE
  5
357
330
1F
100
AcDbEntity
  8
LC-002-002-----0
  6
DASHED
 62
     7
370
    25
100
AcDbLine
 10
755.299494
 20
597.537473
 30
0.0
 11
771.389406
 21
657.585843
 31
0.0
  0
LINE
  5
358
330
1F
100
AcDbEntity
  8
LC-002-002-----0
 62
     7
370
    50
100
AcDbLine
 10
871.421482
 20
595.2301
 30
0.0
 11
871.421482
 21
598.2301
 31
0.0
  0
LINE
  5
359
330
1F
100
AcDbEntity
  8
LC-002-002-----0
  6
DASHED
 62
     7
370
    25
100
AcDbLine
 10
763.509863
 20
595.337511
 30
0.0
 11
755.299494
 21
597.537473
 31
0.0
  0
LINE
  5
35A
330
1F
100
AcDbEntity
  8
LC-002-002-----0
 62
     7
370
    50
100
AcDbLine
 10
604.420516
 20
667.200521
 30
0.0
 11
611.421038
 21
667.200521
 31
0.0
  0
ARC
  5
35B
330
1F
100
AcDbEntity
  8
LC-002-002-----0
  6
DASHED
 62
     7
370
    25
100
AcDbCircle
 10
771.921482
 20
626.7301
 30
0.0
 40
32.49999999999992
100
AcDbArc
 50
255.0
 51
285.510237
  0
LINE
  5
35C
330
1F
100
AcDbEntity
  8
LC-002-002-----0
  6
DASHED
 62
     7
370
    25
100
AcDbLine
 10
818.766395
 20
585.19031
 30
0.0
 11
780.612325
 21
595.413663
 31
0.0
  0
ARC
  5
35D
330
1F
100
AcDbEntity
  8
LC-003-002-RND-0
 62
     7
370
    50
100
AcDbCircle
 10
830.921482
 20
660.7301
 30
0.0
 40
0.5
100
AcDbArc
 50
0.0
 51
90.0
  0
LINE
  5
35E
330
1F
100
AcDbEntity
  8
LC-002-002-----0
 62
     7
370
    50
100
AcDbLine
 10
770.42156
 20
667.200521
 30
0.0
 11
763.421038
 21
667.200521
 31
0.0
  0
ARC
  5
35F
330
1F
100
AcDbEntity
  8
LC-003-002-RND-0
 62
     7
370
    50
100
AcDbCircle
 10
827.921482
 20
598.2301
 30
0.0
 40
0.5
100
AcDbArc
 50
0.0
 51
90.0
  0
INSERT
  5
38C
330
1F
100
AcDbEntity
  8
LC-001-005-----0
 62
     7
370
    25
100
AcDbBlockReference
  2
*X1323
 10
0.0
 20
0.0
 30
0.0
  0
LINE
  5
38D
330
1F
100
AcDbEntity
  8
LC-002-002-----0
 62
     7
370
    50
100
AcDbLine
 10
828.921482
 20
661.2301
 30
0.0
 11
830.921482
 21
661.2301
 31
0.0
  0
ARC
  5
38E
330
1F
100
AcDbEntity
  8
LC-003-002-RND-0
 62
     7
370
    50
100
AcDbCircle
 10
827.921482
 20
655.2301
 30
0.0
 40
0.5
100
AcDbArc
 50
270.0
 51
0.0
  0
LINE
  5
38F
330
1F
100
AcDbEntity
  8
LC-002-002-----0
 62
     7
370
    50
100
AcDbLine
 10
751.421038
 20
668.700521
 30
0.0
 11
751.421038
 21
667.200521
 31
0.0
  0
LINE
  5
390
330
1F
100
AcDbEntity
  8
LC-002-002-----0
 62
     7
370
    50
100
AcDbLine
 10
623.421038
 20
668.699831
 30
0.0
 11
623.421038
 21
667.200521
 31
0.0
  0
ARC
  5
391
330
1F
100
AcDbEntity
  8
LC-003-002-RND-0
 62
     7
370
    50
100
AcDbCircle
 10
828.921482
 20
595.7301
 30
0.0
 40
0.5
100
AcDbArc
 50
180.0
 51
270.0
  0
LINE
  5
392
330
1F
100
AcDbEntity
  8
LC-002-002-----0
 62
     7
370
    50
100
AcDbLine
 10
574.421549
 20
673.671504
 30
0.0
 11
800.354785
 21
673.671504
 31
0.0
  0
ARC
  5
393
330
1F
100
AcDbEntity
  8
LC-003-002-RND-0
 62
     7
370
    50
100
AcDbCircle
 10
831.921482
 20
599.04865
 30
0.0
 40
0.5
100
AcDbArc
 50
180.0
 51
269.5
  0
LINE
  5
394
330
1F
100
AcDbEntity
  8
LC-002-002-----0
 62
     7
370
    50
100
AcDbLine
 10
831.917119
 20
654.911531
 30
0.0
 11
871.421482
 21
655.2301
 31
0.0
  0
LINE
  5
395
330
1F
100
AcDbEntity
  8
LC-002-002-----0
  6
DASHED
 62
     7
370
    25
100
AcDbLine
 10
818.472901
 20
582.163123
 30
0.0
 11
819.119948
 21
584.577938
 31
0.0
  0
LINE
  5
396
330
1F
100
AcDbEntity
  8
LC-002-002-----0
 62
     7
370
    50
100
AcDbLine
 10
831.421482
 20
601.7301
 30
0.0
 11
831.421482
 21
626.7301
 31
0.0
  0
LINE
  5
397
102
{ACAD_REACTORS
330
4FB
102
}
330
1F
100
AcDbEntity
  8
LC-001-005-----0
 62
     7
370
    25
100
AcDbLine
 10
599.86694
 20
664.29284
 30
0.0
 11
602.774622
 21
667.200521
 31
0.0
  0
LINE
  5
398
102
{ACAD_REACTORS
330
4FB
102
}
330
1F
100
AcDbEntity
  8
LC-001-005-----0
 62
     7
370
    25
100
AcDbLine
 10
590.295514
 20
657.549841
 30
0.0
 11
591.876361
 21
659.130688
 31
0.0
  0
LINE
  5
399
330
1F
100
AcDbEntity
  8
LC-002-002-----0
 62
     7
370
    50
100
AcDbLine
 10
831.421482
 20
651.7301
 30
0.0
 11
831.421482
 21
626.7301
 31
0.0
  0
LINE
  5
39A
330
1F
100
AcDbEntity
  8
LC-002-002-----0
 62
     7
370
    50
100
AcDbLine
 10
793.400482
 20
603.606637
 30
0.0
 11
793.400482
 21
649.853563
 31
0.0
  0
ARC
  5
39B
330
1F
100
AcDbEntity
  8
LC-003-002-RND-0
 62
     7
370
    50
100
AcDbCircle
 10
831.921482
 20
654.41155
 30
0.0
 40
0.5000000000000884
100
AcDbArc
 50
90.5
 51
180.0
  0
LINE
  5
39C
330
1F
100
AcDbEntity
  8
LC-002-002-----0
 62
     7
370
    50
100
AcDbLine
 10
871.421482
 20
656.2301
 30
0.0
 11
871.421482
 21
655.2301
 31
0.0
  0
LINE
  5
39D
102
{ACAD_REACTORS
330
4FB
102
}
330
1F
100
AcDbEntity
  8
LC-001-005-----0
 62
     7
370
    25
100
AcDbLine
 10
597.70089
 20
664.955217
 30
0.0
 11
600.525667
 21
667.779994
 31
0.0
  0
LINE
  5
39E
330
1F
100
AcDbEntity
  8
LC-002-002-----0
 62
     7
370
    50
100
AcDbLine
 10
581.421038
 20
608.699841
 30
0.0
 11
577.421038
 21
608.699841
 31
0.0
  0
LINE
  5
39F
330
1F
100
AcDbEntity
  8
LC-002-002-----0
 62
     7
370
    50
100
AcDbLine
 10
624.421012
 20
668.699371
 30
0.0
 11
624.421012
 21
671.699831
 31
0.0
  0
LINE
  5
3A0
330
1F
100
AcDbEntity
  8
LC-002-002-----0
 62
     7
370
    50
100
AcDbLine
 10
794.391756
 20
602.05307
 30
0.0
 11
831.421482
 21
601.7301
 31
0.0
  0
LINE
  5
3A1
330
1F
100
AcDbEntity
  8
LC-002-002-----0
 62
     7
370
    50
100
AcDbLine
 10
584.421038
 20
605.699841
 30
0.0
 11
591.421038
 21
605.699841
 31
0.0
  0
ARC
  5
3A2
330
1F
100
AcDbEntity
  8
LC-003-002-RND-0
 62
     7
370
    50
100
AcDbCircle
 10
584.421038
 20
608.699841
 30
0.0
 40
3.0
100
AcDbArc
 50
180.0
 51
270.0
  0
LINE
  5
3A3
330
1F
100
AcDbEntity
  8
LC-002-002-----0
 62
     7
370
    50
100
AcDbLine
 10
595.421038
 20
610.699841
 30
0.0
 11
591.421038
 21
605.699841
 31
0.0
  0
LINE
  5
3A4
330
1F
100
AcDbEntity
  8
LC-002-002-----0
 62
     7
370
    50
100
AcDbLine
 10
595.421038
 20
610.699841
 30
0.0
 11
632.421038
 21
610.699841
 31
0.0
  0
LINE
  5
3A5
330
1F
100
AcDbEntity
  8
LC-002-002-----0
 62
     7
370
    50
100
AcDbLine
 10
577.421038
 20
610.199841
 30
0.0
 11
577.421038
 21
608.699841
 31
0.0
  0
LINE
  5
3A6
330
1F
100
AcDbEntity
  8
LC-002-002-----0
 62
     7
370
    50
100
AcDbLine
 10
577.421038
 20
610.199841
 30
0.0
 11
577.421038
 21
632.699841
 31
0.0
  0
LINE
  5
3A7
330
1F
100
AcDbEntity
  8
LC-002-002-----0
 62
     7
370
    50
100
AcDbLine
 10
582.421038
 20
610.199841
 30
0.0
 11
582.421038
 21
632.699841
 31
0.0
  0
LINE
  5
3A8
330
1F
100
AcDbEntity
  8
LC-002-002-----0
 62
     7
370
    50
100
AcDbLine
 10
591.921038
 20
612.549841
 30
0.0
 11
591.921038
 21
632.699841
 31
0.0
  0
LINE
  5
3A9
330
1F
100
AcDbEntity
  8
LC-002-002-----0
 62
     7
370
    50
100
AcDbLine
 10
831.421482
 20
658.2301
 30
0.0
 11
871.421482
 21
658.2301
 31
0.0
  0
LINE
  5
3AA
330
1F
100
AcDbEntity
  8
LC-002-002-----0
 62
     7
370
    50
100
AcDbLine
 10
577.421038
 20
610.199841
 30
0.0
 11
582.421038
 21
610.199841
 31
0.0
  0
LINE
  5
3AB
330
1F
100
AcDbEntity
  8
LC-002-002-----0
 62
     7
370
    50
100
AcDbLine
 10
582.421038
 20
610.199841
 30
0.0
 11
584.771038
 21
607.849841
 31
0.0
  0
LINE
  5
3AC
330
1F
100
AcDbEntity
  8
LC-002-002-----0
 62
     7
370
    50
100
AcDbLine
 10
584.771038
 20
607.849841
 30
0.0
 11
590.921038
 21
607.849841
 31
0.0
  0
ARC
  5
3AD
330
1F
100
AcDbEntity
  8
LC-002-002-----0
 62
     7
370
    50
100
AcDbCircle
 10
590.921038
 20
608.849841
 30
0.0
 40
1.0
100
AcDbArc
 50
270.0
 51
0.0
  0
LINE
  5
3AE
330
1F
100
AcDbEntity
  8
LC-002-002-----0
 62
     7
370
    50
100
AcDbLine
 10
591.921038
 20
612.549841
 30
0.0
 11
591.921038
 21
608.849841
 31
0.0
  0
LINE
  5
3AF
330
1F
100
AcDbEntity
  8
LC-002-002-----0
 62
     7
370
    50
100
AcDbLine
 10
591.921038
 20
612.549841
 30
0.0
 11
635.421038
 21
612.549841
 31
0.0
  0
LINE
  5
3B0
330
1F
100
AcDbEntity
  8
LC-002-002-----0
 62
     7
370
    50
100
AcDbLine
 10
591.921038
 20
652.849841
 30
0.0
 11
631.921038
 21
652.849841
 31
0.0
  0
LINE
  5
3B1
330
1F
100
AcDbEntity
  8
LC-002-002-----0
 62
     7
370
    50
100
AcDbLine
 10
591.921038
 20
652.849841
 30
0.0
 11
591.921038
 21
656.549841
 31
0.0
  0
ARC
  5
3B2
330
1F
100
AcDbEntity
  8
LC-002-002-----0
 62
     7
370
    50
100
AcDbCircle
 10
590.921038
 20
656.549841
 30
0.0
 40
1.0
100
AcDbArc
 50
0.0
 51
90.0
  0
LINE
  5
3B3
330
1F
100
AcDbEntity
  8
LC-002-002-----0
 62
     7
370
    50
100
AcDbLine
 10
584.771038
 20
657.549841
 30
0.0
 11
590.921038
 21
657.549841
 31
0.0
  0
LINE
  5
3B4
330
1F
100
AcDbEntity
  8
LC-002-002-----0
 62
     7
370
    50
100
AcDbLine
 10
582.421038
 20
655.199841
 30
0.0
 11
584.771038
 21
657.549841
 31
0.0
  0
LINE
  5
3B5
330
1F
100
AcDbEntity
  8
LC-002-002-----0
 62
     7
370
    50
100
AcDbLine
 10
577.421038
 20
655.199841
 30
0.0
 11
582.421038
 21
655.199841
 31
0.0
  0
LINE
  5
3B6
330
1F
100
AcDbEntity
  8
LC-002-002-----0
 62
     7
370
    50
100
AcDbLine
 10
582.421038
 20
655.199841
 30
0.0
 11
582.421038
 21
632.699841
 31
0.0
  0
LINE
  5
3B7
330
1F
100
AcDbEntity
  8
LC-002-002-----0
 62
     7
370
    50
100
AcDbLine
 10
577.421038
 20
655.199841
 30
0.0
 11
577.421038
 21
632.699841
 31
0.0
  0
LINE
  5
3B8
330
1F
100
AcDbEntity
  8
LC-002-002-----0
 62
     7
370
    50
100
AcDbLine
 10
591.921038
 20
655.760206
 30
0.0
 11
591.921038
 21
632.699841
 31
0.0
  0
LINE
  5
3B9
330
1F
100
AcDbEntity
  8
LC-002-002-----0
 62
     7
370
    50
100
AcDbLine
 10
577.421038
 20
655.199841
 30
0.0
 11
577.421038
 21
656.699841
 31
0.0
  0
LINE
  5
3BA
330
1F
100
AcDbEntity
  8
LC-002-002-----0
 62
     7
370
    50
100
AcDbLine
 10
831.917119
 20
598.548669
 30
0.0
 11
871.421482
 21
598.2301
 31
0.0
  0
LINE
  5
3BB
330
1F
100
AcDbEntity
  8
LC-002-002-----0
 62
     7
370
    50
100
AcDbLine
 10
794.391756
 20
651.40713
 30
0.0
 11
831.421482
 21
651.7301
 31
0.0
  0
LINE
  5
3BC
102
{ACAD_REACTORS
330
4FB
102
}
330
1F
100
AcDbEntity
  8
LC-001-005-----0
 62
     7
370
    25
100
AcDbLine
 10
587.467087
 20
657.549841
 30
0.0
 11
589.617087
 21
659.699841
 31
0.0
  0
ARC
  5
3BD
330
1F
100
AcDbEntity
  8
LC-003-002-RND-0
 62
     7
370
    50
100
AcDbCircle
 10
711.41472
 20
627.649841
 30
0.0
 40
2.000000000000003
100
AcDbArc
 50
48.414637
 51
180.0
  0
LINE
  5
3BE
102
{ACAD_REACTORS
330
4FB
102
}
330
1F
100
AcDbEntity
  8
LC-001-005-----0
 62
     7
370
    25
100
AcDbLine
 10
595.534839
 20
665.617593
 30
0.0
 11
598.359503
 21
668.442257
 31
0.0
  0
ARC
  5
3BF
330
1F
100
AcDbEntity
  8
LC-003-002-RND-0
 62
     7
370
    50
100
AcDbCircle
 10
828.921482
 20
660.7301
 30
0.0
 40
0.5
100
AcDbArc
 50
90.0
 51
180.0
  0
LINE
  5
3C0
102
{ACAD_REACTORS
330
4FB
102
}
330
1F
100
AcDbEntity
  8
LC-001-005-----0
 62
     7
370
    25
100
AcDbLine
 10
582.28866
 20
655.199841
 30
0.0
 11
586.78866
 21
659.699841
 31
0.0
  0
LINE
  5
3C1
102
{ACAD_REACTORS
330
4FB
102
}
330
1F
100
AcDbEntity
  8
LC-001-005-----0
 62
     7
370
    25
100
AcDbLine
 10
593.368789
 20
666.27997
 30
0.0
 11
596.193339
 21
669.10452
 31
0.0
  0
LINE
  5
3C2
102
{ACAD_REACTORS
330
4FB
102
}
330
1F
100
AcDbEntity
  8
LC-001-005-----0
 62
     7
370
    25
100
AcDbLine
 10
579.460233
 20
655.199841
 30
0.0
 11
580.960233
 21
656.699841
 31
0.0
  0
LINE
  5
3C3
102
{ACAD_REACTORS
330
4FB
102
}
330
1F
100
AcDbEntity
  8
LC-001-005-----0
 62
     7
370
    25
100
AcDbLine
 10
581.463563
 20
657.203171
 30
0.0
 11
583.917708
 21
659.657316
 31
0.0
  0
LINE
  5
3C4
102
{ACAD_REACTORS
330
4FB
102
}
330
1F
100
AcDbEntity
  8
LC-001-005-----0
 62
     7
370
    25
100
AcDbLine
 10
591.202738
 20
666.942346
 30
0.0
 11
594.027175
 21
669.766783
 31
0.0
  0
LINE
  5
3C5
102
{ACAD_REACTORS
330
4FB
102
}
330
1F
100
AcDbEntity
  8
LC-001-005-----0
 62
     7
370
    25
100
AcDbLine
 10
577.421038
 20
655.989073
 30
0.0
 11
578.131806
 21
656.699841
 31
0.0
  0
LINE
  5
3C6
102
{ACAD_REACTORS
330
4FB
102
}
330
1F
100
AcDbEntity
  8
LC-001-005-----0
 62
     7
370
    25
100
AcDbLine
 10
589.036688
 20
667.604723
 30
0.0
 11
591.86101
 21
670.429046
 31
0.0
  0
LINE
  5
3C7
330
1F
100
AcDbEntity
  8
LC-002-002-----0
 62
     7
370
    50
100
AcDbLine
 10
595.421038
 20
654.699841
 30
0.0
 11
591.421038
 21
659.699841
 31
0.0
  0
LINE
  5
3C8
330
1F
100
AcDbEntity
  8
LC-002-002-----0
 62
     7
370
    50
100
AcDbLine
 10
584.421038
 20
659.699841
 30
0.0
 11
591.421038
 21
659.699841
 31
0.0
  0
ARC
  5
3C9
330
1F
100
AcDbEntity
  8
LC-003-002-RND-0
 62
     7
370
    50
100
AcDbCircle
 10
584.421038
 20
656.699841
 30
0.0
 40
3.0
100
AcDbArc
 50
90.0
 51
180.0
  0
LINE
  5
3CA
102
{ACAD_REACTORS
330
4FB
102
}
330
1F
100
AcDbEntity
  8
LC-001-005-----0
 62
     7
370
    25
100
AcDbLine
 10
586.870637
 20
668.2671
 30
0.0
 11
589.694846
 21
671.091309
 31
0.0
  0
LINE
  5
3CB
102
{ACAD_REACTORS
330
4FB
102
}
330
1F
100
AcDbEntity
  8
LC-001-005-----0
 62
     7
370
    25
100
AcDbLine
 10
584.704586
 20
668.929476
 30
0.0
 11
587.528682
 21
671.753571
 31
0.0
  0
LINE
  5
3CC
102
{ACAD_REACTORS
330
4FB
102
}
330
1F
100
AcDbEntity
  8
LC-001-005-----0
 62
     7
370
    25
100
AcDbLine
 10
582.538536
 20
669.591853
 30
0.0
 11
585.362518
 21
672.415834
 31
0.0
  0
LINE
  5
3CD
102
{ACAD_REACTORS
330
4FB
102
}
330
1F
100
AcDbEntity
  8
LC-001-005-----0
 62
     7
370
    25
100
AcDbLine
 10
580.005455
 20
669.887198
 30
0.0
 11
583.196353
 21
673.078097
 31
0.0
  0
LINE
  5
3CE
102
{ACAD_REACTORS
330
4FB
102
}
330
1F
100
AcDbEntity
  8
LC-001-005-----0
 62
     7
370
    25
100
AcDbLine
 10
577.280681
 20
669.990852
 30
0.0
 11
580.740776
 21
673.450947
 31
0.0
  0
LINE
  5
3CF
102
{ACAD_REACTORS
330
4FB
102
}
330
1F
100
AcDbEntity
  8
LC-001-005-----0
 62
     7
370
    25
100
AcDbLine
 10
574.555908
 20
670.094506
 30
0.0
 11
578.007739
 21
673.546337
 31
0.0
  0
LINE
  5
3D0
102
{ACAD_REACTORS
330
4FB
102
}
330
1F
100
AcDbEntity
  8
LC-001-005-----0
 62
     7
370
    25
100
AcDbLine
 10
572.421038
 20
670.788063
 30
0.0
 11
575.274701
 21
673.641727
 31
0.0
  0
LINE
  5
3D1
330
1F
100
AcDbEntity
  8
LC-002-002-----0
 62
     7
370
    50
100
AcDbLine
 10
793.046689
 20
669.819107
 30
0.0
 11
802.421038
 21
670.17572
 31
0.0
  0
LINE
  5
3D2
330
1F
100
AcDbEntity
  8
LC-002-002-----0
 62
     7
370
    50
100
AcDbLine
 10
782.557728
 20
592.2301
 30
0.0
 11
782.557728
 21
596.019837
 31
0.0
  0
LINE
  5
3D3
330
1F
100
AcDbEntity
  8
LC-002-002-----0
 62
     7
370
    50
100
AcDbLine
 10
760.9222
 20
592.2301
 30
0.0
 11
760.9222
 21
599.263239
 31
0.0
  0
ARC
  5
3D4
330
1F
100
AcDbEntity
  8
LC-003-002-RND-0
 62
     7
370
    50
100
AcDbCircle
 10
764.421482
 20
597.063452
 30
0.0
 40
0.99999999999998
100
AcDbArc
 50
75.812372
 51
180.0
  0
LINE
  5
3D5
330
1F
100
AcDbEntity
  8
LC-002-002-----0
 62
     7
370
    50
100
AcDbLine
 10
788.421482
 20
654.7301
 30
0.0
 11
827.921482
 21
654.7301
 31
0.0
  0
LINE
  5
3D6
330
1F
100
AcDbEntity
  8
LC-002-002-----0
 62
     7
370
    50
100
AcDbLine
 10
789.877628
 20
654.7301
 30
0.0
 11
788.421482
 21
654.7301
 31
0.0
  0
LINE
  5
3D7
330
1F
100
AcDbEntity
  8
LC-002-002-----0
 62
     7
370
    50
100
AcDbLine
 10
828.421482
 20
660.7301
 30
0.0
 11
828.421482
 21
655.2301
 31
0.0
  0
LINE
  5
3D8
330
1F
100
AcDbEntity
  8
LC-002-002-----0
 62
     7
370
    50
100
AcDbLine
 10
581.421038
 20
656.699841
 30
0.0
 11
577.421038
 21
656.699841
 31
0.0
  0
LINE
  5
3D9
330
1F
100
AcDbEntity
  8
LC-002-002-----0
 62
     7
370
    50
100
AcDbLine
 10
595.421038
 20
654.699841
 30
0.0
 11
611.420516
 21
654.699841
 31
0.0
  0
ARC
  5
3DA
330
1F
100
AcDbEntity
  8
LC-003-002-RND-0
 62
     7
370
    50
100
AcDbCircle
 10
794.400482
 20
603.053032
 30
0.0
 40
1.0
100
AcDbArc
 50
180.0
 51
269.5
  0
LINE
  5
3DB
330
1F
100
AcDbEntity
  8
LC-002-002-----0
 62
     7
370
    50
100
AcDbLine
 10
828.921482
 20
595.2301
 30
0.0
 11
871.421482
 21
595.2301
 31
0.0
  0
LINE
  5
3DC
330
1F
100
AcDbEntity
  8
LC-002-002-----0
 62
     7
370
    50
100
AcDbLine
 10
827.921482
 20
598.7301
 30
0.0
 11
788.421482
 21
598.7301
 31
0.0
  0
LINE
  5
3DD
330
1F
100
AcDbEntity
  8
LC-002-002-----0
 62
     7
370
    50
100
AcDbLine
 10
828.421482
 20
595.7301
 30
0.0
 11
828.421482
 21
598.2301
 31
0.0
  0
LINE
  5
3DE
330
1F
100
AcDbEntity
  8
LC-002-002-----0
 62
     7
370
    50
100
AcDbLine
 10
623.421038
 20
668.699831
 30
0.0
 11
624.421012
 21
668.699371
 31
0.0
  0
LINE
  5
3DF
330
1F
100
AcDbEntity
  8
LC-002-002-----0
 62
     7
370
    50
100
AcDbLine
 10
611.421038
 20
667.200521
 30
0.0
 11
611.421038
 21
663.700521
 31
0.0
  0
LINE
  5
3E0
330
1F
100
AcDbEntity
  8
LC-002-002-----0
 62
     7
370
    50
100
AcDbLine
 10
831.421482
 20
654.41155
 30
0.0
 11
831.421482
 21
651.7301
 31
0.0
  0
LINE
  5
3E1
330
1F
100
AcDbEntity
  8
LC-002-002-----0
 62
     7
370
    50
100
AcDbLine
 10
831.421482
 20
599.04865
 30
0.0
 11
831.421482
 21
601.7301
 31
0.0
  0
LINE
  5
3E2
102
{ACAD_REACTORS
330
4F8
102
}
330
1F
100
AcDbEntity
  8
LC-001-005-----0
 62
     7
370
    25
100
AcDbLine
 10
787.950953
 20
648.7301
 30
0.0
 11
789.520346
 21
650.299492
 31
0.0
  0
ARC
  5
3E3
102
{ACAD_REACTORS
330
4F6
102
}
330
1F
100
AcDbEntity
  8
LC-002-002-----0
 62
     7
370
    50
100
AcDbCircle
 10
771.921482
 20
626.7301
 30
0.0
 40
29.6025923914001
100
AcDbArc
 50
53.522709
 51
68.309138
  0
LINE
  5
3E4
102
{ACAD_REACTORS
330
4F8
102
}
330
1F
100
AcDbEntity
  8
LC-001-005-----0
 62
     7
370
    25
100
AcDbLine
 10
785.122526
 20
648.7301
 30
0.0
 11
787.98664
 21
651.594214
 31
0.0
  0
ARC
  5
3E5
330
1F
100
AcDbEntity
  8
LC-003-002-RND-0
 62
     7
370
    50
100
AcDbCircle
 10
794.400482
 20
650.407168
 30
0.0
 40
1.000000000000177
100
AcDbArc
 50
90.5
 51
180.0
  0
LINE
  5
3E6
102
{ACAD_REACTORS
330
4F8
102
}
330
1F
100
AcDbEntity
  8
LC-001-005-----0
 62
     7
370
    25
100
AcDbLine
 10
782.294099
 20
648.7301
 30
0.0
 11
786.216439
 21
652.65244
 31
0.0
  0
LINE
  5
3E7
102
{ACAD_REACTORS
330
4F8
102
}
330
1F
100
AcDbEntity
  8
LC-001-005-----0
 62
     7
370
    25
100
AcDbLine
 10
779.465672
 20
648.7301
 30
0.0
 11
784.338274
 21
653.602702
 31
0.0
  0
ARC
  5
3E8
330
1F
100
AcDbEntity
  8
LC-002-002-----0
 62
     7
370
    50
100
AcDbCircle
 10
771.921482
 20
626.7301
 30
0.0
 40
32.5
100
AcDbArc
 50
59.489763
 51
90.0
  0
LINE
  5
3E9
102
{ACAD_REACTORS
330
4F8
102
}
330
1F
100
AcDbEntity
  8
LC-001-005-----0
 62
     7
370
    25
100
AcDbLine
 10
800.851588
 20
670.116016
 30
0.0
 11
802.406736
 21
671.671165
 31
0.0
  0
LINE
  5
3EA
102
{ACAD_REACTORS
330
4F8
102
}
330
1F
100
AcDbEntity
  8
LC-001-005-----0
 62
     7
370
    25
100
AcDbLine
 10
776.637245
 20
648.7301
 30
0.0
 11
779.637245
 21
651.7301
 31
0.0
  0
LINE
  5
3EB
102
{ACAD_REACTORS
330
4F8
102
}
330
1F
100
AcDbEntity
  8
LC-001-005-----0
 62
     7
370
    25
100
AcDbLine
 10
797.911308
 20
670.004164
 30
0.0
 11
801.340252
 21
673.433108
 31
0.0
  0
ARC
  5
3ED
102
{ACAD_REACTORS
330
4F6
102
}
330
1F
100
AcDbEntity
  8
LC-011-205-----0
 62
     7
370
    50
100
AcDbCircle
 10
777.770346
 20
655.494878
 30
0.0
 40
0.25
100
AcDbArc
 50
0.0
 51
78.504265
  0
LINE
  5
3EE
102
{ACAD_REACTORS
330
4F8
102
}
330
1F
100
AcDbEntity
  8
LC-001-005-----0
 62
     7
370
    25
100
AcDbLine
 10
773.808818
 20
648.7301
 30
0.0
 11
778.020346
 21
652.941628
 31
0.0
  0
LINE
  5
3EF
102
{ACAD_REACTORS
330
4F8
102
}
330
1F
100
AcDbEntity
  8
LC-001-005-----0
 62
     7
370
    25
100
AcDbLine
 10
794.971029
 20
669.892311
 30
0.0
 11
798.689815
 21
673.611098
 31
0.0
  0
LINE
  5
3F0
102
{ACAD_REACTORS
330
4F8
102
}
330
1F
100
AcDbEntity
  8
LC-001-005-----0
 62
     7
370
    25
100
AcDbLine
 10
770.980391
 20
648.7301
 30
0.0
 11
777.875637
 21
655.625347
 31
0.0
  0
LINE
  5
3F1
330
1F
100
AcDbEntity
  8
LC-002-002-----0
 62
     7
370
    50
100
AcDbLine
 10
763.421038
 20
667.200521
 30
0.0
 11
763.421038
 21
663.700521
 31
0.0
  0
LINE
  5
3F2
330
1F
100
AcDbEntity
  8
LC-002-002-----0
 62
     7
370
    50
100
AcDbLine
 10
751.421038
 20
667.200521
 30
0.0
 11
752.132363
 21
667.200521
 31
0.0
  0
LINE
  5
3F3
330
1F
100
AcDbEntity
  8
LC-002-002-----0
 62
     7
370
    50
100
AcDbLine
 10
623.421038
 20
667.200521
 30
0.0
 11
622.709713
 21
667.200521
 31
0.0
  0
LINE
  5
3F4
330
1F
100
AcDbEntity
  8
LC-002-002-----0
 62
     7
370
    50
100
AcDbLine
 10
763.42156
 20
663.700521
 30
0.0
 11
770.42156
 21
663.700521
 31
0.0
  0
LINE
  5
3F5
330
1F
100
AcDbEntity
  8
LC-002-002-----0
 62
     7
370
    50
100
AcDbLine
 10
770.42156
 20
663.700521
 30
0.0
 11
770.42156
 21
667.200521
 31
0.0
  0
LINE
  5
3F6
102
{ACAD_REACTORS
330
4F8
102
}
330
1F
100
AcDbEntity
  8
LC-001-005-----0
 62
     7
370
    25
100
AcDbLine
 10
791.638895
 20
669.388605
 30
0.0
 11
795.759099
 21
673.508808
 31
0.0
  0
LINE
  5
3F7
102
{ACAD_REACTORS
330
4F8
102
}
330
1F
100
AcDbEntity
  8
LC-001-005-----0
 62
     7
370
    25
100
AcDbLine
 10
768.151963
 20
648.7301
 30
0.0
 11
775.519723
 21
656.09786
 31
0.0
  0
LINE
  5
3F8
330
1F
100
AcDbEntity
  8
LC-002-002-----0
 62
     7
370
    50
100
AcDbLine
 10
611.420516
 20
663.700521
 30
0.0
 11
604.420516
 21
663.700521
 31
0.0
  0
LINE
  5
3F9
330
1F
100
AcDbEntity
  8
LC-002-002-----0
 62
     7
370
    50
100
AcDbLine
 10
763.42156
 20
661.200521
 30
0.0
 11
770.42156
 21
661.200521
 31
0.0
  0
LINE
  5
3FA
330
1F
100
AcDbEntity
  8
LC-002-002-----0
 62
     7
370
    50
100
AcDbLine
 10
770.42156
 20
661.200521
 30
0.0
 11
772.870187
 21
663.649148
 31
0.0
  0
LINE
  5
3FB
330
1F
100
AcDbEntity
  8
LC-002-002-----0
 62
     7
370
    50
100
AcDbLine
 10
604.420516
 20
663.700521
 30
0.0
 11
604.420516
 21
667.200521
 31
0.0
  0
LINE
  5
3FC
330
1F
100
AcDbEntity
  8
LC-002-002-----0
 62
     7
370
    50
100
AcDbLine
 10
752.132363
 20
667.200521
 30
0.0
 11
752.421038
 21
667.700521
 31
0.0
  0
LINE
  5
3FD
330
1F
100
AcDbEntity
  8
LC-002-002-----0
 62
     7
370
    50
100
AcDbLine
 10
752.421038
 20
667.700521
 30
0.0
 11
752.709713
 21
667.200521
 31
0.0
  0
LINE
  5
3FE
330
1F
100
AcDbEntity
  8
LC-002-002-----0
 62
     7
370
    50
100
AcDbLine
 10
752.709713
 20
667.200521
 30
0.0
 11
753.421527
 21
667.200521
 31
0.0
  0
LINE
  5
3FF
102
{ACAD_REACTORS
330
4F8
102
}
330
1F
100
AcDbEntity
  8
LC-001-005-----0
 62
     7
370
    25
100
AcDbLine
 10
787.564531
 20
668.142667
 30
0.0
 11
792.828383
 21
673.406519
 31
0.0
  0
LINE
  5
400
102
{ACAD_REACTORS
330
4F8
102
}
330
1F
100
AcDbEntity
  8
LC-001-005-----0
 62
     7
370
    25
100
AcDbLine
 10
765.323536
 20
648.7301
 30
0.0
 11
772.894893
 21
656.301456
 31
0.0
  0
ARC
  5
401
102
{ACAD_REACTORS
330
4F6
102
}
330
1F
100
AcDbEntity
  8
LC-011-205-----0
 62
     7
370
    50
100
AcDbCircle
 10
782.770346
 20
654.004792
 30
0.0
 40
0.2500000000000429
100
AcDbArc
 50
68.305797
 51
180.0
  0
LINE
  5
402
102
{ACAD_REACTORS
330
4F8
102
}
330
1F
100
AcDbEntity
  8
LC-001-005-----0
 62
     7
370
    25
100
AcDbLine
 10
783.490166
 20
666.89673
 30
0.0
 11
788.802173
 21
672.208737
 31
0.0
  0
LINE
  5
403
330
1F
100
AcDbEntity
  8
LC-002-002-----0
 62
     7
370
    50
100
AcDbLine
 10
762.421038
 20
667.700521
 30
0.0
 11
762.709713
 21
667.200521
 31
0.0
  0
LINE
  5
404
102
{ACAD_REACTORS
330
4F8
102
}
330
1F
100
AcDbEntity
  8
LC-001-005-----0
 62
     7
370
    25
100
AcDbLine
 10
762.495109
 20
648.7301
 30
0.0
 11
770.021409
 21
656.2564
 31
0.0
  0
LINE
  5
405
102
{ACAD_REACTORS
330
4F8
102
}
330
1F
100
AcDbEntity
  8
LC-001-005-----0
 62
     7
370
    25
100
AcDbLine
 10
779.415801
 20
665.650792
 30
0.0
 11
784.728211
 21
670.963202
 31
0.0
  0
LINE
  5
406
330
1F
100
AcDbEntity
  8
LC-002-002-----0
 62
     7
370
    50
100
AcDbLine
 10
763.421482
 20
594.2301
 30
0.0
 11
763.421482
 21
597.063452
 31
0.0
  0
LINE
  5
407
330
1F
100
AcDbEntity
  8
LC-002-002-----0
 62
     7
370
    50
100
AcDbLine
 10
771.921482
 20
659.2301
 30
0.0
 11
763.421482
 21
659.2301
 31
0.0
  0
LINE
  5
408
330
1F
100
AcDbEntity
  8
LC-002-002-----0
 62
     7
370
    50
100
AcDbLine
 10
762.132363
 20
667.200521
 30
0.0
 11
762.421038
 21
667.700521
 31
0.0
  0
LINE
  5
409
330
1F
100
AcDbEntity
  8
LC-002-002-----0
 62
     7
370
    50
100
AcDbLine
 10
771.921482
 20
594.2301
 30
0.0
 11
763.421482
 21
594.2301
 31
0.0
  0
ARC
  5
40A
330
1F
100
AcDbEntity
  8
LC-003-002-RND-0
  6
DASHED
 62
     7
370
    25
100
AcDbCircle
 10
837.041518
 20
637.939185
 30
0.0
 40
0.4999999999999487
100
AcDbArc
 50
75.5
 51
165.0
  0
ARC
  5
40B
330
1F
100
AcDbEntity
  8
LC-003-002-RND-0
  6
DASHED
 62
     7
370
    25
100
AcDbCircle
 10
818.955864
 20
582.033714
 30
0.0
 40
0.5000000000000006
100
AcDbArc
 50
165.0
 51
255.0
  0
LINE
  5
40C
330
1F
100
AcDbEntity
  8
LC-002-002-----0
  6
DASHED
 62
     7
370
    25
100
AcDbLine
 10
818.826454
 20
581.550751
 30
0.0
 11
859.878302
 21
570.550942
 31
0.0
  0
LINE
  5
40D
330
1F
100
AcDbEntity
  8
LC-002-002-----0
 62
     7
370
    50
100
AcDbLine
 10
762.709713
 20
667.200521
 30
0.0
 11
763.421038
 21
667.200521
 31
0.0
  0
ARC
  5
40E
330
1F
100
AcDbEntity
  8
LC-003-002-RND-0
  6
DASHED
 62
     7
370
    25
100
AcDbCircle
 10
818.636986
 20
584.707348
 30
0.0
 40
0.5000000000000006
100
AcDbArc
 50
345.0
 51
75.0
  0
LINE
  5
40F
330
1F
100
AcDbEntity
  8
LC-002-002-----0
  6
DASHED
 62
     7
370
    25
100
AcDbLine
 10
859.878302
 20
570.550942
 30
0.0
 11
860.654759
 21
573.448719
 31
0.0
  0
LINE
  5
410
330
1F
100
AcDbEntity
  8
LC-002-002-----0
 62
     7
370
    50
100
AcDbLine
 10
611.420516
 20
661.200521
 30
0.0
 11
604.420516
 21
661.200521
 31
0.0
  0
LINE
  5
411
330
1F
100
AcDbEntity
  8
LC-002-002-----0
 62
     7
370
    50
100
AcDbLine
 10
604.420516
 20
661.200521
 30
0.0
 11
601.971889
 21
663.649148
 31
0.0
  0
LINE
  5
412
330
1F
100
AcDbEntity
  8
LC-002-002-----0
 62
     7
370
    50
100
AcDbLine
 10
622.709713
 20
667.200521
 30
0.0
 11
622.421038
 21
667.700521
 31
0.0
  0
LINE
  5
413
330
1F
100
AcDbEntity
  8
LC-002-002-----0
 62
     7
370
    50
100
AcDbLine
 10
622.421038
 20
667.700521
 30
0.0
 11
622.132363
 21
667.200521
 31
0.0
  0
LINE
  5
414
330
1F
100
AcDbEntity
  8
LC-002-002-----0
 62
     7
370
    50
100
AcDbLine
 10
622.132363
 20
667.200521
 30
0.0
 11
621.420549
 21
667.200521
 31
0.0
  0
LINE
  5
415
330
1F
100
AcDbEntity
  8
LC-002-002-----0
  6
DASHED
 62
     7
370
    25
100
AcDbLine
 10
837.546869
 20
641.75703
 30
0.0
 11
876.183902
 21
631.404269
 31
0.0
  0
ARC
  5
416
330
1F
100
AcDbEntity
  8
LC-002-002-----0
 62
     7
370
    50
100
AcDbCircle
 10
771.921482
 20
626.7301
 30
0.0
 40
32.5
100
AcDbArc
 50
270.0
 51
300.510237
  0
LINE
  5
417
330
1F
100
AcDbEntity
  8
LC-002-002-----0
  6
DASHED
 62
     7
370
    25
100
AcDbLine
 10
838.193916
 20
644.171845
 30
0.0
 11
837.546869
 21
641.75703
 31
0.0
  0
LINE
  5
418
330
1F
100
AcDbEntity
  8
LC-002-002-----0
 62
     7
370
    50
100
AcDbLine
 10
793.400482
 20
603.053032
 30
0.0
 11
793.400482
 21
603.606637
 31
0.0
  0
LINE
  5
419
330
1F
100
AcDbEntity
  8
LC-002-002-----0
 62
     7
370
    50
100
AcDbLine
 10
612.421038
 20
667.700521
 30
0.0
 11
612.132363
 21
667.200521
 31
0.0
  0
LINE
  5
41A
330
1F
100
AcDbEntity
  8
LC-002-002-----0
 62
     7
370
    50
100
AcDbLine
 10
793.400482
 20
649.853563
 30
0.0
 11
793.400482
 21
650.407168
 31
0.0
  0
INSERT
  5
446
330
1F
100
AcDbEntity
  8
LC-001-005-----0
 62
     7
370
    25
100
AcDbBlockReference
  2
*X1424
 10
0.0
 20
0.0
 30
0.0
  0
ARC
  5
447
330
1F
100
AcDbEntity
  8
LC-003-002-RND-0
  6
DASHED
 62
     7
370
    25
100
AcDbCircle
 10
837.710953
 20
644.301255
 30
0.0
 40
0.5000000000000006
100
AcDbArc
 50
345.0
 51
75.0
  0
LINE
  5
448
330
1F
100
AcDbEntity
  8
LC-002-002-----0
 62
     7
370
    50
100
AcDbLine
 10
763.421482
 20
656.396748
 30
0.0
 11
763.421482
 21
659.2301
 31
0.0
  0
LINE
  5
449
330
1F
100
AcDbEntity
  8
LC-002-002-----0
 62
     7
370
    50
100
AcDbLine
 10
612.709713
 20
667.200521
 30
0.0
 11
612.421038
 21
667.700521
 31
0.0
  0
LINE
  5
44A
330
1F
100
AcDbEntity
  8
LC-002-002-----0
  6
DASHED
 62
     7
370
    25
100
AcDbLine
 10
835.908511
 20
645.301856
 30
0.0
 11
837.840363
 21
644.784217
 31
0.0
  0
ARC
  5
44B
330
1F
100
AcDbEntity
  8
LC-002-002-----0
 62
     7
370
    50
100
AcDbCircle
 10
771.921482
 20
626.7301
 30
0.0
 40
29.59999999999991
100
AcDbArc
 50
51.370402
 51
69.268737
  0
LINE
  5
44C
330
1F
100
AcDbEntity
  8
LC-002-002-----0
 62
     7
370
    50
100
AcDbLine
 10
790.400266
 20
649.853563
 30
0.0
 11
793.400482
 21
649.853563
 31
0.0
  0
ARC
  5
44D
330
1F
100
AcDbEntity
  8
LC-003-002-RND-0
 62
     7
370
    50
100
AcDbCircle
 10
764.421482
 20
656.396748
 30
0.0
 40
1.0
100
AcDbArc
 50
180.0
 51
284.187628
  0
ARC
  5
44E
330
1F
100
AcDbEntity
  8
LC-002-002-----0
 62
     7
370
    50
100
AcDbCircle
 10
771.921482
 20
626.7301
 30
0.0
 40
29.59999999999999
100
AcDbArc
 50
255.812372
 51
284.610517
  0
LINE
  5
44F
330
1F
100
AcDbEntity
  8
LC-002-002-----0
 62
     7
370
    50
100
AcDbLine
 10
790.400266
 20
603.606637
 30
0.0
 11
790.400266
 21
649.853563
 31
0.0
  0
LINE
  5
450
330
1F
100
AcDbEntity
  8
LC-002-002-----0
 62
     7
370
    50
100
AcDbLine
 10
790.400266
 20
603.606637
 30
0.0
 11
793.400482
 21
603.606637
 31
0.0
  0
LINE
  5
451
330
1F
100
AcDbEntity
  8
LC-002-002-----0
 62
     7
370
    50
100
AcDbLine
 10
613.420549
 20
667.200521
 30
0.0
 11
612.709713
 21
667.200521
 31
0.0
  0
LINE
  5
452
330
1F
100
AcDbEntity
  8
LC-002-002-----0
 62
     7
370
    50
100
AcDbLine
 10
612.132363
 20
667.200521
 30
0.0
 11
611.421038
 21
667.200521
 31
0.0
  0
LINE
  5
453
330
1F
100
AcDbEntity
  8
LC-002-002-----0
 62
     7
370
    50
100
AcDbLine
 10
604.420516
 20
667.200521
 30
0.0
 11
602.421038
 21
667.200521
 31
0.0
  0
LINE
  5
454
330
1F
100
AcDbEntity
  8
LC-002-002-----0
 62
     7
370
    50
100
AcDbLine
 10
626.421012
 20
668.699831
 30
0.0
 11
626.421012
 21
671.699831
 31
0.0
  0
LINE
  5
455
330
1F
100
AcDbEntity
  8
LC-002-002-----0
 62
     7
370
    50
100
AcDbLine
 10
831.421482
 20
660.7301
 30
0.0
 11
831.421482
 21
658.2301
 31
0.0
  0
ARC
  5
456
330
1F
100
AcDbEntity
  8
LC-003-002-RND-0
  6
DASHED
 62
     7
370
    25
100
AcDbCircle
 10
835.779102
 20
644.818893
 30
0.0
 40
0.50000000000003
100
AcDbArc
 50
75.0
 51
165.0
  0
LINE
  5
457
330
1F
100
AcDbEntity
  8
LC-002-002-----0
  6
DASHED
 62
     7
370
    25
100
AcDbLine
 10
835.296139
 20
644.948302
 30
0.0
 11
833.872634
 21
639.63571
 31
0.0
  0
ARC
  5
458
330
1F
100
AcDbEntity
  8
LC-003-002-RND-0
  6
DASHED
 62
     7
370
    25
100
AcDbCircle
 10
833.389671
 20
639.76512
 30
0.0
 40
0.5000000000000006
100
AcDbArc
 50
255.0
 51
345.0
  0
LINE
  5
459
330
1F
100
AcDbEntity
  8
LC-002-002-----0
  6
DASHED
 62
     7
370
    25
100
AcDbLine
 10
795.106191
 20
649.505509
 30
0.0
 11
833.260262
 21
639.282157
 31
0.0
  0
ARC
  5
45A
330
1F
100
AcDbEntity
  8
LC-002-002-----0
  6
DASHED
 62
     7
370
    25
100
AcDbCircle
 10
771.921482
 20
626.7301
 30
0.0
 40
32.50000000000006
100
AcDbArc
 50
44.489763
 51
75.0
  0
LINE
  5
45B
330
1F
100
AcDbEntity
  8
LC-002-002-----0
  6
DASHED
 62
     7
370
    25
100
AcDbLine
 10
780.333101
 20
658.122689
 30
0.0
 11
772.122731
 21
660.322651
 31
0.0
  0
LINE
  5
45C
330
1F
100
AcDbEntity
  8
LC-002-002-----0
  6
DASHED
 62
     7
370
    25
100
AcDbLine
 10
771.389406
 20
657.585843
 30
0.0
 11
772.122731
 21
660.322651
 31
0.0
  0
ARC
  5
45D
330
1F
100
AcDbEntity
  8
LC-003-002-RND-0
  6
DASHED
 62
     7
370
    25
100
AcDbCircle
 10
772.355332
 20
657.327024
 30
0.0
 40
1.00000000000006
100
AcDbArc
 50
165.0
 51
269.187628
  0
LINE
  5
45F
330
1F
100
AcDbEntity
  8
LC-002-002-----0
  6
DASHDOT
 62
     7
370
    25
100
AcDbLine
 10
868.031102
 20
600.977605
 30
0.0
 11
771.874358
 21
626.742727
 31
0.0
  0
LINE
  5
460
330
1F
100
AcDbEntity
  8
LC-002-002-----0
  6
DASHED
 62
     7
370
    25
100
AcDbLine
 10
860.654759
 20
573.448719
 30
0.0
 11
876.183902
 21
631.404269
 31
0.0
  0
LINE
  5
461
330
1F
100
AcDbEntity
  8
LC-002-002-----0
  6
DASHED
 62
     7
370
    25
100
AcDbLine
 10
836.558555
 20
638.068595
 30
0.0
 11
835.864545
 21
635.478513
 31
0.0
  0
LINE
  5
462
330
1F
100
AcDbEntity
  8
LC-002-002-----0
  6
DASHED
 62
     7
370
    25
100
AcDbLine
 10
800.012985
 20
644.750546
 30
0.0
 11
835.864545
 21
635.478513
 31
0.0
  0
ARC
  5
463
330
1F
100
AcDbEntity
  8
LC-003-002-RND-0
  6
DASHED
 62
     7
370
    25
100
AcDbCircle
 10
799.762605
 20
643.782398
 30
0.0
 40
1.000000000000089
100
AcDbArc
 50
75.5
 51
165.0
  0
LINE
  5
464
330
1F
100
AcDbEntity
  8
LC-002-002-----0
  6
DASHED
 62
     7
370
    25
100
AcDbLine
 10
786.68381
 20
598.835375
 30
0.0
 11
798.653396
 21
643.506476
 31
0.0
  0
LINE
  5
465
330
1F
100
AcDbEntity
  8
LC-002-002-----0
  6
DASHED
 62
     7
370
    25
100
AcDbLine
 10
795.755409
 20
644.282989
 30
0.0
 11
798.653396
 21
643.506476
 31
0.0
  0
ARC
  5
466
330
1F
100
AcDbEntity
  8
LC-002-002-----0
  6
DASHED
 62
     7
370
    25
100
AcDbCircle
 10
771.921482
 20
626.7301
 30
0.0
 40
29.60000000000008
100
AcDbArc
 50
36.370402
 51
54.268737
  0
ARC
  5
467
330
1F
100
AcDbEntity
  8
LC-003-002-RND-0
  6
DASHED
 62
     7
370
    25
100
AcDbCircle
 10
787.506453
 20
598.041815
 30
0.0
 40
1.00000000000003
100
AcDbArc
 50
165.0
 51
254.5
  0
LINE
  5
468
330
1F
100
AcDbEntity
  8
LC-002-002-----0
  6
DASHED
 62
     7
370
    25
100
AcDbLine
 10
787.239214
 20
597.078185
 30
0.0
 11
822.923593
 21
587.182221
 31
0.0
  0
LINE
  5
469
330
1F
100
AcDbEntity
  8
LC-002-002-----0
  6
DASHED
 62
     7
370
    25
100
AcDbLine
 10
822.229582
 20
584.592139
 30
0.0
 11
822.923593
 21
587.182221
 31
0.0
  0
ARC
  5
46A
330
1F
100
AcDbEntity
  8
LC-003-002-RND-0
  6
DASHED
 62
     7
370
    25
100
AcDbCircle
 10
822.712545
 20
584.46273
 30
0.0
 40
0.5000000000000006
100
AcDbArc
 50
165.0
 51
254.5
  0
LINE
  5
46B
330
1F
100
AcDbEntity
  8
LC-002-002-----0
  6
DASHED
 62
     7
370
    25
100
AcDbLine
 10
822.578926
 20
583.980914
 30
0.0
 11
860.654759
 21
573.448719
 31
0.0
  0
LINE
  5
46C
330
1F
100
AcDbEntity
  8
LC-002-002-----0
  6
DASHED
 62
     7
370
    25
100
AcDbLine
 10
783.785824
 20
599.611889
 30
0.0
 11
786.68381
 21
598.835375
 31
0.0
  0
ARC
  5
46D
330
1F
100
AcDbEntity
  8
LC-002-002-----0
  6
DASHED
 62
     7
370
    25
100
AcDbCircle
 10
771.921482
 20
626.7301
 30
0.0
 40
29.60000000000029
100
AcDbArc
 50
275.731263
 51
293.629598
  0
LINE
  5
46E
102
{ACAD_REACTORS
330
4F8
102
}
330
1F
100
AcDbEntity
  8
LC-001-005-----0
 62
     7
370
    25
100
AcDbLine
 10
759.666682
 20
648.7301
 30
0.0
 11
766.80901
 21
655.872428
 31
0.0
  0
LINE
  5
46F
102
{ACAD_REACTORS
330
4F8
102
}
330
1F
100
AcDbEntity
  8
LC-001-005-----0
 62
     7
370
    25
100
AcDbLine
 10
775.341437
 20
664.404855
 30
0.0
 11
780.654248
 21
669.717666
 31
0.0
  0
LINE
  5
470
102
{ACAD_REACTORS
330
4F8
102
}
330
1F
100
AcDbEntity
  8
LC-001-005-----0
 62
     7
370
    25
100
AcDbLine
 10
756.838255
 20
648.7301
 30
0.0
 11
763.42156
 21
655.313405
 31
0.0
  0
LINE
  5
471
102
{ACAD_REACTORS
330
4F8
102
}
330
1F
100
AcDbEntity
  8
LC-001-005-----0
 62
     7
370
    25
100
AcDbLine
 10
769.308676
 20
661.200521
 30
0.0
 11
776.580286
 21
668.472131
 31
0.0
  0
LINE
  5
472
102
{ACAD_REACTORS
330
4F8
102
}
330
1F
100
AcDbEntity
  8
LC-001-005-----0
 62
     7
370
    25
100
AcDbLine
 10
754.009828
 20
648.7301
 30
0.0
 11
758.979559
 21
653.699831
 31
0.0
  0
LINE
  5
473
102
{ACAD_REACTORS
330
4F8
102
}
330
1F
100
AcDbEntity
  8
LC-001-005-----0
 62
     7
370
    25
100
AcDbLine
 10
759.921527
 20
654.6418
 30
0.0
 11
763.42156
 21
658.141832
 31
0.0
  0
LINE
  5
474
102
{ACAD_REACTORS
330
4F8
102
}
330
1F
100
AcDbEntity
  8
LC-001-005-----0
 62
     7
370
    25
100
AcDbLine
 10
766.480249
 20
661.200521
 30
0.0
 11
768.980249
 21
663.700521
 31
0.0
  0
LINE
  5
475
102
{ACAD_REACTORS
330
4F8
102
}
330
1F
100
AcDbEntity
  8
LC-001-005-----0
 62
     7
370
    25
100
AcDbLine
 10
770.42156
 20
665.141832
 30
0.0
 11
772.506323
 21
667.226596
 31
0.0
  0
LINE
  5
476
102
{ACAD_REACTORS
330
4F8
102
}
330
1F
100
AcDbEntity
  8
LC-001-005-----0
 62
     7
370
    25
100
AcDbLine
 10
751.181401
 20
648.7301
 30
0.0
 11
756.151132
 21
653.699831
 31
0.0
  0
LINE
  5
477
102
{ACAD_REACTORS
330
4F8
102
}
330
1F
100
AcDbEntity
  8
LC-001-005-----0
 62
     7
370
    25
100
AcDbLine
 10
759.921527
 20
657.470227
 30
0.0
 11
763.42156
 21
660.970259
 31
0.0
  0
LINE
  5
478
102
{ACAD_REACTORS
330
4F8
102
}
330
1F
100
AcDbEntity
  8
LC-001-005-----0
 62
     7
370
    25
100
AcDbLine
 10
763.651822
 20
661.200521
 30
0.0
 11
766.151822
 21
663.700521
 31
0.0
  0
LINE
  5
479
102
{ACAD_REACTORS
330
4F8
102
}
330
1F
100
AcDbEntity
  8
LC-001-005-----0
 62
     7
370
    25
100
AcDbLine
 10
748.352974
 20
648.7301
 30
0.0
 11
754.921527
 21
655.298654
 31
0.0
  0
LINE
  5
47A
102
{ACAD_REACTORS
330
4F8
102
}
330
1F
100
AcDbEntity
  8
LC-001-005-----0
 62
     7
370
    25
100
AcDbLine
 10
759.921527
 20
660.298654
 30
0.0
 11
763.421038
 21
663.798165
 31
0.0
  0
LINE
  5
47B
102
{ACAD_REACTORS
330
4F8
102
}
330
1F
100
AcDbEntity
  8
LC-001-005-----0
 62
     7
370
    25
100
AcDbLine
 10
745.524546
 20
648.7301
 30
0.0
 11
754.921527
 21
658.127081
 31
0.0
  0
LINE
  5
47C
102
{ACAD_REACTORS
330
4F8
102
}
330
1F
100
AcDbEntity
  8
LC-001-005-----0
 62
     7
370
    25
100
AcDbLine
 10
759.921527
 20
663.127081
 30
0.0
 11
763.421038
 21
666.626592
 31
0.0
  0
LINE
  5
47D
102
{ACAD_REACTORS
330
4F8
102
}
330
1F
100
AcDbEntity
  8
LC-001-005-----0
 62
     7
370
    25
100
AcDbLine
 10
745.42115
 20
651.455131
 30
0.0
 11
754.921527
 21
660.955508
 31
0.0
  0
LINE
  5
47E
102
{ACAD_REACTORS
330
4F8
102
}
330
1F
100
AcDbEntity
  8
LC-001-005-----0
 62
     7
370
    25
100
AcDbLine
 10
759.921527
 20
665.955508
 30
0.0
 11
761.166541
 21
667.200521
 31
0.0
  0
LINE
  5
47F
102
{ACAD_REACTORS
330
4F8
102
}
330
1F
100
AcDbEntity
  8
LC-001-005-----0
 62
     7
370
    25
100
AcDbLine
 10
745.33811
 20
654.200518
 30
0.0
 11
747.337423
 21
656.199831
 31
0.0
  0
LINE
  5
480
102
{ACAD_REACTORS
330
4F8
102
}
330
1F
100
AcDbEntity
  8
LC-001-005-----0
 62
     7
370
    25
100
AcDbLine
 10
747.42115
 20
656.283558
 30
0.0
 11
754.921527
 21
663.783935
 31
0.0
  0
LINE
  5
481
102
{ACAD_REACTORS
330
4F8
102
}
330
1F
100
AcDbEntity
  8
LC-001-005-----0
 62
     7
370
    25
100
AcDbLine
 10
742.509557
 20
654.200392
 30
0.0
 11
744.508996
 21
656.199831
 31
0.0
  0
LINE
  5
482
102
{ACAD_REACTORS
330
4F8
102
}
330
1F
100
AcDbEntity
  8
LC-001-005-----0
 62
     7
370
    25
100
AcDbLine
 10
747.42115
 20
659.111985
 30
0.0
 11
754.921527
 21
666.612362
 31
0.0
  0
LINE
  5
483
102
{ACAD_REACTORS
330
4F8
102
}
330
1F
100
AcDbEntity
  8
LC-001-005-----0
 62
     7
370
    25
100
AcDbLine
 10
739.681003
 20
654.200266
 30
0.0
 11
741.680569
 21
656.199831
 31
0.0
  0
LINE
  5
484
102
{ACAD_REACTORS
330
4F8
102
}
330
1F
100
AcDbEntity
  8
LC-001-005-----0
 62
     7
370
    25
100
AcDbLine
 10
747.42115
 20
661.940412
 30
0.0
 11
752.699298
 21
667.21856
 31
0.0
  0
LINE
  5
485
102
{ACAD_REACTORS
330
4F8
102
}
330
1F
100
AcDbEntity
  8
LC-001-005-----0
 62
     7
370
    25
100
AcDbLine
 10
729.852142
 20
647.199831
 30
0.0
 11
729.921038
 21
647.268727
 31
0.0
  0
LINE
  5
486
102
{ACAD_REACTORS
330
4F8
102
}
330
1F
100
AcDbEntity
  8
LC-001-005-----0
 62
     7
370
    25
100
AcDbLine
 10
736.85245
 20
654.20014
 30
0.0
 11
738.852142
 21
656.199831
 31
0.0
  0
LINE
  5
487
102
{ACAD_REACTORS
330
4F8
102
}
330
1F
100
AcDbEntity
  8
LC-001-005-----0
 62
     7
370
    25
100
AcDbLine
 10
747.42115
 20
664.768839
 30
0.0
 11
751.352832
 21
668.700521
 31
0.0
  0
LINE
  5
488
102
{ACAD_REACTORS
330
4F8
102
}
330
1F
100
AcDbEntity
  8
LC-001-005-----0
 62
     7
370
    25
100
AcDbLine
 10
727.921038
 20
648.097154
 30
0.0
 11
729.921038
 21
650.097154
 31
0.0
  0
LINE
  5
489
102
{ACAD_REACTORS
330
4F8
102
}
330
1F
100
AcDbEntity
  8
LC-001-005-----0
 62
     7
370
    25
100
AcDbLine
 10
734.023897
 20
654.200014
 30
0.0
 11
735.985567
 21
656.161683
 31
0.0
  0
LINE
  5
48A
102
{ACAD_REACTORS
330
4F8
102
}
330
1F
100
AcDbEntity
  8
LC-001-005-----0
 62
     7
370
    25
100
AcDbLine
 10
747.42115
 20
667.597267
 30
0.0
 11
748.524405
 21
668.700521
 31
0.0
  0
LINE
  5
48B
102
{ACAD_REACTORS
330
4F8
102
}
330
1F
100
AcDbEntity
  8
LC-001-005-----0
 62
     7
370
    25
100
AcDbLine
 10
727.921038
 20
650.925582
 30
0.0
 11
729.921038
 21
652.925582
 31
0.0
  0
LINE
  5
48C
102
{ACAD_REACTORS
330
4F8
102
}
330
1F
100
AcDbEntity
  8
LC-001-005-----0
 62
     7
370
    25
100
AcDbLine
 10
731.195344
 20
654.199888
 30
0.0
 11
733.106892
 21
656.111436
 31
0.0
  0
LINE
  5
48D
102
{ACAD_REACTORS
330
4F8
102
}
330
1F
100
AcDbEntity
  8
LC-001-005-----0
 62
     7
370
    25
100
AcDbLine
 10
727.921038
 20
653.754009
 30
0.0
 11
730.228218
 21
656.061188
 31
0.0
  0
LINE
  5
48E
330
1F
100
AcDbEntity
  8
LC-002-002-----0
 62
     7
370
    50
100
AcDbLine
 10
631.921038
 20
652.849841
 30
0.0
 11
635.421038
 21
652.849841
 31
0.0
  0
LINE
  5
48F
330
1F
100
AcDbEntity
  8
LC-002-002-----0
 62
     7
370
    50
100
AcDbLine
 10
635.421038
 20
652.849841
 30
0.0
 11
635.421038
 21
652.849841
 31
0.0
  0
ARC
  5
490
330
1F
100
AcDbEntity
  8
LC-002-002-----0
 62
     7
370
    50
100
AcDbCircle
 10
771.921482
 20
626.7301
 30
0.0
 40
29.58737299402693
100
AcDbArc
 50
78.902197
 51
106.695308
  0
LINE
  5
491
330
1F
100
AcDbEntity
  8
LC-002-002-----0
 62
     7
370
    50
100
AcDbLine
 10
632.421038
 20
610.699841
 30
0.0
 11
632.421038
 21
568.699676
 31
0.0
  0
LINE
  5
492
330
1F
100
AcDbEntity
  8
LC-002-002-----0
 62
     7
370
    50
100
AcDbLine
 10
619.920549
 20
667.200521
 30
0.0
 11
619.920549
 21
653.699831
 31
0.0
  0
LINE
  5
493
330
1F
100
AcDbEntity
  8
LC-002-002-----0
 62
     7
370
    50
100
AcDbLine
 10
614.920549
 20
667.200521
 30
0.0
 11
614.920549
 21
653.699831
 31
0.0
  0
LINE
  5
494
330
1F
100
AcDbEntity
  8
LC-002-002-----0
 62
     7
370
    50
100
AcDbLine
 10
582.136108
 20
673.402247
 30
0.0
 11
574.421549
 21
673.671504
 31
0.0
  0
LINE
  5
495
330
1F
100
AcDbEntity
  8
LC-004-006-MLN-0
 62
     7
370
    25
100
AcDbLine
 10
757.421527
 20
677.200521
 30
0.0
 11
757.421527
 21
645.054001
 31
0.0
  0
LINE
  5
496
330
1F
100
AcDbEntity
  8
LC-004-006-MLN-0
 62
     7
370
    25
100
AcDbLine
 10
687.421038
 20
666.020916
 30
0.0
 11
687.421038
 21
545.877
 31
0.0
  0
LINE
  5
497
330
1F
100
AcDbEntity
  8
LC-002-002-----0
 62
     7
370
    50
100
AcDbLine
 10
602.421038
 20
667.200521
 30
0.0
 11
582.136108
 21
673.402247
 31
0.0
  0
LINE
  5
498
330
1F
100
AcDbEntity
  8
LC-002-002-----0
 62
     7
370
    50
100
AcDbLine
 10
601.971889
 20
663.649148
 30
0.0
 11
581.795387
 21
669.819107
 31
0.0
  0
LINE
  5
499
330
1F
100
AcDbEntity
  8
LC-002-002-----0
 62
     7
370
    50
100
AcDbLine
 10
581.795387
 20
669.819107
 30
0.0
 11
572.421038
 21
670.17572
 31
0.0
  0
LINE
  5
49A
330
1F
100
AcDbEntity
  8
LC-004-006-MLN-0
 62
     7
370
    25
100
AcDbLine
 10
617.420549
 20
678.699831
 30
0.0
 11
617.420549
 21
642.950148
 31
0.0
  0
LINE
  5
49B
330
1F
100
AcDbEntity
  8
LC-002-002-----0
 62
     7
370
    50
100
AcDbLine
 10
772.870187
 20
663.649148
 30
0.0
 11
793.046689
 21
669.819107
 31
0.0
  0
LINE
  5
49C
330
1F
100
AcDbEntity
  8
LC-002-002-----0
 62
     7
370
    50
100
AcDbLine
 10
772.421038
 20
667.200521
 30
0.0
 11
792.705968
 21
673.402247
 31
0.0
  0
LINE
  5
49D
330
1F
100
AcDbEntity
  8
LC-002-002-----0
 62
     7
370
    50
100
AcDbLine
 10
635.421038
 20
654.199831
 30
0.0
 11
635.421038
 21
652.849841
 31
0.0
  0
LINE
  5
49E
330
1F
100
AcDbEntity
  8
LC-002-002-----0
 62
     7
370
    50
100
AcDbLine
 10
614.920549
 20
653.699831
 30
0.0
 11
619.920549
 21
653.699831
 31
0.0
  0
LINE
  5
49F
330
1F
100
AcDbEntity
  8
LC-002-002-----0
 62
     7
370
    50
100
AcDbLine
 10
627.421012
 20
668.699831
 30
0.0
 11
687.421038
 21
668.699831
 31
0.0
  0
LINE
  5
4A0
330
1F
100
AcDbEntity
  8
LC-002-002-----0
 62
     7
370
    50
100
AcDbLine
 10
627.421012
 20
668.699831
 30
0.0
 11
626.421012
 21
668.699831
 31
0.0
  0
LINE
  5
4A1
330
1F
100
AcDbEntity
  8
LC-002-002-----0
 62
     7
370
    50
100
AcDbLine
 10
627.421012
 20
668.699831
 30
0.0
 11
627.421012
 21
656.199831
 31
0.0
  0
LINE
  5
4A2
330
1F
100
AcDbEntity
  8
LC-002-002-----0
 62
     7
370
    50
100
AcDbLine
 10
759.921527
 20
653.699831
 30
0.0
 11
754.921527
 21
653.699831
 31
0.0
  0
LINE
  5
4A3
330
1F
100
AcDbEntity
  8
LC-002-002-----0
 62
     7
370
    50
100
AcDbLine
 10
754.921527
 20
667.200521
 30
0.0
 11
754.921527
 21
653.699831
 31
0.0
  0
LINE
  5
4A4
330
1F
100
AcDbEntity
  8
LC-002-002-----0
 62
     7
370
    50
100
AcDbLine
 10
759.921527
 20
667.200521
 30
0.0
 11
759.921527
 21
653.699831
 31
0.0
  0
LINE
  5
4A5
330
1F
100
AcDbEntity
  8
LC-002-002-----0
 62
     7
370
    50
100
AcDbLine
 10
763.42156
 20
661.200521
 30
0.0
 11
763.42156
 21
655.086972
 31
0.0
  0
LINE
  5
4A6
330
1F
100
AcDbEntity
  8
LC-002-002-----0
 62
     7
370
    50
100
AcDbLine
 10
751.421038
 20
668.700521
 30
0.0
 11
747.42115
 21
668.700521
 31
0.0
  0
LINE
  5
4A7
330
1F
100
AcDbEntity
  8
LC-002-002-----0
 62
     7
370
    50
100
AcDbLine
 10
770.42156
 20
667.200521
 30
0.0
 11
772.421038
 21
667.200521
 31
0.0
  0
LINE
  5
4A8
330
1F
100
AcDbEntity
  8
LC-002-002-----0
 62
     7
370
    50
100
AcDbLine
 10
747.42115
 20
668.699831
 30
0.0
 11
747.42115
 21
656.199831
 31
0.0
  0
LINE
  5
4A9
330
1F
100
AcDbEntity
  8
LC-002-002-----0
 62
     7
370
    50
100
AcDbLine
 10
687.421038
 20
668.699831
 30
0.0
 11
747.42115
 21
668.699831
 31
0.0
  0
LINE
  5
4AA
330
1F
100
AcDbEntity
  8
LC-002-002-----0
 62
     7
370
    50
100
AcDbLine
 10
753.920346
 20
599.2301
 30
0.0
 11
756.420346
 21
599.2301
 31
0.0
  0
LINE
  5
4AB
330
1F
100
AcDbEntity
  8
LC-002-002-----0
 62
     7
370
    50
100
AcDbLine
 10
753.920346
 20
601.7301
 30
0.0
 11
753.920346
 21
599.2301
 31
0.0
  0
LINE
  5
4AC
330
1F
100
AcDbEntity
  8
LC-002-002-----0
 62
     7
370
    50
100
AcDbLine
 10
756.420346
 20
601.528366
 30
0.0
 11
756.420346
 21
599.2301
 31
0.0
  0
ARC
  5
4AD
330
1F
100
AcDbEntity
  8
LC-011-205-----0
 62
     7
370
    50
100
AcDbCircle
 10
782.020346
 20
652.2301
 30
0.0
 40
0.5000000000002274
100
AcDbArc
 50
270.0
 51
0.0
  0
ARC
  5
4AE
330
1F
100
AcDbEntity
  8
LC-002-002-----0
 62
     7
370
    50
100
AcDbCircle
 10
771.921482
 20
626.7301
 30
0.0
 40
29.6025923914001
100
AcDbArc
 50
53.522709
 51
68.309138
  0
LINE
  5
4AF
330
1F
100
AcDbEntity
  8
LC-011-205-----0
 62
     7
370
    50
100
AcDbLine
 10
789.520346
 20
650.533324
 30
0.0
 11
789.520346
 21
648.7301
 31
0.0
  0
LINE
  5
4B0
330
1F
100
AcDbEntity
  8
LC-011-205-----0
 62
     7
370
    50
100
AcDbLine
 10
789.520346
 20
648.7301
 30
0.0
 11
789.520346
 21
604.7301
 31
0.0
  0
LINE
  5
4B1
330
1F
100
AcDbEntity
  8
LC-002-002-----0
 62
     7
370
    50
100
AcDbLine
 10
699.41472
 20
558.699676
 30
0.0
 11
645.421038
 21
558.699676
 31
0.0
  0
LINE
  5
4B2
330
1F
100
AcDbEntity
  8
LC-011-205-----0
 62
     7
370
    50
100
AcDbLine
 10
789.520346
 20
604.7301
 30
0.0
 11
789.520346
 21
602.9301
 31
0.0
  0
LINE
  5
4B3
330
1F
100
AcDbEntity
  8
LC-011-205-----0
 62
     7
370
    50
100
AcDbLine
 10
778.520346
 20
601.7301
 30
0.0
 11
782.020346
 21
601.7301
 31
0.0
  0
ARC
  5
4B4
330
1F
100
AcDbEntity
  8
LC-011-205-----0
 62
     7
370
    50
100
AcDbCircle
 10
782.020346
 20
601.2301
 30
0.0
 40
0.5
100
AcDbArc
 50
0.0
 51
90.0
  0
LINE
  5
4B5
330
1F
100
AcDbEntity
  8
LC-011-205-----0
 62
     7
370
    50
100
AcDbLine
 10
782.520346
 20
601.2301
 30
0.0
 11
782.520346
 21
599.532586
 31
0.0
  0
LINE
  5
4B6
330
1F
100
AcDbEntity
  8
LC-004-006-MLN-0
 62
     7
370
    25
100
AcDbLine
 10
725.960354
 20
626.7301
 30
0.0
 11
811.555876
 21
626.7301
 31
0.0
  0
ARC
  5
4B7
330
1F
100
AcDbEntity
  8
LC-011-205-----0
 62
     7
370
    50
100
AcDbCircle
 10
782.820346
 20
599.532586
 30
0.0
 40
0.2999999999997272
100
AcDbArc
 50
180.0
 51
291.837464
  0
ARC
  5
4B8
330
1F
100
AcDbEntity
  8
LC-011-205-----0
 62
     7
370
    50
100
AcDbCircle
 10
771.921482
 20
626.7301
 30
0.0
 40
29.60000000000002
100
AcDbArc
 50
291.837464
 51
306.482667
  0
LINE
  5
4B9
330
1F
100
AcDbEntity
  8
LC-002-002-----0
 62
     7
370
    50
100
AcDbLine
 10
746.501417
 20
604.7301
 30
0.0
 11
789.520346
 21
604.7301
 31
0.0
  0
LINE
  5
4BA
330
1F
100
AcDbEntity
  8
LC-011-205-----0
 62
     7
370
    50
100
AcDbLine
 10
778.020346
 20
655.273541
 30
0.0
 11
778.020346
 21
652.2301
 31
0.0
  0
LINE
  5
4BB
330
1F
100
AcDbEntity
  8
LC-011-205-----0
 62
     7
370
    50
100
AcDbLine
 10
782.520346
 20
654.004792
 30
0.0
 11
782.520346
 21
652.2301
 31
0.0
  0
LINE
  5
4BC
330
1F
100
AcDbEntity
  8
LC-011-205-----0
 62
     7
370
    50
100
AcDbLine
 10
778.520346
 20
651.7301
 30
0.0
 11
782.020346
 21
651.7301
 31
0.0
  0
ARC
  5
4BD
330
1F
100
AcDbEntity
  8
LC-011-205-----0
 62
     7
370
    50
100
AcDbCircle
 10
778.520346
 20
652.2301
 30
0.0
 40
0.5
100
AcDbArc
 50
180.0
 51
270.0
  0
LINE
  5
4BE
330
1F
100
AcDbEntity
  8
LC-011-205-----0
 62
     7
370
    50
100
AcDbLine
 10
778.020346
 20
601.2301
 30
0.0
 11
778.020346
 21
597.968784
 31
0.0
  0
ARC
  5
4BF
330
1F
100
AcDbEntity
  8
LC-011-205-----0
 62
     7
370
    50
100
AcDbCircle
 10
778.520346
 20
601.2301
 30
0.0
 40
0.5
100
AcDbArc
 50
90.0
 51
180.0
  0
ARC
  5
4C0
330
1F
100
AcDbEntity
  8
LC-011-205-----0
 62
     7
370
    50
100
AcDbCircle
 10
782.770346
 20
654.004792
 30
0.0
 40
0.2500000000000429
100
AcDbArc
 50
68.305797
 51
180.0
  0
ARC
  5
4C1
330
1F
100
AcDbEntity
  8
LC-011-205-----0
 62
     7
370
    50
100
AcDbCircle
 10
777.770346
 20
597.968784
 30
0.0
 40
0.2499999999637476
100
AcDbArc
 50
299.859129
 51
0.0
  0
LINE
  5
4C2
330
1F
100
AcDbEntity
  8
LC-011-205-----0
 62
     7
370
    50
100
AcDbLine
 10
747.012116
 20
601.7301
 30
0.0
 11
753.920346
 21
601.7301
 31
0.0
  0
ARC
  5
4C3
330
1F
100
AcDbEntity
  8
LC-003-002-RND-0
 62
     7
370
    50
100
AcDbCircle
 10
645.421038
 20
568.699676
 30
0.0
 40
13.0
100
AcDbArc
 50
180.0
 51
270.0
  0
ARC
  5
4C4
330
1F
100
AcDbEntity
  8
LC-003-002-RND-0
 62
     7
370
    50
100
AcDbCircle
 10
699.41472
 20
568.699676
 30
0.0
 40
13.0
100
AcDbArc
 50
270.0
 51
0.0
  0
LINE
  5
4C5
330
1F
100
AcDbEntity
  8
LC-002-002-----0
 62
     7
370
    50
100
AcDbLine
 10
709.41472
 20
568.699676
 30
0.0
 11
709.41472
 21
627.649841
 31
0.0
  0
ARC
  5
4C6
330
1F
100
AcDbEntity
  8
LC-003-002-RND-0
 62
     7
370
    50
100
AcDbCircle
 10
645.421038
 20
568.699676
 30
0.0
 40
10.0
100
AcDbArc
 50
180.0
 51
270.0
  0
ARC
  5
4C7
330
1F
100
AcDbEntity
  8
LC-003-002-RND-0
 62
     7
370
    50
100
AcDbCircle
 10
699.41472
 20
568.699676
 30
0.0
 40
10.0
100
AcDbArc
 50
270.0
 51
360.0
  0
LINE
  5
4C8
330
1F
100
AcDbEntity
  8
LC-002-002-----0
 62
     7
370
    50
100
AcDbLine
 10
712.41472
 20
625.66267
 30
0.0
 11
712.41472
 21
568.699676
 31
0.0
  0
LINE
  5
4C9
330
1F
100
AcDbEntity
  8
LC-002-002-----0
 62
     7
370
    50
100
AcDbLine
 10
789.520346
 20
648.7301
 30
0.0
 11
745.42115
 21
648.7301
 31
0.0
  0
LINE
  5
4CA
330
1F
100
AcDbEntity
  8
LC-002-002-----0
 62
     7
370
    50
100
AcDbLine
 10
611.420516
 20
661.200521
 30
0.0
 11
611.420516
 21
654.699841
 31
0.0
  0
LINE
  5
4CB
330
1F
100
AcDbEntity
  8
LC-002-002-----0
 62
     7
370
    50
100
AcDbLine
 10
699.41472
 20
555.699676
 30
0.0
 11
645.421038
 21
555.699676
 31
0.0
  0
DIMENSION
  5
4CC
330
1F
100
AcDbEntity
  8
LC-006-003-----0
 62
     7
370
    25
100
AcDbDimension
  2
*D25
 10
742.421038
 20
509.6
 30
0.0
 11
687.421038
 21
540.4
 31
0.0
 70
   160
  1
%%c<>
 71
     5
 42
110.0
  3
LC-DIM-L-0140-02-02
100
AcDbAlignedDimension
 13
632.421038
 23
568.699676
 33
0.0
 14
742.421038
 24
555.699676
 34
0.0
100
AcDbRotatedDimension
  0
DIMENSION
  5
4D9
330
1F
100
AcDbEntity
  8
LC-006-003-----0
 62
     7
370
    25
100
AcDbDimension
  2
*D26
 10
687.421038
 20
462.0
 30
0.0
 11
632.421038
 21
492.8
 31
0.0
 70
   160
 71
     5
 42
110.0
  3
LC-DIM-L-0140-02-02
100
AcDbAlignedDimension
 13
577.421038
 23
608.699841
 33
0.0
 14
687.421038
 24
498.259
 34
0.0
100
AcDbRotatedDimension
  0
LINE
  5
4E6
102
{ACAD_REACTORS
330
4FA
102
}
330
1F
100
AcDbEntity
  8
LC-002-002-----0
 62
     7
370
    50
100
AcDbLine
 10
774.769968
 20
664.2301
 30
0.0
 11
783.800369
 21
664.2301
 31
0.0
  0
LINE
  5
4E7
102
{ACAD_REACTORS
330
4FA
102
}
330
1F
100
AcDbEntity
  8
LC-002-002-----0
 62
     7
370
    50
100
AcDbLine
 10
770.451139
 20
661.2301
 30
0.0
 11
782.557728
 21
661.2301
 31
0.0
  0
LINE
  5
4E8
102
{ACAD_REACTORS
330
4FA
102
}
330
1F
100
AcDbEntity
  8
LC-002-002-----0
 62
     7
370
    50
100
AcDbLine
 10
782.557728
 20
661.2301
 30
0.0
 11
787.171482
 21
656.616346
 31
0.0
  0
LINE
  5
4E9
102
{ACAD_REACTORS
330
4FA
102
}
330
1F
100
AcDbEntity
  8
LC-002-002-----0
 62
     7
370
    50
100
AcDbLine
 10
787.171482
 20
655.430057
 30
0.0
 11
787.171482
 21
660.858986
 31
0.0
  0
LINE
  5
4EA
102
{ACAD_REACTORS
330
4FA
102
}
330
1F
100
AcDbEntity
  8
LC-002-002-----0
 62
     7
370
    50
100
AcDbLine
 10
787.171482
 20
660.858986
 30
0.0
 11
783.800369
 21
664.2301
 31
0.0
  0
LINE
  5
4EB
102
{ACAD_REACTORS
330
4FA
102
}
330
1F
100
AcDbEntity
  8
LC-002-002-----0
 62
     7
370
    50
100
AcDbLine
 10
787.171482
 20
598.030144
 30
0.0
 11
787.171482
 21
592.601213
 31
0.0
  0
LINE
  5
4EC
102
{ACAD_REACTORS
330
4FA
102
}
330
1F
100
AcDbEntity
  8
LC-002-002-----0
 62
     7
370
    50
100
AcDbLine
 10
787.171482
 20
592.601213
 30
0.0
 11
783.800369
 21
589.2301
 31
0.0
  0
LINE
  5
4ED
102
{ACAD_REACTORS
330
4FA
102
}
330
1F
100
AcDbEntity
  8
LC-002-002-----0
 62
     7
370
    50
100
AcDbLine
 10
759.679604
 20
589.2301
 30
0.0
 11
750.171482
 21
598.738177
 31
0.0
  0
LINE
  5
4EE
102
{ACAD_REACTORS
330
4FA
102
}
330
1F
100
AcDbEntity
  8
LC-002-002-----0
 62
     7
370
    50
100
AcDbLine
 10
750.171482
 20
598.738177
 30
0.0
 11
744.171482
 21
598.738177
 31
0.0
  0
LINE
  5
4EF
102
{ACAD_REACTORS
330
4FA
102
}
330
1F
100
AcDbEntity
  8
LC-002-002-----0
 62
     7
370
    50
100
AcDbLine
 10
744.171482
 20
598.738177
 30
0.0
 11
744.171482
 21
601.7301
 31
0.0
  0
LINE
  5
4F0
102
{ACAD_REACTORS
330
4FA
102
}
330
1F
100
AcDbEntity
  8
LC-002-002-----0
 62
     7
370
    50
100
AcDbLine
 10
744.171482
 20
601.4801
 30
0.0
 11
751.6722
 21
601.4801
 31
0.0
  0
LINE
  5
4F1
102
{ACAD_REACTORS
330
4FA
102
}
330
1F
100
AcDbEntity
  8
LC-002-002-----0
 62
     7
370
    50
100
AcDbLine
 10
751.6722
 20
601.4801
 30
0.0
 11
760.9222
 21
592.2301
 31
0.0
  0
LINE
  5
4F2
102
{ACAD_REACTORS
330
4FA
102
}
330
1F
100
AcDbEntity
  8
LC-002-002-----0
 62
     7
370
    50
100
AcDbLine
 10
760.9222
 20
592.2301
 30
0.0
 11
782.557728
 21
592.2301
 31
0.0
  0
LINE
  5
4F3
102
{ACAD_REACTORS
330
4FA
102
}
330
1F
100
AcDbEntity
  8
LC-002-002-----0
 62
     7
370
    50
100
AcDbLine
 10
782.557728
 20
592.2301
 30
0.0
 11
787.171482
 21
596.843854
 31
0.0
  0
LINE
  5
4F4
102
{ACAD_REACTORS
330
4FA
102
}
330
1F
100
AcDbEntity
  8
LC-002-002-----0
 62
     7
370
    50
100
AcDbLine
 10
759.679604
 20
589.2301
 30
0.0
 11
783.800369
 21
589.2301
 31
0.0
  0
ENDSEC
  0
SECTION
  2
OBJECTS
  0
DICTIONARY
  5
C
330
0
100
AcDbDictionary
281
     1
  3
ACAD_GROUP
350
D
  3
ACAD_LAYOUT
350
1A
  3
ACAD_MLINESTYLE
350
17
  3
ACAD_PLOTSETTINGS
350
19
  3
ACAD_PLOTSTYLENAME
350
E
  0
DICTIONARY
  5
D
102
{ACAD_REACTORS
330
C
102
}
330
C
100
AcDbDictionary
281
     1
  3
LCGROUP158
350
4F8
  3
LCGROUP186
350
4F9
  3
LCGROUP215
350
4FC
  3
LCGROUP218
350
4FB
  3
LCGROUP4290
350
4FA
  3
LCGROUP507
350
4FD
  3
LCGROUP620
350
4F6
  3
LCGROUP877
350
4F5
  3
LCGROUP96
350
4F7
  0
DICTIONARY
  5
1A
102
{ACAD_REACTORS
330
C
102
}
330
C
100
AcDbDictionary
281
     1
  3
Layout1
350
1E
  3
Layout2
350
26
  3
Model
350
22
  0
DICTIONARY
  5
17
102
{ACAD_REACTORS
330
C
102
}
330
C
100
AcDbDictionary
281
     1
  3
Standard
350
18
  0
DICTIONARY
  5
19
102
{ACAD_REACTORS
330
C
102
}
330
C
100
AcDbDictionary
281
     1
  0
ACDBDICTIONARYWDFLT
  5
E
102
{ACAD_REACTORS
330
C
102
}
330
C
100
AcDbDictionary
281
     1
  3
Normal
350
F
100
AcDbDictionaryWithDefault
340
F
  0
GROUP
  5
4F8
102
{ACAD_REACTORS
330
D
102
}
330
D
100
AcDbGroup
300
GRP158
 70
     1
 71
     1
340
3E2
340
3E4
340
3E6
340
3E7
340
3E9
340
3EA
340
3EB
340
3EE
340
3EF
340
3F0
340
3F6
340
3F7
340
3FF
340
400
340
402
340
404
340
405
340
46E
340
46F
340
470
340
471
340
472
340
473
340
474
340
475
340
476
340
477
340
478
340
479
340
47A
340
47B
340
47C
340
47D
340
47E
340
47F
340
480
340
481
340
482
340
483
340
484
340
485
340
486
340
487
340
488
340
489
340
48A
340
48B
340
48C
340
48D
  0
GROUP
  5
4F9
102
{ACAD_REACTORS
330
D
102
}
330
D
100
AcDbGroup
300
Verschluss SN
 70
     1
 71
     1
340
89
340
A0
340
A2
340
A3
340
A4
340
A5
340
A6
340
A7
340
A8
340
A9
340
AA
340
AB
340
AC
340
AD
340
B0
340
B1
340
B2
340
B4
340
B5
340
F8
340
109
340
11A
340
11B
340
11C
340
11D
340
11E
340
11F
340
120
340
122
340
125
340
127
340
128
340
142
340
148
340
149
340
14A
340
14B
340
14F
340
153
340
154
340
155
340
157
340
158
340
15C
340
15D
  0
GROUP
  5
4FC
102
{ACAD_REACTORS
330
D
102
}
330
D
100
AcDbGroup
300
GRP215
 70
     1
 71
     1
340
159
340
15A
340
15B
340
15E
340
15F
340
160
340
161
340
162
340
163
340
164
340
165
340
168
340
169
340
16A
340
16B
340
16C
340
16D
340
16E
340
16F
340
170
340
171
340
172
340
173
340
18B
340
18C
340
18D
340
18E
340
18F
340
190
340
191
  0
GROUP
  5
4FB
102
{ACAD_REACTORS
330
D
102
}
330
D
100
AcDbGroup
300
GRP218
 70
     1
 71
     1
340
2E5
340
2F4
340
2F7
340
2F8
340
2F9
340
2FA
340
2FB
340
2FC
340
2FD
340
2FE
340
2FF
340
300
340
32E
340
32F
340
330
340
331
340
332
340
333
340
334
340
335
340
336
340
337
340
338
340
339
340
33B
340
33C
340
33D
340
33E
340
33F
340
340
340
341
340
343
340
344
340
345
340
346
340
348
340
349
340
397
340
398
340
39D
340
3BC
340
3BE
340
3C0
340
3C1
340
3C2
340
3C3
340
3C4
340
3C5
340
3C6
340
3CA
340
3CB
340
3CC
340
3CD
340
3CE
340
3CF
340
3D0
  0
GROUP
  5
4FA
102
{ACAD_REACTORS
330
D
102
}
330
D
100
AcDbGroup
300
rohrschelle
 70
     1
 71
     1
340
4E6
340
4E7
340
4E8
340
4E9
340
4EA
340
4EB
340
4EC
340
4ED
340
4EE
340
4EF
340
4F0
340
4F1
340
4F2
340
4F3
340
4F4
  0
GROUP
  5
4FD
102
{ACAD_REACTORS
330
D
102
}
330
D
100
AcDbGroup
300
GRP507
 70
     1
 71
     1
340
2F5
340
301
340
302
340
303
340
304
340
305
340
306
340
307
340
308
340
309
340
30A
340
30B
340
30C
340
30D
340
30E
340
30F
340
310
340
311
340
312
340
313
340
314
340
315
340
326
340
327
340
328
340
329
340
32A
340
32B
340
32C
340
32D
  0
GROUP
  5
4F6
102
{ACAD_REACTORS
330
D
102
}
330
D
100
AcDbGroup
300
ablaufschn
 70
     1
 71
     1
340
1E2
340
3E3
340
3ED
340
401
  0
GROUP
  5
4F5
102
{ACAD_REACTORS
330
D
102
}
330
D
100
AcDbGroup
300
ablaufschn
 70
     1
 71
     1
340
2F6
  0
GROUP
  5
4F7
102
{ACAD_REACTORS
330
D
102
}
330
D
100
AcDbGroup
300
Einlaufbremse SN
 70
     1
 71
     1
340
44
340
46
340
47
340
48
340
49
340
4A
340
4C
340
4D
340
4E
340
4F
340
50
340
51
340
52
340
53
340
54
340
55
340
56
340
57
340
58
340
59
340
81
340
82
340
83
340
84
340
85
340
86
340
87
340
88
340
8A
340
8B
340
8C
340
8D
340
8E
340
8F
340
90
340
91
340
94
340
95
340
96
340
97
340
98
340
99
340
9A
340
9B
340
9C
340
9D
340
9E
340
9F
  0
LAYOUT
  5
1E
102
{ACAD_REACTORS
330
1A
102
}
330
1A
100
AcDbPlotSettings
  1

  2

  4

  6

 40
0.0
 41
0.0
 42
0.0
 43
0.0
 44
0.0
 45
0.0
 46
0.0
 47
0.0
 48
0.0
 49
0.0
140
0.0
141
0.0
142
1.0
143
1.0
 70
   688
 72
     0
 73
     0
 74
     5
  7

 75
    16
147
1.0
148
0.0
149
0.0
100
AcDbLayout
  1
Layout1
 70
     1
 71
     1
 10
265.204691
 20
256.501
 11
1105.204691
 21
850.501
 12
0.0
 22
0.0
 32
0.0
 14
265.204691
 24
256.501
 34
0.0
 15
1105.204691
 25
850.501
 35
0.0
146
0.0
 13
0.0
 23
0.0
 33
0.0
 16
1.0
 26
0.0
 36
0.0
 17
0.0
 27
1.0
 37
0.0
 76
     0
330
1B
  0
LAYOUT
  5
26
102
{ACAD_REACTORS
330
1A
102
}
330
1A
100
AcDbPlotSettings
  1

  2

  4

  6

 40
0.0
 41
0.0
 42
0.0
 43
0.0
 44
0.0
 45
0.0
 46
0.0
 47
0.0
 48
0.0
 49
0.0
140
0.0
141
0.0
142
1.0
143
1.0
 70
   688
 72
     0
 73
     0
 74
     5
  7

 75
    16
147
1.0
148
0.0
149
0.0
100
AcDbLayout
  1
Layout2
 70
     1
 71
     2
 10
0.0
 20
0.0
 11
0.0
 21
0.0
 12
0.0
 22
0.0
 32
0.0
 14
0.0
 24
0.0
 34
0.0
 15
0.0
 25
0.0
 35
0.0
146
0.0
 13
0.0
 23
0.0
 33
0.0
 16
1.0
 26
0.0
 36
0.0
 17
0.0
 27
1.0
 37
0.0
 76
     0
330
23
  0
LAYOUT
  5
22
102
{ACAD_REACTORS
330
1A
102
}
330
1A
100
AcDbPlotSettings
  1

  2

  4

  6

 40
0.0
 41
0.0
 42
0.0
 43
0.0
 44
0.0
 45
0.0
 46
0.0
 47
0.0
 48
0.0
 49
0.0
140
0.0
141
0.0
142
1.0
143
1.0
 70
  1776
 72
     0
 73
     0
 74
     0
  7

 75
     0
147
1.0
148
0.0
149
0.0
100
AcDbLayout
  1
Model
 70
     1
 71
     0
 10
265.204691
 20
256.501
 11
1105.204691
 21
850.501
 12
265.204691
 22
256.501
 32
0.0
 14
265.204691
 24
256.501
 34
0.0
 15
1105.204691
 25
850.501
 35
0.0
146
0.0
 13
0.0
 23
0.0
 33
0.0
 16
1.0
 26
0.0
 36
0.0
 17
0.0
 27
1.0
 37
0.0
 76
     0
330
1F
  0
MLINESTYLE
  5
18
102
{ACAD_REACTORS
330
17
102
}
330
17
100
AcDbMlineStyle
  2
Standard
 70
     0
  3

 62
   256
 51
90.0
 52
90.0
 71
     2
 49
0.5
 62
   256
  6
BYLAYER
 49
-0.5
 62
   256
  6
BYLAYER
  0
ACDBPLACEHOLDER
  5
F
102
{ACAD_REACTORS
330
E
102
}
330
E
  0
ENDSEC
  0
EOF
